  0
SECTION
  2
HEADER
  9
$ACADVER
  1
AC1018
  9
$ACADMAINTVER
 70
     2
  9
$DWGCODEPAGE
  3
ANSI_1252
  9
$INSBASE
 10
0.0
 20
0.0
 30
0.0
  9
$EXTMIN
 10
-0.0512671842575401
 20
-0.0362532231536079
 30
-0.0000000349181948
  9
$EXTMAX
 10
840.0512750076059
 20
594.0362587553789
 30
0.0000000814935746
  9
$LIMMIN
 10
0.0
 20
0.0
  9
$LIMMAX
 10
839.9999999999998
 20
594.0000000000002
  9
$ORTHOMODE
 70
     1
  9
$REGENMODE
 70
     1
  9
$FILLMODE
 70
     1
  9
$QTEXTMODE
 70
     0
  9
$MIRRTEXT
 70
     1
  9
$LTSCALE
 40
20.0
  9
$ATTMODE
 70
     1
  9
$TEXTSIZE
 40
3.5
  9
$TRACEWID
 40
0.5
  9
$TEXTSTYLE
  7
STANDARD
  9
$CLAYER
  8
VOLL
  9
$CELTYPE
  6
BYLAYER
  9
$CECOLOR
 62
   256
  9
$CELTSCALE
 40
1.0
  9
$DISPSILH
 70
     0
  9
$DIMSCALE
 40
2.0
  9
$DIMASZ
 40
3.5
  9
$DIMEXO
 40
1.0
  9
$DIMDLI
 40
7.0
  9
$DIMRND
 40
0.0
  9
$DIMDLE
 40
0.0
  9
$DIMEXE
 40
1.0
  9
$DIMTP
 40
0.0
  9
$DIMTM
 40
0.0
  9
$DIMTXT
 40
3.5
  9
$DIMCEN
 40
1.5
  9
$DIMTSZ
 40
0.0
  9
$DIMTOL
 70
     0
  9
$DIMLIM
 70
     0
  9
$DIMTIH
 70
     0
  9
$DIMTOH
 70
     0
  9
$DIMSE1
 70
     0
  9
$DIMSE2
 70
     0
  9
$DIMTAD
 70
     1
  9
$DIMZIN
 70
     8
  9
$DIMBLK
  1

  9
$DIMASO
 70
     1
  9
$DIMSHO
 70
     0
  9
$DIMPOST
  1

  9
$DIMAPOST
  1

  9
$DIMALT
 70
     0
  9
$DIMALTD
 70
     2
  9
$DIMALTF
 40
25.4
  9
$DIMLFAC
 40
1.0
  9
$DIMTOFL
 70
     1
  9
$DIMTVP
 40
0.0
  9
$DIMTIX
 70
     0
  9
$DIMSOXD
 70
     0
  9
$DIMSAH
 70
     0
  9
$DIMBLK1
  1

  9
$DIMBLK2
  1

  9
$DIMSTYLE
  2
STANDARD
  9
$DIMCLRD
 70
     0
  9
$DIMCLRE
 70
     0
  9
$DIMCLRT
 70
     1
  9
$DIMTFAC
 40
1.0
  9
$DIMGAP
 40
1.5
  9
$DIMJUST
 70
     0
  9
$DIMSD1
 70
     0
  9
$DIMSD2
 70
     0
  9
$DIMTOLJ
 70
     1
  9
$DIMTZIN
 70
     8
  9
$DIMALTZ
 70
     8
  9
$DIMALTTZ
 70
     8
  9
$DIMUPT
 70
     0
  9
$DIMDEC
 70
     2
  9
$DIMTDEC
 70
     2
  9
$DIMALTU
 70
     2
  9
$DIMALTTD
 70
     2
  9
$DIMTXSTY
  7
STANDARD
  9
$DIMAUNIT
 70
     0
  9
$DIMADEC
 70
     2
  9
$DIMALTRND
 40
0.0
  9
$DIMAZIN
 70
     2
  9
$DIMDSEP
 70
    46
  9
$DIMATFIT
 70
     3
  9
$DIMFRAC
 70
     0
  9
$DIMLDRBLK
  1

  9
$DIMLUNIT
 70
     2
  9
$DIMLWD
 70
    -2
  9
$DIMLWE
 70
    -2
  9
$DIMTMOVE
 70
     0
  9
$LUNITS
 70
     2
  9
$LUPREC
 70
     2
  9
$SKETCHINC
 40
1.0
  9
$FILLETRAD
 40
0.0
  9
$AUNITS
 70
     0
  9
$AUPREC
 70
     0
  9
$MENU
  1
ACAD
  9
$ELEVATION
 40
0.0
  9
$PELEVATION
 40
0.0
  9
$THICKNESS
 40
0.0
  9
$LIMCHECK
 70
     0
  9
$CHAMFERA
 40
0.0
  9
$CHAMFERB
 40
0.0
  9
$CHAMFERC
 40
0.0
  9
$CHAMFERD
 40
0.0
  9
$SKPOLY
 70
     0
  9
$TDCREATE
 40
2451449.458159259
  9
$TDUCREATE
 40
2451449.416492593
  9
$TDUPDATE
 40
2455554.515554884
  9
$TDUUPDATE
 40
2455554.473888218
  9
$TDINDWG
 40
0.0649378819
  9
$TDUSRTIMER
 40
0.0649378819
  9
$USRTIMER
 70
     1
  9
$ANGBASE
 50
0.0
  9
$ANGDIR
 70
     0
  9
$PDMODE
 70
     0
  9
$PDSIZE
 40
0.0
  9
$PLINEWID
 40
0.0
  9
$SPLFRAME
 70
     0
  9
$SPLINETYPE
 70
     6
  9
$SPLINESEGS
 70
     8
  9
$HANDSEED
  5
C38
  9
$SURFTAB1
 70
     6
  9
$SURFTAB2
 70
     6
  9
$SURFTYPE
 70
     6
  9
$SURFU
 70
     6
  9
$SURFV
 70
     6
  9
$UCSBASE
  2

  9
$UCSNAME
  2

  9
$UCSORG
 10
0.0
 20
0.0
 30
0.0
  9
$UCSXDIR
 10
1.0
 20
0.0
 30
0.0
  9
$UCSYDIR
 10
0.0
 20
1.0
 30
0.0
  9
$UCSORTHOREF
  2

  9
$UCSORTHOVIEW
 70
     0
  9
$UCSORGTOP
 10
0.0
 20
0.0
 30
0.0
  9
$UCSORGBOTTOM
 10
0.0
 20
0.0
 30
0.0
  9
$UCSORGLEFT
 10
0.0
 20
0.0
 30
0.0
  9
$UCSORGRIGHT
 10
0.0
 20
0.0
 30
0.0
  9
$UCSORGFRONT
 10
0.0
 20
0.0
 30
0.0
  9
$UCSORGBACK
 10
0.0
 20
0.0
 30
0.0
  9
$PUCSBASE
  2

  9
$PUCSNAME
  2

  9
$PUCSORG
 10
0.0
 20
0.0
 30
0.0
  9
$PUCSXDIR
 10
1.0
 20
0.0
 30
0.0
  9
$PUCSYDIR
 10
0.0
 20
1.0
 30
0.0
  9
$PUCSORTHOREF
  2

  9
$PUCSORTHOVIEW
 70
     0
  9
$PUCSORGTOP
 10
0.0
 20
0.0
 30
0.0
  9
$PUCSORGBOTTOM
 10
0.0
 20
0.0
 30
0.0
  9
$PUCSORGLEFT
 10
0.0
 20
0.0
 30
0.0
  9
$PUCSORGRIGHT
 10
0.0
 20
0.0
 30
0.0
  9
$PUCSORGFRONT
 10
0.0
 20
0.0
 30
0.0
  9
$PUCSORGBACK
 10
0.0
 20
0.0
 30
0.0
  9
$USERI1
 70
     0
  9
$USERI2
 70
     0
  9
$USERI3
 70
     0
  9
$USERI4
 70
     0
  9
$USERI5
 70
     0
  9
$USERR1
 40
0.0
  9
$USERR2
 40
0.0
  9
$USERR3
 40
0.0
  9
$USERR4
 40
0.0
  9
$USERR5
 40
0.0
  9
$WORLDVIEW
 70
     1
  9
$SHADEDGE
 70
     3
  9
$SHADEDIF
 70
    70
  9
$TILEMODE
 70
     1
  9
$MAXACTVP
 70
    16
  9
$PINSBASE
 10
0.0
 20
0.0
 30
0.0
  9
$PLIMCHECK
 70
     0
  9
$PEXTMIN
 10
1.000000000000000E+20
 20
1.000000000000000E+20
 30
1.000000000000000E+20
  9
$PEXTMAX
 10
-1.000000000000000E+20
 20
-1.000000000000000E+20
 30
-1.000000000000000E+20
  9
$PLIMMIN
 10
0.0
 20
0.0
  9
$PLIMMAX
 10
12.0
 20
9.0
  9
$UNITMODE
 70
     0
  9
$VISRETAIN
 70
     0
  9
$PLINEGEN
 70
     0
  9
$PSLTSCALE
 70
     0
  9
$TREEDEPTH
 70
  3020
  9
$CMLSTYLE
  2
STANDARD
  9
$CMLJUST
 70
     0
  9
$CMLSCALE
 40
1.0
  9
$PROXYGRAPHICS
 70
     1
  9
$MEASUREMENT
 70
     0
  9
$CELWEIGHT
370
    -1
  9
$ENDCAPS
280
     0
  9
$JOINSTYLE
280
     0
  9
$LWDISPLAY
290
     0
  9
$INSUNITS
 70
     0
  9
$HYPERLINKBASE
  1

  9
$STYLESHEET
  1
monochrome 1.ctb
  9
$XEDIT
290
     1
  9
$CEPSNTYPE
380
     0
  9
$PSTYLEMODE
290
     1
  9
$FINGERPRINTGUID
  2
{16B676D3-35B7-4285-9738-D80BAB554CD9}
  9
$VERSIONGUID
  2
{795AEB08-3947-4066-9DEF-B484447EDE12}
  9
$EXTNAMES
290
     1
  9
$PSVPSCALE
 40
0.0
  9
$OLESTARTUP
290
     0
  9
$SORTENTS
280
   127
  9
$INDEXCTL
280
     0
  9
$HIDETEXT
280
     0
  9
$XCLIPFRAME
290
     0
  9
$HALOGAP
280
     0
  9
$OBSCOLOR
 70
   257
  9
$OBSLTYPE
280
     0
  9
$INTERSECTIONDISPLAY
280
     0
  9
$INTERSECTIONCOLOR
 70
   257
  9
$DIMASSOC
280
     1
  9
$PROJECTNAME
  1

  0
ENDSEC
  0
SECTION
  2
CLASSES
  0
CLASS
  1
DICTIONARYVAR
  2
AcDbDictionaryVar
  3
ObjectDBX Classes
 90
        0
 91
        2
280
     0
281
     0
  0
CLASS
  1
ACDBDICTIONARYWDFLT
  2
AcDbDictionaryWithDefault
  3
ObjectDBX Classes
 90
        0
 91
        1
280
     0
281
     0
  0
ENDSEC
  0
SECTION
  2
TABLES
  0
TABLE
  2
VPORT
  5
12
330
0
100
AcDbSymbolTable
 70
     2
  0
VPORT
  5
C37
330
12
100
AcDbSymbolTableRecord
100
AcDbViewportTableRecord
  2
*Active
 70
     0
 10
0.0
 20
0.0
 11
1.0
 21
1.0
 12
420.0000039116742
 22
297.0000027661127
 13
0.0
 23
0.0
 14
1.0
 24
1.0
 15
20.0
 25
20.0
 16
0.0
 26
0.0
 36
1.0
 17
0.0
 27
0.0
 37
0.0
 40
632.1787407146647
 41
1.336927223719676
 42
50.0
 43
0.0
 44
0.0
 50
0.0
 51
0.0
 71
     0
 72
  1500
 73
     1
 74
     0
 75
     0
 76
     0
 77
     0
 78
     0
281
     0
 65
     1
110
0.0
120
0.0
130
0.0
111
1.0
121
0.0
131
0.0
112
0.0
122
1.0
132
0.0
 79
     0
146
0.0
  0
ENDTAB
  0
TABLE
  2
LTYPE
  5
D
330
0
100
AcDbSymbolTable
 70
     3
  0
LTYPE
  5
E
330
D
100
AcDbSymbolTableRecord
100
AcDbLinetypeTableRecord
  2
BYBLOCK
 70
     0
  3

 72
    65
 73
     0
 40
0.0
  0
LTYPE
  5
F
330
D
100
AcDbSymbolTableRecord
100
AcDbLinetypeTableRecord
  2
BYLAYER
 70
     0
  3

 72
    65
 73
     0
 40
0.0
  0
LTYPE
  5
5
330
D
100
AcDbSymbolTableRecord
100
AcDbLinetypeTableRecord
  2
AUSGEZOGEN
 70
     0
  3
Ausgezogene Linie
 72
    65
 73
     0
 40
0.0
  0
LTYPE
  5
368
330
D
100
AcDbSymbolTableRecord
100
AcDbLinetypeTableRecord
  2
STRICHPUNKT
 70
     0
  3
__ . __ . __ . __ . __ . __ . __ . __ . __ . __
 72
    65
 73
     4
 40
1.0
 49
0.5
 74
     0
 49
-0.25
 74
     0
 49
0.0
 74
     0
 49
-0.25
 74
     0
  0
LTYPE
  5
779
330
D
100
AcDbSymbolTableRecord
100
AcDbLinetypeTableRecord
  2
CONTINUOUS
 70
     0
  3
Solid line
 72
    65
 73
     0
 40
0.0
  0
ENDTAB
  0
TABLE
  2
LAYER
  5
A
330
0
100
AcDbSymbolTable
 70
     9
  0
LAYER
  5
4
330
A
100
AcDbSymbolTableRecord
100
AcDbLayerTableRecord
  2
0
 70
     0
 62
     7
  6
AUSGEZOGEN
370
    -3
390
9BA
  0
LAYER
  5
551
330
A
100
AcDbSymbolTableRecord
100
AcDbLayerTableRecord
  2
VOLL
 70
     0
 62
     1
  6
AUSGEZOGEN
370
    -3
390
9BA
  0
LAYER
  5
22
330
A
100
AcDbSymbolTableRecord
100
AcDbLayerTableRecord
  2
HILF
 70
     0
 62
     2
  6
AUSGEZOGEN
370
    -3
390
9BA
  0
LAYER
  5
367
330
A
100
AcDbSymbolTableRecord
100
AcDbLayerTableRecord
  2
MITTEL
 70
     0
 62
     2
  6
STRICHPUNKT
370
    -3
390
9BA
  0
LAYER
  5
153
330
A
100
AcDbSymbolTableRecord
100
AcDbLayerTableRecord
  2
BEM
 70
     0
 62
     7
  6
AUSGEZOGEN
370
    -3
390
9BA
  0
LAYER
  5
20
330
A
100
AcDbSymbolTableRecord
100
AcDbLayerTableRecord
  2
STEMPEL
 70
     0
 62
     3
  6
AUSGEZOGEN
370
    -3
390
9BA
  0
LAYER
  5
522
330
A
100
AcDbSymbolTableRecord
100
AcDbLayerTableRecord
  2
TEXT
 70
     0
 62
     7
  6
AUSGEZOGEN
370
    -3
390
9BA
  0
LAYER
  5
15D
330
A
100
AcDbSymbolTableRecord
100
AcDbLayerTableRecord
  2
DEFPOINTS
 70
     0
 62
     7
  6
AUSGEZOGEN
290
     0
370
    -3
390
9BA
  0
LAYER
  5
1B
330
A
100
AcDbSymbolTableRecord
100
AcDbLayerTableRecord
  2
SCHRAFF
 70
     0
 62
     7
  6
AUSGEZOGEN
370
    -3
390
9BA
  0
ENDTAB
  0
TABLE
  2
STYLE
  5
B
330
0
100
AcDbSymbolTable
 70
     2
  0
STYLE
  5
C
330
B
100
AcDbSymbolTableRecord
100
AcDbTextStyleTableRecord
  2
STANDARD
 70
     0
 40
0.0
 41
0.8
 50
0.0
 71
     0
 42
3.5
  3
simplex.shx
  4

  0
STYLE
  5
1C
330
B
100
AcDbSymbolTableRecord
100
AcDbTextStyleTableRecord
  2
GREEKS
 70
     0
 40
0.0
 41
0.8
 50
0.0
 71
     0
 42
2.5
  3
SIMPLEX.shx
  4

  0
ENDTAB
  0
TABLE
  2
VIEW
  5
10
330
0
100
AcDbSymbolTable
 70
     0
  0
ENDTAB
  0
TABLE
  2
UCS
  5
11
330
0
100
AcDbSymbolTable
 70
     0
  0
ENDTAB
  0
TABLE
  2
APPID
  5
14
330
0
100
AcDbSymbolTable
 70
     1
  0
APPID
  5
15
330
14
100
AcDbSymbolTableRecord
100
AcDbRegAppTableRecord
  2
ACAD
 70
     0
  0
ENDTAB
  0
TABLE
  2
DIMSTYLE
  5
16
330
0
100
AcDbSymbolTable
 70
     1
100
AcDbDimStyleTable
 71
     1
340
1E
  0
DIMSTYLE
105
1E
102
{ACAD_REACTORS
330
6C0
330
152
330
880
330
881
330
358
330
BDD
330
BEA
102
}
330
16
100
AcDbSymbolTableRecord
100
AcDbDimStyleTableRecord
  2
STANDARD
 70
     0
 40
2.0
 41
3.5
 42
1.0
 43
7.0
 44
1.0
 73
     0
 74
     0
 77
     1
 78
     8
 79
     2
140
3.5
141
1.5
147
1.5
172
     1
178
     1
179
     2
271
     2
272
     2
284
     8
285
     8
286
     8
340
C
  0
ENDTAB
  0
TABLE
  2
BLOCK_RECORD
  5
1
330
0
100
AcDbSymbolTable
 70
     9
  0
BLOCK_RECORD
  5
2
330
1
100
AcDbSymbolTableRecord
100
AcDbBlockTableRecord
  2
*MODEL_SPACE
340
9BF
  0
BLOCK_RECORD
  5
7
330
1
100
AcDbSymbolTableRecord
100
AcDbBlockTableRecord
  2
*PAPER_SPACE
340
9C0
  0
BLOCK_RECORD
  5
556
330
1
100
AcDbSymbolTableRecord
100
AcDbBlockTableRecord
  2
LOGO
340
0
102
{BLKREFS
331
555
102
}
  0
BLOCK_RECORD
  5
5D2
330
1
100
AcDbSymbolTableRecord
100
AcDbBlockTableRecord
  2
*D1
340
0
  0
BLOCK_RECORD
  5
69C
330
1
100
AcDbSymbolTableRecord
100
AcDbBlockTableRecord
  2
*D2
340
0
  0
BLOCK_RECORD
  5
6B4
330
1
100
AcDbSymbolTableRecord
100
AcDbBlockTableRecord
  2
*D3
340
0
  0
BLOCK_RECORD
  5
8EC
330
1
100
AcDbSymbolTableRecord
100
AcDbBlockTableRecord
  2
*D4
340
0
  0
BLOCK_RECORD
  5
8F8
330
1
100
AcDbSymbolTableRecord
100
AcDbBlockTableRecord
  2
*D5
340
0
  0
BLOCK_RECORD
  5
BD1
330
1
100
AcDbSymbolTableRecord
100
AcDbBlockTableRecord
  2
*D6
340
0
  0
BLOCK_RECORD
  5
BDE
330
1
100
AcDbSymbolTableRecord
100
AcDbBlockTableRecord
  2
*D7
340
0
  0
BLOCK_RECORD
  5
BEB
330
1
100
AcDbSymbolTableRecord
100
AcDbBlockTableRecord
  2
*D8
340
0
  0
ENDTAB
  0
ENDSEC
  0
SECTION
  2
BLOCKS
  0
BLOCK
  5
3
330
2
100
AcDbEntity
  8
0
100
AcDbBlockBegin
  2
*MODEL_SPACE
 70
     0
 10
0.0
 20
0.0
 30
0.0
  3
*MODEL_SPACE
  1

  0
ENDBLK
  5
6
330
2
100
AcDbEntity
  8
0
100
AcDbBlockEnd
  0
BLOCK
  5
8
330
7
100
AcDbEntity
 67
     1
  8
0
100
AcDbBlockBegin
  2
*PAPER_SPACE
 70
     0
 10
0.0
 20
0.0
 30
0.0
  3
*PAPER_SPACE
  1

  0
ENDBLK
  5
9
330
7
100
AcDbEntity
 67
     1
  8
0
100
AcDbBlockEnd
  0
BLOCK
  5
571
330
556
100
AcDbEntity
  8
0
100
AcDbBlockBegin
  2
LOGO
 70
     0
 10
0.0
 20
0.0
 30
0.0
  3
LOGO
  1

  0
ARC
  5
557
330
556
100
AcDbEntity
  8
0
100
AcDbCircle
 10
11.59973089678112
 20
-9.271599258481501
 30
0.0
 40
4.5
100
AcDbArc
 50
270.0
 51
231.0575587310159
  0
LINE
  5
558
330
556
100
AcDbEntity
  8
0
100
AcDbLine
 10
3.599730896781125
 20
-4.771599258481529
 30
0.0
 11
3.599730896781153
 21
-11.77159925848133
 31
0.0
  0
LINE
  5
559
330
556
100
AcDbEntity
  8
0
100
AcDbLine
 10
2.599730896781125
 20
-4.771599258481529
 30
0.0
 11
2.599730896781153
 21
-11.77159925848133
 31
0.0
  0
CIRCLE
  5
55A
330
556
100
AcDbEntity
  8
0
100
AcDbCircle
 10
11.59973089678112
 20
-9.271599258481501
 30
0.0
 40
3.5
  0
ARC
  5
55B
330
556
100
AcDbEntity
  8
0
100
AcDbCircle
 10
31.59973089678115
 20
-9.271599258481472
 30
0.0
 40
4.5
100
AcDbArc
 50
270.0
 51
231.0575587310182
  0
LINE
  5
55C
330
556
100
AcDbEntity
  8
0
100
AcDbLine
 10
17.59973089678112
 20
-4.771599258481472
 30
0.0
 11
17.59973089678115
 21
-13.77159925848147
 31
0.0
  0
ARC
  5
55D
330
556
100
AcDbEntity
  8
0
100
AcDbCircle
 10
22.59973089678116
 20
-7.271599258481472
 30
0.0
 40
2.5
100
AcDbArc
 50
293.1161887722295
 51
90.0
  0
CIRCLE
  5
55E
330
556
100
AcDbEntity
  8
0
100
AcDbCircle
 10
31.59973089678115
 20
-9.271599258481472
 30
0.0
 40
3.5
  0
ARC
  5
55F
330
556
100
AcDbEntity
  8
0
100
AcDbCircle
 10
4.599730896781153
 20
-11.77159925848133
 30
0.0
 40
1.0
100
AcDbArc
 50
180.0
 51
270.0
  0
ARC
  5
560
330
556
100
AcDbEntity
  8
0
100
AcDbCircle
 10
4.599730896781153
 20
-11.77159925848133
 30
0.0
 40
2.0
100
AcDbArc
 50
179.9999999999992
 51
270.0
  0
LINE
  5
561
330
556
100
AcDbEntity
  8
0
100
AcDbLine
 10
11.59973089678115
 20
-13.77159925848144
 30
0.0
 11
4.599730896781153
 21
-13.77159925848147
 31
0.0
  0
LINE
  5
562
330
556
100
AcDbEntity
  8
0
100
AcDbLine
 10
8.771303772034769
 20
-12.77159925848136
 30
0.0
 11
4.599730896781153
 21
-12.77159925848133
 31
0.0
  0
LINE
  5
563
330
556
100
AcDbEntity
  8
0
100
AcDbLine
 10
31.59973089678115
 20
-13.77159925848147
 30
0.0
 11
23.6715276665056
 21
-13.77159925848144
 31
0.0
  0
LINE
  5
564
330
556
100
AcDbEntity
  8
0
100
AcDbLine
 10
23.56565672307022
 20
-9.51278021337896
 30
0.0
 11
24.4388546544846
 21
-12.77159925848144
 31
0.0
  0
LINE
  5
565
330
556
100
AcDbEntity
  8
0
100
AcDbLine
 10
22.59973089678116
 20
-9.771599258481472
 30
0.0
 11
18.59973089678112
 21
-9.771599258481472
 31
0.0
  0
LINE
  5
566
330
556
100
AcDbEntity
  8
0
100
AcDbLine
 10
18.59973089678115
 20
-13.77159925848144
 30
0.0
 11
17.59973089678115
 21
-13.77159925848144
 31
0.0
  0
LINE
  5
567
330
556
100
AcDbEntity
  8
0
100
AcDbLine
 10
18.59973089678115
 20
-9.771599258481472
 30
0.0
 11
18.59973089678115
 21
-13.77159925848144
 31
0.0
  0
LINE
  5
568
330
556
100
AcDbEntity
  8
0
100
AcDbLine
 10
22.59973089678116
 20
-9.771599258481472
 30
0.0
 11
23.67152766650562
 21
-13.77159925848147
 31
0.0
  0
ARC
  5
569
330
556
100
AcDbEntity
  8
0
100
AcDbCircle
 10
22.59973089678116
 20
-7.271599258481472
 30
0.0
 40
2.5
100
AcDbArc
 50
270.0
 51
270.0000000000007
  0
LINE
  5
56A
330
556
100
AcDbEntity
  8
0
100
AcDbLine
 10
28.77130377203494
 20
-12.77159925848147
 30
0.0
 11
24.43885465448463
 21
-12.77159925848144
 31
0.0
  0
LINE
  5
56B
330
556
100
AcDbEntity
  8
0
100
AcDbLine
 10
3.599730896781125
 20
-4.771599258481472
 30
0.0
 11
2.599730896781125
 21
-4.771599258481472
 31
0.0
  0
LINE
  5
56C
330
556
100
AcDbEntity
  8
0
100
AcDbLine
 10
22.59973089678116
 20
-8.771599258481472
 30
0.0
 11
18.59973089678115
 21
-8.771599258481472
 31
0.0
  0
LINE
  5
56D
330
556
100
AcDbEntity
  8
0
100
AcDbLine
 10
22.59973089678116
 20
-5.771599258481472
 30
0.0
 11
18.59973089678115
 21
-5.771599258481472
 31
0.0
  0
LINE
  5
56E
330
556
100
AcDbEntity
  8
0
100
AcDbLine
 10
22.59973089678116
 20
-4.771599258481472
 30
0.0
 11
17.59973089678115
 21
-4.771599258481472
 31
0.0
  0
LINE
  5
56F
330
556
100
AcDbEntity
  8
0
100
AcDbLine
 10
18.59973089678115
 20
-5.771599258481472
 30
0.0
 11
18.59973089678115
 21
-8.771599258481472
 31
0.0
  0
ARC
  5
570
330
556
100
AcDbEntity
  8
0
100
AcDbCircle
 10
22.59973089678116
 20
-7.271599258481472
 30
0.0
 40
1.5
100
AcDbArc
 50
270.0
 51
90.0
  0
ENDBLK
  5
572
330
556
100
AcDbEntity
  8
0
100
AcDbBlockEnd
  0
BLOCK
  5
5DF
330
5D2
100
AcDbEntity
  8
0
100
AcDbBlockBegin
  2
*D1
 70
     1
 10
0.0
 20
0.0
 30
0.0
  3
*D1
  1

  0
LINE
  5
5D3
330
5D2
100
AcDbEntity
  8
0
  6
ByBlock
 62
     0
100
AcDbLine
 10
679.6244083635201
 20
528.0637591112045
 30
0.0
 11
693.3874644990975
 21
528.0637591112045
 31
0.0
  0
LINE
  5
5D4
330
5D2
100
AcDbEntity
  8
0
  6
ByBlock
 62
     0
100
AcDbLine
 10
679.6244083635201
 20
525.0637591112044
 30
0.0
 11
693.3874644990975
 21
525.0637591112044
 31
0.0
  0
LINE
  5
5D5
330
5D2
100
AcDbEntity
  8
0
  6
ByBlock
 62
     0
100
AcDbLine
 10
691.3874644990975
 20
535.0637591112045
 30
0.0
 11
691.3874644990975
 21
542.0637591112044
 31
0.0
  0
LINE
  5
5D6
330
5D2
100
AcDbEntity
  8
0
  6
ByBlock
 62
     0
100
AcDbLine
 10
691.3874644990975
 20
518.0637591112044
 30
0.0
 11
691.3874644990975
 21
511.0637591112045
 31
0.0
  0
LINE
  5
5D7
330
5D2
100
AcDbEntity
  8
0
  6
ByBlock
 62
     0
100
AcDbLine
 10
691.3874644990975
 20
511.0637591112045
 30
0.0
 11
691.3874644990975
 21
507.1504257778711
 31
0.0
  0
SOLID
  5
5D8
330
5D2
100
AcDbEntity
  8
0
  6
ByBlock
 62
     0
100
AcDbTrace
 10
690.2207978324309
 20
535.0637591112045
 30
0.0
 11
692.5541311657641
 21
535.0637591112045
 31
0.0
 12
691.3874644990975
 22
528.0637591112045
 32
0.0
 13
691.3874644990975
 23
528.0637591112045
 33
0.0
  0
SOLID
  5
5D9
330
5D2
100
AcDbEntity
  8
0
  6
ByBlock
 62
     0
100
AcDbTrace
 10
690.2207978324309
 20
518.0637591112044
 30
0.0
 11
692.5541311657641
 21
518.0637591112044
 31
0.0
 12
691.3874644990975
 22
525.0637591112044
 32
0.0
 13
691.3874644990975
 23
525.0637591112044
 33
0.0
  0
LINE
  5
5DA
330
5D2
100
AcDbEntity
  8
0
  6
ByBlock
 62
     0
100
AcDbLine
 10
691.3874644990975
 20
528.0637591112045
 30
0.0
 11
691.3874644990975
 21
525.0637591112044
 31
0.0
  0
TEXT
  5
5DB
330
5D2
100
AcDbEntity
  8
0
  6
ByBlock
 62
     1
100
AcDbText
 10
687.8874644990975
 20
507.1504257778711
 30
0.0
 40
7.0
  1
3
 50
90.0
 41
0.8
  7
GREEKS
 72
     1
 11
684.3874644990975
 21
509.0170924445378
 31
0.0
100
AcDbText
 73
     2
  0
POINT
  5
5DC
330
5D2
100
AcDbEntity
  8
DEFPOINTS
  6
ByBlock
 62
     0
100
AcDbPoint
 10
677.6244083635202
 20
528.0637591112045
 30
0.0
  0
POINT
  5
5DD
330
5D2
100
AcDbEntity
  8
DEFPOINTS
  6
ByBlock
 62
     0
100
AcDbPoint
 10
677.6244083635202
 20
525.0637591112044
 30
0.0
  0
POINT
  5
5DE
330
5D2
100
AcDbEntity
  8
DEFPOINTS
  6
ByBlock
 62
     0
100
AcDbPoint
 10
691.3874644990975
 20
525.0637591112044
 30
0.0
  0
ENDBLK
  5
5E0
330
5D2
100
AcDbEntity
  8
0
100
AcDbBlockEnd
  0
BLOCK
  5
69D
330
69C
100
AcDbEntity
  8
0
100
AcDbBlockBegin
  2
*D2
 70
     1
 10
0.0
 20
0.0
 30
0.0
  3
*D2
  1

  0
LINE
  5
9CB
330
69C
100
AcDbEntity
  8
BEM
 62
     0
370
    -2
100
AcDbLine
 10
238.4415102595506
 20
476.0215536036314
 30
0.0
 11
238.4415102595506
 21
515.0215536036314
 31
0.0
  0
LINE
  5
9CC
330
69C
100
AcDbEntity
  8
BEM
 62
     0
370
    -2
100
AcDbLine
 10
568.4415102595505
 20
476.0215536036314
 30
0.0
 11
568.4415102595505
 21
515.0215536036314
 31
0.0
  0
LINE
  5
9CD
330
69C
100
AcDbEntity
  8
BEM
 62
     0
370
    -2
100
AcDbLine
 10
245.4415102595506
 20
513.0215536036314
 30
0.0
 11
561.4415102595505
 21
513.0215536036314
 31
0.0
  0
SOLID
  5
9CE
330
69C
100
AcDbEntity
  8
BEM
 62
     0
100
AcDbTrace
 10
245.4415102595506
 20
514.188220270298
 30
0.0
 11
245.4415102595506
 21
511.8548869369647
 31
0.0
 12
238.4415102595506
 22
513.0215536036314
 32
0.0
 13
238.4415102595506
 23
513.0215536036314
 33
0.0
  0
SOLID
  5
9CF
330
69C
100
AcDbEntity
  8
BEM
 62
     0
100
AcDbTrace
 10
561.4415102595505
 20
514.188220270298
 30
0.0
 11
561.4415102595505
 21
511.8548869369647
 31
0.0
 12
568.4415102595505
 22
513.0215536036314
 32
0.0
 13
568.4415102595505
 23
513.0215536036314
 33
0.0
  0
MTEXT
  5
9D0
330
69C
100
AcDbEntity
  8
BEM
 62
     1
100
AcDbMText
 10
403.4415102595505
 20
519.5215536036314
 30
0.0
 40
7.0
 41
0.0
 71
     5
 72
     1
  1
\A1;%%c330
 73
     1
 44
1.0
  0
POINT
  5
9D1
330
69C
100
AcDbEntity
  8
DEFPOINTS
 62
     0
100
AcDbPoint
 10
238.4415102595506
 20
474.0215536036314
 30
0.0
  0
POINT
  5
9D2
330
69C
100
AcDbEntity
  8
DEFPOINTS
 62
     0
100
AcDbPoint
 10
568.4415102595505
 20
474.0215536036314
 30
0.0
  0
POINT
  5
9D3
330
69C
100
AcDbEntity
  8
DEFPOINTS
 62
     0
100
AcDbPoint
 10
568.4415102595505
 20
513.0215536036314
 30
0.0
  0
ENDBLK
  5
6A7
330
69C
100
AcDbEntity
  8
0
100
AcDbBlockEnd
  0
BLOCK
  5
6C1
330
6B4
100
AcDbEntity
  8
0
100
AcDbBlockBegin
  2
*D3
 70
     1
 10
0.0
 20
0.0
 30
0.0
  3
*D3
  1

  0
LINE
  5
9C2
330
6B4
100
AcDbEntity
  8
BEM
 62
     0
370
    -2
100
AcDbLine
 10
653.4415102595505
 20
479.0215536036314
 30
0.0
 11
653.4415102595505
 21
531.0215536036314
 31
0.0
  0
LINE
  5
9C3
330
6B4
100
AcDbEntity
  8
BEM
 62
     0
370
    -2
100
AcDbLine
 10
153.4415102595505
 20
479.0215536036314
 30
0.0
 11
153.4415102595505
 21
531.0215536036314
 31
0.0
  0
LINE
  5
9C4
330
6B4
100
AcDbEntity
  8
BEM
 62
     0
370
    -2
100
AcDbLine
 10
646.4415102595506
 20
529.0215536036314
 30
0.0
 11
160.4415102595505
 21
529.0215536036314
 31
0.0
  0
SOLID
  5
9C5
330
6B4
100
AcDbEntity
  8
BEM
 62
     0
100
AcDbTrace
 10
646.4415102595506
 20
530.188220270298
 30
0.0
 11
646.4415102595506
 21
527.8548869369648
 31
0.0
 12
653.4415102595505
 22
529.0215536036314
 32
0.0
 13
653.4415102595505
 23
529.0215536036314
 33
0.0
  0
SOLID
  5
9C6
330
6B4
100
AcDbEntity
  8
BEM
 62
     0
100
AcDbTrace
 10
160.4415102595505
 20
530.188220270298
 30
0.0
 11
160.4415102595505
 21
527.8548869369648
 31
0.0
 12
153.4415102595505
 22
529.0215536036314
 32
0.0
 13
153.4415102595505
 23
529.0215536036314
 33
0.0
  0
MTEXT
  5
9C7
330
6B4
100
AcDbEntity
  8
BEM
 62
     1
100
AcDbMText
 10
403.4415102595505
 20
535.5215536036314
 30
0.0
 40
7.0
 41
0.0
 71
     5
 72
     1
  1
\A1;500
 73
     1
 44
1.0
  0
POINT
  5
9C8
330
6B4
100
AcDbEntity
  8
DEFPOINTS
 62
     0
100
AcDbPoint
 10
653.4415102595505
 20
477.0215536036314
 30
0.0
  0
POINT
  5
9C9
330
6B4
100
AcDbEntity
  8
DEFPOINTS
 62
     0
100
AcDbPoint
 10
153.4415102595505
 20
477.0215536036314
 30
0.0
  0
POINT
  5
9CA
330
6B4
100
AcDbEntity
  8
DEFPOINTS
 62
     0
100
AcDbPoint
 10
153.4415102595505
 20
529.0215536036314
 30
0.0
  0
ENDBLK
  5
6CB
330
6B4
100
AcDbEntity
  8
0
100
AcDbBlockEnd
  0
BLOCK
  5
99E
330
8EC
100
AcDbEntity
  8
0
100
AcDbBlockBegin
  2
*D4
 70
     1
 10
0.0
 20
0.0
 30
0.0
  3
*D4
  1

  0
LINE
  5
9DD
330
8EC
100
AcDbEntity
  8
BEM
 62
     0
370
    -2
100
AcDbLine
 10
293.4415102595506
 20
474.0215536036314
 30
0.0
 11
293.4415102595506
 21
496.0215536036315
 31
0.0
  0
LINE
  5
9DE
330
8EC
100
AcDbEntity
  8
BEM
 62
     0
370
    -2
100
AcDbLine
 10
513.4415102595506
 20
474.0215536036315
 30
0.0
 11
513.4415102595506
 21
496.0215536036315
 31
0.0
  0
LINE
  5
9DF
330
8EC
100
AcDbEntity
  8
BEM
 62
     0
370
    -2
100
AcDbLine
 10
300.4415102595506
 20
494.0215536036316
 30
0.0
 11
506.4415102595505
 21
494.0215536036316
 31
0.0
  0
SOLID
  5
9E0
330
8EC
100
AcDbEntity
  8
BEM
 62
     0
100
AcDbTrace
 10
300.4415102595506
 20
495.1882202702982
 30
0.0
 11
300.4415102595506
 21
492.8548869369648
 31
0.0
 12
293.4415102595506
 22
494.0215536036316
 32
0.0
 13
293.4415102595506
 23
494.0215536036316
 33
0.0
  0
SOLID
  5
9E1
330
8EC
100
AcDbEntity
  8
BEM
 62
     0
100
AcDbTrace
 10
506.4415102595505
 20
495.1882202702982
 30
0.0
 11
506.4415102595505
 21
492.8548869369648
 31
0.0
 12
513.4415102595506
 22
494.0215536036316
 32
0.0
 13
513.4415102595506
 23
494.0215536036316
 33
0.0
  0
MTEXT
  5
9E2
330
8EC
100
AcDbEntity
  8
BEM
 62
     1
100
AcDbMText
 10
403.4415102595505
 20
500.5215536036315
 30
0.0
 40
7.0
 41
0.0
 71
     5
 72
     1
  1
\A1;%%c220
 73
     1
 44
1.0
  0
POINT
  5
9E3
330
8EC
100
AcDbEntity
  8
DEFPOINTS
 62
     0
100
AcDbPoint
 10
293.4415102595506
 20
472.0215536036315
 30
0.0
  0
POINT
  5
9E4
330
8EC
100
AcDbEntity
  8
DEFPOINTS
 62
     0
100
AcDbPoint
 10
513.4415102595506
 20
472.0215536036315
 30
0.0
  0
POINT
  5
9E5
330
8EC
100
AcDbEntity
  8
DEFPOINTS
 62
     0
100
AcDbPoint
 10
513.4415102595506
 20
494.0215536036316
 30
0.0
  0
ENDBLK
  5
9A8
330
8EC
100
AcDbEntity
  8
0
100
AcDbBlockEnd
  0
BLOCK
  5
94C
330
8F8
100
AcDbEntity
  8
0
100
AcDbBlockBegin
  2
*D5
 70
     1
 10
0.0
 20
0.0
 30
0.0
  3
*D5
  1

  0
LINE
  5
BF7
330
8F8
100
AcDbEntity
  8
BEM
 62
     0
370
    -2
100
AcDbLine
 10
336.9415102595506
 20
206.9342317178144
 30
0.0
 11
336.9415102595506
 21
172.4105139239201
 31
0.0
  0
LINE
  5
BF8
330
8F8
100
AcDbEntity
  8
BEM
 62
     0
370
    -2
100
AcDbLine
 10
469.9415102595501
 20
206.9342317178015
 30
0.0
 11
469.9415102595501
 21
172.4105139239201
 31
0.0
  0
LINE
  5
BF9
330
8F8
100
AcDbEntity
  8
BEM
 62
     0
370
    -2
100
AcDbLine
 10
343.9415102595506
 20
174.4105139239201
 30
0.0
 11
462.94151025955
 21
174.4105139239201
 31
0.0
  0
SOLID
  5
BFA
330
8F8
100
AcDbEntity
  8
BEM
 62
     0
100
AcDbTrace
 10
343.9415102595506
 20
175.5771805905868
 30
0.0
 11
343.9415102595506
 21
173.2438472572534
 31
0.0
 12
336.9415102595506
 22
174.4105139239201
 32
0.0
 13
336.9415102595506
 23
174.4105139239201
 33
0.0
  0
SOLID
  5
BFB
330
8F8
100
AcDbEntity
  8
BEM
 62
     0
100
AcDbTrace
 10
462.94151025955
 20
175.5771805905868
 30
0.0
 11
462.94151025955
 21
173.2438472572534
 31
0.0
 12
469.9415102595501
 22
174.4105139239201
 32
0.0
 13
469.9415102595501
 23
174.4105139239201
 33
0.0
  0
MTEXT
  5
BFC
330
8F8
100
AcDbEntity
  8
BEM
 62
     1
100
AcDbMText
 10
403.4415102595503
 20
180.9105139239201
 30
0.0
 40
7.0
 41
0.0
 71
     5
 72
     1
  1
\A1;%%c133
 73
     1
 44
1.0
  0
POINT
  5
BFD
330
8F8
100
AcDbEntity
  8
DEFPOINTS
 62
     0
100
AcDbPoint
 10
336.9415102595506
 20
208.9342317178144
 30
0.0
  0
POINT
  5
BFE
330
8F8
100
AcDbEntity
  8
DEFPOINTS
 62
     0
100
AcDbPoint
 10
469.9415102595501
 20
208.9342317178015
 30
0.0
  0
POINT
  5
BFF
330
8F8
100
AcDbEntity
  8
DEFPOINTS
 62
     0
100
AcDbPoint
 10
469.9415102595501
 20
174.4105139239201
 30
0.0
  0
ENDBLK
  5
956
330
8F8
100
AcDbEntity
  8
0
100
AcDbBlockEnd
  0
BLOCK
  5
BDB
330
BD1
100
AcDbEntity
  8
0
100
AcDbBlockBegin
  2
*D6
 70
     1
 10
0.0
 20
0.0
 30
0.0
  3
*D6
  1

  0
LINE
  5
BD2
330
BD1
100
AcDbEntity
  8
BEM
 62
     0
370
    -2
100
AcDbLine
 10
334.9338705844639
 20
194.0215536036314
 30
0.0
 11
209.4558563684836
 21
194.0215536036314
 31
0.0
  0
LINE
  5
BD3
330
BD1
100
AcDbEntity
  8
BEM
 62
     0
370
    -2
100
AcDbLine
 10
236.4415102595506
 20
474.0215536036314
 30
0.0
 11
209.4558563684836
 21
474.0215536036314
 31
0.0
  0
LINE
  5
BD4
330
BD1
100
AcDbEntity
  8
BEM
 62
     0
370
    -2
100
AcDbLine
 10
211.4558563684836
 20
201.0215536036314
 30
0.0
 11
211.4558563684836
 21
467.0215536036314
 31
0.0
  0
SOLID
  5
BD5
330
BD1
100
AcDbEntity
  8
BEM
 62
     0
100
AcDbTrace
 10
210.2891897018169
 20
201.0215536036314
 30
0.0
 11
212.6225230351503
 21
201.0215536036314
 31
0.0
 12
211.4558563684836
 22
194.0215536036314
 32
0.0
 13
211.4558563684836
 23
194.0215536036314
 33
0.0
  0
SOLID
  5
BD6
330
BD1
100
AcDbEntity
  8
BEM
 62
     0
100
AcDbTrace
 10
210.289189701817
 20
467.0215536036314
 30
0.0
 11
212.6225230351503
 21
467.0215536036314
 31
0.0
 12
211.4558563684836
 22
474.0215536036314
 32
0.0
 13
211.4558563684836
 23
474.0215536036314
 33
0.0
  0
MTEXT
  5
BD7
330
BD1
100
AcDbEntity
  8
BEM
 62
     1
100
AcDbMText
 10
204.9558563684835
 20
334.0215536036315
 30
0.0
 40
7.0
 41
0.0
 71
     5
 72
     1
  1
\A1;280
 11
0.0000000000000001
 21
1.0
 31
0.0
 73
     1
 44
1.0
  0
POINT
  5
BD8
330
BD1
100
AcDbEntity
  8
DEFPOINTS
 62
     0
100
AcDbPoint
 10
336.9338705844639
 20
194.0215536036314
 30
0.0
  0
POINT
  5
BD9
330
BD1
100
AcDbEntity
  8
DEFPOINTS
 62
     0
100
AcDbPoint
 10
238.4415102595506
 20
474.0215536036314
 30
0.0
  0
POINT
  5
BDA
330
BD1
100
AcDbEntity
  8
DEFPOINTS
 62
     0
100
AcDbPoint
 10
211.4558563684836
 20
474.0215536036314
 30
0.0
  0
ENDBLK
  5
BDC
330
BD1
100
AcDbEntity
  8
0
100
AcDbBlockEnd
  0
BLOCK
  5
BE8
330
BDE
100
AcDbEntity
  8
0
100
AcDbBlockBegin
  2
*D7
 70
     1
 10
0.0
 20
0.0
 30
0.0
  3
*D7
  1

  0
LINE
  5
C12
330
BDE
100
AcDbEntity
  8
BEM
 62
     0
370
    -2
100
AcDbLine
 10
236.4415102595506
 20
472.0215536036314
 30
0.0
 11
224.9879823496131
 21
472.0215536036314
 31
0.0
  0
LINE
  5
C13
330
BDE
100
AcDbEntity
  8
BEM
 62
     0
370
    -2
100
AcDbLine
 10
306.4415102595506
 20
312.0215536036309
 30
0.0
 11
224.987982349613
 21
312.0215536036309
 31
0.0
  0
LINE
  5
C14
330
BDE
100
AcDbEntity
  8
BEM
 62
     0
370
    -2
100
AcDbLine
 10
226.9879823496131
 20
465.0215536036314
 30
0.0
 11
226.987982349613
 21
319.0215536036309
 31
0.0
  0
SOLID
  5
C15
330
BDE
100
AcDbEntity
  8
BEM
 62
     0
100
AcDbTrace
 10
225.8213156829464
 20
465.0215536036314
 30
0.0
 11
228.1546490162797
 21
465.0215536036314
 31
0.0
 12
226.9879823496131
 22
472.0215536036314
 32
0.0
 13
226.9879823496131
 23
472.0215536036314
 33
0.0
  0
SOLID
  5
C16
330
BDE
100
AcDbEntity
  8
BEM
 62
     0
100
AcDbTrace
 10
225.8213156829464
 20
319.0215536036309
 30
0.0
 11
228.1546490162797
 21
319.0215536036309
 31
0.0
 12
226.987982349613
 22
312.0215536036309
 32
0.0
 13
226.987982349613
 23
312.0215536036309
 33
0.0
  0
MTEXT
  5
C17
330
BDE
100
AcDbEntity
  8
BEM
 62
     1
100
AcDbMText
 10
220.487982349613
 20
392.0215536036312
 30
0.0
 40
7.0
 41
0.0
 71
     5
 72
     1
  1
\A1;160
 11
0.0000000000000001
 21
1.0
 31
0.0
 73
     1
 44
1.0
  0
POINT
  5
C18
330
BDE
100
AcDbEntity
  8
DEFPOINTS
 62
     0
100
AcDbPoint
 10
238.4415102595506
 20
472.0215536036314
 30
0.0
  0
POINT
  5
C19
330
BDE
100
AcDbEntity
  8
DEFPOINTS
 62
     0
100
AcDbPoint
 10
308.4415102595506
 20
312.0215536036309
 30
0.0
  0
POINT
  5
C1A
330
BDE
100
AcDbEntity
  8
DEFPOINTS
 62
     0
100
AcDbPoint
 10
226.987982349613
 20
312.0215536036309
 30
0.0
  0
ENDBLK
  5
BE9
330
BDE
100
AcDbEntity
  8
0
100
AcDbBlockEnd
  0
BLOCK
  5
BF5
330
BEB
100
AcDbEntity
  8
0
100
AcDbBlockBegin
  2
*D8
 70
     1
 10
0.0
 20
0.0
 30
0.0
  3
*D8
  1

  0
LINE
  5
C26
330
BEB
100
AcDbEntity
  8
BEM
 62
     0
370
    -2
100
AcDbLine
 10
498.4415102595504
 20
310.02155360363
 30
0.0
 11
498.4415102595504
 21
157.0303581011581
 31
0.0
  0
LINE
  5
C27
330
BEB
100
AcDbEntity
  8
BEM
 62
     0
370
    -2
100
AcDbLine
 10
308.4415102595506
 20
310.0215536036309
 30
0.0
 11
308.4415102595506
 21
157.0303581011581
 31
0.0
  0
LINE
  5
C28
330
BEB
100
AcDbEntity
  8
BEM
 62
     0
370
    -2
100
AcDbLine
 10
491.4415102595504
 20
159.030358101158
 30
0.0
 11
315.4415102595506
 21
159.030358101158
 31
0.0
  0
SOLID
  5
C29
330
BEB
100
AcDbEntity
  8
BEM
 62
     0
100
AcDbTrace
 10
491.4415102595504
 20
160.1970247678247
 30
0.0
 11
491.4415102595504
 21
157.8636914344914
 31
0.0
 12
498.4415102595504
 22
159.030358101158
 32
0.0
 13
498.4415102595504
 23
159.030358101158
 33
0.0
  0
SOLID
  5
C2A
330
BEB
100
AcDbEntity
  8
BEM
 62
     0
100
AcDbTrace
 10
315.4415102595506
 20
160.1970247678247
 30
0.0
 11
315.4415102595506
 21
157.8636914344914
 31
0.0
 12
308.4415102595506
 22
159.030358101158
 32
0.0
 13
308.4415102595506
 23
159.030358101158
 33
0.0
  0
MTEXT
  5
C2B
330
BEB
100
AcDbEntity
  8
BEM
 62
     1
100
AcDbMText
 10
403.4415102595505
 20
165.5303581011581
 30
0.0
 40
7.0
 41
0.0
 71
     5
 72
     1
  1
\A1;%%c190
 73
     1
 44
1.0
  0
POINT
  5
C2C
330
BEB
100
AcDbEntity
  8
DEFPOINTS
 62
     0
100
AcDbPoint
 10
498.4415102595504
 20
312.02155360363
 30
0.0
  0
POINT
  5
C2D
330
BEB
100
AcDbEntity
  8
DEFPOINTS
 62
     0
100
AcDbPoint
 10
308.4415102595506
 20
312.0215536036309
 30
0.0
  0
POINT
  5
C2E
330
BEB
100
AcDbEntity
  8
DEFPOINTS
 62
     0
100
AcDbPoint
 10
308.4415102595506
 20
159.030358101158
 30
0.0
  0
ENDBLK
  5
BF6
330
BEB
100
AcDbEntity
  8
0
100
AcDbBlockEnd
  0
ENDSEC
  0
SECTION
  2
ENTITIES
  0
LINE
  5
1F
102
{ACAD_REACTORS
330
B2F
102
}
330
2
100
AcDbEntity
  8
STEMPEL
100
AcDbLine
 10
340.1197095219053
 20
447.2674646148852
 30
0.0
 11
466.763310997196
 21
447.2674646148852
 31
0.0
  0
LINE
  5
94
330
2
100
AcDbEntity
  8
STEMPEL
100
AcDbLine
 10
328.8752669892913
 20
438.0215536036314
 30
0.0
 11
478.0077535298098
 21
438.0215536036316
 31
0.0
  0
LINE
  5
95
330
2
100
AcDbEntity
  8
STEMPEL
100
AcDbLine
 10
328.8752669892911
 20
440.0215536036314
 30
0.0
 11
478.0077535298099
 21
440.0215536036315
 31
0.0
  0
LINE
  5
96
330
2
100
AcDbEntity
  8
STEMPEL
100
AcDbLine
 10
328.8752669892911
 20
438.0215536036314
 30
0.0
 11
478.0077535298099
 21
438.0215536036316
 31
0.0
  0
LINE
  5
97
330
2
100
AcDbEntity
  8
STEMPEL
100
AcDbLine
 10
325.2148520009213
 20
441.2674646148851
 30
0.0
 11
481.6681685181785
 21
441.2674646148851
 31
0.0
  0
LINE
  5
98
102
{ACAD_REACTORS
330
B2F
102
}
330
2
100
AcDbEntity
  8
STEMPEL
100
AcDbLine
 10
333.4415102595506
 20
445.2674646148851
 30
0.0
 11
473.4415102595506
 21
445.2674646148851
 31
0.0
  0
LINE
  5
99
102
{ACAD_REACTORS
330
B2F
102
}
330
2
100
AcDbEntity
  8
STEMPEL
100
AcDbLine
 10
326.4415102595498
 20
444.2674646148851
 30
0.0
 11
480.4415102595493
 21
444.2674646148851
 31
0.0
  0
LINE
  5
9A
102
{ACAD_REACTORS
330
B2F
102
}
330
2
100
AcDbEntity
  8
STEMPEL
100
AcDbLine
 10
328.4491499346373
 20
474.2674646148851
 30
0.0
 11
478.4338705844641
 21
474.2674646148851
 31
0.0
  0
LINE
  5
9B
102
{ACAD_REACTORS
330
B2F
102
}
330
2
100
AcDbEntity
  8
STEMPEL
100
AcDbLine
 10
333.1415102595506
 20
464.2674646148852
 30
0.0
 11
473.5368180095377
 21
464.2674646148852
 31
0.0
  0
LINE
  5
10B
330
2
100
AcDbEntity
  8
STEMPEL
100
AcDbLine
 10
153.4415102595505
 20
477.0215536036314
 30
0.0
 11
653.4415102595505
 21
477.0215536036314
 31
0.0
  0
LINE
  5
10C
330
2
100
AcDbEntity
  8
HILF
100
AcDbLine
 10
839.9999999999998
 20
594.0000000000002
 30
0.0
 11
-0.0000000000001705
 21
593.9999999999997
 31
0.0
  0
LINE
  5
10D
330
2
100
AcDbEntity
  8
STEMPEL
100
AcDbLine
 10
830.0
 20
584.0
 30
0.0
 11
39.99999999999989
 21
584.0
 31
0.0
  0
DIMENSION
  5
152
330
2
100
AcDbEntity
  8
BEM
100
AcDbDimension
  2
*D2
 10
568.4415102595505
 20
513.0215536036314
 30
0.0
 11
403.4415102595505
 21
519.5215536036314
 31
0.0
 70
    32
  1
%%c<>
 71
     5
 42
330.0
  3
STANDARD
100
AcDbAlignedDimension
 13
238.4415102595506
 23
474.0215536036314
 33
0.0
 14
568.4415102595505
 24
474.0215536036314
 34
0.0
100
AcDbRotatedDimension
  0
LINE
  5
18C
330
2
100
AcDbEntity
  8
HILF
100
AcDbLine
 10
840.0
 20
0.0
 30
0.0
 11
0.0
 21
0.0
 31
0.0
  0
LINE
  5
18D
330
2
100
AcDbEntity
  8
STEMPEL
100
AcDbLine
 10
830.0
 20
10.0
 30
0.0
 11
40.0
 21
10.0
 31
0.0
  0
DIMENSION
  5
358
330
2
100
AcDbEntity
  8
BEM
100
AcDbDimension
  2
*D6
 10
211.4558563684836
 20
474.0215536036314
 30
0.0
 11
204.9558563684835
 21
334.0215536036315
 31
0.0
 70
    32
 71
     5
 42
280.0
  3
STANDARD
100
AcDbAlignedDimension
 13
336.9338705844639
 23
194.0215536036314
 33
0.0
 14
238.4415102595506
 24
474.0215536036314
 34
0.0
 50
90.0
100
AcDbRotatedDimension
  0
LINE
  5
366
330
2
100
AcDbEntity
  8
MITTEL
100
AcDbLine
 10
403.4415102595505
 20
482.0215536036314
 30
0.0
 11
403.4415102595505
 21
189.0215536036315
 31
0.0
  0
LINE
  5
369
330
2
100
AcDbEntity
  8
STEMPEL
100
AcDbLine
 10
40.0
 20
10.0
 30
0.0
 11
39.99999999999989
 21
584.0
 31
0.0
  0
LINE
  5
36A
330
2
100
AcDbEntity
  8
HILF
100
AcDbLine
 10
0.0
 20
0.0
 30
0.0
 11
-0.0000000000001705
 21
593.9999999999997
 31
0.0
  0
LINE
  5
36E
330
2
100
AcDbEntity
  8
HILF
100
AcDbLine
 10
31.08767135713851
 20
296.9999999999999
 30
0.0
 11
0.0000000000000568
 21
296.9999999999999
 31
0.0
  0
LINE
  5
453
330
2
100
AcDbEntity
  8
STEMPEL
100
AcDbLine
 10
153.4415102595505
 20
474.0215536036314
 30
0.0
 11
312.5626234346808
 21
474.0215536036314
 31
0.0
  0
LINE
  5
454
330
2
100
AcDbEntity
  8
STEMPEL
100
AcDbLine
 10
153.4415102595505
 20
477.0215536036314
 30
0.0
 11
153.4415102595505
 21
474.0215536036314
 31
0.0
  0
LINE
  5
455
330
2
100
AcDbEntity
  8
STEMPEL
100
AcDbLine
 10
238.4415102595506
 20
472.0215536036314
 30
0.0
 11
312.5626234346808
 21
472.0215536036315
 31
0.0
  0
LINE
  5
456
330
2
100
AcDbEntity
  8
STEMPEL
100
AcDbLine
 10
238.4415102595506
 20
474.0215536036314
 30
0.0
 11
238.4415102595506
 21
472.0215536036314
 31
0.0
  0
LINE
  5
457
330
2
100
AcDbEntity
  8
STEMPEL
100
AcDbLine
 10
238.4415102595506
 20
474.0215536036314
 30
0.0
 11
238.4415102595506
 21
472.0215536036314
 31
0.0
  0
ARC
  5
4A5
102
{ACAD_REACTORS
330
B2F
102
}
330
2
100
AcDbEntity
  8
STEMPEL
100
AcDbCircle
 10
322.0858107767543
 20
459.0444134199533
 30
0.0
 40
2.499999999999997
100
AcDbArc
 50
47.89155442130723
 51
155.6378802944081
  0
ARC
  5
4A6
330
2
100
AcDbEntity
  8
STEMPEL
100
AcDbCircle
 10
312.5626234346808
 20
468.5215536036316
 30
0.0
 40
8.5
100
AcDbArc
 50
349.9999999999999
 51
90.00000000000003
  0
ARC
  5
4A7
330
2
100
AcDbEntity
  8
STEMPEL
100
AcDbCircle
 10
328.8752669892911
 20
446.0215536036316
 30
0.0
 40
8.0
100
AcDbArc
 50
210.0
 51
270.0
  0
LINE
  5
4A8
330
2
100
AcDbEntity
  8
STEMPEL
100
AcDbLine
 10
314.4415102595506
 20
455.0215536036315
 30
0.0
 11
321.9470637590156
 21
442.0215536036316
 31
0.0
  0
LINE
  5
4A9
330
2
100
AcDbEntity
  8
STEMPEL
100
AcDbLine
 10
316.4415102595506
 20
455.5574519884938
 30
0.0
 11
323.6791145665845
 21
443.0215536036316
 31
0.0
  0
LINE
  5
4AA
102
{ACAD_REACTORS
330
B2F
102
}
330
2
100
AcDbEntity
  8
STEMPEL
100
AcDbLine
 10
319.4415102595506
 20
456.3612995657871
 30
0.0
 11
326.2771907779379
 21
444.5215536036315
 31
0.0
  0
LINE
  5
4E1
330
2
100
AcDbEntity
  8
STEMPEL
100
AcDbLine
 10
316.4415102595505
 20
458.8465762765798
 30
0.0
 11
317.979066076248
 21
467.5664886264634
 31
0.0
  0
LINE
  5
4E2
102
{ACAD_REACTORS
330
B2F
102
}
330
2
100
AcDbEntity
  8
STEMPEL
100
AcDbLine
 10
319.4415102595505
 20
458.5841102860021
 30
0.0
 11
320.9334893352846
 21
467.0455440934627
 31
0.0
  0
LINE
  5
4E3
330
2
100
AcDbEntity
  8
STEMPEL
100
AcDbLine
 10
314.4415102595505
 20
459.0215536036315
 30
0.0
 11
316.0094505702235
 21
467.9137849817973
 31
0.0
  0
LINE
  5
4F0
330
2
100
AcDbEntity
  8
STEMPEL
100
AcDbLine
 10
314.4415102595505
 20
459.0215536036315
 30
0.0
 11
314.4415102595506
 21
455.0215536036315
 31
0.0
  0
LINE
  5
4F1
330
2
100
AcDbEntity
  8
STEMPEL
100
AcDbLine
 10
316.4415102595505
 20
458.8465762765798
 30
0.0
 11
316.4415102595506
 21
455.5574519884938
 31
0.0
  0
LINE
  5
4F2
102
{ACAD_REACTORS
330
B2F
102
}
330
2
100
AcDbEntity
  8
STEMPEL
100
AcDbLine
 10
319.4415102595505
 20
458.5841102860021
 30
0.0
 11
319.4415102595506
 21
456.3612995657871
 31
0.0
  0
ARC
  5
4FD
330
2
100
AcDbEntity
  8
STEMPEL
100
AcDbCircle
 10
312.5626234346808
 20
468.5215536036316
 30
0.0
 40
3.5
100
AcDbArc
 50
350.0
 51
90.0
  0
ARC
  5
4FE
330
2
100
AcDbEntity
  8
STEMPEL
100
AcDbCircle
 10
312.5626234346808
 20
468.5215536036316
 30
0.0
 40
5.5
100
AcDbArc
 50
350.0000000000002
 51
90.00000000000003
  0
LINE
  5
502
102
{ACAD_REACTORS
330
B2F
102
}
330
2
100
AcDbEntity
  8
SCHRAFF
100
AcDbLine
 10
319.6382487989581
 20
459.6998699877609
 30
0.0
 11
319.8084193269839
 21
460.0756690548531
 31
0.0
  0
LINE
  5
503
102
{ACAD_REACTORS
330
B2F
102
}
330
2
100
AcDbEntity
  8
STEMPEL
100
AcDbLine
 10
338.1500940158809
 20
448.9201682595513
 30
0.0
 11
335.8082218920941
 21
462.2015850590525
 31
0.0
  0
LINE
  5
504
102
{ACAD_REACTORS
330
AF9
330
B2F
102
}
330
2
100
AcDbEntity
  8
STEMPEL
100
AcDbLine
 10
328.4415102595508
 20
449.2674646148851
 30
0.0
 11
328.4415102595507
 21
472.2674646148852
 31
0.0
  0
LINE
  5
505
102
{ACAD_REACTORS
330
AF9
330
B2F
102
}
330
2
100
AcDbEntity
  8
STEMPEL
100
AcDbLine
 10
330.4415102595508
 20
449.2674646148851
 30
0.0
 11
330.4415102595507
 21
472.2674646148852
 31
0.0
  0
ARC
  5
506
102
{ACAD_REACTORS
330
B2F
102
}
330
2
100
AcDbEntity
  8
STEMPEL
100
AcDbCircle
 10
340.1197095219053
 20
449.2674646148851
 30
0.0
 40
2.0
100
AcDbArc
 50
189.9999999999998
 51
270.0
  0
POINT
  5
508
330
2
100
AcDbEntity
  8
DEFPOINTS
  6
ByBlock
 62
     0
100
AcDbPoint
 10
328.8752669892911
 20
438.0215536036314
 30
0.0
  0
ARC
  5
509
330
2
100
AcDbEntity
  8
STEMPEL
100
AcDbCircle
 10
328.8752669892911
 20
446.0215536036316
 30
0.0
 40
6.0
100
AcDbArc
 50
210.0
 51
270.0
  0
ARC
  5
50A
102
{ACAD_REACTORS
330
B2F
102
}
330
2
100
AcDbEntity
  8
STEMPEL
100
AcDbCircle
 10
328.8752669892911
 20
446.0215536036316
 30
0.0
 40
3.0
100
AcDbArc
 50
210.0
 51
215.7815399860359
  0
LINE
  5
50B
330
2
100
AcDbEntity
  8
STEMPEL
100
AcDbLine
 10
332.9415102595506
 20
440.0215536036314
 30
0.0
 11
332.9415102595506
 21
438.0215536036314
 31
0.0
  0
LINE
  5
50C
330
2
100
AcDbEntity
  8
STEMPEL
100
AcDbLine
 10
333.4415102595506
 20
444.2674646148851
 30
0.0
 11
333.4415102595506
 21
441.2674646148851
 31
0.0
  0
LINE
  5
50D
102
{ACAD_REACTORS
330
B2F
102
}
330
2
100
AcDbEntity
  8
STEMPEL
100
AcDbLine
 10
333.4415102595506
 20
445.2674646148851
 30
0.0
 11
331.7094594519817
 21
444.2674646148851
 31
0.0
  0
LINE
  5
50E
102
{ACAD_REACTORS
330
AF9
330
B2F
102
}
330
2
100
AcDbEntity
  8
STEMPEL
100
AcDbLine
 10
328.4415102595508
 20
449.2674646148851
 30
0.0
 11
330.4415102595508
 21
449.2674646148851
 31
0.0
  0
LINE
  5
50F
102
{ACAD_REACTORS
330
B2F
102
}
330
2
100
AcDbEntity
  8
STEMPEL
100
AcDbLine
 10
340.9415102595508
 20
445.2674646148851
 30
0.0
 11
340.9415102595507
 21
447.2674646148852
 31
0.0
  0
LINE
  5
510
102
{ACAD_REACTORS
330
B2F
102
}
330
2
100
AcDbEntity
  8
STEMPEL
100
AcDbLine
 10
326.4567605384538
 20
472.4417761003804
 30
0.0
 11
325.536737057407
 21
461.925859592247
 31
0.0
  0
LINE
  5
511
102
{ACAD_REACTORS
330
B2F
102
}
330
2
100
AcDbEntity
  8
STEMPEL
100
AcDbLine
 10
333.1415102595506
 20
464.2674646148852
 30
0.0
 11
332.42635067244
 21
472.4417761003804
 31
0.0
  0
LINE
  5
512
330
2
100
AcDbEntity
  8
STEMPEL
100
AcDbLine
 10
322.0858107767543
 20
461.5444134199533
 30
0.0
 11
325.4655799287561
 21
461.5444134199533
 31
0.0
  0
ARC
  5
513
102
{ACAD_REACTORS
330
B2F
102
}
330
2
100
AcDbEntity
  8
STEMPEL
100
AcDbCircle
 10
324.4326867111475
 20
461.6409829546598
 30
0.0
 40
1.0
100
AcDbArc
 50
227.8915544213075
 51
332.6652690310767
  0
ARC
  5
514
102
{ACAD_REACTORS
330
B2F
102
}
330
2
100
AcDbEntity
  8
STEMPEL
100
AcDbCircle
 10
323.5443476612235
 20
462.1001710777424
 30
0.0
 40
2.0
100
AcDbArc
 50
332.6652690310767
 51
354.9999999999999
  0
ARC
  5
515
102
{ACAD_REACTORS
330
B2F
102
}
330
2
100
AcDbEntity
  8
STEMPEL
100
AcDbCircle
 10
333.3462025095636
 20
461.7674646148851
 30
0.0
 40
2.5
100
AcDbArc
 50
9.999999999999989
 51
90.0
  0
LINE
  5
516
102
{ACAD_REACTORS
330
AF9
330
B2F
102
}
330
2
100
AcDbEntity
  8
STEMPEL
100
AcDbLine
 10
328.4415102595507
 20
472.2674646148852
 30
0.0
 11
330.4415102595507
 21
472.2674646148852
 31
0.0
  0
ARC
  5
517
102
{ACAD_REACTORS
330
B2F
102
}
330
2
100
AcDbEntity
  8
STEMPEL
100
AcDbCircle
 10
328.4491499346373
 20
472.2674646148852
 30
0.0
 40
2.0
100
AcDbArc
 50
90.0
 51
175.0
  0
ARC
  5
518
102
{ACAD_REACTORS
330
B2F
102
}
330
2
100
AcDbEntity
  8
STEMPEL
100
AcDbCircle
 10
330.4339612762565
 20
472.2674646148852
 30
0.0
 40
2.0
100
AcDbArc
 50
4.999999999999892
 51
90.0
  0
LINE
  5
519
330
2
100
AcDbEntity
  8
BEM
 62
     1
100
AcDbLine
 10
394.3142637490138
 20
538.5896962286178
 30
0.0
 11
394.3142637490138
 21
532.9896962286178
 31
0.0
  0
LINE
  5
51A
330
2
100
AcDbEntity
  8
BEM
 62
     1
100
AcDbLine
 10
388.7142637490137
 20
532.9896962286178
 30
0.0
 11
388.7142637490137
 21
538.5896962286178
 31
0.0
  0
LINE
  5
51B
330
2
100
AcDbEntity
  8
BEM
 62
     1
100
AcDbLine
 10
394.3142637490138
 20
532.9896962286178
 30
0.0
 11
388.7142637490137
 21
532.9896962286178
 31
0.0
  0
LINE
  5
51C
330
2
100
AcDbEntity
  8
BEM
 62
     1
100
AcDbLine
 10
388.7142637490137
 20
538.5896962286178
 30
0.0
 11
394.3142637490138
 21
538.5896962286178
 31
0.0
  0
LINE
  5
527
330
2
100
AcDbEntity
  8
HILF
100
AcDbLine
 10
840.0
 20
-0.0000000000001137
 30
0.0
 11
839.9999999999998
 21
594.0
 31
0.0
  0
LINE
  5
528
330
2
100
AcDbEntity
  8
STEMPEL
100
AcDbLine
 10
830.0
 20
110.0
 30
0.0
 11
830.0
 21
584.0
 31
0.0
  0
LINE
  5
531
330
2
100
AcDbEntity
  8
STEMPEL
100
AcDbLine
 10
830.0
 20
110.0
 30
0.0
 11
470.0
 21
110.0
 31
0.0
  0
TEXT
  5
534
330
2
100
AcDbEntity
  8
TEXT
 62
     1
100
AcDbText
 10
655.33119410276
 20
87.41748789253779
 30
0.0
 40
7.0
  1
Flachdachablauf DN125
 41
0.75
  7
GREEKS
100
AcDbText
  0
LINE
  5
535
330
2
100
AcDbEntity
  8
HILF
100
AcDbLine
 10
654.7736801096947
 20
69.99999999999994
 30
0.0
 11
744.8353916556309
 21
69.99999999999994
 31
0.0
  0
LINE
  5
536
330
2
100
AcDbEntity
  8
HILF
100
AcDbLine
 10
654.7736801096947
 20
84.03758247564139
 30
0.0
 11
744.835391655631
 21
84.03758247564139
 31
0.0
  0
TEXT
  5
537
330
2
100
AcDbEntity
  8
TEXT
100
AcDbText
 10
655.1296391125315
 20
71.50334417585288
 30
0.0
 40
5.0
  1
Grundeinheit, senkrecht
 41
0.8
  7
GREEKS
100
AcDbText
  0
TEXT
  5
538
330
2
100
AcDbEntity
  8
TEXT
100
AcDbText
 10
654.8779403809009
 20
102.5489328011779
 30
0.0
 40
5.0
  1
Benennung
 41
0.8
  7
GREEKS
100
AcDbText
  0
LINE
  5
539
330
2
100
AcDbEntity
  8
HILF
100
AcDbLine
 10
654.7736801096947
 20
49.99999999999997
 30
0.0
 11
744.8353916556309
 21
49.99999999999997
 31
0.0
  0
LINE
  5
53A
330
2
100
AcDbEntity
  8
HILF
100
AcDbLine
 10
654.7736801096947
 20
59.99999999999997
 30
0.0
 11
744.8353916556309
 21
59.99999999999997
 31
0.0
  0
TEXT
  5
53B
330
2
100
AcDbEntity
  8
TEXT
100
AcDbText
 10
654.7422383911359
 20
30.84560570193057
 30
0.0
 40
5.0
  1
Bauvorhaben
 41
0.8
  7
GREEKS
100
AcDbText
  0
TEXT
  5
53C
330
2
100
AcDbEntity
  8
TEXT
100
AcDbText
 10
655.1296391125315
 20
51.64011943042158
 30
0.0
 40
5.0
  1
EDV-Art.Nr. 17400.125A
 41
0.8
  7
GREEKS
100
AcDbText
  0
TEXT
  5
53D
330
2
100
AcDbEntity
  8
TEXT
100
AcDbText
 10
654.9837501577826
 20
42.62974153022632
 30
0.0
 40
4.0
  1
17400125W.DWG
 41
0.8
  7
GREEKS
100
AcDbText
  0
TEXT
  5
53E
330
2
100
AcDbEntity
  8
TEXT
100
AcDbText
 10
655.1296391125315
 20
62.48619014834265
 30
0.0
 40
5.0
  1
mit Wärmedämmung
 41
0.8
  7
GREEKS
100
AcDbText
  0
LINE
  5
53F
330
2
100
AcDbEntity
  8
HILF
100
AcDbLine
 10
653.4909699289885
 20
14.89398258028314
 30
0.0
 11
824.8588839326728
 21
14.89398258028314
 31
0.0
  0
LINE
  5
540
330
2
100
AcDbEntity
  8
STEMPEL
100
AcDbLine
 10
479.9999999999998
 20
10.0
 30
0.0
 11
830.0
 21
10.0
 31
0.0
  0
LINE
  5
541
330
2
100
AcDbEntity
  8
STEMPEL
100
AcDbLine
 10
830.0
 20
80.0
 30
0.0
 11
566.0000000000001
 21
79.99999999999994
 31
0.0
  0
LINE
  5
542
330
2
100
AcDbEntity
  8
STEMPEL
100
AcDbLine
 10
830.0
 20
40.0
 30
0.0
 11
566.0000000000001
 21
39.99999999999997
 31
0.0
  0
TEXT
  5
543
330
2
100
AcDbEntity
  8
TEXT
100
AcDbText
 10
548.7163513630332
 20
18.59324216966408
 30
0.0
 40
4.0
  1
Name
 41
0.8
  7
GREEKS
 72
     1
 11
555.0401608868427
 21
18.59324216966408
 31
0.0
100
AcDbText
  0
LINE
  5
544
330
2
100
AcDbEntity
  8
HILF
100
AcDbLine
 10
470.0000000000001
 20
39.99999999999997
 30
0.0
 11
566.0000000000001
 21
39.99999999999997
 31
0.0
  0
LINE
  5
545
330
2
100
AcDbEntity
  8
HILF
100
AcDbLine
 10
470.0000000000001
 20
49.99999999999997
 30
0.0
 11
566.0000000000001
 21
49.99999999999997
 31
0.0
  0
LINE
  5
546
330
2
100
AcDbEntity
  8
HILF
100
AcDbLine
 10
470.0000000000001
 20
59.99999999999997
 30
0.0
 11
566.0000000000001
 21
59.99999999999997
 31
0.0
  0
LINE
  5
547
330
2
100
AcDbEntity
  8
HILF
100
AcDbLine
 10
470.0000000000001
 20
69.99999999999994
 30
0.0
 11
566.0000000000001
 21
69.99999999999994
 31
0.0
  0
LINE
  5
548
330
2
100
AcDbEntity
  8
HILF
100
AcDbLine
 10
470.0000000000001
 20
79.99999999999994
 30
0.0
 11
566.0000000000001
 21
79.99999999999994
 31
0.0
  0
LINE
  5
549
330
2
100
AcDbEntity
  8
HILF
100
AcDbLine
 10
470.0000000000001
 20
90.00000000000005
 30
0.0
 11
566.0000000000001
 21
90.00000000000005
 31
0.0
  0
LINE
  5
54A
330
2
100
AcDbEntity
  8
HILF
100
AcDbLine
 10
470.0000000000001
 20
100.0
 30
0.0
 11
566.0000000000001
 21
100.0
 31
0.0
  0
LINE
  5
54B
330
2
100
AcDbEntity
  8
STEMPEL
100
AcDbLine
 10
565.9999999999999
 20
29.99999999999997
 30
0.0
 11
470.0
 21
29.99999999999997
 31
0.0
  0
TEXT
  5
54C
330
2
100
AcDbEntity
  8
TEXT
100
AcDbText
 10
529.9471096443442
 20
18.6715626933981
 30
0.0
 40
4.0
  1
Tag
 41
0.8
  7
GREEKS
 72
     1
 11
533.6804429776775
 21
18.6715626933981
 31
0.0
100
AcDbText
  0
TEXT
  5
54D
330
2
100
AcDbEntity
  8
TEXT
100
AcDbText
 10
490.9978317368486
 20
18.67381894984132
 30
0.0
 40
4.0
  1
Änderung
 41
0.8
  7
GREEKS
 72
     1
 11
501.7406888797057
 21
18.67381894984132
 31
0.0
100
AcDbText
  0
TEXT
  5
54E
330
2
100
AcDbEntity
  8
TEXT
100
AcDbText
 10
478.2664110704575
 20
13.65465846027192
 30
0.0
 40
4.0
  1
Index
 50
90.0
 41
0.8
  7
GREEKS
100
AcDbText
  0
LINE
  5
54F
330
2
100
AcDbEntity
  8
STEMPEL
100
AcDbLine
 10
470.0
 20
10.0
 30
0.0
 11
470.0
 21
110.0
 31
0.0
  0
LINE
  5
550
330
2
100
AcDbEntity
  8
VOLL
100
AcDbLine
 10
544.0000000000001
 20
109.9999999999999
 30
0.0
 11
544.0
 21
9.999999999999971
 31
0.0
  0
LINE
  5
552
330
2
100
AcDbEntity
  8
VOLL
100
AcDbLine
 10
524.0000000000001
 20
109.9999999999999
 30
0.0
 11
524.0
 21
9.999999999999971
 31
0.0
  0
LINE
  5
553
330
2
100
AcDbEntity
  8
VOLL
100
AcDbLine
 10
484.0000000000001
 20
110.0
 30
0.0
 11
484.0
 21
9.999999999999971
 31
0.0
  0
LINE
  5
554
330
2
100
AcDbEntity
  8
HILF
 62
     7
100
AcDbLine
 10
460.0
 20
-0.0000000000002824
 30
0.0
 11
460.0
 21
10.0
 31
0.0
  0
INSERT
  5
555
330
2
100
AcDbEntity
  8
STEMPEL
100
AcDbBlockReference
  2
LOGO
 10
570.9955485457794
 20
45.02105276448322
 30
0.0
 41
2.0
 42
2.0
 43
2.0
  0
LINE
  5
573
330
2
100
AcDbEntity
  8
STEMPEL
100
AcDbLine
 10
566.0000000000001
 20
109.9999999999999
 30
0.0
 11
566.0
 21
9.999999999999971
 31
0.0
  0
LINE
  5
574
330
2
100
AcDbEntity
  8
STEMPEL
100
AcDbLine
 10
650.0
 20
110.0
 30
0.0
 11
650.0
 21
9.999999999999971
 31
0.0
  0
TEXT
  5
575
330
2
100
AcDbEntity
  8
TEXT
100
AcDbText
 10
612.8030600190664
 20
87.83492969601054
 30
0.0
 40
4.0
  1
DIN EN1123-2
 41
0.8
  7
GREEKS
100
AcDbText
  0
TEXT
  5
576
330
2
100
AcDbEntity
  8
TEXT
100
AcDbText
 10
614.2858954734052
 20
102.4184168434819
 30
0.0
 40
5.0
  1
Zul. Abw.
 41
0.8
  7
GREEKS
100
AcDbText
  0
LINE
  5
577
330
2
100
AcDbEntity
  8
HILF
100
AcDbLine
 10
566.0000000000001
 20
49.99999999999997
 30
0.0
 11
650.0
 21
49.99999999999997
 31
0.0
  0
LINE
  5
578
330
2
100
AcDbEntity
  8
HILF
100
AcDbLine
 10
566.0000000000001
 20
59.99999999999997
 30
0.0
 11
650.0
 21
59.99999999999997
 31
0.0
  0
LINE
  5
579
330
2
100
AcDbEntity
  8
HILF
100
AcDbLine
 10
566.0000000000001
 20
69.99999999999994
 30
0.0
 11
650.0
 21
69.99999999999994
 31
0.0
  0
TEXT
  5
57A
330
2
100
AcDbEntity
  8
TEXT
100
AcDbText
 10
590.703759012998
 20
63.10765040825732
 30
0.0
 40
4.0
  1
23.12.
 41
0.8
  7
GREEKS
 72
     1
 11
597.4085209177599
 21
63.10765040825732
 31
0.0
100
AcDbText
  0
TEXT
  5
57B
330
2
100
AcDbEntity
  8
TEXT
100
AcDbText
 10
567.5836127167615
 20
63.62990369617964
 30
0.0
 40
4.0
  1
Gez.
 41
0.8
  7
GREEKS
100
AcDbText
  0
LINE
  5
57C
330
2
100
AcDbEntity
  8
VOLL
100
AcDbLine
 10
584.0000000000001
 20
79.99999999999994
 30
0.0
 11
584.0000000000001
 21
39.99999999999997
 31
0.0
  0
LINE
  5
57D
330
2
100
AcDbEntity
  8
VOLL
100
AcDbLine
 10
610.0000000000001
 20
109.9999999999998
 30
0.0
 11
610.0
 21
39.99999999999997
 31
0.0
  0
TEXT
  5
57E
330
2
100
AcDbEntity
  8
TEXT
100
AcDbText
 10
567.5515086571672
 20
53.68926291428377
 30
0.0
 40
4.0
  1
Gepr.
 41
0.8
  7
GREEKS
100
AcDbText
  0
TEXT
  5
57F
330
2
100
AcDbEntity
  8
TEXT
100
AcDbText
 10
567.6006777387303
 20
43.52946389649807
 30
0.0
 40
4.0
  1
Norm.
 41
0.8
  7
GREEKS
100
AcDbText
  0
TEXT
  5
580
330
2
100
AcDbEntity
  8
TEXT
 62
     1
100
AcDbText
 10
580.5006306481886
 20
88.14901428913959
 30
0.0
 40
7.0
  1
1:2
 41
0.8
  7
GREEKS
100
AcDbText
  0
TEXT
  5
581
330
2
100
AcDbEntity
  8
TEXT
100
AcDbText
 10
573.5163572150376
 20
102.4620895087088
 30
0.0
 40
5.0
  1
Maßstab
 41
0.8
  7
GREEKS
100
AcDbText
  0
TEXT
  5
582
330
2
100
AcDbEntity
  8
TEXT
100
AcDbText
 10
568.6221098221039
 20
73.14025471151666
 30
0.0
 40
4.0
  1
2010
 41
0.8
  7
GREEKS
100
AcDbText
  0
TEXT
  5
583
330
2
100
AcDbEntity
  8
TEXT
100
AcDbText
 10
592.3311673153651
 20
73.31880501229926
 30
0.0
 40
4.0
  1
Tag
 41
0.8
  7
GREEKS
100
AcDbText
  0
TEXT
  5
584
330
2
100
AcDbEntity
  8
TEXT
100
AcDbText
 10
624.4216048581257
 20
63.0896391972351
 30
0.0
 40
4.0
  1
Koeh
 41
0.8
  7
GREEKS
 72
     1
 11
629.6787477152686
 21
63.0896391972351
 31
0.0
100
AcDbText
  0
TEXT
  5
585
330
2
100
AcDbEntity
  8
TEXT
100
AcDbText
 10
622.4626584226294
 20
73.30961091915225
 30
0.0
 40
4.0
  1
Name
 41
0.8
  7
GREEKS
100
AcDbText
  0
TEXT
  5
587
330
2
100
AcDbEntity
  8
TEXT
100
AcDbText
 10
471.8550995097768
 20
111.6719999999999
 30
0.0
 40
5.0
  1
Erstellt mit AUTOCAD 2004
 41
0.8
  7
GREEKS
100
AcDbText
  0
LINE
  5
5C4
330
2
100
AcDbEntity
  8
HILF
100
AcDbLine
 10
756.7238616296992
 20
83.77983636955827
 30
0.0
 11
824.8588839326728
 21
83.77983636955827
 31
0.0
  0
LINE
  5
5C5
330
2
100
AcDbEntity
  8
VOLL
100
AcDbLine
 10
752.0
 20
60.0
 30
0.0
 11
830.0
 21
60.0
 31
0.0
  0
LINE
  5
5C6
330
2
100
AcDbEntity
  8
STEMPEL
100
AcDbLine
 10
752.0
 20
109.9999999999997
 30
0.0
 11
752.0
 21
40.0
 31
0.0
  0
TEXT
  5
5C7
330
2
100
AcDbEntity
  8
TEXT
100
AcDbText
 10
757.2400861497006
 20
52.07416177878602
 30
0.0
 40
5.0
  1
ersetzt durch:
 41
0.8
  7
GREEKS
100
AcDbText
  0
TEXT
  5
5C8
330
2
100
AcDbEntity
  8
TEXT
100
AcDbText
 10
756.178754957634
 20
102.3132034537136
 30
0.0
 40
5.0
  1
Zeichnungs Nr.
 41
0.8
  7
GREEKS
100
AcDbText
  0
TEXT
  5
5C9
330
2
100
AcDbEntity
  8
TEXT
 62
     1
100
AcDbText
 10
766.2898961296783
 20
88.64254464319675
 30
0.0
 40
7.0
  1
17400125W
 41
0.8
  7
GREEKS
 72
     1
 11
789.2232294630117
 21
88.64254464319675
 31
0.0
100
AcDbText
  0
TEXT
  5
5CA
330
2
100
AcDbEntity
  8
TEXT
100
AcDbText
 10
756.7238616296992
 20
73.1811823709997
 30
0.0
 40
5.0
  1
Ersatz für:
 41
0.8
  7
GREEKS
100
AcDbText
  0
LINE
  5
5CB
330
2
100
AcDbEntity
  8
STEMPEL
100
AcDbLine
 10
830.0
 20
110.0
 30
0.0
 11
830.0
 21
10.0
 31
0.0
  0
TEXT
  5
5CC
330
2
100
AcDbEntity
  8
TEXT
 62
     1
100
AcDbText
 10
658.3958075652652
 20
435.8560508665512
 30
0.0
 40
7.0
  1
Anschlußmanschette DN125
 41
0.8
  7
GREEKS
100
AcDbText
  0
LINE
  5
5CD
330
2
100
AcDbEntity
  8
TEXT
 62
     2
100
AcDbLine
 10
657.6294144991456
 20
432.1330975667448
 30
0.0
 11
777.5027755491067
 21
432.1330975667448
 31
0.0
  0
TEXT
  5
5CE
330
2
100
AcDbEntity
  8
TEXT
 62
     1
100
AcDbText
 10
657.6527625476387
 20
421.8849267734621
 30
0.0
 40
7.0
  1
EDV-Art.Nr. 17000.125X
 41
0.8
  7
GREEKS
100
AcDbText
  0
DIMENSION
  5
5D1
330
2
100
AcDbEntity
  8
BEM
100
AcDbDimension
  2
*D1
 10
667.2045663951279
 20
474.0215536036314
 30
0.0
 11
660.2045663951279
 21
457.9748869369647
 31
0.0
 12
-24.18289810396959
 22
-51.04220550757304
 32
0.0
 71
     5
 42
-1.0
100
AcDbAlignedDimension
 13
653.4415102595505
 23
477.0215536036314
 33
0.0
 14
653.4415102595505
 24
474.0215536036314
 34
0.0
 50
90.0
100
AcDbRotatedDimension
  0
LINE
  5
5E1
330
2
100
AcDbEntity
  8
STEMPEL
100
AcDbLine
 10
568.4415102595505
 20
472.0215536036314
 30
0.0
 11
494.3203970844202
 21
472.0215536036315
 31
0.0
  0
LINE
  5
5E3
330
2
100
AcDbEntity
  8
STEMPEL
100
AcDbLine
 10
494.3203970844202
 20
474.0215536036314
 30
0.0
 11
653.4415102595505
 21
474.0215536036314
 31
0.0
  0
ARC
  5
626
102
{ACAD_REACTORS
330
B2F
102
}
330
2
100
AcDbEntity
  8
STEMPEL
100
AcDbCircle
 10
484.797209742347
 20
459.0444134199532
 30
0.0
 40
2.499999999999997
100
AcDbArc
 50
24.36211970559212
 51
132.1084455786927
  0
ARC
  5
627
330
2
100
AcDbEntity
  8
STEMPEL
100
AcDbCircle
 10
494.3203970844202
 20
468.5215536036316
 30
0.0
 40
8.5
100
AcDbArc
 50
89.99999999999998
 51
190.0000000000004
  0
LINE
  5
628
102
{ACAD_REACTORS
330
B2F
102
}
330
2
100
AcDbEntity
  8
STEMPEL
100
AcDbLine
 10
487.4415102595504
 20
456.3612995657873
 30
0.0
 11
480.6058297411632
 21
444.5215536036315
 31
0.0
  0
LINE
  5
629
330
2
100
AcDbEntity
  8
STEMPEL
100
AcDbLine
 10
492.4415102595506
 20
455.0215536036315
 30
0.0
 11
484.9359567600854
 21
442.0215536036316
 31
0.0
  0
LINE
  5
62A
330
2
100
AcDbEntity
  8
STEMPEL
100
AcDbLine
 10
490.4415102595505
 20
455.5574519884938
 30
0.0
 11
483.2039059525165
 21
443.0215536036316
 31
0.0
  0
LINE
  5
633
102
{ACAD_REACTORS
330
AF9
330
B2F
102
}
330
2
100
AcDbEntity
  8
STEMPEL
100
AcDbLine
 10
476.4415102595505
 20
449.2674646148851
 30
0.0
 11
476.4415102595506
 21
472.2674646148852
 31
0.0
  0
LINE
  5
634
102
{ACAD_REACTORS
330
AF9
330
B2F
102
}
330
2
100
AcDbEntity
  8
STEMPEL
100
AcDbLine
 10
478.4415102595505
 20
449.2674646148851
 30
0.0
 11
478.4415102595507
 21
472.2674646148852
 31
0.0
  0
LINE
  5
635
102
{ACAD_REACTORS
330
B2F
102
}
330
2
100
AcDbEntity
  8
STEMPEL
100
AcDbLine
 10
468.7329265032205
 20
448.9201682595513
 30
0.0
 11
471.0747986270072
 21
462.2015850590525
 31
0.0
  0
ARC
  5
636
102
{ACAD_REACTORS
330
B2F
102
}
330
2
100
AcDbEntity
  8
STEMPEL
100
AcDbCircle
 10
466.763310997196
 20
449.2674646148851
 30
0.0
 40
2.0
100
AcDbArc
 50
270.0
 51
350.0000000000002
  0
LINE
  5
637
102
{ACAD_REACTORS
330
B2F
102
}
330
2
100
AcDbEntity
  8
STEMPEL
100
AcDbLine
 10
465.9415102595505
 20
445.2674646148851
 30
0.0
 11
465.9415102595507
 21
447.2674646148852
 31
0.0
  0
LINE
  5
638
330
2
100
AcDbEntity
  8
STEMPEL
100
AcDbLine
 10
473.4415102595505
 20
444.2674646148851
 30
0.0
 11
473.4415102595505
 21
441.2674646148851
 31
0.0
  0
LINE
  5
639
102
{ACAD_REACTORS
330
B2F
102
}
330
2
100
AcDbEntity
  8
STEMPEL
100
AcDbLine
 10
473.4415102595506
 20
445.2674646148851
 30
0.0
 11
475.1735610671196
 21
444.2674646148851
 31
0.0
  0
LINE
  5
63A
330
2
100
AcDbEntity
  8
STEMPEL
100
AcDbLine
 10
473.9415102595505
 20
440.0215536036315
 30
0.0
 11
473.9415102595505
 21
438.0215536036315
 31
0.0
  0
ARC
  5
63B
330
2
100
AcDbEntity
  8
STEMPEL
100
AcDbCircle
 10
478.0077535298099
 20
446.0215536036316
 30
0.0
 40
8.0
100
AcDbArc
 50
270.0000000000001
 51
330.0000000000001
  0
ARC
  5
63C
330
2
100
AcDbEntity
  8
STEMPEL
100
AcDbCircle
 10
478.0077535298099
 20
446.0215536036316
 30
0.0
 40
6.0
100
AcDbArc
 50
270.0
 51
330.0000000000001
  0
ARC
  5
63E
102
{ACAD_REACTORS
330
B2F
102
}
330
2
100
AcDbEntity
  8
STEMPEL
100
AcDbCircle
 10
478.0077535298099
 20
446.0215536036316
 30
0.0
 40
3.0
100
AcDbArc
 50
324.2184600139409
 51
330.0000000000001
  0
POINT
  5
63F
330
2
100
AcDbEntity
  8
DEFPOINTS
  6
ByBlock
 62
     0
100
AcDbPoint
 10
483.5610417031111
 20
440.2629955841034
 30
0.0
  0
POINT
  5
640
330
2
100
AcDbEntity
  8
DEFPOINTS
  6
ByBlock
 62
     0
100
AcDbPoint
 10
483.5610417031111
 20
440.2629955841034
 30
0.0
  0
POINT
  5
641
330
2
100
AcDbEntity
  8
DEFPOINTS
  6
ByBlock
 62
     0
100
AcDbPoint
 10
483.5610417031114
 20
440.2629955841034
 30
0.0
  0
LINE
  5
642
102
{ACAD_REACTORS
330
AF9
330
B2F
102
}
330
2
100
AcDbEntity
  8
STEMPEL
100
AcDbLine
 10
478.4415102595505
 20
449.2674646148851
 30
0.0
 11
476.4415102595505
 21
449.2674646148851
 31
0.0
  0
LINE
  5
643
102
{ACAD_REACTORS
330
B2F
102
}
330
2
100
AcDbEntity
  8
STEMPEL
100
AcDbLine
 10
480.4262599806476
 20
472.4417761003804
 30
0.0
 11
481.3462834616943
 21
461.925859592247
 31
0.0
  0
LINE
  5
644
102
{ACAD_REACTORS
330
B2F
102
}
330
2
100
AcDbEntity
  8
STEMPEL
100
AcDbLine
 10
473.7407811218879
 20
464.2591305332636
 30
0.0
 11
474.4566698466614
 21
472.4417761003804
 31
0.0
  0
ARC
  5
645
102
{ACAD_REACTORS
330
B2F
102
}
330
2
100
AcDbEntity
  8
STEMPEL
100
AcDbCircle
 10
473.5368180095377
 20
461.7674646148851
 30
0.0
 40
2.5
100
AcDbArc
 50
85.32030851368308
 51
170.0
  0
ARC
  5
646
102
{ACAD_REACTORS
330
B2F
102
}
330
2
100
AcDbEntity
  8
STEMPEL
100
AcDbCircle
 10
482.4503338079538
 20
461.6409829546596
 30
0.0
 40
1.0
100
AcDbArc
 50
207.3347309689232
 51
312.1084455786924
  0
LINE
  5
647
330
2
100
AcDbEntity
  8
STEMPEL
100
AcDbLine
 10
484.7972097423467
 20
461.5444134199533
 30
0.0
 11
481.4174405903449
 21
461.5444134199533
 31
0.0
  0
ARC
  5
648
102
{ACAD_REACTORS
330
B2F
102
}
330
2
100
AcDbEntity
  8
STEMPEL
100
AcDbCircle
 10
483.3386728578777
 20
462.1001710777423
 30
0.0
 40
2.0
100
AcDbArc
 50
184.9999999999999
 51
207.3347309689232
  0
LINE
  5
649
102
{ACAD_REACTORS
330
AF9
330
B2F
102
}
330
2
100
AcDbEntity
  8
STEMPEL
100
AcDbLine
 10
478.4415102595507
 20
472.2674646148852
 30
0.0
 11
476.4415102595506
 21
472.2674646148852
 31
0.0
  0
ARC
  5
64A
102
{ACAD_REACTORS
330
B2F
102
}
330
2
100
AcDbEntity
  8
STEMPEL
100
AcDbCircle
 10
476.4490592428448
 20
472.2674646148852
 30
0.0
 40
2.0
100
AcDbArc
 50
90.0
 51
175.0000000000001
  0
ARC
  5
64B
102
{ACAD_REACTORS
330
B2F
102
}
330
2
100
AcDbEntity
  8
STEMPEL
100
AcDbCircle
 10
478.4338705844641
 20
472.2674646148852
 30
0.0
 40
2.0
100
AcDbArc
 50
4.999999999999969
 51
90.0
  0
LINE
  5
65A
330
2
100
AcDbEntity
  8
STEMPEL
100
AcDbLine
 10
492.4415102595506
 20
459.0215536036315
 30
0.0
 11
490.8735699488775
 21
467.9137849817973
 31
0.0
  0
LINE
  5
65B
102
{ACAD_REACTORS
330
B2F
102
}
330
2
100
AcDbEntity
  8
STEMPEL
100
AcDbLine
 10
487.4415102595505
 20
458.584110286002
 30
0.0
 11
485.9495311838164
 21
467.0455440934624
 31
0.0
  0
LINE
  5
65C
330
2
100
AcDbEntity
  8
STEMPEL
100
AcDbLine
 10
490.4415102595505
 20
458.8465762765798
 30
0.0
 11
488.9039544428531
 21
467.5664886264634
 31
0.0
  0
LINE
  5
669
102
{ACAD_REACTORS
330
B2F
102
}
330
2
100
AcDbEntity
  8
STEMPEL
100
AcDbLine
 10
487.4415102595505
 20
458.584110286002
 30
0.0
 11
487.4415102595504
 21
456.3612995657873
 31
0.0
  0
LINE
  5
66A
330
2
100
AcDbEntity
  8
STEMPEL
100
AcDbLine
 10
492.4415102595506
 20
459.0215536036315
 30
0.0
 11
492.4415102595506
 21
455.0215536036315
 31
0.0
  0
LINE
  5
66B
330
2
100
AcDbEntity
  8
STEMPEL
100
AcDbLine
 10
490.4415102595505
 20
458.8465762765798
 30
0.0
 11
490.4415102595505
 21
455.5574519884938
 31
0.0
  0
ARC
  5
66E
330
2
100
AcDbEntity
  8
STEMPEL
100
AcDbCircle
 10
494.3203970844202
 20
468.5215536036316
 30
0.0
 40
3.5
100
AcDbArc
 50
89.99999999999998
 51
190.0
  0
ARC
  5
66F
330
2
100
AcDbEntity
  8
STEMPEL
100
AcDbCircle
 10
494.3203970844202
 20
468.5215536036316
 30
0.0
 40
5.5
100
AcDbArc
 50
89.99999999999998
 51
189.9999999999998
  0
LINE
  5
671
102
{ACAD_REACTORS
330
B2F
102
}
330
2
100
AcDbEntity
  8
SCHRAFF
100
AcDbLine
 10
487.2447717201431
 20
459.6998699877608
 30
0.0
 11
487.0746011921173
 21
460.075669054853
 31
0.0
  0
LINE
  5
67D
330
2
100
AcDbEntity
  8
STEMPEL
100
AcDbLine
 10
568.4415102595505
 20
474.0215536036314
 30
0.0
 11
568.4415102595505
 21
472.0215536036314
 31
0.0
  0
LINE
  5
67E
330
2
100
AcDbEntity
  8
TEXT
 62
     2
100
AcDbLine
 10
626.4512580809142
 20
475.5936963840942
 30
0.0
 11
657.6294144991456
 21
432.1330975667448
 31
0.0
  0
LINE
  5
67F
330
2
100
AcDbEntity
  8
STEMPEL
100
AcDbLine
 10
653.4415102595505
 20
477.0215536036314
 30
0.0
 11
653.4415102595505
 21
474.0215536036314
 31
0.0
  0
LINE
  5
680
330
2
100
AcDbEntity
  8
HILF
 62
     7
100
AcDbLine
 10
459.9999999999998
 20
584.0
 30
0.0
 11
459.9999999999998
 21
593.9999999999998
 31
0.0
  0
TEXT
  5
684
330
2
100
AcDbEntity
  8
TEXT
100
AcDbText
 10
836.5811541437437
 20
12.14804815338303
 30
0.0
 40
4.0
  1
Diese Zeichnung ist urheberrechtlich geschützt und bleibt unser Eigentum. Sie darf weder ganz noch teilweise vervielfältigt und nicht an Dritte weitergegeben werden.
 50
90.0
 41
0.8
  7
GREEKS
100
AcDbText
  0
DIMENSION
  5
6C0
330
2
100
AcDbEntity
  8
BEM
100
AcDbDimension
  2
*D3
 10
153.4415102595505
 20
529.0215536036314
 30
0.0
 11
403.4415102595505
 21
535.5215536036314
 31
0.0
 70
    32
 71
     5
 42
500.0
  3
STANDARD
100
AcDbAlignedDimension
 13
653.4415102595505
 23
477.0215536036314
 33
0.0
 14
153.4415102595505
 24
477.0215536036314
 34
0.0
100
AcDbRotatedDimension
  0
DIMENSION
  5
880
330
2
100
AcDbEntity
  8
BEM
100
AcDbDimension
  2
*D4
 10
513.4415102595506
 20
494.0215536036316
 30
0.0
 11
403.4415102595505
 21
500.5215536036315
 31
0.0
 70
    32
  1
%%c<>
 71
     5
 42
220.0
  3
STANDARD
100
AcDbAlignedDimension
 13
293.4415102595506
 23
472.0215536036315
 33
0.0
 14
513.4415102595506
 24
472.0215536036315
 34
0.0
100
AcDbRotatedDimension
1001
ACAD
1000
DSTYLE
1002
{
1070
    47
1040
1.199999999999999
1070
    48
1040
1.199999999999999
1002
}
  0
DIMENSION
  5
881
330
2
100
AcDbEntity
  8
BEM
100
AcDbDimension
  2
*D5
 10
469.9415102595501
 20
174.4105139239201
 30
0.0
 11
403.4415102595503
 21
180.9105139239201
 31
0.0
 70
    32
  1
%%c<>
 71
     5
 42
132.9999999999995
  3
STANDARD
100
AcDbAlignedDimension
 13
336.9415102595506
 23
208.9342317178144
 33
0.0
 14
469.9415102595501
 24
208.9342317178015
 34
0.0
100
AcDbRotatedDimension
1001
ACAD
1000
DSTYLE
1002
{
1070
    71
1070
     0
1002
}
  0
LINE
  5
882
330
2
100
AcDbEntity
  8
HILF
100
AcDbLine
 10
340.9491499346373
 20
209.0215536036315
 30
0.0
 11
465.9338705844643
 21
209.0215536036315
 31
0.0
  0
LINE
  5
883
102
{ACAD_REACTORS
330
8D2
102
}
330
2
100
AcDbEntity
  8
STEMPEL
100
AcDbLine
 10
338.2462005373527
 20
194.0215536036314
 30
0.0
 11
468.6368199817488
 21
194.0215536036316
 31
0.0
  0
LINE
  5
884
102
{ACAD_REACTORS
330
8D2
102
}
330
2
100
AcDbEntity
  8
STEMPEL
100
AcDbLine
 10
336.9415102595506
 20
330.6510808325763
 30
0.0
 11
336.9415102595506
 21
208.9342317178144
 31
0.0
  0
LINE
  5
885
102
{ACAD_REACTORS
330
8D2
102
}
330
2
100
AcDbEntity
  8
STEMPEL
100
AcDbLine
 10
338.9415102595506
 20
330.6510808325763
 30
0.0
 11
338.9415102595506
 21
209.0215536036312
 31
0.0
  0
LINE
  5
888
102
{ACAD_REACTORS
330
8D2
102
}
330
2
100
AcDbEntity
  8
STEMPEL
100
AcDbLine
 10
338.9415102595506
 20
209.0215536036312
 30
0.0
 11
340.2538402124394
 21
194.0215536036314
 31
0.0
  0
LINE
  5
889
102
{ACAD_REACTORS
330
8D2
102
}
330
2
100
AcDbEntity
  8
STEMPEL
100
AcDbLine
 10
336.9415102595506
 20
208.9342317178144
 30
0.0
 11
338.2462005373527
 21
194.0215536036314
 31
0.0
  0
LINE
  5
89A
102
{ACAD_REACTORS
330
8D2
102
}
330
2
100
AcDbEntity
  8
STEMPEL
100
AcDbLine
 10
467.9415102595501
 20
330.6510808325761
 30
0.0
 11
467.9415102595512
 21
209.0215536036317
 31
0.0
  0
LINE
  5
89B
102
{ACAD_REACTORS
330
8D2
102
}
330
2
100
AcDbEntity
  8
STEMPEL
100
AcDbLine
 10
469.9415102595505
 20
330.6510808325762
 30
0.0
 11
469.9415102595501
 21
208.9342317178015
 31
0.0
  0
LINE
  5
89C
102
{ACAD_REACTORS
330
8D2
102
}
330
2
100
AcDbEntity
  8
STEMPEL
100
AcDbLine
 10
467.9415102595512
 20
209.0215536036317
 30
0.0
 11
466.6291803066622
 21
194.0215536036314
 31
0.0
  0
LINE
  5
89D
102
{ACAD_REACTORS
330
8D2
102
}
330
2
100
AcDbEntity
  8
STEMPEL
100
AcDbLine
 10
469.9415102595501
 20
208.9342317178015
 30
0.0
 11
468.6368199817488
 21
194.0215536036316
 31
0.0
  0
LINE
  5
8B6
330
2
100
AcDbEntity
  8
HILF
100
AcDbLine
 10
340.4340677318335
 20
334.3861702367462
 30
0.0
 11
466.4489527872679
 21
334.3861702367461
 31
0.0
  0
LINE
  5
8B7
330
2
100
AcDbEntity
  8
HILF
100
AcDbLine
 10
336.7298068439097
 20
342.7343595426013
 30
0.0
 11
470.1532136751916
 21
342.7343595426013
 31
0.0
  0
ARC
  5
8B8
102
{ACAD_REACTORS
330
8D2
102
}
330
2
100
AcDbEntity
  8
STEMPEL
100
AcDbCircle
 10
326.9415102595506
 20
330.6510808325763
 30
0.0
 40
10.0
100
AcDbArc
 50
0.0
 51
38.21321070173836
  0
ARC
  5
8B9
102
{ACAD_REACTORS
330
8D2
102
}
330
2
100
AcDbEntity
  8
STEMPEL
100
AcDbCircle
 10
326.9415102595506
 20
330.6510808325763
 30
0.0
 40
12.0
100
AcDbArc
 50
0.0
 51
38.21321070173814
  0
LINE
  5
8BA
102
{ACAD_REACTORS
330
8D2
102
}
330
2
100
AcDbEntity
  8
STEMPEL
100
AcDbLine
 10
327.4415102595506
 20
438.1510808325762
 30
0.0
 11
331.3338151049641
 21
431.4094110817735
 31
0.0
  0
LINE
  5
8BB
102
{ACAD_REACTORS
330
8D2
102
}
330
2
100
AcDbEntity
  8
STEMPEL
100
AcDbLine
 10
325.7094594519817
 20
437.1510808325762
 30
0.0
 11
329.601764297395
 21
430.4094110817744
 31
0.0
  0
LINE
  5
8BC
102
{ACAD_REACTORS
330
8D2
102
}
330
2
100
AcDbEntity
  8
STEMPEL
100
AcDbLine
 10
327.4415102595506
 20
438.1510808325762
 30
0.0
 11
325.7094594519817
 21
437.1510808325762
 31
0.0
  0
LINE
  5
8BD
330
2
100
AcDbEntity
  8
HILF
100
AcDbLine
 10
335.941510259551
 20
428.5152396230038
 30
0.0
 11
471.2444882869474
 21
428.5152396230038
 31
0.0
  0
LINE
  5
8BE
102
{ACAD_REACTORS
330
8D2
102
}
330
2
100
AcDbEntity
  8
STEMPEL
100
AcDbLine
 10
479.4415102595506
 20
438.1510808325762
 30
0.0
 11
475.549205414137
 21
431.4094110817735
 31
0.0
  0
LINE
  5
8BF
102
{ACAD_REACTORS
330
8D2
102
}
330
2
100
AcDbEntity
  8
STEMPEL
100
AcDbLine
 10
481.1735610671194
 20
437.1510808325762
 30
0.0
 11
477.2812562217061
 21
430.4094110817744
 31
0.0
  0
LINE
  5
8C0
102
{ACAD_REACTORS
330
8D2
102
}
330
2
100
AcDbEntity
  8
STEMPEL
100
AcDbLine
 10
479.4415102595506
 20
438.1510808325762
 30
0.0
 11
481.1735610671194
 21
437.1510808325762
 31
0.0
  0
ARC
  5
8C1
330
2
100
AcDbEntity
  8
SCHRAFF
100
AcDbCircle
 10
479.4415102595506
 20
438.1510808325762
 30
0.0
 40
3.0
100
AcDbArc
 50
281.8103148957785
 51
21.13122938499929
  0
ARC
  5
8C2
330
2
100
AcDbEntity
  8
SCHRAFF
100
AcDbCircle
 10
327.4415102595506
 20
438.1510808325762
 30
0.0
 40
3.0
100
AcDbArc
 50
158.8687706150007
 51
258.1896851042214
  0
HATCH
  5
8C3
330
2
100
AcDbEntity
  8
SCHRAFF
100
AcDbHatch
 10
0.0
 20
0.0
 30
0.0
210
0.0
220
0.0
230
1.0
  2
_U
 70
     0
 71
     0
 91
        2
 92
        7
 72
     1
 73
     1
 93
        4
 10
324.6432387256152
 20
439.2325966310587
 42
0.4627052573130662
 10
326.8274934407316
 20
435.2145891594725
 42
0.0
 10
325.7094594519817
 20
437.1510808325762
 42
0.0
 10
327.4415102595506
 20
438.1510808325763
 42
-0.0945887848327655
 97
        0
 92
        7
 72
     1
 73
     1
 93
        4
 10
481.1735610671191
 20
437.1510808325759
 42
0.0
 10
480.0555270783693
 20
435.2145891594724
 42
0.4627052573130826
 10
482.2397817934858
 20
439.2325966310587
 42
-0.0945887848327655
 10
479.4415102595506
 20
438.1510808325763
 42
0.0
 97
        0
 75
     0
 76
     0
 52
45.0
 41
0.1
 77
     0
 78
     1
 53
45.0
 43
-721.7249869797838
 44
-28.50408900693572
 45
-0.0707106781186548
 46
0.0707106781186548
 79
     0
 47
0.2282970371298439
 98
        2
 10
325.7290237465982
 20
438.3138526032761
 10
481.5312866404314
 20
437.8572589949256
  0
LINE
  5
8C4
102
{ACAD_REACTORS
330
8D2
102
}
330
2
100
AcDbEntity
  8
STEMPEL
100
AcDbLine
 10
332.9415102595506
 20
425.4094110817736
 30
0.0
 11
332.9415102595506
 21
347.9715889082651
 31
0.0
  0
LINE
  5
8C5
102
{ACAD_REACTORS
330
8D2
102
}
330
2
100
AcDbEntity
  8
STEMPEL
100
AcDbLine
 10
330.9415102595506
 20
425.4094110817742
 30
0.0
 11
330.9415102595506
 21
347.9715889082651
 31
0.0
  0
ARC
  5
8C6
102
{ACAD_REACTORS
330
8D2
102
}
330
2
100
AcDbEntity
  8
STEMPEL
100
AcDbCircle
 10
479.9415102595506
 20
330.6510808325763
 30
0.0
 40
12.0
100
AcDbArc
 50
141.7867892982618
 51
180.0
  0
ARC
  5
8C7
102
{ACAD_REACTORS
330
8D2
102
}
330
2
100
AcDbEntity
  8
STEMPEL
100
AcDbCircle
 10
479.9415102595506
 20
330.6510808325763
 30
0.0
 40
10.0
100
AcDbArc
 50
141.7867892982616
 51
180.0
  0
ARC
  5
8C8
102
{ACAD_REACTORS
330
8D2
102
}
330
2
100
AcDbEntity
  8
STEMPEL
100
AcDbCircle
 10
320.9415102595506
 20
425.4094110817742
 30
0.0
 40
10.0
100
AcDbArc
 50
0.0
 51
30.00000000000103
  0
ARC
  5
8C9
102
{ACAD_REACTORS
330
8D2
102
}
330
2
100
AcDbEntity
  8
STEMPEL
100
AcDbCircle
 10
320.9415102595506
 20
425.4094110817736
 30
0.0
 40
12.0
100
AcDbArc
 50
0.0
 51
29.99999999999915
  0
ARC
  5
8CA
102
{ACAD_REACTORS
330
8D2
102
}
330
2
100
AcDbEntity
  8
STEMPEL
100
AcDbCircle
 10
348.9415102595506
 20
347.9715889082651
 30
0.0
 40
16.0
100
AcDbArc
 50
180.0
 51
218.2132107017383
  0
ARC
  5
8CB
102
{ACAD_REACTORS
330
8D2
102
}
330
2
100
AcDbEntity
  8
STEMPEL
100
AcDbCircle
 10
348.9415102595506
 20
347.9715889082651
 30
0.0
 40
18.0
100
AcDbArc
 50
180.0
 51
218.2132107017381
  0
LINE
  5
8CC
102
{ACAD_REACTORS
330
8D2
102
}
330
2
100
AcDbEntity
  8
STEMPEL
100
AcDbLine
 10
475.9415102595506
 20
425.4094110817742
 30
0.0
 11
475.9415102595506
 21
347.9715889082651
 31
0.0
  0
LINE
  5
8CD
102
{ACAD_REACTORS
330
8D2
102
}
330
2
100
AcDbEntity
  8
STEMPEL
100
AcDbLine
 10
473.9415102595505
 20
425.4094110817736
 30
0.0
 11
473.9415102595505
 21
347.9715889082651
 31
0.0
  0
ARC
  5
8CE
102
{ACAD_REACTORS
330
8D2
102
}
330
2
100
AcDbEntity
  8
STEMPEL
100
AcDbCircle
 10
457.9415102595505
 20
347.9715889082651
 30
0.0
 40
18.0
100
AcDbArc
 50
321.7867892982618
 51
0.000000000000007
  0
ARC
  5
8CF
102
{ACAD_REACTORS
330
8D2
102
}
330
2
100
AcDbEntity
  8
STEMPEL
100
AcDbCircle
 10
457.9415102595505
 20
347.9715889082651
 30
0.0
 40
16.0
100
AcDbArc
 50
321.7867892982618
 51
0.000000000000007
  0
ARC
  5
8D0
102
{ACAD_REACTORS
330
8D2
102
}
330
2
100
AcDbEntity
  8
STEMPEL
100
AcDbCircle
 10
485.9415102595505
 20
425.4094110817736
 30
0.0
 40
12.0
100
AcDbArc
 50
150.0000000000008
 51
180.0
  0
ARC
  5
8D1
102
{ACAD_REACTORS
330
8D2
102
}
330
2
100
AcDbEntity
  8
STEMPEL
100
AcDbCircle
 10
485.9415102595505
 20
425.4094110817742
 30
0.0
 40
10.0
100
AcDbArc
 50
149.999999999999
 51
180.0
  0
HATCH
  5
8D2
330
2
100
AcDbEntity
  8
SCHRAFF
100
AcDbHatch
 10
0.0
 20
0.0
 30
0.0
210
0.0
220
0.0
230
1.0
  2
_U
 70
     0
 71
     1
 91
        2
 92
        7
 72
     1
 73
     1
 93
       16
 10
332.9415102595506
 20
425.4094110817736
 42
0.1316524975873926
 10
331.3338151049641
 20
431.4094110817735
 42
0.0
 10
327.4415102595506
 20
438.1510808325762
 42
0.0
 10
325.7094594519817
 20
437.1510808325762
 42
0.0
 10
329.601764297395
 20
430.4094110817744
 42
-0.1316524975873939
 10
330.9415102595506
 20
425.4094110817745
 42
0.0
 10
330.9415102595506
 20
347.9715889082651
 42
0.1682991173557645
 10
334.7986531166935
 20
336.8369765738937
 42
-0.1682991173557633
 10
336.9415102595506
 20
330.6510808325763
 42
0.0
 10
336.9415102595505
 20
208.9342317178147
 42
0.0
 10
338.2462005373527
 20
194.0215536036314
 42
0.0
 10
340.2538402124394
 20
194.0215536036314
 42
0.0
 10
338.9415102595506
 20
209.0215536036311
 42
0.0
 10
338.9415102595506
 20
330.6510808325763
 42
0.1682991173557643
 10
336.370081688122
 20
338.0741557221572
 42
-0.1682991173557641
 10
332.9415102595506
 20
347.9715889082651
 42
0.0
 97
       16
330
8C9
330
8BA
330
8BC
330
8BB
330
8C8
330
8C5
330
8CB
330
8B8
330
884
330
889
330
883
330
888
330
885
330
8B9
330
8CA
330
8C4
 92
        7
 72
     1
 73
     1
 93
       16
 10
473.9415102595505
 20
347.9715889082651
 42
-0.1682991173557649
 10
470.5129388309791
 20
338.0741557221572
 42
0.1682991173557689
 10
467.9415102595501
 20
330.6510808325762
 42
0.0
 10
467.9415102595513
 20
209.0215536036321
 42
0.0
 10
466.6291803066622
 20
194.0215536036316
 42
0.0
 10
468.6368199817489
 20
194.0215536036316
 42
0.0
 10
469.9415102595501
 20
208.9342317178017
 42
0.0
 10
469.9415102595505
 20
330.6510808325762
 42
-0.1682991173557682
 10
472.0843674024077
 20
336.8369765738937
 42
0.1682991173557639
 10
475.9415102595506
 20
347.9715889082651
 42
0.0
 10
475.9415102595506
 20
425.4094110817742
 42
-0.1316524975874011
 10
477.2812562217061
 20
430.4094110817744
 42
0.0
 10
481.1735610671193
 20
437.1510808325762
 42
0.0
 10
479.4415102595505
 20
438.1510808325761
 42
0.0
 10
475.549205414137
 20
431.4094110817735
 42
0.1316524975873866
 10
473.9415102595505
 20
425.4094110817739
 42
0.0
 97
       16
330
8D1
330
8BF
330
8C0
330
8BE
330
8D0
330
8CD
330
8CF
330
8C6
330
89A
330
89C
330
883
330
89D
330
89B
330
8C7
330
8CE
330
8CC
 75
     0
 76
     0
 52
45.0
 41
2.0
 77
     0
 78
     1
 53
45.0
 43
0.0
 44
10.0
 45
-1.414213562373094
 46
1.414213562373095
 79
     0
 47
0.5419039118938553
 98
        2
 10
332.1904975462671
 20
402.9650715710305
 10
474.8061325604003
 20
411.6355339608941
  0
TEXT
  5
9F8
330
2
100
AcDbEntity
  8
TEXT
 62
     1
100
AcDbText
 10
377.0433007969022
 20
243.0407766371605
 30
0.0
 40
7.0
  1
DN125
 50
90.0
 41
0.8
  7
GREEKS
100
AcDbText
  0
HATCH
  5
ABA
330
2
100
AcDbEntity
  8
SCHRAFF
100
AcDbHatch
 10
0.0
 20
0.0
 30
0.0
210
0.0
220
0.0
230
1.0
  2
NET
 70
     0
 71
     0
 91
        2
 92
        7
 72
     1
 73
     1
 93
       12
 10
653.4415102595505
 20
477.0215536036314
 42
0.0
 10
494.3203970844202
 20
477.0215536036314
 42
0.4663076581550034
 10
485.9495311838164
 20
467.0455440934624
 42
0.0
 10
487.4415102595506
 20
458.5841102860014
 42
0.0
 10
487.4415102595505
 20
456.3612995657873
 42
0.0
 10
485.2759242493844
 20
452.6103945680191
 42
0.0
 10
487.5534451247911
 20
450.5551764395223
 42
0.0
 10
490.4415102595505
 20
455.5574519884938
 42
0.0
 10
490.4415102595505
 20
458.8465762765797
 42
0.0
 10
488.9039544428531
 20
467.5664886264634
 42
-0.4663076581549939
 10
494.3203970844201
 20
474.0215536036314
 42
0.0
 10
653.4415102595504
 20
474.0215536036314
 42
0.0
 97
        0
 92
        7
 72
     1
 73
     1
 93
       15
 10
312.5626234346807
 20
477.0215536036314
 42
0.0
 10
153.4415102595506
 20
477.0215536036314
 42
0.0
 10
153.4415102595505
 20
474.0215536036314
 42
0.0
 10
312.5626234346808
 20
474.0215536036314
 42
-0.4663076581549969
 10
317.979066076248
 20
467.5664886264634
 42
0.0
 10
316.4415102595505
 20
458.84657627658
 42
0.0
 10
316.4415102595506
 20
455.5574519884938
 42
0.0
 10
323.6791145665845
 20
443.0215536036316
 42
0.0980750678644038
 10
325.2148520009217
 20
441.2674646148851
 42
0.0
 10
333.4415102595506
 20
441.2674646148851
 42
0.0
 10
333.4415102595506
 20
444.2674646148851
 42
0.0
 10
326.4238891239886
 20
444.2674646148851
 42
0.0
 10
319.4415102595506
 20
456.3612995657873
 42
0.0
 10
319.4415102595505
 20
458.5841102860018
 42
0.0
 10
320.9334893352846
 20
467.0455440934627
 42
0.4663076581549938
 97
        0
 75
     0
 76
     1
 52
45.0
 41
10.0
 77
     0
 78
     2
 53
45.0
 43
0.0
 44
0.0
 45
-0.8838834764831842
 46
0.8838834764831844
 79
     0
 53
135.0
 43
0.0
 44
0.0
 45
-0.8838834764831844
 46
-0.8838834764831842
 79
     0
 47
0.6115658937610715
 98
        2
 10
591.870901771762
 20
474.8773827233351
 10
301.2017164360855
 20
476.100513829873
  0
HATCH
  5
AC4
330
2
100
AcDbEntity
  8
SCHRAFF
100
AcDbHatch
 10
0.0
 20
0.0
 30
0.0
210
0.0
220
0.0
230
1.0
  2
NET
 70
     0
 71
     0
 91
        1
 92
        7
 72
     1
 73
     1
 93
        8
 10
473.4415102595505
 20
444.2674646148851
 42
0.0
 10
473.4415102595505
 20
441.2674646148851
 42
0.0
 10
481.6681685181793
 20
441.2674646148851
 42
0.0980750678644006
 10
483.2039059525165
 20
443.0215536036316
 42
0.0
 10
487.5534451247911
 20
450.5551764395224
 42
0.0
 10
485.2759242493844
 20
452.6103945680191
 42
0.0
 10
480.6058297411632
 20
444.5215536036315
 42
-0.0252320798374752
 10
480.4415102595493
 20
444.2674646148851
 42
0.0
 97
        0
 75
     0
 76
     1
 52
45.0
 41
10.0
 77
     0
 78
     2
 53
45.0
 43
0.0
 44
0.0
 45
-0.8838834764831842
 46
0.8838834764831844
 79
     0
 53
135.0
 43
0.0
 44
0.0
 45
-0.8838834764831844
 46
-0.8838834764831842
 79
     0
 47
0.073001745239023
 98
        1
 10
479.2910559485116
 20
443.5523872731228
  0
HATCH
  5
AEE
330
2
100
AcDbEntity
  8
SCHRAFF
100
AcDbHatch
 10
0.0
 20
0.0
 30
0.0
210
0.0
220
0.0
230
1.0
  2
_USER
 70
     0
 71
     0
 91
        3
 92
        7
 72
     1
 73
     1
 93
       12
 10
568.4415102595505
 20
472.0215536036314
 42
0.0
 10
568.4415102595506
 20
474.0215536036314
 42
0.0
 10
494.3203970844202
 20
474.0215536036314
 42
0.4663076581549971
 10
488.9039544428531
 20
467.5664886264634
 42
0.0
 10
490.4415102595505
 20
458.8465762765797
 42
0.0
 10
490.4415102595505
 20
455.5574519884938
 42
0.0
 10
487.5534451247911
 20
450.5551764395223
 42
0.0
 10
489.0717923750623
 20
449.1850310205244
 42
0.0
 10
492.2715116424305
 20
454.7271073615633
 42
0.0
 10
492.2715116424305
 20
459.9856636702643
 42
0.0
 10
490.8735699488775
 20
467.9137849817973
 42
-0.4663076581549979
 10
494.3203970844202
 20
472.0215536036315
 42
0.0
 97
        0
 92
        7
 72
     1
 73
     1
 93
        8
 10
473.9415102595505
 20
440.0215536036315
 42
0.0
 10
473.9415102595505
 20
438.0215536036316
 42
0.0
 10
478.0077535298099
 20
438.0215536036316
 42
0.267949192431121
 10
484.9359567600854
 20
442.0215536036316
 42
0.0
 10
489.0717923750622
 20
449.1850310205243
 42
0.0
 10
487.553445124791
 20
450.555176439522
 42
0.0
 10
483.2039059525165
 20
443.0215536036316
 42
-0.2679491924311195
 10
478.0077535298099
 20
440.0215536036315
 42
0.0
 97
        0
 92
        7
 72
     1
 73
     1
 93
       16
 10
312.5626234346808
 20
472.0215536036315
 42
-0.4663076581549925
 10
316.0094505702235
 20
467.9137849817973
 42
0.0
 10
314.4415102595505
 20
459.0215536036313
 42
0.0
 10
314.4415102595506
 20
455.0215536036313
 42
0.0
 10
321.9470637590156
 20
442.0215536036316
 42
0.2679491924311244
 10
328.8752669892911
 20
438.0215536036314
 42
0.0
 10
332.9415102595506
 20
438.0215536036313
 42
0.0
 10
332.9415102595506
 20
440.0215536036314
 42
0.0
 10
328.8752669892911
 20
440.0215536036314
 42
-0.2679491924311273
 10
323.6791145665845
 20
443.0215536036316
 42
0.0
 10
316.4415102595506
 20
455.5574519884936
 42
0.0
 10
316.4415102595506
 20
458.8465762765799
 42
0.0
 10
317.979066076248
 20
467.5664886264634
 42
0.4663076581549969
 10
312.5626234346808
 20
474.0215536036314
 42
0.0
 10
238.4415102595506
 20
474.0215536036314
 42
0.0
 10
238.4415102595506
 20
472.0215536036314
 42
0.0
 97
        0
 75
     0
 76
     0
 52
135.0
 41
2.0
 77
     0
 78
     1
 53
135.0
 43
0.0
 44
0.0
 45
-1.414213562373095
 46
-1.414213562373094
 79
     0
 47
0.3726288907571172
 98
        3
 10
507.2389578152901
 20
472.943465182308
 10
476.6649397782471
 20
439.406864703696
 10
303.6607459018469
 20
472.943465182308
  0
HATCH
  5
AF9
330
2
100
AcDbEntity
  8
SCHRAFF
100
AcDbHatch
 10
0.0
 20
0.0
 30
0.0
210
0.0
220
0.0
230
1.0
  2
_USER
 70
     0
 71
     1
 91
        2
 92
        7
 72
     0
 73
     1
 93
        4
 10
476.4415102595505
 20
449.2674646148851
 10
478.4415102595505
 20
449.267464614885
 10
478.4415102595507
 20
472.2674646148852
 10
476.4415102595507
 20
472.2674646148852
 97
        4
330
649
330
633
330
642
330
634
 92
        7
 72
     0
 73
     1
 93
        4
 10
330.4415102595507
 20
472.2674646148852
 10
328.4415102595507
 20
472.2674646148852
 10
328.4415102595508
 20
449.2674646148851
 10
330.4415102595508
 20
449.2674646148851
 97
        4
330
516
330
504
330
50E
330
505
 75
     0
 76
     0
 52
45.0
 41
2.0
 77
     0
 78
     1
 53
45.0
 43
0.0
 44
0.0
 45
-1.414213562373094
 46
1.414213562373095
 79
     0
 47
0.2333809196575339
 98
        2
 10
477.0352244022765
 20
462.7966875129064
 10
329.9164742950038
 20
463.0300684817761
  0
HATCH
  5
B2F
330
2
100
AcDbEntity
  8
SCHRAFF
100
AcDbHatch
 10
0.0
 20
0.0
 30
0.0
210
0.0
220
0.0
230
1.0
  2
NET
 70
     0
 71
     1
 91
        4
 92
        7
 72
     1
 73
     1
 93
       21
 10
468.7329265032205
 20
448.9201682595513
 42
-0.36397023426621
 10
466.763310997196
 20
447.2674646148852
 42
0.0
 10
465.9415102595507
 20
447.2674646148852
 42
0.0
 10
465.9415102595506
 20
445.2674646148851
 42
0.0
 10
473.4415102595508
 20
445.2674646148852
 42
0.0
 10
475.1735610671195
 20
444.2674646148851
 42
0.0
 10
480.4415102595493
 20
444.2674646148851
 42
0.0252320798374752
 10
480.6058297411632
 20
444.5215536036315
 42
0.0
 10
487.4415102595506
 20
456.3612995657875
 42
0.0
 10
487.4415102595506
 20
458.5841102860013
 42
0.0
 10
487.2447717201431
 20
459.6998699877606
 42
0.0
 10
487.0746011921173
 20
460.075669054853
 42
0.5081320132659802
 10
483.120869789209
 20
460.8991059447435
 42
-0.4919185491805621
 10
481.5619947580298
 20
461.181794831577
 42
-0.0977633374688829
 10
481.3462834616943
 20
461.925859592247
 42
0.0
 10
480.4262599806476
 20
472.4417761003804
 42
0.3888787318529898
 10
478.4338705844641
 20
474.2674646148851
 42
0.0
 10
476.4490592428448
 20
474.2674646148851
 42
0.3888787318529901
 10
474.4566698466614
 20
472.4417761003804
 42
0.0
 10
473.7407811218879
 20
464.2591305332636
 42
0.3872706394239078
 10
471.0747986270072
 20
462.2015850590525
 42
0.0
 97
       21
330
669
330
65B
330
671
330
626
330
646
330
648
330
643
330
64B
330
9A
330
64A
330
644
330
645
330
635
330
636
330
1F
330
637
330
98
330
639
330
99
330
63E
330
628
 92
       22
 72
     0
 73
     1
 93
        4
 10
476.4415102595507
 20
472.2674646148852
 10
478.4415102595507
 20
472.2674646148851
 10
478.4415102595506
 20
449.2674646148851
 10
476.4415102595505
 20
449.2674646148852
 97
        4
330
649
330
634
330
642
330
633
 92
        7
 72
     1
 73
     1
 93
       22
 10
335.8082218920941
 20
462.2015850590525
 42
0.3639702342662022
 10
333.3462025095636
 20
464.2674646148852
 42
0.0
 10
333.1415102595506
 20
464.2674646148852
 42
0.0
 10
332.42635067244
 20
472.4417761003804
 42
0.3888787318529901
 10
330.4339612762565
 20
474.2674646148851
 42
0.0
 10
328.4491499346373
 20
474.2674646148851
 42
0.3888787318529898
 10
326.4567605384538
 20
472.4417761003804
 42
0.0
 10
325.536737057407
 20
461.925859592247
 42
-0.0977633374688549
 10
325.3210257610716
 20
461.1817948315772
 42
-0.4919185491805904
 10
323.7621507298923
 20
460.8991059447437
 42
0.508132013265999
 10
319.8084193269839
 20
460.0756690548531
 42
0.0
 10
319.6382487989577
 20
459.6998699877602
 42
0.0
 10
319.4415102595505
 20
458.5841102860019
 42
0.0
 10
319.4415102595506
 20
456.3612995657869
 42
0.0
 10
326.2771907779379
 20
444.5215536036315
 42
0.0252320798374106
 10
326.4415102595503
 20
444.2674646148851
 42
0.0
 10
331.7094594519818
 20
444.2674646148851
 42
0.0
 10
333.4415102595506
 20
445.2674646148851
 42
0.0
 10
340.9415102595508
 20
445.2674646148851
 42
0.0
 10
340.9415102595506
 20
447.2674646148852
 42
0.0
 10
340.1197095219053
 20
447.2674646148852
 42
-0.3639702342662032
 10
338.1500940158809
 20
448.9201682595512
 42
0.0
 97
       22
330
515
330
9B
330
511
330
518
330
9A
330
517
330
510
330
514
330
513
330
4A5
330
502
330
4E2
330
4F2
330
4AA
330
50A
330
99
330
50D
330
98
330
50F
330
1F
330
506
330
503
 92
       22
 72
     0
 73
     1
 93
        4
 10
330.4415102595508
 20
449.2674646148851
 10
328.4415102595508
 20
449.2674646148851
 10
328.4415102595507
 20
472.2674646148852
 10
330.4415102595507
 20
472.2674646148852
 97
        4
330
50E
330
504
330
516
330
505
 75
     0
 76
     1
 52
45.0
 41
15.0
 77
     0
 78
     2
 53
45.0
 43
0.0
 44
0.0
 45
-1.325825214724776
 46
1.325825214724776
 79
     0
 53
135.0
 43
0.0
 44
0.0
 45
-1.325825214724776
 46
-1.325825214724776
 79
     0
 47
0.2333809196575339
 98
        4
 10
474.2329616475881
 20
452.7613072508684
 10
474.2329616475881
 20
452.7613072508684
 10
333.4193014291327
 20
452.0611643442591
 10
333.4193014291327
 20
452.0611643442591
  0
LINE
  5
B64
330
2
100
AcDbEntity
  8
STEMPEL
100
AcDbLine
 10
480.9415102595504
 20
402.0215536036302
 30
0.0
 11
475.9415102595506
 21
402.0215536036304
 31
0.0
  0
LINE
  5
B65
330
2
100
AcDbEntity
  8
STEMPEL
100
AcDbLine
 10
336.9415102595506
 20
318.8215536036305
 30
0.0
 11
325.9415102595503
 21
332.0215536036309
 31
0.0
  0
LINE
  5
B66
330
2
100
AcDbEntity
  8
STEMPEL
100
AcDbLine
 10
469.9415102595505
 20
318.8215536036305
 30
0.0
 11
480.9415102595503
 21
332.0215536036301
 31
0.0
  0
LINE
  5
B67
330
2
100
AcDbEntity
  8
STEMPEL
  6
Continuous
100
AcDbLine
 10
325.9415102595503
 20
332.0215536036309
 30
0.0
 11
336.8471553361621
 21
332.0215536036309
 31
0.0
  0
LINE
  5
B68
330
2
100
AcDbEntity
  8
STEMPEL
100
AcDbLine
 10
325.9415102595505
 20
402.0215536036307
 30
0.0
 11
325.9415102595503
 21
332.0215536036309
 31
0.0
  0
LINE
  5
B69
330
2
100
AcDbEntity
  8
STEMPEL
100
AcDbLine
 10
480.9415102595504
 20
402.0215536036303
 30
0.0
 11
480.9415102595503
 21
332.0215536036301
 31
0.0
  0
LINE
  5
B6B
330
2
100
AcDbEntity
  8
STEMPEL
  6
Continuous
100
AcDbLine
 10
293.4415102595506
 20
472.0215536036308
 30
0.0
 11
308.1865123338705
 21
314.7415314775516
 31
0.0
  0
ARC
  5
B6C
330
2
100
AcDbEntity
  8
STEMPEL
  6
Continuous
100
AcDbCircle
 10
311.1734150120483
 20
315.0215536036308
 30
0.0
 40
3.0
100
AcDbArc
 50
185.3558250428554
 51
270.0
  0
LINE
  5
B6D
330
2
100
AcDbEntity
  8
STEMPEL
  6
Continuous
100
AcDbLine
 10
311.1734150120483
 20
312.0215536036309
 30
0.0
 11
336.9415102595506
 21
312.0215536036308
 31
0.0
  0
LINE
  5
B6E
330
2
100
AcDbEntity
  8
STEMPEL
100
AcDbLine
 10
308.4415102595506
 20
472.0215536036308
 30
0.0
 11
314.4415102595506
 21
467.0215536036308
 31
0.0
  0
LINE
  5
B6F
330
2
100
AcDbEntity
  8
STEMPEL
100
AcDbLine
 10
314.4415102595506
 20
447.0215536036308
 30
0.0
 11
319.0603124130679
 21
447.0215536036308
 31
0.0
  0
LINE
  5
B70
330
2
100
AcDbEntity
  8
STEMPEL
100
AcDbLine
 10
314.4415102595506
 20
467.0215536036305
 30
0.0
 11
314.4415102595506
 21
447.0215536036308
 31
0.0
  0
LINE
  5
B71
330
2
100
AcDbEntity
  8
STEMPEL
100
AcDbLine
 10
314.4415102595506
 20
447.0215536036308
 30
0.0
 11
325.9415102595505
 21
402.0215536036307
 31
0.0
  0
LINE
  5
B74
330
2
100
AcDbEntity
  8
STEMPEL
100
AcDbLine
 10
492.4415102595506
 20
447.0215536036308
 30
0.0
 11
480.9415102595504
 21
402.0215536036302
 31
0.0
  0
LINE
  5
B75
330
2
100
AcDbEntity
  8
STEMPEL
100
AcDbLine
 10
492.4415102595506
 20
467.0215536036305
 30
0.0
 11
492.4415102595506
 21
447.0215536036308
 31
0.0
  0
LINE
  5
B76
330
2
100
AcDbEntity
  8
STEMPEL
100
AcDbLine
 10
498.4415102595505
 20
472.0215536036308
 30
0.0
 11
492.4415102595506
 21
467.0215536036308
 31
0.0
  0
ARC
  5
B77
330
2
100
AcDbEntity
  8
STEMPEL
  6
Continuous
100
AcDbCircle
 10
495.7096055070528
 20
315.0215536036308
 30
0.0
 40
3.0
100
AcDbArc
 50
270.0
 51
354.6441749571445
  0
LINE
  5
B78
330
2
100
AcDbEntity
  8
STEMPEL
  6
Continuous
100
AcDbLine
 10
513.4415102595506
 20
472.0215536036308
 30
0.0
 11
498.6965081852306
 21
314.7415314775516
 31
0.0
  0
LINE
  5
B7A
330
2
100
AcDbEntity
  8
STEMPEL
100
AcDbLine
 10
314.4415102595506
 20
467.0215536036305
 30
0.0
 11
315.852126105218
 21
467.0215536036305
 31
0.0
  0
LINE
  5
B7C
330
2
100
AcDbEntity
  8
STEMPEL
  6
Continuous
100
AcDbLine
 10
469.9415102595505
 20
312.0215536036301
 30
0.0
 11
495.7096055070528
 21
312.02155360363
 31
0.0
  0
LINE
  5
B7D
330
2
100
AcDbEntity
  8
STEMPEL
  6
Continuous
100
AcDbLine
 10
470.0358651829389
 20
332.0215536036302
 30
0.0
 11
480.9415102595503
 21
332.0215536036301
 31
0.0
  0
LINE
  5
B7E
330
2
100
AcDbEntity
  8
STEMPEL
100
AcDbLine
 10
330.9415102595506
 20
402.0215536036307
 30
0.0
 11
325.9415102595505
 21
402.0215536036306
 31
0.0
  0
LINE
  5
B7F
330
2
100
AcDbEntity
  8
STEMPEL
100
AcDbLine
 10
487.822708106033
 20
447.0215536036307
 30
0.0
 11
492.4415102595504
 21
447.0215536036308
 31
0.0
  0
LINE
  5
B80
330
2
100
AcDbEntity
  8
STEMPEL
100
AcDbLine
 10
491.0308944138829
 20
467.0215536036305
 30
0.0
 11
492.4415102595506
 21
467.0215536036305
 31
0.0
  0
HATCH
  5
B9F
330
2
100
AcDbEntity
  8
SCHRAFF
100
AcDbHatch
 10
0.0
 20
0.0
 30
0.0
210
0.0
220
0.0
230
1.0
  2
HONEY
 70
     0
 71
     0
 91
        3
 92
        7
 72
     0
 73
     1
 93
        6
 10
513.4415102595506
 20
472.0215536036315
 10
498.4415102595514
 20
472.0215536036315
 10
492.4415102595506
 20
467.021553603631
 10
492.4415102595506
 20
447.0215536036305
 10
492.2593188123603
 20
446.3086305494077
 10
509.5667287470381
 20
430.6905508034979
 97
        0
 92
        7
 72
     1
 73
     1
 93
        8
 10
480.9415102595504
 20
402.0215536036298
 42
0.0
 10
480.9415102595504
 20
332.0215536036301
 42
0.0
 10
469.9415102595504
 20
318.8215536036305
 42
0.0
 10
469.9415102595504
 20
312.0215536036301
 42
0.0
 10
495.7096055070527
 20
312.02155360363
 42
0.3870924378343681
 10
498.6965081852306
 20
314.7415314775516
 42
0.0
 10
509.5667287470381
 20
430.6905508034979
 42
0.0
 10
492.2593188123601
 20
446.3086305494075
 42
0.0
 97
        0
 92
        7
 72
     1
 73
     1
 93
       10
 10
314.4415102595506
 20
447.0215536036309
 42
0.0
 10
314.4415102595506
 20
467.0215536036307
 42
0.0
 10
308.4415102595496
 20
472.0215536036315
 42
0.0
 10
293.4415102595504
 20
472.0215536036314
 42
0.0
 10
308.1865123338705
 20
314.7415314775516
 42
0.3870924378342831
 10
311.1734150120483
 20
312.0215536036309
 42
0.0
 10
336.9415102595506
 20
312.0215536036308
 42
0.0
 10
336.9415102595505
 20
318.8215536036306
 42
0.0
 10
325.9415102595504
 20
332.0215536036309
 42
0.0
 10
325.9415102595505
 20
402.0215536036303
 42
0.0
 97
        0
 75
     0
 76
     1
 52
0.0
 41
35.0
 77
     0
 78
     3
 53
0.0
 43
0.0
 44
0.0
 45
6.5625
 46
3.788861124999999
 79
     2
 49
4.375
 49
-8.75
 53
120.0
 43
0.0
 44
0.0
 45
-6.562499985661285
 46
3.788861149835379
 79
     2
 49
4.375
 49
-8.75
 53
60.0
 43
0.0
 44
0.0
 45
0.000000014338714
 46
7.577722274835378
 79
     2
 49
-8.75
 49
4.375
 47
0.4697954148495544
 98
        3
 10
502.2396072662822
 20
450.0571175296839
 10
496.6001504506257
 20
426.56734647096
 10
314.2576794586485
 20
410.5943020951411
  0
TEXT
  5
BB9
330
2
100
AcDbEntity
  8
TEXT
 62
     1
100
AcDbText
 10
571.9638516280993
 20
376.5177200029886
 30
0.0
 40
7.0
  1
EDV-Art.Nr. 17201.125A
 41
0.8
  7
GREEKS
100
AcDbText
  0
TEXT
  5
BBA
330
2
100
AcDbEntity
  8
TEXT
 62
     1
100
AcDbText
 10
571.9638516280993
 20
390.7306297339189
 30
0.0
 40
7.0
  1
Klemmring DN125
 41
0.8
  7
GREEKS
100
AcDbText
  0
LINE
  5
BBB
330
2
100
AcDbEntity
  8
TEXT
 62
     2
100
AcDbLine
 10
569.943217524079
 20
387.0076764341124
 30
0.0
 11
677.4478839377032
 21
387.0076764341123
 31
0.0
  0
LINE
  5
BBC
330
2
100
AcDbEntity
  8
TEXT
 62
     2
100
AcDbLine
 10
481.177758886942
 20
455.9715554643176
 30
0.0
 11
569.943217524079
 21
387.0076764341124
 31
0.0
  0
TEXT
  5
BBD
330
2
100
AcDbEntity
  8
TEXT
 62
     1
100
AcDbText
 10
560.2536325557122
 20
321.4301574050292
 30
0.0
 40
7.0
  1
EDV-Art.Nr. 19842.125X
 41
0.8
  7
GREEKS
100
AcDbText
  0
LINE
  5
BBE
330
2
100
AcDbEntity
  8
TEXT
 62
     2
100
AcDbLine
 10
559.307684606445
 20
266.5946438327702
 30
0.0
 11
665.9655580271825
 21
266.5946438327702
 31
0.0
  0
TEXT
  5
BBF
330
2
100
AcDbEntity
  8
TEXT
 62
     1
100
AcDbText
 10
560.2536325557123
 20
335.6430671359595
 30
0.0
 40
7.0
  1
Wärmedämmung DN125
 41
0.8
  7
GREEKS
100
AcDbText
  0
LINE
  5
BC0
330
2
100
AcDbEntity
  8
TEXT
 62
     2
100
AcDbLine
 10
558.2329984516918
 20
331.920113836153
 30
0.0
 11
665.7376648653161
 21
331.9201138361529
 31
0.0
  0
TEXT
  5
BC1
330
2
100
AcDbEntity
  8
TEXT
 62
     1
100
AcDbText
 10
561.3283187104652
 20
270.3175971325767
 30
0.0
 40
7.0
  1
Ablautopf DN125
 41
0.8
  7
GREEKS
100
AcDbText
  0
TEXT
  5
BC2
330
2
100
AcDbEntity
  8
TEXT
 62
     1
100
AcDbText
 10
560.6210577555889
 20
257.6710495344354
 30
0.0
 40
7.0
  1
EDV-Art.Nr. 17115.125A
 41
0.8
  7
GREEKS
100
AcDbText
  0
LINE
  5
BC3
330
2
100
AcDbEntity
  8
TEXT
 62
     2
100
AcDbLine
 10
495.461002294058
 20
349.3638241392267
 30
0.0
 11
558.2329984516918
 21
331.920113836153
 31
0.0
  0
LINE
  5
BC4
330
2
100
AcDbEntity
  8
TEXT
 62
     2
100
AcDbLine
 10
469.3764465549657
 20
297.9506102101616
 30
0.0
 11
559.307684606445
 21
266.5946438327702
 31
0.0
  0
DIMENSION
  5
BDD
330
2
100
AcDbEntity
  8
BEM
100
AcDbDimension
  2
*D7
 10
226.987982349613
 20
312.0215536036309
 30
0.0
 11
220.487982349613
 21
392.0215536036312
 31
0.0
 70
    32
 71
     5
 42
160.0000000000005
  3
STANDARD
100
AcDbAlignedDimension
 13
238.4415102595506
 23
472.0215536036314
 33
0.0
 14
308.4415102595506
 24
312.0215536036309
 34
0.0
 50
90.0
100
AcDbRotatedDimension
  0
DIMENSION
  5
BEA
330
2
100
AcDbEntity
  8
BEM
100
AcDbDimension
  2
*D8
 10
308.4415102595506
 20
159.030358101158
 30
0.0
 11
403.4415102595505
 21
165.5303581011581
 31
0.0
 70
    32
  1
%%c<>
 71
     5
 42
189.9999999999998
  3
STANDARD
100
AcDbAlignedDimension
 13
498.4415102595504
 23
312.02155360363
 33
0.0
 14
308.4415102595506
 24
312.0215536036309
 34
0.0
100
AcDbRotatedDimension
  0
ENDSEC
  0
SECTION
  2
OBJECTS
  0
DICTIONARY
  5
1A
330
0
100
AcDbDictionary
281
     1
  3
ACAD_COLOR
350
9BC
  3
ACAD_GROUP
350
18
  3
ACAD_LAYOUT
350
9BD
  3
ACAD_MATERIAL
350
9BB
  3
ACAD_MLINESTYLE
350
19
  3
ACAD_PLOTSETTINGS
350
9BE
  3
ACAD_PLOTSTYLENAME
350
9B9
  3
AcDbVariableDictionary
350
A0C
  0
DICTIONARY
  5
9BC
102
{ACAD_REACTORS
330
1A
102
}
330
1A
100
AcDbDictionary
281
     1
  0
DICTIONARY
  5
18
102
{ACAD_REACTORS
330
1A
102
}
330
1A
100
AcDbDictionary
281
     1
  0
DICTIONARY
  5
9BD
102
{ACAD_REACTORS
330
1A
102
}
330
1A
100
AcDbDictionary
281
     1
  3
Layout1
350
9C0
  3
Model
350
9BF
  0
DICTIONARY
  5
9BB
102
{ACAD_REACTORS
330
1A
102
}
330
1A
100
AcDbDictionary
281
     1
  0
DICTIONARY
  5
19
102
{ACAD_REACTORS
330
1A
102
}
330
1A
100
AcDbDictionary
281
     1
  3
STANDARD
350
1D
  0
DICTIONARY
  5
9BE
102
{ACAD_REACTORS
330
1A
102
}
330
1A
100
AcDbDictionary
281
     1
  0
ACDBDICTIONARYWDFLT
  5
9B9
102
{ACAD_REACTORS
330
1A
102
}
330
1A
100
AcDbDictionary
281
     1
  3
Normal
350
9BA
100
AcDbDictionaryWithDefault
340
9BA
  0
DICTIONARY
  5
A0C
102
{ACAD_REACTORS
330
1A
102
}
330
1A
100
AcDbDictionary
281
     1
  3
DIMASSOC
350
A0D
  3
PROJECTNAME
350
A0E
  0
LAYOUT
  5
9C0
102
{ACAD_REACTORS
330
9BD
102
}
330
9BD
100
AcDbPlotSettings
  1

  2
RICOH Aficio 2027 PCL 6
  4

  6

 40
0.0
 41
0.0
 42
0.0
 43
0.0
 44
0.0
 45
0.0
 46
0.0
 47
0.0
 48
0.0
 49
0.0
140
0.0
141
0.0
142
1.0
143
1.0
 70
   688
 72
     0
 73
     0
 74
     5
  7
monochrome1.ctb
 75
    16
147
1.0
 76
     0
 77
     2
 78
   300
148
0.0
149
0.0
100
AcDbLayout
  1
Layout1
 70
     0
 71
     1
 10
0.0
 20
0.0
 11
12.0
 21
9.0
 12
0.0
 22
0.0
 32
0.0
 14
1.000000000000000E+20
 24
1.000000000000000E+20
 34
1.000000000000000E+20
 15
-1.000000000000000E+20
 25
-1.000000000000000E+20
 35
-1.000000000000000E+20
146
0.0
 13
0.0
 23
0.0
 33
0.0
 16
1.0
 26
0.0
 36
0.0
 17
0.0
 27
1.0
 37
0.0
 76
     0
330
7
  0
LAYOUT
  5
9BF
102
{ACAD_REACTORS
330
9BD
102
}
330
9BD
100
AcDbPlotSettings
  1

  2
RICOH Aficio 2027 PCL 6
  4
A4
  6

 40
5.027083396911621
 41
5.027085304260253
 42
5.027084350585937
 43
5.027069091796875
 44
209.9733276367187
 45
296.9259948730469
 46
0.0
 47
0.0
 48
0.0
 49
0.0
140
0.0
141
0.0
142
1.0
143
1.0
 70
 11952
 72
     0
 73
     1
 74
     0
  7
monochrome1.ctb
 75
     0
147
1.0
 76
     0
 77
     2
 78
   300
148
-3033.569169194215
149
90.63084535397159
100
AcDbLayout
  1
Model
 70
     1
 71
     0
 10
0.0
 20
0.0
 11
12.0
 21
9.0
 12
0.0
 22
0.0
 32
0.0
 14
0.0
 24
0.0
 34
0.0
 15
0.0
 25
0.0
 35
0.0
146
0.0
 13
0.0
 23
0.0
 33
0.0
 16
1.0
 26
0.0
 36
0.0
 17
0.0
 27
1.0
 37
0.0
 76
     0
330
2
  0
MLINESTYLE
  5
1D
102
{ACAD_REACTORS
330
19
102
}
330
19
100
AcDbMlineStyle
  2
STANDARD
 70
     0
  3

 62
   256
 51
90.0
 52
90.0
 71
     2
 49
0.5
 62
   256
  6
BYLAYER
 49
-0.5
 62
   256
  6
BYLAYER
  0
ACDBPLACEHOLDER
  5
9BA
102
{ACAD_REACTORS
330
9B9
102
}
330
9B9
  0
DICTIONARYVAR
  5
A0D
102
{ACAD_REACTORS
330
A0C
102
}
330
A0C
100
DictionaryVariables
280
     0
  1
1
  0
DICTIONARYVAR
  5
A0E
102
{ACAD_REACTORS
330
A0C
102
}
330
A0C
100
DictionaryVariables
280
     0
  1

  0
ENDSEC
  0
EOF
