  0
SECTION
  2
HEADER
  9
$ACADVER
  1
AC1018
  9
$ACADMAINTVER
 70
     2
  9
$DWGCODEPAGE
  3
ANSI_1252
  9
$INSBASE
 10
0.0
 20
0.0
 30
0.0
  9
$EXTMIN
 10
-0.0127956723463285
 20
-0.0090483683025013
 30
-0.0000000000000053
  9
$EXTMAX
 10
840.0128259890154
 20
594.0090698065175
 30
0.0000000000000099
  9
$LIMMIN
 10
0.0
 20
0.0
  9
$LIMMAX
 10
839.9999999999998
 20
594.0000000000002
  9
$ORTHOMODE
 70
     1
  9
$REGENMODE
 70
     1
  9
$FILLMODE
 70
     1
  9
$QTEXTMODE
 70
     0
  9
$MIRRTEXT
 70
     1
  9
$LTSCALE
 40
20.0
  9
$ATTMODE
 70
     1
  9
$TEXTSIZE
 40
3.5
  9
$TRACEWID
 40
0.5
  9
$TEXTSTYLE
  7
STANDARD
  9
$CLAYER
  8
VOLL
  9
$CELTYPE
  6
BYLAYER
  9
$CECOLOR
 62
   256
  9
$CELTSCALE
 40
1.0
  9
$DISPSILH
 70
     0
  9
$DIMSCALE
 40
2.0
  9
$DIMASZ
 40
3.5
  9
$DIMEXO
 40
1.0
  9
$DIMDLI
 40
7.0
  9
$DIMRND
 40
0.0
  9
$DIMDLE
 40
0.0
  9
$DIMEXE
 40
1.0
  9
$DIMTP
 40
0.0
  9
$DIMTM
 40
0.0
  9
$DIMTXT
 40
3.5
  9
$DIMCEN
 40
1.5
  9
$DIMTSZ
 40
0.0
  9
$DIMTOL
 70
     0
  9
$DIMLIM
 70
     0
  9
$DIMTIH
 70
     0
  9
$DIMTOH
 70
     0
  9
$DIMSE1
 70
     0
  9
$DIMSE2
 70
     0
  9
$DIMTAD
 70
     1
  9
$DIMZIN
 70
     8
  9
$DIMBLK
  1

  9
$DIMASO
 70
     1
  9
$DIMSHO
 70
     0
  9
$DIMPOST
  1

  9
$DIMAPOST
  1

  9
$DIMALT
 70
     0
  9
$DIMALTD
 70
     2
  9
$DIMALTF
 40
25.4
  9
$DIMLFAC
 40
1.0
  9
$DIMTOFL
 70
     1
  9
$DIMTVP
 40
0.0
  9
$DIMTIX
 70
     0
  9
$DIMSOXD
 70
     0
  9
$DIMSAH
 70
     0
  9
$DIMBLK1
  1

  9
$DIMBLK2
  1

  9
$DIMSTYLE
  2
STANDARD
  9
$DIMCLRD
 70
     0
  9
$DIMCLRE
 70
     0
  9
$DIMCLRT
 70
     1
  9
$DIMTFAC
 40
1.0
  9
$DIMGAP
 40
1.5
  9
$DIMJUST
 70
     0
  9
$DIMSD1
 70
     0
  9
$DIMSD2
 70
     0
  9
$DIMTOLJ
 70
     1
  9
$DIMTZIN
 70
     8
  9
$DIMALTZ
 70
     8
  9
$DIMALTTZ
 70
     8
  9
$DIMUPT
 70
     0
  9
$DIMDEC
 70
     2
  9
$DIMTDEC
 70
     2
  9
$DIMALTU
 70
     2
  9
$DIMALTTD
 70
     2
  9
$DIMTXSTY
  7
STANDARD
  9
$DIMAUNIT
 70
     0
  9
$DIMADEC
 70
     2
  9
$DIMALTRND
 40
0.0
  9
$DIMAZIN
 70
     2
  9
$DIMDSEP
 70
    46
  9
$DIMATFIT
 70
     3
  9
$DIMFRAC
 70
     0
  9
$DIMLDRBLK
  1

  9
$DIMLUNIT
 70
     2
  9
$DIMLWD
 70
    -2
  9
$DIMLWE
 70
    -2
  9
$DIMTMOVE
 70
     0
  9
$LUNITS
 70
     2
  9
$LUPREC
 70
     2
  9
$SKETCHINC
 40
1.0
  9
$FILLETRAD
 40
0.0
  9
$AUNITS
 70
     0
  9
$AUPREC
 70
     0
  9
$MENU
  1
ACAD
  9
$ELEVATION
 40
0.0
  9
$PELEVATION
 40
0.0
  9
$THICKNESS
 40
0.0
  9
$LIMCHECK
 70
     0
  9
$CHAMFERA
 40
0.0
  9
$CHAMFERB
 40
0.0
  9
$CHAMFERC
 40
0.0
  9
$CHAMFERD
 40
0.0
  9
$SKPOLY
 70
     0
  9
$TDCREATE
 40
2451449.458159259
  9
$TDUCREATE
 40
2451449.416492593
  9
$TDUPDATE
 40
2455554.515683391
  9
$TDUUPDATE
 40
2455554.474016725
  9
$TDINDWG
 40
0.0504257986
  9
$TDUSRTIMER
 40
0.0504257986
  9
$USRTIMER
 70
     1
  9
$ANGBASE
 50
0.0
  9
$ANGDIR
 70
     0
  9
$PDMODE
 70
     0
  9
$PDSIZE
 40
0.0
  9
$PLINEWID
 40
0.0
  9
$SPLFRAME
 70
     0
  9
$SPLINETYPE
 70
     6
  9
$SPLINESEGS
 70
     8
  9
$HANDSEED
  5
10C4
  9
$SURFTAB1
 70
     6
  9
$SURFTAB2
 70
     6
  9
$SURFTYPE
 70
     6
  9
$SURFU
 70
     6
  9
$SURFV
 70
     6
  9
$UCSBASE
  2

  9
$UCSNAME
  2

  9
$UCSORG
 10
0.0
 20
0.0
 30
0.0
  9
$UCSXDIR
 10
1.0
 20
0.0
 30
0.0
  9
$UCSYDIR
 10
0.0
 20
1.0
 30
0.0
  9
$UCSORTHOREF
  2

  9
$UCSORTHOVIEW
 70
     0
  9
$UCSORGTOP
 10
0.0
 20
0.0
 30
0.0
  9
$UCSORGBOTTOM
 10
0.0
 20
0.0
 30
0.0
  9
$UCSORGLEFT
 10
0.0
 20
0.0
 30
0.0
  9
$UCSORGRIGHT
 10
0.0
 20
0.0
 30
0.0
  9
$UCSORGFRONT
 10
0.0
 20
0.0
 30
0.0
  9
$UCSORGBACK
 10
0.0
 20
0.0
 30
0.0
  9
$PUCSBASE
  2

  9
$PUCSNAME
  2

  9
$PUCSORG
 10
0.0
 20
0.0
 30
0.0
  9
$PUCSXDIR
 10
1.0
 20
0.0
 30
0.0
  9
$PUCSYDIR
 10
0.0
 20
1.0
 30
0.0
  9
$PUCSORTHOREF
  2

  9
$PUCSORTHOVIEW
 70
     0
  9
$PUCSORGTOP
 10
0.0
 20
0.0
 30
0.0
  9
$PUCSORGBOTTOM
 10
0.0
 20
0.0
 30
0.0
  9
$PUCSORGLEFT
 10
0.0
 20
0.0
 30
0.0
  9
$PUCSORGRIGHT
 10
0.0
 20
0.0
 30
0.0
  9
$PUCSORGFRONT
 10
0.0
 20
0.0
 30
0.0
  9
$PUCSORGBACK
 10
0.0
 20
0.0
 30
0.0
  9
$USERI1
 70
     0
  9
$USERI2
 70
     0
  9
$USERI3
 70
     0
  9
$USERI4
 70
     0
  9
$USERI5
 70
     0
  9
$USERR1
 40
0.0
  9
$USERR2
 40
0.0
  9
$USERR3
 40
0.0
  9
$USERR4
 40
0.0
  9
$USERR5
 40
0.0
  9
$WORLDVIEW
 70
     1
  9
$SHADEDGE
 70
     3
  9
$SHADEDIF
 70
    70
  9
$TILEMODE
 70
     1
  9
$MAXACTVP
 70
    16
  9
$PINSBASE
 10
0.0
 20
0.0
 30
0.0
  9
$PLIMCHECK
 70
     0
  9
$PEXTMIN
 10
1.000000000000000E+20
 20
1.000000000000000E+20
 30
1.000000000000000E+20
  9
$PEXTMAX
 10
-1.000000000000000E+20
 20
-1.000000000000000E+20
 30
-1.000000000000000E+20
  9
$PLIMMIN
 10
0.0
 20
0.0
  9
$PLIMMAX
 10
12.0
 20
9.0
  9
$UNITMODE
 70
     0
  9
$VISRETAIN
 70
     0
  9
$PLINEGEN
 70
     0
  9
$PSLTSCALE
 70
     0
  9
$TREEDEPTH
 70
  3020
  9
$CMLSTYLE
  2
STANDARD
  9
$CMLJUST
 70
     0
  9
$CMLSCALE
 40
1.0
  9
$PROXYGRAPHICS
 70
     1
  9
$MEASUREMENT
 70
     0
  9
$CELWEIGHT
370
    -1
  9
$ENDCAPS
280
     0
  9
$JOINSTYLE
280
     0
  9
$LWDISPLAY
290
     0
  9
$INSUNITS
 70
     0
  9
$HYPERLINKBASE
  1

  9
$STYLESHEET
  1
monochrome1.ctb
  9
$XEDIT
290
     1
  9
$CEPSNTYPE
380
     0
  9
$PSTYLEMODE
290
     1
  9
$FINGERPRINTGUID
  2
{16B676D3-35B7-4285-9738-D80BAB554CD9}
  9
$VERSIONGUID
  2
{2A788C3D-0F51-4166-AE01-2F98A996A4F7}
  9
$EXTNAMES
290
     1
  9
$PSVPSCALE
 40
0.0
  9
$OLESTARTUP
290
     0
  9
$SORTENTS
280
   127
  9
$INDEXCTL
280
     0
  9
$HIDETEXT
280
     0
  9
$XCLIPFRAME
290
     0
  9
$HALOGAP
280
     0
  9
$OBSCOLOR
 70
   257
  9
$OBSLTYPE
280
     0
  9
$INTERSECTIONDISPLAY
280
     0
  9
$INTERSECTIONCOLOR
 70
   257
  9
$DIMASSOC
280
     1
  9
$PROJECTNAME
  1

  0
ENDSEC
  0
SECTION
  2
CLASSES
  0
CLASS
  1
DICTIONARYVAR
  2
AcDbDictionaryVar
  3
ObjectDBX Classes
 90
        0
 91
        2
280
     0
281
     0
  0
CLASS
  1
ACDBDICTIONARYWDFLT
  2
AcDbDictionaryWithDefault
  3
ObjectDBX Classes
 90
        0
 91
        1
280
     0
281
     0
  0
ENDSEC
  0
SECTION
  2
TABLES
  0
TABLE
  2
VPORT
  5
12
330
0
100
AcDbSymbolTable
 70
     2
  0
VPORT
  5
10C3
330
12
100
AcDbSymbolTableRecord
100
AcDbViewportTableRecord
  2
*Active
 70
     0
 10
0.0
 20
0.0
 11
1.0
 21
1.0
 12
420.0000151583345
 22
297.0000107191075
 13
0.0
 23
0.0
 14
1.0
 24
1.0
 15
20.0
 25
20.0
 16
0.0
 26
0.0
 36
1.0
 17
0.0
 27
0.0
 37
0.0
 40
632.120857871005
 41
1.336927223719676
 42
50.0
 43
0.0
 44
0.0
 50
0.0
 51
0.0
 71
     0
 72
  1500
 73
     1
 74
     0
 75
     0
 76
     0
 77
     0
 78
     0
281
     0
 65
     1
110
0.0
120
0.0
130
0.0
111
1.0
121
0.0
131
0.0
112
0.0
122
1.0
132
0.0
 79
     0
146
0.0
  0
ENDTAB
  0
TABLE
  2
LTYPE
  5
D
330
0
100
AcDbSymbolTable
 70
     3
  0
LTYPE
  5
E
330
D
100
AcDbSymbolTableRecord
100
AcDbLinetypeTableRecord
  2
BYBLOCK
 70
     0
  3

 72
    65
 73
     0
 40
0.0
  0
LTYPE
  5
F
330
D
100
AcDbSymbolTableRecord
100
AcDbLinetypeTableRecord
  2
BYLAYER
 70
     0
  3

 72
    65
 73
     0
 40
0.0
  0
LTYPE
  5
5
330
D
100
AcDbSymbolTableRecord
100
AcDbLinetypeTableRecord
  2
AUSGEZOGEN
 70
     0
  3
Ausgezogene Linie
 72
    65
 73
     0
 40
0.0
  0
LTYPE
  5
368
330
D
100
AcDbSymbolTableRecord
100
AcDbLinetypeTableRecord
  2
STRICHPUNKT
 70
     0
  3
__ . __ . __ . __ . __ . __ . __ . __ . __ . __
 72
    65
 73
     4
 40
1.0
 49
0.5
 74
     0
 49
-0.25
 74
     0
 49
0.0
 74
     0
 49
-0.25
 74
     0
  0
LTYPE
  5
779
330
D
100
AcDbSymbolTableRecord
100
AcDbLinetypeTableRecord
  2
CONTINUOUS
 70
     0
  3
Solid line
 72
    65
 73
     0
 40
0.0
  0
ENDTAB
  0
TABLE
  2
LAYER
  5
A
330
0
100
AcDbSymbolTable
 70
     9
  0
LAYER
  5
4
330
A
100
AcDbSymbolTableRecord
100
AcDbLayerTableRecord
  2
0
 70
     0
 62
     7
  6
AUSGEZOGEN
370
    -3
390
9BA
  0
LAYER
  5
551
330
A
100
AcDbSymbolTableRecord
100
AcDbLayerTableRecord
  2
VOLL
 70
     0
 62
     1
  6
AUSGEZOGEN
370
    -3
390
9BA
  0
LAYER
  5
22
330
A
100
AcDbSymbolTableRecord
100
AcDbLayerTableRecord
  2
HILF
 70
     0
 62
     2
  6
AUSGEZOGEN
370
    -3
390
9BA
  0
LAYER
  5
367
330
A
100
AcDbSymbolTableRecord
100
AcDbLayerTableRecord
  2
MITTEL
 70
     0
 62
     2
  6
STRICHPUNKT
370
    -3
390
9BA
  0
LAYER
  5
153
330
A
100
AcDbSymbolTableRecord
100
AcDbLayerTableRecord
  2
BEM
 70
     0
 62
     7
  6
AUSGEZOGEN
370
    -3
390
9BA
  0
LAYER
  5
20
330
A
100
AcDbSymbolTableRecord
100
AcDbLayerTableRecord
  2
STEMPEL
 70
     0
 62
     3
  6
AUSGEZOGEN
370
    -3
390
9BA
  0
LAYER
  5
522
330
A
100
AcDbSymbolTableRecord
100
AcDbLayerTableRecord
  2
TEXT
 70
     0
 62
     7
  6
AUSGEZOGEN
370
    -3
390
9BA
  0
LAYER
  5
15D
330
A
100
AcDbSymbolTableRecord
100
AcDbLayerTableRecord
  2
DEFPOINTS
 70
     0
 62
     7
  6
AUSGEZOGEN
290
     0
370
    -3
390
9BA
  0
LAYER
  5
1B
330
A
100
AcDbSymbolTableRecord
100
AcDbLayerTableRecord
  2
SCHRAFF
 70
     0
 62
     7
  6
AUSGEZOGEN
370
    -3
390
9BA
  0
ENDTAB
  0
TABLE
  2
STYLE
  5
B
330
0
100
AcDbSymbolTable
 70
     2
  0
STYLE
  5
C
330
B
100
AcDbSymbolTableRecord
100
AcDbTextStyleTableRecord
  2
STANDARD
 70
     0
 40
0.0
 41
0.8
 50
0.0
 71
     0
 42
3.5
  3
simplex.shx
  4

  0
STYLE
  5
1C
330
B
100
AcDbSymbolTableRecord
100
AcDbTextStyleTableRecord
  2
GREEKS
 70
     0
 40
0.0
 41
0.8
 50
0.0
 71
     0
 42
2.5
  3
SIMPLEX.shx
  4

  0
ENDTAB
  0
TABLE
  2
VIEW
  5
10
330
0
100
AcDbSymbolTable
 70
     0
  0
ENDTAB
  0
TABLE
  2
UCS
  5
11
330
0
100
AcDbSymbolTable
 70
     0
  0
ENDTAB
  0
TABLE
  2
APPID
  5
14
330
0
100
AcDbSymbolTable
 70
     1
  0
APPID
  5
15
330
14
100
AcDbSymbolTableRecord
100
AcDbRegAppTableRecord
  2
ACAD
 70
     0
  0
ENDTAB
  0
TABLE
  2
DIMSTYLE
  5
16
330
0
100
AcDbSymbolTable
 70
     1
100
AcDbDimStyleTable
 71
     1
340
1E
  0
DIMSTYLE
105
1E
102
{ACAD_REACTORS
330
F0A
330
F0B
330
F6D
330
F79
330
F7A
102
}
330
16
100
AcDbSymbolTableRecord
100
AcDbDimStyleTableRecord
  2
STANDARD
 70
     0
 40
2.0
 41
3.5
 42
1.0
 43
7.0
 44
1.0
 73
     0
 74
     0
 77
     1
 78
     8
 79
     2
140
3.5
141
1.5
147
1.5
172
     1
178
     1
179
     2
271
     2
272
     2
284
     8
285
     8
286
     8
340
C
  0
ENDTAB
  0
TABLE
  2
BLOCK_RECORD
  5
1
330
0
100
AcDbSymbolTable
 70
     6
  0
BLOCK_RECORD
  5
2
330
1
100
AcDbSymbolTableRecord
100
AcDbBlockTableRecord
  2
*MODEL_SPACE
340
9BF
  0
BLOCK_RECORD
  5
7
330
1
100
AcDbSymbolTableRecord
100
AcDbBlockTableRecord
  2
*PAPER_SPACE
340
9C0
  0
BLOCK_RECORD
  5
556
330
1
100
AcDbSymbolTableRecord
100
AcDbBlockTableRecord
  2
LOGO
340
0
102
{BLKREFS
331
555
102
}
  0
BLOCK_RECORD
  5
F7B
330
1
100
AcDbSymbolTableRecord
100
AcDbBlockTableRecord
  2
*D1
340
0
  0
BLOCK_RECORD
  5
F87
330
1
100
AcDbSymbolTableRecord
100
AcDbBlockTableRecord
  2
*D2
340
0
  0
BLOCK_RECORD
  5
F93
330
1
100
AcDbSymbolTableRecord
100
AcDbBlockTableRecord
  2
*D3
340
0
  0
BLOCK_RECORD
  5
F9F
330
1
100
AcDbSymbolTableRecord
100
AcDbBlockTableRecord
  2
*D4
340
0
  0
BLOCK_RECORD
  5
FAB
330
1
100
AcDbSymbolTableRecord
100
AcDbBlockTableRecord
  2
*D5
340
0
  0
ENDTAB
  0
ENDSEC
  0
SECTION
  2
BLOCKS
  0
BLOCK
  5
3
330
2
100
AcDbEntity
  8
0
100
AcDbBlockBegin
  2
*MODEL_SPACE
 70
     0
 10
0.0
 20
0.0
 30
0.0
  3
*MODEL_SPACE
  1

  0
ENDBLK
  5
6
330
2
100
AcDbEntity
  8
0
100
AcDbBlockEnd
  0
BLOCK
  5
8
330
7
100
AcDbEntity
 67
     1
  8
0
100
AcDbBlockBegin
  2
*PAPER_SPACE
 70
     0
 10
0.0
 20
0.0
 30
0.0
  3
*PAPER_SPACE
  1

  0
ENDBLK
  5
9
330
7
100
AcDbEntity
 67
     1
  8
0
100
AcDbBlockEnd
  0
BLOCK
  5
571
330
556
100
AcDbEntity
  8
0
100
AcDbBlockBegin
  2
LOGO
 70
     0
 10
0.0
 20
0.0
 30
0.0
  3
LOGO
  1

  0
ARC
  5
557
330
556
100
AcDbEntity
  8
0
100
AcDbCircle
 10
11.59973089678112
 20
-9.271599258481501
 30
0.0
 40
4.5
100
AcDbArc
 50
270.0
 51
231.0575587310159
  0
LINE
  5
558
330
556
100
AcDbEntity
  8
0
100
AcDbLine
 10
3.599730896781125
 20
-4.771599258481529
 30
0.0
 11
3.599730896781153
 21
-11.77159925848133
 31
0.0
  0
LINE
  5
559
330
556
100
AcDbEntity
  8
0
100
AcDbLine
 10
2.599730896781125
 20
-4.771599258481529
 30
0.0
 11
2.599730896781153
 21
-11.77159925848133
 31
0.0
  0
CIRCLE
  5
55A
330
556
100
AcDbEntity
  8
0
100
AcDbCircle
 10
11.59973089678112
 20
-9.271599258481501
 30
0.0
 40
3.5
  0
ARC
  5
55B
330
556
100
AcDbEntity
  8
0
100
AcDbCircle
 10
31.59973089678115
 20
-9.271599258481472
 30
0.0
 40
4.5
100
AcDbArc
 50
270.0
 51
231.0575587310182
  0
LINE
  5
55C
330
556
100
AcDbEntity
  8
0
100
AcDbLine
 10
17.59973089678112
 20
-4.771599258481472
 30
0.0
 11
17.59973089678115
 21
-13.77159925848147
 31
0.0
  0
ARC
  5
55D
330
556
100
AcDbEntity
  8
0
100
AcDbCircle
 10
22.59973089678116
 20
-7.271599258481472
 30
0.0
 40
2.5
100
AcDbArc
 50
293.1161887722295
 51
90.0
  0
CIRCLE
  5
55E
330
556
100
AcDbEntity
  8
0
100
AcDbCircle
 10
31.59973089678115
 20
-9.271599258481472
 30
0.0
 40
3.5
  0
ARC
  5
55F
330
556
100
AcDbEntity
  8
0
100
AcDbCircle
 10
4.599730896781153
 20
-11.77159925848133
 30
0.0
 40
1.0
100
AcDbArc
 50
180.0
 51
270.0
  0
ARC
  5
560
330
556
100
AcDbEntity
  8
0
100
AcDbCircle
 10
4.599730896781153
 20
-11.77159925848133
 30
0.0
 40
2.0
100
AcDbArc
 50
179.9999999999992
 51
270.0
  0
LINE
  5
561
330
556
100
AcDbEntity
  8
0
100
AcDbLine
 10
11.59973089678115
 20
-13.77159925848144
 30
0.0
 11
4.599730896781153
 21
-13.77159925848147
 31
0.0
  0
LINE
  5
562
330
556
100
AcDbEntity
  8
0
100
AcDbLine
 10
8.771303772034769
 20
-12.77159925848136
 30
0.0
 11
4.599730896781153
 21
-12.77159925848133
 31
0.0
  0
LINE
  5
563
330
556
100
AcDbEntity
  8
0
100
AcDbLine
 10
31.59973089678115
 20
-13.77159925848147
 30
0.0
 11
23.6715276665056
 21
-13.77159925848144
 31
0.0
  0
LINE
  5
564
330
556
100
AcDbEntity
  8
0
100
AcDbLine
 10
23.56565672307022
 20
-9.51278021337896
 30
0.0
 11
24.4388546544846
 21
-12.77159925848144
 31
0.0
  0
LINE
  5
565
330
556
100
AcDbEntity
  8
0
100
AcDbLine
 10
22.59973089678116
 20
-9.771599258481472
 30
0.0
 11
18.59973089678112
 21
-9.771599258481472
 31
0.0
  0
LINE
  5
566
330
556
100
AcDbEntity
  8
0
100
AcDbLine
 10
18.59973089678115
 20
-13.77159925848144
 30
0.0
 11
17.59973089678115
 21
-13.77159925848144
 31
0.0
  0
LINE
  5
567
330
556
100
AcDbEntity
  8
0
100
AcDbLine
 10
18.59973089678115
 20
-9.771599258481472
 30
0.0
 11
18.59973089678115
 21
-13.77159925848144
 31
0.0
  0
LINE
  5
568
330
556
100
AcDbEntity
  8
0
100
AcDbLine
 10
22.59973089678116
 20
-9.771599258481472
 30
0.0
 11
23.67152766650562
 21
-13.77159925848147
 31
0.0
  0
ARC
  5
569
330
556
100
AcDbEntity
  8
0
100
AcDbCircle
 10
22.59973089678116
 20
-7.271599258481472
 30
0.0
 40
2.5
100
AcDbArc
 50
270.0
 51
270.0000000000007
  0
LINE
  5
56A
330
556
100
AcDbEntity
  8
0
100
AcDbLine
 10
28.77130377203494
 20
-12.77159925848147
 30
0.0
 11
24.43885465448463
 21
-12.77159925848144
 31
0.0
  0
LINE
  5
56B
330
556
100
AcDbEntity
  8
0
100
AcDbLine
 10
3.599730896781125
 20
-4.771599258481472
 30
0.0
 11
2.599730896781125
 21
-4.771599258481472
 31
0.0
  0
LINE
  5
56C
330
556
100
AcDbEntity
  8
0
100
AcDbLine
 10
22.59973089678116
 20
-8.771599258481472
 30
0.0
 11
18.59973089678115
 21
-8.771599258481472
 31
0.0
  0
LINE
  5
56D
330
556
100
AcDbEntity
  8
0
100
AcDbLine
 10
22.59973089678116
 20
-5.771599258481472
 30
0.0
 11
18.59973089678115
 21
-5.771599258481472
 31
0.0
  0
LINE
  5
56E
330
556
100
AcDbEntity
  8
0
100
AcDbLine
 10
22.59973089678116
 20
-4.771599258481472
 30
0.0
 11
17.59973089678115
 21
-4.771599258481472
 31
0.0
  0
LINE
  5
56F
330
556
100
AcDbEntity
  8
0
100
AcDbLine
 10
18.59973089678115
 20
-5.771599258481472
 30
0.0
 11
18.59973089678115
 21
-8.771599258481472
 31
0.0
  0
ARC
  5
570
330
556
100
AcDbEntity
  8
0
100
AcDbCircle
 10
22.59973089678116
 20
-7.271599258481472
 30
0.0
 40
1.5
100
AcDbArc
 50
270.0
 51
90.0
  0
ENDBLK
  5
572
330
556
100
AcDbEntity
  8
0
100
AcDbBlockEnd
  0
BLOCK
  5
F85
330
F7B
100
AcDbEntity
  8
0
100
AcDbBlockBegin
  2
*D1
 70
     1
 10
0.0
 20
0.0
 30
0.0
  3
*D1
  1

  0
LINE
  5
1084
330
F7B
100
AcDbEntity
  8
BEM
 62
     0
370
    -2
100
AcDbLine
 10
327.7460918434761
 20
348.7939238571688
 30
0.0
 11
327.7460918434761
 21
169.6068812486542
 31
0.0
  0
LINE
  5
1085
330
F7B
100
AcDbEntity
  8
BEM
 62
     0
370
    -2
100
AcDbLine
 10
440.746091843476
 20
348.7939238571688
 30
0.0
 11
440.746091843476
 21
169.6068812486542
 31
0.0
  0
LINE
  5
1086
330
F7B
100
AcDbEntity
  8
BEM
 62
     0
370
    -2
100
AcDbLine
 10
334.7460918434761
 20
171.6068812486542
 30
0.0
 11
433.746091843476
 21
171.6068812486542
 31
0.0
  0
SOLID
  5
1087
330
F7B
100
AcDbEntity
  8
BEM
 62
     0
100
AcDbTrace
 10
334.7460918434761
 20
172.7735479153208
 30
0.0
 11
334.7460918434761
 21
170.4402145819875
 31
0.0
 12
327.7460918434761
 22
171.6068812486542
 32
0.0
 13
327.7460918434761
 23
171.6068812486542
 33
0.0
  0
SOLID
  5
1088
330
F7B
100
AcDbEntity
  8
BEM
 62
     0
100
AcDbTrace
 10
433.746091843476
 20
172.7735479153208
 30
0.0
 11
433.746091843476
 21
170.4402145819875
 31
0.0
 12
440.746091843476
 22
171.6068812486542
 32
0.0
 13
440.746091843476
 23
171.6068812486542
 33
0.0
  0
MTEXT
  5
1089
330
F7B
100
AcDbEntity
  8
BEM
 62
     1
100
AcDbMText
 10
384.2460918434761
 20
178.1068812486542
 30
0.0
 40
7.0
 41
0.0
 71
     5
 72
     1
  1
\A1;%%C113
 73
     1
 44
1.0
  0
POINT
  5
108A
330
F7B
100
AcDbEntity
  8
DEFPOINTS
 62
     0
100
AcDbPoint
 10
327.7460918434761
 20
350.7939238571688
 30
0.0
  0
POINT
  5
108B
330
F7B
100
AcDbEntity
  8
DEFPOINTS
 62
     0
100
AcDbPoint
 10
440.746091843476
 20
350.7939238571688
 30
0.0
  0
POINT
  5
108C
330
F7B
100
AcDbEntity
  8
DEFPOINTS
 62
     0
100
AcDbPoint
 10
440.746091843476
 20
171.6068812486542
 30
0.0
  0
ENDBLK
  5
F86
330
F7B
100
AcDbEntity
  8
0
100
AcDbBlockEnd
  0
BLOCK
  5
F91
330
F87
100
AcDbEntity
  8
0
100
AcDbBlockBegin
  2
*D2
 70
     1
 10
0.0
 20
0.0
 30
0.0
  3
*D2
  1

  0
LINE
  5
FC0
330
F87
100
AcDbEntity
  8
BEM
 62
     0
370
    -2
100
AcDbLine
 10
333.246091843476
 20
213.3359829922071
 30
0.0
 11
333.246091843476
 21
185.2629436683564
 31
0.0
  0
LINE
  5
FC1
330
F87
100
AcDbEntity
  8
BEM
 62
     0
370
    -2
100
AcDbLine
 10
435.2460918434761
 20
213.3359829922071
 30
0.0
 11
435.2460918434761
 21
185.2629436683564
 31
0.0
  0
LINE
  5
FC2
330
F87
100
AcDbEntity
  8
BEM
 62
     0
370
    -2
100
AcDbLine
 10
340.2460918434761
 20
187.2629436683564
 30
0.0
 11
428.2460918434761
 21
187.2629436683564
 31
0.0
  0
SOLID
  5
FC3
330
F87
100
AcDbEntity
  8
BEM
 62
     0
100
AcDbTrace
 10
340.2460918434761
 20
188.4296103350231
 30
0.0
 11
340.2460918434761
 21
186.0962770016898
 31
0.0
 12
333.246091843476
 22
187.2629436683564
 32
0.0
 13
333.246091843476
 23
187.2629436683564
 33
0.0
  0
SOLID
  5
FC4
330
F87
100
AcDbEntity
  8
BEM
 62
     0
100
AcDbTrace
 10
428.2460918434761
 20
188.4296103350231
 30
0.0
 11
428.2460918434761
 21
186.0962770016898
 31
0.0
 12
435.2460918434761
 22
187.2629436683564
 32
0.0
 13
435.2460918434761
 23
187.2629436683564
 33
0.0
  0
MTEXT
  5
FC5
330
F87
100
AcDbEntity
  8
BEM
 62
     1
100
AcDbMText
 10
384.2460918434761
 20
193.7629436683564
 30
0.0
 40
7.0
 41
0.0
 71
     5
 72
     1
  1
\A1;%%c102
 73
     1
 44
1.0
  0
POINT
  5
FC6
330
F87
100
AcDbEntity
  8
DEFPOINTS
 62
     0
100
AcDbPoint
 10
333.246091843476
 20
215.3359829922071
 30
0.0
  0
POINT
  5
FC7
330
F87
100
AcDbEntity
  8
DEFPOINTS
 62
     0
100
AcDbPoint
 10
435.2460918434761
 20
215.3359829922071
 30
0.0
  0
POINT
  5
FC8
330
F87
100
AcDbEntity
  8
DEFPOINTS
 62
     0
100
AcDbPoint
 10
435.2460918434761
 20
187.2629436683564
 30
0.0
  0
ENDBLK
  5
F92
330
F87
100
AcDbEntity
  8
0
100
AcDbBlockEnd
  0
BLOCK
  5
F9D
330
F93
100
AcDbEntity
  8
0
100
AcDbBlockBegin
  2
*D3
 70
     1
 10
0.0
 20
0.0
 30
0.0
  3
*D3
  1

  0
LINE
  5
FC9
330
F93
100
AcDbEntity
  8
BEM
 62
     0
370
    -2
100
AcDbLine
 10
332.5584217963649
 20
207.3359829922073
 30
0.0
 11
202.3432700634828
 21
207.3359829922074
 31
0.0
  0
LINE
  5
FCA
330
F93
100
AcDbEntity
  8
BEM
 62
     0
370
    -2
100
AcDbLine
 10
217.2460918434761
 20
477.3359829922073
 30
0.0
 11
202.3432700634828
 21
477.3359829922073
 31
0.0
  0
LINE
  5
FCB
330
F93
100
AcDbEntity
  8
BEM
 62
     0
370
    -2
100
AcDbLine
 10
204.3432700634828
 20
214.3359829922073
 30
0.0
 11
204.3432700634828
 21
470.3359829922073
 31
0.0
  0
SOLID
  5
FCC
330
F93
100
AcDbEntity
  8
BEM
 62
     0
100
AcDbTrace
 10
203.1766033968161
 20
214.3359829922073
 30
0.0
 11
205.5099367301494
 21
214.3359829922073
 31
0.0
 12
204.3432700634828
 22
207.3359829922074
 32
0.0
 13
204.3432700634828
 23
207.3359829922074
 33
0.0
  0
SOLID
  5
FCD
330
F93
100
AcDbEntity
  8
BEM
 62
     0
100
AcDbTrace
 10
203.1766033968161
 20
470.3359829922073
 30
0.0
 11
205.5099367301495
 21
470.3359829922073
 31
0.0
 12
204.3432700634828
 22
477.3359829922073
 32
0.0
 13
204.3432700634828
 23
477.3359829922073
 33
0.0
  0
MTEXT
  5
FCE
330
F93
100
AcDbEntity
  8
BEM
 62
     1
100
AcDbMText
 10
197.8432700634827
 20
342.3359829922074
 30
0.0
 40
7.0
 41
0.0
 71
     5
 72
     1
  1
\A1;270
 11
0.0000000000000001
 21
1.0
 31
0.0
 73
     1
 44
1.0
  0
POINT
  5
FCF
330
F93
100
AcDbEntity
  8
DEFPOINTS
 62
     0
100
AcDbPoint
 10
334.5584217963649
 20
207.3359829922073
 30
0.0
  0
POINT
  5
FD0
330
F93
100
AcDbEntity
  8
DEFPOINTS
 62
     0
100
AcDbPoint
 10
219.2460918434761
 20
477.3359829922073
 30
0.0
  0
POINT
  5
FD1
330
F93
100
AcDbEntity
  8
DEFPOINTS
 62
     0
100
AcDbPoint
 10
204.3432700634828
 20
477.3359829922073
 30
0.0
  0
ENDBLK
  5
F9E
330
F93
100
AcDbEntity
  8
0
100
AcDbBlockEnd
  0
BLOCK
  5
FA9
330
F9F
100
AcDbEntity
  8
0
100
AcDbBlockBegin
  2
*D4
 70
     1
 10
0.0
 20
0.0
 30
0.0
  3
*D4
  1

  0
LINE
  5
FD2
330
F9F
100
AcDbEntity
  8
BEM
 62
     0
370
    -2
100
AcDbLine
 10
134.246091843476
 20
482.3359829922073
 30
0.0
 11
134.246091843476
 21
513.1709071192038
 31
0.0
  0
LINE
  5
FD3
330
F9F
100
AcDbEntity
  8
BEM
 62
     0
370
    -2
100
AcDbLine
 10
634.246091843476
 20
482.3359829922073
 30
0.0
 11
634.246091843476
 21
513.1709071192038
 31
0.0
  0
LINE
  5
FD4
330
F9F
100
AcDbEntity
  8
BEM
 62
     0
370
    -2
100
AcDbLine
 10
141.246091843476
 20
511.1709071192039
 30
0.0
 11
627.246091843476
 21
511.1709071192039
 31
0.0
  0
SOLID
  5
FD5
330
F9F
100
AcDbEntity
  8
BEM
 62
     0
100
AcDbTrace
 10
141.246091843476
 20
512.3375737858705
 30
0.0
 11
141.246091843476
 21
510.0042404525372
 31
0.0
 12
134.246091843476
 22
511.1709071192039
 32
0.0
 13
134.246091843476
 23
511.1709071192039
 33
0.0
  0
SOLID
  5
FD6
330
F9F
100
AcDbEntity
  8
BEM
 62
     0
100
AcDbTrace
 10
627.246091843476
 20
512.3375737858705
 30
0.0
 11
627.246091843476
 21
510.0042404525372
 31
0.0
 12
634.246091843476
 22
511.1709071192039
 32
0.0
 13
634.246091843476
 23
511.1709071192039
 33
0.0
  0
MTEXT
  5
FD7
330
F9F
100
AcDbEntity
  8
BEM
 62
     1
100
AcDbMText
 10
389.3571827363338
 20
517.6709071192038
 30
0.0
 40
7.0
 41
0.0
 71
     5
 72
     1
  1
\A1;500
 73
     1
 44
1.0
  0
POINT
  5
FD8
330
F9F
100
AcDbEntity
  8
DEFPOINTS
 62
     0
100
AcDbPoint
 10
134.246091843476
 20
480.3359829922073
 30
0.0
  0
POINT
  5
FD9
330
F9F
100
AcDbEntity
  8
DEFPOINTS
 62
     0
100
AcDbPoint
 10
634.246091843476
 20
480.3359829922073
 30
0.0
  0
POINT
  5
FDA
330
F9F
100
AcDbEntity
  8
DEFPOINTS
 62
     0
100
AcDbPoint
 10
634.246091843476
 20
511.1709071192039
 30
0.0
  0
ENDBLK
  5
FAA
330
F9F
100
AcDbEntity
  8
0
100
AcDbBlockEnd
  0
BLOCK
  5
FB5
330
FAB
100
AcDbEntity
  8
0
100
AcDbBlockBegin
  2
*D5
 70
     1
 10
0.0
 20
0.0
 30
0.0
  3
*D5
  1

  0
LINE
  5
FDB
330
FAB
100
AcDbEntity
  8
BEM
 62
     0
370
    -2
100
AcDbLine
 10
219.2460918434761
 20
479.3359829922073
 30
0.0
 11
219.2460918434761
 21
494.9799130375417
 31
0.0
  0
LINE
  5
FDC
330
FAB
100
AcDbEntity
  8
BEM
 62
     0
370
    -2
100
AcDbLine
 10
549.246091843476
 20
479.3359829922073
 30
0.0
 11
549.246091843476
 21
494.9799130375417
 31
0.0
  0
LINE
  5
FDD
330
FAB
100
AcDbEntity
  8
BEM
 62
     0
370
    -2
100
AcDbLine
 10
226.2460918434761
 20
492.9799130375417
 30
0.0
 11
542.246091843476
 21
492.9799130375417
 31
0.0
  0
SOLID
  5
FDE
330
FAB
100
AcDbEntity
  8
BEM
 62
     0
100
AcDbTrace
 10
226.2460918434761
 20
494.1465797042083
 30
0.0
 11
226.2460918434761
 21
491.813246370875
 31
0.0
 12
219.2460918434761
 22
492.9799130375417
 32
0.0
 13
219.2460918434761
 23
492.9799130375417
 33
0.0
  0
SOLID
  5
FDF
330
FAB
100
AcDbEntity
  8
BEM
 62
     0
100
AcDbTrace
 10
542.246091843476
 20
494.1465797042083
 30
0.0
 11
542.246091843476
 21
491.813246370875
 31
0.0
 12
549.246091843476
 22
492.9799130375417
 32
0.0
 13
549.246091843476
 23
492.9799130375417
 33
0.0
  0
MTEXT
  5
FE0
330
FAB
100
AcDbEntity
  8
BEM
 62
     1
100
AcDbMText
 10
384.2460918434761
 20
499.4799130375417
 30
0.0
 40
7.0
 41
0.0
 71
     5
 72
     1
  1
\A1;%%c330
 73
     1
 44
1.0
  0
POINT
  5
FE1
330
FAB
100
AcDbEntity
  8
DEFPOINTS
 62
     0
100
AcDbPoint
 10
219.2460918434761
 20
477.3359829922073
 30
0.0
  0
POINT
  5
FE2
330
FAB
100
AcDbEntity
  8
DEFPOINTS
 62
     0
100
AcDbPoint
 10
549.246091843476
 20
477.3359829922073
 30
0.0
  0
POINT
  5
FE3
330
FAB
100
AcDbEntity
  8
DEFPOINTS
 62
     0
100
AcDbPoint
 10
549.246091843476
 20
492.9799130375417
 30
0.0
  0
ENDBLK
  5
FB6
330
FAB
100
AcDbEntity
  8
0
100
AcDbBlockEnd
  0
ENDSEC
  0
SECTION
  2
ENTITIES
  0
LINE
  5
10C
330
2
100
AcDbEntity
  8
HILF
100
AcDbLine
 10
839.9999999999998
 20
594.0000000000002
 30
0.0
 11
-0.0000000000001705
 21
593.9999999999997
 31
0.0
  0
LINE
  5
10D
330
2
100
AcDbEntity
  8
STEMPEL
100
AcDbLine
 10
830.0
 20
584.0
 30
0.0
 11
39.99999999999989
 21
584.0
 31
0.0
  0
LINE
  5
18C
330
2
100
AcDbEntity
  8
HILF
100
AcDbLine
 10
840.0
 20
0.0
 30
0.0
 11
0.0
 21
0.0
 31
0.0
  0
LINE
  5
18D
330
2
100
AcDbEntity
  8
STEMPEL
100
AcDbLine
 10
830.0
 20
10.0
 30
0.0
 11
40.0
 21
10.0
 31
0.0
  0
LINE
  5
369
330
2
100
AcDbEntity
  8
STEMPEL
100
AcDbLine
 10
40.0
 20
10.0
 30
0.0
 11
39.99999999999989
 21
584.0
 31
0.0
  0
LINE
  5
36A
330
2
100
AcDbEntity
  8
HILF
100
AcDbLine
 10
0.0
 20
0.0
 30
0.0
 11
-0.0000000000001705
 21
593.9999999999997
 31
0.0
  0
LINE
  5
36E
330
2
100
AcDbEntity
  8
HILF
100
AcDbLine
 10
31.08767135713851
 20
296.9999999999999
 30
0.0
 11
0.0000000000000568
 21
296.9999999999999
 31
0.0
  0
LINE
  5
527
330
2
100
AcDbEntity
  8
HILF
100
AcDbLine
 10
840.0
 20
-0.0000000000001137
 30
0.0
 11
839.9999999999998
 21
594.0
 31
0.0
  0
LINE
  5
528
330
2
100
AcDbEntity
  8
STEMPEL
100
AcDbLine
 10
830.0
 20
110.0
 30
0.0
 11
830.0
 21
584.0
 31
0.0
  0
LINE
  5
531
330
2
100
AcDbEntity
  8
STEMPEL
100
AcDbLine
 10
830.0
 20
110.0
 30
0.0
 11
470.0
 21
110.0
 31
0.0
  0
TEXT
  5
534
330
2
100
AcDbEntity
  8
TEXT
 62
     1
100
AcDbText
 10
655.33119410276
 20
87.41748789253779
 30
0.0
 40
7.0
  1
Flachdachablauf DN100
 41
0.75
  7
GREEKS
100
AcDbText
  0
LINE
  5
535
330
2
100
AcDbEntity
  8
HILF
100
AcDbLine
 10
654.7736801096947
 20
69.99999999999994
 30
0.0
 11
744.8353916556309
 21
69.99999999999994
 31
0.0
  0
LINE
  5
536
330
2
100
AcDbEntity
  8
HILF
100
AcDbLine
 10
654.7736801096947
 20
84.03758247564139
 30
0.0
 11
744.835391655631
 21
84.03758247564139
 31
0.0
  0
TEXT
  5
537
330
2
100
AcDbEntity
  8
TEXT
100
AcDbText
 10
655.1296391125315
 20
71.50334417585288
 30
0.0
 40
5.0
  1
Grundeinheit, senkrecht
 41
0.8
  7
GREEKS
100
AcDbText
  0
TEXT
  5
538
330
2
100
AcDbEntity
  8
TEXT
100
AcDbText
 10
654.8779403809009
 20
102.5489328011779
 30
0.0
 40
5.0
  1
Benennung
 41
0.8
  7
GREEKS
100
AcDbText
  0
LINE
  5
539
330
2
100
AcDbEntity
  8
HILF
100
AcDbLine
 10
654.7736801096947
 20
49.99999999999997
 30
0.0
 11
744.8353916556309
 21
49.99999999999997
 31
0.0
  0
LINE
  5
53A
330
2
100
AcDbEntity
  8
HILF
100
AcDbLine
 10
654.7736801096947
 20
59.99999999999997
 30
0.0
 11
744.8353916556309
 21
59.99999999999997
 31
0.0
  0
TEXT
  5
53B
330
2
100
AcDbEntity
  8
TEXT
100
AcDbText
 10
654.7422383911359
 20
30.84560570193057
 30
0.0
 40
5.0
  1
Bauvorhaben
 41
0.8
  7
GREEKS
100
AcDbText
  0
TEXT
  5
53C
330
2
100
AcDbEntity
  8
TEXT
100
AcDbText
 10
655.1296391125315
 20
51.64011943042158
 30
0.0
 40
5.0
  1
EDV-Art.Nr. 17300.100A
 41
0.8
  7
GREEKS
100
AcDbText
  0
TEXT
  5
53D
330
2
100
AcDbEntity
  8
TEXT
100
AcDbText
 10
654.9837501577826
 20
42.62974153022632
 30
0.0
 40
4.0
  1
17300100W.DWG
 41
0.8
  7
GREEKS
100
AcDbText
  0
LINE
  5
53F
330
2
100
AcDbEntity
  8
HILF
100
AcDbLine
 10
653.4909699289885
 20
14.89398258028314
 30
0.0
 11
824.8588839326728
 21
14.89398258028314
 31
0.0
  0
LINE
  5
540
330
2
100
AcDbEntity
  8
STEMPEL
100
AcDbLine
 10
479.9999999999998
 20
10.0
 30
0.0
 11
830.0
 21
10.0
 31
0.0
  0
LINE
  5
541
330
2
100
AcDbEntity
  8
STEMPEL
100
AcDbLine
 10
830.0
 20
80.0
 30
0.0
 11
566.0000000000001
 21
79.99999999999994
 31
0.0
  0
LINE
  5
542
330
2
100
AcDbEntity
  8
STEMPEL
100
AcDbLine
 10
830.0
 20
40.0
 30
0.0
 11
566.0000000000001
 21
39.99999999999997
 31
0.0
  0
TEXT
  5
543
330
2
100
AcDbEntity
  8
TEXT
100
AcDbText
 10
548.7163513630332
 20
18.59324216966408
 30
0.0
 40
4.0
  1
Name
 41
0.8
  7
GREEKS
 72
     1
 11
555.0401608868427
 21
18.59324216966408
 31
0.0
100
AcDbText
  0
LINE
  5
544
330
2
100
AcDbEntity
  8
HILF
100
AcDbLine
 10
470.0000000000001
 20
39.99999999999997
 30
0.0
 11
566.0000000000001
 21
39.99999999999997
 31
0.0
  0
LINE
  5
545
330
2
100
AcDbEntity
  8
HILF
100
AcDbLine
 10
470.0000000000001
 20
49.99999999999997
 30
0.0
 11
566.0000000000001
 21
49.99999999999997
 31
0.0
  0
LINE
  5
546
330
2
100
AcDbEntity
  8
HILF
100
AcDbLine
 10
470.0000000000001
 20
59.99999999999997
 30
0.0
 11
566.0000000000001
 21
59.99999999999997
 31
0.0
  0
LINE
  5
547
330
2
100
AcDbEntity
  8
HILF
100
AcDbLine
 10
470.0000000000001
 20
69.99999999999994
 30
0.0
 11
566.0000000000001
 21
69.99999999999994
 31
0.0
  0
LINE
  5
548
330
2
100
AcDbEntity
  8
HILF
100
AcDbLine
 10
470.0000000000001
 20
79.99999999999994
 30
0.0
 11
566.0000000000001
 21
79.99999999999994
 31
0.0
  0
LINE
  5
549
330
2
100
AcDbEntity
  8
HILF
100
AcDbLine
 10
470.0000000000001
 20
90.00000000000005
 30
0.0
 11
566.0000000000001
 21
90.00000000000005
 31
0.0
  0
LINE
  5
54A
330
2
100
AcDbEntity
  8
HILF
100
AcDbLine
 10
470.0000000000001
 20
100.0
 30
0.0
 11
566.0000000000001
 21
100.0
 31
0.0
  0
LINE
  5
54B
330
2
100
AcDbEntity
  8
STEMPEL
100
AcDbLine
 10
565.9999999999999
 20
29.99999999999997
 30
0.0
 11
470.0
 21
29.99999999999997
 31
0.0
  0
TEXT
  5
54C
330
2
100
AcDbEntity
  8
TEXT
100
AcDbText
 10
529.9471096443442
 20
18.6715626933981
 30
0.0
 40
4.0
  1
Tag
 41
0.8
  7
GREEKS
 72
     1
 11
533.6804429776775
 21
18.6715626933981
 31
0.0
100
AcDbText
  0
TEXT
  5
54D
330
2
100
AcDbEntity
  8
TEXT
100
AcDbText
 10
490.9978317368486
 20
18.67381894984132
 30
0.0
 40
4.0
  1
Änderung
 41
0.8
  7
GREEKS
 72
     1
 11
501.7406888797057
 21
18.67381894984132
 31
0.0
100
AcDbText
  0
TEXT
  5
54E
330
2
100
AcDbEntity
  8
TEXT
100
AcDbText
 10
478.2664110704575
 20
13.65465846027192
 30
0.0
 40
4.0
  1
Index
 50
90.0
 41
0.8
  7
GREEKS
100
AcDbText
  0
LINE
  5
54F
330
2
100
AcDbEntity
  8
STEMPEL
100
AcDbLine
 10
470.0
 20
10.0
 30
0.0
 11
470.0
 21
110.0
 31
0.0
  0
LINE
  5
550
330
2
100
AcDbEntity
  8
VOLL
100
AcDbLine
 10
544.0000000000001
 20
109.9999999999999
 30
0.0
 11
544.0
 21
9.999999999999971
 31
0.0
  0
LINE
  5
552
330
2
100
AcDbEntity
  8
VOLL
100
AcDbLine
 10
524.0000000000001
 20
109.9999999999999
 30
0.0
 11
524.0
 21
9.999999999999971
 31
0.0
  0
LINE
  5
553
330
2
100
AcDbEntity
  8
VOLL
100
AcDbLine
 10
484.0000000000001
 20
110.0
 30
0.0
 11
484.0
 21
9.999999999999971
 31
0.0
  0
LINE
  5
554
330
2
100
AcDbEntity
  8
HILF
 62
     7
100
AcDbLine
 10
460.0
 20
-0.0000000000002824
 30
0.0
 11
460.0
 21
10.0
 31
0.0
  0
INSERT
  5
555
330
2
100
AcDbEntity
  8
STEMPEL
100
AcDbBlockReference
  2
LOGO
 10
570.9955485457794
 20
45.02105276448322
 30
0.0
 41
2.0
 42
2.0
 43
2.0
  0
LINE
  5
573
330
2
100
AcDbEntity
  8
STEMPEL
100
AcDbLine
 10
566.0000000000001
 20
109.9999999999999
 30
0.0
 11
566.0
 21
9.999999999999971
 31
0.0
  0
LINE
  5
574
330
2
100
AcDbEntity
  8
STEMPEL
100
AcDbLine
 10
650.0
 20
110.0
 30
0.0
 11
650.0
 21
9.999999999999971
 31
0.0
  0
TEXT
  5
575
330
2
100
AcDbEntity
  8
TEXT
100
AcDbText
 10
612.8030600190664
 20
87.83492969601054
 30
0.0
 40
4.0
  1
DIN EN1123-2
 41
0.8
  7
GREEKS
100
AcDbText
  0
TEXT
  5
576
330
2
100
AcDbEntity
  8
TEXT
100
AcDbText
 10
614.2858954734052
 20
102.4184168434819
 30
0.0
 40
5.0
  1
Zul. Abw.
 41
0.8
  7
GREEKS
100
AcDbText
  0
LINE
  5
577
330
2
100
AcDbEntity
  8
HILF
100
AcDbLine
 10
566.0000000000001
 20
49.99999999999997
 30
0.0
 11
650.0
 21
49.99999999999997
 31
0.0
  0
LINE
  5
578
330
2
100
AcDbEntity
  8
HILF
100
AcDbLine
 10
566.0000000000001
 20
59.99999999999997
 30
0.0
 11
650.0
 21
59.99999999999997
 31
0.0
  0
LINE
  5
579
330
2
100
AcDbEntity
  8
HILF
100
AcDbLine
 10
566.0000000000001
 20
69.99999999999994
 30
0.0
 11
650.0
 21
69.99999999999994
 31
0.0
  0
TEXT
  5
57A
330
2
100
AcDbEntity
  8
TEXT
100
AcDbText
 10
590.703759012998
 20
63.10765040825732
 30
0.0
 40
4.0
  1
23.12.
 41
0.8
  7
GREEKS
 72
     1
 11
597.4085209177599
 21
63.10765040825732
 31
0.0
100
AcDbText
  0
TEXT
  5
57B
330
2
100
AcDbEntity
  8
TEXT
100
AcDbText
 10
567.5836127167615
 20
63.62990369617964
 30
0.0
 40
4.0
  1
Gez.
 41
0.8
  7
GREEKS
100
AcDbText
  0
LINE
  5
57C
330
2
100
AcDbEntity
  8
VOLL
100
AcDbLine
 10
584.0000000000001
 20
79.99999999999994
 30
0.0
 11
584.0000000000001
 21
39.99999999999997
 31
0.0
  0
LINE
  5
57D
330
2
100
AcDbEntity
  8
VOLL
100
AcDbLine
 10
610.0000000000001
 20
109.9999999999998
 30
0.0
 11
610.0
 21
39.99999999999997
 31
0.0
  0
TEXT
  5
57E
330
2
100
AcDbEntity
  8
TEXT
100
AcDbText
 10
567.5515086571672
 20
53.68926291428377
 30
0.0
 40
4.0
  1
Gepr.
 41
0.8
  7
GREEKS
100
AcDbText
  0
TEXT
  5
57F
330
2
100
AcDbEntity
  8
TEXT
100
AcDbText
 10
567.6006777387303
 20
43.52946389649807
 30
0.0
 40
4.0
  1
Norm.
 41
0.8
  7
GREEKS
100
AcDbText
  0
TEXT
  5
580
330
2
100
AcDbEntity
  8
TEXT
 62
     1
100
AcDbText
 10
580.5006306481886
 20
88.14901428913959
 30
0.0
 40
7.0
  1
1:2
 41
0.8
  7
GREEKS
100
AcDbText
  0
TEXT
  5
581
330
2
100
AcDbEntity
  8
TEXT
100
AcDbText
 10
573.5163572150376
 20
102.4620895087088
 30
0.0
 40
5.0
  1
Maßstab
 41
0.8
  7
GREEKS
100
AcDbText
  0
TEXT
  5
582
330
2
100
AcDbEntity
  8
TEXT
100
AcDbText
 10
568.6221098221039
 20
73.14025471151666
 30
0.0
 40
4.0
  1
2010
 41
0.8
  7
GREEKS
100
AcDbText
  0
TEXT
  5
583
330
2
100
AcDbEntity
  8
TEXT
100
AcDbText
 10
592.3311673153651
 20
73.31880501229926
 30
0.0
 40
4.0
  1
Tag
 41
0.8
  7
GREEKS
100
AcDbText
  0
TEXT
  5
584
330
2
100
AcDbEntity
  8
TEXT
100
AcDbText
 10
624.4216048581257
 20
63.0896391972351
 30
0.0
 40
4.0
  1
Koeh
 41
0.8
  7
GREEKS
 72
     1
 11
629.6787477152686
 21
63.0896391972351
 31
0.0
100
AcDbText
  0
TEXT
  5
585
330
2
100
AcDbEntity
  8
TEXT
100
AcDbText
 10
622.4626584226294
 20
73.30961091915225
 30
0.0
 40
4.0
  1
Name
 41
0.8
  7
GREEKS
100
AcDbText
  0
TEXT
  5
587
330
2
100
AcDbEntity
  8
TEXT
100
AcDbText
 10
471.8550995097768
 20
111.6719999999999
 30
0.0
 40
5.0
  1
Erstellt mit AUTOCAD 2004
 41
0.8
  7
GREEKS
100
AcDbText
  0
LINE
  5
5C4
330
2
100
AcDbEntity
  8
HILF
100
AcDbLine
 10
756.7238616296992
 20
83.77983636955827
 30
0.0
 11
824.8588839326728
 21
83.77983636955827
 31
0.0
  0
LINE
  5
5C5
330
2
100
AcDbEntity
  8
VOLL
100
AcDbLine
 10
752.0
 20
60.0
 30
0.0
 11
830.0
 21
60.0
 31
0.0
  0
LINE
  5
5C6
330
2
100
AcDbEntity
  8
STEMPEL
100
AcDbLine
 10
752.0
 20
109.9999999999997
 30
0.0
 11
752.0
 21
40.0
 31
0.0
  0
TEXT
  5
5C7
330
2
100
AcDbEntity
  8
TEXT
100
AcDbText
 10
757.2400861497006
 20
52.07416177878602
 30
0.0
 40
5.0
  1
ersetzt durch:
 41
0.8
  7
GREEKS
100
AcDbText
  0
TEXT
  5
5C8
330
2
100
AcDbEntity
  8
TEXT
100
AcDbText
 10
756.178754957634
 20
102.3132034537136
 30
0.0
 40
5.0
  1
Zeichnungs Nr.
 41
0.8
  7
GREEKS
100
AcDbText
  0
TEXT
  5
5C9
330
2
100
AcDbEntity
  8
TEXT
 62
     1
100
AcDbText
 10
766.2898961296783
 20
88.64254464319675
 30
0.0
 40
7.0
  1
17300100W
 41
0.8
  7
GREEKS
 72
     1
 11
789.2232294630117
 21
88.64254464319675
 31
0.0
100
AcDbText
  0
TEXT
  5
5CA
330
2
100
AcDbEntity
  8
TEXT
100
AcDbText
 10
756.7238616296992
 20
73.1811823709997
 30
0.0
 40
5.0
  1
Ersatz für:
 41
0.8
  7
GREEKS
100
AcDbText
  0
LINE
  5
5CB
330
2
100
AcDbEntity
  8
STEMPEL
100
AcDbLine
 10
830.0
 20
110.0
 30
0.0
 11
830.0
 21
10.0
 31
0.0
  0
LINE
  5
680
330
2
100
AcDbEntity
  8
HILF
 62
     7
100
AcDbLine
 10
459.9999999999998
 20
584.0
 30
0.0
 11
459.9999999999998
 21
593.9999999999998
 31
0.0
  0
TEXT
  5
684
330
2
100
AcDbEntity
  8
TEXT
100
AcDbText
 10
836.5811541437437
 20
12.14804815338303
 30
0.0
 40
4.0
  1
Diese Zeichnung ist urheberrechtlich geschützt und bleibt unser Eigentum. Sie darf weder ganz noch teilweise vervielfältigt und nicht an Dritte weitergegeben werden.
 50
90.0
 41
0.8
  7
GREEKS
100
AcDbText
  0
TEXT
  5
9F8
330
2
100
AcDbEntity
  8
TEXT
 62
     1
100
AcDbText
 10
377.0433007969022
 20
243.0407766371605
 30
0.0
 40
7.0
  1
DN100
 50
90.0
 41
0.8
  7
GREEKS
100
AcDbText
  0
LINE
  5
EE2
102
{ACAD_REACTORS
330
10B3
102
}
330
2
100
AcDbEntity
  8
STEMPEL
100
AcDbLine
 10
333.246091843476
 20
334.0457896327245
 30
0.0
 11
333.246091843476
 21
215.3359829922063
 31
0.0
  0
LINE
  5
EE3
102
{ACAD_REACTORS
330
10B3
102
}
330
2
100
AcDbEntity
  8
STEMPEL
100
AcDbLine
 10
334.996091843476
 20
334.0457896327245
 30
0.0
 11
334.996091843476
 21
215.4449340517285
 31
0.0
  0
ARC
  5
EE4
102
{ACAD_REACTORS
330
10B3
102
}
330
2
100
AcDbEntity
  8
STEMPEL
100
AcDbCircle
 10
342.7460918434761
 20
350.7939238571688
 30
0.0
 40
15.0
100
AcDbArc
 50
180.0
 51
216.3598213248429
  0
ARC
  5
EE5
102
{ACAD_REACTORS
330
10B3
102
}
330
2
100
AcDbEntity
  8
STEMPEL
100
AcDbCircle
 10
342.7460918434761
 20
350.7939238571688
 30
0.0
 40
13.25
100
AcDbArc
 50
180.0
 51
216.3598213248429
  0
ARC
  5
EE6
102
{ACAD_REACTORS
330
10B3
102
}
330
2
100
AcDbEntity
  8
STEMPEL
100
AcDbCircle
 10
319.9960918434761
 20
334.0457896327245
 30
0.0
 40
15.0
100
AcDbArc
 50
0.0
 51
36.35982132484291
  0
ARC
  5
EE7
102
{ACAD_REACTORS
330
10B3
102
}
330
2
100
AcDbEntity
  8
STEMPEL
100
AcDbCircle
 10
319.9960918434761
 20
334.0457896327245
 30
0.0
 40
13.25
100
AcDbArc
 50
0.0
 51
36.35982132484291
  0
ARC
  5
EE8
102
{ACAD_REACTORS
330
10B3
102
}
330
2
100
AcDbEntity
  8
STEMPEL
100
AcDbCircle
 10
319.4960918434761
 20
429.33323715923
 30
0.0
 40
10.0
100
AcDbArc
 50
0.0
 51
29.00000000000074
  0
ARC
  5
EE9
102
{ACAD_REACTORS
330
10B3
102
}
330
2
100
AcDbEntity
  8
STEMPEL
100
AcDbCircle
 10
319.4960918434761
 20
429.33323715923
 30
0.0
 40
8.25
100
AcDbArc
 50
0.0
 51
29.00000000000074
  0
LINE
  5
EEA
102
{ACAD_REACTORS
330
10B3
102
}
330
2
100
AcDbEntity
  8
STEMPEL
100
AcDbLine
 10
324.2460918434761
 20
441.3906637179639
 30
0.0
 11
328.2422889148701
 21
434.1813333616933
 31
0.0
  0
LINE
  5
EEB
102
{ACAD_REACTORS
330
10B3
102
}
330
2
100
AcDbEntity
  8
STEMPEL
100
AcDbLine
 10
322.715507355982
 20
440.5422468825328
 30
0.0
 11
326.711704427376
 21
433.3329165262622
 31
0.0
  0
LINE
  5
EEC
102
{ACAD_REACTORS
330
10B3
102
}
330
2
100
AcDbEntity
  8
STEMPEL
100
AcDbLine
 10
327.7460918434761
 20
429.33323715923
 30
0.0
 11
327.7460918434761
 21
350.7939238571688
 31
0.0
  0
LINE
  5
EED
102
{ACAD_REACTORS
330
10B3
102
}
330
2
100
AcDbEntity
  8
STEMPEL
100
AcDbLine
 10
329.4960918434761
 20
429.33323715923
 30
0.0
 11
329.4960918434761
 21
350.7939238571688
 31
0.0
  0
ARC
  5
EEE
102
{ACAD_REACTORS
330
10B3
102
}
330
2
100
AcDbEntity
  8
STEMPEL
100
AcDbCircle
 10
448.996091843476
 20
429.33323715923
 30
0.0
 40
8.25
100
AcDbArc
 50
150.9999999999992
 51
180.0
  0
ARC
  5
EEF
102
{ACAD_REACTORS
330
10B3
102
}
330
2
100
AcDbEntity
  8
STEMPEL
100
AcDbCircle
 10
448.996091843476
 20
429.33323715923
 30
0.0
 40
10.0
100
AcDbArc
 50
150.9999999999992
 51
180.0
  0
LINE
  5
EF0
102
{ACAD_REACTORS
330
10B3
102
}
330
2
100
AcDbEntity
  8
STEMPEL
100
AcDbLine
 10
444.246091843476
 20
441.3906637179639
 30
0.0
 11
440.2498947720821
 21
434.1813333616933
 31
0.0
  0
LINE
  5
EF1
102
{ACAD_REACTORS
330
10B3
102
}
330
2
100
AcDbEntity
  8
STEMPEL
100
AcDbLine
 10
445.7766763309701
 20
440.5422468825328
 30
0.0
 11
441.780479259576
 21
433.3329165262624
 31
0.0
  0
LINE
  5
EF2
330
2
100
AcDbEntity
  8
HILF
100
AcDbLine
 10
332.5381215347138
 20
431.8370371997744
 30
0.0
 11
435.9540621522382
 21
431.8370371997745
 31
0.0
  0
LINE
  5
EF3
102
{ACAD_REACTORS
330
10B3
102
}
330
2
100
AcDbEntity
  8
STEMPEL
100
AcDbLine
 10
440.746091843476
 20
429.33323715923
 30
0.0
 11
440.746091843476
 21
350.7939238571688
 31
0.0
  0
LINE
  5
EF4
102
{ACAD_REACTORS
330
10B3
102
}
330
2
100
AcDbEntity
  8
STEMPEL
100
AcDbLine
 10
438.996091843476
 20
429.33323715923
 30
0.0
 11
438.9960918434763
 21
350.7939238571688
 31
0.0
  0
LINE
  5
EF5
330
2
100
AcDbEntity
  8
HILF
100
AcDbLine
 10
333.4301917120874
 20
346.6598998045953
 30
0.0
 11
435.0619919748647
 21
346.6598998045953
 31
0.0
  0
LINE
  5
EF6
330
2
100
AcDbEntity
  8
HILF
100
AcDbLine
 10
336.3808884582407
 20
338.7258168620531
 30
0.0
 11
432.1112952287113
 21
338.7258168620531
 31
0.0
  0
ARC
  5
EF7
102
{ACAD_REACTORS
330
10B3
102
}
330
2
100
AcDbEntity
  8
STEMPEL
100
AcDbCircle
 10
448.496091843476
 20
334.0457896327245
 30
0.0
 40
13.25
100
AcDbArc
 50
143.6401786751571
 51
180.0
  0
ARC
  5
EF8
102
{ACAD_REACTORS
330
10B3
102
}
330
2
100
AcDbEntity
  8
STEMPEL
100
AcDbCircle
 10
448.496091843476
 20
334.0457896327245
 30
0.0
 40
15.0
100
AcDbArc
 50
143.6401786751571
 51
180.0
  0
ARC
  5
EF9
102
{ACAD_REACTORS
330
10B3
102
}
330
2
100
AcDbEntity
  8
STEMPEL
100
AcDbCircle
 10
425.746091843476
 20
350.7939238571688
 30
0.0
 40
15.0
100
AcDbArc
 50
323.6401786751571
 51
0.0
  0
ARC
  5
EFA
102
{ACAD_REACTORS
330
10B3
102
}
330
2
100
AcDbEntity
  8
STEMPEL
100
AcDbCircle
 10
425.746091843476
 20
350.7939238571688
 30
0.0
 40
13.25
100
AcDbArc
 50
323.6401786751571
 51
0.0
  0
LINE
  5
EFB
102
{ACAD_REACTORS
330
10B3
102
}
330
2
100
AcDbEntity
  8
STEMPEL
100
AcDbLine
 10
435.246091843476
 20
334.0457896327245
 30
0.0
 11
435.2460918434761
 21
215.3359829922074
 31
0.0
  0
LINE
  5
EFC
102
{ACAD_REACTORS
330
10B3
102
}
330
2
100
AcDbEntity
  8
STEMPEL
100
AcDbLine
 10
433.496091843476
 20
334.0457896327245
 30
0.0
 11
433.4960918434761
 21
215.4449340517305
 31
0.0
  0
LINE
  5
EFE
102
{ACAD_REACTORS
330
10B3
102
}
330
2
100
AcDbEntity
  8
STEMPEL
100
AcDbLine
 10
435.2460918434761
 20
215.3359829922074
 30
0.0
 11
434.246091843476
 21
207.3359829922073
 31
0.0
  0
LINE
  5
EFF
102
{ACAD_REACTORS
330
10B3
102
}
330
2
100
AcDbEntity
  8
STEMPEL
100
AcDbLine
 10
433.4960918434761
 20
215.4449340517305
 30
0.0
 11
432.4824729610358
 21
207.3359829922073
 31
0.0
  0
LINE
  5
F00
102
{ACAD_REACTORS
330
10B3
102
}
330
2
100
AcDbEntity
  8
STEMPEL
100
AcDbLine
 10
333.246091843476
 20
215.3359829922063
 30
0.0
 11
334.2460918434761
 21
207.3359829922072
 31
0.0
  0
LINE
  5
F01
102
{ACAD_REACTORS
330
10B3
102
}
330
2
100
AcDbEntity
  8
STEMPEL
100
AcDbLine
 10
334.996091843476
 20
215.4449340517285
 30
0.0
 11
336.0097107259164
 21
207.3359829922071
 31
0.0
  0
LINE
  5
F02
102
{ACAD_REACTORS
330
10B3
102
}
330
2
100
AcDbEntity
  8
STEMPEL
100
AcDbLine
 10
334.2460918434761
 20
207.3359829922072
 30
0.0
 11
434.246091843476
 21
207.3359829922073
 31
0.0
  0
LINE
  5
F03
330
2
100
AcDbEntity
  8
HILF
100
AcDbLine
 10
336.7597107259164
 20
215.4449340517285
 30
0.0
 11
431.746091843476
 21
215.4449340517285
 31
0.0
  0
LINE
  5
F04
102
{ACAD_REACTORS
330
10B3
102
}
330
2
100
AcDbEntity
  8
SCHRAFF
100
AcDbLine
 10
443.9873529683403
 20
440.9238864310739
 30
0.0
 11
444.3799380766687
 21
441.3164715394024
 31
0.0
  0
HATCH
  5
F05
330
2
100
AcDbEntity
  8
SCHRAFF
100
AcDbHatch
 10
0.0
 20
0.0
 30
0.0
210
0.0
220
0.0
230
1.0
  2
_U
 70
     0
 71
     0
 91
        2
 92
        7
 72
     1
 73
     1
 93
        4
 10
324.2460918434759
 20
441.3906637179636
 42
-0.0945887848327614
 10
321.3850944080175
 20
442.2932675481684
 42
0.4706943623819096
 10
323.8968422722134
 20
438.4110622786815
 42
0.0
 10
322.715507355982
 20
440.5422468825327
 42
0.0
 97
        0
 92
        7
 72
     1
 73
     1
 93
        4
 10
447.1070892789346
 20
442.2932675481684
 42
-0.0945887848327614
 10
444.2460918434761
 20
441.3906637179638
 42
0.0
 10
445.7766763309701
 20
440.5422468825327
 42
0.0
 10
444.5953414147385
 20
438.4110622786815
 42
0.470694362381929
 97
        0
 75
     0
 76
     0
 52
45.0
 41
0.1
 77
     0
 78
     1
 53
45.0
 43
3.380399967451467
 44
1.006893823891914
 45
-0.0707106781186548
 46
0.0707106781186548
 79
     0
 47
0.1722615632248931
 98
        2
 10
322.0450037033227
 20
441.0349427517997
 10
446.1559224549789
 20
440.5181578065819
  0
LINE
  5
F06
102
{ACAD_REACTORS
330
10B3
102
}
330
2
100
AcDbEntity
  8
STEMPEL
100
AcDbLine
 10
444.246091843476
 20
441.3906637179638
 30
0.0
 11
445.7766763309701
 21
440.5422468825327
 31
0.0
  0
ARC
  5
F07
330
2
100
AcDbEntity
  8
SCHRAFF
100
AcDbCircle
 10
444.246091843476
 20
441.3906637179638
 30
0.0
 40
3.0
100
AcDbArc
 50
276.6853347126549
 51
17.50974126551266
  0
ARC
  5
F08
330
2
100
AcDbEntity
  8
SCHRAFF
100
AcDbCircle
 10
324.246091843476
 20
441.3906637179638
 30
0.0
 40
3.0
100
AcDbArc
 50
162.4902587344873
 51
263.3146652873451
  0
LINE
  5
F09
102
{ACAD_REACTORS
330
10B3
102
}
330
2
100
AcDbEntity
  8
STEMPEL
100
AcDbLine
 10
324.246091843476
 20
441.3906637179638
 30
0.0
 11
322.715507355982
 21
440.5422468825327
 31
0.0
  0
DIMENSION
  5
F0A
330
2
100
AcDbEntity
  8
BEM
100
AcDbDimension
  2
*D1
 10
440.746091843476
 20
171.6068812486542
 30
0.0
 11
384.2460918434761
 21
178.1068812486542
 31
0.0
 70
    32
  1
%%C<>
 71
     5
 42
113.0
  3
STANDARD
100
AcDbAlignedDimension
 13
327.7460918434761
 23
350.7939238571688
 33
0.0
 14
440.746091843476
 24
350.7939238571688
 34
0.0
100
AcDbRotatedDimension
  0
DIMENSION
  5
F0B
330
2
100
AcDbEntity
  8
BEM
100
AcDbDimension
  2
*D2
 10
435.2460918434761
 20
187.2629436683564
 30
0.0
 11
384.2460918434761
 21
193.7629436683564
 31
0.0
 70
    32
  1
%%c<>
 71
     5
 42
102.0000000000001
  3
STANDARD
100
AcDbAlignedDimension
 13
333.246091843476
 23
215.3359829922071
 33
0.0
 14
435.2460918434761
 24
215.3359829922071
 34
0.0
100
AcDbRotatedDimension
  0
LINE
  5
F0C
102
{ACAD_REACTORS
330
1042
102
}
330
2
100
AcDbEntity
  8
STEMPEL
100
AcDbLine
 10
634.246091843476
 20
480.3359829922073
 30
0.0
 11
634.2460918434759
 21
477.3359829922073
 31
0.0
  0
LINE
  5
F0D
330
2
100
AcDbEntity
  8
TEXT
 62
     2
100
AcDbLine
 10
585.2067276322635
 20
478.9081200833931
 30
0.0
 11
616.3848840504949
 21
435.4475212660437
 31
0.0
  0
LINE
  5
F0E
102
{ACAD_REACTORS
330
100C
102
}
330
2
100
AcDbEntity
  8
STEMPEL
100
AcDbLine
 10
549.246091843476
 20
477.3359829922073
 30
0.0
 11
549.246091843476
 21
475.3359829922073
 31
0.0
  0
TEXT
  5
F0F
330
2
100
AcDbEntity
  8
TEXT
 62
     1
100
AcDbText
 10
484.6331227679411
 20
409.2993602625467
 30
0.0
 40
7.0
  1
Klemmring DN100
 41
0.8
  7
GREEKS
100
AcDbText
  0
LINE
  5
F10
102
{ACAD_REACTORS
330
100C
102
}
330
2
100
AcDbEntity
  8
STEMPEL
100
AcDbLine
 10
457.7460918434759
 20
462.3359829922073
 30
0.0
 11
456.6079667485572
 21
468.191129019948
 31
0.0
  0
ARC
  5
F11
102
{ACAD_REACTORS
330
1077
102
}
330
2
100
AcDbEntity
  8
STEMPEL
100
AcDbCircle
 10
448.6570134455032
 20
465.3894234128356
 30
0.0
 40
1.0
100
AcDbArc
 50
240.9854054549861
 51
295.3979441358715
  0
ARC
  5
F12
102
{ACAD_REACTORS
330
1077
102
}
330
2
100
AcDbEntity
  8
STEMPEL
100
AcDbCircle
 10
450.1581729655492
 20
462.2276960217763
 30
0.0
 40
2.499999999999928
100
AcDbArc
 50
20.00751066586387
 51
115.3979441358715
  0
LINE
  5
F13
102
{ACAD_REACTORS
330
1042
330
1077
102
}
330
2
100
AcDbEntity
  8
STEMPEL
100
AcDbLine
 10
452.9133798532274
 20
460.3729874088234
 30
0.0
 11
452.6868903952719
 21
462.1591027993294
 31
0.0
  0
LINE
  5
F14
102
{ACAD_REACTORS
330
1042
330
1077
102
}
330
2
100
AcDbEntity
  8
STEMPEL
100
AcDbLine
 10
452.6868903952719
 20
462.1591027993294
 30
0.0
 11
451.699830831319
 21
467.2370840430653
 31
0.0
  0
ARC
  5
F15
102
{ACAD_REACTORS
330
1042
330
1077
102
}
330
2
100
AcDbEntity
  8
STEMPEL
100
AcDbCircle
 10
451.921324007893
 20
460.2471891586847
 30
0.0
 40
1.0
100
AcDbArc
 50
329.9999999999995
 51
7.226856044883641
  0
LINE
  5
F16
102
{ACAD_REACTORS
330
100C
330
1042
102
}
330
2
100
AcDbEntity
  8
STEMPEL
100
AcDbLine
 10
455.746091843476
 20
462.1434048958121
 30
0.0
 11
454.6447123816618
 21
467.809511029195
 31
0.0
  0
ARC
  5
F17
102
{ACAD_REACTORS
330
100C
330
1042
102
}
330
2
100
AcDbEntity
  8
STEMPEL
100
AcDbCircle
 10
462.4977298492431
 20
469.3359829922074
 30
0.0
 40
8.0
100
AcDbArc
 50
90.0
 51
190.9999999999987
  0
ARC
  5
F18
102
{ACAD_REACTORS
330
100C
102
}
330
2
100
AcDbEntity
  8
STEMPEL
100
AcDbCircle
 10
462.4977298492431
 20
469.3359829922074
 30
0.0
 40
6.0
100
AcDbArc
 50
90.0
 51
190.9999999999987
  0
LINE
  5
F19
102
{ACAD_REACTORS
330
100C
102
}
330
2
100
AcDbEntity
  8
STEMPEL
100
AcDbLine
 10
457.7460918434759
 20
458.3359829922073
 30
0.0
 11
450.2405383440108
 21
445.3359829922073
 31
0.0
  0
LINE
  5
F1A
102
{ACAD_REACTORS
330
100C
330
1042
102
}
330
2
100
AcDbEntity
  8
STEMPEL
100
AcDbLine
 10
455.746091843476
 20
458.8718813770696
 30
0.0
 11
448.5084875364419
 21
446.3359829922073
 31
0.0
  0
LINE
  5
F1B
102
{ACAD_REACTORS
330
100C
330
1042
102
}
330
2
100
AcDbEntity
  8
STEMPEL
100
AcDbLine
 10
455.746091843476
 20
462.1434048958121
 30
0.0
 11
455.746091843476
 21
458.8718813770696
 31
0.0
  0
LINE
  5
F1C
102
{ACAD_REACTORS
330
100C
102
}
330
2
100
AcDbEntity
  8
STEMPEL
100
AcDbLine
 10
457.7460918434759
 20
462.3359829922073
 30
0.0
 11
457.7460918434759
 21
458.3359829922073
 31
0.0
  0
LINE
  5
F1D
102
{ACAD_REACTORS
330
1019
330
1077
102
}
330
2
100
AcDbEntity
  8
STEMPEL
100
AcDbLine
 10
444.2460918434762
 20
476.4173987051653
 30
0.0
 11
442.2460918434762
 21
476.4173987051653
 31
0.0
  0
ARC
  5
F1E
102
{ACAD_REACTORS
330
1077
102
}
330
2
100
AcDbEntity
  8
STEMPEL
100
AcDbCircle
 10
444.2384521683898
 20
476.4173987051653
 30
0.0
 40
2.0
100
AcDbArc
 50
5.000000000000026
 51
90.0
  0
ARC
  5
F1F
102
{ACAD_REACTORS
330
1077
102
}
330
2
100
AcDbEntity
  8
STEMPEL
100
AcDbCircle
 10
442.2537315185629
 20
476.4173987051653
 30
0.0
 40
2.0
100
AcDbArc
 50
90.0
 51
175.0
  0
ARC
  5
F20
102
{ACAD_REACTORS
330
1077
102
}
330
2
100
AcDbEntity
  8
STEMPEL
100
AcDbCircle
 10
439.3413995934634
 20
465.9173987051652
 30
0.0
 40
2.5
100
AcDbArc
 50
90.0
 51
170.0000000000014
  0
LINE
  5
F21
102
{ACAD_REACTORS
330
1077
102
}
330
2
100
AcDbEntity
  8
STEMPEL
100
AcDbLine
 10
440.2613421223793
 20
476.5917101906606
 30
0.0
 11
439.5461825352689
 21
468.4173987051651
 31
0.0
  0
LINE
  5
F22
102
{ACAD_REACTORS
330
1077
102
}
330
2
100
AcDbEntity
  8
STEMPEL
100
AcDbLine
 10
446.2308415645732
 20
476.5917101906606
 30
0.0
 11
447.1496564394719
 21
466.0896081140122
 31
0.0
  0
LINE
  5
F23
102
{ACAD_REACTORS
330
1019
330
1077
102
}
330
2
100
AcDbEntity
  8
STEMPEL
100
AcDbLine
 10
444.2460918434762
 20
453.4173987051653
 30
0.0
 11
442.2460918434762
 21
453.4173987051653
 31
0.0
  0
LINE
  5
F24
102
{ACAD_REACTORS
330
1077
102
}
330
2
100
AcDbEntity
  8
STEMPEL
100
AcDbLine
 10
432.2460918434763
 20
449.4173987051652
 30
0.0
 11
432.2460918434763
 21
451.4173987051653
 31
0.0
  0
ARC
  5
F25
102
{ACAD_REACTORS
330
1077
102
}
330
2
100
AcDbEntity
  8
STEMPEL
100
AcDbCircle
 10
432.5678925811216
 20
453.4173987051653
 30
0.0
 40
2.0
100
AcDbArc
 50
270.0
 51
350.0000000000014
  0
LINE
  5
F26
102
{ACAD_REACTORS
330
1077
102
}
330
2
100
AcDbEntity
  8
STEMPEL
100
AcDbLine
 10
438.7460918434765
 20
449.4173987051652
 30
0.0
 11
440.4781426510454
 21
448.4173987051652
 31
0.0
  0
LINE
  5
F27
102
{ACAD_REACTORS
330
100C
102
}
330
2
100
AcDbEntity
  8
STEMPEL
100
AcDbLine
 10
441.746091843476
 20
443.3359829922073
 30
0.0
 11
441.746091843476
 21
441.3359829922073
 31
0.0
  0
LINE
  5
F28
102
{ACAD_REACTORS
330
1042
102
}
330
2
100
AcDbEntity
  8
STEMPEL
100
AcDbLine
 10
441.746091843476
 20
448.4173987051652
 30
0.0
 11
441.746091843476
 21
445.4173987051651
 31
0.0
  0
LINE
  5
F29
102
{ACAD_REACTORS
330
1019
330
1077
102
}
330
2
100
AcDbEntity
  8
STEMPEL
100
AcDbLine
 10
442.2460918434762
 20
453.4173987051653
 30
0.0
 11
442.2460918434762
 21
476.4173987051653
 31
0.0
  0
LINE
  5
F2A
102
{ACAD_REACTORS
330
1019
330
1077
102
}
330
2
100
AcDbEntity
  8
STEMPEL
100
AcDbLine
 10
444.2460918434762
 20
453.4173987051653
 30
0.0
 11
444.2460918434762
 21
476.4173987051653
 31
0.0
  0
LINE
  5
F2B
102
{ACAD_REACTORS
330
1077
102
}
330
2
100
AcDbEntity
  8
STEMPEL
100
AcDbLine
 10
434.5375080871461
 20
453.0701023498315
 30
0.0
 11
436.8793802109328
 21
466.3515191493326
 31
0.0
  0
LINE
  5
F2D
102
{ACAD_REACTORS
330
1042
330
1077
102
}
330
2
100
AcDbEntity
  8
STEMPEL
100
AcDbLine
 10
452.7873494116776
 20
459.7471891586846
 30
0.0
 11
446.246091843476
 21
448.4173987051652
 31
0.0
  0
ARC
  5
F2E
102
{ACAD_REACTORS
330
100C
102
}
330
2
100
AcDbEntity
  8
STEMPEL
100
AcDbCircle
 10
443.3123351137353
 20
449.3359829922073
 30
0.0
 40
8.0
100
AcDbArc
 50
270.0
 51
329.9999999999995
  0
ARC
  5
F2F
102
{ACAD_REACTORS
330
100C
330
1042
102
}
330
2
100
AcDbEntity
  8
STEMPEL
100
AcDbCircle
 10
443.3123351137353
 20
449.3359829922073
 30
0.0
 40
6.0
100
AcDbArc
 50
270.0
 51
329.9999999999995
  0
LINE
  5
F30
330
2
100
AcDbEntity
  8
STEMPEL
100
AcDbLine
 10
450.1581729655491
 20
464.7276960217762
 30
0.0
 11
447.8614143042524
 21
464.7276960217762
 31
0.0
  0
ARC
  5
F31
102
{ACAD_REACTORS
330
1077
102
}
330
2
100
AcDbEntity
  8
STEMPEL
100
AcDbCircle
 10
449.1420458356551
 20
466.2639195995075
 30
0.0
 40
2.0
100
AcDbArc
 50
185.0
 51
240.9854054549861
  0
LINE
  5
F32
102
{ACAD_REACTORS
330
100C
330
1042
102
}
330
2
100
AcDbEntity
  8
STEMPEL
100
AcDbLine
 10
462.4977298492431
 20
477.3359829922073
 30
0.0
 11
634.2460918434759
 21
477.3359829922073
 31
0.0
  0
LINE
  5
F34
102
{ACAD_REACTORS
330
100C
330
1042
102
}
330
2
100
AcDbEntity
  8
TEXT
 62
     2
100
AcDbLine
 10
477.5820634550813
 20
405.5764069627404
 30
0.0
 11
446.5510131296422
 21
454.8716632057631
 31
0.0
  0
LINE
  5
F35
102
{ACAD_REACTORS
330
100C
102
}
330
2
100
AcDbEntity
  8
STEMPEL
100
AcDbLine
 10
549.246091843476
 20
475.3359829922073
 30
0.0
 11
462.4977298492431
 21
475.3359829922073
 31
0.0
  0
ARC
  5
F36
102
{ACAD_REACTORS
330
1042
102
}
330
2
100
AcDbEntity
  8
STEMPEL
100
AcDbCircle
 10
462.4977298492431
 20
469.3359829922074
 30
0.0
 40
11.0
100
AcDbArc
 50
90.0
 51
190.9999999999987
  0
LINE
  5
F37
330
2
100
AcDbEntity
  8
TEXT
 62
     2
100
AcDbLine
 10
477.5820634550813
 20
405.5764069627405
 30
0.0
 11
587.4567499456587
 21
405.5764069627404
 31
0.0
  0
LINE
  5
F38
330
2
100
AcDbEntity
  8
TEXT
 62
     2
100
AcDbLine
 10
616.3848840504949
 20
435.4475212660437
 30
0.0
 11
744.2273219439524
 21
435.4475212660437
 31
0.0
  0
TEXT
  5
F39
330
2
100
AcDbEntity
  8
TEXT
 62
     1
100
AcDbText
 10
621.0546874231295
 20
439.17047456585
 30
0.0
 40
7.0
  1
Anschlussmanschette DN100
 41
0.8
  7
GREEKS
100
AcDbText
  0
TEXT
  5
F3A
330
2
100
AcDbEntity
  8
TEXT
 62
     1
100
AcDbText
 10
483.9484538075877
 20
395.5127649556647
 30
0.0
 40
7.0
  1
EDV-Art.Nr. 17201.100A
 41
0.8
  7
GREEKS
100
AcDbText
  0
TEXT
  5
F3B
330
2
100
AcDbEntity
  8
TEXT
 62
     1
100
AcDbText
 10
620.3116424055031
 20
424.8138595985087
 30
0.0
 40
7.0
  1
EDV-Art.Nr. 17000.100A
 41
0.8
  7
GREEKS
100
AcDbText
  0
TEXT
  5
F3C
330
2
100
AcDbEntity
  8
TEXT
 62
     1
100
AcDbText
 10
484.1415380052888
 20
227.3292289343995
 30
0.0
 40
7.0
  1
Ablauftopf DN100
 41
0.8
  7
GREEKS
100
AcDbText
  0
LINE
  5
F3D
330
2
100
AcDbEntity
  8
TEXT
 62
     2
100
AcDbLine
 10
434.4564680154053
 20
248.2738869419554
 30
0.0
 11
477.5820634550813
 21
223.6062756345931
 31
0.0
  0
LINE
  5
F3E
330
2
100
AcDbEntity
  8
TEXT
 62
     2
100
AcDbLine
 10
477.5820634550814
 20
223.6062756345931
 30
0.0
 11
585.5003372638569
 21
223.6062756345931
 31
0.0
  0
TEXT
  5
F3F
330
2
100
AcDbEntity
  8
TEXT
 62
     1
100
AcDbText
 10
483.9484538075877
 20
213.6661107666561
 30
0.0
 40
7.0
  1
EDV-Art.Nr. 17115.100A
 41
0.8
  7
GREEKS
100
AcDbText
  0
LINE
  5
F40
330
2
100
AcDbEntity
  8
MITTEL
100
AcDbLine
 10
384.2460918434761
 20
485.3359829922073
 30
0.0
 11
384.2460918434761
 21
202.3359829922074
 31
0.0
  0
LINE
  5
F41
330
2
100
AcDbEntity
  8
BEM
 62
     1
100
AcDbLine
 10
379.0575799142562
 20
520.1302667176123
 30
0.0
 11
373.4575799142561
 21
520.1302667176123
 31
0.0
  0
LINE
  5
F42
330
2
100
AcDbEntity
  8
BEM
 62
     1
100
AcDbLine
 10
373.4575799142561
 20
514.5302667176123
 30
0.0
 11
379.0575799142562
 21
514.5302667176123
 31
0.0
  0
LINE
  5
F43
330
2
100
AcDbEntity
  8
BEM
 62
     1
100
AcDbLine
 10
373.4575799142561
 20
520.1302667176123
 30
0.0
 11
373.4575799142561
 21
514.5302667176123
 31
0.0
  0
LINE
  5
F44
330
2
100
AcDbEntity
  8
BEM
 62
     1
100
AcDbLine
 10
379.0575799142562
 20
514.5302667176123
 30
0.0
 11
379.0575799142562
 21
520.1302667176123
 31
0.0
  0
ARC
  5
F45
102
{ACAD_REACTORS
330
1077
102
}
330
2
100
AcDbEntity
  8
STEMPEL
100
AcDbCircle
 10
326.2384521683896
 20
476.4173987051653
 30
0.0
 40
2.0
100
AcDbArc
 50
5.000000000000026
 51
90.0
  0
ARC
  5
F46
102
{ACAD_REACTORS
330
1077
102
}
330
2
100
AcDbEntity
  8
STEMPEL
100
AcDbCircle
 10
324.2537315185627
 20
476.4173987051653
 30
0.0
 40
2.0
100
AcDbArc
 50
90.0
 51
175.0
  0
LINE
  5
F47
102
{ACAD_REACTORS
330
1019
330
1077
102
}
330
2
100
AcDbEntity
  8
STEMPEL
100
AcDbLine
 10
324.2460918434761
 20
476.4173987051651
 30
0.0
 11
326.2460918434761
 21
476.4173987051651
 31
0.0
  0
ARC
  5
F48
102
{ACAD_REACTORS
330
1077
102
}
330
2
100
AcDbEntity
  8
STEMPEL
100
AcDbCircle
 10
329.1507840934892
 20
465.9173987051651
 30
0.0
 40
2.5
100
AcDbArc
 50
9.999999999998609
 51
90.0
  0
ARC
  5
F49
102
{ACAD_REACTORS
330
1077
102
}
330
2
100
AcDbEntity
  8
STEMPEL
100
AcDbCircle
 10
319.350137851297
 20
466.2639195995075
 30
0.0
 40
2.0
100
AcDbArc
 50
299.0145945450107
 51
354.9999999999999
  0
ARC
  5
F4A
102
{ACAD_REACTORS
330
1077
102
}
330
2
100
AcDbEntity
  8
STEMPEL
100
AcDbCircle
 10
319.8351702414488
 20
465.3894234128356
 30
0.0
 40
1.0
100
AcDbArc
 50
244.6020558641285
 51
299.0145945450107
  0
LINE
  5
F4B
330
2
100
AcDbEntity
  8
STEMPEL
100
AcDbLine
 10
318.3340107214029
 20
464.7276960217762
 30
0.0
 11
320.6307693826996
 21
464.7276960217762
 31
0.0
  0
LINE
  5
F4C
102
{ACAD_REACTORS
330
1077
102
}
330
2
100
AcDbEntity
  8
STEMPEL
100
AcDbLine
 10
322.2613421223791
 20
476.5917101906606
 30
0.0
 11
321.3425272474804
 21
466.0896081140122
 31
0.0
  0
LINE
  5
F4D
102
{ACAD_REACTORS
330
1077
102
}
330
2
100
AcDbEntity
  8
STEMPEL
100
AcDbLine
 10
328.230841564573
 20
476.5917101906606
 30
0.0
 11
328.9460011516837
 21
468.4173987051653
 31
0.0
  0
LINE
  5
F4E
102
{ACAD_REACTORS
330
1077
102
}
330
2
100
AcDbEntity
  8
STEMPEL
100
AcDbLine
 10
336.2460918434761
 20
449.4173987051652
 30
0.0
 11
336.2460918434761
 21
451.4173987051653
 31
0.0
  0
ARC
  5
F4F
102
{ACAD_REACTORS
330
1077
102
}
330
2
100
AcDbEntity
  8
STEMPEL
100
AcDbCircle
 10
335.9242911058307
 20
453.4173987051652
 30
0.0
 40
2.0
100
AcDbArc
 50
189.9999999999986
 51
270.0
  0
LINE
  5
F50
102
{ACAD_REACTORS
330
1077
102
}
330
2
100
AcDbEntity
  8
STEMPEL
100
AcDbLine
 10
329.7460918434761
 20
449.4173987051652
 30
0.0
 11
328.0140410359072
 21
448.4173987051653
 31
0.0
  0
LINE
  5
F51
102
{ACAD_REACTORS
330
1019
330
1077
102
}
330
2
100
AcDbEntity
  8
STEMPEL
100
AcDbLine
 10
324.2460918434761
 20
453.4173987051652
 30
0.0
 11
326.2460918434761
 21
453.4173987051652
 31
0.0
  0
LINE
  5
F52
102
{ACAD_REACTORS
330
100C
102
}
330
2
100
AcDbEntity
  8
STEMPEL
100
AcDbLine
 10
326.746091843476
 20
443.3359829922073
 30
0.0
 11
326.746091843476
 21
441.3359829922073
 31
0.0
  0
ARC
  5
F53
102
{ACAD_REACTORS
330
100C
102
}
330
2
100
AcDbEntity
  8
STEMPEL
100
AcDbCircle
 10
325.1798485732166
 20
449.3359829922073
 30
0.0
 40
8.0
100
AcDbArc
 50
210.0000000000005
 51
270.0
  0
ARC
  5
F54
102
{ACAD_REACTORS
330
100C
330
1042
102
}
330
2
100
AcDbEntity
  8
STEMPEL
100
AcDbCircle
 10
325.1798485732166
 20
449.3359829922073
 30
0.0
 40
6.0
100
AcDbArc
 50
210.0000000000005
 51
270.0
  0
LINE
  5
F55
102
{ACAD_REACTORS
330
1042
102
}
330
2
100
AcDbEntity
  8
STEMPEL
100
AcDbLine
 10
326.746091843476
 20
448.4173987051651
 30
0.0
 11
326.746091843476
 21
445.4173987051651
 31
0.0
  0
LINE
  5
F56
102
{ACAD_REACTORS
330
1019
330
1077
102
}
330
2
100
AcDbEntity
  8
STEMPEL
100
AcDbLine
 10
326.2460918434761
 20
453.4173987051652
 30
0.0
 11
326.2460918434761
 21
476.4173987051651
 31
0.0
  0
LINE
  5
F57
102
{ACAD_REACTORS
330
1019
330
1077
102
}
330
2
100
AcDbEntity
  8
STEMPEL
100
AcDbLine
 10
324.2460918434761
 20
453.4173987051652
 30
0.0
 11
324.2460918434761
 21
476.4173987051651
 31
0.0
  0
LINE
  5
F58
102
{ACAD_REACTORS
330
1077
102
}
330
2
100
AcDbEntity
  8
STEMPEL
100
AcDbLine
 10
333.9546755998063
 20
453.0701023498314
 30
0.0
 11
331.6128034760197
 21
466.3515191493324
 31
0.0
  0
LINE
  5
F59
102
{ACAD_REACTORS
330
100C
330
1042
102
}
330
2
100
AcDbEntity
  8
STEMPEL
100
AcDbLine
 10
312.746091843476
 20
462.1434048958121
 30
0.0
 11
313.8474713052901
 21
467.809511029195
 31
0.0
  0
LINE
  5
F5A
102
{ACAD_REACTORS
330
100C
102
}
330
2
100
AcDbEntity
  8
STEMPEL
100
AcDbLine
 10
310.7460918434761
 20
462.3359829922073
 30
0.0
 11
311.8842169383947
 21
468.191129019948
 31
0.0
  0
LINE
  5
F5B
102
{ACAD_REACTORS
330
1042
330
1077
102
}
330
2
100
AcDbEntity
  8
STEMPEL
100
AcDbLine
 10
315.5788038337246
 20
460.3729874088233
 30
0.0
 11
315.8052932916802
 21
462.1591027993293
 31
0.0
  0
ARC
  5
F5C
102
{ACAD_REACTORS
330
1042
330
1077
102
}
330
2
100
AcDbEntity
  8
STEMPEL
100
AcDbCircle
 10
316.570859679059
 20
460.2471891586847
 30
0.0
 40
1.0
100
AcDbArc
 50
172.7731439551163
 51
210.0000000000005
  0
ARC
  5
F5D
102
{ACAD_REACTORS
330
100C
330
1042
102
}
330
2
100
AcDbEntity
  8
STEMPEL
100
AcDbCircle
 10
305.9944538377088
 20
469.3359829922074
 30
0.0
 40
8.0
100
AcDbArc
 50
349.0000000000013
 51
90.0
  0
ARC
  5
F5E
102
{ACAD_REACTORS
330
100C
102
}
330
2
100
AcDbEntity
  8
STEMPEL
100
AcDbCircle
 10
305.9944538377088
 20
469.3359829922074
 30
0.0
 40
6.0
100
AcDbArc
 50
349.0000000000013
 51
90.0
  0
LINE
  5
F5F
102
{ACAD_REACTORS
330
100C
330
1042
102
}
330
2
100
AcDbEntity
  8
STEMPEL
100
AcDbLine
 10
312.746091843476
 20
462.1434048958121
 30
0.0
 11
312.746091843476
 21
458.8718813770696
 31
0.0
  0
LINE
  5
F60
102
{ACAD_REACTORS
330
100C
102
}
330
2
100
AcDbEntity
  8
STEMPEL
100
AcDbLine
 10
310.7460918434761
 20
462.3359829922073
 30
0.0
 11
310.7460918434761
 21
458.3359829922073
 31
0.0
  0
LINE
  5
F62
102
{ACAD_REACTORS
330
1042
330
1077
102
}
330
2
100
AcDbEntity
  8
STEMPEL
100
AcDbLine
 10
315.7048342752746
 20
459.7471891586847
 30
0.0
 11
322.2460918434761
 21
448.4173987051651
 31
0.0
  0
LINE
  5
F63
102
{ACAD_REACTORS
330
100C
330
1042
102
}
330
2
100
AcDbEntity
  8
STEMPEL
100
AcDbLine
 10
312.746091843476
 20
458.8718813770696
 30
0.0
 11
319.98369615051
 21
446.3359829922073
 31
0.0
  0
LINE
  5
F64
102
{ACAD_REACTORS
330
100C
102
}
330
2
100
AcDbEntity
  8
STEMPEL
100
AcDbLine
 10
310.7460918434761
 20
458.3359829922073
 30
0.0
 11
318.2516453429412
 21
445.3359829922073
 31
0.0
  0
ARC
  5
F65
102
{ACAD_REACTORS
330
1077
102
}
330
2
100
AcDbEntity
  8
STEMPEL
100
AcDbCircle
 10
318.3340107214029
 20
462.2276960217763
 30
0.0
 40
2.499999999999928
100
AcDbArc
 50
64.6020558641285
 51
159.9924893337488
  0
LINE
  5
F66
102
{ACAD_REACTORS
330
1042
330
1077
102
}
330
2
100
AcDbEntity
  8
STEMPEL
100
AcDbLine
 10
315.8052932916802
 20
462.1591027993293
 30
0.0
 11
316.7923528556331
 21
467.2370840430653
 31
0.0
  0
LINE
  5
F67
102
{ACAD_REACTORS
330
100C
102
}
330
2
100
AcDbEntity
  8
STEMPEL
100
AcDbLine
 10
219.2460918434761
 20
477.3359829922073
 30
0.0
 11
219.2460918434761
 21
475.3359829922073
 31
0.0
  0
LINE
  5
F68
102
{ACAD_REACTORS
330
1042
102
}
330
2
100
AcDbEntity
  8
STEMPEL
100
AcDbLine
 10
134.246091843476
 20
480.3359829922073
 30
0.0
 11
134.246091843476
 21
477.3359829922073
 31
0.0
  0
LINE
  5
F69
102
{ACAD_REACTORS
330
100C
330
1042
102
}
330
2
100
AcDbEntity
  8
STEMPEL
100
AcDbLine
 10
134.246091843476
 20
477.3359829922073
 30
0.0
 11
305.9944538377088
 21
477.3359829922073
 31
0.0
  0
LINE
  5
F6A
102
{ACAD_REACTORS
330
100C
102
}
330
2
100
AcDbEntity
  8
STEMPEL
100
AcDbLine
 10
219.2460918434761
 20
475.3359829922073
 30
0.0
 11
305.9944538377088
 21
475.3359829922073
 31
0.0
  0
ARC
  5
F6C
102
{ACAD_REACTORS
330
1042
102
}
330
2
100
AcDbEntity
  8
STEMPEL
100
AcDbCircle
 10
305.9944538377088
 20
469.3359829922074
 30
0.0
 40
11.0
100
AcDbArc
 50
349.0000000000013
 51
90.0
  0
DIMENSION
  5
F6D
330
2
100
AcDbEntity
  8
BEM
100
AcDbDimension
  2
*D3
 10
204.3432700634828
 20
477.3359829922073
 30
0.0
 11
197.8432700634827
 21
342.3359829922074
 31
0.0
 70
    32
 71
     5
 42
270.0
  3
STANDARD
100
AcDbAlignedDimension
 13
334.5584217963649
 23
207.3359829922073
 33
0.0
 14
219.2460918434761
 24
477.3359829922073
 34
0.0
 50
90.0
100
AcDbRotatedDimension
  0
LINE
  5
F6F
102
{ACAD_REACTORS
330
1077
102
}
330
2
100
AcDbEntity
  8
STEMPEL
100
AcDbLine
 10
324.2537315185627
 20
478.4173987051653
 30
0.0
 11
444.2384521683897
 21
478.4173987051687
 31
0.0
  0
LINE
  5
F70
102
{ACAD_REACTORS
330
1077
102
}
330
2
100
AcDbEntity
  8
STEMPEL
100
AcDbLine
 10
328.9460011516837
 20
468.4173987051651
 30
0.0
 11
439.5461825352689
 21
468.4173987051651
 31
0.0
  0
LINE
  5
F71
102
{ACAD_REACTORS
330
1042
330
1077
102
}
330
2
100
AcDbEntity
  8
STEMPEL
100
AcDbLine
 10
322.2460918434761
 20
448.4173987051651
 30
0.0
 11
446.246091843476
 21
448.4173987051652
 31
0.0
  0
LINE
  5
F72
102
{ACAD_REACTORS
330
1077
102
}
330
2
100
AcDbEntity
  8
STEMPEL
100
AcDbLine
 10
329.7460918434761
 20
449.4173987051652
 30
0.0
 11
438.7460918434765
 21
449.4173987051652
 31
0.0
  0
LINE
  5
F73
102
{ACAD_REACTORS
330
1077
102
}
330
2
100
AcDbEntity
  8
STEMPEL
100
AcDbLine
 10
335.9242911058307
 20
451.4173987051653
 30
0.0
 11
432.5678925811216
 21
451.4173987051653
 31
0.0
  0
LINE
  5
F74
102
{ACAD_REACTORS
330
1042
102
}
330
2
100
AcDbEntity
  8
STEMPEL
100
AcDbLine
 10
320.636204970848
 20
445.4173987051651
 30
0.0
 11
447.855978716104
 21
445.4173987051651
 31
0.0
  0
LINE
  5
F75
102
{ACAD_REACTORS
330
1042
102
}
330
2
100
AcDbEntity
  8
STEMPEL
100
AcDbLine
 10
134.246091843476
 20
480.3359829922073
 30
0.0
 11
634.246091843476
 21
480.3359829922073
 31
0.0
  0
LINE
  5
F77
102
{ACAD_REACTORS
330
100C
102
}
330
2
100
AcDbEntity
  8
STEMPEL
100
AcDbLine
 10
325.1798485732166
 20
441.3359829922073
 30
0.0
 11
443.3123351137353
 21
441.3359829922073
 31
0.0
  0
LINE
  5
F78
102
{ACAD_REACTORS
330
100C
102
}
330
2
100
AcDbEntity
  8
STEMPEL
100
AcDbLine
 10
325.1798485732166
 20
443.3359829922073
 30
0.0
 11
443.3123351137353
 21
443.3359829922074
 31
0.0
  0
DIMENSION
  5
F79
330
2
100
AcDbEntity
  8
BEM
100
AcDbDimension
  2
*D4
 10
634.246091843476
 20
511.1709071192039
 30
0.0
 11
389.3571827363338
 21
511.1709071192039
 31
0.0
 70
   160
 71
     5
 42
500.0
  3
STANDARD
100
AcDbAlignedDimension
 13
134.246091843476
 23
480.3359829922073
 33
0.0
 14
634.246091843476
 24
480.3359829922073
 34
0.0
100
AcDbRotatedDimension
  0
DIMENSION
  5
F7A
330
2
100
AcDbEntity
  8
BEM
100
AcDbDimension
  2
*D5
 10
549.246091843476
 20
492.9799130375417
 30
0.0
 11
384.2460918434761
 21
499.4799130375417
 31
0.0
 70
    32
  1
%%c<>
 71
     5
 42
330.0
  3
STANDARD
100
AcDbAlignedDimension
 13
219.2460918434761
 23
477.3359829922073
 33
0.0
 14
549.246091843476
 24
477.3359829922073
 34
0.0
100
AcDbRotatedDimension
  0
HATCH
  5
100C
330
2
100
AcDbEntity
  8
SCHRAFF
100
AcDbHatch
 10
0.0
 20
0.0
 30
0.0
210
0.0
220
0.0
230
1.0
  2
_USER
 70
     0
 71
     1
 91
        3
 92
        7
 72
     1
 73
     1
 93
       12
 10
549.2460918434759
 20
475.3359829922072
 42
0.0
 10
549.2460918434759
 20
477.3359829922072
 42
0.0
 10
462.4977298492431
 20
477.3359829922073
 42
0.4716306187712192
 10
454.6447123816618
 20
467.809511029195
 42
0.0
 10
455.746091843476
 20
462.1434048958121
 42
0.0
 10
455.746091843476
 20
458.8718813770696
 42
0.0
 10
450.1425388914818
 20
449.1662429613131
 42
0.0
 10
451.3471298744723
 20
447.2526557461919
 42
0.0
 10
457.7460918434759
 20
458.3359829922072
 42
0.0
 10
457.7460918434759
 20
462.3359829922068
 42
0.0
 10
456.6079667485572
 20
468.191129019948
 42
-0.4716306187712217
 10
462.4977298492431
 20
475.3359829922073
 42
0.0
 97
       12
330
F32
330
F17
330
F16
330
F1B
330
F1A
330
F34
330
F19
330
F1C
330
F10
330
F18
330
F35
330
F0E
 92
        7
 72
     1
 73
     1
 93
        8
 10
443.3123351137353
 20
443.3359829922074
 42
0.0
 10
441.746091843476
 20
443.3359829922074
 42
0.0
 10
441.746091843476
 20
441.3359829922073
 42
0.0
 10
443.3123351137353
 20
441.3359829922073
 42
0.2679491924311223
 10
450.2405383440108
 20
445.3359829922073
 42
0.0
 10
451.3471298744723
 20
447.2526557461919
 42
0.0
 10
450.1425388914819
 20
449.1662429613132
 42
0.0
 10
448.5084875364419
 20
446.3359829922073
 42
-0.2679491924311202
 97
        8
330
F19
330
F34
330
F1A
330
F2F
330
F78
330
F27
330
F77
330
F2E
 92
        7
 72
     1
 73
     1
 93
       16
 10
305.9944538377088
 20
475.3359829922073
 42
-0.4716306187712219
 10
311.8842169383947
 20
468.191129019948
 42
0.0
 10
310.7460918434761
 20
462.3359829922072
 42
0.0
 10
310.7460918434761
 20
458.3359829922073
 42
0.0
 10
318.2516453429412
 20
445.3359829922073
 42
0.2679491924311232
 10
325.1798485732167
 20
441.3359829922073
 42
0.0
 10
326.746091843476
 20
441.3359829922073
 42
0.0
 10
326.7460918434761
 20
443.3359829922073
 42
0.0
 10
325.1798485732166
 20
443.3359829922073
 42
-0.2679491924311216
 10
319.98369615051
 20
446.3359829922073
 42
0.0
 10
312.746091843476
 20
458.8718813770696
 42
0.0
 10
312.746091843476
 20
462.143404895812
 42
0.0
 10
313.8474713052901
 20
467.809511029195
 42
0.4716306187712195
 10
305.9944538377088
 20
477.3359829922073
 42
0.0
 10
219.2460918434761
 20
477.3359829922072
 42
0.0
 10
219.2460918434761
 20
475.3359829922072
 42
0.0
 97
       16
330
F69
330
F67
330
F6A
330
F5E
330
F5A
330
F60
330
F64
330
F53
330
F77
330
F52
330
F78
330
F54
330
F63
330
F5F
330
F59
330
F5D
 75
     0
 76
     0
 52
135.0
 41
2.0
 77
     0
 78
     1
 53
135.0
 43
0.0
 44
0.0
 45
-1.414213562373095
 46
-1.414213562373094
 79
     0
 47
0.4268248287010937
 98
        3
 10
490.5952579741942
 20
476.0450074917607
 10
444.897426820306
 20
442.7526705126451
 10
283.4602333364642
 20
476.0450074917607
  0
HATCH
  5
1019
330
2
100
AcDbEntity
  8
SCHRAFF
100
AcDbHatch
 10
0.0
 20
0.0
 30
0.0
210
0.0
220
0.0
230
1.0
  2
_USER
 70
     0
 71
     1
 91
        2
 92
        7
 72
     0
 73
     1
 93
        4
 10
442.2460918434762
 20
453.4173987051654
 10
444.2460918434763
 20
453.4173987051653
 10
444.2460918434762
 20
476.4173987051653
 10
442.2460918434763
 20
476.4173987051653
 97
        4
330
F1D
330
F29
330
F23
330
F2A
 92
        7
 72
     0
 73
     1
 93
        4
 10
326.2460918434761
 20
476.417398705165
 10
324.2460918434761
 20
476.417398705165
 10
324.2460918434761
 20
453.4173987051652
 10
326.2460918434761
 20
453.4173987051652
 97
        4
330
F47
330
F57
330
F51
330
F56
 75
     0
 76
     0
 52
135.0
 41
2.0
 77
     0
 78
     1
 53
135.0
 43
0.0
 44
0.0
 45
-1.414213562373095
 46
-1.414213562373094
 79
     0
 47
0.5740419384759802
 98
        2
 10
442.8422382733051
 20
461.6875639380054
 10
325.6669818549872
 20
461.6875639380054
  0
HATCH
  5
1042
330
2
100
AcDbEntity
  8
SCHRAFF
100
AcDbHatch
 10
0.0
 20
0.0
 30
0.0
210
0.0
220
0.0
230
1.0
  2
NET
 70
     0
 71
     1
 91
        3
 92
        7
 72
     1
 73
     1
 93
       13
 10
634.2460918434759
 20
477.3359829922073
 42
0.0
 10
634.2460918434762
 20
480.3359829922072
 42
0.0
 10
462.4977298492431
 20
480.3359829922072
 42
0.4716306187712164
 10
451.699830831319
 20
467.2370840430653
 42
0.0
 10
452.6868903952719
 20
462.1591027993282
 42
0.0
 10
452.9133798532274
 20
460.3729874088234
 42
-0.1638766063561482
 10
452.7873494116776
 20
459.7471891586847
 42
0.0
 10
448.3356524169962
 20
452.036623783995
 42
0.0
 10
450.1425388914818
 20
449.1662429613132
 42
0.0
 10
455.7460918434759
 20
458.8718813770696
 42
0.0
 10
455.7460918434759
 20
462.1434048958122
 42
0.0
 10
454.6447123816618
 20
467.809511029195
 42
-0.4716306187712171
 10
462.4977298492431
 20
477.3359829922073
 42
0.0
 97
       13
330
F75
330
F36
330
F14
330
F13
330
F15
330
F2D
330
F34
330
F1A
330
F1B
330
F16
330
F17
330
F32
330
F0C
 92
        7
 72
     1
 73
     1
 93
       16
 10
134.2460918434761
 20
480.3359829922073
 42
0.0
 10
134.246091843476
 20
477.3359829922073
 42
0.0
 10
305.9944538377088
 20
477.3359829922073
 42
-0.4716306187712195
 10
313.8474713052901
 20
467.809511029195
 42
0.0
 10
312.746091843476
 20
462.143404895812
 42
0.0
 10
312.746091843476
 20
458.8718813770695
 42
0.0
 10
319.98369615051
 20
446.3359829922073
 42
0.0470518403705459
 10
320.636204970848
 20
445.4173987051651
 42
0.0
 10
326.746091843476
 20
445.4173987051651
 42
0.0
 10
326.746091843476
 20
448.4173987051651
 42
0.0
 10
322.2460918434761
 20
448.4173987051651
 42
0.0
 10
315.7048342752746
 20
459.7471891586847
 42
-0.1638766063561756
 10
315.5788038337246
 20
460.3729874088234
 42
0.0
 10
315.8052932916801
 20
462.1591027993294
 42
0.0
 10
316.7923528556331
 20
467.2370840430653
 42
0.4716306187712202
 10
305.9944538377088
 20
480.3359829922073
 42
0.0
 97
       16
330
F75
330
F68
330
F69
330
F5D
330
F59
330
F5F
330
F63
330
F54
330
F74
330
F55
330
F71
330
F62
330
F5C
330
F5B
330
F66
330
F6C
 92
        7
 72
     1
 73
     1
 93
        7
 10
441.746091843476
 20
448.4173987051653
 42
0.0
 10
441.7460918434761
 20
445.4173987051651
 42
0.0
 10
447.855978716104
 20
445.4173987051651
 42
0.0470518403705426
 10
448.5084875364419
 20
446.3359829922073
 42
0.0
 10
450.1425388914818
 20
449.1662429613131
 42
0.0
 10
448.3356524169963
 20
452.0366237839952
 42
0.0
 10
446.246091843476
 20
448.4173987051652
 42
0.0
 97
        7
330
F34
330
F2D
330
F71
330
F28
330
F74
330
F2F
330
F1A
 75
     0
 76
     1
 52
45.0
 41
10.0
 77
     0
 78
     2
 53
45.0
 43
0.0
 44
0.0
 45
-0.8838834764831842
 46
0.8838834764831844
 79
     0
 53
135.0
 43
0.0
 44
0.0
 45
-0.8838834764831844
 46
-0.8838834764831842
 79
     0
 47
0.5640874540210681
 98
        3
 10
566.3805913452701
 20
478.6699141391213
 10
254.8163233644714
 20
479.2340014938502
 10
445.592994920843
 20
447.0810166855722
  0
HATCH
  5
1077
330
2
100
AcDbEntity
  8
SCHRAFF
100
AcDbHatch
 10
0.0
 20
0.0
 30
0.0
210
0.0
220
0.0
230
1.0
  2
NET
 70
     0
 71
     1
 91
        4
 92
        7
 72
     1
 73
     1
 93
       21
 10
448.1719810553513
 20
464.5149272261638
 42
-0.2492603645242955
 10
447.1496564394719
 20
466.0896081140122
 42
0.0
 10
446.2308415645732
 20
476.5917101906606
 42
0.3888787318534311
 10
444.2384521683897
 20
478.4173987051687
 42
0.0
 10
442.2537315185628
 20
478.4173987051686
 42
0.3888787318529568
 10
440.2613421223796
 20
476.591710190664
 42
0.0
 10
439.5461825352688
 20
468.4173987051651
 42
0.0
 10
439.3413995934634
 20
468.4173987051651
 42
0.3639702342661995
 10
436.8793802109328
 20
466.3515191493326
 42
0.0
 10
434.5375080871461
 20
453.0701023498315
 42
-0.3639702342662091
 10
432.5678925811216
 20
451.4173987051653
 42
0.0
 10
432.2460918434763
 20
451.4173987051653
 42
0.0
 10
432.2460918434763
 20
449.4173987051652
 42
0.0
 10
438.7460918434765
 20
449.4173987051651
 42
0.0
 10
440.4781426510456
 20
448.4173987051652
 42
0.0
 10
446.246091843476
 20
448.4173987051652
 42
0.0
 10
452.7873494116776
 20
459.7471891586846
 42
0.1638766063561241
 10
452.9133798532275
 20
460.3729874088231
 42
0.0
 10
452.6868903952718
 20
462.1591027993292
 42
0.0
 10
452.5072924123228
 20
463.0830543237703
 42
0.4420454759426963
 10
449.0859161655164
 20
464.4860727296758
 42
-0.2419833741269416
 97
       21
330
F13
330
F14
330
F12
330
F11
330
F31
330
F22
330
F1E
330
F6F
330
F1F
330
F21
330
F70
330
F20
330
F2B
330
F25
330
F73
330
F24
330
F72
330
F26
330
F71
330
F2D
330
F15
 92
       22
 72
     0
 73
     1
 93
        4
 10
444.2460918434762
 20
453.4173987051653
 10
442.2460918434763
 20
453.4173987051654
 10
442.2460918434762
 20
476.4173987051653
 10
444.2460918434763
 20
476.4173987051653
 97
        4
330
F23
330
F29
330
F1D
330
F2A
 92
        7
 72
     1
 73
     1
 93
       21
 10
331.6128034760197
 20
466.3515191493324
 42
0.3639702342662037
 10
329.1507840934892
 20
468.4173987051651
 42
0.0
 10
328.9460011516837
 20
468.4173987051651
 42
0.0
 10
328.230841564573
 20
476.5917101906606
 42
0.3888787318530053
 10
326.2384521683894
 20
478.4173987051653
 42
0.0
 10
324.2537315185627
 20
478.4173987051653
 42
0.3888787318530134
 10
322.2613421223791
 20
476.5917101906605
 42
0.0
 10
321.3425272474804
 20
466.0896081140122
 42
-0.2492603645243095
 10
320.3202026316007
 20
464.5149272261639
 42
-0.241983374126944
 10
319.4062675214357
 20
464.4860727296758
 42
0.4420454759427336
 10
315.9848912746292
 20
463.0830543237699
 42
0.0
 10
315.8052932916802
 20
462.1591027993296
 42
0.0
 10
315.5788038337246
 20
460.3729874088233
 42
0.1638766063561092
 10
315.7048342752745
 20
459.7471891586848
 42
0.0
 10
322.246091843476
 20
448.417398705165
 42
0.0
 10
328.0140410359067
 20
448.4173987051649
 42
0.0
 10
329.746091843476
 20
449.4173987051651
 42
0.0
 10
336.2460918434761
 20
449.4173987051651
 42
0.0
 10
336.2460918434761
 20
451.4173987051653
 42
0.0
 10
335.9242911058307
 20
451.4173987051653
 42
-0.3639702342662091
 10
333.9546755998063
 20
453.0701023498314
 42
0.0
 97
       21
330
F48
330
F70
330
F4D
330
F45
330
F6F
330
F46
330
F4C
330
F49
330
F4A
330
F65
330
F66
330
F5B
330
F5C
330
F62
330
F71
330
F50
330
F72
330
F4E
330
F73
330
F4F
330
F58
 92
       22
 72
     0
 73
     1
 93
        4
 10
326.246091843476
 20
453.4173987051651
 10
324.2460918434761
 20
453.4173987051651
 10
324.2460918434761
 20
476.4173987051651
 10
326.2460918434761
 20
476.4173987051651
 97
        4
330
F51
330
F57
330
F47
330
F56
 75
     0
 76
     1
 52
45.0
 41
15.0
 77
     0
 78
     2
 53
45.0
 43
0.0
 44
0.0
 45
-1.325825214724776
 46
1.325825214724776
 79
     0
 53
135.0
 43
0.0
 44
0.0
 45
-1.325825214724776
 46
-1.325825214724776
 79
     0
 47
0.1775830879023581
 98
        4
 10
446.0267692287348
 20
460.2743947013789
 10
446.0267692287348
 20
460.2743947013789
 10
332.3049732829895
 20
454.7693189267597
 10
332.3049732829895
 20
454.7693189267597
  0
HATCH
  5
10B3
330
2
100
AcDbEntity
  8
SCHRAFF
100
AcDbHatch
 10
0.0
 20
0.0
 30
0.0
210
0.0
220
0.0
230
1.0
  2
_USER
 70
     0
 71
     1
 91
        2
 92
        7
 72
     1
 73
     1
 93
       17
 10
440.746091843476
 20
429.33323715923
 42
-0.1272160680010462
 10
441.780479259576
 20
433.3329165262624
 42
0.0
 10
445.7766763309701
 20
440.5422468825328
 42
0.0
 10
444.3799380766687
 20
441.3164715394023
 42
0.0
 10
443.9873529683403
 20
440.9238864310738
 42
0.0
 10
440.2498947720821
 20
434.1813333616933
 42
0.1272160680010516
 10
438.996091843476
 20
429.3332371592297
 42
0.0
 10
438.9960918434763
 20
350.7939238571688
 42
-0.1599942435199909
 10
436.416445825777
 20
342.938604265173
 42
0.1599942435199981
 10
433.496091843476
 20
334.0457896327245
 42
0.0
 10
433.496091843476
 20
215.4449340517302
 42
0.0
 10
432.4824729610358
 20
207.3359829922073
 42
0.0
 10
434.246091843476
 20
207.3359829922072
 42
0.0
 10
435.2460918434761
 20
215.3359829922067
 42
0.0
 10
435.246091843476
 20
334.0457896327245
 42
-0.1599942435199894
 10
437.825737861175
 20
341.9011092247203
 42
0.1599942435199979
 10
440.746091843476
 20
350.7939238571688
 42
0.0
 97
       17
330
EEE
330
EF1
330
F06
330
F04
330
EF0
330
EEF
330
EF4
330
EFA
330
EF8
330
EFC
330
EFF
330
F02
330
EFE
330
EFB
330
EF7
330
EF9
330
EF3
 92
        7
 72
     1
 73
     1
 93
       16
 10
329.4960918434761
 20
429.33323715923
 42
0.1272160680010451
 10
328.2422889148701
 20
434.1813333616933
 42
0.0
 10
324.246091843476
 20
441.3906637179638
 42
0.0
 10
322.7155073559822
 20
440.5422468825327
 42
0.0
 10
326.711704427376
 20
433.3329165262622
 42
-0.1272160680010541
 10
327.7460918434761
 20
429.3332371592297
 42
0.0
 10
327.7460918434761
 20
350.7939238571688
 42
0.1599942435199942
 10
330.6664458257769
 20
341.9011092247205
 42
-0.1599942435199938
 10
333.246091843476
 20
334.0457896327245
 42
0.0
 10
333.246091843476
 20
215.3359829922059
 42
0.0
 10
334.246091843476
 20
207.3359829922072
 42
0.0
 10
336.0097107259164
 20
207.3359829922072
 42
0.0
 10
334.996091843476
 20
215.4449340517279
 42
0.0
 10
334.996091843476
 20
334.0457896327245
 42
0.1599942435199942
 10
332.0757378611752
 20
342.9386042651728
 42
-0.1599942435199948
 10
329.4960918434761
 20
350.7939238571688
 42
0.0
 97
       16
330
EE8
330
EEA
330
F09
330
EEB
330
EE9
330
EEC
330
EE4
330
EE7
330
EE2
330
F00
330
F02
330
F01
330
EE3
330
EE6
330
EE5
330
EED
 75
     0
 76
     0
 52
45.0
 41
2.0
 77
     0
 78
     1
 53
45.0
 43
0.0
 44
0.0
 45
-1.414213562373094
 46
1.414213562373095
 79
     0
 47
0.4465606893537383
 98
        2
 10
440.2413252090197
 20
381.0901454105124
 10
329.0129986059739
 20
378.8573418520077
  0
ENDSEC
  0
SECTION
  2
OBJECTS
  0
DICTIONARY
  5
1A
330
0
100
AcDbDictionary
281
     1
  3
ACAD_COLOR
350
9BC
  3
ACAD_GROUP
350
18
  3
ACAD_LAYOUT
350
9BD
  3
ACAD_MATERIAL
350
9BB
  3
ACAD_MLINESTYLE
350
19
  3
ACAD_PLOTSETTINGS
350
9BE
  3
ACAD_PLOTSTYLENAME
350
9B9
  3
AcDbVariableDictionary
350
A0C
  0
DICTIONARY
  5
9BC
102
{ACAD_REACTORS
330
1A
102
}
330
1A
100
AcDbDictionary
281
     1
  0
DICTIONARY
  5
18
102
{ACAD_REACTORS
330
1A
102
}
330
1A
100
AcDbDictionary
281
     1
  0
DICTIONARY
  5
9BD
102
{ACAD_REACTORS
330
1A
102
}
330
1A
100
AcDbDictionary
281
     1
  3
Layout1
350
9C0
  3
Model
350
9BF
  0
DICTIONARY
  5
9BB
102
{ACAD_REACTORS
330
1A
102
}
330
1A
100
AcDbDictionary
281
     1
  0
DICTIONARY
  5
19
102
{ACAD_REACTORS
330
1A
102
}
330
1A
100
AcDbDictionary
281
     1
  3
STANDARD
350
1D
  0
DICTIONARY
  5
9BE
102
{ACAD_REACTORS
330
1A
102
}
330
1A
100
AcDbDictionary
281
     1
  0
ACDBDICTIONARYWDFLT
  5
9B9
102
{ACAD_REACTORS
330
1A
102
}
330
1A
100
AcDbDictionary
281
     1
  3
Normal
350
9BA
100
AcDbDictionaryWithDefault
340
9BA
  0
DICTIONARY
  5
A0C
102
{ACAD_REACTORS
330
1A
102
}
330
1A
100
AcDbDictionary
281
     1
  3
DIMASSOC
350
A0D
  3
PROJECTNAME
350
A0E
  0
LAYOUT
  5
9C0
102
{ACAD_REACTORS
330
9BD
102
}
330
9BD
100
AcDbPlotSettings
  1

  2
RICOH Aficio 2027 PCL 6
  4

  6

 40
0.0
 41
0.0
 42
0.0
 43
0.0
 44
0.0
 45
0.0
 46
0.0
 47
0.0
 48
0.0
 49
0.0
140
0.0
141
0.0
142
1.0
143
1.0
 70
   688
 72
     0
 73
     0
 74
     5
  7
monochrome1.ctb
 75
    16
147
1.0
 76
     0
 77
     2
 78
   300
148
0.0
149
0.0
100
AcDbLayout
  1
Layout1
 70
     0
 71
     1
 10
0.0
 20
0.0
 11
12.0
 21
9.0
 12
0.0
 22
0.0
 32
0.0
 14
1.000000000000000E+20
 24
1.000000000000000E+20
 34
1.000000000000000E+20
 15
-1.000000000000000E+20
 25
-1.000000000000000E+20
 35
-1.000000000000000E+20
146
0.0
 13
0.0
 23
0.0
 33
0.0
 16
1.0
 26
0.0
 36
0.0
 17
0.0
 27
1.0
 37
0.0
 76
     0
330
7
  0
LAYOUT
  5
9BF
102
{ACAD_REACTORS
330
9BD
102
}
330
9BD
100
AcDbPlotSettings
  1

  2
RICOH Aficio 2027 PCL 6
  4
A4
  6

 40
5.027083396911621
 41
5.027085304260253
 42
5.027084350585937
 43
5.027069091796875
 44
209.9733276367187
 45
296.9259948730469
 46
0.0
 47
0.0
 48
0.0
 49
0.0
140
0.0
141
0.0
142
1.0
143
1.0
 70
 11952
 72
     0
 73
     1
 74
     0
  7
monochrome1.ctb
 75
     0
147
1.0
 76
     0
 77
     2
 78
   300
148
-3033.569169194215
149
90.63084535397159
100
AcDbLayout
  1
Model
 70
     1
 71
     0
 10
0.0
 20
0.0
 11
12.0
 21
9.0
 12
0.0
 22
0.0
 32
0.0
 14
0.0
 24
0.0
 34
0.0
 15
0.0
 25
0.0
 35
0.0
146
0.0
 13
0.0
 23
0.0
 33
0.0
 16
1.0
 26
0.0
 36
0.0
 17
0.0
 27
1.0
 37
0.0
 76
     0
330
2
  0
MLINESTYLE
  5
1D
102
{ACAD_REACTORS
330
19
102
}
330
19
100
AcDbMlineStyle
  2
STANDARD
 70
     0
  3

 62
   256
 51
90.0
 52
90.0
 71
     2
 49
0.5
 62
   256
  6
BYLAYER
 49
-0.5
 62
   256
  6
BYLAYER
  0
ACDBPLACEHOLDER
  5
9BA
102
{ACAD_REACTORS
330
9B9
102
}
330
9B9
  0
DICTIONARYVAR
  5
A0D
102
{ACAD_REACTORS
330
A0C
102
}
330
A0C
100
DictionaryVariables
280
     0
  1
1
  0
DICTIONARYVAR
  5
A0E
102
{ACAD_REACTORS
330
A0C
102
}
330
A0C
100
DictionaryVariables
280
     0
  1

  0
ENDSEC
  0
EOF
