  0
SECTION
  2
HEADER
  9
$ACADVER
  1
AC1018
  9
$ACADMAINTVER
 70
   104
  9
$DWGCODEPAGE
  3
ANSI_1252
  9
$LASTSAVEDBY
  1
w.koehlhoff
  9
$INSBASE
 10
0.0
 20
0.0
 30
0.0
  9
$EXTMIN
 10
-0.064064420354498
 20
-0.0453026972511452
 30
-0.0000000000000053
  9
$EXTMAX
 10
840.0000097800214
 20
594.000006915872
 30
0.0000000000000099
  9
$LIMMIN
 10
0.0
 20
0.0
  9
$LIMMAX
 10
840.0
 20
594.0
  9
$ORTHOMODE
 70
     0
  9
$REGENMODE
 70
     1
  9
$FILLMODE
 70
     1
  9
$QTEXTMODE
 70
     0
  9
$MIRRTEXT
 70
     1
  9
$LTSCALE
 40
20.0
  9
$ATTMODE
 70
     1
  9
$TEXTSIZE
 40
3.5
  9
$TRACEWID
 40
1.0
  9
$TEXTSTYLE
  7
STANDARD
  9
$CLAYER
  8
VOLL
  9
$CELTYPE
  6
ByLayer
  9
$CECOLOR
 62
   256
  9
$CELTSCALE
 40
1.0
  9
$DISPSILH
 70
     0
  9
$DIMSCALE
 40
2.0
  9
$DIMASZ
 40
3.5
  9
$DIMEXO
 40
1.0
  9
$DIMDLI
 40
7.0
  9
$DIMRND
 40
0.0
  9
$DIMDLE
 40
0.0
  9
$DIMEXE
 40
1.0
  9
$DIMTP
 40
0.0
  9
$DIMTM
 40
0.0
  9
$DIMTXT
 40
3.5
  9
$DIMCEN
 40
1.5
  9
$DIMTSZ
 40
0.0
  9
$DIMTOL
 70
     0
  9
$DIMLIM
 70
     0
  9
$DIMTIH
 70
     0
  9
$DIMTOH
 70
     0
  9
$DIMSE1
 70
     0
  9
$DIMSE2
 70
     0
  9
$DIMTAD
 70
     1
  9
$DIMZIN
 70
     8
  9
$DIMBLK
  1

  9
$DIMASO
 70
     1
  9
$DIMSHO
 70
     0
  9
$DIMPOST
  1

  9
$DIMAPOST
  1

  9
$DIMALT
 70
     0
  9
$DIMALTD
 70
     2
  9
$DIMALTF
 40
25.4
  9
$DIMLFAC
 40
1.0
  9
$DIMTOFL
 70
     1
  9
$DIMTVP
 40
0.0
  9
$DIMTIX
 70
     0
  9
$DIMSOXD
 70
     0
  9
$DIMSAH
 70
     0
  9
$DIMBLK1
  1

  9
$DIMBLK2
  1

  9
$DIMSTYLE
  2
Standard
  9
$DIMCLRD
 70
     0
  9
$DIMCLRE
 70
     0
  9
$DIMCLRT
 70
     1
  9
$DIMTFAC
 40
0.5142857142857144
  9
$DIMGAP
 40
1.5
  9
$DIMJUST
 70
     0
  9
$DIMSD1
 70
     0
  9
$DIMSD2
 70
     0
  9
$DIMTOLJ
 70
     1
  9
$DIMTZIN
 70
     8
  9
$DIMALTZ
 70
     8
  9
$DIMALTTZ
 70
     8
  9
$DIMUPT
 70
     0
  9
$DIMDEC
 70
     2
  9
$DIMTDEC
 70
     2
  9
$DIMALTU
 70
     2
  9
$DIMALTTD
 70
     2
  9
$DIMTXSTY
  7
STANDARD
  9
$DIMAUNIT
 70
     0
  9
$DIMADEC
 70
     2
  9
$DIMALTRND
 40
0.0
  9
$DIMAZIN
 70
     2
  9
$DIMDSEP
 70
    46
  9
$DIMATFIT
 70
     3
  9
$DIMFRAC
 70
     0
  9
$DIMLDRBLK
  1

  9
$DIMLUNIT
 70
     2
  9
$DIMLWD
 70
    -2
  9
$DIMLWE
 70
    -2
  9
$DIMTMOVE
 70
     0
  9
$LUNITS
 70
     2
  9
$LUPREC
 70
     2
  9
$SKETCHINC
 40
1.0
  9
$FILLETRAD
 40
0.0
  9
$AUNITS
 70
     0
  9
$AUPREC
 70
     0
  9
$MENU
  1
ACAD
  9
$ELEVATION
 40
0.0
  9
$PELEVATION
 40
0.0
  9
$THICKNESS
 40
0.0
  9
$LIMCHECK
 70
     0
  9
$CHAMFERA
 40
0.0
  9
$CHAMFERB
 40
0.0
  9
$CHAMFERC
 40
0.0
  9
$CHAMFERD
 40
0.0
  9
$SKPOLY
 70
     0
  9
$TDCREATE
 40
2455397.825393172
  9
$TDUCREATE
 40
2455397.783726505
  9
$TDUPDATE
 40
2456594.588405371
  9
$TDUUPDATE
 40
2456594.546738704
  9
$TDINDWG
 40
0.1319843056
  9
$TDUSRTIMER
 40
0.1319843056
  9
$USRTIMER
 70
     1
  9
$ANGBASE
 50
0.0
  9
$ANGDIR
 70
     0
  9
$PDMODE
 70
     0
  9
$PDSIZE
 40
0.0
  9
$PLINEWID
 40
0.0
  9
$SPLFRAME
 70
     0
  9
$SPLINETYPE
 70
     6
  9
$SPLINESEGS
 70
     8
  9
$HANDSEED
  5
10A0
  9
$SURFTAB1
 70
     6
  9
$SURFTAB2
 70
     6
  9
$SURFTYPE
 70
     6
  9
$SURFU
 70
     6
  9
$SURFV
 70
     6
  9
$UCSBASE
  2

  9
$UCSNAME
  2

  9
$UCSORG
 10
0.0
 20
0.0
 30
0.0
  9
$UCSXDIR
 10
1.0
 20
0.0
 30
0.0
  9
$UCSYDIR
 10
0.0
 20
1.0
 30
0.0
  9
$UCSORTHOREF
  2

  9
$UCSORTHOVIEW
 70
     0
  9
$UCSORGTOP
 10
0.0
 20
0.0
 30
0.0
  9
$UCSORGBOTTOM
 10
0.0
 20
0.0
 30
0.0
  9
$UCSORGLEFT
 10
0.0
 20
0.0
 30
0.0
  9
$UCSORGRIGHT
 10
0.0
 20
0.0
 30
0.0
  9
$UCSORGFRONT
 10
0.0
 20
0.0
 30
0.0
  9
$UCSORGBACK
 10
0.0
 20
0.0
 30
0.0
  9
$PUCSBASE
  2

  9
$PUCSNAME
  2

  9
$PUCSORG
 10
0.0
 20
0.0
 30
0.0
  9
$PUCSXDIR
 10
1.0
 20
0.0
 30
0.0
  9
$PUCSYDIR
 10
0.0
 20
1.0
 30
0.0
  9
$PUCSORTHOREF
  2

  9
$PUCSORTHOVIEW
 70
     0
  9
$PUCSORGTOP
 10
0.0
 20
0.0
 30
0.0
  9
$PUCSORGBOTTOM
 10
0.0
 20
0.0
 30
0.0
  9
$PUCSORGLEFT
 10
0.0
 20
0.0
 30
0.0
  9
$PUCSORGRIGHT
 10
0.0
 20
0.0
 30
0.0
  9
$PUCSORGFRONT
 10
0.0
 20
0.0
 30
0.0
  9
$PUCSORGBACK
 10
0.0
 20
0.0
 30
0.0
  9
$USERI1
 70
     0
  9
$USERI2
 70
     0
  9
$USERI3
 70
     0
  9
$USERI4
 70
     0
  9
$USERI5
 70
     0
  9
$USERR1
 40
0.0
  9
$USERR2
 40
0.0
  9
$USERR3
 40
0.0
  9
$USERR4
 40
0.0
  9
$USERR5
 40
0.0
  9
$WORLDVIEW
 70
     1
  9
$SHADEDGE
 70
     3
  9
$SHADEDIF
 70
    70
  9
$TILEMODE
 70
     1
  9
$MAXACTVP
 70
    16
  9
$PINSBASE
 10
0.0
 20
0.0
 30
0.0
  9
$PLIMCHECK
 70
     0
  9
$PEXTMIN
 10
1.000000000000000E+20
 20
1.000000000000000E+20
 30
1.000000000000000E+20
  9
$PEXTMAX
 10
-1.000000000000000E+20
 20
-1.000000000000000E+20
 30
-1.000000000000000E+20
  9
$PLIMMIN
 10
0.0
 20
0.0
  9
$PLIMMAX
 10
12.0
 20
9.0
  9
$UNITMODE
 70
     0
  9
$VISRETAIN
 70
     0
  9
$PLINEGEN
 70
     0
  9
$PSLTSCALE
 70
     0
  9
$TREEDEPTH
 70
  3020
  9
$CMLSTYLE
  2
Standard
  9
$CMLJUST
 70
     0
  9
$CMLSCALE
 40
1.0
  9
$PROXYGRAPHICS
 70
     1
  9
$MEASUREMENT
 70
     0
  9
$CELWEIGHT
370
    -1
  9
$ENDCAPS
280
     0
  9
$JOINSTYLE
280
     0
  9
$LWDISPLAY
290
     0
  9
$INSUNITS
 70
     0
  9
$HYPERLINKBASE
  1

  9
$STYLESHEET
  1
monochrome1.ctb
  9
$XEDIT
290
     1
  9
$CEPSNTYPE
380
     0
  9
$PSTYLEMODE
290
     1
  9
$FINGERPRINTGUID
  2
{D68B0D0D-A558-11D7-B632-000102183313}
  9
$VERSIONGUID
  2
{54D562C2-B12D-40C5-9021-435F4AC22140}
  9
$EXTNAMES
290
     1
  9
$PSVPSCALE
 40
0.0
  9
$OLESTARTUP
290
     0
  9
$SORTENTS
280
   127
  9
$INDEXCTL
280
     0
  9
$HIDETEXT
280
     0
  9
$XCLIPFRAME
290
     0
  9
$HALOGAP
280
     0
  9
$OBSCOLOR
 70
   257
  9
$OBSLTYPE
280
     0
  9
$INTERSECTIONDISPLAY
280
     0
  9
$INTERSECTIONCOLOR
 70
   257
  9
$DIMASSOC
280
     1
  9
$PROJECTNAME
  1

  0
ENDSEC
  0
SECTION
  2
CLASSES
  0
CLASS
  1
ACDBDICTIONARYWDFLT
  2
AcDbDictionaryWithDefault
  3
ObjectDBX Classes
 90
        0
 91
        1
280
     0
281
     0
  0
CLASS
  1
DICTIONARYVAR
  2
AcDbDictionaryVar
  3
ObjectDBX Classes
 90
        0
 91
        7
280
     0
281
     0
  0
CLASS
  1
DIMASSOC
  2
AcDbDimAssoc
  3
"AcDbDimAssoc|Product Desc:     AcDim ARX App For Dimension|Company:          Autodesk, Inc.|WEB Address:      www.autodesk.com"
 90
        0
 91
        0
280
     0
281
     0
  0
CLASS
  1
MATERIAL
  2
AcDbMaterial
  3
ObjectDBX Classes
 90
     1153
 91
        3
280
     0
281
     0
  0
CLASS
  1
VISUALSTYLE
  2
AcDbVisualStyle
  3
ObjectDBX Classes
 90
     4095
 91
       24
280
     0
281
     0
  0
CLASS
  1
TABLESTYLE
  2
AcDbTableStyle
  3
ObjectDBX Classes
 90
     4095
 91
        1
280
     0
281
     0
  0
CLASS
  1
SCALE
  2
AcDbScale
  3
ObjectDBX Classes
 90
     1153
 91
       17
280
     0
281
     0
  0
CLASS
  1
MLEADERSTYLE
  2
AcDbMLeaderStyle
  3
ACDB_MLEADERSTYLE_CLASS
 90
     4095
 91
        1
280
     0
281
     0
  0
CLASS
  1
ACDBSECTIONVIEWSTYLE
  2
AcDbSectionViewStyle
  3
ObjectDBX Classes
 90
     1025
 91
        1
280
     0
281
     0
  0
CLASS
  1
ACDBDETAILVIEWSTYLE
  2
AcDbDetailViewStyle
  3
ObjectDBX Classes
 90
     1025
 91
        1
280
     0
281
     0
  0
CLASS
  1
CELLSTYLEMAP
  2
AcDbCellStyleMap
  3
ObjectDBX Classes
 90
     1152
 91
        3
280
     0
281
     0
  0
CLASS
  1
SORTENTSTABLE
  2
AcDbSortentsTable
  3
ObjectDBX Classes
 90
        0
 91
        1
280
     0
281
     0
  0
ENDSEC
  0
SECTION
  2
TABLES
  0
TABLE
  2
VPORT
  5
8
102
{ACAD_XDICTIONARY
360
650
102
}
330
0
100
AcDbSymbolTable
 70
     1
  0
VPORT
  5
5C2
330
8
100
AcDbSymbolTableRecord
100
AcDbViewportTableRecord
  2
*Active
 70
     0
 10
0.0
 20
0.0
 11
1.0
 21
1.0
 12
419.9679726798335
 22
296.9773521093105
 13
0.0
 23
0.0
 14
1.0
 24
1.0
 15
10.0
 25
10.0
 16
0.0
 26
0.0
 36
1.0
 17
0.0
 27
0.0
 37
0.0
 40
598.0546142899272
 41
1.70045045045045
 42
50.0
 43
0.0
 44
0.0
 50
0.0
 51
0.0
 71
     0
 72
  1500
 73
     1
 74
     0
 75
     0
 76
     0
 77
     0
 78
     0
281
     0
 65
     1
110
0.0
120
0.0
130
0.0
111
1.0
121
0.0
131
0.0
112
0.0
122
1.0
132
0.0
 79
     0
146
0.0
1001
ACAD_NAV_VCDISPLAY
1070
     3
  0
ENDTAB
  0
TABLE
  2
LTYPE
  5
5
330
0
100
AcDbSymbolTable
 70
     5
  0
LTYPE
  5
13
330
5
100
AcDbSymbolTableRecord
100
AcDbLinetypeTableRecord
  2
ByBlock
 70
     0
  3

 72
    65
 73
     0
 40
0.0
  0
LTYPE
  5
14
330
5
100
AcDbSymbolTableRecord
100
AcDbLinetypeTableRecord
  2
ByLayer
 70
     0
  3

 72
    65
 73
     0
 40
0.0
  0
LTYPE
  5
15
330
5
100
AcDbSymbolTableRecord
100
AcDbLinetypeTableRecord
  2
Continuous
 70
     0
  3
Solid line
 72
    65
 73
     0
 40
0.0
  0
LTYPE
  5
25
330
5
100
AcDbSymbolTableRecord
100
AcDbLinetypeTableRecord
  2
STRICHPUNKT
 70
     0
  3
__ . __ . __ . __ . __ . __ . __ . __ . __ . __
 72
    65
 73
     4
 40
1.0
 49
0.5
 74
     0
 49
-0.25
 74
     0
 49
0.0
 74
     0
 49
-0.25
 74
     0
  0
LTYPE
  5
60C
330
5
100
AcDbSymbolTableRecord
100
AcDbLinetypeTableRecord
  2
PHANTOM2
 70
     0
  3
Phantom (.5x) ___ _ _ ___ _ _ ___ _ _ ___ _ _
 72
    65
 73
     6
 40
1.25
 49
0.625
 74
     0
 49
-0.125
 74
     0
 49
0.125
 74
     0
 49
-0.125
 74
     0
 49
0.125
 74
     0
 49
-0.125
 74
     0
  0
LTYPE
  5
CC4
330
5
100
AcDbSymbolTableRecord
100
AcDbLinetypeTableRecord
  2
VERDECKT2
 70
     0
  3
Verdeckt (.5x) _ _ _ _ _ _ _ _ _ _ _ _ _ _ _ _ 
 72
    65
 73
     2
 40
0.1875
 49
0.125
 74
     0
 49
-0.0625
 74
     0
  0
ENDTAB
  0
TABLE
  2
LAYER
  5
2
102
{ACAD_XDICTIONARY
360
614
102
}
330
0
100
AcDbSymbolTable
 70
    10
  0
LAYER
  5
10
102
{ACAD_XDICTIONARY
360
63D
102
}
330
2
100
AcDbSymbolTableRecord
100
AcDbLayerTableRecord
  2
0
 70
     0
 62
     7
  6
Continuous
370
    -3
390
F
  0
LAYER
  5
2B
102
{ACAD_XDICTIONARY
360
63F
102
}
330
2
100
AcDbSymbolTableRecord
100
AcDbLayerTableRecord
  2
VOLL
 70
     0
 62
     1
  6
Continuous
370
    -3
390
F
  0
LAYER
  5
2C
102
{ACAD_XDICTIONARY
360
641
102
}
330
2
100
AcDbSymbolTableRecord
100
AcDbLayerTableRecord
  2
HILF
 70
     0
 62
     2
  6
Continuous
370
    -3
390
F
  0
LAYER
  5
2D
102
{ACAD_XDICTIONARY
360
643
102
}
330
2
100
AcDbSymbolTableRecord
100
AcDbLayerTableRecord
  2
MITTEL
 70
     0
 62
     2
  6
STRICHPUNKT
370
    -3
390
F
  0
LAYER
  5
2F
102
{ACAD_XDICTIONARY
360
645
102
}
330
2
100
AcDbSymbolTableRecord
100
AcDbLayerTableRecord
  2
BEM
 70
     0
 62
     7
  6
Continuous
370
    -3
390
F
  0
LAYER
  5
30
102
{ACAD_XDICTIONARY
360
647
102
}
330
2
100
AcDbSymbolTableRecord
100
AcDbLayerTableRecord
  2
STEMPEL
 70
     0
 62
     3
  6
Continuous
370
    -3
390
F
  0
LAYER
  5
33
102
{ACAD_XDICTIONARY
360
649
102
}
330
2
100
AcDbSymbolTableRecord
100
AcDbLayerTableRecord
  2
TEXT
 70
     0
 62
     7
  6
Continuous
370
    -3
390
F
  0
LAYER
  5
23C
330
2
100
AcDbSymbolTableRecord
100
AcDbLayerTableRecord
  2
DEFPOINTS
 70
     0
 62
     7
  6
Continuous
290
     0
370
    -3
390
F
  0
LAYER
  5
23D
102
{ACAD_XDICTIONARY
360
64B
102
}
330
2
100
AcDbSymbolTableRecord
100
AcDbLayerTableRecord
  2
SCHRAFF
 70
     0
 62
     7
  6
Continuous
370
    -3
390
F
  0
LAYER
  5
CC1
330
2
100
AcDbSymbolTableRecord
100
AcDbLayerTableRecord
  2
VERDECKT
 70
     0
 62
     6
  6
VERDECKT2
370
    -3
390
F
1001
AcAecLayerStandard
1000

1000

1001
AcCmTransparency
1071
        0
  0
ENDTAB
  0
TABLE
  2
STYLE
  5
3
330
0
100
AcDbSymbolTable
 70
     3
  0
STYLE
  5
11
330
3
100
AcDbSymbolTableRecord
100
AcDbTextStyleTableRecord
  2
STANDARD
 70
     0
 40
0.0
 41
0.8
 50
0.0
 71
     0
 42
3.5
  3
simplex.shx
  4

  0
STYLE
  5
24
330
3
100
AcDbSymbolTableRecord
100
AcDbTextStyleTableRecord
  2
GREEKS
 70
     0
 40
0.0
 41
0.8
 50
0.0
 71
     0
 42
2.5
  3
SIMPLEX.shx
  4

  0
ENDTAB
  0
TABLE
  2
VIEW
  5
6
330
0
100
AcDbSymbolTable
 70
     0
  0
ENDTAB
  0
TABLE
  2
UCS
  5
7
330
0
100
AcDbSymbolTable
 70
     0
  0
ENDTAB
  0
TABLE
  2
APPID
  5
9
330
0
100
AcDbSymbolTable
 70
    10
  0
APPID
  5
12
330
9
100
AcDbSymbolTableRecord
100
AcDbRegAppTableRecord
  2
ACAD
 70
     0
  0
APPID
  5
613
330
9
100
AcDbSymbolTableRecord
100
AcDbRegAppTableRecord
  2
ACAD_NAV_VCDISPLAY
 70
     0
  0
APPID
  5
63B
330
9
100
AcDbSymbolTableRecord
100
AcDbRegAppTableRecord
  2
ACAD_EXEMPT_FROM_CAD_STANDARDS
 70
     0
  0
APPID
  5
687
330
9
100
AcDbSymbolTableRecord
100
AcDbRegAppTableRecord
  2
ACAD_MLEADERVER
 70
     0
  0
APPID
  5
6ED
330
9
100
AcDbSymbolTableRecord
100
AcDbRegAppTableRecord
  2
GradientColor1ACI
 70
     0
  0
APPID
  5
6EE
330
9
100
AcDbSymbolTableRecord
100
AcDbRegAppTableRecord
  2
GradientColor2ACI
 70
     0
  0
APPID
  5
78E
330
9
100
AcDbSymbolTableRecord
100
AcDbRegAppTableRecord
  2
AcadAnnoMonitorAlertIconDisabled
 70
     0
  0
APPID
  5
95E
330
9
100
AcDbSymbolTableRecord
100
AcDbRegAppTableRecord
  2
AcAecLayerStandard
 70
     0
  0
APPID
  5
95F
330
9
100
AcDbSymbolTableRecord
100
AcDbRegAppTableRecord
  2
AcCmTransparency
 70
     0
  0
APPID
  5
105E
330
9
100
AcDbSymbolTableRecord
100
AcDbRegAppTableRecord
  2
ACAD_PSEXT
 70
     0
  0
ENDTAB
  0
TABLE
  2
DIMSTYLE
  5
A
330
0
100
AcDbSymbolTable
 70
     2
100
AcDbDimStyleTable
 71
     1
340
A2
  0
DIMSTYLE
105
A2
102
{ACAD_REACTORS
330
826
330
869
330
88D
330
8CA
330
8F8
330
A73
330
A80
330
A8F
330
B39
330
B63
102
}
330
A
100
AcDbSymbolTableRecord
100
AcDbDimStyleTableRecord
  2
Standard
 70
     0
340
11
  0
ENDTAB
  0
TABLE
  2
BLOCK_RECORD
  5
1
330
0
100
AcDbSymbolTable
 70
    13
  0
BLOCK_RECORD
  5
1E
102
{ACAD_XDICTIONARY
360
DB
102
}
330
1
100
AcDbSymbolTableRecord
100
AcDbBlockTableRecord
  2
*Model_Space
340
21
  0
BLOCK_RECORD
  5
1A
102
{ACAD_XDICTIONARY
360
DD
102
}
330
1
100
AcDbSymbolTableRecord
100
AcDbBlockTableRecord
  2
*Paper_Space
340
1D
  0
BLOCK_RECORD
  5
22
330
1
100
AcDbSymbolTableRecord
100
AcDbBlockTableRecord
  2
LOGO
340
0
102
{BLKREFS
331
33B
102
}
  0
BLOCK_RECORD
  5
827
330
1
100
AcDbSymbolTableRecord
100
AcDbBlockTableRecord
  2
*D2
340
0
  0
BLOCK_RECORD
  5
86A
330
1
100
AcDbSymbolTableRecord
100
AcDbBlockTableRecord
  2
*D3
340
0
  0
BLOCK_RECORD
  5
88E
330
1
100
AcDbSymbolTableRecord
100
AcDbBlockTableRecord
  2
*D4
340
0
  0
BLOCK_RECORD
  5
8CB
330
1
100
AcDbSymbolTableRecord
100
AcDbBlockTableRecord
  2
*D5
340
0
  0
BLOCK_RECORD
  5
8F9
330
1
100
AcDbSymbolTableRecord
100
AcDbBlockTableRecord
  2
*D6
340
0
  0
BLOCK_RECORD
  5
A74
330
1
100
AcDbSymbolTableRecord
100
AcDbBlockTableRecord
  2
*D7
340
0
  0
BLOCK_RECORD
  5
A81
330
1
100
AcDbSymbolTableRecord
100
AcDbBlockTableRecord
  2
*D8
340
0
  0
BLOCK_RECORD
  5
A90
330
1
100
AcDbSymbolTableRecord
100
AcDbBlockTableRecord
  2
*D9
340
0
  0
BLOCK_RECORD
  5
B3A
330
1
100
AcDbSymbolTableRecord
100
AcDbBlockTableRecord
  2
*D10
340
0
  0
BLOCK_RECORD
  5
B64
330
1
100
AcDbSymbolTableRecord
100
AcDbBlockTableRecord
  2
*D11
340
0
  0
ENDTAB
  0
ENDSEC
  0
SECTION
  2
BLOCKS
  0
BLOCK
  5
37
330
1E
100
AcDbEntity
  8
0
100
AcDbBlockBegin
  2
*Model_Space
 70
     0
 10
0.0
 20
0.0
 30
0.0
  3
*Model_Space
  1

  0
ENDBLK
  5
38
330
1E
100
AcDbEntity
  8
0
100
AcDbBlockEnd
  0
BLOCK
  5
35
330
1A
100
AcDbEntity
 67
     1
  8
0
100
AcDbBlockBegin
  2
*Paper_Space
 70
     0
 10
0.0
 20
0.0
 30
0.0
  3
*Paper_Space
  1

  0
ENDBLK
  5
36
330
1A
100
AcDbEntity
 67
     1
  8
0
100
AcDbBlockEnd
  0
BLOCK
  5
39
330
22
100
AcDbEntity
  8
0
100
AcDbBlockBegin
  2
LOGO
 70
     0
 10
0.0
 20
0.0
 30
0.0
  3
LOGO
  1

  0
ARC
  5
3A
330
22
100
AcDbEntity
  8
0
100
AcDbCircle
 10
11.59973089678112
 20
-9.271599258481501
 30
0.0
 40
4.5
100
AcDbArc
 50
270.0
 51
231.0575587310159
  0
LINE
  5
3B
330
22
100
AcDbEntity
  8
0
100
AcDbLine
 10
3.599730896781125
 20
-4.771599258481529
 30
0.0
 11
3.599730896781153
 21
-11.77159925848133
 31
0.0
  0
LINE
  5
3C
330
22
100
AcDbEntity
  8
0
100
AcDbLine
 10
2.599730896781125
 20
-4.771599258481529
 30
0.0
 11
2.599730896781153
 21
-11.77159925848133
 31
0.0
  0
CIRCLE
  5
3D
330
22
100
AcDbEntity
  8
0
100
AcDbCircle
 10
11.59973089678112
 20
-9.271599258481501
 30
0.0
 40
3.5
  0
ARC
  5
3E
330
22
100
AcDbEntity
  8
0
100
AcDbCircle
 10
31.59973089678115
 20
-9.271599258481472
 30
0.0
 40
4.5
100
AcDbArc
 50
270.0
 51
231.0575587310182
  0
LINE
  5
3F
330
22
100
AcDbEntity
  8
0
100
AcDbLine
 10
17.59973089678112
 20
-4.771599258481472
 30
0.0
 11
17.59973089678115
 21
-13.77159925848147
 31
0.0
  0
ARC
  5
40
330
22
100
AcDbEntity
  8
0
100
AcDbCircle
 10
22.59973089678116
 20
-7.271599258481472
 30
0.0
 40
2.5
100
AcDbArc
 50
293.1161887722295
 51
90.0
  0
CIRCLE
  5
41
330
22
100
AcDbEntity
  8
0
100
AcDbCircle
 10
31.59973089678115
 20
-9.271599258481472
 30
0.0
 40
3.5
  0
ARC
  5
42
330
22
100
AcDbEntity
  8
0
100
AcDbCircle
 10
4.599730896781153
 20
-11.77159925848133
 30
0.0
 40
1.0
100
AcDbArc
 50
180.0
 51
270.0
  0
ARC
  5
43
330
22
100
AcDbEntity
  8
0
100
AcDbCircle
 10
4.599730896781153
 20
-11.77159925848133
 30
0.0
 40
2.0
100
AcDbArc
 50
179.9999999999992
 51
270.0
  0
LINE
  5
44
330
22
100
AcDbEntity
  8
0
100
AcDbLine
 10
11.59973089678115
 20
-13.77159925848144
 30
0.0
 11
4.599730896781153
 21
-13.77159925848147
 31
0.0
  0
LINE
  5
45
330
22
100
AcDbEntity
  8
0
100
AcDbLine
 10
8.771303772034769
 20
-12.77159925848136
 30
0.0
 11
4.599730896781153
 21
-12.77159925848133
 31
0.0
  0
LINE
  5
46
330
22
100
AcDbEntity
  8
0
100
AcDbLine
 10
31.59973089678115
 20
-13.77159925848147
 30
0.0
 11
23.6715276665056
 21
-13.77159925848144
 31
0.0
  0
LINE
  5
47
330
22
100
AcDbEntity
  8
0
100
AcDbLine
 10
23.56565672307022
 20
-9.51278021337896
 30
0.0
 11
24.4388546544846
 21
-12.77159925848144
 31
0.0
  0
LINE
  5
48
330
22
100
AcDbEntity
  8
0
100
AcDbLine
 10
22.59973089678116
 20
-9.771599258481472
 30
0.0
 11
18.59973089678112
 21
-9.771599258481472
 31
0.0
  0
LINE
  5
49
330
22
100
AcDbEntity
  8
0
100
AcDbLine
 10
18.59973089678115
 20
-13.77159925848144
 30
0.0
 11
17.59973089678115
 21
-13.77159925848144
 31
0.0
  0
LINE
  5
4A
330
22
100
AcDbEntity
  8
0
100
AcDbLine
 10
18.59973089678115
 20
-9.771599258481472
 30
0.0
 11
18.59973089678115
 21
-13.77159925848144
 31
0.0
  0
LINE
  5
4B
330
22
100
AcDbEntity
  8
0
100
AcDbLine
 10
22.59973089678116
 20
-9.771599258481472
 30
0.0
 11
23.67152766650562
 21
-13.77159925848147
 31
0.0
  0
ARC
  5
4C
330
22
100
AcDbEntity
  8
0
100
AcDbCircle
 10
22.59973089678116
 20
-7.271599258481472
 30
0.0
 40
2.5
100
AcDbArc
 50
270.0
 51
270.0000000000007
  0
LINE
  5
4D
330
22
100
AcDbEntity
  8
0
100
AcDbLine
 10
28.77130377203494
 20
-12.77159925848147
 30
0.0
 11
24.43885465448463
 21
-12.77159925848144
 31
0.0
  0
LINE
  5
4E
330
22
100
AcDbEntity
  8
0
100
AcDbLine
 10
3.599730896781125
 20
-4.771599258481472
 30
0.0
 11
2.599730896781125
 21
-4.771599258481472
 31
0.0
  0
LINE
  5
4F
330
22
100
AcDbEntity
  8
0
100
AcDbLine
 10
22.59973089678116
 20
-8.771599258481472
 30
0.0
 11
18.59973089678115
 21
-8.771599258481472
 31
0.0
  0
LINE
  5
50
330
22
100
AcDbEntity
  8
0
100
AcDbLine
 10
22.59973089678116
 20
-5.771599258481472
 30
0.0
 11
18.59973089678115
 21
-5.771599258481472
 31
0.0
  0
LINE
  5
51
330
22
100
AcDbEntity
  8
0
100
AcDbLine
 10
22.59973089678116
 20
-4.771599258481472
 30
0.0
 11
17.59973089678115
 21
-4.771599258481472
 31
0.0
  0
LINE
  5
52
330
22
100
AcDbEntity
  8
0
100
AcDbLine
 10
18.59973089678115
 20
-5.771599258481472
 30
0.0
 11
18.59973089678115
 21
-8.771599258481472
 31
0.0
  0
ARC
  5
53
330
22
100
AcDbEntity
  8
0
100
AcDbCircle
 10
22.59973089678116
 20
-7.271599258481472
 30
0.0
 40
1.5
100
AcDbArc
 50
270.0
 51
90.0
  0
ENDBLK
  5
54
330
22
100
AcDbEntity
  8
0
100
AcDbBlockEnd
  0
BLOCK
  5
828
330
827
100
AcDbEntity
  8
0
100
AcDbBlockBegin
  2
*D2
 70
     1
 10
0.0
 20
0.0
 30
0.0
  3
*D2
  1

  0
LINE
  5
A9C
330
827
100
AcDbEntity
  8
BEM
 62
     0
440
 16777216
370
    -2
100
AcDbLine
 10
199.8513597845343
 20
434.9865100219719
 30
0.0
 11
199.8513597845343
 21
465.6050090072701
 31
0.0
  0
LINE
  5
A9D
330
827
100
AcDbEntity
  8
BEM
 62
     0
440
 16777216
370
    -2
100
AcDbLine
 10
529.8513597845344
 20
434.9865100219719
 30
0.0
 11
529.8513597845344
 21
465.6050090072701
 31
0.0
  0
LINE
  5
A9E
330
827
100
AcDbEntity
  8
BEM
 62
     0
440
 16777216
370
    -2
100
AcDbLine
 10
206.8513597845343
 20
463.6050090072701
 30
0.0
 11
522.8513597845344
 21
463.6050090072701
 31
0.0
  0
SOLID
  5
A9F
330
827
100
AcDbEntity
  8
BEM
 62
     0
440
 16777216
100
AcDbTrace
 10
206.8513597845343
 20
464.7716756739368
 30
0.0
 11
206.8513597845343
 21
462.4383423406034
 31
0.0
 12
199.8513597845343
 22
463.6050090072701
 32
0.0
 13
199.8513597845343
 23
463.6050090072701
 33
0.0
  0
SOLID
  5
AA0
330
827
100
AcDbEntity
  8
BEM
 62
     0
440
 16777216
100
AcDbTrace
 10
522.8513597845344
 20
464.7716756739368
 30
0.0
 11
522.8513597845344
 21
462.4383423406034
 31
0.0
 12
529.8513597845344
 22
463.6050090072701
 32
0.0
 13
529.8513597845344
 23
463.6050090072701
 33
0.0
  0
MTEXT
  5
AA1
330
827
100
AcDbEntity
  8
BEM
 62
     1
440
 16777216
100
AcDbMText
 10
364.8513597845344
 20
470.1050090072701
 30
0.0
 40
7.0
 41
0.0
 71
     5
 72
     1
  1
\A1;%%C330
 73
     1
 44
1.0
  0
POINT
  5
AA2
330
827
100
AcDbEntity
  8
DEFPOINTS
 62
     0
440
 16777216
100
AcDbPoint
 10
199.8513597845343
 20
432.9865100219719
 30
0.0
  0
POINT
  5
AA3
330
827
100
AcDbEntity
  8
DEFPOINTS
 62
     0
440
 16777216
100
AcDbPoint
 10
529.8513597845344
 20
432.9865100219719
 30
0.0
  0
POINT
  5
AA4
330
827
100
AcDbEntity
  8
DEFPOINTS
 62
     0
440
 16777216
100
AcDbPoint
 10
529.8513597845344
 20
463.6050090072701
 30
0.0
  0
ENDBLK
  5
829
330
827
100
AcDbEntity
  8
0
100
AcDbBlockEnd
  0
BLOCK
  5
86B
330
86A
100
AcDbEntity
  8
0
100
AcDbBlockBegin
  2
*D3
 70
     1
 10
0.0
 20
0.0
 30
0.0
  3
*D3
  1

  0
LINE
  5
87F
330
86A
100
AcDbEntity
  8
BEM
 62
     0
440
 16777216
370
    -2
100
AcDbLine
 10
588.0415182115403
 20
266.4780550701238
 30
0.0
 11
621.9673808329288
 21
264.7000759498754
 31
0.0
  0
LINE
  5
880
330
86A
100
AcDbEntity
  8
BEM
 62
     0
440
 16777216
370
    -2
100
AcDbLine
 10
593.3797857483203
 20
368.3382676150905
 30
0.0
 11
627.3056483697088
 21
366.5602884948421
 31
0.0
  0
LINE
  5
881
330
86A
100
AcDbEntity
  8
BEM
 62
     0
440
 16777216
370
    -2
100
AcDbLine
 10
620.3364734571202
 20
271.7951546056434
 30
0.0
 11
624.942037606499
 21
359.6745536640459
 31
0.0
  0
SOLID
  5
882
330
86A
100
AcDbEntity
  8
BEM
 62
     0
440
 16777216
100
AcDbTrace
 10
619.1714056665732
 20
271.8562132212601
 30
0.0
 11
621.5015412476672
 21
271.7340959900266
 31
0.0
 12
619.9701217634197
 22
264.8047478623613
 32
0.0
 13
619.9701217634197
 23
264.8047478623613
 33
0.0
  0
SOLID
  5
883
330
86A
100
AcDbEntity
  8
BEM
 62
     0
440
 16777216
100
AcDbTrace
 10
623.776969815952
 20
359.7356122796627
 30
0.0
 11
626.107105397046
 21
359.6134950484292
 31
0.0
 12
625.3083893001996
 22
366.6649604073279
 32
0.0
 13
625.3083893001996
 23
366.6649604073279
 33
0.0
  0
MTEXT
  5
884
330
86A
100
AcDbEntity
  8
BEM
 62
     1
440
 16777216
100
AcDbMText
 10
616.1481635559049
 20
316.0750378504238
 30
0.0
 40
7.0
 41
0.0
 71
     5
 72
     1
  1
\A1;%%C102
 11
0.0523359562429411
 21
0.9986295347545739
 31
0.0
 73
     1
 44
1.0
  0
POINT
  5
885
330
86A
100
AcDbEntity
  8
DEFPOINTS
 62
     0
440
 16777216
100
AcDbPoint
 10
586.0442591420312
 20
266.5827269826097
 30
0.0
  0
POINT
  5
886
330
86A
100
AcDbEntity
  8
DEFPOINTS
 62
     0
440
 16777216
100
AcDbPoint
 10
591.3825266788112
 20
368.4429395275764
 30
0.0
  0
POINT
  5
887
330
86A
100
AcDbEntity
  8
DEFPOINTS
 62
     0
440
 16777216
100
AcDbPoint
 10
625.3083893001996
 20
366.6649604073279
 30
0.0
  0
ENDBLK
  5
86C
330
86A
100
AcDbEntity
  8
0
100
AcDbBlockEnd
  0
BLOCK
  5
88F
330
88E
100
AcDbEntity
  8
0
100
AcDbBlockBegin
  2
*D4
 70
     1
 10
0.0
 20
0.0
 30
0.0
  3
*D4
  1

  0
LINE
  5
891
330
88E
100
AcDbEntity
  8
BEM
 62
     0
440
 16777216
370
    -2
100
AcDbLine
 10
366.8513597845383
 20
329.2449452770073
 30
0.0
 11
468.0822810229529
 21
329.2449452770069
 31
0.0
  0
ARC
  5
892
330
88E
100
AcDbEntity
  8
BEM
 62
     0
440
 16777216
370
    -2
100
AcDbCircle
 10
364.8513597845383
 20
329.2449452770073
 30
0.0
 40
101.2309212384147
100
AcDbArc
 50
349.0697991248109
 51
357.0
  0
LINE
  5
893
330
88E
100
AcDbEntity
  8
BEM
 62
     0
440
 16777216
370
    -2
100
AcDbLine
 10
464.2458410805213
 20
310.0502454179159
 30
0.0
 11
461.8946397347173
 21
297.8751950183696
 31
0.0
  0
ARC
  5
894
330
88E
100
AcDbEntity
  8
BEM
 62
     0
440
 16777216
370
    -2
100
AcDbCircle
 10
364.8513597845383
 20
329.2449452770073
 30
0.0
 40
101.2309212384147
100
AcDbArc
 50
349.0745479612237
 51
353.0372739806118
  0
ARC
  5
895
330
88E
100
AcDbEntity
  8
BEM
 62
     0
440
 16777216
370
    -2
100
AcDbCircle
 10
364.8513597845383
 20
329.2449452770073
 30
0.0
 40
101.2309212384147
100
AcDbArc
 50
3.962726019387945
 51
7.925452038776131
  0
ARC
  5
896
330
88E
100
AcDbEntity
  8
BEM
 62
     0
440
 16777216
370
    -2
100
AcDbCircle
 10
364.8513597845383
 20
329.2449452770073
 30
0.0
 40
101.2309212384147
100
AcDbArc
 50
357.0
 51
359.9999999999998
  0
SOLID
  5
897
330
88E
100
AcDbEntity
  8
BEM
 62
     0
440
 16777216
100
AcDbTrace
 10
464.1734655091125
 20
317.0746708956178
 30
0.0
 11
466.4979858310941
 21
316.8720635977745
 31
0.0
 12
465.9435475636333
 22
323.9469282126407
 32
0.0
 13
465.9435475636333
 23
323.9469282126407
 33
0.0
  0
SOLID
  5
898
330
88E
100
AcDbEntity
  8
BEM
 62
     0
440
 16777216
100
AcDbTrace
 10
467.0062292569459
 20
336.2810969788972
 30
0.0
 11
464.6742909626034
 21
336.2004233411711
 31
0.0
 12
466.082281022953
 22
329.244945277007
 32
0.0
 13
466.082281022953
 23
329.244945277007
 33
0.0
  0
MTEXT
  5
899
330
88E
100
AcDbEntity
  8
BEM
 62
     1
440
 16777216
100
AcDbMText
 10
456.6881575368895
 20
305.1952047945723
 30
0.0
 40
7.0
 41
0.0
 71
     5
 72
     1
  1
\A1;3°
 11
0.189613011758381
 21
0.981858903189209
 31
0.0
 73
     1
 44
1.0
  0
POINT
  5
89A
330
88E
100
AcDbEntity
  8
DEFPOINTS
 62
     0
440
 16777216
100
AcDbPoint
 10
466.0668630633254
 20
327.4782220955336
 30
0.0
  0
POINT
  5
89B
330
88E
100
AcDbEntity
  8
DEFPOINTS
 62
     0
440
 16777216
100
AcDbPoint
 10
362.8513597845341
 20
329.2449452770073
 30
0.0
  0
POINT
  5
89C
330
88E
100
AcDbEntity
  8
DEFPOINTS
 62
     0
440
 16777216
100
AcDbPoint
 10
364.8513597845343
 20
329.2449452770076
 30
0.0
  0
POINT
  5
89D
330
88E
100
AcDbEntity
  8
DEFPOINTS
 62
     0
440
 16777216
100
AcDbPoint
 10
608.598781391306
 20
316.4706842046294
 30
0.0
  0
POINT
  5
89E
330
88E
100
AcDbEntity
  8
DEFPOINTS
 62
     0
440
 16777216
100
AcDbPoint
 10
347.4699366451887
 20
329.2449452770074
 30
0.0
  0
ENDBLK
  5
890
330
88E
100
AcDbEntity
  8
0
100
AcDbBlockEnd
  0
BLOCK
  5
8CC
330
8CB
100
AcDbEntity
  8
0
100
AcDbBlockBegin
  2
*D5
 70
     1
 10
0.0
 20
0.0
 30
0.0
  3
*D5
  1

  0
LINE
  5
8E0
330
8CB
100
AcDbEntity
  8
BEM
 62
     0
440
 16777216
370
    -2
100
AcDbLine
 10
531.8513597845345
 20
432.9865100219719
 30
0.0
 11
645.4838358291549
 21
432.9865100219718
 31
0.0
  0
LINE
  5
8E1
330
8CB
100
AcDbEntity
  8
BEM
 62
     0
440
 16777216
370
    -2
100
AcDbLine
 10
624.6915328079134
 20
316.7323639858441
 30
0.0
 11
645.4838358291549
 21
316.732363985844
 31
0.0
  0
LINE
  5
8E2
330
8CB
100
AcDbEntity
  8
BEM
 62
     0
440
 16777216
370
    -2
100
AcDbLine
 10
643.4838358291549
 20
425.9865100219718
 30
0.0
 11
643.4838358291549
 21
323.732363985844
 31
0.0
  0
SOLID
  5
8E3
330
8CB
100
AcDbEntity
  8
BEM
 62
     0
440
 16777216
100
AcDbTrace
 10
642.3171691624883
 20
425.9865100219718
 30
0.0
 11
644.6505024958216
 21
425.9865100219718
 31
0.0
 12
643.4838358291549
 22
432.9865100219718
 32
0.0
 13
643.4838358291549
 23
432.9865100219718
 33
0.0
  0
SOLID
  5
8E4
330
8CB
100
AcDbEntity
  8
BEM
 62
     0
440
 16777216
100
AcDbTrace
 10
642.3171691624883
 20
323.732363985844
 30
0.0
 11
644.6505024958216
 21
323.732363985844
 31
0.0
 12
643.4838358291549
 22
316.732363985844
 32
0.0
 13
643.4838358291549
 23
316.732363985844
 33
0.0
  0
MTEXT
  5
8E5
330
8CB
100
AcDbEntity
  8
BEM
 62
     1
440
 16777216
100
AcDbMText
 10
636.9838358291548
 20
374.859437003908
 30
0.0
 40
7.0
 41
0.0
 71
     5
 72
     1
  1
\A1;116
 11
0.0000000000000001
 21
1.0
 31
0.0
 73
     1
 44
1.0
  0
POINT
  5
8E6
330
8CB
100
AcDbEntity
  8
DEFPOINTS
 62
     0
440
 16777216
100
AcDbPoint
 10
529.8513597845344
 20
432.9865100219719
 30
0.0
  0
POINT
  5
8E7
330
8CB
100
AcDbEntity
  8
DEFPOINTS
 62
     0
440
 16777216
100
AcDbPoint
 10
622.6915328079135
 20
316.7323639858441
 30
0.0
  0
POINT
  5
8E8
330
8CB
100
AcDbEntity
  8
DEFPOINTS
 62
     0
440
 16777216
100
AcDbPoint
 10
643.4838358291549
 20
316.732363985844
 30
0.0
  0
ENDBLK
  5
8CD
330
8CB
100
AcDbEntity
  8
0
100
AcDbBlockEnd
  0
BLOCK
  5
8FA
330
8F9
100
AcDbEntity
  8
0
100
AcDbBlockBegin
  2
*D6
 70
     1
 10
0.0
 20
0.0
 30
0.0
  3
*D6
  1

  0
LINE
  5
B59
330
8F9
100
AcDbEntity
  8
BEM
 62
     0
440
 16777216
370
    -2
100
AcDbLine
 10
364.8513597845344
 20
209.6999717052461
 30
0.0
 11
364.8513597845344
 21
188.7786155658893
 31
0.0
  0
LINE
  5
B5A
330
8F9
100
AcDbEntity
  8
BEM
 62
     0
440
 16777216
370
    -2
100
AcDbLine
 10
603.6056337175332
 20
314.7323639858441
 30
0.0
 11
603.6056337175332
 21
188.7786155658893
 31
0.0
  0
LINE
  5
B5B
330
8F9
100
AcDbEntity
  8
BEM
 62
     0
440
 16777216
370
    -2
100
AcDbLine
 10
371.8513597845344
 20
190.7786155658893
 30
0.0
 11
596.6056337175332
 21
190.7786155658893
 31
0.0
  0
SOLID
  5
B5C
330
8F9
100
AcDbEntity
  8
BEM
 62
     0
440
 16777216
100
AcDbTrace
 10
371.8513597845344
 20
191.945282232556
 30
0.0
 11
371.8513597845344
 21
189.6119488992227
 31
0.0
 12
364.8513597845344
 22
190.7786155658893
 32
0.0
 13
364.8513597845344
 23
190.7786155658893
 33
0.0
  0
SOLID
  5
B5D
330
8F9
100
AcDbEntity
  8
BEM
 62
     0
440
 16777216
100
AcDbTrace
 10
596.6056337175332
 20
191.945282232556
 30
0.0
 11
596.6056337175332
 21
189.6119488992227
 31
0.0
 12
603.6056337175332
 22
190.7786155658893
 32
0.0
 13
603.6056337175332
 23
190.7786155658893
 33
0.0
  0
MTEXT
  5
B5E
330
8F9
100
AcDbEntity
  8
BEM
 62
     1
440
 16777216
100
AcDbMText
 10
484.2284967510338
 20
197.2786155658893
 30
0.0
 40
7.0
 41
0.0
 71
     5
 72
     1
  1
\A1;239
 73
     1
 44
1.0
  0
POINT
  5
B5F
330
8F9
100
AcDbEntity
  8
DEFPOINTS
 62
     0
440
 16777216
100
AcDbPoint
 10
364.8513597845344
 20
211.6999717052461
 30
0.0
  0
POINT
  5
B60
330
8F9
100
AcDbEntity
  8
DEFPOINTS
 62
     0
440
 16777216
100
AcDbPoint
 10
603.6056337175332
 20
316.7323639858441
 30
0.0
  0
POINT
  5
B61
330
8F9
100
AcDbEntity
  8
DEFPOINTS
 62
     0
440
 16777216
100
AcDbPoint
 10
603.6056337175332
 20
190.7786155658893
 30
0.0
  0
ENDBLK
  5
8FB
330
8F9
100
AcDbEntity
  8
0
100
AcDbBlockEnd
  0
BLOCK
  5
A75
330
A74
100
AcDbEntity
  8
0
100
AcDbBlockBegin
  2
*D7
 70
     1
 10
0.0
 20
0.0
 30
0.0
  3
*D7
  1

  0
LINE
  5
A77
330
A74
100
AcDbEntity
  8
BEM
 62
     0
440
 16777216
370
    -2
100
AcDbLine
 10
197.8513597845343
 20
430.9865100219719
 30
0.0
 11
184.4226287284714
 21
430.9865100219719
 31
0.0
  0
LINE
  5
A78
330
A74
100
AcDbEntity
  8
BEM
 62
     0
440
 16777216
370
    -2
100
AcDbLine
 10
272.2054584722397
 20
229.9865100219717
 30
0.0
 11
184.4226287284714
 21
229.9865100219717
 31
0.0
  0
LINE
  5
A79
330
A74
100
AcDbEntity
  8
BEM
 62
     0
440
 16777216
370
    -2
100
AcDbLine
 10
186.4226287284714
 20
423.9865100219719
 30
0.0
 11
186.4226287284714
 21
236.9865100219717
 31
0.0
  0
SOLID
  5
A7A
330
A74
100
AcDbEntity
  8
BEM
 62
     0
440
 16777216
100
AcDbTrace
 10
185.2559620618048
 20
423.9865100219719
 30
0.0
 11
187.5892953951381
 21
423.9865100219719
 31
0.0
 12
186.4226287284714
 22
430.9865100219719
 32
0.0
 13
186.4226287284714
 23
430.9865100219719
 33
0.0
  0
SOLID
  5
A7B
330
A74
100
AcDbEntity
  8
BEM
 62
     0
440
 16777216
100
AcDbTrace
 10
185.2559620618047
 20
236.9865100219717
 30
0.0
 11
187.589295395138
 21
236.9865100219717
 31
0.0
 12
186.4226287284714
 22
229.9865100219717
 32
0.0
 13
186.4226287284714
 23
229.9865100219717
 33
0.0
  0
MTEXT
  5
A7C
330
A74
100
AcDbEntity
  8
BEM
 62
     1
440
 16777216
100
AcDbMText
 10
179.9226287284714
 20
330.4865100219719
 30
0.0
 40
7.0
 41
0.0
 71
     5
 72
     1
  1
\A1;201
 11
0.0000000000000001
 21
1.0
 31
0.0
 73
     1
 44
1.0
  0
POINT
  5
A7D
330
A74
100
AcDbEntity
  8
DEFPOINTS
 62
     0
440
 16777216
100
AcDbPoint
 10
199.8513597845343
 20
430.9865100219719
 30
0.0
  0
POINT
  5
A7E
330
A74
100
AcDbEntity
  8
DEFPOINTS
 62
     0
440
 16777216
100
AcDbPoint
 10
274.2054584722397
 20
229.9865100219717
 30
0.0
  0
POINT
  5
A7F
330
A74
100
AcDbEntity
  8
DEFPOINTS
 62
     0
440
 16777216
100
AcDbPoint
 10
186.4226287284714
 20
229.9865100219717
 30
0.0
  0
ENDBLK
  5
A76
330
A74
100
AcDbEntity
  8
0
100
AcDbBlockEnd
  0
BLOCK
  5
A82
330
A81
100
AcDbEntity
  8
0
100
AcDbBlockBegin
  2
*D8
 70
     1
 10
0.0
 20
0.0
 30
0.0
  3
*D8
  1

  0
LINE
  5
A84
330
A81
100
AcDbEntity
  8
BEM
 62
     0
440
 16777216
370
    -2
100
AcDbLine
 10
197.8513597845343
 20
430.9865100219719
 30
0.0
 11
184.4226287284714
 21
430.9865100219719
 31
0.0
  0
LINE
  5
A85
330
A81
100
AcDbEntity
  8
BEM
 62
     0
440
 16777216
370
    -2
100
AcDbLine
 10
197.8513597845343
 20
432.9865100219719
 30
0.0
 11
184.4226287284714
 21
432.9865100219719
 31
0.0
  0
LINE
  5
A86
330
A81
100
AcDbEntity
  8
BEM
 62
     0
440
 16777216
370
    -2
100
AcDbLine
 10
186.4226287284714
 20
423.9865100219719
 30
0.0
 11
186.4226287284714
 21
416.9865100219719
 31
0.0
  0
LINE
  5
A87
330
A81
100
AcDbEntity
  8
BEM
 62
     0
440
 16777216
370
    -2
100
AcDbLine
 10
186.4226287284714
 20
439.9865100219719
 30
0.0
 11
186.4226287284714
 21
456.7198433553052
 31
0.0
  0
LINE
  5
A88
330
A81
100
AcDbEntity
  8
BEM
 62
     0
440
 16777216
370
    -2
100
AcDbLine
 10
186.4226287284714
 20
430.9865100219719
 30
0.0
 11
186.4226287284714
 21
432.9865100219719
 31
0.0
  0
SOLID
  5
A89
330
A81
100
AcDbEntity
  8
BEM
 62
     0
440
 16777216
100
AcDbTrace
 10
185.2559620618048
 20
423.9865100219719
 30
0.0
 11
187.5892953951381
 21
423.9865100219719
 31
0.0
 12
186.4226287284714
 22
430.9865100219719
 32
0.0
 13
186.4226287284714
 23
430.9865100219719
 33
0.0
  0
SOLID
  5
A8A
330
A81
100
AcDbEntity
  8
BEM
 62
     0
440
 16777216
100
AcDbTrace
 10
185.2559620618048
 20
439.9865100219719
 30
0.0
 11
187.5892953951381
 21
439.9865100219719
 31
0.0
 12
186.4226287284714
 22
432.9865100219719
 32
0.0
 13
186.4226287284714
 23
432.9865100219719
 33
0.0
  0
MTEXT
  5
A8B
330
A81
100
AcDbEntity
  8
BEM
 62
     1
440
 16777216
100
AcDbMText
 10
179.9226287284714
 20
451.8531766886386
 30
0.0
 40
7.0
 41
0.0
 71
     5
 72
     1
  1
\A1;2
 11
0.0000000000000001
 21
1.0
 31
0.0
 73
     1
 44
1.0
  0
POINT
  5
A8C
330
A81
100
AcDbEntity
  8
DEFPOINTS
 62
     0
440
 16777216
100
AcDbPoint
 10
199.8513597845343
 20
430.9865100219719
 30
0.0
  0
POINT
  5
A8D
330
A81
100
AcDbEntity
  8
DEFPOINTS
 62
     0
440
 16777216
100
AcDbPoint
 10
199.8513597845343
 20
432.9865100219719
 30
0.0
  0
POINT
  5
A8E
330
A81
100
AcDbEntity
  8
DEFPOINTS
 62
     0
440
 16777216
100
AcDbPoint
 10
186.4226287284714
 20
432.9865100219719
 30
0.0
  0
ENDBLK
  5
A83
330
A81
100
AcDbEntity
  8
0
100
AcDbBlockEnd
  0
BLOCK
  5
A91
330
A90
100
AcDbEntity
  8
0
100
AcDbBlockBegin
  2
*D9
 70
     1
 10
0.0
 20
0.0
 30
0.0
  3
*D9
  1

  0
LINE
  5
A93
330
A90
100
AcDbEntity
  8
BEM
 62
     0
440
 16777216
370
    -2
100
AcDbLine
 10
254.8513597845343
 20
432.9865100219719
 30
0.0
 11
254.8513597845343
 21
450.6603457315707
 31
0.0
  0
LINE
  5
A94
330
A90
100
AcDbEntity
  8
BEM
 62
     0
440
 16777216
370
    -2
100
AcDbLine
 10
364.8513597845342
 20
439.9865100219718
 30
0.0
 11
364.8513597845342
 21
450.6603457315707
 31
0.0
  0
LINE
  5
A95
330
A90
100
AcDbEntity
  8
BEM
 62
     0
440
 16777216
370
    -2
100
AcDbLine
 10
261.8513597845343
 20
448.6603457315707
 30
0.0
 11
357.8513597845342
 21
448.6603457315707
 31
0.0
  0
SOLID
  5
A96
330
A90
100
AcDbEntity
  8
BEM
 62
     0
440
 16777216
100
AcDbTrace
 10
261.8513597845343
 20
449.8270123982374
 30
0.0
 11
261.8513597845343
 21
447.493679064904
 31
0.0
 12
254.8513597845343
 22
448.6603457315707
 32
0.0
 13
254.8513597845343
 23
448.6603457315707
 33
0.0
  0
SOLID
  5
A97
330
A90
100
AcDbEntity
  8
BEM
 62
     0
440
 16777216
100
AcDbTrace
 10
357.8513597845342
 20
449.8270123982374
 30
0.0
 11
357.8513597845342
 21
447.493679064904
 31
0.0
 12
364.8513597845342
 22
448.6603457315707
 32
0.0
 13
364.8513597845342
 23
448.6603457315707
 33
0.0
  0
MTEXT
  5
A98
330
A90
100
AcDbEntity
  8
BEM
 62
     1
440
 16777216
100
AcDbMText
 10
309.8513597845343
 20
455.1603457315707
 30
0.0
 40
7.0
 41
0.0
 71
     5
 72
     1
  1
\A1;110
 73
     1
 44
1.0
  0
POINT
  5
A99
330
A90
100
AcDbEntity
  8
DEFPOINTS
 62
     0
440
 16777216
100
AcDbPoint
 10
254.8513597845343
 20
430.9865100219719
 30
0.0
  0
POINT
  5
A9A
330
A90
100
AcDbEntity
  8
DEFPOINTS
 62
     0
440
 16777216
100
AcDbPoint
 10
364.8513597845342
 20
437.9865100219718
 30
0.0
  0
POINT
  5
A9B
330
A90
100
AcDbEntity
  8
DEFPOINTS
 62
     0
440
 16777216
100
AcDbPoint
 10
364.8513597845342
 20
448.6603457315707
 30
0.0
  0
ENDBLK
  5
A92
330
A90
100
AcDbEntity
  8
0
100
AcDbBlockEnd
  0
BLOCK
  5
B3B
330
B3A
100
AcDbEntity
  8
0
100
AcDbBlockBegin
  2
*D10
 70
     1
 10
0.0
 20
0.0
 30
0.0
  3
*D10
  1

  0
LINE
  5
B4F
330
B3A
100
AcDbEntity
  8
BEM
 62
     0
440
 16777216
370
    -2
100
AcDbLine
 10
274.2054584722397
 20
227.9865100219717
 30
0.0
 11
274.2054584722397
 21
209.6999717052461
 31
0.0
  0
LINE
  5
B50
330
B3A
100
AcDbEntity
  8
BEM
 62
     0
440
 16777216
370
    -2
100
AcDbLine
 10
530.4222117072092
 20
227.9865100219709
 30
0.0
 11
530.4222117072092
 21
209.6999717052461
 31
0.0
  0
LINE
  5
B51
330
B3A
100
AcDbEntity
  8
BEM
 62
     0
440
 16777216
370
    -2
100
AcDbLine
 10
281.2054584722397
 20
211.6999717052461
 30
0.0
 11
523.4222117072092
 21
211.6999717052461
 31
0.0
  0
SOLID
  5
B52
330
B3A
100
AcDbEntity
  8
BEM
 62
     0
440
 16777216
100
AcDbTrace
 10
281.2054584722397
 20
212.8666383719127
 30
0.0
 11
281.2054584722397
 21
210.5333050385794
 31
0.0
 12
274.2054584722397
 22
211.6999717052461
 32
0.0
 13
274.2054584722397
 23
211.6999717052461
 33
0.0
  0
SOLID
  5
B53
330
B3A
100
AcDbEntity
  8
BEM
 62
     0
440
 16777216
100
AcDbTrace
 10
523.4222117072092
 20
212.8666383719127
 30
0.0
 11
523.4222117072092
 21
210.5333050385794
 31
0.0
 12
530.4222117072092
 22
211.6999717052461
 32
0.0
 13
530.4222117072092
 23
211.6999717052461
 33
0.0
  0
MTEXT
  5
B54
330
B3A
100
AcDbEntity
  8
BEM
 62
     1
440
 16777216
100
AcDbMText
 10
402.3138350897244
 20
218.1999717052461
 30
0.0
 40
7.0
 41
0.0
 71
     5
 72
     1
  1
\A1;256
 73
     1
 44
1.0
  0
POINT
  5
B55
330
B3A
100
AcDbEntity
  8
DEFPOINTS
 62
     0
440
 16777216
100
AcDbPoint
 10
274.2054584722397
 20
229.9865100219717
 30
0.0
  0
POINT
  5
B56
330
B3A
100
AcDbEntity
  8
DEFPOINTS
 62
     0
440
 16777216
100
AcDbPoint
 10
530.4222117072092
 20
229.9865100219709
 30
0.0
  0
POINT
  5
B57
330
B3A
100
AcDbEntity
  8
DEFPOINTS
 62
     0
440
 16777216
100
AcDbPoint
 10
530.4222117072092
 20
211.6999717052461
 30
0.0
  0
ENDBLK
  5
B3C
330
B3A
100
AcDbEntity
  8
0
100
AcDbBlockEnd
  0
BLOCK
  5
B65
330
B64
100
AcDbEntity
  8
0
100
AcDbBlockBegin
  2
*D11
 70
     1
 10
0.0
 20
0.0
 30
0.0
  3
*D11
  1

  0
LINE
  5
EDA
330
B64
100
AcDbEntity
  8
BEM
 62
     0
440
 16777216
370
    -2
100
AcDbLine
 10
600.9001102499467
 20
265.1079008889721
 30
0.0
 11
599.0811502619272
 21
230.4000767280651
 31
0.0
  0
LINE
  5
EDB
330
B64
100
AcDbEntity
  8
BEM
 62
     0
440
 16777216
370
    -2
100
AcDbLine
 10
531.1688517551318
 20
244.2332508329162
 30
0.0
 11
530.6318868779856
 21
233.9873506155775
 31
0.0
  0
LINE
  5
EDC
330
B64
100
AcDbEntity
  8
BEM
 62
     0
440
 16777216
370
    -2
100
AcDbLine
 10
592.195415431131
 20
232.7636874912748
 30
0.0
 11
537.7269655337535
 21
235.618257991386
 31
0.0
  0
SOLID
  5
EDD
330
B64
100
AcDbEntity
  8
BEM
 62
     0
440
 16777216
100
AcDbTrace
 10
592.2564740467477
 20
233.9287552818219
 30
0.0
 11
592.1343568155142
 21
231.5986197007278
 31
0.0
 12
599.1858221744131
 22
232.3973357975742
 32
0.0
 13
599.1858221744131
 23
232.3973357975742
 33
0.0
  0
SOLID
  5
EDE
330
B64
100
AcDbEntity
  8
BEM
 62
     0
440
 16777216
100
AcDbTrace
 10
537.7880241493702
 20
236.783325781933
 30
0.0
 11
537.6659069181366
 21
234.453190200839
 31
0.0
 12
530.7365587904715
 22
235.9846096850866
 32
0.0
 13
530.7365587904715
 23
235.9846096850866
 33
0.0
  0
MTEXT
  5
EDF
330
B64
100
AcDbEntity
  8
BEM
 62
     1
440
 16777216
100
AcDbMText
 10
565.3013741980214
 20
240.6820647172352
 30
0.0
 40
7.0
 41
0.0
 71
     5
 72
     1
  1
\A1;68.5
 11
0.9986295347545738
 21
-0.0523359562429441
 31
0.0
 73
     1
 44
1.0
  0
POINT
  5
EE0
330
B64
100
AcDbEntity
  8
DEFPOINTS
 62
     0
440
 16777216
100
AcDbPoint
 10
601.0047821624326
 20
267.1051599584812
 30
0.0
  0
POINT
  5
EE1
330
B64
100
AcDbEntity
  8
DEFPOINTS
 62
     0
440
 16777216
100
AcDbPoint
 10
531.2735236676178
 20
246.2305099024254
 30
0.0
  0
POINT
  5
EE2
330
B64
100
AcDbEntity
  8
DEFPOINTS
 62
     0
440
 16777216
100
AcDbPoint
 10
530.7365587904715
 20
235.9846096850866
 30
0.0
  0
ENDBLK
  5
B66
330
B64
100
AcDbEntity
  8
0
100
AcDbBlockEnd
  0
ENDSEC
  0
SECTION
  2
ENTITIES
  0
TEXT
  5
2F1
330
1E
100
AcDbEntity
  8
TEXT
100
AcDbText
 10
836.5811541437437
 20
12.14804815338303
 30
0.0
 40
4.0
  1
Diese Zeichnung ist urheberrechtlich geschützt und bleibt unser Eigentum. Sie darf weder ganz noch teilweise vervielfältigt und nicht an Dritte weitergegeben werden.
 50
90.0
 41
0.8
  7
GREEKS
100
AcDbText
  0
LINE
  5
2FB
330
1E
100
AcDbEntity
  8
HILF
 62
     7
100
AcDbLine
 10
459.9999999999998
 20
584.0
 30
0.0
 11
459.9999999999998
 21
593.9999999999998
 31
0.0
  0
LINE
  5
31D
330
1E
100
AcDbEntity
  8
STEMPEL
100
AcDbLine
 10
830.0
 20
110.0
 30
0.0
 11
830.0
 21
10.0
 31
0.0
  0
TEXT
  5
31E
330
1E
100
AcDbEntity
  8
TEXT
 62
     1
100
AcDbText
 10
766.5429937430555
 20
88.14901428913959
 30
0.0
 40
7.0
  1
17180100A
 41
0.8
  7
GREEKS
 72
     1
 11
788.4096604097223
 21
88.14901428913959
 31
0.0
100
AcDbText
  0
TEXT
  5
31F
330
1E
100
AcDbEntity
  8
TEXT
100
AcDbText
 10
756.7238616296992
 20
73.1811823709997
 30
0.0
 40
5.0
  1
Ersatz für:
 41
0.8
  7
GREEKS
100
AcDbText
  0
TEXT
  5
320
330
1E
100
AcDbEntity
  8
TEXT
100
AcDbText
 10
756.178754957634
 20
102.3132034537136
 30
0.0
 40
5.0
  1
Zeichnungs Nr.
 41
0.8
  7
GREEKS
100
AcDbText
  0
TEXT
  5
321
330
1E
100
AcDbEntity
  8
TEXT
100
AcDbText
 10
757.2400861497006
 20
52.07416177878602
 30
0.0
 40
5.0
  1
ersetzt durch:
 41
0.8
  7
GREEKS
100
AcDbText
  0
LINE
  5
323
330
1E
100
AcDbEntity
  8
STEMPEL
100
AcDbLine
 10
752.0
 20
109.9999999999997
 30
0.0
 11
752.0
 21
40.0
 31
0.0
  0
LINE
  5
324
330
1E
100
AcDbEntity
  8
VOLL
100
AcDbLine
 10
752.0
 20
60.0
 30
0.0
 11
830.0
 21
60.0
 31
0.0
  0
LINE
  5
325
330
1E
100
AcDbEntity
  8
HILF
100
AcDbLine
 10
756.7238616296992
 20
83.77983636955827
 30
0.0
 11
824.8588839326728
 21
83.77983636955827
 31
0.0
  0
TEXT
  5
328
330
1E
100
AcDbEntity
  8
TEXT
100
AcDbText
 10
471.8550995097768
 20
111.6719999999999
 30
0.0
 40
5.0
  1
Erstellt mit AUTOCAD 2004
 41
0.8
  7
GREEKS
100
AcDbText
  0
TEXT
  5
329
330
1E
100
AcDbEntity
  8
TEXT
100
AcDbText
 10
632.4626584226295
 20
73.30961091915225
 30
0.0
 40
4.0
  1
Name
 41
0.8
  7
GREEKS
100
AcDbText
  0
TEXT
  5
32A
330
1E
100
AcDbEntity
  8
TEXT
100
AcDbText
 10
634.4216048581257
 20
63.0896391972351
 30
0.0
 40
4.0
  1
Koeh
 41
0.8
  7
GREEKS
 72
     1
 11
639.6787477152686
 21
63.0896391972351
 31
0.0
100
AcDbText
  0
TEXT
  5
32B
330
1E
100
AcDbEntity
  8
TEXT
100
AcDbText
 10
602.331167315365
 20
73.31880501229926
 30
0.0
 40
4.0
  1
Tag
 41
0.8
  7
GREEKS
100
AcDbText
  0
TEXT
  5
32C
330
1E
100
AcDbEntity
  8
TEXT
100
AcDbText
 10
578.622109822104
 20
73.14025471151666
 30
0.0
 40
4.0
  1
2013
 41
0.8
  7
GREEKS
100
AcDbText
  0
TEXT
  5
32D
330
1E
100
AcDbEntity
  8
TEXT
 62
     1
100
AcDbText
 10
590.5006306481887
 20
88.14901428913959
 30
0.0
 40
7.0
  1
1:2
 41
0.8
  7
GREEKS
100
AcDbText
  0
TEXT
  5
32E
330
1E
100
AcDbEntity
  8
TEXT
100
AcDbText
 10
583.5163572150377
 20
102.4620895087088
 30
0.0
 40
5.0
  1
Maßstab
 41
0.8
  7
GREEKS
100
AcDbText
  0
TEXT
  5
32F
330
1E
100
AcDbEntity
  8
TEXT
100
AcDbText
 10
577.5515086571672
 20
53.68926291428377
 30
0.0
 40
4.0
  1
Gepr.
 41
0.8
  7
GREEKS
100
AcDbText
  0
TEXT
  5
330
330
1E
100
AcDbEntity
  8
TEXT
100
AcDbText
 10
577.6006777387303
 20
43.52946389649807
 30
0.0
 40
4.0
  1
Norm.
 41
0.8
  7
GREEKS
100
AcDbText
  0
TEXT
  5
331
330
1E
100
AcDbEntity
  8
TEXT
100
AcDbText
 10
600.703759012998
 20
63.10765040825732
 30
0.0
 40
4.0
  1
28.10.
 41
0.8
  7
GREEKS
 72
     1
 11
607.4085209177598
 21
63.10765040825732
 31
0.0
100
AcDbText
  0
LINE
  5
332
330
1E
100
AcDbEntity
  8
VOLL
100
AcDbLine
 10
620.0000000000001
 20
109.9999999999998
 30
0.0
 11
620.0
 21
39.99999999999997
 31
0.0
  0
TEXT
  5
333
330
1E
100
AcDbEntity
  8
TEXT
100
AcDbText
 10
577.5836127167615
 20
63.62990369617964
 30
0.0
 40
4.0
  1
Gez.
 41
0.8
  7
GREEKS
100
AcDbText
  0
LINE
  5
334
330
1E
100
AcDbEntity
  8
VOLL
100
AcDbLine
 10
594.0000000000001
 20
79.99999999999994
 30
0.0
 11
594.0000000000001
 21
39.99999999999997
 31
0.0
  0
LINE
  5
335
330
1E
100
AcDbEntity
  8
HILF
100
AcDbLine
 10
576.0000000000001
 20
69.99999999999994
 30
0.0
 11
660.0
 21
69.99999999999994
 31
0.0
  0
LINE
  5
336
330
1E
100
AcDbEntity
  8
HILF
100
AcDbLine
 10
576.0000000000001
 20
59.99999999999997
 30
0.0
 11
660.0
 21
59.99999999999997
 31
0.0
  0
LINE
  5
337
330
1E
100
AcDbEntity
  8
HILF
100
AcDbLine
 10
576.0000000000001
 20
49.99999999999997
 30
0.0
 11
660.0
 21
49.99999999999997
 31
0.0
  0
TEXT
  5
338
330
1E
100
AcDbEntity
  8
TEXT
100
AcDbText
 10
624.2858954734051
 20
102.4184168434819
 30
0.0
 40
5.0
  1
Zul. Abw.
 41
0.8
  7
GREEKS
100
AcDbText
  0
LINE
  5
339
330
1E
100
AcDbEntity
  8
STEMPEL
100
AcDbLine
 10
660.0
 20
110.0
 30
0.0
 11
660.0
 21
9.999999999999971
 31
0.0
  0
LINE
  5
33A
330
1E
100
AcDbEntity
  8
STEMPEL
100
AcDbLine
 10
576.0000000000001
 20
109.9999999999999
 30
0.0
 11
576.0
 21
9.999999999999971
 31
0.0
  0
INSERT
  5
33B
330
1E
100
AcDbEntity
  8
STEMPEL
100
AcDbBlockReference
  2
LOGO
 10
580.9955485457794
 20
45.02105276448322
 30
0.0
 41
2.0
 42
2.0
 43
2.0
  0
LINE
  5
33C
330
1E
100
AcDbEntity
  8
HILF
 62
     7
100
AcDbLine
 10
460.0
 20
-0.0000000000002824
 30
0.0
 11
460.0
 21
10.0
 31
0.0
  0
TEXT
  5
33D
330
1E
100
AcDbEntity
  8
TEXT
100
AcDbText
 10
500.3326464809502
 20
18.67381894984132
 30
0.0
 40
4.0
  1
Änderung
 41
0.8
  7
GREEKS
 72
     1
 11
511.0755036238073
 21
18.67381894984132
 31
0.0
100
AcDbText
  0
TEXT
  5
33E
330
1E
100
AcDbEntity
  8
TEXT
100
AcDbText
 10
478.2664110704575
 20
13.65465846027192
 30
0.0
 40
4.0
  1
Index
 50
90.0
 41
0.8
  7
GREEKS
100
AcDbText
  0
LINE
  5
33F
330
1E
100
AcDbEntity
  8
VOLL
100
AcDbLine
 10
484.0000000000001
 20
110.0
 30
0.0
 11
484.0
 21
9.999999999999971
 31
0.0
  0
LINE
  5
340
330
1E
100
AcDbEntity
  8
STEMPEL
100
AcDbLine
 10
470.0
 20
10.0
 30
0.0
 11
470.0
 21
110.0
 31
0.0
  0
TEXT
  5
341
330
1E
100
AcDbEntity
  8
TEXT
100
AcDbText
 10
540.6444468355296
 20
18.6715626933981
 30
0.0
 40
4.0
  1
Tag
 41
0.8
  7
GREEKS
 72
     1
 11
544.377780168863
 21
18.6715626933981
 31
0.0
100
AcDbText
  0
LINE
  5
342
330
1E
100
AcDbEntity
  8
VOLL
100
AcDbLine
 10
534.0000000000001
 20
109.9999999999999
 30
0.0
 11
534.0
 21
9.999999999999971
 31
0.0
  0
LINE
  5
343
330
1E
100
AcDbEntity
  8
VOLL
100
AcDbLine
 10
554.0
 20
109.9999999999999
 30
0.0
 11
554.0
 21
9.999999999999971
 31
0.0
  0
LINE
  5
344
330
1E
100
AcDbEntity
  8
STEMPEL
100
AcDbLine
 10
575.9999999999998
 20
29.99999999999997
 30
0.0
 11
470.0
 21
29.99999999999997
 31
0.0
  0
LINE
  5
345
330
1E
100
AcDbEntity
  8
HILF
100
AcDbLine
 10
470.0000000000001
 20
100.0
 30
0.0
 11
576.0000000000001
 21
100.0
 31
0.0
  0
LINE
  5
346
330
1E
100
AcDbEntity
  8
HILF
100
AcDbLine
 10
470.0000000000001
 20
90.00000000000005
 30
0.0
 11
576.0000000000001
 21
90.00000000000005
 31
0.0
  0
LINE
  5
347
330
1E
100
AcDbEntity
  8
HILF
100
AcDbLine
 10
470.0000000000001
 20
79.99999999999994
 30
0.0
 11
576.0000000000001
 21
79.99999999999994
 31
0.0
  0
LINE
  5
348
330
1E
100
AcDbEntity
  8
HILF
100
AcDbLine
 10
470.0000000000001
 20
69.99999999999994
 30
0.0
 11
576.0000000000001
 21
69.99999999999994
 31
0.0
  0
LINE
  5
349
330
1E
100
AcDbEntity
  8
HILF
100
AcDbLine
 10
470.0000000000001
 20
59.99999999999997
 30
0.0
 11
576.0000000000001
 21
59.99999999999997
 31
0.0
  0
LINE
  5
34A
330
1E
100
AcDbEntity
  8
HILF
100
AcDbLine
 10
470.0000000000001
 20
49.99999999999997
 30
0.0
 11
576.0000000000001
 21
49.99999999999997
 31
0.0
  0
LINE
  5
34B
330
1E
100
AcDbEntity
  8
HILF
100
AcDbLine
 10
470.0000000000001
 20
39.99999999999997
 30
0.0
 11
576.0000000000001
 21
39.99999999999997
 31
0.0
  0
TEXT
  5
34C
330
1E
100
AcDbEntity
  8
TEXT
100
AcDbText
 10
558.9345616465518
 20
18.59324216966408
 30
0.0
 40
4.0
  1
Name
 41
0.8
  7
GREEKS
 72
     1
 11
565.2583711703613
 21
18.59324216966408
 31
0.0
100
AcDbText
  0
TEXT
  5
352
330
1E
100
AcDbEntity
  8
TEXT
100
AcDbText
 10
665.1296391125315
 20
51.64011943042158
 30
0.0
 40
5.0
  1
EDV-Art.Nr. 17180.100A
 41
0.8
  7
GREEKS
100
AcDbText
  0
TEXT
  5
353
330
1E
100
AcDbEntity
  8
TEXT
 62
     1
100
AcDbText
 10
666.8935731057402
 20
87.41748789253779
 30
0.0
 40
7.0
  1
Ablauftopf DN100
 41
0.8
  7
GREEKS
100
AcDbText
  0
LINE
  5
354
330
1E
100
AcDbEntity
  8
STEMPEL
100
AcDbLine
 10
830.0
 20
110.0
 30
0.0
 11
470.0
 21
110.0
 31
0.0
  0
LINE
  5
355
330
1E
100
AcDbEntity
  8
STEMPEL
100
AcDbLine
 10
830.0
 20
40.0
 30
0.0
 11
576.0000000000001
 21
39.99999999999997
 31
0.0
  0
LINE
  5
356
330
1E
100
AcDbEntity
  8
STEMPEL
100
AcDbLine
 10
830.0
 20
80.0
 30
0.0
 11
576.0000000000001
 21
79.99999999999994
 31
0.0
  0
LINE
  5
357
330
1E
100
AcDbEntity
  8
HILF
100
AcDbLine
 10
664.7736801096947
 20
84.03758247564139
 30
0.0
 11
744.835391655631
 21
84.03758247564139
 31
0.0
  0
LINE
  5
358
330
1E
100
AcDbEntity
  8
HILF
100
AcDbLine
 10
664.7736801096947
 20
69.99999999999994
 30
0.0
 11
744.8353916556309
 21
69.99999999999994
 31
0.0
  0
LINE
  5
359
330
1E
100
AcDbEntity
  8
HILF
100
AcDbLine
 10
664.7736801096947
 20
59.99999999999997
 30
0.0
 11
744.8353916556309
 21
59.99999999999997
 31
0.0
  0
LINE
  5
35A
330
1E
100
AcDbEntity
  8
HILF
100
AcDbLine
 10
664.7736801096947
 20
49.99999999999997
 30
0.0
 11
744.8353916556309
 21
49.99999999999997
 31
0.0
  0
LINE
  5
35B
330
1E
100
AcDbEntity
  8
HILF
100
AcDbLine
 10
663.4909699289885
 20
14.89398258028314
 30
0.0
 11
824.8588839326728
 21
14.89398258028314
 31
0.0
  0
LINE
  5
35C
330
1E
100
AcDbEntity
  8
STEMPEL
100
AcDbLine
 10
479.9999999999998
 20
10.0
 30
0.0
 11
830.0
 21
10.0
 31
0.0
  0
TEXT
  5
35D
330
1E
100
AcDbEntity
  8
TEXT
100
AcDbText
 10
664.9837501577827
 20
42.62974153022632
 30
0.0
 40
4.0
  1
17180100A.DWG
 41
0.8
  7
GREEKS
100
AcDbText
  0
TEXT
  5
35E
330
1E
100
AcDbEntity
  8
TEXT
100
AcDbText
 10
664.742238391136
 20
30.84560570193057
 30
0.0
 40
5.0
  1
Bauvorhaben
 41
0.8
  7
GREEKS
100
AcDbText
  0
TEXT
  5
35F
330
1E
100
AcDbEntity
  8
TEXT
100
AcDbText
 10
665.1296391125315
 20
71.50334417585288
 30
0.0
 40
5.0
  1
für Flachdach seitlich
 41
0.8
  7
GREEKS
100
AcDbText
  0
TEXT
  5
360
330
1E
100
AcDbEntity
  8
TEXT
100
AcDbText
 10
664.877940380901
 20
102.5489328011779
 30
0.0
 40
5.0
  1
Benennung
 41
0.8
  7
GREEKS
100
AcDbText
  0
LINE
  5
364
330
1E
100
AcDbEntity
  8
STEMPEL
100
AcDbLine
 10
830.0
 20
110.0
 30
0.0
 11
830.0
 21
584.0
 31
0.0
  0
LINE
  5
365
330
1E
100
AcDbEntity
  8
HILF
100
AcDbLine
 10
840.0
 20
-0.0000000000001137
 30
0.0
 11
839.9999999999998
 21
594.0
 31
0.0
  0
LINE
  5
383
330
1E
100
AcDbEntity
  8
HILF
100
AcDbLine
 10
31.08767135713851
 20
296.9999999999999
 30
0.0
 11
0.0000000000000568
 21
296.9999999999999
 31
0.0
  0
LINE
  5
386
330
1E
100
AcDbEntity
  8
HILF
100
AcDbLine
 10
0.0
 20
0.0
 30
0.0
 11
-0.0000000000001705
 21
593.9999999999997
 31
0.0
  0
LINE
  5
387
330
1E
100
AcDbEntity
  8
STEMPEL
100
AcDbLine
 10
40.0
 20
10.0
 30
0.0
 11
39.99999999999989
 21
584.0
 31
0.0
  0
LINE
  5
388
330
1E
100
AcDbEntity
  8
STEMPEL
100
AcDbLine
 10
830.0
 20
10.0
 30
0.0
 11
40.0
 21
10.0
 31
0.0
  0
LINE
  5
389
330
1E
100
AcDbEntity
  8
STEMPEL
100
AcDbLine
 10
830.0
 20
584.0
 30
0.0
 11
39.99999999999989
 21
584.0
 31
0.0
  0
LINE
  5
38A
330
1E
100
AcDbEntity
  8
HILF
100
AcDbLine
 10
839.9999999999998
 20
594.0000000000002
 30
0.0
 11
-0.0000000000001705
 21
593.9999999999997
 31
0.0
  0
LINE
  5
38B
330
1E
100
AcDbEntity
  8
HILF
100
AcDbLine
 10
840.0
 20
0.0
 30
0.0
 11
0.0
 21
0.0
 31
0.0
  0
TEXT
  5
579
330
1E
100
AcDbEntity
  8
TEXT
 62
     1
100
AcDbText
 10
555.0449711938926
 20
331.7774545955022
 30
0.0
 40
7.0
  1
DN100
 50
357.0
 41
0.8
  7
GREEKS
100
AcDbText
  0
TEXT
  5
57E
330
1E
100
AcDbEntity
  8
TEXT
100
AcDbText
 10
622.4806113483383
 20
90.66028308186544
 30
0.0
 40
4.0
  1
DIN EN1123-2
 41
0.8
  7
GREEKS
100
AcDbText
  0
TEXT
  5
621
330
1E
100
AcDbEntity
  8
TEXT
 62
     1
100
AcDbText
 10
554.187104815526
 20
154.8022840254059
 30
0.0
 40
7.0
  1
Werkstoff: AlMn W F10 nach DIN 1746/1795
 41
0.8
  7
GREEKS
100
AcDbText
  0
TEXT
  5
622
330
1E
100
AcDbEntity
  8
TEXT
 62
     1
100
AcDbText
 10
602.0853264799807
 20
144.0347363300967
 30
0.0
 40
7.0
  1
AL99.5 W F7 nach DIN 1745
 41
0.8
  7
GREEKS
100
AcDbText
  0
TEXT
  5
627
330
1E
100
AcDbEntity
  8
TEXT
 62
     1
100
AcDbText
 10
537.4440298454025
 20
131.4201606387103
 30
0.0
 40
7.0
  1
Beschichtung: Tauchgrund-Gewitex-CW01F Lichtgrau RAL7035
 41
0.8
  7
GREEKS
100
AcDbText
  0
HATCH
  5
73B
330
1E
100
AcDbEntity
  8
SCHRAFF
100
AcDbHatch
 10
0.0
 20
0.0
 30
0.0
210
0.0
220
0.0
230
1.0
  2
_USER
 70
     0
 71
     0
 91
        2
 92
        7
 72
     1
 73
     1
 93
       16
 10
443.1029977903015
 20
432.9865100219719
 42
0.4716306187712175
 10
435.2499803227201
 20
423.4600380589596
 42
0.0
 10
436.3513597845342
 20
417.7939319255768
 42
0.0
 10
436.3513597845341
 20
414.5224084068342
 42
0.0
 10
429.1137554775002
 20
401.9865100219718
 42
-0.2679491924311265
 10
423.9176030547935
 20
398.986510021972
 42
0.0
 10
422.3513597845341
 20
398.986510021972
 42
0.0
 10
422.3513597845342
 20
396.986510021972
 42
0.0
 10
423.9176030547935
 20
396.986510021972
 42
0.2679491924311237
 10
430.845806285069
 20
400.9865100219719
 42
0.0
 10
438.3513597845341
 20
413.9865100219717
 42
0.0
 10
438.3513597845342
 20
417.9865100219712
 42
0.0
 10
437.2132346896155
 20
423.8416560497126
 42
-0.4716306187712213
 10
443.1029977903015
 20
430.9865100219719
 42
0.0
 10
529.8513597845341
 20
430.9865100219719
 42
0.0
 10
529.8513597845341
 20
432.9865100219719
 42
0.0
 97
        0
 92
        7
 72
     1
 73
     1
 93
       17
 10
286.5997217787669
 20
430.9865100219719
 42
-0.4716306187712328
 10
292.4894848794531
 20
423.8416560497126
 42
0.0
 10
291.3513597845342
 20
417.986510021972
 42
0.0
 10
291.3513597845342
 20
413.9865100219719
 42
0.0
 10
298.8569132839996
 20
400.9865100219719
 42
0.2701822080978109
 10
305.8517482730081
 20
396.986787513739
 42
0.0
 10
305.8513597845342
 20
396.986510021972
 42
0.0
 10
307.3513597845342
 20
396.986510021972
 42
0.0
 10
307.3513597845342
 20
398.986510021972
 42
0.0
 10
305.785116514275
 20
398.9865100219719
 42
-0.267949192431128
 10
300.5889640915682
 20
401.9865100219718
 42
0.0
 10
293.3513597845342
 20
414.5224084068343
 42
0.0
 10
293.3513597845342
 20
417.7939319255767
 42
0.0
 10
294.4527392463485
 20
423.4600380589596
 42
0.4716306187712175
 10
286.5997217787672
 20
432.9865100219719
 42
0.0
 10
199.8513597845343
 20
432.9865100219719
 42
0.0
 10
199.8513597845343
 20
430.9865100219719
 42
0.0
 97
        0
 75
     0
 76
     0
 52
45.0
 41
2.0
 77
     0
 78
     1
 53
45.0
 43
0.0
 44
0.0
 45
-1.414213562373094
 46
1.414213562373095
 79
     0
 47
0.4301390180316077
 98
        2
 10
465.8804440002854
 20
432.2329658233727
 10
258.44098132529
 20
431.8028263085464
  0
HATCH
  5
73C
330
1E
100
AcDbEntity
  8
SCHRAFF
100
AcDbHatch
 10
0.0
 20
0.0
 30
0.0
210
0.0
220
0.0
230
1.0
  2
_USER
 70
     0
 71
     0
 91
        3
 92
        7
 72
     0
 73
     1
 93
        6
 10
415.8513597845342
 20
377.6421381794663
 10
413.8513597845344
 20
375.7442090460367
 10
591.1906525521181
 20
366.4502505324624
 10
606.1014135304467
 20
364.3546797385203
 10
606.2064852726336
 20
366.359568013207
 10
591.3825266788112
 20
368.4429395275764
 97
        0
 92
        7
 72
     0
 73
     1
 93
        6
 10
364.8513597845342
 20
280.1777003231094
 10
364.8513597845342
 20
278.1749556311135
 10
586.0442591420313
 20
266.5827269826098
 10
601.0047821624327
 20
267.1051599584812
 10
601.1098539046197
 20
269.1100482331679
 10
586.0617288403103
 20
268.5845561265141
 97
        0
 92
        7
 72
     0
 73
     1
 93
        4
 10
364.8513597845342
 20
280.1777003231094
 10
315.8513597845344
 20
282.7456815079784
 10
313.8513597845343
 20
280.8477523745486
 10
364.8513597845342
 20
278.1749556311135
 97
        0
 75
     1
 76
     0
 52
45.0
 41
2.0
 77
     0
 78
     1
 53
45.0
 43
0.0
 44
0.0
 45
-1.414213562373094
 46
1.414213562373095
 79
     0
 47
0.324238351223264
 98
        3
 10
437.7018204128034
 20
375.8019958664213
 10
413.6970687636948
 20
276.585059714713
 10
354.9827488726119
 20
279.1789675452744
1001
GradientColor1ACI
1070
     5
1001
GradientColor2ACI
1070
     2
1001
ACAD
1010
0.0
1020
0.0
1030
0.0
  0
LINE
  5
73D
330
1E
100
AcDbEntity
  8
STEMPEL
100
AcDbLine
 10
591.1906525521181
 20
366.4502505324624
 30
0.0
 11
606.1014135304467
 21
364.3546797385203
 31
0.0
  0
LINE
  5
73E
330
1E
100
AcDbEntity
  8
STEMPEL
100
AcDbLine
 10
591.3825266788112
 20
368.4429395275764
 30
0.0
 11
606.2064852726336
 21
366.359568013207
 31
0.0
  0
LINE
  5
73F
330
1E
100
AcDbEntity
  8
STEMPEL
100
AcDbLine
 10
529.8513597845341
 20
432.9865100219719
 30
0.0
 11
529.8513597845341
 21
430.9865100219719
 31
0.0
  0
POINT
  5
740
330
1E
100
AcDbEntity
  8
DEFPOINTS
  6
ByBlock
 62
     0
100
AcDbPoint
 10
529.8513597845344
 20
432.9865100219719
 30
0.0
  0
LINE
  5
741
330
1E
100
AcDbEntity
  8
STEMPEL
100
AcDbLine
 10
438.3513597845342
 20
417.9865100219719
 30
0.0
 11
438.3513597845342
 21
413.9865100219719
 31
0.0
  0
LINE
  5
742
330
1E
100
AcDbEntity
  8
STEMPEL
100
AcDbLine
 10
438.3513597845342
 20
417.9865100219719
 30
0.0
 11
437.2132346896155
 21
423.8416560497126
 31
0.0
  0
LINE
  5
743
330
1E
100
AcDbEntity
  8
STEMPEL
100
AcDbLine
 10
436.3513597845342
 20
417.7939319255767
 30
0.0
 11
435.2499803227201
 21
423.4600380589596
 31
0.0
  0
LINE
  5
744
330
1E
100
AcDbEntity
  8
STEMPEL
100
AcDbLine
 10
436.3513597845342
 20
417.7939319255767
 30
0.0
 11
436.3513597845342
 21
414.5224084068342
 31
0.0
  0
ARC
  5
745
330
1E
100
AcDbEntity
  8
STEMPEL
100
AcDbCircle
 10
443.1029977903015
 20
424.986510021972
 30
0.0
 40
8.0
100
AcDbArc
 50
90.0
 51
190.9999999999993
  0
ARC
  5
746
330
1E
100
AcDbEntity
  8
STEMPEL
100
AcDbCircle
 10
443.1029977903015
 20
424.986510021972
 30
0.0
 40
6.0
100
AcDbArc
 50
90.0
 51
190.9999999999993
  0
LINE
  5
747
330
1E
100
AcDbEntity
  8
STEMPEL
100
AcDbLine
 10
422.3513597845342
 20
398.9865100219719
 30
0.0
 11
422.3513597845342
 21
396.9865100219719
 31
0.0
  0
ARC
  5
748
102
{ACAD_REACTORS
330
77D
102
}
330
1E
100
AcDbEntity
  8
STEMPEL
100
AcDbCircle
 10
423.9176030547935
 20
404.9865100219719
 30
0.0
 40
8.0
100
AcDbArc
 50
270.0
 51
329.9999999999995
  0
ARC
  5
749
102
{ACAD_REACTORS
330
77D
102
}
330
1E
100
AcDbEntity
  8
SCHRAFF
100
AcDbCircle
 10
423.8513597845342
 20
396.9865100219719
 30
0.0
 40
4.0
100
AcDbArc
 50
251.9771488048857
 51
14.0066406337022
  0
ARC
  5
74A
330
1E
100
AcDbEntity
  8
STEMPEL
100
AcDbCircle
 10
423.9176030547935
 20
404.9865100219719
 30
0.0
 40
6.0
100
AcDbArc
 50
270.0
 51
329.9999999999995
  0
LINE
  5
74B
330
1E
100
AcDbEntity
  8
STEMPEL
100
AcDbLine
 10
436.3513597845342
 20
414.5224084068342
 30
0.0
 11
429.1137554775002
 21
401.9865100219718
 31
0.0
  0
LINE
  5
74C
330
1E
100
AcDbEntity
  8
STEMPEL
100
AcDbLine
 10
438.3513597845342
 20
413.9865100219719
 30
0.0
 11
430.845806285069
 21
400.9865100219719
 31
0.0
  0
LINE
  5
74D
330
1E
100
AcDbEntity
  8
STEMPEL
100
AcDbLine
 10
529.8513597845341
 20
430.9865100219719
 30
0.0
 11
443.1029977903015
 21
430.9865100219719
 31
0.0
  0
LINE
  5
74E
330
1E
100
AcDbEntity
  8
STEMPEL
100
AcDbLine
 10
586.0442591420312
 20
266.5827269826098
 30
0.0
 11
601.0047821624327
 21
267.1051599584812
 31
0.0
  0
LINE
  5
74F
330
1E
100
AcDbEntity
  8
STEMPEL
100
AcDbLine
 10
586.0617288403102
 20
268.5845561265141
 30
0.0
 11
601.1098539046194
 21
269.1100482331679
 31
0.0
  0
LINE
  5
750
330
1E
100
AcDbEntity
  8
STEMPEL
100
AcDbLine
 10
601.0047821624327
 20
267.1051599584812
 30
0.0
 11
606.2064852726336
 21
366.359568013207
 31
0.0
  0
LINE
  5
751
330
1E
100
AcDbEntity
  8
HILF
100
AcDbLine
 10
586.1668005824972
 20
270.5894444012008
 30
0.0
 11
591.0855808099317
 21
364.4453622577757
 31
0.0
  0
LINE
  5
752
330
1E
100
AcDbEntity
  8
STEMPEL
100
AcDbLine
 10
291.3513597845342
 20
417.9865100219719
 30
0.0
 11
292.4894848794531
 21
423.8416560497126
 31
0.0
  0
LINE
  5
753
330
1E
100
AcDbEntity
  8
STEMPEL
100
AcDbLine
 10
291.3513597845342
 20
417.9865100219719
 30
0.0
 11
291.3513597845342
 21
413.9865100219719
 31
0.0
  0
LINE
  5
754
330
1E
100
AcDbEntity
  8
STEMPEL
100
AcDbLine
 10
293.3513597845342
 20
417.7939319255767
 30
0.0
 11
293.3513597845342
 21
414.5224084068342
 31
0.0
  0
LINE
  5
755
330
1E
100
AcDbEntity
  8
STEMPEL
100
AcDbLine
 10
293.3513597845342
 20
417.7939319255767
 30
0.0
 11
294.4527392463485
 21
423.4600380589596
 31
0.0
  0
LINE
  5
756
330
1E
100
AcDbEntity
  8
STEMPEL
100
AcDbLine
 10
307.3513597845342
 20
398.9865100219719
 30
0.0
 11
307.3513597845342
 21
396.9865100219719
 31
0.0
  0
ARC
  5
757
102
{ACAD_REACTORS
330
77D
102
}
330
1E
100
AcDbEntity
  8
STEMPEL
100
AcDbCircle
 10
305.785116514275
 20
404.9865100219719
 30
0.0
 40
8.0
100
AcDbArc
 50
210.0000000000005
 51
270.0
  0
ARC
  5
758
330
1E
100
AcDbEntity
  8
STEMPEL
100
AcDbCircle
 10
305.785116514275
 20
404.9865100219719
 30
0.0
 40
6.0
100
AcDbArc
 50
210.0000000000005
 51
270.0
  0
ARC
  5
759
102
{ACAD_REACTORS
330
77D
102
}
330
1E
100
AcDbEntity
  8
SCHRAFF
100
AcDbCircle
 10
305.8513597845342
 20
396.9865100219719
 30
0.0
 40
4.0
100
AcDbArc
 50
165.9933593663009
 51
288.0228511951184
  0
LINE
  5
75A
330
1E
100
AcDbEntity
  8
STEMPEL
100
AcDbLine
 10
291.3513597845342
 20
413.9865100219719
 30
0.0
 11
298.8569132839996
 21
400.9865100219719
 31
0.0
  0
LINE
  5
75B
330
1E
100
AcDbEntity
  8
STEMPEL
100
AcDbLine
 10
293.3513597845342
 20
414.5224084068342
 30
0.0
 11
300.5889640915682
 21
401.9865100219718
 31
0.0
  0
LINE
  5
75C
330
1E
100
AcDbEntity
  8
MITTEL
100
AcDbLine
 10
364.8513597845342
 20
437.9865100219718
 30
0.0
 11
364.8513597845343
 21
329.2449452770076
 31
0.0
  0
LINE
  5
75D
330
1E
100
AcDbEntity
  8
STEMPEL
100
AcDbLine
 10
199.8513597845343
 20
432.9865100219719
 30
0.0
 11
199.8513597845343
 21
430.9865100219719
 31
0.0
  0
LINE
  5
75E
330
1E
100
AcDbEntity
  8
STEMPEL
100
AcDbLine
 10
199.8513597845343
 20
430.9865100219719
 30
0.0
 11
286.5997217787669
 21
430.9865100219719
 31
0.0
  0
ARC
  5
75F
330
1E
100
AcDbEntity
  8
STEMPEL
100
AcDbCircle
 10
286.5997217787669
 20
424.986510021972
 30
0.0
 40
6.0
100
AcDbArc
 50
349.0000000000007
 51
90.0
  0
ARC
  5
760
330
1E
100
AcDbEntity
  8
STEMPEL
100
AcDbCircle
 10
286.5997217787669
 20
424.986510021972
 30
0.0
 40
8.0
100
AcDbArc
 50
349.0000000000007
 51
90.0
  0
LINE
  5
761
330
1E
100
AcDbEntity
  8
STEMPEL
100
AcDbLine
 10
315.8513597845342
 20
282.7456815079784
 30
0.0
 11
590.7780751130933
 21
268.3373828920277
 31
0.0
  0
HATCH
  5
762
330
1E
100
AcDbEntity
  8
SCHRAFF
100
AcDbHatch
 10
0.0
 20
0.0
 30
0.0
210
0.0
220
0.0
230
1.0
  2
_USER
 70
     0
 71
     1
 91
        2
 92
        7
 72
     1
 73
     1
 93
        3
 10
415.8513597845342
 20
381.6421381794663
 42
0.0
 10
415.8513597845342
 20
377.6421381794663
 42
0.0
 10
419.8458779235525
 20
377.4327943544946
 42
0.4296339059668358
 97
        3
330
76F
330
765
330
77E
 92
        7
 72
     1
 73
     1
 93
        3
 10
313.8513597845343
 20
286.2097831231163
 42
1.268493952745326
 10
319.2060420563158
 20
280.5671253679183
 42
0.0
 10
313.8513597845343
 20
280.8477523745486
 42
0.0
 97
        3
330
77F
330
763
330
76E
 75
     1
 76
     0
 52
0.0
 41
0.1
 77
     0
 78
     1
 53
0.0
 43
0.0
 44
0.0
 45
0.0
 46
0.1
 79
     0
 47
0.2004681758513254
 98
        2
 10
417.9023026324007
 20
379.5489536522391
 10
312.6077678914016
 20
281.9209513596477
1001
GradientColor1ACI
1070
     5
1001
GradientColor2ACI
1070
     2
1001
ACAD
1010
0.0
1020
0.0
1030
0.0
  0
LINE
  5
763
102
{ACAD_REACTORS
330
762
102
}
330
1E
100
AcDbEntity
  8
STEMPEL
100
AcDbLine
 10
313.8513597845343
 20
280.8477523745486
 30
0.0
 11
586.0442591420312
 21
266.5827269826098
 31
0.0
  0
LINE
  5
764
330
1E
100
AcDbEntity
  8
STEMPEL
100
AcDbLine
 10
199.8513597845343
 20
432.9865100219719
 30
0.0
 11
529.8513597845344
 21
432.9865100219719
 31
0.0
  0
LINE
  5
765
102
{ACAD_REACTORS
330
762
102
}
330
1E
100
AcDbEntity
  8
STEMPEL
100
AcDbLine
 10
415.8513597845342
 20
377.6421381794663
 30
0.0
 11
591.3825266788112
 21
368.4429395275764
 31
0.0
  0
LINE
  5
766
330
1E
100
AcDbEntity
  8
STEMPEL
100
AcDbLine
 10
413.8513597845341
 20
375.7442090460367
 30
0.0
 11
591.1906525521181
 21
366.4502505324624
 31
0.0
  0
LINE
  5
767
330
1E
100
AcDbEntity
  8
MITTEL
100
AcDbLine
 10
364.8513597845343
 20
329.2449452770076
 30
0.0
 11
608.5987813913058
 21
316.4706842046294
 31
0.0
  0
LINE
  5
768
330
1E
100
AcDbEntity
  8
HILF
100
AcDbLine
 10
296.5997217787669
 20
424.986510021972
 30
0.0
 11
433.1029977903001
 21
424.986510021972
 31
0.0
  0
LINE
  5
769
330
1E
100
AcDbEntity
  8
HILF
100
AcDbLine
 10
295.3887931744447
 20
417.7939319255767
 30
0.0
 11
434.3139263946238
 21
417.7939319255767
 31
0.0
  0
LINE
  5
76A
330
1E
100
AcDbEntity
  8
HILF
100
AcDbLine
 10
295.6607608612928
 20
414.5224084068341
 30
0.0
 11
434.0419587077756
 21
414.5224084068341
 31
0.0
  0
LINE
  5
76B
330
1E
100
AcDbEntity
  8
STEMPEL
100
AcDbLine
 10
305.785116514275
 20
396.9865100219719
 30
0.0
 11
423.9176030547935
 21
396.986510021972
 31
0.0
  0
LINE
  5
76C
330
1E
100
AcDbEntity
  8
STEMPEL
100
AcDbLine
 10
305.785116514275
 20
398.9865100219719
 30
0.0
 11
423.9176030547935
 21
398.986510021972
 31
0.0
  0
HATCH
  5
76D
330
1E
100
AcDbEntity
  8
SCHRAFF
100
AcDbHatch
 10
0.0
 20
0.0
 30
0.0
210
0.0
220
0.0
230
1.0
  2
_USER
 70
     0
 71
     1
 91
        2
 92
        7
 72
     1
 73
     1
 93
        8
 10
315.8513597845344
 20
384.986510021972
 42
0.2159700026434403
 10
313.4669674723373
 20
390.2492246895456
 42
0.0
 10
305.785116514275
 20
396.9865100219719
 42
0.0
 10
304.4663714606171
 20
395.482877259808
 42
0.0
 10
312.1482224186793
 20
388.7455919273817
 42
-0.2159700026434398
 10
313.8513597845344
 20
384.986510021972
 42
0.0
 10
313.8513597845343
 20
280.8477523745486
 42
0.0
 10
315.8513597845342
 20
282.7456815079782
 42
0.0
 97
        8
330
779
330
778
330
77B
330
777
330
77A
330
76E
330
780
330
770
 92
        7
 72
     1
 73
     1
 93
        8
 10
415.8513597845342
 20
384.986510021972
 42
-0.2159700026434399
 10
417.5544971503892
 20
388.7455919273817
 42
0.0
 10
425.2363481084515
 20
395.482877259808
 42
0.0
 10
423.9176030547935
 20
396.9865100219719
 42
0.0
 10
416.2357520967312
 20
390.2492246895456
 42
0.2159700026434349
 10
413.8513597845342
 20
384.9865100219721
 42
0.0
 10
413.8513597845341
 20
375.7442090460366
 42
0.0
 10
415.8513597845342
 20
377.6421381794663
 42
0.0
 97
        8
330
772
330
775
330
776
330
774
330
773
330
771
330
780
330
76F
 75
     1
 76
     0
 52
135.0
 41
2.0
 77
     0
 78
     1
 53
135.0
 43
0.0
 44
0.0
 45
-1.414213562373095
 46
-1.414213562373094
 79
     0
 47
0.2016123893600025
 98
        2
 10
314.7111797614753
 20
367.9128039779103
 10
415.3623574895873
 20
384.2434078998619
1001
GradientColor1ACI
1070
     5
1001
GradientColor2ACI
1070
     2
1001
ACAD
1010
0.0
1020
0.0
1030
0.0
  0
LINE
  5
76E
102
{ACAD_REACTORS
330
762
330
76D
102
}
330
1E
100
AcDbEntity
  8
STEMPEL
100
AcDbLine
 10
313.8513597845344
 20
384.986510021972
 30
0.0
 11
313.8513597845343
 21
280.8477523745486
 31
0.0
  0
LINE
  5
76F
102
{ACAD_REACTORS
330
762
330
76D
102
}
330
1E
100
AcDbEntity
  8
STEMPEL
100
AcDbLine
 10
415.8513597845342
 20
384.9865100219721
 30
0.0
 11
415.8513597845342
 21
377.6421381794663
 31
0.0
  0
LINE
  5
770
102
{ACAD_REACTORS
330
76D
102
}
330
1E
100
AcDbEntity
  8
STEMPEL
100
AcDbLine
 10
315.8513597845343
 20
384.986510021972
 30
0.0
 11
315.8513597845342
 21
282.7456815079784
 31
0.0
  0
LINE
  5
771
102
{ACAD_REACTORS
330
76D
102
}
330
1E
100
AcDbEntity
  8
STEMPEL
100
AcDbLine
 10
413.8513597845343
 20
384.986510021972
 30
0.0
 11
413.8513597845341
 21
375.7442090460367
 31
0.0
  0
ARC
  5
772
102
{ACAD_REACTORS
330
76D
102
}
330
1E
100
AcDbEntity
  8
STEMPEL
100
AcDbCircle
 10
420.8513597845342
 20
384.986510021972
 30
0.0
 40
5.0
100
AcDbArc
 50
131.2520356639262
 51
180.0
  0
ARC
  5
773
102
{ACAD_REACTORS
330
76D
102
}
330
1E
100
AcDbEntity
  8
STEMPEL
100
AcDbCircle
 10
420.8513597845342
 20
384.986510021972
 30
0.0
 40
7.0
100
AcDbArc
 50
131.2520356639262
 51
180.0
  0
LINE
  5
774
102
{ACAD_REACTORS
330
76D
102
}
330
1E
100
AcDbEntity
  8
STEMPEL
100
AcDbLine
 10
423.9176030547935
 20
396.9865100219719
 30
0.0
 11
416.2357520967312
 21
390.2492246895456
 31
0.0
  0
LINE
  5
775
102
{ACAD_REACTORS
330
77D
330
76D
102
}
330
1E
100
AcDbEntity
  8
STEMPEL
100
AcDbLine
 10
425.2363481084515
 20
395.482877259808
 30
0.0
 11
417.5544971503892
 21
388.7455919273817
 31
0.0
  0
LINE
  5
776
102
{ACAD_REACTORS
330
77D
330
76D
102
}
330
1E
100
AcDbEntity
  8
STEMPEL
100
AcDbLine
 10
423.9176030547935
 20
396.9865100219719
 30
0.0
 11
425.2363481084515
 21
395.482877259808
 31
0.0
  0
LINE
  5
777
102
{ACAD_REACTORS
330
77D
330
76D
102
}
330
1E
100
AcDbEntity
  8
STEMPEL
100
AcDbLine
 10
304.4663714606171
 20
395.482877259808
 30
0.0
 11
312.1482224186792
 21
388.7455919273817
 31
0.0
  0
LINE
  5
778
102
{ACAD_REACTORS
330
76D
102
}
330
1E
100
AcDbEntity
  8
STEMPEL
100
AcDbLine
 10
305.785116514275
 20
396.9865100219719
 30
0.0
 11
313.4669674723373
 21
390.2492246895456
 31
0.0
  0
ARC
  5
779
102
{ACAD_REACTORS
330
76D
102
}
330
1E
100
AcDbEntity
  8
STEMPEL
100
AcDbCircle
 10
308.8513597845343
 20
384.986510021972
 30
0.0
 40
7.0
100
AcDbArc
 50
0.0
 51
48.74796433607378
  0
ARC
  5
77A
102
{ACAD_REACTORS
330
76D
102
}
330
1E
100
AcDbEntity
  8
STEMPEL
100
AcDbCircle
 10
308.8513597845343
 20
384.986510021972
 30
0.0
 40
5.0
100
AcDbArc
 50
0.0
 51
48.74796433607378
  0
LINE
  5
77B
102
{ACAD_REACTORS
330
77D
330
76D
102
}
330
1E
100
AcDbEntity
  8
STEMPEL
100
AcDbLine
 10
305.785116514275
 20
396.9865100219719
 30
0.0
 11
304.4663714606171
 21
395.482877259808
 31
0.0
  0
LINE
  5
77C
330
1E
100
AcDbEntity
  8
HILF
100
AcDbLine
 10
412.3275914331939
 20
387.875345962743
 30
0.0
 11
317.3751281358746
 21
387.875345962743
 31
0.0
  0
HATCH
  5
77D
330
1E
100
AcDbEntity
  8
SCHRAFF
100
AcDbHatch
 10
0.0
 20
0.0
 30
0.0
210
0.0
220
0.0
230
1.0
  2
_USER
 70
     0
 71
     1
 91
        2
 92
        7
 72
     1
 73
     1
 93
        4
 10
427.7324305076869
 20
397.9546474305491
 42
-0.1249115044796325
 10
423.9176030547935
 20
396.9865100219719
 42
0.0
 10
425.2363481084514
 20
395.482877259808
 42
0.0
 10
422.6137746712535
 20
393.1827772385885
 42
0.5892183613835658
 97
        4
330
748
330
776
330
775
330
749
 92
        7
 72
     1
 73
     1
 93
        4
 10
304.4663714606171
 20
395.482877259808
 42
0.0
 10
305.785116514275
 20
396.9865100219719
 42
-0.1249115044796365
 10
301.9702890613815
 20
397.9546474305492
 42
0.5892183613835896
 10
307.088944897815
 20
393.1827772385884
 42
0.0
 97
        4
330
77B
330
757
330
759
330
777
 75
     0
 76
     0
 52
0.0
 41
0.1
 77
     0
 78
     1
 53
0.0
 43
0.0
 44
0.0
 45
0.0
 46
0.1
 79
     0
 47
0.1832780298637171
 98
        2
 10
426.5060109137553
 20
396.5488219046977
 10
302.5619246448621
 20
394.8993206716907
  0
ARC
  5
77E
102
{ACAD_REACTORS
330
762
102
}
330
1E
100
AcDbEntity
  8
SCHRAFF
100
AcDbCircle
 10
415.8513597845342
 20
377.6421381794663
 30
0.0
 40
4.0
100
AcDbArc
 50
357.0000000000009
 51
90.0
  0
ARC
  5
77F
102
{ACAD_REACTORS
330
762
102
}
330
1E
100
AcDbEntity
  8
SCHRAFF
100
AcDbCircle
 10
315.8513597845342
 20
282.7456815079784
 30
0.0
 40
4.0
100
AcDbArc
 50
119.9999999999961
 51
326.9999999999989
  0
LINE
  5
780
102
{ACAD_REACTORS
330
76D
102
}
330
1E
100
AcDbEntity
  8
STEMPEL
100
AcDbLine
 10
415.8513597845342
 20
377.6421381794663
 30
0.0
 11
313.8513597845343
 21
280.8477523745486
 31
0.0
  0
DIMENSION
  5
826
330
1E
100
AcDbEntity
  8
BEM
100
AcDbDimension
  2
*D2
 10
529.8513597845344
 20
463.6050090072701
 30
0.0
 11
364.8513597845344
 21
470.1050090072701
 31
0.0
 70
    32
  1
%%C<>
 71
     5
 42
330.0000000000001
  3
Standard
100
AcDbAlignedDimension
 13
199.8513597845343
 23
432.9865100219719
 33
0.0
 14
529.8513597845344
 24
432.9865100219719
 34
0.0
100
AcDbRotatedDimension
1001
ACAD
1000
DSTYLE
1002
{
1070
    40
1040
2.0
1070
    41
1040
3.5
1070
    42
1040
1.0
1070
    43
1040
7.0
1070
    44
1040
1.0
1070
    73
1070
     0
1070
    74
1070
     0
1070
    77
1070
     1
1070
    78
1070
     8
1070
    79
1070
     2
1070
   140
1040
3.5
1070
   141
1040
1.5
1070
   146
1040
0.5142857142857144
1070
   147
1040
1.5
1070
   172
1070
     1
1070
   178
1070
     1
1070
   179
1070
     2
1070
   271
1070
     2
1070
   272
1070
     2
1070
   284
1070
     8
1070
   285
1070
     8
1070
   286
1070
     8
1002
}
  0
DIMENSION
  5
869
330
1E
100
AcDbEntity
  8
BEM
100
AcDbDimension
  2
*D3
 10
625.3083893001996
 20
366.6649604073279
 30
0.0
 11
616.1481635559049
 21
316.0750378504238
 31
0.0
 70
    33
  1
%%C<>
 71
     5
 42
102.0000000000001
  3
Standard
100
AcDbAlignedDimension
 13
586.0442591420312
 23
266.5827269826098
 33
0.0
 14
591.3825266788112
 24
368.4429395275764
 34
0.0
1001
ACAD
1000
DSTYLE
1002
{
1070
    40
1040
2.0
1070
    41
1040
3.5
1070
    42
1040
1.0
1070
    43
1040
7.0
1070
    44
1040
1.0
1070
    73
1070
     0
1070
    74
1070
     0
1070
    77
1070
     1
1070
    78
1070
     8
1070
    79
1070
     2
1070
   140
1040
3.5
1070
   141
1040
1.5
1070
   146
1040
0.5142857142857144
1070
   147
1040
1.5
1070
   172
1070
     1
1070
   178
1070
     1
1070
   179
1070
     2
1070
   271
1070
     2
1070
   272
1070
     2
1070
   284
1070
     8
1070
   285
1070
     8
1070
   286
1070
     8
1002
}
  0
DIMENSION
  5
88D
330
1E
100
AcDbEntity
  8
BEM
100
AcDbDimension
  2
*D4
 10
347.4699366451887
 20
329.2449452770074
 30
0.0
 11
456.6881575368895
 21
305.1952047945723
 31
0.0
 70
    34
 71
     5
 42
0.0523598775598275
  3
Standard
100
AcDb2LineAngularDimension
 13
364.8513597845343
 23
329.2449452770076
 33
0.0
 14
608.5987813913058
 24
316.4706842046294
 34
0.0
 15
362.8513597845341
 25
329.2449452770074
 35
0.0
 16
466.0668630633254
 26
327.4782220955336
 36
0.0
1001
ACAD
1000
DSTYLE
1002
{
1070
    40
1040
2.0
1070
    41
1040
3.5
1070
    42
1040
1.0
1070
    43
1040
7.0
1070
    44
1040
1.0
1070
    73
1070
     0
1070
    74
1070
     0
1070
    77
1070
     1
1070
    78
1070
     8
1070
    79
1070
     2
1070
   140
1040
3.5
1070
   141
1040
1.5
1070
   146
1040
0.5142857142857144
1070
   147
1040
1.5
1070
   172
1070
     1
1070
   178
1070
     1
1070
   179
1070
     2
1070
   271
1070
     2
1070
   272
1070
     2
1070
   284
1070
     8
1070
   285
1070
     8
1070
   286
1070
     8
1002
}
  0
LINE
  5
89F
330
1E
100
AcDbEntity
  8
BEM
100
AcDbLine
 10
603.6056337175332
 20
316.7323639858441
 30
0.0
 11
611.7851220384659
 21
316.7323639858441
 31
0.0
  0
DIMENSION
  5
8CA
330
1E
100
AcDbEntity
  8
BEM
100
AcDbDimension
  2
*D5
 10
643.4838358291549
 20
316.732363985844
 30
0.0
 11
636.9838358291548
 21
374.859437003908
 31
0.0
 70
    32
  1
116
 71
     5
 42
116.2541460361278
  3
Standard
100
AcDbAlignedDimension
 13
529.8513597845344
 23
432.9865100219719
 33
0.0
 14
622.6915328079135
 24
316.7323639858441
 34
0.0
 50
90.0
100
AcDbRotatedDimension
1001
ACAD
1000
DSTYLE
1002
{
1070
    40
1040
2.0
1070
    41
1040
3.5
1070
    42
1040
1.0
1070
    43
1040
7.0
1070
    44
1040
1.0
1070
    73
1070
     0
1070
    74
1070
     0
1070
    77
1070
     1
1070
    78
1070
     8
1070
    79
1070
     2
1070
   140
1040
3.5
1070
   141
1040
1.5
1070
   146
1040
0.5142857142857144
1070
   147
1040
1.5
1070
   172
1070
     1
1070
   178
1070
     1
1070
   179
1070
     2
1070
   271
1070
     2
1070
   272
1070
     2
1070
   284
1070
     8
1070
   285
1070
     8
1070
   286
1070
     8
1002
}
  0
DIMENSION
  5
8F8
330
1E
100
AcDbEntity
  8
BEM
100
AcDbDimension
  2
*D6
 10
603.6056337175332
 20
190.7786155658893
 30
0.0
 11
484.2284967510338
 21
197.2786155658893
 31
0.0
 70
    32
  1
239
 71
     5
 42
238.7542739329989
  3
Standard
100
AcDbAlignedDimension
 13
364.8513597845344
 23
211.6999717052461
 33
0.0
 14
603.6056337175332
 24
316.7323639858441
 34
0.0
100
AcDbRotatedDimension
1001
ACAD
1000
DSTYLE
1002
{
1070
    40
1040
2.0
1070
    41
1040
3.5
1070
    42
1040
1.0
1070
    43
1040
7.0
1070
    44
1040
1.0
1070
    73
1070
     0
1070
    74
1070
     0
1070
    77
1070
     1
1070
    78
1070
     8
1070
    79
1070
     2
1070
   140
1040
3.5
1070
   141
1040
1.5
1070
   146
1040
0.5142857142857144
1070
   147
1040
1.5
1070
   172
1070
     1
1070
   178
1070
     1
1070
   179
1070
     2
1070
   271
1070
     2
1070
   272
1070
     2
1070
   284
1070
     8
1070
   285
1070
     8
1070
   286
1070
     8
1002
}
  0
LINE
  5
989
330
1E
100
AcDbEntity
  8
STEMPEL
100
AcDbLine
 10
286.3513597845341
 20
407.4362574902785
 30
0.0
 11
295.3513597845341
 21
396.0442369214114
 31
0.0
  0
HATCH
  5
98B
330
1E
100
AcDbEntity
  8
SCHRAFF
100
AcDbHatch
 10
0.0
 20
0.0
 30
0.0
210
0.0
220
0.0
230
1.0
  2
HONEY
 70
     0
 71
     0
 91
        2
 92
        7
 72
     0
 73
     1
 93
       13
 10
295.351359784534
 20
396.0442369214116
 10
286.3513597845341
 20
407.4362574902785
 10
286.3513597845341
 20
419.4362574902788
 10
274.8011072528401
 20
430.9865100219719
 10
254.8513597845343
 20
430.9865100219719
 10
274.2054584722397
 20
229.9865100219717
 10
530.4222117072092
 20
229.9865100219709
 10
531.4585782907674
 20
249.7615624614398
 10
295.351359784534
 20
262.135417456048
 10
295.351359784534
 20
322.8326831491582
 10
285.3513597845339
 20
323.3567609419887
 10
285.351359784534
 20
343.3842078619469
 10
295.3513597845341
 20
342.8601300691164
 97
        0
 92
        7
 72
     1
 73
     1
 93
       10
 10
454.9016123162287
 20
430.9865100219719
 42
0.0
 10
443.3513597845347
 20
419.4362574902786
 42
0.0
 10
443.3513597845347
 20
407.4362574902785
 42
0.0
 10
441.5437838907625
 20
405.1482639612079
 42
0.0
 10
439.9059674966448
 20
403.0751486223392
 42
0.6086651829755413
 10
442.8353104320136
 20
396.6009842544281
 42
0.0
 10
538.8902840772653
 20
391.5669563965893
 42
0.0
 10
540.8513597845342
 20
428.9865100219709
 42
0.0
 10
516.8513597845342
 20
428.9865100219717
 42
0.0
 10
516.8513597845342
 20
430.9865100219719
 42
0.0
 97
        0
 75
     1
 76
     1
 52
0.0
 41
30.0
 77
     0
 78
     3
 53
0.0
 43
-679.3223813978295
 44
15.74332861862308
 45
5.625
 46
3.247595264191644
 79
     2
 49
3.75
 49
-7.5
 53
120.0
 43
-679.3223813978295
 44
15.74332861862308
 45
-5.624999999999998
 46
3.247595264191645
 79
     2
 49
3.749999999999997
 49
-7.499999999999995
 53
60.0
 43
-679.3223813978295
 44
15.74332861862308
 45
0.0000000000000012
 46
6.49519052838329
 79
     2
 49
-7.5
 49
3.75
 47
0.4219096744919601
 98
        2
 10
278.5424926848961
 20
381.7192495451543
 10
483.6855587369243
 20
421.3787590443501
1001
GradientColor1ACI
1070
     5
1001
GradientColor2ACI
1070
     2
1001
ACAD
1010
0.0
1020
0.0
1030
0.0
  0
LINE
  5
98C
330
1E
100
AcDbEntity
  8
VERDECKT
100
AcDbLine
 10
525.6912980218055
 20
330.7885254259075
 30
0.0
 11
313.8513597845344
 21
341.8905861523801
 31
0.0
  0
LINE
  5
98D
330
1E
100
AcDbEntity
  8
VERDECKT
100
AcDbLine
 10
524.6445788969465
 20
310.8159347308161
 30
0.0
 11
313.8513597845344
 21
321.8631392324219
 31
0.0
  0
LINE
  5
98E
102
{ACAD_REACTORS
330
F25
102
}
330
1E
100
AcDbEntity
  8
STEMPEL
100
AcDbLine
 10
531.4585782907674
 20
249.7615624614399
 30
0.0
 11
295.351359784534
 21
262.135417456048
 31
0.0
  0
LINE
  5
98F
102
{ACAD_REACTORS
330
F25
102
}
330
1E
100
AcDbEntity
  8
STEMPEL
100
AcDbLine
 10
538.8902840772653
 20
391.5669563965892
 30
0.0
 11
442.8353104320137
 21
396.6009842544282
 31
0.0
  0
LINE
  5
990
330
1E
100
AcDbEntity
  8
STEMPEL
100
AcDbLine
 10
540.8513597845342
 20
428.9865100219709
 30
0.0
 11
516.8513597845342
 21
428.9865100219717
 31
0.0
  0
LINE
  5
991
330
1E
100
AcDbEntity
  8
STEMPEL
100
AcDbLine
 10
274.2054584722397
 20
229.9865100219717
 30
0.0
 11
530.4222117072092
 21
229.9865100219709
 31
0.0
  0
LINE
  5
992
330
1E
100
AcDbEntity
  8
STEMPEL
100
AcDbLine
 10
295.351359784534
 20
262.135417456048
 30
0.0
 11
315.0062652888626
 21
280.7872263417849
 31
0.0
  0
LINE
  5
993
330
1E
100
AcDbEntity
  8
STEMPEL
100
AcDbLine
 10
295.351359784534
 20
322.8326831491582
 30
0.0
 11
295.351359784534
 21
262.135417456048
 31
0.0
  0
LINE
  5
994
330
1E
100
AcDbEntity
  8
STEMPEL
100
AcDbLine
 10
254.8513597845343
 20
430.9865100219719
 30
0.0
 11
274.2054584722397
 21
229.9865100219717
 31
0.0
  0
LINE
  5
996
330
1E
100
AcDbEntity
  8
STEMPEL
100
AcDbLine
 10
286.3513597845341
 20
407.4362574902785
 30
0.0
 11
295.1331498469675
 21
407.4362574902785
 31
0.0
  0
LINE
  5
997
330
1E
100
AcDbEntity
  8
STEMPEL
100
AcDbLine
 10
295.351359784534
 20
396.0442369214114
 30
0.0
 11
304.9587059559077
 21
396.0442369214114
 31
0.0
  0
LINE
  5
998
330
1E
100
AcDbEntity
  8
STEMPEL
100
AcDbLine
 10
286.3513597845341
 20
419.4362574902788
 30
0.0
 11
291.6331621455953
 21
419.4362574902788
 31
0.0
  0
LINE
  5
999
330
1E
100
AcDbEntity
  8
STEMPEL
100
AcDbLine
 10
295.351359784534
 20
396.0442369214114
 30
0.0
 11
295.3513597845341
 21
342.8601300691164
 31
0.0
  0
LINE
  5
99A
330
1E
100
AcDbEntity
  8
STEMPEL
100
AcDbLine
 10
285.351359784534
 20
343.3842078619469
 30
0.0
 11
285.3513597845339
 21
323.3567609419887
 31
0.0
  0
LINE
  5
99B
330
1E
100
AcDbEntity
  8
STEMPEL
100
AcDbLine
 10
274.8011072528401
 20
430.9865100219719
 30
0.0
 11
286.3513597845341
 21
419.4362574902788
 31
0.0
  0
LINE
  5
99C
330
1E
100
AcDbEntity
  8
STEMPEL
100
AcDbLine
 10
424.0336489767462
 20
396.8541944923861
 30
0.0
 11
435.1110180924926
 21
397.0057972624756
 31
0.0
  0
LINE
  5
99D
330
1E
100
AcDbEntity
  8
STEMPEL
100
AcDbLine
 10
415.8513597845343
 20
378.1140961289606
 30
0.0
 11
435.1110180924926
 21
397.0057972624756
 31
0.0
  0
LINE
  5
99E
330
1E
100
AcDbEntity
  8
STEMPEL
100
AcDbLine
 10
286.3513597845341
 20
419.4362574902788
 30
0.0
 11
286.3513597845341
 21
407.4362574902785
 31
0.0
  0
LINE
  5
99F
330
1E
100
AcDbEntity
  8
STEMPEL
100
AcDbLine
 10
443.3513597845347
 20
407.4362574902785
 30
0.0
 11
441.5437838907625
 21
405.1482639612079
 31
0.0
  0
LINE
  5
9A1
330
1E
100
AcDbEntity
  8
STEMPEL
100
AcDbLine
 10
443.3513597845347
 20
407.4362574902783
 30
0.0
 11
439.9059674966454
 21
403.0751486223397
 31
0.0
  0
LINE
  5
9A2
330
1E
100
AcDbEntity
  8
STEMPEL
100
AcDbLine
 10
443.3513597845347
 20
419.4362574902786
 30
0.0
 11
443.3513597845347
 21
407.4362574902783
 31
0.0
  0
ARC
  5
9A3
330
1E
100
AcDbEntity
  8
STEMPEL
100
AcDbCircle
 10
443.0446542569854
 20
400.5955023934464
 30
0.0
 40
4.0
100
AcDbArc
 50
141.6903237986813
 51
267.0000000000009
  0
LINE
  5
9A4
330
1E
100
AcDbEntity
  8
STEMPEL
100
AcDbLine
 10
442.8353104320137
 20
396.6009842544282
 30
0.0
 11
435.1110180924926
 21
397.0057972624756
 31
0.0
  0
LINE
  5
9A5
330
1E
100
AcDbEntity
  8
STEMPEL
100
AcDbLine
 10
439.9059674966454
 20
403.0751486223396
 30
0.0
 11
435.1110180924926
 21
397.0057972624756
 31
0.0
  0
LINE
  5
9A6
102
{ACAD_REACTORS
330
F25
102
}
330
1E
100
AcDbEntity
  8
STEMPEL
100
AcDbLine
 10
540.8513597845342
 20
428.9865100219709
 30
0.0
 11
538.8902840772653
 21
391.5669563965892
 31
0.0
  0
LINE
  5
9A7
330
1E
100
AcDbEntity
  8
STEMPEL
100
AcDbLine
 10
454.9016123162287
 20
430.9865100219719
 30
0.0
 11
443.3513597845347
 21
419.4362574902786
 31
0.0
  0
LINE
  5
9A8
330
1E
100
AcDbEntity
  8
STEMPEL
100
AcDbLine
 10
516.8513597845342
 20
430.9865100219719
 30
0.0
 11
516.8513597845342
 21
428.9865100219717
 31
0.0
  0
LINE
  5
9A9
330
1E
100
AcDbEntity
  8
VERDECKT
100
AcDbLine
 10
525.6912980218055
 20
330.7885254259075
 30
0.0
 11
524.6445788969465
 21
310.8159347308161
 31
0.0
  0
LINE
  5
9B8
330
1E
100
AcDbEntity
  8
STEMPEL
100
AcDbLine
 10
438.0695574234731
 20
419.4362574902785
 30
0.0
 11
443.3513597845347
 21
419.4362574902786
 31
0.0
  0
LINE
  5
9BA
330
1E
100
AcDbEntity
  8
STEMPEL
100
AcDbLine
 10
434.569569722101
 20
407.4362574902785
 30
0.0
 11
443.3513597845347
 21
407.4362574902785
 31
0.0
  0
TEXT
  5
9FC
330
1E
100
AcDbEntity
  8
TEXT
100
AcDbText
 10
665.1296391125315
 20
61.50334417585291
 30
0.0
 40
5.0
  1
mit Wärmedämmung
 41
0.8
  7
GREEKS
100
AcDbText
  0
DIMENSION
  5
A73
330
1E
100
AcDbEntity
  8
BEM
100
AcDbDimension
  2
*D7
 10
186.4226287284714
 20
229.9865100219717
 30
0.0
 11
179.9226287284714
 21
330.4865100219719
 31
0.0
 70
    32
 71
     5
 42
201.0000000000003
  3
Standard
100
AcDbAlignedDimension
 13
199.8513597845343
 23
430.9865100219719
 33
0.0
 14
274.2054584722397
 24
229.9865100219717
 34
0.0
 50
90.0
100
AcDbRotatedDimension
1001
ACAD
1000
DSTYLE
1002
{
1070
    40
1040
2.0
1070
    41
1040
3.5
1070
    42
1040
1.0
1070
    43
1040
7.0
1070
    44
1040
1.0
1070
    73
1070
     0
1070
    74
1070
     0
1070
    77
1070
     1
1070
    78
1070
     8
1070
    79
1070
     2
1070
   140
1040
3.5
1070
   141
1040
1.5
1070
   146
1040
0.5142857142857144
1070
   147
1040
1.5
1070
   172
1070
     1
1070
   178
1070
     1
1070
   179
1070
     2
1070
   271
1070
     2
1070
   272
1070
     2
1070
   284
1070
     8
1070
   285
1070
     8
1070
   286
1070
     8
1002
}
  0
DIMENSION
  5
A80
330
1E
100
AcDbEntity
  8
BEM
100
AcDbDimension
  2
*D8
 10
186.4226287284714
 20
432.9865100219719
 30
0.0
 11
179.9226287284714
 21
451.8531766886386
 31
0.0
 70
    32
 71
     5
 42
2.0
  3
Standard
100
AcDbAlignedDimension
 13
199.8513597845343
 23
430.9865100219719
 33
0.0
 14
199.8513597845343
 24
432.9865100219719
 34
0.0
 50
90.0
100
AcDbRotatedDimension
1001
ACAD
1000
DSTYLE
1002
{
1070
    40
1040
2.0
1070
    41
1040
3.5
1070
    42
1040
1.0
1070
    43
1040
7.0
1070
    44
1040
1.0
1070
    73
1070
     0
1070
    74
1070
     0
1070
    77
1070
     1
1070
    78
1070
     8
1070
    79
1070
     2
1070
   140
1040
3.5
1070
   141
1040
1.5
1070
   146
1040
0.5142857142857144
1070
   147
1040
1.5
1070
   172
1070
     1
1070
   178
1070
     1
1070
   179
1070
     2
1070
   271
1070
     2
1070
   272
1070
     2
1070
   284
1070
     8
1070
   285
1070
     8
1070
   286
1070
     8
1002
}
  0
DIMENSION
  5
A8F
330
1E
100
AcDbEntity
  8
BEM
100
AcDbDimension
  2
*D9
 10
364.8513597845342
 20
448.6603457315707
 30
0.0
 11
309.8513597845343
 21
455.1603457315707
 31
0.0
 70
    32
 71
     5
 42
109.9999999999999
  3
Standard
100
AcDbAlignedDimension
 13
254.8513597845343
 23
430.9865100219719
 33
0.0
 14
364.8513597845342
 24
437.9865100219718
 34
0.0
100
AcDbRotatedDimension
1001
ACAD
1000
DSTYLE
1002
{
1070
    40
1040
2.0
1070
    41
1040
3.5
1070
    42
1040
1.0
1070
    43
1040
7.0
1070
    44
1040
1.0
1070
    73
1070
     0
1070
    74
1070
     0
1070
    77
1070
     1
1070
    78
1070
     8
1070
    79
1070
     2
1070
   140
1040
3.5
1070
   141
1040
1.5
1070
   146
1040
0.5142857142857144
1070
   147
1040
1.5
1070
   172
1070
     1
1070
   178
1070
     1
1070
   179
1070
     2
1070
   271
1070
     2
1070
   272
1070
     2
1070
   284
1070
     8
1070
   285
1070
     8
1070
   286
1070
     8
1002
}
  0
DIMENSION
  5
B39
330
1E
100
AcDbEntity
  8
BEM
100
AcDbDimension
  2
*D10
 10
530.4222117072092
 20
211.6999717052461
 30
0.0
 11
402.3138350897244
 21
218.1999717052461
 31
0.0
 70
    32
  1
256
 71
     5
 42
256.2167532349696
  3
Standard
100
AcDbAlignedDimension
 13
274.2054584722397
 23
229.9865100219717
 33
0.0
 14
530.4222117072092
 24
229.9865100219709
 34
0.0
100
AcDbRotatedDimension
1001
ACAD
1000
DSTYLE
1002
{
1070
    40
1040
2.0
1070
    41
1040
3.5
1070
    42
1040
1.0
1070
    43
1040
7.0
1070
    44
1040
1.0
1070
    73
1070
     0
1070
    74
1070
     0
1070
    77
1070
     1
1070
    78
1070
     8
1070
    79
1070
     2
1070
   140
1040
3.5
1070
   141
1040
1.5
1070
   146
1040
0.5142857142857144
1070
   147
1040
1.5
1070
   172
1070
     1
1070
   178
1070
     1
1070
   179
1070
     2
1070
   271
1070
     2
1070
   272
1070
     2
1070
   284
1070
     8
1070
   285
1070
     8
1070
   286
1070
     8
1002
}
  0
LINE
  5
B58
330
1E
100
AcDbEntity
  8
BEM
100
AcDbLine
 10
364.8513597845343
 20
327.2449452770075
 30
0.0
 11
364.8513597845343
 21
213.6999717052461
 31
0.0
  0
DIMENSION
  5
B63
330
1E
100
AcDbEntity
  8
BEM
100
AcDbDimension
  2
*D11
 10
530.7365587904715
 20
235.9846096850866
 30
0.0
 11
565.3013741980214
 21
240.6820647172352
 31
0.0
 70
    32
  1
68.5
 71
     5
 42
68.54319945660723
 51
3.000000000000016
  3
Standard
100
AcDbAlignedDimension
 13
601.0047821624326
 23
267.1051599584813
 33
0.0
 14
531.2735236676178
 24
246.2305099024254
 34
0.0
 50
357.0
100
AcDbRotatedDimension
1001
ACAD
1000
DSTYLE
1002
{
1070
    40
1040
2.0
1070
    41
1040
3.5
1070
    42
1040
1.0
1070
    43
1040
7.0
1070
    44
1040
1.0
1070
    73
1070
     0
1070
    74
1070
     0
1070
    77
1070
     1
1070
    78
1070
     8
1070
    79
1070
     2
1070
   140
1040
3.5
1070
   141
1040
1.5
1070
   146
1040
0.5142857142857144
1070
   147
1040
1.5
1070
   172
1070
     1
1070
   178
1070
     1
1070
   179
1070
     2
1070
   271
1070
     2
1070
   272
1070
     2
1070
   284
1070
     8
1070
   285
1070
     8
1070
   286
1070
     8
1002
}
  0
LINE
  5
C78
102
{ACAD_REACTORS
330
F25
102
}
330
1E
100
AcDbEntity
  8
STEMPEL
100
AcDbLine
 10
531.4585782907673
 20
249.7615624614398
 30
0.0
 11
530.4222117072092
 21
229.9865100219709
 31
0.0
  0
LINE
  5
CC5
330
1E
100
AcDbEntity
  8
STEMPEL
100
AcDbLine
 10
313.8513597845344
 20
341.8905861523801
 30
0.0
 11
285.3513597845257
 21
343.3842078619473
 31
0.0
  0
LINE
  5
CC6
330
1E
100
AcDbEntity
  8
STEMPEL
100
AcDbLine
 10
313.8513597845344
 20
321.8631392324219
 30
0.0
 11
285.3513597845257
 21
323.3567609419891
 31
0.0
  0
LINE
  5
EC2
102
{ACAD_REACTORS
330
F25
102
}
330
1E
100
AcDbEntity
  8
STEMPEL
100
AcDbLine
 10
541.0445510155035
 20
394.4581730883671
 30
0.0
 11
540.5031306026489
 21
384.1272561851633
 31
0.0
  0
LINE
  5
EC3
102
{ACAD_REACTORS
330
F25
102
}
330
1E
100
AcDbEntity
  8
STEMPEL
100
AcDbLine
 10
525.908100125456
 20
392.2473238277476
 30
0.0
 11
525.5236875813303
 21
384.9122955288075
 31
0.0
  0
LINE
  5
EC7
102
{ACAD_REACTORS
330
F25
102
}
330
1E
100
AcDbEntity
  8
STEMPEL
100
AcDbLine
 10
531.5154647898577
 20
384.5982797913499
 30
0.0
 11
525.6379799628559
 21
387.0931240830662
 31
0.0
  0
LINE
  5
ECA
102
{ACAD_REACTORS
330
F25
102
}
330
1E
100
AcDbEntity
  8
STEMPEL
100
AcDbLine
 10
541.0445510155035
 20
394.4581730883671
 30
0.0
 11
539.0753387004151
 21
395.0980089556038
 31
0.0
  0
LINE
  5
ECD
102
{ACAD_REACTORS
330
F25
102
}
330
1E
100
AcDbEntity
  8
STEMPEL
100
AcDbLine
 10
524.816462390761
 20
256.7736993427644
 30
0.0
 11
518.7103928007079
 21
254.9068865259635
 31
0.0
  0
LINE
  5
ECE
102
{ACAD_REACTORS
330
F25
102
}
330
1E
100
AcDbEntity
  8
STEMPEL
100
AcDbLine
 10
533.2988294915478
 20
246.6610019446903
 30
0.0
 11
531.2735236676177
 21
246.2305099024253
 31
0.0
  0
LINE
  5
EE3
330
1E
100
AcDbEntity
  8
STEMPEL
100
AcDbLine
 10
535.7228833386971
 20
254.7000595219602
 30
0.0
 11
536.4817547042197
 21
269.1801877759014
 31
0.0
  0
LINE
  5
EE4
330
1E
100
AcDbEntity
  8
STEMPEL
100
AcDbLine
 10
542.5788936065226
 20
385.5205285748093
 30
0.0
 11
540.5816345370135
 21
385.6252004872952
 31
0.0
  0
LINE
  5
EE7
102
{ACAD_REACTORS
330
F25
102
}
330
1E
100
AcDbEntity
  8
STEMPEL
100
AcDbLine
 10
540.5031306026491
 20
384.1272561851633
 30
0.0
 11
524.5250580465759
 21
384.9646314850505
 31
0.0
  0
LINE
  5
EE8
330
1E
100
AcDbEntity
  8
STEMPEL
100
AcDbLine
 10
518.3232472317871
 20
266.6270316166335
 30
0.0
 11
518.5064230786373
 21
270.1222349882744
 31
0.0
  0
LINE
  5
EE9
330
1E
100
AcDbEntity
  8
STEMPEL
100
AcDbLine
 10
533.8309859629633
 20
371.4590879708115
 30
0.0
 11
523.8446906154177
 21
371.982447533241
 31
0.0
  0
LINE
  5
EEA
330
1E
100
AcDbEntity
  8
STEMPEL
100
AcDbLine
 10
528.2310386449684
 20
264.6057277520722
 30
0.0
 11
528.4927184261831
 21
269.5988754258449
 31
0.0
  0
LINE
  5
EEB
330
1E
100
AcDbEntity
  8
STEMPEL
100
AcDbLine
 10
534.0926657441781
 20
376.4522356445845
 30
0.0
 11
542.323431449616
 21
380.6460202403311
 31
0.0
  0
LINE
  5
EEC
330
1E
100
AcDbEntity
  8
STEMPEL
100
AcDbLine
 10
528.3364003387439
 20
381.2600842884377
 30
0.0
 11
522.8439378975937
 21
381.5479320477739
 31
0.0
  0
LINE
  5
EED
330
1E
100
AcDbEntity
  8
STEMPEL
100
AcDbLine
 10
528.0223846012862
 20
375.2683070799103
 30
0.0
 11
524.0278664622679
 21
375.4776509048821
 31
0.0
  0
ARC
  5
EEE
330
1E
100
AcDbEntity
  8
STEMPEL
100
AcDbCircle
 10
528.1793924700151
 20
378.2641956841739
 30
0.0
 40
2.999999999999999
100
AcDbArc
 50
266.9999999999944
 51
86.99999999999439
  0
LINE
  5
EEF
330
1E
100
AcDbEntity
  8
STEMPEL
100
AcDbLine
 10
524.5250580465759
 20
384.9646314850505
 30
0.0
 11
522.9486098100795
 21
383.5451911172828
 31
0.0
  0
LINE
  5
EF0
102
{ACAD_REACTORS
330
F25
102
}
330
1E
100
AcDbEntity
  8
STEMPEL
100
AcDbLine
 10
533.8041282035523
 20
256.302675736578
 30
0.0
 11
517.8260556474791
 21
257.1400510364652
 31
0.0
  0
LINE
  5
EF1
330
1E
100
AcDbEntity
  8
STEMPEL
100
AcDbLine
 10
522.0037496333477
 20
260.4259105831343
 30
0.0
 11
516.5112871921975
 21
260.7137583424704
 31
0.0
  0
LINE
  5
EF2
330
1E
100
AcDbEntity
  8
STEMPEL
100
AcDbLine
 10
522.3177653708054
 20
266.4176877916617
 30
0.0
 11
518.3232472317871
 21
266.6270316166335
 31
0.0
  0
LINE
  5
EF3
330
1E
100
AcDbEntity
  8
STEMPEL
100
AcDbLine
 10
528.4927184261831
 20
269.598875425845
 30
0.0
 11
518.5064230786373
 21
270.1222349882745
 31
0.0
  0
LINE
  5
EF4
330
1E
100
AcDbEntity
  8
STEMPEL
100
AcDbLine
 10
517.8260556474791
 20
257.1400510364652
 30
0.0
 11
516.4066152797117
 21
258.7164992729613
 31
0.0
  0
ARC
  5
EF5
330
1E
100
AcDbEntity
  8
STEMPEL
100
AcDbCircle
 10
522.1607575020765
 20
263.4217991873979
 30
0.0
 40
2.999999999999999
100
AcDbArc
 50
266.9999999999944
 51
86.99999999999439
  0
LINE
  5
EF6
330
1E
100
AcDbEntity
  8
STEMPEL
100
AcDbLine
 10
528.2310386449684
 20
264.6057277520722
 30
0.0
 11
535.9783454956037
 21
259.5745678564385
 31
0.0
  0
LINE
  5
EF8
330
1E
100
AcDbEntity
  8
STEMPEL
100
AcDbLine
 10
535.722883338697
 20
254.7000595219602
 30
0.0
 11
533.7256242691878
 21
254.804731434446
 31
0.0
  0
LINE
  5
EF9
330
1E
100
AcDbEntity
  8
STEMPEL
100
AcDbLine
 10
516.4066152797117
 20
258.7164992729611
 30
0.0
 11
517.0084787765055
 21
270.2007389226387
 31
0.0
  0
HATCH
  5
EFA
330
1E
100
AcDbEntity
  8
SCHRAFF
100
AcDbHatch
 10
0.0
 20
0.0
 30
0.0
210
0.0
220
0.0
230
1.0
  2
NET
 70
     0
 71
     0
 91
        2
 92
        7
 72
     1
 73
     1
 93
       13
 10
518.5064230786374
 20
270.1222349882745
 42
0.0
 10
518.3232472317871
 20
266.6270316166335
 42
0.0
 10
522.3177653708054
 20
266.4176877916617
 42
-1.0
 10
522.0037496333476
 20
260.4259105831342
 42
0.0
 10
516.5112871921975
 20
260.7137583424704
 42
0.0
 10
516.4066152797117
 20
258.7164992729613
 42
0.0
 10
517.8260556474791
 20
257.1400510364652
 42
0.0
 10
533.8041282035523
 20
256.302675736578
 42
0.0
 10
533.7256242691878
 20
254.804731434446
 42
0.0
 10
535.7228833386971
 20
254.7000595219602
 42
0.0
 10
535.9783454956037
 20
259.5745678564385
 42
0.0
 10
528.2310386449684
 20
264.6057277520722
 42
0.0
 10
528.4927184261831
 20
269.598875425845
 42
0.0
 97
        0
 92
        7
 72
     1
 73
     1
 93
       13
 10
534.0926657441781
 20
376.4522356445845
 42
0.0
 10
542.323431449616
 20
380.6460202403311
 42
0.0
 10
542.5788936065226
 20
385.5205285748093
 42
0.0
 10
540.5816345370135
 20
385.6252004872952
 42
0.0
 10
540.5031306026491
 20
384.1272561851633
 42
0.0
 10
524.5250580465759
 20
384.9646314850505
 42
0.0
 10
522.9486098100795
 20
383.5451911172828
 42
0.0
 10
522.8439378975937
 20
381.5479320477739
 42
0.0
 10
528.3364003387439
 20
381.2600842884377
 42
-1.0
 10
528.0223846012861
 20
375.2683070799102
 42
0.0
 10
524.0278664622679
 20
375.4776509048821
 42
0.0
 10
523.8446906154177
 20
371.982447533241
 42
0.0
 10
533.8309859629633
 20
371.4590879708115
 42
0.0
 97
        0
 75
     0
 76
     1
 52
312.0
 41
20.0
 77
     0
 78
     2
 53
312.0
 43
313.6587939994821
 44
675.4272022878413
 45
1.857862063693485
 46
1.672826515897144
 79
     0
 53
41.99999999999998
 43
313.6587939994821
 44
675.4272022878413
 45
-1.672826515897144
 46
1.857862063693485
 79
     0
 47
0.3063785370066298
 98
        2
 10
526.000601820806
 20
268.1416001033024
 10
532.4396505586963
 20
373.4437494548513
  0
LINE
  5
F09
102
{ACAD_REACTORS
330
F25
102
}
330
1E
100
AcDbEntity
  8
STEMPEL
100
AcDbLine
 10
518.8246851822334
 20
257.0877150802222
 30
0.0
 11
518.4763943389579
 21
250.4419298925981
 31
0.0
  0
LINE
  5
F0B
330
1E
100
AcDbEntity
  8
STEMPEL
100
AcDbLine
 10
523.8446906154175
 20
371.9824475332409
 30
0.0
 11
524.0278664622679
 21
375.4776509048821
 31
0.0
  0
LINE
  5
F0C
330
1E
100
AcDbEntity
  8
STEMPEL
100
AcDbLine
 10
522.3467463132858
 20
372.0609514676054
 30
0.0
 11
522.9486098100795
 21
383.5451911172828
 31
0.0
  0
LINE
  5
F0D
330
1E
100
AcDbEntity
  8
STEMPEL
100
AcDbLine
 10
533.8309859629633
 20
371.4590879708115
 30
0.0
 11
534.0926657441781
 21
376.4522356445845
 31
0.0
  0
LINE
  5
F0E
102
{ACAD_REACTORS
330
F25
102
}
330
1E
100
AcDbEntity
  8
STEMPEL
100
AcDbLine
 10
533.8041282035521
 20
256.302675736578
 30
0.0
 11
533.2988294915477
 21
246.6610019446903
 31
0.0
  0
LINE
  5
F0F
330
1E
100
AcDbEntity
  8
STEMPEL
100
AcDbLine
 10
541.8200222409999
 20
371.040400320868
 30
0.0
 11
542.5788936065226
 21
385.5205285748093
 31
0.0
  0
HATCH
  5
F25
330
1E
100
AcDbEntity
  8
SCHRAFF
100
AcDbHatch
 10
0.0
 20
0.0
 30
0.0
210
0.0
220
0.0
230
1.0
  2
NET
 70
     0
 71
     1
 91
        2
 92
        7
 72
     0
 73
     1
 93
        7
 10
541.0445510155035
 20
394.4581730883671
 10
539.0753387004149
 20
395.0980089556038
 10
538.8902840772653
 20
391.5669563965892
 10
525.908100125456
 20
392.2473238277476
 10
525.637979962856
 20
387.0931240830661
 10
531.5154647898577
 20
384.5982797913499
 10
540.5031306026489
 20
384.1272561851633
 97
        7
330
ECA
330
9A6
330
98F
330
EC3
330
EC7
330
EE7
330
EC2
 92
        7
 72
     0
 73
     1
 93
        7
 10
533.8041282035521
 20
256.302675736578
 10
524.8164623907613
 20
256.7736993427645
 10
518.7103928007076
 20
254.9068865259634
 10
518.4763943389579
 20
250.4419298925982
 10
531.4585782907673
 20
249.7615624614398
 10
531.2735236676177
 20
246.2305099024253
 10
533.2988294915477
 20
246.6610019446903
 97
        7
330
EF0
330
ECD
330
F09
330
98E
330
C78
330
ECE
330
F0E
 75
     1
 76
     1
 52
45.0
 41
15.0
 77
     0
 78
     2
 53
45.0
 43
0.0
 44
0.0
 45
-1.325825214724776
 46
1.325825214724776
 79
     0
 53
135.0
 43
0.0
 44
0.0
 45
-1.325825214724776
 46
-1.325825214724776
 79
     0
 47
0.2987060804198341
 98
        2
 10
534.6799564478728
 20
388.3581315934086
 10
526.3123089866735
 20
252.4468635440776
1001
GradientColor1ACI
1070
     5
1001
GradientColor2ACI
1070
     2
1001
ACAD
1010
0.0
1020
0.0
1030
0.0
  0
TEXT
  5
F89
330
1E
100
AcDbEntity
  8
VOLL
100
AcDbText
 10
2367.916279527938
 20
331.3251579397315
 30
0.0
 40
3.6
  1

  7
GREEKS
100
AcDbText
  0
TEXT
  5
F8A
330
1E
100
AcDbEntity
  8
VOLL
100
AcDbText
 10
2610.7218168663
 20
745.9659740302566
 30
0.0
 40
3.6
  1

  7
GREEKS
100
AcDbText
  0
TEXT
  5
F8B
330
1E
100
AcDbEntity
  8
VOLL
100
AcDbText
 10
3270.38823879514
 20
378.7871259620701
 30
0.0
 40
3.6
  1

  7
GREEKS
100
AcDbText
  0
TEXT
  5
F8C
330
1E
100
AcDbEntity
  8
VOLL
100
AcDbText
 10
3262.723685766464
 20
356.3794785051484
 30
0.0
 40
3.6
  1

  7
GREEKS
100
AcDbText
  0
TEXT
  5
F8F
330
1E
100
AcDbEntity
  8
VOLL
100
AcDbText
 10
2392.71743912363
 20
303.1071323332112
 30
0.0
 40
3.6
  1

  7
GREEKS
100
AcDbText
  0
TEXT
  5
F90
330
1E
100
AcDbEntity
  8
VOLL
100
AcDbText
 10
2635.522976461992
 20
717.7479484237363
 30
0.0
 40
3.6
  1

  7
GREEKS
100
AcDbText
  0
TEXT
  5
F91
330
1E
100
AcDbEntity
  8
VOLL
100
AcDbText
 10
3295.189398390831
 20
350.5691003555498
 30
0.0
 40
3.6
  1

  7
GREEKS
100
AcDbText
  0
TEXT
  5
F92
330
1E
100
AcDbEntity
  8
VOLL
100
AcDbText
 10
3287.524845362156
 20
328.1614528986281
 30
0.0
 40
3.6
  1

  7
GREEKS
100
AcDbText
  0
ENDSEC
  0
SECTION
  2
OBJECTS
  0
DICTIONARY
  5
C
330
0
100
AcDbDictionary
281
     1
  3
ACAD_CIP_PREVIOUS_PRODUCT_INFO
350
612
  3
ACAD_COLOR
350
11A
  3
ACAD_DETAILVIEWSTYLE
350
60E
  3
ACAD_GROUP
350
D
  3
ACAD_LAYOUT
350
19
  3
ACAD_MATERIAL
350
119
  3
ACAD_MLEADERSTYLE
350
609
  3
ACAD_MLINESTYLE
350
16
  3
ACAD_PLOTSETTINGS
350
18
  3
ACAD_PLOTSTYLENAME
350
E
  3
ACAD_SCALELIST
350
5F7
  3
ACAD_SECTIONVIEWSTYLE
350
60B
  3
ACAD_TABLESTYLE
350
5F5
  3
ACAD_VISUALSTYLE
350
5DC
  3
ACDB_RECOMPOSE_DATA
350
1069
  3
AcDbVariableDictionary
350
125
  0
DICTIONARY
  5
650
330
8
100
AcDbDictionary
280
     1
281
     1
  0
DICTIONARY
  5
614
330
2
100
AcDbDictionary
280
     1
281
     1
  3
ACAD_LAYERSTATES
360
615
  0
DICTIONARY
  5
63D
330
10
100
AcDbDictionary
280
     1
281
     1
  3
ADSK_XREC_LAYER_RECONCILED
360
63E
  0
DICTIONARY
  5
63F
330
2B
100
AcDbDictionary
280
     1
281
     1
  3
ADSK_XREC_LAYER_RECONCILED
360
640
  0
DICTIONARY
  5
641
330
2C
100
AcDbDictionary
280
     1
281
     1
  3
ADSK_XREC_LAYER_RECONCILED
360
642
  0
DICTIONARY
  5
643
330
2D
100
AcDbDictionary
280
     1
281
     1
  3
ADSK_XREC_LAYER_RECONCILED
360
644
  0
DICTIONARY
  5
645
330
2F
100
AcDbDictionary
280
     1
281
     1
  3
ADSK_XREC_LAYER_RECONCILED
360
646
  0
DICTIONARY
  5
647
330
30
100
AcDbDictionary
280
     1
281
     1
  3
ADSK_XREC_LAYER_RECONCILED
360
648
  0
DICTIONARY
  5
649
330
33
100
AcDbDictionary
280
     1
281
     1
  3
ADSK_XREC_LAYER_RECONCILED
360
64A
  0
DICTIONARY
  5
64B
330
23D
100
AcDbDictionary
280
     1
281
     1
  3
ADSK_XREC_LAYER_RECONCILED
360
64C
  0
DICTIONARY
  5
DB
330
1E
100
AcDbDictionary
280
     1
281
     1
  3
ACAD_LAYOUTSELFREF
360
10F
  3
ACAD_SORTENTS
360
9B9
  0
DICTIONARY
  5
DD
330
1A
100
AcDbDictionary
280
     1
281
     1
  3
ACAD_LAYOUTSELFREF
360
10E
  0
XRECORD
  5
612
102
{ACAD_REACTORS
330
C
102
}
330
C
100
AcDbXrecord
280
     1
300
ACD
300
2013
300
ACD_F_S
  0
DICTIONARY
  5
11A
102
{ACAD_REACTORS
330
C
102
}
330
C
100
AcDbDictionary
281
     1
  0
DICTIONARY
  5
60E
102
{ACAD_REACTORS
330
C
102
}
330
C
100
AcDbDictionary
281
     1
  3
Imperial24
350
60F
  0
DICTIONARY
  5
D
102
{ACAD_REACTORS
330
C
102
}
330
C
100
AcDbDictionary
281
     1
  0
DICTIONARY
  5
19
102
{ACAD_REACTORS
330
C
102
}
330
C
100
AcDbDictionary
281
     1
  3
Layout1
350
1D
  3
Model
350
21
  0
DICTIONARY
  5
119
102
{ACAD_REACTORS
330
C
102
}
330
C
100
AcDbDictionary
281
     1
  3
ByBlock
350
5CC
  3
ByLayer
350
5C4
  3
Global
350
5D4
  0
DICTIONARY
  5
609
102
{ACAD_REACTORS
330
C
102
}
330
C
100
AcDbDictionary
281
     1
  3
Standard
350
60A
  0
DICTIONARY
  5
16
102
{ACAD_REACTORS
330
C
102
}
330
C
100
AcDbDictionary
281
     1
  3
Standard
350
17
  0
DICTIONARY
  5
18
102
{ACAD_REACTORS
330
C
102
}
330
C
100
AcDbDictionary
281
     1
  0
ACDBDICTIONARYWDFLT
  5
E
102
{ACAD_REACTORS
330
C
102
}
330
C
100
AcDbDictionary
281
     1
  3
Normal
350
F
100
AcDbDictionaryWithDefault
340
F
  0
DICTIONARY
  5
5F7
102
{ACAD_REACTORS
330
C
102
}
330
C
100
AcDbDictionary
281
     1
  3
A0
350
5F8
  3
A1
350
5F9
  3
A2
350
5FA
  3
A3
350
5FB
  3
A4
350
5FC
  3
A5
350
5FD
  3
A6
350
5FE
  3
A7
350
5FF
  3
A8
350
600
  3
A9
350
601
  3
B0
350
602
  3
B1
350
603
  3
B2
350
604
  3
B3
350
605
  3
B4
350
606
  3
B5
350
607
  3
B6
350
608
  0
DICTIONARY
  5
60B
102
{ACAD_REACTORS
330
C
102
}
330
C
100
AcDbDictionary
281
     1
  3
Imperial24
350
60D
  0
DICTIONARY
  5
5F5
102
{ACAD_REACTORS
330
C
102
}
330
C
100
AcDbDictionary
281
     1
  3
Standard
350
5F6
  0
DICTIONARY
  5
5DC
102
{ACAD_REACTORS
330
C
102
}
330
C
100
AcDbDictionary
281
     1
  3
2dWireframe
350
5E2
  3
Basic
350
5E1
  3
Brighten
350
5E8
  3
ColorChange
350
5EC
  3
Conceptual
350
5E5
  3
Dim
350
5E7
  3
EdgeColorOff
350
5F4
  3
Facepattern
350
5EB
  3
Flat
350
5DD
  3
FlatWithEdges
350
5DE
  3
Gouraud
350
5DF
  3
GouraudWithEdges
350
5E0
  3
Hidden
350
5E4
  3
JitterOff
350
5F2
  3
Linepattern
350
5EA
  3
OverhangOff
350
5F3
  3
Realistic
350
5E6
  3
Shaded
350
5F1
  3
Shaded with edges
350
5F0
  3
Shades of Gray
350
5ED
  3
Sketchy
350
5EE
  3
Thicken
350
5E9
  3
Wireframe
350
5E3
  3
X-Ray
350
5EF
  0
XRECORD
  5
1069
102
{ACAD_REACTORS
330
C
102
}
330
C
100
AcDbXrecord
280
     1
 90
        1
330
5F6
  0
DICTIONARY
  5
125
102
{ACAD_REACTORS
330
C
102
}
330
C
100
AcDbDictionary
281
     1
  3
CANNOSCALE
350
68E
  3
CMLEADERSTYLE
350
68B
  3
CTABLESTYLE
350
68A
  3
CVIEWDETAILSTYLE
350
68C
  3
CVIEWSECTIONSTYLE
350
68D
  3
DIMASSOC
350
126
  3
PROJECTNAME
350
127
  0
DICTIONARY
  5
615
102
{ACAD_REACTORS
330
614
102
}
330
614
100
AcDbDictionary
281
     1
  0
XRECORD
  5
63E
102
{ACAD_REACTORS
330
63D
102
}
330
63D
100
AcDbXrecord
280
     1
290
     1
  0
XRECORD
  5
640
102
{ACAD_REACTORS
330
63F
102
}
330
63F
100
AcDbXrecord
280
     1
290
     1
  0
XRECORD
  5
642
102
{ACAD_REACTORS
330
641
102
}
330
641
100
AcDbXrecord
280
     1
290
     1
  0
XRECORD
  5
644
102
{ACAD_REACTORS
330
643
102
}
330
643
100
AcDbXrecord
280
     1
290
     1
  0
XRECORD
  5
646
102
{ACAD_REACTORS
330
645
102
}
330
645
100
AcDbXrecord
280
     1
290
     1
  0
XRECORD
  5
648
102
{ACAD_REACTORS
330
647
102
}
330
647
100
AcDbXrecord
280
     1
290
     1
  0
XRECORD
  5
64A
102
{ACAD_REACTORS
330
649
102
}
330
649
100
AcDbXrecord
280
     1
290
     1
  0
XRECORD
  5
64C
102
{ACAD_REACTORS
330
64B
102
}
330
64B
100
AcDbXrecord
280
     1
290
     1
  0
XRECORD
  5
10F
102
{ACAD_REACTORS
330
DB
102
}
330
DB
100
AcDbXrecord
280
     1
340
1E
  0
SORTENTSTABLE
  5
9B9
102
{ACAD_REACTORS
330
DB
102
}
330
DB
100
AcDbSortentsTable
330
1E
331
73C
  5
73D
331
F0F
  5
EED
331
777
  5
779
331
336
  5
337
331
F0B
  5
EF1
331
773
  5
775
331
332
  5
333
331
32E
  5
32F
331
32A
  5
32B
331
9A6
  5
B36
331
B58
  5
D1E
331
EC7
  5
EE6
331
9A2
  5
A73
331
EC3
  5
EE4
331
76F
  5
771
331
76B
  5
76D
331
826
  5
88D
331
767
  5
769
331
365
  5
383
331
627
  5
63A
331
EF3
  5
F0C
331
763
  5
765
331
31E
  5
31F
331
35D
  5
35E
331
359
  5
35A
331
99E
  5
9B8
331
99A
  5
9A9
331
996
  5
9A3
331
992
  5
99F
331
EEF
  5
EF9
331
75F
  5
760
331
F92
  5
F92
331
EEB
  5
EF5
331
75B
  5
75C
331
EE7
  5
EEF
331
757
  5
758
331
355
  5
356
331
F8A
  5
F89
331
EE3
  5
EEC
331
88D
  5
8CA
331
753
  5
754
331
349
  5
34A
331
98E
  5
99B
331
74F
  5
750
331
74B
  5
74C
331
747
  5
748
331
345
  5
346
331
743
  5
744
331
77E
  5
780
331
341
  5
342
331
77A
  5
77C
331
33D
  5
33E
331
339
  5
33A
331
388
  5
389
331
B63
  5
D1F
331
73F
  5
740
331
73B
  5
73C
331
776
  5
778
331
869
  5
89F
331
335
  5
336
331
F0E
  5
ECE
331
772
  5
774
331
331
  5
332
331
32D
  5
32E
331
329
  5
32A
331
9A9
  5
B58
331
9A5
  5
B35
331
9A1
  5
9FC
331
EC2
  5
ECD
331
76E
  5
770
331
76A
  5
76C
331
EFA
  5
F15
331
766
  5
768
331
364
  5
365
331
325
  5
328
331
EF6
  5
F0F
331
762
  5
763
331
622
  5
626
331
321
  5
323
331
360
  5
364
331
EF2
  5
F09
331
31D
  5
31E
331
35C
  5
35D
331
358
  5
359
331
99D
  5
9B7
331
A80
  5
C4A
331
999
  5
9A8
331
991
  5
99E
331
75E
  5
75F
331
EEE
  5
EF8
331
F91
  5
F91
331
75A
  5
75B
331
EEA
  5
EF3
331
756
  5
757
331
354
  5
355
331
752
  5
753
331
F89
  5
F88
331
34C
  5
350
331
2F1
  5
2F1
331
348
  5
349
331
98D
  5
997
331
989
  5
98C
331
CC6
  5
998
331
9FC
  5
C48
331
74E
  5
74F
331
74A
  5
74B
331
746
  5
747
331
344
  5
345
331
ECE
  5
EEB
331
742
  5
743
331
77D
  5
77F
331
340
  5
341
331
ECA
  5
EE8
331
779
  5
77B
331
33C
  5
33D
331
338
  5
339
331
38B
  5
579
331
9B8
  5
9A7
331
F25
  5
99A
331
73E
  5
73F
331
F0D
  5
EF4
331
334
  5
335
331
775
  5
777
331
F09
  5
EE5
331
387
  5
388
331
330
  5
331
331
771
  5
773
331
32C
  5
32D
331
383
  5
386
331
328
  5
329
331
A8F
  5
C4B
331
9A8
  5
B39
331
9A4
  5
A8F
331
76D
  5
76F
331
EF9
  5
F13
331
769
  5
76B
331
EF5
  5
F0E
331
765
  5
767
331
324
  5
325
331
89F
  5
8F8
331
EF1
  5
F08
331
35F
  5
360
331
621
  5
622
331
320
  5
321
331
761
  5
762
331
35B
  5
35C
331
99C
  5
9B6
331
998
  5
9A6
331
994
  5
9A2
331
990
  5
99D
331
EED
  5
EF7
331
75D
  5
75E
331
EE9
  5
EF2
331
F90
  5
F90
331
357
  5
358
331
759
  5
75A
331
F8C
  5
F8B
331
353
  5
354
331
755
  5
756
331
751
  5
752
331
34B
  5
34C
331
A73
  5
C49
331
98C
  5
990
331
CC5
  5
996
331
74D
  5
74E
331
347
  5
348
331
749
  5
74A
331
ECD
  5
EE9
331
745
  5
746
331
343
  5
344
331
57E
  5
621
331
780
  5
826
331
741
  5
742
331
33F
  5
340
331
77C
  5
77E
331
33B
  5
33C
331
778
  5
77A
331
38A
  5
38B
331
8F8
  5
98B
331
73D
  5
73E
331
337
  5
338
331
F0C
  5
F14
331
774
  5
776
331
333
  5
334
331
770
  5
772
331
386
  5
387
331
32F
  5
330
331
32B
  5
32C
331
9A7
  5
B38
331
9A3
  5
A80
331
76C
  5
76E
331
EF8
  5
F11
331
8CA
  5
989
331
768
  5
76A
331
EF4
  5
F0D
331
764
  5
766
331
323
  5
324
331
EF0
  5
EFA
331
760
  5
761
331
31F
  5
320
331
35E
  5
35F
331
35A
  5
35B
331
99F
  5
9BA
331
99B
  5
9B5
331
997
  5
9A5
331
993
  5
9A1
331
B39
  5
D1D
331
EEC
  5
EF6
331
75C
  5
75D
331
F8F
  5
F8F
331
EE8
  5
EF0
331
758
  5
759
331
356
  5
357
331
F8B
  5
F8A
331
EE4
  5
EEE
331
754
  5
755
331
2FB
  5
2FB
331
352
  5
353
331
750
  5
751
331
34A
  5
34B
331
98F
  5
99C
331
98B
  5
98F
331
74C
  5
74D
331
748
  5
749
331
346
  5
347
331
744
  5
745
331
77F
  5
781
331
342
  5
343
331
740
  5
741
331
77B
  5
77D
331
33E
  5
33F
331
579
  5
57E
331
33A
  5
33B
331
389
  5
38A
331
9BA
  5
9A4
331
C78
  5
B37
  0
XRECORD
  5
10E
102
{ACAD_REACTORS
330
DD
102
}
330
DD
100
AcDbXrecord
280
     1
340
1A
  0
ACDBDETAILVIEWSTYLE
  5
60F
102
{ACAD_REACTORS
330
60E
102
}
330
60E
100
AcDbModelDocViewStyle
 70
     0
  3
Imperial24
290
     0
100
AcDbDetailViewStyle
 70
     0
 71
     0
 90
        3
 71
     1
340
11
 62
   256
 40
0.24
340
0
 62
   256
 40
0.24
300

 40
0.36
280
     3
 71
     2
340
15
 90
       25
 62
   256
 71
     3
340
11
 62
   256
 40
0.24
 90
        1
 40
0.75
 90
        1
300
%<\AcVar ViewType \f "%tc1">% %<\AcVar ViewDetailId>%\PVARIA %<\AcVar ViewScale \f "%sn">%
 71
     4
340
15
 90
       25
 62
   256
340
15
 90
       25
 62
   256
280
     0
  0
LAYOUT
  5
1D
102
{ACAD_REACTORS
330
19
102
}
330
19
100
AcDbPlotSettings
  1

  2
\\NT_WORK01\HP LaserJet 5000 PCL 6
  4

  6

 40
0.0
 41
0.0
 42
0.0
 43
0.0
 44
0.0
 45
0.0
 46
0.0
 47
0.0
 48
0.0
 49
0.0
140
0.0
141
0.0
142
1.0
143
1.0
 70
   688
 72
     0
 73
     0
 74
     5
  7

 75
    16
147
1.0
 76
     0
 77
     2
 78
   300
148
0.0
149
0.0
100
AcDbLayout
  1
Layout1
 70
     0
 71
     1
 10
0.0
 20
0.0
 11
12.0
 21
9.0
 12
0.0
 22
0.0
 32
0.0
 14
1.000000000000000E+20
 24
1.000000000000000E+20
 34
1.000000000000000E+20
 15
-1.000000000000000E+20
 25
-1.000000000000000E+20
 35
-1.000000000000000E+20
146
0.0
 13
0.0
 23
0.0
 33
0.0
 16
1.0
 26
0.0
 36
0.0
 17
0.0
 27
1.0
 37
0.0
 76
     0
330
1A
  0
LAYOUT
  5
21
102
{ACAD_XDICTIONARY
360
6B0
102
}
102
{ACAD_REACTORS
330
19
102
}
330
19
100
AcDbPlotSettings
  1

  2
none_device
  4
Letter_(8.50_x_11.00_Inches)
  6

 40
6.349999904632568
 41
6.349999904632568
 42
6.350006103515625
 43
6.350006103515625
 44
215.8999938964844
 45
279.3999938964844
 46
0.0
 47
0.0
 48
0.0
 49
0.0
140
0.0
141
0.0
142
1.0
143
96.85355089968087
 70
 11952
 72
     0
 73
     1
 74
     0
  7

 75
     0
147
0.0103248666745919
 76
     0
 77
     2
 78
   300
148
2248.23391987585
149
52.06885790558906
100
AcDbLayout
  1
Model
 70
     1
 71
     0
 10
0.0
 20
0.0
 11
12.0
 21
9.0
 12
0.0
 22
0.0
 32
0.0
 14
0.0
 24
0.0
 34
0.0
 15
0.0
 25
0.0
 35
0.0
146
0.0
 13
0.0
 23
0.0
 33
0.0
 16
1.0
 26
0.0
 36
0.0
 17
0.0
 27
1.0
 37
0.0
 76
     0
330
1E
331
5C2
1001
ACAD_PSEXT
1000
Kein
1000
Kein
1000
Nicht anwendbar
1000
Das Layout wird erst geplottet, wenn ein neuer Plotter-Konfigurationsname ausgewählt wird.
1070
     0
  0
MATERIAL
  5
5CC
102
{ACAD_XDICTIONARY
360
5CD
102
}
102
{ACAD_REACTORS
330
119
102
}
330
119
100
AcDbMaterial
  1
ByBlock
 72
     0
 43
0.0208333333333333
 43
0.0
 43
0.0
 43
0.0
 43
0.0
 43
0.0208333333333333
 43
0.0
 43
0.0
 43
0.0
 43
0.0
 43
1.0
 43
0.0
 43
0.0
 43
0.0
 43
0.0
 43
1.0
 77
     0
 47
0.0208333333333333
 47
0.0
 47
0.0
 47
0.0
 47
0.0
 47
0.0208333333333333
 47
0.0
 47
0.0
 47
0.0
 47
0.0
 47
1.0
 47
0.0
 47
0.0
 47
0.0
 47
0.0
 47
1.0
171
     0
 49
0.0208333333333333
 49
0.0
 49
0.0
 49
0.0
 49
0.0
 49
0.0208333333333333
 49
0.0
 49
0.0
 49
0.0
 49
0.0
 49
1.0
 49
0.0
 49
0.0
 49
0.0
 49
0.0
 49
1.0
175
     0
142
0.0208333333333333
142
0.0
142
0.0
142
0.0
142
0.0
142
0.0208333333333333
142
0.0
142
0.0
142
0.0
142
0.0
142
1.0
142
0.0
142
0.0
142
0.0
142
0.0
142
1.0
179
     0
144
0.0208333333333333
144
0.0
144
0.0
144
0.0
144
0.0
144
0.0208333333333333
144
0.0
144
0.0
144
0.0
144
0.0
144
1.0
144
0.0
144
0.0
144
0.0
144
0.0
144
1.0
147
0.0208333333333333
147
0.0
147
0.0
147
0.0
147
0.0
147
0.0208333333333333
147
0.0
147
0.0
147
0.0
147
0.0
147
1.0
147
0.0
147
0.0
147
0.0
147
0.0
147
1.0
  0
MATERIAL
  5
5C4
102
{ACAD_XDICTIONARY
360
5C5
102
}
102
{ACAD_REACTORS
330
119
102
}
330
119
100
AcDbMaterial
  1
ByLayer
 72
     0
 43
0.0208333333333333
 43
0.0
 43
0.0
 43
0.0
 43
0.0
 43
0.0208333333333333
 43
0.0
 43
0.0
 43
0.0
 43
0.0
 43
1.0
 43
0.0
 43
0.0
 43
0.0
 43
0.0
 43
1.0
 77
     0
 47
0.0208333333333333
 47
0.0
 47
0.0
 47
0.0
 47
0.0
 47
0.0208333333333333
 47
0.0
 47
0.0
 47
0.0
 47
0.0
 47
1.0
 47
0.0
 47
0.0
 47
0.0
 47
0.0
 47
1.0
171
     0
 49
0.0208333333333333
 49
0.0
 49
0.0
 49
0.0
 49
0.0
 49
0.0208333333333333
 49
0.0
 49
0.0
 49
0.0
 49
0.0
 49
1.0
 49
0.0
 49
0.0
 49
0.0
 49
0.0
 49
1.0
175
     0
142
0.0208333333333333
142
0.0
142
0.0
142
0.0
142
0.0
142
0.0208333333333333
142
0.0
142
0.0
142
0.0
142
0.0
142
1.0
142
0.0
142
0.0
142
0.0
142
0.0
142
1.0
179
     0
144
0.0208333333333333
144
0.0
144
0.0
144
0.0
144
0.0
144
0.0208333333333333
144
0.0
144
0.0
144
0.0
144
0.0
144
1.0
144
0.0
144
0.0
144
0.0
144
0.0
144
1.0
147
0.0208333333333333
147
0.0
147
0.0
147
0.0
147
0.0
147
0.0208333333333333
147
0.0
147
0.0
147
0.0
147
0.0
147
1.0
147
0.0
147
0.0
147
0.0
147
0.0
147
1.0
  0
MATERIAL
  5
5D4
102
{ACAD_XDICTIONARY
360
5D5
102
}
102
{ACAD_REACTORS
330
119
102
}
330
119
100
AcDbMaterial
  1
Global
 72
     0
 43
0.0208333333333333
 43
0.0
 43
0.0
 43
0.0
 43
0.0
 43
0.0208333333333333
 43
0.0
 43
0.0
 43
0.0
 43
0.0
 43
1.0
 43
0.0
 43
0.0
 43
0.0
 43
0.0
 43
1.0
 77
     0
 47
0.0208333333333333
 47
0.0
 47
0.0
 47
0.0
 47
0.0
 47
0.0208333333333333
 47
0.0
 47
0.0
 47
0.0
 47
0.0
 47
1.0
 47
0.0
 47
0.0
 47
0.0
 47
0.0
 47
1.0
171
     0
 49
0.0208333333333333
 49
0.0
 49
0.0
 49
0.0
 49
0.0
 49
0.0208333333333333
 49
0.0
 49
0.0
 49
0.0
 49
0.0
 49
1.0
 49
0.0
 49
0.0
 49
0.0
 49
0.0
 49
1.0
175
     0
142
0.0208333333333333
142
0.0
142
0.0
142
0.0
142
0.0
142
0.0208333333333333
142
0.0
142
0.0
142
0.0
142
0.0
142
1.0
142
0.0
142
0.0
142
0.0
142
0.0
142
1.0
179
     0
144
0.0208333333333333
144
0.0
144
0.0
144
0.0
144
0.0
144
0.0208333333333333
144
0.0
144
0.0
144
0.0
144
0.0
144
1.0
144
0.0
144
0.0
144
0.0
144
0.0
144
1.0
147
0.0208333333333333
147
0.0
147
0.0
147
0.0
147
0.0
147
0.0208333333333333
147
0.0
147
0.0
147
0.0
147
0.0
147
1.0
147
0.0
147
0.0
147
0.0
147
0.0
147
1.0
  0
MLEADERSTYLE
  5
60A
102
{ACAD_XDICTIONARY
360
109E
102
}
102
{ACAD_REACTORS
330
609
102
}
330
609
100
AcDbMLeaderStyle
170
     2
171
     1
172
     0
 90
        2
 40
0.0
 41
0.0
173
     1
 91
-1056964608
340
13
 92
       -2
290
     1
 42
0.09
291
     1
 43
0.36
  3
Standard
 44
0.18
300

342
11
174
     1
178
     6
175
     1
176
     0
 93
-1056964608
 45
0.18
292
     0
297
     0
 46
0.18
 94
-1056964608
 47
1.0
 49
1.0
140
1.0
293
     1
141
0.0
294
     1
177
     0
142
1.0
295
     0
296
     0
143
0.125
1001
ACAD_MLEADERVER
1070
     2
  0
MLINESTYLE
  5
17
102
{ACAD_REACTORS
330
16
102
}
330
16
100
AcDbMlineStyle
  2
STANDARD
 70
     0
  3

 62
   256
 51
90.0
 52
90.0
 71
     2
 49
0.5
 62
   256
  6
BYLAYER
 49
-0.5
 62
   256
  6
BYLAYER
  0
ACDBPLACEHOLDER
  5
F
102
{ACAD_REACTORS
330
E
102
}
330
E
  0
SCALE
  5
5F8
102
{ACAD_REACTORS
330
5F7
102
}
330
5F7
100
AcDbScale
 70
     0
300
1:1
140
1.0
141
1.0
290
     1
  0
SCALE
  5
5F9
102
{ACAD_REACTORS
330
5F7
102
}
330
5F7
100
AcDbScale
 70
     0
300
1/128" = 1'-0"
140
0.0078125
141
12.0
290
     0
  0
SCALE
  5
5FA
102
{ACAD_REACTORS
330
5F7
102
}
330
5F7
100
AcDbScale
 70
     0
300
1/64" = 1'-0"
140
0.015625
141
12.0
290
     0
  0
SCALE
  5
5FB
102
{ACAD_REACTORS
330
5F7
102
}
330
5F7
100
AcDbScale
 70
     0
300
1/32" = 1'-0"
140
0.03125
141
12.0
290
     0
  0
SCALE
  5
5FC
102
{ACAD_REACTORS
330
5F7
102
}
330
5F7
100
AcDbScale
 70
     0
300
1/16" = 1'-0"
140
0.0625
141
12.0
290
     0
  0
SCALE
  5
5FD
102
{ACAD_REACTORS
330
5F7
102
}
330
5F7
100
AcDbScale
 70
     0
300
3/32" = 1'-0"
140
0.09375
141
12.0
290
     0
  0
SCALE
  5
5FE
102
{ACAD_REACTORS
330
5F7
102
}
330
5F7
100
AcDbScale
 70
     0
300
1/8" = 1'-0"
140
0.125
141
12.0
290
     0
  0
SCALE
  5
5FF
102
{ACAD_REACTORS
330
5F7
102
}
330
5F7
100
AcDbScale
 70
     0
300
3/16" = 1'-0"
140
0.1875
141
12.0
290
     0
  0
SCALE
  5
600
102
{ACAD_REACTORS
330
5F7
102
}
330
5F7
100
AcDbScale
 70
     0
300
1/4" = 1'-0"
140
0.25
141
12.0
290
     0
  0
SCALE
  5
601
102
{ACAD_REACTORS
330
5F7
102
}
330
5F7
100
AcDbScale
 70
     0
300
3/8" = 1'-0"
140
0.375
141
12.0
290
     0
  0
SCALE
  5
602
102
{ACAD_REACTORS
330
5F7
102
}
330
5F7
100
AcDbScale
 70
     0
300
1/2" = 1'-0"
140
0.5
141
12.0
290
     0
  0
SCALE
  5
603
102
{ACAD_REACTORS
330
5F7
102
}
330
5F7
100
AcDbScale
 70
     0
300
3/4" = 1'-0"
140
0.75
141
12.0
290
     0
  0
SCALE
  5
604
102
{ACAD_REACTORS
330
5F7
102
}
330
5F7
100
AcDbScale
 70
     0
300
1" = 1'-0"
140
1.0
141
12.0
290
     0
  0
SCALE
  5
605
102
{ACAD_REACTORS
330
5F7
102
}
330
5F7
100
AcDbScale
 70
     0
300
1-1/2" = 1'-0"
140
1.5
141
12.0
290
     0
  0
SCALE
  5
606
102
{ACAD_REACTORS
330
5F7
102
}
330
5F7
100
AcDbScale
 70
     0
300
3" = 1'-0"
140
3.0
141
12.0
290
     0
  0
SCALE
  5
607
102
{ACAD_REACTORS
330
5F7
102
}
330
5F7
100
AcDbScale
 70
     0
300
6" = 1'-0"
140
6.0
141
12.0
290
     0
  0
SCALE
  5
608
102
{ACAD_REACTORS
330
5F7
102
}
330
5F7
100
AcDbScale
 70
     0
300
1'-0" = 1'-0"
140
12.0
141
12.0
290
     0
  0
ACDBSECTIONVIEWSTYLE
  5
60D
102
{ACAD_REACTORS
330
60B
102
}
330
60B
100
AcDbModelDocViewStyle
 70
     0
  3
Imperial24
290
     0
100
AcDbSectionViewStyle
 70
     0
 71
     0
 90
       78
 71
     1
340
11
 62
   256
 40
0.24
340
0
340
0
 62
   256
 40
0.24
300
I, O, Q, S, X, Z
 40
0.48
 90
        3
 40
0.18
 90
        1
 71
     2
340
60C
 90
       25
 62
   256
340
15
 90
       50
 62
   256
 40
0.24
 40
0.0
 40
0.24
 71
     3
340
11
 62
   256
 40
0.24
 90
        1
 40
0.75
 90
        1
300
%<\AcVar ViewType \f "%tc1">% %<\AcVar ViewSectionStartId>%-%<\AcVar ViewSectionEndId>%\PVARIA %<\AcVar ViewScale \f "%sn">%
 71
     4
 62
   256
 62
   257
300
ANSI31
 40
1.0
 90
        0
290
     0
290
     0
 90
        6
 40
0.0
 40
1.570796326794896
 40
0.2617993877991494
 40
1.308996938995747
 40
-0.2617993877991494
 40
1.832595714594046
  0
TABLESTYLE
  5
5F6
102
{ACAD_XDICTIONARY
360
64D
102
}
102
{ACAD_REACTORS
330
5F5
102
}
330
5F5
100
AcDbTableStyle
  3
Standard
 70
     0
 71
     0
 40
0.06
 41
0.06
280
     0
281
     0
  7
STANDARD
140
0.18
170
     2
 62
     0
 63
     7
283
     0
274
    -2
284
     1
 64
     0
275
    -2
285
     1
 65
     0
276
    -2
286
     1
 66
     0
277
    -2
287
     1
 67
     0
278
    -2
288
     1
 68
     0
279
    -2
289
     1
 69
     0
  7
STANDARD
140
0.25
170
     5
 62
     0
 63
     7
283
     0
274
    -2
284
     1
 64
     0
275
    -2
285
     1
 65
     0
276
    -2
286
     1
 66
     0
277
    -2
287
     1
 67
     0
278
    -2
288
     1
 68
     0
279
    -2
289
     1
 69
     0
  7
STANDARD
140
0.18
170
     5
 62
     0
 63
     7
283
     0
274
    -2
284
     1
 64
     0
275
    -2
285
     1
 65
     0
276
    -2
286
     1
 66
     0
277
    -2
287
     1
 67
     0
278
    -2
288
     1
 68
     0
279
    -2
289
     1
 69
     0
  0
VISUALSTYLE
  5
5E2
102
{ACAD_XDICTIONARY
360
1077
102
}
102
{ACAD_REACTORS
330
5DC
102
}
330
5DC
100
AcDbVisualStyle
  2
2dWireframe
 70
     4
 71
     0
 72
     2
 73
     0
 90
        0
 40
-0.6
 41
-30.0
 62
     5
 63
     7
421
 16777215
 74
     1
 91
        4
 64
     7
 65
   257
 75
     1
175
     1
 42
1.0
 92
        0
 66
   257
 43
1.0
 76
     1
 77
     6
 78
     2
 67
     7
 79
     5
170
     0
171
     0
290
     0
174
     0
 93
        1
 44
0.0
173
     0
291
     0
 45
0.0
1001
ACAD
1000
AcDbSavedByObjectVersion
1070
     0
  0
VISUALSTYLE
  5
5E1
102
{ACAD_XDICTIONARY
360
1075
102
}
102
{ACAD_REACTORS
330
5DC
102
}
330
5DC
100
AcDbVisualStyle
  2
Basic
 70
     7
 71
     1
 72
     0
 73
     1
 90
        0
 40
-0.6
 41
-30.0
 62
     5
 63
     7
421
 16777215
 74
     0
 91
        4
 64
     7
 65
   257
 75
     1
175
     1
 42
1.0
 92
        8
 66
     7
 43
1.0
 76
     1
 77
     6
 78
     2
 67
     7
 79
     5
170
     0
171
     0
290
     0
174
     0
 93
        1
 44
0.0
173
     0
291
     1
 45
0.0
1001
ACAD
1000
AcDbSavedByObjectVersion
1070
     0
  0
VISUALSTYLE
  5
5E8
102
{ACAD_XDICTIONARY
360
1083
102
}
102
{ACAD_REACTORS
330
5DC
102
}
330
5DC
100
AcDbVisualStyle
  2
Brighten
 70
    12
 71
     2
 72
     2
 73
     0
 90
        0
 40
-0.6
 41
-30.0
 62
     5
 63
     7
421
 16777215
 74
     1
 91
        4
 64
     7
 65
   257
 75
     1
175
     1
 42
1.0
 92
        8
 66
     7
 43
1.0
 76
     1
 77
     6
 78
     2
 67
     7
 79
     5
170
     0
171
     0
290
     0
174
     0
 93
        1
 44
50.0
173
     0
291
     1
 45
0.0
1001
ACAD
1000
AcDbSavedByObjectVersion
1070
     0
  0
VISUALSTYLE
  5
5EC
102
{ACAD_XDICTIONARY
360
108B
102
}
102
{ACAD_REACTORS
330
5DC
102
}
330
5DC
100
AcDbVisualStyle
  2
ColorChange
 70
    16
 71
     2
 72
     2
 73
     3
 90
        0
 40
-0.6
 41
-30.0
 62
     5
 63
     8
421
  8421504
 74
     1
 91
        4
 64
     7
 65
   257
 75
     1
175
     1
 42
1.0
 92
        8
 66
     8
424
  8421504
 43
1.0
 76
     1
 77
     6
 78
     2
 67
     7
 79
     5
170
     0
171
     0
290
     0
174
     0
 93
        1
 44
0.0
173
     0
291
     1
 45
0.0
1001
ACAD
1000
AcDbSavedByObjectVersion
1070
     0
  0
VISUALSTYLE
  5
5E5
102
{ACAD_XDICTIONARY
360
107D
102
}
102
{ACAD_REACTORS
330
5DC
102
}
330
5DC
100
AcDbVisualStyle
  2
Conceptual
 70
     9
 71
     3
 72
     2
 73
     0
 90
        0
 40
-0.6
 41
-30.0
 62
     5
 63
     7
421
 16777215
 74
     2
 91
        2
 64
     7
 65
   257
 75
     1
175
     1
 42
179.0
 92
        8
 66
     7
 43
1.0
 76
     1
 77
     6
 78
     2
 67
     7
 79
     3
170
     0
171
     0
290
     0
174
     0
 93
        1
 44
0.0
173
     0
291
     0
 45
0.0
1001
ACAD
1000
AcDbSavedByObjectVersion
1070
     0
  0
VISUALSTYLE
  5
5E7
102
{ACAD_XDICTIONARY
360
1081
102
}
102
{ACAD_REACTORS
330
5DC
102
}
330
5DC
100
AcDbVisualStyle
  2
Dim
 70
    11
 71
     2
 72
     2
 73
     0
 90
        0
 40
-0.6
 41
-30.0
 62
     5
 63
     7
421
 16777215
 74
     1
 91
        4
 64
     7
 65
   257
 75
     1
175
     1
 42
1.0
 92
        8
 66
     7
 43
1.0
 76
     1
 77
     6
 78
     2
 67
     7
 79
     5
170
     0
171
     0
290
     0
174
     0
 93
        1
 44
-50.0
173
     0
291
     1
 45
0.0
1001
ACAD
1000
AcDbSavedByObjectVersion
1070
     0
  0
VISUALSTYLE
  5
5F4
102
{ACAD_XDICTIONARY
360
109B
102
}
102
{ACAD_REACTORS
330
5DC
102
}
330
5DC
100
AcDbVisualStyle
  2
EdgeColorOff
 70
    22
 71
     2
 72
     2
 73
     0
 90
        0
 40
-0.6
 41
-30.0
 62
     5
 63
     7
421
 16777215
 74
     1
 91
        4
 64
     7
 65
   257
 75
     1
175
     1
 42
1.0
 92
        8
 66
     7
 43
1.0
 76
     1
 77
     6
 78
     2
 67
     7
 79
     5
170
     0
171
     0
290
     0
174
     0
 93
        1
 44
0.0
173
     0
291
     1
 45
0.0
1001
ACAD
1000
AcDbSavedByObjectVersion
1070
     0
  0
VISUALSTYLE
  5
5EB
102
{ACAD_XDICTIONARY
360
1089
102
}
102
{ACAD_REACTORS
330
5DC
102
}
330
5DC
100
AcDbVisualStyle
  2
Facepattern
 70
    15
 71
     2
 72
     2
 73
     0
 90
        0
 40
-0.6
 41
-30.0
 62
     5
 63
     7
421
 16777215
 74
     1
 91
        4
 64
     7
 65
   257
 75
     1
175
     1
 42
1.0
 92
        8
 66
     7
 43
1.0
 76
     1
 77
     6
 78
     2
 67
     7
 79
     5
170
     0
171
     0
290
     0
174
     0
 93
        1
 44
0.0
173
     0
291
     1
 45
0.0
1001
ACAD
1000
AcDbSavedByObjectVersion
1070
     0
  0
VISUALSTYLE
  5
5DD
102
{ACAD_XDICTIONARY
360
106D
102
}
102
{ACAD_REACTORS
330
5DC
102
}
330
5DC
100
AcDbVisualStyle
  2
Flat
 70
     0
 71
     2
 72
     1
 73
     1
 90
        2
 40
-0.6
 41
30.0
 62
     5
 63
     7
421
 16777215
 74
     0
 91
        0
 64
     7
 65
   257
 75
     1
175
     1
 42
1.0
 92
        8
 66
     7
 43
1.0
 76
     1
 77
     6
 78
     2
 67
     7
 79
     5
170
     0
171
     0
290
     0
174
     0
 93
       13
 44
0.0
173
     0
291
     1
 45
0.0
1001
ACAD
1000
AcDbSavedByObjectVersion
1070
     0
  0
VISUALSTYLE
  5
5DE
102
{ACAD_XDICTIONARY
360
106F
102
}
102
{ACAD_REACTORS
330
5DC
102
}
330
5DC
100
AcDbVisualStyle
  2
FlatWithEdges
 70
     1
 71
     2
 72
     1
 73
     1
 90
        2
 40
-0.6
 41
30.0
 62
     5
 63
     7
421
 16777215
 74
     1
 91
        0
 64
     7
 65
   257
 75
     1
175
     1
 42
1.0
 92
        0
 66
   257
 43
1.0
 76
     1
 77
     6
 78
     2
 67
     7
 79
     5
170
     0
171
     0
290
     0
174
     0
 93
       13
 44
0.0
173
     0
291
     1
 45
0.0
1001
ACAD
1000
AcDbSavedByObjectVersion
1070
     0
  0
VISUALSTYLE
  5
5DF
102
{ACAD_XDICTIONARY
360
1071
102
}
102
{ACAD_REACTORS
330
5DC
102
}
330
5DC
100
AcDbVisualStyle
  2
Gouraud
 70
     2
 71
     2
 72
     2
 73
     1
 90
        2
 40
-0.6
 41
30.0
 62
     5
 63
     7
421
 16777215
 74
     0
 91
        0
 64
     7
 65
   257
 75
     1
175
     1
 42
1.0
 92
        0
 66
     7
 43
1.0
 76
     1
 77
     6
 78
     2
 67
     7
 79
     5
170
     0
171
     0
290
     0
174
     0
 93
       13
 44
0.0
173
     0
291
     1
 45
0.0
1001
ACAD
1000
AcDbSavedByObjectVersion
1070
     0
  0
VISUALSTYLE
  5
5E0
102
{ACAD_XDICTIONARY
360
1073
102
}
102
{ACAD_REACTORS
330
5DC
102
}
330
5DC
100
AcDbVisualStyle
  2
GouraudWithEdges
 70
     3
 71
     2
 72
     2
 73
     1
 90
        2
 40
-0.6
 41
30.0
 62
     5
 63
     7
421
 16777215
 74
     1
 91
        0
 64
     7
 65
   257
 75
     1
175
     1
 42
1.0
 92
        0
 66
   257
 43
1.0
 76
     1
 77
     6
 78
     2
 67
     7
 79
     5
170
     0
171
     0
290
     0
174
     0
 93
       13
 44
0.0
173
     0
291
     1
 45
0.0
1001
ACAD
1000
AcDbSavedByObjectVersion
1070
     0
  0
VISUALSTYLE
  5
5E4
102
{ACAD_XDICTIONARY
360
107B
102
}
102
{ACAD_REACTORS
330
5DC
102
}
330
5DC
100
AcDbVisualStyle
  2
Hidden
 70
     6
 71
     1
 72
     2
 73
     2
 90
        0
 40
-0.6
 41
-30.0
 62
     5
 63
     7
421
 16777215
 74
     2
 91
        2
 64
     7
 65
   257
 75
     2
175
     1
 42
40.0
 92
        0
 66
   257
 43
1.0
 76
     1
 77
     6
 78
     2
 67
     7
 79
     3
170
     0
171
     0
290
     0
174
     0
 93
        1
 44
0.0
173
     0
291
     0
 45
0.0
1001
ACAD
1000
AcDbSavedByObjectVersion
1070
     0
  0
VISUALSTYLE
  5
5F2
102
{ACAD_XDICTIONARY
360
1097
102
}
102
{ACAD_REACTORS
330
5DC
102
}
330
5DC
100
AcDbVisualStyle
  2
JitterOff
 70
    20
 71
     2
 72
     2
 73
     0
 90
        0
 40
-0.6
 41
-30.0
 62
     5
 63
     7
421
 16777215
 74
     1
 91
        4
 64
     7
 65
   257
 75
     1
175
     1
 42
1.0
 92
       10
 66
     7
 43
1.0
 76
     1
 77
     6
 78
     2
 67
     7
 79
     5
170
     0
171
     0
290
     0
174
     0
 93
        1
 44
0.0
173
     0
291
     1
 45
0.0
1001
ACAD
1000
AcDbSavedByObjectVersion
1070
     0
  0
VISUALSTYLE
  5
5EA
102
{ACAD_XDICTIONARY
360
1087
102
}
102
{ACAD_REACTORS
330
5DC
102
}
330
5DC
100
AcDbVisualStyle
  2
Linepattern
 70
    14
 71
     2
 72
     2
 73
     0
 90
        0
 40
-0.6
 41
-30.0
 62
     5
 63
     7
421
 16777215
 74
     1
 91
        4
 64
     7
 65
   257
 75
     7
175
     7
 42
1.0
 92
        8
 66
     7
 43
1.0
 76
     1
 77
     6
 78
     2
 67
     7
 79
     5
170
     0
171
     0
290
     0
174
     0
 93
        1
 44
0.0
173
     0
291
     1
 45
0.0
1001
ACAD
1000
AcDbSavedByObjectVersion
1070
     0
  0
VISUALSTYLE
  5
5F3
102
{ACAD_XDICTIONARY
360
1099
102
}
102
{ACAD_REACTORS
330
5DC
102
}
330
5DC
100
AcDbVisualStyle
  2
OverhangOff
 70
    21
 71
     2
 72
     2
 73
     0
 90
        0
 40
-0.6
 41
-30.0
 62
     5
 63
     7
421
 16777215
 74
     1
 91
        4
 64
     7
 65
   257
 75
     1
175
     1
 42
1.0
 92
        9
 66
     7
 43
1.0
 76
     1
 77
     6
 78
     2
 67
     7
 79
     5
170
     0
171
     0
290
     0
174
     0
 93
        1
 44
0.0
173
     0
291
     1
 45
0.0
1001
ACAD
1000
AcDbSavedByObjectVersion
1070
     0
  0
VISUALSTYLE
  5
5E6
102
{ACAD_XDICTIONARY
360
107F
102
}
102
{ACAD_REACTORS
330
5DC
102
}
330
5DC
100
AcDbVisualStyle
  2
Realistic
 70
     8
 71
     2
 72
     2
 73
     0
 90
        2
 40
-0.6
 41
30.0
 62
     5
 63
     7
421
 16777215
 74
     0
 91
        0
 64
     7
 65
   257
 75
     1
175
     1
 42
1.0
 92
        8
 66
   257
 43
1.0
 76
     1
 77
     6
 78
     2
 67
     7
 79
     3
170
     0
171
     0
290
     0
174
     0
 93
       13
 44
0.0
173
     0
291
     0
 45
0.0
1001
ACAD
1000
AcDbSavedByObjectVersion
1070
     0
  0
VISUALSTYLE
  5
5F1
102
{ACAD_XDICTIONARY
360
1095
102
}
102
{ACAD_REACTORS
330
5DC
102
}
330
5DC
100
AcDbVisualStyle
  2
Shaded
 70
    27
 71
     2
 72
     2
 73
     1
 90
        2
 40
-0.6
 41
30.0
 62
     5
 63
     7
421
 16777215
 74
     0
 91
        4
 64
     7
 65
   257
 75
     1
175
     1
 42
1.0
 92
        8
 66
   257
 43
1.0
 76
     1
 77
     6
 78
     2
 67
     8
425
  7895160
 79
     3
170
     0
171
     0
290
     0
174
     0
 93
        5
 44
0.0
173
     0
291
     0
 45
0.0
1001
ACAD
1000
AcDbSavedByObjectVersion
1070
     0
  0
VISUALSTYLE
  5
5F0
102
{ACAD_XDICTIONARY
360
1093
102
}
102
{ACAD_REACTORS
330
5DC
102
}
330
5DC
100
AcDbVisualStyle
  2
Shaded with edges
 70
    26
 71
     2
 72
     2
 73
     1
 90
        2
 40
-0.6
 41
30.0
 62
     5
 63
     7
421
 16777215
 74
     1
 91
       10
 64
     7
 65
   257
 75
     2
175
     1
 42
1.0
 92
        8
 66
   257
 43
1.0
 76
     1
 77
     6
 78
     2
 67
     7
 79
     3
170
     0
171
     0
290
     0
174
     0
 93
        5
 44
0.0
173
     0
291
     0
 45
0.0
1001
ACAD
1000
AcDbSavedByObjectVersion
1070
     0
  0
VISUALSTYLE
  5
5ED
102
{ACAD_XDICTIONARY
360
108D
102
}
102
{ACAD_REACTORS
330
5DC
102
}
330
5DC
100
AcDbVisualStyle
  2
Shades of Gray
 70
    23
 71
     2
 72
     2
 73
     3
 90
        0
 40
-0.6
 41
-30.0
 62
     5
 63
     7
421
 16777215
 74
     2
 91
        2
 64
     7
 65
     7
 75
     1
175
     1
 42
40.0
 92
        8
 66
     7
 43
1.0
 76
     1
 77
     6
 78
     2
 67
     7
 79
     3
170
     0
171
     0
290
     0
174
     0
 93
        1
 44
0.0
173
     0
291
     0
 45
0.0
1001
ACAD
1000
AcDbSavedByObjectVersion
1070
     0
  0
VISUALSTYLE
  5
5EE
102
{ACAD_XDICTIONARY
360
108F
102
}
102
{ACAD_REACTORS
330
5DC
102
}
330
5DC
100
AcDbVisualStyle
  2
Sketchy
 70
    24
 71
     1
 72
     2
 73
     2
 90
        0
 40
-0.6
 41
-30.0
 62
     5
 63
     7
421
 16777215
 74
     2
 91
        2
 64
     7
 65
     7
 75
     1
175
     1
 42
40.0
 92
       11
 66
     7
 43
1.0
 76
     1
 77
     6
 78
     2
 67
     7
 79
     6
170
     0
171
     0
290
     0
174
     0
 93
        1
 44
0.0
173
     0
291
     0
 45
0.0
1001
ACAD
1000
AcDbSavedByObjectVersion
1070
     0
  0
VISUALSTYLE
  5
5E9
102
{ACAD_XDICTIONARY
360
1085
102
}
102
{ACAD_REACTORS
330
5DC
102
}
330
5DC
100
AcDbVisualStyle
  2
Thicken
 70
    13
 71
     2
 72
     2
 73
     0
 90
        0
 40
-0.6
 41
-30.0
 62
     5
 63
     7
421
 16777215
 74
     1
 91
        4
 64
     7
 65
   257
 75
     1
175
     1
 42
1.0
 92
       12
 66
     7
 43
1.0
 76
     1
 77
     6
 78
     2
 67
     7
 79
     5
170
     0
171
     0
290
     0
174
     0
 93
        1
 44
0.0
173
     0
291
     1
 45
0.0
1001
ACAD
1000
AcDbSavedByObjectVersion
1070
     0
  0
VISUALSTYLE
  5
5E3
102
{ACAD_XDICTIONARY
360
1079
102
}
102
{ACAD_REACTORS
330
5DC
102
}
330
5DC
100
AcDbVisualStyle
  2
Wireframe
 70
     5
 71
     0
 72
     2
 73
     0
 90
        0
 40
-0.6
 41
-30.0
 62
     5
 63
     7
421
 16777215
 74
     1
 91
        4
 64
     7
 65
   257
 75
     1
175
     1
 42
1.0
 92
        0
 66
   257
 43
1.0
 76
     1
 77
     6
 78
     2
 67
     7
 79
     3
170
     0
171
     0
290
     0
174
     0
 93
        1
 44
0.0
173
     0
291
     0
 45
0.0
1001
ACAD
1000
AcDbSavedByObjectVersion
1070
     0
  0
VISUALSTYLE
  5
5EF
102
{ACAD_XDICTIONARY
360
1091
102
}
102
{ACAD_REACTORS
330
5DC
102
}
330
5DC
100
AcDbVisualStyle
  2
X-Ray
 70
    25
 71
     2
 72
     2
 73
     1
 90
        1
 40
0.5
 41
-30.0
 62
     5
 63
     7
421
 16777215
 74
     1
 91
        0
 64
     7
 65
   257
 75
     1
175
     1
 42
1.0
 92
        8
 66
     7
 43
1.0
 76
     1
 77
     6
 78
     2
 67
     7
 79
     3
170
     0
171
     0
290
     0
174
     0
 93
       13
 44
0.0
173
     0
291
     0
 45
0.0
1001
ACAD
1000
AcDbSavedByObjectVersion
1070
     0
  0
DICTIONARYVAR
  5
68E
102
{ACAD_REACTORS
330
125
102
}
330
125
100
DictionaryVariables
280
     0
  1
1:1
  0
DICTIONARYVAR
  5
68B
102
{ACAD_REACTORS
330
125
102
}
330
125
100
DictionaryVariables
280
     0
  1
STANDARD
  0
DICTIONARYVAR
  5
68A
102
{ACAD_REACTORS
330
125
102
}
330
125
100
DictionaryVariables
280
     0
  1
STANDARD
  0
DICTIONARYVAR
  5
68C
102
{ACAD_REACTORS
330
125
102
}
330
125
100
DictionaryVariables
280
     0
  1
Imperial24
  0
DICTIONARYVAR
  5
68D
102
{ACAD_REACTORS
330
125
102
}
330
125
100
DictionaryVariables
280
     0
  1
Imperial24
  0
DICTIONARYVAR
  5
126
102
{ACAD_REACTORS
330
125
102
}
330
125
100
DictionaryVariables
280
     0
  1
1
  0
DICTIONARYVAR
  5
127
102
{ACAD_REACTORS
330
125
102
}
330
125
100
DictionaryVariables
280
     0
  1

  0
DICTIONARY
  5
6B0
330
21
100
AcDbDictionary
280
     1
281
     1
  3
ADSK_XREC_LAYOUTTHUMBNAIL
360
6B1
  0
DICTIONARY
  5
5CD
330
5CC
100
AcDbDictionary
280
     1
281
     1
  3
ACAD_XREC_ROUNDTRIP
360
106B
  3
BUMPTILE
360
5CF
  3
DIFFUSETILE
360
5CE
  3
OPACITYTILE
360
5D2
  3
REFLECTIONTILE
360
5D1
  3
REFRACTIONTILE
360
5D3
  3
SPECULARTILE
360
5D0
  0
DICTIONARY
  5
5C5
330
5C4
100
AcDbDictionary
280
     1
281
     1
  3
ACAD_XREC_ROUNDTRIP
360
106A
  3
BUMPTILE
360
5C7
  3
DIFFUSETILE
360
5C6
  3
OPACITYTILE
360
5CA
  3
REFLECTIONTILE
360
5C9
  3
REFRACTIONTILE
360
5CB
  3
SPECULARTILE
360
5C8
  0
DICTIONARY
  5
5D5
330
5D4
100
AcDbDictionary
280
     1
281
     1
  3
ACAD_XREC_ROUNDTRIP
360
106C
  3
BUMPTILE
360
5D7
  3
DIFFUSETILE
360
5D6
  3
OPACITYTILE
360
5DA
  3
REFLECTIONTILE
360
5D9
  3
REFRACTIONTILE
360
5DB
  3
SPECULARTILE
360
5D8
  0
DICTIONARY
  5
109E
330
60A
100
AcDbDictionary
280
     1
281
     1
  3
ACAD_XREC_ROUNDTRIP
360
109F
  0
DICTIONARY
  5
64D
330
5F6
100
AcDbDictionary
280
     1
281
     1
  3
ACAD_ROUNDTRIP_2008_TABLESTYLE_CELLSTYLEMAP
360
1068
  3
ACAD_XREC_ROUNDTRIP
360
109D
  0
DICTIONARY
  5
1077
330
5E2
100
AcDbDictionary
280
     1
281
     1
  3
ACAD_XREC_ROUNDTRIP
360
1078
  0
DICTIONARY
  5
1075
330
5E1
100
AcDbDictionary
280
     1
281
     1
  3
ACAD_XREC_ROUNDTRIP
360
1076
  0
DICTIONARY
  5
1083
330
5E8
100
AcDbDictionary
280
     1
281
     1
  3
ACAD_XREC_ROUNDTRIP
360
1084
  0
DICTIONARY
  5
108B
330
5EC
100
AcDbDictionary
280
     1
281
     1
  3
ACAD_XREC_ROUNDTRIP
360
108C
  0
DICTIONARY
  5
107D
330
5E5
100
AcDbDictionary
280
     1
281
     1
  3
ACAD_XREC_ROUNDTRIP
360
107E
  0
DICTIONARY
  5
1081
330
5E7
100
AcDbDictionary
280
     1
281
     1
  3
ACAD_XREC_ROUNDTRIP
360
1082
  0
DICTIONARY
  5
109B
330
5F4
100
AcDbDictionary
280
     1
281
     1
  3
ACAD_XREC_ROUNDTRIP
360
109C
  0
DICTIONARY
  5
1089
330
5EB
100
AcDbDictionary
280
     1
281
     1
  3
ACAD_XREC_ROUNDTRIP
360
108A
  0
DICTIONARY
  5
106D
330
5DD
100
AcDbDictionary
280
     1
281
     1
  3
ACAD_XREC_ROUNDTRIP
360
106E
  0
DICTIONARY
  5
106F
330
5DE
100
AcDbDictionary
280
     1
281
     1
  3
ACAD_XREC_ROUNDTRIP
360
1070
  0
DICTIONARY
  5
1071
330
5DF
100
AcDbDictionary
280
     1
281
     1
  3
ACAD_XREC_ROUNDTRIP
360
1072
  0
DICTIONARY
  5
1073
330
5E0
100
AcDbDictionary
280
     1
281
     1
  3
ACAD_XREC_ROUNDTRIP
360
1074
  0
DICTIONARY
  5
107B
330
5E4
100
AcDbDictionary
280
     1
281
     1
  3
ACAD_XREC_ROUNDTRIP
360
107C
  0
DICTIONARY
  5
1097
330
5F2
100
AcDbDictionary
280
     1
281
     1
  3
ACAD_XREC_ROUNDTRIP
360
1098
  0
DICTIONARY
  5
1087
330
5EA
100
AcDbDictionary
280
     1
281
     1
  3
ACAD_XREC_ROUNDTRIP
360
1088
  0
DICTIONARY
  5
1099
330
5F3
100
AcDbDictionary
280
     1
281
     1
  3
ACAD_XREC_ROUNDTRIP
360
109A
  0
DICTIONARY
  5
107F
330
5E6
100
AcDbDictionary
280
     1
281
     1
  3
ACAD_XREC_ROUNDTRIP
360
1080
  0
DICTIONARY
  5
1095
330
5F1
100
AcDbDictionary
280
     1
281
     1
  3
ACAD_XREC_ROUNDTRIP
360
1096
  0
DICTIONARY
  5
1093
330
5F0
100
AcDbDictionary
280
     1
281
     1
  3
ACAD_XREC_ROUNDTRIP
360
1094
  0
DICTIONARY
  5
108D
330
5ED
100
AcDbDictionary
280
     1
281
     1
  3
ACAD_XREC_ROUNDTRIP
360
108E
  0
DICTIONARY
  5
108F
330
5EE
100
AcDbDictionary
280
     1
281
     1
  3
ACAD_XREC_ROUNDTRIP
360
1090
  0
DICTIONARY
  5
1085
330
5E9
100
AcDbDictionary
280
     1
281
     1
  3
ACAD_XREC_ROUNDTRIP
360
1086
  0
DICTIONARY
  5
1079
330
5E3
100
AcDbDictionary
280
     1
281
     1
  3
ACAD_XREC_ROUNDTRIP
360
107A
  0
DICTIONARY
  5
1091
330
5EF
100
AcDbDictionary
280
     1
281
     1
  3
ACAD_XREC_ROUNDTRIP
360
1092
  0
XRECORD
  5
6B1
102
{ACAD_REACTORS
330
6B0
102
}
330
6B0
100
AcDbXrecord
280
     1
310
280000000001000096000000010008000000000000960000010000000100000000010000000000000000000000000000C8C8C8FF000000FF000000FF000000FF000000FF000000FF000000FF000000FF000000FF330000FF660000FF990000FFCC0000FFFF0000FF003300FF333300FF663300FF993300FFCC3300FFFF3300
310
FF006600FF336600FF666600FF996600FFCC6600FFFF6600FF009900FF339900FF669900FF999900FFCC9900FFFF9900FF00CC00FF33CC00FF66CC00FF99CC00FFCCCC00FFFFCC00FF00FF00FF33FF00FF66FF00FF99FF00FFCCFF00FFFFFF00FF000033FF330033FF660033FF990033FFCC0033FFFF0033FF003333FF3333
310
33FF663333FF993333FFCC3333FFFF3333FF006633FF336633FF666633FF996633FFCC6633FFFF6633FF009933FF339933FF669933FF999933FFCC9933FFFF9933FF00CC33FF33CC33FF66CC33FF99CC33FFCCCC33FFFFCC33FF00FF33FF33FF33FF66FF33FF99FF33FFCCFF33FFFFFF33FF000066FF330066FF660066FF99
310
0066FFCC0066FFFF0066FF003366FF333366FF663366FF993366FFCC3366FFFF3366FF006666FF336666FF666666FF996666FFCC6666FFFF6666FF009966FF339966FF669966FF999966FFCC9966FFFF9966FF00CC66FF33CC66FF66CC66FF99CC66FFCCCC66FFFFCC66FF00FF66FF33FF66FF66FF66FF99FF66FFCCFF66FF
310
FFFF66FF000099FF330099FF660099FF990099FFCC0099FFFF0099FF003399FF333399FF663399FF993399FFCC3399FFFF3399FF006699FF336699FF666699FF996699FFCC6699FFFF6699FF009999FF339999FF669999FF999999FFCC9999FFFF9999FF00CC99FF33CC99FF66CC99FF99CC99FFCCCC99FFFFCC99FF00FF99
310
FF33FF99FF66FF99FF99FF99FFCCFF99FFFFFF99FF0000CCFF3300CCFF6600CCFF9900CCFFCC00CCFFFF00CCFF0033CCFF3333CCFF6633CCFF9933CCFFCC33CCFFFF33CCFF0066CCFF3366CCFF6666CCFF9966CCFFCC66CCFFFF66CCFF0099CCFF3399CCFF6699CCFF9999CCFFCC99CCFFFF99CCFF00CCCCFF33CCCCFF66CC
310
CCFF99CCCCFFCCCCCCFFFFCCCCFF00FFCCFF33FFCCFF66FFCCFF99FFCCFFCCFFCCFFFFFFCCFF0000FFFF3300FFFF6600FFFF9900FFFFCC00FFFFFF00FFFF0033FFFF3333FFFF6633FFFF9933FFFFCC33FFFFFF33FFFF0066FFFF3366FFFF6666FFFF9966FFFFCC66FFFFFF66FFFF0099FFFF3399FFFF6699FFFF9999FFFFCC
310
99FFFFFF99FFFF00CCFFFF33CCFFFF66CCFFFF99CCFFFFCCCCFFFFFFCCFFFF00FFFFFF33FFFFFF66FFFFFF99FFFFFFCCFFFFFFFFFFFFFF000000FF0D0D0DFF1A1A1AFF282828FF353535FF434343FF505050FF5D5D5DFF6B6B6BFF787878FF868686FF939393FFA1A1A1FFAEAEAEFFBBBBBBFFC9C9C9FFD6D6D6FFE4E4E4FF
310
F1F1F1FFFFFFFFFF000000FF000000FF000000FF000000FF000000FF000000FF000000FF000000FF000000FF000000FF00000000000000000000000000000000000000000000000000000000000000000000000000000000000000000000000000000000000000000000000000000000000000000000000000000000000000
310
00000000000000000000000000000000000000000000000000000000000000000000000000000000000000000000000000000000000000000000000000000000000000000000000000000000000000000000000000000000000000000000000000000000000000000000000000000000000000000000000000000000000000
310
000000000000000000000000000000000000000000000000000000000000000000000000000000000000000000000000000000000000000000000000000000000000000000000000DCDCDCDCDCDCDCDCDCDCDCDCDCDCDCDCDCDCDCDCDCDCDCDCDCDCDCDCDCDCDCDCDCDCDCDCDCDCDCDCDCDCDCDCDCDCDCDCDCDCDCDCDCDCDC
310
DCDCDCDCDCDCDCDCDCDCDCDCDCDCDCDCDCDCDCDCDCDCDCDCDCDCDCDCDCDCDCDCDCDCDCDCDCDCDCDCDCDCDCDCDCDCDCDCDCDCDCDCDCDCDCDCDCDCDCDCDCDCDCDCDCDCDCDCDCDCDCDCDCDCDCDCDCDCDCDCDCDCDCDCDCDCDCDCDCDCDCDCDCDCDCDCDCDCDCDCDCDCDCDCDCDCDCDCDCDCDCDCDCDCDCDCDCDCDCDCDCDCDCDCDCDCDC
310
DCDCDCDCDCDCDCDCDCDCDCDCDCDCDCDCDCDCDCDCDCDCDCDCDCDCDCDCDCDC0000000000000000000000000000000000000000000000000000000000000000000000000000000000000000DC00000000000000000000000000000000000000000000000000000000000000000000000000000000000000000000000000000000
310
000000000000000000000000000000000000000000000000000000000000000000000000000000000000000000000000000000000000000000000000000000F5000000000000000000000000000000000000000000000000000000000000000000000000000000000000000000000000000000000000000000000000000000
310
00000000000000000000000000000000000000000000000000000000000000DC0000000000000000000000000000000000000000000000000000000000000000000000000000000000000000DC0000000000000000002828282828282828282828282828282828282828282828282828282828282828282828282828282828
310
28282828282828282828282828282828282828282828282828282828282828282828282828282828282828282828282828282828282828282828282828282828282828282828282828282828282828282828282828282828282828282828282828282828282828282828282828282828282828282828282828282828282828
310
282828282828282828282828282828282828282828282828282828282828280000DC0000000000000000000000000000000000000000000000000000000000000000000000000000000000000000DC000000000000000000280000000000000000000000000000000000000000000000000000000000000000000000000000
310
00000000000000000000000000000000000000000000000000000000000000000000000000000000000000000000000000000000000000000000000000000000000000000028F5F500BE0000000000000000000000BE00000000BE000000000028000000000000000000000000000000000000000028DCDCDCDCDCDCDCDCDC
310
DCDCDCDCDCDCDCDCDCDCDCDCDCDCDCDCDCDCDCDCDCDCDCDCDCDCDCDCDCDCDCDC28F5F5DC0000000000000000000000000000000000000000000000000000000000000000000000000000000000000000DC00000000000000000028000000000000000000000000000000000000000000000000000000000000000000000000
310
000000000000000000000000000000000000000000000000000000000000000000000000000000000000000000000000000000000000000000000000000000000000000000000028F5F500BE000000F5F5F5F5F5F50000BE00F5F5F5BEF5F5F5F5F52800282828282828280028000028282828282800002800000000000000
310
0000000000000000000000000000000000000000000000000000000000000000000028F5F5DC0000000000000000000000000000000000000000000000000000000000000000000000000000000000000000DC0000000000000000002800000000000000000000000000000000000000000000000000000000000000000000
310
0000000000000000000000000000000000000000000000000000000000000000000000000000000000000000000000000000000000000000000000000000000000000000000000000028F5F500BE000000F5F5F5F5F5F50000BE00F5F5F5BEF5F5F5F5F5280028280028282828282800002800282828282800280000000000
310
00000000000000000000000000000000000000000000000000000000000000000000000028F5F5DC0000000000000000000000000000000000000000000000000000000000000000000000000000000000000000DC000000000000000000280000000000000000000000000000000000000000000000000000000000000000
310
00000000000000000000000000000000000000000000000000000000000000000000000000000000000000000000000000000000000000000000000000000000000000000000000000000028F5F500BE0000000000000000000000BE00000000BE000000000028002828282800002828282828282828000028280028000000
310
000000000000000000000000000000000000000000000000000000000000000000000000000028F5F5DC0000000000000000000000000000000000000000000000000000000000000000000000000000000000000000DC00000000000000000028000000000000000000000000000000000000000000000000000000000000
310
000000000000000000000000000000000000000000000000000000000000000000000000000000000000000000000000000000000000000000000000000000000000000000000000000000000028282828282828282828282828282828282828282828282828282828002828002828002828280000280028280028280028F5
310
F5F5F5F5F5F5F5F5F50000000000000000000000000000000000000000000000000000000000000028F5F5DC0000000000000000000000000000000000000000000000000000000000000000000000000000000000000000DC0000000000000000002800000000000000000000000000000000000000000000000000000000
310
0000000000000000000000000000000000000000000000000000000000000000000000000000000000000000000000000000000000000000000000000000000000000000000000000000000000000028F5F500F5F5F5F5F5F5F5F5F5F5F5F5F5F5F5F5F5F500F5F5F500280028280028282828002828282800282828280000
310
28F5F5F5F5F5F5F5F5F5F50000000000000000000000000000000000000000000000000000000000000028F5F5DC0000000000000000000000000000000000000000000000000000000000000000000000000000000000000000DC000000000000000000280000000000000000000000000000000000000000000000000000
310
000000000000000000000000000000000000000000000000000000000000000000000000000000000000000000000000000000000000000000000000000000000000000000000000000000000000000000DCDCF5DCF5F5F5F5F5F5F5F5F5F5F5F5F5F5F5F5F5F5DCF5DCF5DC28282828282828282828282828282828282828
310
282828282828282828282828282828282828282828282828282828282828282828282828282828282828282828F5F5DC0000000000000000000000000000000000000000000000000000000000000000000000000000000000000000DC00000000000000000028000000000000000000000000000000000000000000000000
310
000000000000000000000000000000000000000000000000000000000000000000000000000000000000000000000000000000000000000000000000000000000000000000000000000000000000000000000028F5F500BEF5F5F5F5F5F5F5F5F5F5F5BEF5F5F5F5F500F5F5F50028F5F5F5BEF5F5F5F5F5F5BE0000F5F5F5
310
F500000028F5F5F5F5F5F5F5F5F5F5F500000000000000000000002800000000000000000000000000000000000028F5F5DC0000000000000000000000000000000000000000000000000000000000000000000000000000000000000000DC0000000000000000002800000000000000000000000000000000000000000000
310
0000000000000000000000000000000000000000000000000000000000000000000000000000000000000000000000000000000000000000000000000000000000000000000000000000000000000000000000000028F5F500BEF5F5F5F5F5F5F5F5F5F5F5BEF5F5F5F5F500F5F5F50028F5F5F5BEF5F5F5F5F5F5BE0000F5
310
F5F5F500000028F5F5F5F5F5F5F5F5F5F5F500000000000000000000002800000000000000000000000000000000000028F5F5DC0000000000000000000000000000000000000000000000000000000000000000000000000000000000000000DC000000000000000000280000000000000000000000000000000000000000
310
000000000000000000000000000000000000000000000000000000000000000000000000000000000000000000000000000000000000000000000000000000000000000000000000000000000000000000000000000000DCDCDCDCDCDCDCDCDCDCDCDCDCDCDCDCDCDCDCDCDCDCDCDCDCDCDCDCDCDCDCDCDCDCDCDCDCDCDCDC
310
DCDCDCDCDCDCDCDC28DCDCDCDCDCDCDCDCDCDCDCDCDCDCDCDCDCDCDCDCDC0028F5F5F5F5F5F500F5F5F5F5F500000000000028F5F5DC0000000000000000000000000000000000000000000000000000000000000000000000000000000000000000DC00000000000000000028000000000000000000000000000000000000
310
000000000000000000000000000000000000000000000000000000000000000000000000000000000000000000000000000000000000000000000000000000000000000000000000000000000000000000000000000000000028000000BE0000000000000000000000BE00000000BE000000000028F5F5F5BEF5F5F5F5F5F5
310
BE0000F5F5F5F500000028F5F5F5F5F5F5F5F5F500F5F5F5F5F5F5F5F5F500000028F5F5F5F5F5F5F5F5F5F5F5F500000000000028F5F5DC0000000000000000000000000000000000000000000000000000000000000000000000000000000000000000DC0000000000000000002800000000000000000000000000000000
310
00000000000000000000000000000000000000000000000000000000000000000000000000000000000000000000000000000000000000000000000000000000000000000000000000000000000000000000000000000000000000DCDCDCDCDCDCDCDCDCDCDCDCDCDCDCDCDCDCDCDCDCDCDCDCDCDCDCDCDCDCDCDCF5F5F5F5
310
F5F5DCDCDCDCF5F5F5DCDCDC28DCDCDCDCDCDCDCDCDCDCDCDCDCDCDCF5DCDCDCDCDC00BEBEBEBEBEBEBEBEBEBEBEBEBEBEBEBEBEBEBEBEF5F5DC0000000000000000000000000000000000000000000000000000000000000000000000000000000000000000DC000000000000000000280000000000000000000000000000
310
00000000000000000000000000000000000000000000000000000000000000000000000000000000000000000000000000000000000000000000000000000000000000000000000000000000000000000000000000000000000000000028000000BE0000000000000000000000BE00000000BE000000000028F5F500BE00F5
310
F5F5F500BE0000F5F5F5F500000028F5F5F500F5F5F5F5F5F5F5F5F5F5F5F50000000000002800BEBEBEBEBEBEBEBEBEBEBEBEBEBE00000028F5F5DC0000000000000000000000000000000000000000000000000000000000000000000000000000000000000000DC00000000000000000028000000000000000000000000
310
000000000000000000000000000000000000000000000000000000000000000000000000000000000000000000000000000000000000000000000000000000000000000000000000000000000000000000000000000000000000000000000028000000BE0000000000000000000000BE00000000BE000000000028F5F500BE
310
00F5F5F5F500BE0000F5F5F5F500000028F5F5F5F5F5F5F5F5F5F5F5F5F5F5F5F50000000000002800BE00BEBEBEBEBEBEBEBEBEBE00BE00000028F5F5DC0000000000000000000000000000000000000000000000000000000000000000000000000000000000000000DC0000000000000000002800000000000000000000
310
00000000000000000000000000000000000000000000000000000000000000000000000000000000000000000000000000000000000000000000000000000000000000000000000000000000000000000000000000000000000000000000000000DCDCDCDCDCDCDCDCDCDCDCDCDCDCDCDCDCDCDCDCDCDCDCDCDCDCDCDCDCDC
310
DCDCDCDCDCDCDCDCDCDCDCDCDCDCDCDCDCDC28F5F5DCF5F5F5F5F5F5F5F5F5F5F5F5F5F5DCDCDCDC002800BEBEBEBEBEBEBEBEBEBEBE0000BE00000028F5F5DC0000000000000000000000000000000000000000000000000000000000000000000000000000000000000000DC000000000000000000280000000000000000
310
00000000000000000000000000000000000000000000000000000000000000000000000000000000000000000000000000000000000000000000000000000000000000000000000000000000000000000000000000000000000000000000000000000028000000BE0000000000000000000000BE00000000BE000000000028
310
F5F5F5BE00F5F5F50000BE0000F5F5F5F500000028F5F5F5F5F5F5F5F5F5F5F5F5F5F5F5F5F5000000000028F5F5F5F5F500F5F5F500000000000000000028F5F5DC0000000000000000000000000000000000000000000000000000000000000000000000000000000000000000DC00000000000000000028000000000000
310
0000000000000000000000000000000000000000000000000000000000000000000000000000000000000000000000000000000000000000000000000000000000000000000000000000000000000000000000000000000000000000000000000000000000DCDCDCDCDCDCDCDCDCDCDCDCDCDCDCDCDCDCDCDCDCDCDCDCDCDC
310
DC28282828282828282828282828282828282828282828F5F528F5F528F5F52828F52828F5F5F5F528282828282828282828282828282828282828282828282828F5F5DC0000000000000000000000000000000000000000000000000000000000000000000000000000000000000000DC0000000000000000002800000000
310
0000000000000000000000000000000000000000000000000000000000000000000000000000000000000000000000000000000000000000000000000000000000000000000000000000000000000000000000000000000000000000000000000000000000000028000000BE0000000000000000000000BE00000000BE0000
310
0000002800000000000000000000BE00000000000000000028DCDCDCDCDCDCDCDCDCDCDCDCDCDCDCDCDCDCDCDCDC0028DCDCDCDCDCDCDCDCDCDCDCDCDCDCDCDCDCDC28F5F5DC0000000000000000000000000000000000000000000000000000000000000000000000000000000000000000DC000000000000000000280000
310
00000000000000000000000000000000000000000000000000000000000000000000000000000000000000000000000000000000000000000000000000000000000000000000000000000000000000000000000000000000000000000000000000000000000000000028000000BE0000000000000000000000BE00000000BE
310
000000000028000000BEBEBE00000000BE00000000000000000028BEBEBEBEBEBEBEBEBEBEBEBE00BEBEBEBEBEBEBE00002800BEBE00BEBEBEBEBEBEBEBEBEBEBE00000028F5F5DC0000000000000000000000000000000000000000000000000000000000000000000000000000000000000000DC00000000000000000028
310
0000000000000000000000000000000000000000000000000000000000000000000000000000000000000000000000000000000000000000000000000000000000000000000000000000000000000000000000000000000000000000000000000000000000000000000000DCDCDCDCDCDCDCDCDCDCDCDCDCDCDCDCDCDCDCDC
310
DCDCDCDCDCDCDCDC000000BE00BE00000000F5F5F5F5F5F5F5F5F5F52800BEBEBEBEBEBEBEBEBEBEBE00BEBEBEBEBEBEBE00002800BE00BEBEBEBEBEBEBEBEBEBEBEBE00000028F5F5DC0000000000000000000000000000000000000000000000000000000000000000000000000000000000000000DC0000000000000000
310
0028000000000000000000000000000000000000000000000000000000000000000000000000000000000000000000000000000000000000000000000000000000000000000000000000000000000000000000000000000000000000000000000000000000000000000000000028000000BE0000000000000000000000BE00
310
000000BE0000000000280000BEBEBEBE00000000F5F5F5F5F5F5F5F5F5F52800BEBEBE0000BEBE000000BE00BEBEBEBEBEBEBE00002800BEBEBEBEBEBEBEBEBEBEBE00BEBE00000028F5F5DC0000000000000000000000000000000000000000000000000000000000000000000000000000000000000000DC000000000000
310
000000280000000000000000000000000000000000000000000000000000000000000000000000000000000000000000000000000000000000000000000000000000000000000000000000000000000000000000000000000000000000000000000000000000000000000000000000DCDCDCDCDCDCDCDCDCDCDCDCDCDCDCDC
310
DCDCDCDCDCDCDCDCDCDCDCDC00000000000000000000BE00000000000000000028000000000000000000000000000000000000000000002800000000000000000000000000000000000028F5F5DC0000000000000000000000000000000000000000000000000000000000000000000000000000000000000000DC00000000
310
000000000028000000000000000000000000000000000000000000000000000000000000000000000000000000000000000000000000000000000000000000000000000000000000000000000000000000000000000000000000000000000000000000000000000000000000000000000028000000BE000000000000000000
310
0000BE00000000BE00000000002800F5F5F5F5F5F5000000BEF5F5F5F5F5F5F5000028F5F5F5F5F5F5F5F5F50000000000000000000000000028F5F5F5F5F5F5F5F5F5F5F5F500000000000028F5F5DC0000000000000000000000000000000000000000000000000000000000000000000000000000000000000000DC0000
310
0000000000000028000000000000000000000000000000000000000000000000000000000000000000000000000000000000000000000000000000000000000000000000000000000000000000000000000000000000000000000000000000000000000000000000000000000000000000000028000000BE00000000000000
310
00000000BE00000000BE00000000002800F5F5F5F5F5F5000000BEF5F5F500F5F5F5000028F5F5F5F5F5F5F5F5F50000000000000000000000000028F5F5F5F5F5F5F5F5F5F5F5F500000000000028F5F5DC0000000000000000000000000000000000000000000000000000000000000000000000000000000000000000DC
310
00000000000000000028000000000000000000000000000000000000000000000000000000000000000000000000000000000000000000000000000000000000000000000000000000000000000000000000000000000000000000000000000000000000000000000000000000000000000000000028282828282828282828
310
282828282828282828282828282828282828282828282828282828282828282828282828282828282828282828282828282828282828282828282828282828282828282828282828282828282828282828F5F5DC00000000000000000000000000000000000000000000000000000000000000000000000000000000000000
310
00DC00000000000000000028000000000000000000000000000000000000000000000000000000000000000000000000000000000000000000000000000000000000000000000000000000000000000000000000000000000000000000000000000000000000000000000000000000000000000000000000F5F5F5F5F500F5
310
F5F5F5F5F5F5F5F5F5F5F5F5F5F5F50000000000000000000000000000000000000000000000000000000000000000000000000000000000000000000000000000000000000000000000000000000000000028F5F5DC0000000000000000000000000000000000000000000000000000000000000000000000000000000000
310
000000DC00000000000000000028000000000000000000000000000000000000000000000000000000000000000000000000000000000000000000000000000000000000000000000000000000000000000000000000000000000000000000000000000000000000000000000000000000000000000000000000F500F5F5F5
310
0000F5F5F5F5F5F5F5F5F5F5F5F5F5F5000000000000000000000000000000000000000000000000000000000000000000000000000000000000000000000000000000000000000000000000000000000000000028F5F5DC000000000000000000000000000000000000000000000000000000000000000000000000000000
310
0000000000DC00000000000000000028000000000000000000000000000000000000000000000000000000000000000000000000000000000000000000000000000000000000000000000000000000000000000000000000000000000000000000000000000000000000000000000000000000000000000000000000000000
310
000000000000000000000000000000000000000000000000000000000000000000000000000000000000000000000000000000000000000000000000000000000000000000000000000000000000000000000000000028F5F5DC00000000000000000000000000000000000000000000000000000000000000000000000000
310
00000000000000DC0000000000000000002800000000000000000000000000000000000000000000000000000000000000000000000000000000000000000000000000000000000000000000000000000000000000000000000000000000000000000000000000000000000000000000000000000000000000000000000000
310
0000000000000000000000000000000000000000000000000000000000000000000000000000000000000000000000000000000000000000000000000000000000000000000000000000000000000000000000000000000028F5F5DC0000000000000000000000000000000000000000000000000000000000000000000000
310
000000000000000000DC000000000000000000280000000000000000000000000000000000000000000000000000000000000000000000000000000000000000000000000000000000000000000000000000000000000000000000000000000000000000000000000000000000000000000000000000000000000000000000
310
0000000000000000000000000000000000BEBEBEBEBEBEBEBEBEBEBEBEBEBEBE0000BEBEBEBEBEBEBEBEBEBEBEBE00BEBEBEBEBEBEBEBEBE00BEBEBEBEBEBE0000BEBEBEBEBEBEBEBEBEBE00BEBEBEBEBEBEBEBEBEBE0000000028F5F5DC000000000000000000000000000000000000000000000000000000000000000000
310
0000000000000000000000DC00000000000000000028000000000000000000000000000000000000000000000000000000000000000000000000000000000000000000000000000000000000000000000000000000000000000000000000000000000000000000000000000000000000000000000000000000000000000000
310
00000000000000000000000000000000000000BEBEBEBEBEBEBEBEBEBEBEBEBEBEBE0000BEBEBEBEBEBEBEBEBEBEBEBEBEBEBEBEBEBEBEBEBEBEBEBEBEBEBEBEBEBE00BEBEBEBEBEBEBEBEBEBE00BEBEBEBE00BEBEBEBEBE0000000028F5F5DC00000000000000000000000000000000000000000000000000000000000000
310
00000000000000000000000000DC0000000000000000002800000000000000000000000000000000000000000000000000000000000000000000000000000000000000000000000000000000000000000000000000000000000000000000000000000000000000000000000000000000000000000000000000000000000000
310
000000000000000000000000000000000000000000BEBE000000BEBE00BEBE000000000000BEBE000000BE000000000000BE00BEBE0000BEBE00000000BEBEBEBEBEBEBE00BEBEBE00BE000000000000BEBEBEBEBEBEBEBEBE000000000028F5F5DC0000000000000000000000000000000000000000000000000000000000
310
000000000000000000000000000000DC000000000000000000280000000000000000000000000000000000000000000000000000000000000000000000000000000000000000000000000000000000000000000000000000000000000000000000000000000000000000000000000000000000000000000000000000000000
310
000000000000000000000000000000000000000000000000000000000000000000000000000000BEBEBEBEBEBEBEBE00BEBE00BEBE00BEBEBEBEBEBE00BEBEBEBE00BEBEBEBEBE0000000000000000000000000000000000000000000000000028F5F5DC000000000000000000000000000000000000000000000000000000
310
0000000000000000000000000000000000DC00000000000000000028000000000000000000000000000000000000000000000000000000000000000000000000000000000000000000000000000000000000000000000000000000000000000000000000000000000000000000000000000000000000000000000000000000
310
0000000000000000000000000000000000000000000000000000000000000000000000000000000000BEBEBEBEBEBEBEBE00BEBE00BE00BEBEBEBEBEBEBE00BEBEBEBE00BEBEBEBEBE0000000000000000000000000000000000000000000000000028F5F5DC00000000000000000000000000000000000000000000000000
310
00000000000000000000000000000000000000DC0000000000000000002800000000000000000000000000000000000000000000000000000000000000000000000000000000000000000000000000000000000000000000000000000000000000000000000000000000000000000000000000000000000000000000000000
310
0000000000000000000000000000000000000000000000000000000000000000000000000000000000000000BEBEBEBEBEBEBE00BEBE00BEBEBEBEBEBEBEBEBE00BEBEBEBEBEBEBEBEBEBE0000000000000000000000000000000000000000000000000028F5F5DC0000000000000000000000000000000000000000000000
310
000000000000000000000000000000000000000000DC000000000000000000280000000000000000000000000000000000000000000000000000000000000000000000000000000000000000000000000000000000000000000000000000000000000000000000000000000000000000000000000000000000000000000000
310
000000000000000000000000000000000000000000000000000000000000000000BEBEBEBEBEBEBEBEBEBEBE00BEBEBEBEBEBE00BE00BE00BEBE00BEBEBEBEBEBEBEBEBEBE00BEBE00BEBEBE00BEBEBEBEBE000000000000000000000000000000000000000028F5F5DC000000000000000000000000000000000000000000
310
0000000000000000000000000000000000000000000000DC00000000000000000028000000000000000000000000000000000000000000000000000000000000000000000000000000000000000000000000000000000000000000000000000000000000000000000000000000000000000000000000000000000000000000
310
0000000000000000000000000000000000000000000000000000000000000000000000BEBEBEBEBEBEBEBEBEBEBE00BEBEBEBEBEBE00BEBEBEBEBEBE00BEBEBEBEBEBEBEBEBEBE00BE00BEBEBEBEBEBE00BEBEBE000000000000000000000000000000000000000028F5F5DC00000000000000000000000000000000000000
310
00000000000000000000000000000000000000000000000000DC0000000000000000002800000000000000000000000000000000000000000000000000000000000000000000000000000000000000000000000000000000000000000000000000000000000000000000000000000000000000000000000000000000000000
310
00000000000000000000000000000000000000000000000000000000000000000000000000BEBE0000BE00BE0000BEBE0000BEBEBE0000BEBEBEBEBEBEBE0000000000BE00BEBEBEBE00BEBEBEBEBEBEBEBEBEBEBEBE000000000000000000000000000000000000000028F5F5DC0000000000000000000000000000000000
310
000000000000000000000000000000000000000000000000000000DC00000000000000000028000000000000000000000000000000000000000000000000BEBEBEBEBEBEBEBE00BEBEBEBE0000BEBEBEBEBEBEBEBEBEBEBEBE0000000000000000000000000000000000000000000000000000000000000000000000000000
310
00000000000000000000000000000000000000000000000000000000000000000000000000000000000000000000000000000000000000000000000000000000000000000000000000000000000000000000000000000000000000000000000000000000000000000000000028F5F5DC000000000000000000000000000000
310
0000000000000000000000000000000000000000000000000000000000DC00000000000000000028000000000000000000000000000000000000000000000000BEBEBEBEBE0000BEBEBEBEBEBE00BEBEBEBEBEBEBEBEBEBEBEBEBE000000000000000000000000000000000000000000000000000000000000000000000000
310
000000000000000000000000000000000000000000000000000000000000000000000000000000000000000000000000000000000000000000000000000000000000000000000000000000000000000000000000000000000000000000000000000000000000000000000000000028F5F5DC00000000000000000000000000
310
00000000000000000000000000000000000000000000000000000000000000DC00000000000000000028000000000000000000000000000000000000000000000000DCDCDCDCDCDCDCDCDCDCDCDCDCDCDCDCDCBEDCDCDCDCDCDCDCDCDC00000000000000000000000000000000000000000000000000000000000000000000
310
0000000000000000000000000000000000000000000000000000000000000000000000000000000000000000000000000000000000000000000000000000000000000000000000000000000000000000000000000000000000000000000000000000000000000000000000000000000028F5F5DC0000000000000000000000
310
000000000000000000000000000000000000000000000000000000000000000000DC0000000000000000002800000000000000000000000000000000000000000000000000BEBEBEBEBEBEBEBEBEBEBEBEBEBEBEBEBE00BEBEBEBEBEBEBE00DC00000000000000000000000000000000000000000000000000000000000000
310
00000000000000000000000000000000000000000000000000000000000000000000000000000000000000000000000000000000000000000000000000000000000000000000000000000000000000000000000000000000000000000000000000000000000000000000000000000000000028F5F5DC000000000000000000
310
0000000000000000000000000000000000000000000000000000000000000000000000DC0000000000000000002800000000000000000000000000000000000000000000000000BEBEBEBEBEBEBEBEBEBEBEBEBEBEBEBEBE00BEBEBEBEBEBEBE00DC0000000000000000000000000000000000000000000000000000000000
310
000000000000000000000000000000000000000000000000000000000000000000000000000000000000000000000000000000000000000000000000000000000000000000000000000000000000000000000000000000000000000000000000000000000000000000000000000000000000000028F5F5DC00000000000000
310
00000000000000000000000000000000000000000000000000000000000000000000000000DC00000000000000000028000000000000000000000000000000000000000000000000BEBEBEBE00000000BEBE000000000000000000BEBEBEBEBEBEBE0000DC0000000000000000000000000000000000000000000000000000
310
0000000000000000000000000000000000000000000000000000000000000000000000000000000000000000000000000000000000000000000000000000000000000000000000000000000000000000000000000000000000000000000000000000000000000000000000000000000000000000000028F5F5DC0000000000
310
000000000000000000000000000000000000000000000000000000000000000000000000000000DC0000000000000000002800000000000000000000000000000000000000000000000000000000000000000000000000000000000000000000000000000000DC000000000000000000000000000000000000000000000000
310
00000000F5F5F5F5F5F5F5F5F5F5F5F5F5F5F5F5F5F5F5F5F5F5F5F5F5F5F5F5F5F5F5F5F5F5F5F5F5F5F5F5F5F5F5F5F5F5F5F5F5F5F5F5F5F5F5F5F5F5F5F5F50000000000000000000000000000000000000000000000000000000000000000000000000000000000000000000000000000000000000028F5F5DC000000
310
0000000000000000000000000000000000000000000000000000000000000000000000000000000000DC000000000000000000280000000000000000000000000000000000000000000000000000000000000000000000000000000000000000000000000000000000DC000000000000000000000000000000000000000000
310
000000000000F5000000000000000000000000000000000000000000000000000000BEBEBEBE00000000000000000000000000000000000000000000000000000000F50000000000000000000000000000000000000000000000000000000000000000000000000000000000000000000000000000000000000028F5F5DC00
310
00000000000000000000000000000000000000000000000000000000000000000000000000000000000000DC000000000000000000280000000000000000000000000000000000000000000000000000000000000000000000000000000000000000000000000000000000DC00000000000000000000000000000000000000
310
0000000000000000F5000000000000000000000000000000000000000000000000000000BEBEBEBE00000000000000000000000000000000000000000000000000000000F5000000000000000000000000000000000000000000000000000000000000000000000000000000000000000000000000000000000000002800F5
310
DC0000000000000000000000000000000000000000000000000000000000000000000000000000000000000000DC00000000000000000028000000000000000000000000000000000000000000000000000000000000000000000000000000000000000000000000000000000000DC00000000000000000000000000000000
310
00000000000000000000F5000000000000000000000000000000000000000000000000000000BEBEBEBE00000000000000000000000000000000000000000000000000000000F50000000000000000000000000000000000000000000000000000000000000000000000000000000000000000000000000000000000000028
310
F5F5DC0000000000000000000000000000000000000000000000000000000000000000000000000000000000000000DC00000000000000000028000000000000000000000000000000000000000000000000000000000000000000000000000000000000000000000000000000000000DC0000000000000000000000000000
310
000000000000000000000000F50000000000000000000000000000000000000000000000000000000000000000000000000000000000000000000000000000000000000000000000F5000000000000000000000000000000000000000000000000000000000000000000000000000000000000000000000000000000000000
310
0028F5F5DC0000000000000000000000000000000000000000000000000000000000000000000000000000000000000000DC0000000000000000002800000000000000000000000000000000000000000000000000000000000000000000000000000000000000000000000000000000000000DC0000F5F5F5F5F5F5F5F5F5
310
F5F5F5F5F5F5F5F5F5F5F5F5F5F5F5F5F5F5F5F5F5F5F5F5F5F5F5F5F5F5F5F5F5F5F5F5F5F5F5F5F5F5F5F5F5F5F5F5F5F5F5F5F5F5F5F5000000000000000000000000000000000000F500000000000000000000000000000000000000000000000000000000000000000000000000000000000000000000000000000000
310
00000028F5F5DC0000000000000000000000000000000000000000000000000000000000000000000000000000000000000000DC0000000000000000002800000000000000000000000000000000000000000000000000000000000000000000000000000000000000000000000000000000000000DC0000F5F5F500000000
310
00000000000000000000000000000000F5000000000000BEBEBEBEBE000000000000000000000000000000000000000000000000000000F5F5F5000000000000000000000000000000000000F50000000000000000000000000000000000000000000000000000000000000000000000000000000000000000000000000000
310
000000000028F5F5DC0000000000000000000000000000000000000000000000000000000000000000000000000000000000000000DC000000000000000000280000000000000000000000000000000000000000000000000000000000000000000000000000000000000000000000000000000000000000DC00F500000000
310
000000000000000000000000000000000000F5000000000000BEBEBEBEBE0000000000000000000000000000000000000000000000000000000000F5000000000000000000000000000000000000F5000000000000000000000000000000000000000000000000000000000000000000000000000000000000000000000000
310
0000000000000028F5F5DC0000000000000000000000000000000000000000000000000000000000000000000000000000000000000000DC000000000000000000280000000000000000000000000000000000000000000000000000000000000000000000000000000000000000000000000000000000000000DC00F50000
310
0000000000000000000000000000000000000000F5000000000000BEBEBEBEBE0000000000000000000000000000000000000000000000000000000000F5000000000000000000000000000000000000F500000000000000000000000000000000000000000000000000000000000000000000000000000000000000000000
310
00000000000000000028F500DC0000000000000000000000000000000000000000000000000000000000000000000000000000000000000000DC00000000000000000028000000000000000000000000000000000000000000000000000000000000000000000000000000000000000000000000000000000000000000DCF5
310
00000000000000000000000000000000000000000000F500000000000000000000000000000000000000000000000000000000000000000000000000000000F5000000000000000000000000000000000000F5000000000000000000000000BEBEBEBE0000BEBEBEBEBEBEBE00BEBE00BEBEBEBEBEBEBEBEBEBE0000000000
310
000000000000000000000028F5F5DC0000000000000000000000000000000000000000000000000000000000000000000000000000000000000000DC000000000000000000280000000000000000000000000000000000000000000000000000000000000000000000F5F5F5F5F5F5F5F5F5F5F5F5F5F5F5F5F5F5F5F5F5F5
310
DCF528282828282828282828282828282828282828282828F528282828282828282828282828282828282828282828282828282828282828282828282828282828F5000000000000000000F5F5F5F5F5F5F5F500F5000000000000000000000000BEBEBEBEBEBEBEBEBEBEBEBEBE00BE00BEBEBEBEBEBEBEBEBEBEBE000000
310
0000000000000000000000000028F5F5DC0000000000000000000000000000000000000000000000000000000000000000000000000000000000000000DC00000000000000000028000000000000000000000000000000000000000000000000000000000000000000000000F5000000000000000000000000000000000000
310
000000DCF5F5F5F5F5F5F5F5F5F5F5F5F5F5F5F5F5F5F5F5F5F5F5F5F5F5F5F5F5F5F5F5F5F5F5F5F5F5F5F5F5F5F5F5F5F5F5F5F5F5F5F5F5F5F5F5F5F5F5F5F5F5F5F5F5F5F5F5F5F5F5F5F5000000000000F5F500F5000000000000000000000000DCBEBEBEBEDCBEDCBEDCBEBEDCDCBEBEBEBEBEBEBEBEBEBEBEBEDC00
310
00000000000000000000000000000028F5F5DC0000000000000000000000000000000000000000000000000000000000000000000000000000000000000000DC00000000000000000028000000000000000000000000000000000000000000000000000000000000000000000000F500000000000000000000000000000000
310
00000000002800F5F500F5F500F5F5F5F500F5F500F5F500F5F500F5F500F5F5F5F500F5F500F5F500F5F500F5F500F500F5F500F5F500F5F500F5F500F5F5F5F500F5F500F5000000000000BEBEBEBEBE0000000000F500F500000000000000000000DCDCBEBEBEBEBEBEBEBEBEBEBE00BEBEBEBEBEBEBE00000000000000
310
000000000000000000000000000000000028F500DC0000000000000000000000000000000000000000000000000000000000000000000000000000000000000000DC00000000000000000028000000000000000000000000000000000000000000000000000000000000000000000000F50000000000000000000000000000
310
0000000000000028F5F5F5F500F5F500F5F500F5F500F5F500F500F5F500F5F500F5F500F5F500F5F5F5F500F5F500F5F500F5F500F5F500F5F5F5F500F5F500F5F500F5F500F5F5000000000000BEBEBEBEBE0000000000F500F50000000000000000DCDC0000BEBEBEBEBEBEBEBEBEBEBE00BEBEBEBEBEBEBE0000000000
310
0000000000000000000000000000000000000028F5F5DC0000000000000000000000000000000000000000000000000000000000000000000000000000000000000000DC00000000000000000028000000000000000000000000000000000000000000000000000000000000000000000000F5000000000000000000000000
310
0000000000000000002800F5F500F5F500F5F5F5F500F5F500F5F500F5F500F5F500F5F5F5F500F5F500F5F500F5F500F5F500F500F5F500F5F500F5F500F5F500F5F5F5F500F5F5002828000000000000000000000000000000F500F5000000000000DCDC0000000000BEBEBEBEBEBEBEBEBEBEBEBEBEBEBEBEBEBE000000
310
00000000000000000000000000000000000000000028F5F5DC0000000000000000000000000000000000000000000000000000000000000000000000000000000000000000DC00000000000000000028000000000000000000000000000000000000000000000000000000000000000000000000F500000000000000000000
310
0000000000000000000028F5F5F5F5F5F5F5F5F5F5F5F5F5F5F5F5F5F5F5F5F5F5F5F5F5F5F5F5F5F5F5F5F5F5F5F5F5F5F5F5F5F5F5F5F5F5F5F5F5F5F5F5F5F5F5282828282828282828282800000000000000000000000000000000F5F500000000DCDC0000000000000000000000000000000000000000000000000000
310
000000000000000000000000000000000000000000000028F5F5DC0000000000000000000000000000000000000000000000000000000000000000000000000000000000000000DC00000000000000000028000000000000000000000000000000000000000000000000000000000000000000000000F50000000000000000
310
0000000000000000000000002800F5F5F5F500F5F500F5F500F5F500F5F500F500F5F500F5F500F5F500F5F500F5F5F528282828282828282828282828282828282828280000000000002828F5F5F5F5000000000000000000000000000000F5F50000DCDC0000000000000000000000000000000000000000000000000000
310
0000000000000000000000000000000000000000000000000028F5F5DC0000000000000000000000000000000000000000000000000000000000000000000000000000000000000000DC00000000000000000028000000000000000000000000000000000000000000000000000000000000000000000000F5000000000000
310
000000000000000000000000000028F500F5F500F5F500F5F5F5F5F5F5F52828282828282828F528282828282828282828280000000000000000000000000000000000000000000000000000F5F528F5F5F5000000000000000000000000000000F5F5DCDC0000000000000000000000000000000000000000000000000000
310
00000000000000000000000000000000000000000000000000000028F5F5DC0000000000000000000000000000000000000000000000000000000000000000000000000000000000000000DC00000000000000000028000000000000000000000000000000000000000000000000000000000000000000000000F500000000
310
000000000000000000000000000000002800F5F5F5F5282828282828282828280000000000000000F5000000000000000000000000000000000000000000000000000000000000000000000000002800F5F5F528000000000000000000000000000000F5F5F5F5F5F500000000000000000000000000000000000000000000
310
000000000000000000000000000000000000000000000000000000000028F5F5DC0000000000000000000000000000000000000000000000000000000000000000000000000000000000000000DC00000000000000000028000000000000000000000000000000000000000000000000000000000000000000000000F50000
310
00000000000000000000000000000000000028F500F5F500282800000000000000000000000000000000F500000000000000000000000000000000000000000000000000000000000000000000000000F5F5F5F500282828282828282828282828F5F5F5F5F5F5000000F50000000000000000000000000000000000000000
310
0000000000000000000000000000000000000000000000000000000000000028F5F5DC0000000000000000000000000000000000000000000000000000000000000000000000000000000000000000DC00000000000000000028000000000000000000000000000000000000000000000000000000000000000000000000F5
310
000000000000000000000000000000000000000028F5F5F5F5F5280028280000000000000000000000000000F50000000000000000000000000000000000000000282828282828282828282828282828282828F5F5F5282828282828F5F5F5F5F5F500DC00282828F50000F5F5000000000000000000000000000000000000
310
00000000000000000000000000000000000000000000000000000000000000000028F5F5DC0000000000000000000000000000000000000000000000000000000000000000000000000000000000000000DC000000000000000000280000000000000000000000000000000000000000000000000000000000000000000000
310
00F500000000000000000000000000000000000000002800F5F5F5F5280000002800000000000000000000000028F5282828282828282828282828282828282828282828282828282828282828F5F5F5F50000000000000000000000000000000000000000DC00000028F5000000F500000000000000000000000000000000
310
000000000000000000000000000000000000000000000000000000000000000000000028F5F5DC0000000000000000000000000000000000000000000000000000000000000000000000000000000000000000DC00000000000000000028000000000000000000000000000000000000000000000000000000000000000000
310
000000F5000000000000000000000000000000000000000028F500F5F500280000000028F52828282828282828282828F5282828282828282828282828F5F5F5000000000000000000000000000000000000000000000000000000000000000000000000000000DC00000028F5000000F50000000000000000000000000000
310
0000000000000000000000000000000000000000000000000000000000000000000000000028F5F5DC0000000000000000000000000000000000000000000000000000000000000000000000000000000000000000DC0000000000000000002800000000000000000000000000000000000000000000000000000000000000
310
0000000000F500000000000000000000000000000000000000002800F5F5F5F528000000F5282828282828282828F5000000F5000000000000000000000000000000000000000000000000000000000000000000000000000000000000000000000000000000000000DC00000028F5000000F5000000000000000000000000
310
00000000000000000000000000000000000000000000000000000000000000000000000000000028F5F5DC0000000000000000000000000000000000000000000000000000000000000000000000000000000000000000DC000000000000000000280000000000000000000000000000000000000000000000000000000000
310
00000000000000F5000000000000000000000000000000000000000028F5F5F5F5F52800000000F5002800000000000000000000F5000000000000000000000000000000000000000000000000000000000000000000000000000000000000000000000000000000000000DC00000028F5000000F500000000000000000000
310
000000000000000000000000000000000000000000000000000000000000000000000000000000000028F5F5DC0000000000000000000000000000000000000000000000000000000000000000000000000000000000000000DC00000000000000000028000000000000000000000000000000000000000000000000000000
310
000000000000000000F50000000000000000000000000000000000000028F5F500F5F500280000000028000028000000000000000000F5000000000000000000000000000000000000000000000000000000000000000000000000000000000000000000000000000000000000DC00000028F5000000F50000000000000000
310
0000000000000000000000000000000000000000000000000000000000000000000000000000000000000028F500DC0000000000000000000000000000000000000000000000000000000000000000000000000000000000000000DCDCDCDCDCDCDCDCDC002800000000000000000000000000000000000000000000000000
310
0000000000000000000000F50000000000000000000000000000000000000028F500F5F5F5F5280000000028000000280000000000000000F5000000000000000000000000000000000000000000000000000000000000000000000000000000000000000000000000000000000000DC00000028F5000000F5000000000000
310
00000000000000000000000000000000000000000000000000000000000000000000000000000000000000000028F5F5DC0000000000000000000000000000000000000000000000000000000000000000000000000000000000000000DC000000000000000000280000000000000000000000000000000000000000000000
310
00000000000000000000000000F50000000000000000000000000000000000000028F5F500F5F500280000000028000000002800000000000000F50000000000000000000000000000000000000000000000F5000000000000000000000000000000000000000000000000000000000000DC00000028F5000000F500000000
310
000000000000000000000000000000000000000000000000000000000000000000000000000000000000000000000028F5F5DC0000000000000000000000000000000000000000000000000000000000000000000000000000000000000000DC00000000000000000028000000000000000000000000000000000000000000
310
000000000000000000000000000000F50000000000000000000000000000000000000028F5F5F5F5F5F5280000000028000000000028000000000000F5000000000000000000000000000000000000000000BEBEBE000000000000000000000000000000000000000000000000000000000000DC00000028F5000000F50000
310
0000000000000000000000000000000000000000000000000000000000000000000000000000000000000000000000000028F5F5DC0000000000000000000000000000000000000000000000000000000000000000000000000000000000000000DC0000000000000000002800000000000000000000000000000000000000
310
0000000000000000000000000000000000F50000000000000000000000000000000000000028F500F5F5F5F5280000000028000000000000280000000000F5000000000000000000000000000000000000000000BEBE00F50000000000000000000000000000000000000000000000000000000000DC00000028F500BEBEF5
310
00000000000000000000000000000000000000000000000000000000000000000000000000000000000000000000000000000028F5F5DC0000000000000000000000000000000000000000000000000000000000000000000000000000000000000000DC000000000000000000280000000000000000000000000000000000
310
00000000000000000000000000000000000000F50000000000000000000000000000000000000028F5F500F5F500280000000028000000000000002800000000F5000000000000000000000000000000000000000000000000F500000000C3C3C3C3C3C3C3C3C3C3C30000000000000000000000000000DC00000028F500BE
310
BEF500000000000000000000000000000000000000000000000000000000000000000000000000000000000000000000000000000028F5F5DC0000000000000000000000000000000000000000000000000000000000000000000000000000000000000000DC00000000000000000028000000000000000000000000000000
310
000000000000000000000000000000000000000000F50000000000000000000000000000000000000028F500F5F5F5F5280000000028000000000000000028000000F5000000000000000000C3C3C3C3C3C3C3C3C3C3C3C3C3C3C3C3C3C3C3C300000000000000000000C30000000000000000000000000000DC000000DCF5
310
F5F5BEF5F5F5F5F5F5F500000000000000000000000000000000000000000000000000000000000000000000000000000000000000000028F5F5DC0000000000000000000000000000000000000000000000000000000000000000000000000000000000000000DC0000000000000000002800000000000000000000000000
310
0000000000000000000000000000000000000000000000F50000000000000000000000000000000000000028F5F5F5F5F5F5280000000028000000C3C3C3C3C3C3C3C3C3F5C3C3C3C3C3C3C3C3C3000000000000000000000000000000F500000000000000000000000000DCC3DC00DCDCDCDCDCDCDCDCDCDCDCDCDCDCDCDC
310
002800BEBEBEF500000000F500000000000000000000000000000000000000000000000000000000000000000000000000000000000000000028F5F5DC0000000000000000000000000000000000000000000000000000000000000000000000000000000000000000DC000000000000000000280000000000000000000000
310
0000000000000000000000000000000000000000000000BEBEF50000000000000000000000000000000000000028F5F500F52828282828282828C3C3C3000000000000002800F50000000000000000000000000000000000000000DC00DCDCF5DC00DCDCDCDC00DCDCDCDC00DC00C3000000000000000000000000000000DC
310
0000002800BEBEBEF5000000F5F500000000000000000000000000000000000000000000000000000000000000000000000000000000000000000028F5F5DC0000000000000000000000000000000000000000000000000000000000000000000000000000000000000000DC00000000000000000028000000000000000000
310
000000000000000000000000000000000000000000000000BEBEBEF50000000000000000000000000000000000000028F500F5F52800000000000028000000000000000000000028F5DC00DCDCDCDC00DCDCDCDC00DCDCDCDC00DCDCDC00000000F50000000000000000000000000000C30000000000000000000000000000
310
00DC0000002800BE0000F500000000F500000000000000000000000000000000000000000000000000000000000000000000000000000000000000000028F5F5DC0000000000000000000000000000000000000000000000000000000000000000000000000000000000000000DC0000000000000000002800000000000000
310
0000000000000000000000000000000000000000000000000000BEBEBEF500000000000000000000000000000000000028F5F5F500F5280000000000002800000000000000F5F5F5F5F5F5F5F5F5F5F5F5F5F5F5F5F5F5F5F5F5F5F5F5F5F5F5F5F5F5F5F50000C3C3C3C3C3C3C3C3C3C3C3C3000000000000BEBEBEBEBEBE
310
BEBE00DC0000002800000000F500000000F500000000000000000000000000000000000000000000000000000000000000000000000000000000000000000028F5F5DC0000000000000000000000000000000000000000000000000000000000000000000000000000000000000000DC000000000000000000280000000000
310
00000000000000000000000000000000000000000000000000000000BEBEBEF500000000000000000000000000000000000028F5F500F5F5280000000000002800000000000000F5F5000000DC280000000000000000C3C3C3C3C3C3C3C3C3C3C3C3C3C3C3C3C3C3C3C30000000000000000000000000000000000BEBEBEBE
310
BEBEBEBE00DC0000002800000000F500000000F500000000000000000000000000000000000000000000000000000000000000000000000000000000000000000028F5F5DC0000000000000000000000000000000000000000000000000000000000000000000000000000000000000000DC00000000000000000028000000
310
000000000000000000000000000000000000000000000000000000000000000000F500000000000000000000000000000000000028F5F5F5F5F52800000000000028000000C3C3C3C3C3C3C3C3C3C3C3C3C3C3C3C3C3C3C3000000000000000000000000000000F5000000000000000000000000000000000000000000BEBE
310
BEBEBEBEBE0000DC0000002800000000F500000000F500000000000000000000000000000000000000000000000000000000000000000000000000000000000000000028F5F5DC0000000000000000000000000000000000000000000000000000000000000000000000000000000000000000DC0000000000000000002800
310
0000000000000000000000000000000000000000000000000000000000000000000000F50000000000000000000000000000000000002800F5F500F52828282828282828C3C3C300000000F500000000DC000028000000000000000000000000000000000000000000F5000000000000000000000000000000000000000000
310
000000000000000000DC0000002800000000F500000000F500000000000000000000000000000000000000000000000000000000000000000000000000000000000000000028F5F5DC0000000000000000000000000000000000000000000000000000000000000000000000000000000000000000DC000000000000000000
310
28000000000000000000000000000000000000000000000000000000000000000000000000F500000000000000000000000000000000000028F5F500F5F5F5F528000000002800000000000000F500000000DC0000002800000000000000000000000000000000000000000000000000000000000000000000000000000000
310
0000000000000000000000DC0000002800000000F500000000F500000000000000000000000000000000000000000000000000000000000000000000000000000000000000000028F5F5DC0000000000000000000000000000000000000000000000000000000000000000000000000000000000000000DC00000000000000
310
000028000000000000000000000000000000000000000000000000000000000000000000000000F50000000000000000000000000000000000002800F5F500F5F50028000000002800000000000000F500000000DC000000002800000000000000000000000000000000000000000000000000000000000000000000000000
310
00000000000000000000000000DC0000002800000000F500000000F500000000000000000000000000000000000000000000000000000000000000000000000000000000000000000028F5F5DC0000000000000000000000000000000000000000000000000000000000000000000000000000000000000000DC0000000000
310
0000000028000000000000000000000000000000000000000000000000000000000000000000000000F500000000000000000000000000000000000028F5F5F5F5F5F5F528000000002800000000000000F500000000DC00000000002800000000000000000000000000000000000000000000000000000000000000000000
310
000000000000000000000000000000DC0000002800000000F500000000F500000000000000000000000000000000000000000000000000000000000000000000000000000000000000000028F5F5DC0000000000000000000000000000000000000000000000000000000000000000000000000000000000000000DC000000
310
00000000000028000000000000000000000000000000000000000000000000000000000000000000000000F500000000000000000000000000000000000028F5F500F5F5F5F528000000002800000000000000F500000000DC0000000000002800000000000000000000000000000000000000000000000000000000000000
310
0000000000000000000000000000000000DC0000002800000000F500000000F500000000000000000000000000000000000000000000000000000000000000000000000000000000000000000028F5F5DC0000000000000000000000000000000000000000000000000000000000000000000000000000000000000000DC00
310
000000000000000028000000000000000000000000000000000000000000000000000000000000000000000000F50000000000000000000000000000000000002800F5F500F5F50028000000002800000000000000F500000000DC000000000000002800000000000000000000000000000000000000000000000000000000
310
00000000000000000000000000000000000000DC0000282800000000F500000000F500000000000000000000000000000000000000000000000000000000000000000000000000000000000000000028F5F5DC0000000000000000000000000000000000000000000000000000000000000000000000000000000000000000
310
DC00000000000000000028000000000000000000000000000000000000000000000000000000000000000000000000F500000000000000000000000000000000000028F5F500F5F5F5F528000000002800000000000000F500000000DC00000000000000002800000000000000000000000000000000000000000000000000
310
0000000000000000F5F5F528282828282828282828F5F5F5F5F5F5F5F5F5F500BE0000F500000000000000000000000000000000000000000000000000000000000000000000000000000000000000000028F5F5DC000000000000000000000000000000000000000000000000000000000000000000000000000000000000
310
0000DC00000000000000000028000000000000000000000000000000000000000000000000000000000000000000000000F5000000000000000000000000000000000028F5F5F5F5F5F5F5F52800000000280000000000BEBEBE00000000DC0000000000000000002800000000000000000000000000282828282828282828
310
28282828282828F5F5F5282828282828F5F5F5F5F500000000000000000000000000BEBEBEF500000000000000000000000000000000000000000000000000000000000000000000000000000000000000000028F5F5DC00000000000000000000000000000000000000000000000000000000000000000000000000000000
310
00000000DC00000000000000000028000000000000000000000000000000000000000000000000000000000000000000000000F5000000000000000000000000000000000028F500F5F500F5F5002800000000280000000000BEBEBE00000000DC000000000000000000002828282828282828282828282828282828282828
310
282828000000000028F5F5F5002800000000000000000000000000000000000000000000BEBEBEF500000000000000000000000000000000000000000000000000000000000000000000000000000000000000000028F5F5DC0000000000000000000000000000000000000000000000000000000000000000000000000000
310
000000000000DC00000000000000000028000000000000000000000000000000000000000000000000000000000000000000000000F500000000000000000000000000000000002800F5F500F5F5F5F52800000000280000000000BEBEF500000000DC000000000000000000000028F5282828282828000000000000000000
310
000000000000000000002800F5F5DCF500000000000000000000000000000000000000000000BEBEBEF500000000000000000000000000000000000000000000000000000000000000000000000000000000000000000028F5F5DC000000000000000000000000000000000000000000000000000000000000000000000000
310
0000000000000000DC00000000000000000028000000000000000000000000000000000000000000000000000000000000000000000000F5000000000000000000000000000000000028F500F5F500F5F5002800000000280000000000BEBEBE00000000DC0000000000000000000000F52800000000000000000000000000
310
000000000000000000000000F5F5F5F5F5DC00000000000000000000000000000000000000000000000000F500000000000000000000000000000000000000000000000000000000000000000000000000000000000000000028F5F5DC00000000000000000000000000000000000000000000000000000000000000000000
310
00000000000000000000DC00000000000000000028000000000000000000000000000000000000000000000000000000000000000000000000F5000000000000000000000000000000000028F5F5F5F5F5F5F5F5280000002828DCDCDCDCDCDCDCF5DCDCDCDCDCDCDCDCDCDCDCDCDCDCDCDCDC282828000000000000000000
310
00000000000000000000000000000028F5DCF5F5DC000000000000000000000000000000000000000000000000F500000000000000000000000000000000000000000000000000000000000000000000000000000000000000000028F5F5DC0000000000000000000000000000000000000000000000000000000000000000
310
000000000000000000000000DC00000000000000000028000000000000000000000000000000000000000000000000000000000000000000000000F500000000000000000000000000000000002800F5F500F5F5F5F52800F5F5282800000000000000F500000000DC00000000000000000000002828F5F528000000000000
310
0000000000000000002828282828282828282828DC2800DC0000000000000000000000000000000000000000000000F500000000000000000000000000000000000000000000000000000000000000000000000000000000000000000028F5F5DC000000000000000000000000000000000000000000000000000000000000
310
0000000000000000000000000000DC00000000000000000028000000000000000000000000000000000000000000000000000000000000000000000000F5000000000000000000000000000000000028F500F5F500F5F50028282828282828282828282828F5282828282828282828282828282828282828F5282828282828
310
2828282828282828282828F5F5F5F5F500F5F500F5F5282800DC0000000000000000000000000000000000000000000000F500000000000000000000000000000000000000000000000000000000000000000000000000000000000000000028F5F5DC00000000000000000000000000000000000000000000000000000000
310
00000000000000000000000000000000DC00000000000000000028000000000000000000000000000000000000000000000000000000000000000000000000F500000000000000000000000000000000002800F5F500F5F5F5F5F528F528282828282828282828F528282828282828282828282828282828282828F5280028
310
28F5F500F5F500F5F5F5F500F5F500F5F500F5F500F5F50028DC0000DC00000000000000000000000000000000000000000000F500000000000000000000000000000000000000000000000000000000000000000000000000000000000000000028F5F5DC0000000000000000000000000000000000000000000000000000
310
000000000000000000000000000000000000DC00000000000000000028000000000000000000000000000000000000000000000000000000000000000000000000F5000000000000000000000000000000000028F500F5F500F5F52800282800000000000000000000F500000000DC00000000000000000000000000000028
310
28282800F5F500F5F500F5F500F5F500F5F5F5F500F5F500F5F52800DC0000DC000000000000000000000000000000000000000000F500000000000000000000000000000000000000000000000000000000000000000000000000000000000000000028F5F5DC000000000000000000000000000000000000000000000000
310
0000000000000000000000000000000000000000DC00000000000000000028000000000000000000000000000000000000000000000000000000000000000000000000F5000000000000000000000000000000000028F5F5F5F5F5F5282828280000000000000000000000F500000000DC0000000000000000000000000000
310
00F5282828F5F5F5F5F5F5F5F5F5F5F5F5F5F5F5F5F5F5F5F5F5F5F5280000DC0000DC0000000000000000000000000000000000000000F500000000000000000000000000000000000000000000000000000000000000000000000000000000000000000028F5F5DC00000000000000000000000000000000000000000000
310
00000000000000000000000000000000000000000000DC00000000000000000028000000000000000000000000000000000000000000000000000000000000000000000000F50000000000000000000000000000000028F500F5F500F5F528F528280000000000000000000000F500000000DC000000000000000000000000
310
00000000282828F5F500F5F500F5F5F5F500F5F500F5F500F5F500F5F500F52800DC000000DC00000000000000000000000000000000000000F500000000000000000000000000000000000000000000000000000000000000000000000000000000000000000028F5F5DC0000000000000000000000000000000000000000
310
000000000000000000000000000000000000000000000000DC00000000000000000028000000000000000000000000000000000000000000000000000000000000000000000000F50000000000000000000000000000000028F5F500F5F500F52828DCDCDCDCDCDCDCDCDCDCDCDCDCF5DCDCDCDCDCDCDCDCDCDCDCDCDCDCDC
310
DCDCDCDCDCDCDC282800F5F500F5F500F5F500F5F500F5F5F5F500F5F500F5F500280000DC000000DC000000000000000000000000000000000000F500000000000000000000000000000000000000000000000000000000000000000000000000000000000000000028F5F5DC000000000000000000000000000000000000
310
0000000000000000000000000000000000000000000000000000DC00000000000000000028000000000000000000000000000000000000000000000000000000000000000000000000F50000000000000000000000000000000028F500F5F500F5F52828DCDCDCDCDCDCDCDCDCDCDCDCDCF5DCDCDCDCDCDCDCDCDCDCDCDCDC
310
DCDCDCDCDCDCDCDCDC2828F5F500F5F500F5F5F5F500F5F500F5F500F5F500F5F500F528000000DC0000DC000000000000000000000000000000000000F500000000000000000000000000000000000000000000000000000000000000000000000000000000000000000028F5F5DC00000000000000000000000000000000
310
00000000000000000000000000000000000000000000000000000000DC00000000000000000028000000000000000000000000000000000000000000000000000000000000000000000000F50000000000000000000000000000000028F5F5F5F5F5F52800F528DCDCDCDCDCDCDCDCDCDCDCDCF5DCDCDCDCDCDCDCDCDCDCDC
310
DCDCDCDCDCDCDCDCDCDCDC280028F5F5F5F5F5F5F5F5F5F5F5F5F5F5F5F5F5F5F5F5F5F5F528000000DC000000DC0000000000000000000000000000000000F500000000000000000000000000000000000000000000000000000000000000000000000000000000000000000028F5F5DC0000000000000000000000000000
310
000000000000000000000000000000000000000000000000000000000000DC00000000000000000028000000000000000000000000000000000000000000000000000000000000000000000000F50000000000000000000000000000000028F5F500F5F52800002828000000000000000000000000F5F5000000DC00000000
310
0000000000000000000000002828000028F500F5F500F5F500F5F500F5F5F5F5002828282828282800000000DC000000DC000000000000000000000000000000F5F500000000000000000000000000000000000000000000000000000000000000000000000000000000000000000028F5F5DC000000000000000000000000
310
0000000000000000000000000000000000000000000000000000000000000000DC000000000000000000280000000000000000000000000000000000000000000000000000000000000000000000F5F5F5F5F528282828282828282828282828F5F528F5F5282828282828282828282828282828282828F5F5F5F5F5F52828
310
2828282828282828282828282828282828282828F5F528F5F5F5F528F5F528F5F528F5282828F5F5F5F5F5F5F5F5F5DCF5F5F5DCF5F5F5F5F5F5F5F5F5F5F5F5F5F5F5F5000000000000000000000000000000000000000000000000000000000000000000000000000000000000000000280000DC00000000000000000000
310
00000000000000000000000000000000000000000000000000000000000000000000DC00000000000000000028000000000000000000000000000000000000000000000000000000000000000000000000F50000F500000000000000000000000000F5000000000000000000000000000000000000000000000000000000DC
310
00000000000000000000000000000000000000000000000000000000000000000000000000000000F50000000000000000DC00000000DC000000000000000000000000000000000000000000000000000000000000000000000000000000000000000000000000000000000000000000000000280000DC0000000000000000
310
000000000000000000000000000000000000000000000000000000000000000000000000DC00000000000000000028000000000000000000000000000000000000000000000000000000000000000000000000F50000F500000000000000000000000000F50000000000000000000000000000000000000000000000000000
310
00F500000000000000000000000000000000000000000000000000000000000000000000000000000000F5000000000000000000DC00000000DC0000000000000000000000000000000000000000000000000000000000000000000000000000000000000000000000000000000000000000000000280000DC000000000000
310
0000000000000000000000000000000000000000000000000000000000000000000000000000DC00000000000000000028000000000000000000000000000000000000000000000000000000000000000000000000F50000F500000000000000000000000000F5000000000000000000000000000000000000000000000000
310
000000F500000000000000000000000000000000000000000000000000000000000000000000000000000000F500000000000000000000DC000000DC0000BEBE00BEBEBEBE0000000000000000000000000000000000000000000000000000000000000000000000000000000000000000000000000000280000DC00000000
310
00000000000000000000000000000000000000000000000000000000000000000000000000000000DC00000000000000000028000000000000000000000000000000000000000000000000000000000000000000000000F50000F500000000000000000000000000F5F5F5F5F5F5F5F5F5F5F5F5F5F5F5F5F5F5F5F5F5F5F5
310
F5F5F5F5F5F500000000000000000000000000000000000000000000000000000000000000000000000000000000F50000000000000000000000DC000000DC00BEBE0000BEBEBEBE00000000000000000000000000000000000000000000000000000000000000000000000000000000000000000000000000280000DC0000
310
000000000000000000000000000000000000000000000000000000000000000000000000000000000000DC00000000000000000028000000000000000000000000000000000000000000000000000000000000000000BEBEBEF50000F500000000000000000000000000F5F5F500000000000000000000BEBEBE0000000000
310
0000000000F5F5F500000000000000000000000000000000000000000000000000000000000000000000000000000000F50000000000000000000000DC00000000DCBEBE00BEBEBEBEBE00000000000000000000000000000000000000000000000000000000000000000000000000000000000000000000000000280000DC
310
0000000000000000000000000000000000000000000000000000000000000000000000000000000000000000DC000000000000000000280000000000000000000000000000000000000000000000000000000000000000000000BEF50000F500000000000000000000000000000000000000000000000000BEBEBEBE000000
310
0000000000000000000000000000000000000000000000000000000000000000000000000000000000000000000000000000F5000000000000000000000000DC00000000DCDCDCDCDCDCDCDCDCDCDCBEBEDCDCDCDCDCDCDCDCDCDCDCDCDCDCDCDCDC00F5000000000000000000000000000000000000000000000000002800
310
00DC0000000000000000000000000000000000000000000000000000000000000000000000000000000000000000DC00000000000000000028000000000000000000000000000000000000000000000000000000000000000000000000000000F500000000000000000000000000000000000000000000000000BEBEBEBE00
310
00000000000000000000000000000000000000000000000000000000000000000000000000000000000000000000000000000000F500000000000000000000000000DC000000BEBEBEBEBEBEBEBEBEBEBEBEBE00BEBEBEBEBEBEBE00BEBEBEBEBEBEBEBEF5F5F5000000000000000000000000000000000000000000000000
310
280000DC0000000000000000000000000000000000000000000000000000000000000000000000000000000000000000DC00000000000000000028000000000000000000000000000000000000000000000000000000000000000000000000000000F5F5F5F5F5F5F5F5F5F5F5F5F5F5F5F5F5F5F5F5F5F5F5F5F5F5F5F5F5
310
F5F5F5F5F5F5F5F5F5F5F5F5F5F5F5F5F5F5F5F5F5F5F5F5F5F5F5F5F5F5F5F5F5F5F5F5F5F5F5F5F5F5F5F5F5F5F5F5F5F5F5F5F5F5F500000000000000000000000000DC000000BEBEBEBEBEBEBEBEBEBEBEBEBE00BEBEBEBEBEBEBE00BEBEBEBEBEBEBEBEF5F5F500000000000000000000000000000000000000000000
310
0000280000DC0000000000000000000000000000000000000000000000000000000000000000000000000000000000000000DC00000000000000000028000000000000000000000000000000000000000000000000000000000000000000000000000000F50000000000000000000000000000000000000000000000000000
310
000000000000000000000000BEBEBEBEBEBE0000000000000000000000000000000000000000000000000000000000000000000000000000F50000000000000000000000000000DC00000000000000000000000000000000000000000000000000000000000000000000000000000000000000000000000000000000000000
310
00000000280000DC0000000000000000000000000000000000000000000000000000000000000000000000000000000000000000DC0000000000000000002800000000000000000000000000000000000000000000000000000000000000000000000000000000000000000000000000000000000000000000000000000000
310
0000000000000000000000000000BEBEBEBEBEBE000000000000000000000000000000000000000000000000000000000000000000000000000000000000000000000000000000000000DC00BEBEBEBEBEBEBEBE00BEBEBEBEBEBEBE0000000000000000000000000000000000000000000000000000000000000000000000
310
000000000000280000DC0000000000000000000000000000000000000000000000000000000000000000000000000000000000000000DC000000000000000000280000000000000000000000000000000000000000000000000000000000000000000000000000000000000000000000000000000000000000000000000000
310
0000000000000000000000000000000000000000000000000000000000000000000000000000000000000000000000000000000000000000000000000000000000000000000000000000000000DCBEBEBEBEBEBEBEBE00BEBEBEBEBEBEBE000000000000000000000000000000000000000000000000000000000000000000
310
0000000000000000280000DC0000000000000000000000000000000000000000000000000000000000000000000000000000000000000000DC00000000000000000028000000000000000000000000000000000000000000000000000000000000000000000000000000000000000000000000000000000000000000000000
310
00000000000000000000000000000000000000000000000000000000000000000000000000000000000000000000000000000000000000000000000000000000000000000000000000000000000000DCBEBEBEBEBEBEBEBE00BEBEBEBEBEBEBE00000000000000000000000000000000000000000000000000000000000000
310
00000000000000000000280000DC0000000000000000000000000000000000000000000000000000000000000000000000000000000000000000DC0000000000000000002800000000000000000000000000000000000000000000000000000000000000000000000000000000000000000000000000000000000000000000
310
00000000000000000000000000000000000000000000000000000000000000000000000000000000000000000000000000000000000000000000000000000000000000000000000000000000000000000000DCDCBEDCDCDCDCDCDCDCDCDCDCDCDCBEDCDCDCDCDCDCDCDCF5F500000000000000000000000000000000000000
310
000000000000000000000000280000DC0000000000000000000000000000000000000000000000000000000000000000000000000000000000000000DC000000000000000000280000000000000000000000000000000000000000000000000000000000000000000000000000000000000000000000000000000000000000
310
000000000000000000000000000000000000000000000000000000000000000000000000000000000000000000000000000000000000000000000000000000000000000000000000000000000000000000000000BEBEBEBEBEBEBEBEBEBEBEBEBEBEBEBE00BEBEBEBEBEBEBEF5F5F500000000000000000000000000000000
310
0000000000000000000000000000280000DC0000000000000000000000000000000000000000000000000000000000000000000000000000000000000000DC00000000000000000028000000000000000000000000000000000000000000000000000000000000000000000000000000000000000000000000000000000000
310
0000000000000000000000000000000000000000000000000000000000000000000000000000000000000000000000000000000000000000000000000000000000000000000000000000000000000000000000000000BEBEBEBEBEBEBEBEBEBEBEBEBEBEBEBE00BEBEBEBEBEBEBEF5F5F50000000000000000000000000000
310
00000000000000000000000000000000280000DC0000000000000000000000000000000000000000000000000000000000000000000000000000000000000000DC0000000000000000002800000000000000000000000000000000000000000000000000000000000000000000000000000000000000000000000000000000
310
00000000000000000000000000000000000000000000000000000000000000000000000000000000000000000000000000000000000000000000000000000000000000000000000000000000000000000000000000000000000000000000000000000000000000000000000000000000000000000000000000000000000000
310
000000000000000000000000000000000000280000DC0000000000000000000000000000000000000000000000000000000000000000000000000000000000000000DC000000000000000000280000000000000000000000000000000000000000000000000000000000000000000000000000000000000000000000000000
310
00000000000000000000000000000000000000000000000000000000000000000000000000000000000000000000000000000000000000000000000000000000000000000000000000000000000000000000000000000000000000000000000000000000000000000000000000000000000000000000000000000000000000
310
0000000000000000000000000000000000000000280000DC0000000000000000000000000000000000000000000000000000000000000000000000000000000000000000DC00000000000000000028000000000000000000000000000000000000000000000000000000000000000000000000000000000000000000000000
310
00000000000000000000000000000000000000000000000000000000000000000000000000000000000000000000000000000000000000000000000000000000000000000000000000000000000000000000000000000000000000000000000000000000000000000000000000000000000000000000000000000000000000
310
00000000000000000000000000000000000000000000280000DC0000000000000000000000000000000000000000000000000000000000000000000000000000000000000000DC0000000000000000002800000000000000000000000000000000000000000000000000000000000000000000000000000000000000000000
310
00000000000000000000000000000000000000000000000000000000000000000000000000000000000000000000000000000000000000000000000000000000000000000000000000000000000000000000000000000000000000000000000000000000000000000000000000000000000000000000000000000000000000
310
000000000000000000000000000000000000000000000000280000DC0000000000000000000000000000000000000000000000000000000000000000000000000000000000000000DC000000000000000000280000000000000000000000000000000000000000000000000000000000000000000000000000000000000000
310
00000000000000000000000000000000000000000000000000000000000000000000000000000000000000000000000000000000000000000000000000000000000000000000000000000000000000000000000000000000000000000000000000000000000000000000000000000000000000000000000000000000000000
310
0000000000000000000000000000000000000000000000000000280000DC0000000000000000000000000000000000000000000000000000000000000000000000000000000000000000DC00000000000000000028000000000000000000000000000000000000000000000000000000000000000000000000000000000000
310
00000000000000000000000000000000000000000000000000000000000000000000000000000000000000000000000000000000000000000000000000000000000000000000000000000000000000000000000000000000000000000000000000000000000000000000000000000000000000000000000000000000000000
310
00000000000000000000000000000000000000000000000000000000280000DC0000000000000000000000000000000000000000000000000000000000000000000000000000000000000000DC0000000000000000002800000000000000000000000000000000000000000000000000000000000000000000000000000000
310
00000000000000000000000000000000000000000000000000000000000000000000000000000000000000000000000000000000000000000000000000000000000000000000000000000000000000000000000000000000000000000000000000000000000000000000000000000000000000000000000000000000000000
310
000000000000000000000000000000000000000000000000000000000000280000DC0000000000000000000000000000000000000000000000000000000000000000000000000000000000000000DC000000000000000000280000000000000000000000000000000000000000000000000000000000000000000000000000
310
00000000000000000000000000000000000000000000000000000000000000000000000000000000000000000000000000000000000000000000000000000000000000000000000000000000000000000000000000000000000000000000000000000000000000000000000000000000000000000000000000000000000000
310
0000000000000000000000000000000000000000000000000000000000000000280000DC0000000000000000000000000000000000000000000000000000000000000000000000000000000000000000DC00000000000000000028000000000000000000000000000000000000000000000000000000000000000000000000
310
00000000000000000000000000000000000000000000000000000000000000000000000000000000000000000000000000000000000000000000000000000000000000000000000000000000000000000000000000000000000000000000000000000000000000000000000000000000000000000000000000000000000000
310
00000000000000000000000000000000000000000000000000000000000000000000280000DC0000000000000000000000000000000000000000000000000000000000000000000000000000000000000000DC0000000000000000002800000000000000000000000000000000000000000000000000000000000000000000
310
00000000000000000000000000000000000000000000000000000000000000000000000000000000000000000000000000000000000000000000000000000000000000000000000000000000000000000000000000000000000000000000000000000000000000000000000000000000000000000000000000000000000000
310
000000000000000000000000000000000000000000000000000000000000000000000000280000DC0000000000000000000000000000000000000000000000000000000000000000000000000000000000000000DC000000000000000000280000000000000000000000000000000000000000000000000000000000000000
310
00000000000000000000000000000000000000000000000000000000000000000000000000000000000000000000000000000000000000000000000000000000000000000000000000000000000000000000000000000000000000000000000000000000000000000000000000000000000000000000000000000000000000
310
0000000000000000000000000000000000000000000000000000000000000000000000000000280000DC0000000000000000000000000000000000000000000000000000000000000000000000000000000000000000DC00000000000000000028000000000000000000000000000000000000000000000000000000000000
310
00000000000000000000000000000000000000000000000000000000000000000000000000000000000000000000000000000000000000000000000000000000000000000000000000000000000000000000000000000000000000000000000000000000000000000000000000000000000000000000000000000000000000
310
00000000000000000000000000000000000000000000000000000000000000000000000000000000280000DC0000000000000000000000000000000000000000000000000000000000000000000000000000000000000000DC0000000000000000002800000000000000000000000000000000000000000000000000000000
310
00000000000000000000000000000000000000000000000000000000000000000000000000000000000000000000000000000000000000000000000000000000000000000000000000000000000000000000000000000000000000000000000000000000000000000000000000000000000000000000000000000000000000
310
000000000000000000000000000000000000000000000000000000000000000000000000000000000000280000DC0000000000000000000000000000000000000000000000000000000000000000000000000000000000000000DC000000000000000000280000000000000000000000000000000000000000000000000000
310
00000000000000000000000000000000000000000000000000000000000000000000000000000000000000000000000000000000000000000000000000000000000000000000000000000000000000000000000000000000000000000000000000000000000000000000000000000000000000000000000000000000000000
310
0000000000000000000000000000000000000000000000000000000000000000000000000000000000000000280000DC0000000000000000000000000000000000000000000000000000000000000000000000000000000000000000DC00000000000000000028000000000000000000000000000000000000000000000000
310
00000000000000000000000000000000000000000000000000000000000000000000000000000000000000000000000000000000000000000000000000000000000000000000000000000000000000000000000000000000000000000000000000000000000000000000000000000000000000000000000000000000000000
310
00000000000000000000000000000000000000000000000000000000000000000000000000000000000000000000280000DC0000000000000000000000000000000000000000000000000000000000000000000000000000000000000000DC0000000000000000002800000000000000000000000000000000000000000000
310
00000000000000000000000000000000000000000000000000000000000000000000000000000000000000000000000000000000000000000000000000000000000000000000000000000000000000000000000000000000000000000000000000000000000000000000000000000000000000000000000000000000000000
310
000000000000000000000000000000000000000000000000000000000000000000000000000000000000000000000000280000DC0000000000000000000000000000000000000000000000000000000000000000000000000000000000000000DC000000000000000000280000000000000000000000000000000000000000
310
00000000000000000000000000000000000000000000000000000000000000000000000000000000000000000000000000000000000000000000000000000000000000000000000000000000000000000000000000000000000000000000000000000000000000000000000000000000000000000000000000000000000000
310
0000000000000000000000000000000000000000000000000000000000000000000000000000000000000000000000000000280000DC0000000000000000000000000000000000000000000000000000000000000000000000000000000000000000DC00000000000000000028000000000000000000000000000000000000
310
00000000000000000000000000000000000000000000000000000000000000000000000000000000000000000000000000000000000000000000000000000000000000000000000000000000000000000000000000000000000000000000000000000000000000000000000000000000000000000000000000000000000000
310
00000000000000000000000000000000000000000000000000000000000000000000000000000000000000000000000000000000280000DC0000000000000000000000000000000000000000000000000000000000000000000000000000000000000000DC0000000000000000002800000000000000000000000000000000
310
00000000000000000000000000000000000000000000000000000000000000000000000000000000000000000000000000000000000000000000000000000000000000000000000000000000000000000000000000000000000000000000000000000000000000000000000000000000000000000000000000000000000000
310
000000000000000000000000000000000000000000000000000000000000000000000000000000000000000000000000000000000000280000DC0000000000000000000000000000000000000000000000000000000000000000000000000000000000000000DC000000000000000000280000000000000000000000000000
310
00000000000000000000000000000000000000000000000000000000000000000000000000000000000000000000000000000000000000000000000000000000000000000000000000000000000000000000000000000000000000000000000000000000000000000000000000000000000000000000000000000000000000
310
0000000000000000000000000000000000000000000000000000000000000000000000000000000000000000000000000000000000000000280000DC0000000000000000000000000000000000000000000000000000000000000000000000000000000000000000DC00000000000000000028000000000000000000000000
310
00000000000000000000000000000000000000000000000000000000000000000000000000000000000000000000000000000000000000000000000000000000000000000000000000000000000000000000000000000000000000000000000000000000000000000000000000000000000000000000000000000000000000
310
00000000000000000000000000000000000000000000000000000000000000000000000000000000000000000000000000000000000000000000280000DC0000000000000000000000000000000000000000000000000000000000000000000000000000000000000000DC0000000000000000002800000000000000000000
310
00000000000000000000000000000000000000000000000000000000000000000000000000000000000000000000000000000000000000000000000000000000000000000000000000000000000000000000000000000000000000000000000000000000000000000000000000000000000000000000000000000000000000
310
000000000000000000000000000000000000000000000000000000000000000000000000000000000000000000000000000000000000000000000000280000DC0000000000000000000000000000000000000000000000000000000000000000000000000000000000000000DC000000000000000000282828282828282828
310
28282828282828282828282828282828282828282828282828282828282828282828282828282828282828282828282828282828282828282828282828282828282828282828282828282828282828282828282828282828282828282828282828282828282828282828282828282828282828282828282828282828282828
310
2828282828282828282828282828282828282828282828282828282828282828282828282828282828282828282828282828282828282828282828282828280000DC0000000000000000000000000000000000000000000000000000000000000000000000000000000000000000DC00000000000000000000000000000000
310
000000000000000000000000000000000000000000000000000000000000000000000000000000000000000000000000000000000000000000000000000000000000000000000000000000000000000000000000000000000000000000000000000000F5000000000000000000000000000000000000000000000000000000
310
00000000000000000000000000000000000000000000000000000000000000000000000000000000000000000000000000000000000000000000000000000000000000DC0000000000000000000000000000000000000000000000000000000000000000000000000000000000000000DCDCDCDCDCDCDCDCDCDCDCDCDCDCDC
310
DCDCDCDCDCDCDCDCDCDCDCDCDCDCDCDCDCDCDCDCDCDCDCDCDCDCDCDCDCDCDCDCDCDCDCDCDCDCDCDCDCDCDCDCDCDCDCDCDCDCDCDCDCDCDCDCDCDCDCDCDCDCDCDCDCDCDCDCDCDCDCDCDCDCDCDCDCDCDCDCDCDCDCDCDCDCDCDCDCDCDCDCDCDCDCDCDCDCDCDCDCDCDCDCDCDCDCDCDCDCDCDCDCDCDCDCDCDCDCDCDCDCDCDCDCDCDC
310
DCDCDCDCDCDCDCDCDCDCDCDCDCDCDCDCDCDCDCDCDCDCDCDCDCDCDCDCDCDCDCDCDCDCDCDCDCDCDCDCDCDCDCDCDCDCDCDCDCDCDCDCDCDCDCDCDCDCDCDCDCDCDCDCDCDCDCDCDCDC000000000000000000000000000000000000000000000000000000000000000000000000000000000000000000000000000000000000000000
310
00000000000000000000000000000000000000000000000000000000000000000000000000000000000000000000000000000000000000000000000000000000000000000000000000000000000000000000000000000000000000000000000000000000000000000000000000000000000000000000000000000000000000
310
00000000000000000000000000000000000000000000000000000000000000000000000000000000000000000000000000000000000000000000000000000000000000000000000000000000000000000000000000000000000000000000
  0
XRECORD
  5
106B
102
{ACAD_REACTORS
330
5CD
102
}
330
5CD
100
AcDbXrecord
280
     1
102
MATERIAL
148
0.0
149
0.0
149
0.0
 93
        0
 94
      127
282
     0
 72
     0
 77
     0
171
     0
175
     0
179
     0
273
     0
  0
XRECORD
  5
5CF
102
{ACAD_REACTORS
330
5CD
102
}
330
5CD
100
AcDbXrecord
280
     1
270
     1
271
     1
  0
XRECORD
  5
5CE
102
{ACAD_REACTORS
330
5CD
102
}
330
5CD
100
AcDbXrecord
280
     1
270
     1
271
     1
  0
XRECORD
  5
5D2
102
{ACAD_REACTORS
330
5CD
102
}
330
5CD
100
AcDbXrecord
280
     1
270
     1
271
     1
  0
XRECORD
  5
5D1
102
{ACAD_REACTORS
330
5CD
102
}
330
5CD
100
AcDbXrecord
280
     1
270
     1
271
     1
  0
XRECORD
  5
5D3
102
{ACAD_REACTORS
330
5CD
102
}
330
5CD
100
AcDbXrecord
280
     1
270
     1
271
     1
  0
XRECORD
  5
5D0
102
{ACAD_REACTORS
330
5CD
102
}
330
5CD
100
AcDbXrecord
280
     1
270
     1
271
     1
  0
XRECORD
  5
106A
102
{ACAD_REACTORS
330
5C5
102
}
330
5C5
100
AcDbXrecord
280
     1
102
MATERIAL
148
0.0
149
0.0
149
0.0
 93
        0
 94
      127
282
     0
 72
     0
 77
     0
171
     0
175
     0
179
     0
273
     0
  0
XRECORD
  5
5C7
102
{ACAD_REACTORS
330
5C5
102
}
330
5C5
100
AcDbXrecord
280
     1
270
     1
271
     1
  0
XRECORD
  5
5C6
102
{ACAD_REACTORS
330
5C5
102
}
330
5C5
100
AcDbXrecord
280
     1
270
     1
271
     1
  0
XRECORD
  5
5CA
102
{ACAD_REACTORS
330
5C5
102
}
330
5C5
100
AcDbXrecord
280
     1
270
     1
271
     1
  0
XRECORD
  5
5C9
102
{ACAD_REACTORS
330
5C5
102
}
330
5C5
100
AcDbXrecord
280
     1
270
     1
271
     1
  0
XRECORD
  5
5CB
102
{ACAD_REACTORS
330
5C5
102
}
330
5C5
100
AcDbXrecord
280
     1
270
     1
271
     1
  0
XRECORD
  5
5C8
102
{ACAD_REACTORS
330
5C5
102
}
330
5C5
100
AcDbXrecord
280
     1
270
     1
271
     1
  0
XRECORD
  5
106C
102
{ACAD_REACTORS
330
5D5
102
}
330
5D5
100
AcDbXrecord
280
     1
102
MATERIAL
148
0.0
149
0.0
149
0.0
 93
        0
 94
      127
282
     0
 72
     0
 77
     0
171
     0
175
     0
179
     0
273
     0
  0
XRECORD
  5
5D7
102
{ACAD_REACTORS
330
5D5
102
}
330
5D5
100
AcDbXrecord
280
     1
270
     1
271
     1
  0
XRECORD
  5
5D6
102
{ACAD_REACTORS
330
5D5
102
}
330
5D5
100
AcDbXrecord
280
     1
270
     1
271
     1
  0
XRECORD
  5
5DA
102
{ACAD_REACTORS
330
5D5
102
}
330
5D5
100
AcDbXrecord
280
     1
270
     1
271
     1
  0
XRECORD
  5
5D9
102
{ACAD_REACTORS
330
5D5
102
}
330
5D5
100
AcDbXrecord
280
     1
270
     1
271
     1
  0
XRECORD
  5
5DB
102
{ACAD_REACTORS
330
5D5
102
}
330
5D5
100
AcDbXrecord
280
     1
270
     1
271
     1
  0
XRECORD
  5
5D8
102
{ACAD_REACTORS
330
5D5
102
}
330
5D5
100
AcDbXrecord
280
     1
270
     1
271
     1
  0
XRECORD
  5
109F
102
{ACAD_REACTORS
330
109E
102
}
330
109E
100
AcDbXrecord
280
     1
102
ACAD_ROUNDTRIP_2012_MLEADER_STYLE
298
     1
  0
CELLSTYLEMAP
  5
1068
102
{ACAD_REACTORS
330
64D
102
}
330
64D
100
AcDbCellStyleMap
 90
        3
300
CELLSTYLE
  1
TABLEFORMAT_BEGIN
 90
        5
170
     1
 91
        0
 92
    32768
 62
   257
 93
        1
300
CONTENTFORMAT
  1
CONTENTFORMAT_BEGIN
 90
        0
 91
        0
 92
      512
 93
        0
300

 40
0.0
140
1.0
 94
        5
 62
     0
340
11
144
0.25
309
CONTENTFORMAT_END
171
     0
 94
        0
309
TABLEFORMAT_END
  1
CELLSTYLE_BEGIN
 90
        1
 91
        1
300
_TITLE
309
CELLSTYLE_END
300
CELLSTYLE
  1
TABLEFORMAT_BEGIN
 90
        5
170
     1
 91
        0
 92
        0
 62
   257
 93
        1
300
CONTENTFORMAT
  1
CONTENTFORMAT_BEGIN
 90
        0
 91
        0
 92
      512
 93
        0
300

 40
0.0
140
1.0
 94
        5
 62
     0
340
11
144
0.18
309
CONTENTFORMAT_END
171
     0
 94
        0
309
TABLEFORMAT_END
  1
CELLSTYLE_BEGIN
 90
        2
 91
        1
300
_HEADER
309
CELLSTYLE_END
300
CELLSTYLE
  1
TABLEFORMAT_BEGIN
 90
        5
170
     1
 91
        0
 92
        0
 62
   257
 93
        1
300
CONTENTFORMAT
  1
CONTENTFORMAT_BEGIN
 90
        0
 91
        0
 92
      512
 93
        0
300

 40
0.0
140
1.0
 94
        2
 62
     0
340
11
144
0.18
309
CONTENTFORMAT_END
171
     0
 94
        0
309
TABLEFORMAT_END
  1
CELLSTYLE_BEGIN
 90
        3
 91
        2
300
_DATA
309
CELLSTYLE_END
  0
XRECORD
  5
109D
102
{ACAD_REACTORS
330
64D
102
}
330
64D
100
AcDbXrecord
280
     1
102
ACAD_ROUNDTRIP_PRE2007_TABLESTYLE
 90
      512
 91
        0
  1

 92
      512
 93
        0
  2

 94
      512
 95
        0
  3

  0
XRECORD
  5
1078
102
{ACAD_REACTORS
330
1077
102
}
330
1077
100
AcDbXrecord
280
     1
102
RTVSPost2010Prop28
280
     1
102
RTVSPost2010PropOp28
 70
     1
102
RTVSPost2010Prop29
280
     1
102
RTVSPost2010PropOp29
 70
     1
102
RTVSPost2010Prop30
280
     0
102
RTVSPost2010PropOp30
 70
     1
102
RTVSPost2010Prop31
280
     0
102
RTVSPost2010PropOp31
 70
     1
102
RTVSPost2010Prop32
280
     0
102
RTVSPost2010PropOp32
 70
     1
102
RTVSPost2010Prop33
280
     0
102
RTVSPost2010PropOp33
 70
     1
102
RTVSPost2010Prop34
280
     0
102
RTVSPost2010PropOp34
 70
     1
102
RTVSPost2010Prop35
280
     0
102
RTVSPost2010PropOp35
 70
     1
102
RTVSPost2010Prop36
280
     0
102
RTVSPost2010PropOp36
 70
     1
102
RTVSPost2010Prop37
 90
       50
102
RTVSPost2010PropOp37
 70
     1
102
RTVSPost2010Prop38
140
0.0
102
RTVSPost2010PropOp38
 70
     1
102
RTVSPost2010Prop39
140
1.0
102
RTVSPost2010PropOp39
 70
     1
102
RTVSPost2010Prop40
 90
        0
102
RTVSPost2010PropOp40
 70
     1
102
RTVSPost2010Prop41ColorIndex
 90
       18
102
RTVSPost2010Prop41ColorRGB
 90
        0
102
RTVSPost2010PropOp41
 70
     1
102
RTVSPost2010Prop42
 90
       50
102
RTVSPost2010PropOp42
 70
     1
102
RTVSPost2010Prop43
 90
        3
102
RTVSPost2010PropOp43
 70
     1
102
RTVSPost2010Prop44ColorIndex
 90
        5
102
RTVSPost2010Prop44ColorRGB
 90
      255
102
RTVSPost2010PropOp44
 70
     1
102
RTVSPost2010Prop45
280
     0
102
RTVSPost2010PropOp45
 70
     1
102
RTVSPost2010Prop46
 90
       50
102
RTVSPost2010PropOp46
 70
     1
102
RTVSPost2010Prop47
 90
       50
102
RTVSPost2010PropOp47
 70
     1
102
RTVSPost2010Prop48
 90
       50
102
RTVSPost2010PropOp48
 70
     1
102
RTVSPost2010Prop49
280
     0
102
RTVSPost2010PropOp49
 70
     1
102
RTVSPost2010Prop50
 90
       50
102
RTVSPost2010PropOp50
 70
     1
102
RTVSPost2010Prop51ColorIndex
 90
      256
102
RTVSPost2010Prop51ColorRGB
 90
-16777216
102
RTVSPost2010PropOp51
 70
     0
102
RTVSPost2010Prop52
140
1.0
102
RTVSPost2010PropOp52
 70
     0
102
RTVSPost2010Prop53
 90
        2
102
RTVSPost2010PropOp53
 70
     1
102
RTVSPost2010Prop54
  1
strokes_ogs.tif
102
RTVSPost2010PropOp54
 70
     1
102
RTVSPost2010Prop55
280
     0
102
RTVSPost2010PropOp55
 70
     1
102
RTVSPost2010Prop56
140
1.0
102
RTVSPost2010PropOp56
 70
     1
102
RTVSPost2010Prop57
140
1.0
102
RTVSPost2010PropOp57
 70
     1
102
RTVSPropertyOp0
 70
     1
102
RTVSPropertyOp1
 70
     1
102
RTVSPropertyOp2
 70
     1
102
RTVSPropertyOp3
 70
     1
102
RTVSPropertyOp4
 70
     1
102
RTVSPropertyOp5
 70
     1
102
RTVSPropertyOp6
 70
     1
102
RTVSPropertyOp7
 70
     1
102
RTVSPropertyOp8
 70
     1
102
RTVSPropertyOp9
 70
     1
102
RTVSPropertyOp10
 70
     1
102
RTVSPropertyOp11
 70
     1
102
RTVSPropertyOp12
 70
     1
102
RTVSPropertyOp13
 70
     1
102
RTVSPropertyOp14
 70
     1
102
RTVSPropertyOp15
 70
     1
102
RTVSPropertyOp16
 70
     1
102
RTVSPropertyOp17
 70
     1
102
RTVSPropertyOp18
 70
     1
102
RTVSPropertyOp19
 70
     1
102
RTVSPropertyOp20
 70
     1
102
RTVSPropertyOp21
 70
     1
102
RTVSPropertyOp22
 70
     1
102
RTVSPropertyOp23
 70
     1
102
RTVSPropertyOp24
 70
     1
102
RTVSPropertyOp25
 70
     1
102
RTVSPropertyOp26
 70
     1
102
RTVSPropertyOp27
 70
     1
102
RTVSPropertyOp28
 70
     1
102
RTVSPropertyOp29
 70
     1
102
RTVSPropertyOp30
 70
     1
102
RTVSPropertyOp31
 70
     1
102
RTVSPropertyOp32
 70
     1
102
RTVSPropertyOp33
 70
     1
102
RTVSPropertyOp34
 70
     1
102
RTVSPropertyOp35
 70
     1
102
RTVSPropertyOp36
 70
     1
102
RTVSPropertyOp37
 70
     1
102
RTVSPropertyOp38
 70
     1
102
RTVSPropertyOp39
 70
     1
102
RTVSPropertyOp40
 70
     1
102
RTVSPropertyOp41
 70
     1
102
RTVSPropertyOp42
 70
     1
102
RTVSPropertyOp43
 70
     1
102
RTVSPropertyOp44
 70
     1
102
RTVSPropertyOp45
 70
     1
102
RTVSPropertyOp46
 70
     1
102
RTVSPropertyOp47
 70
     1
102
RTVSPropertyOp48
 70
     1
102
RTVSPropertyOp49
 70
     1
102
RTVSPropertyOp50
 70
     1
102
RTVSPropertyOp51
 70
     0
102
RTVSPropertyOp52
 70
     0
102
RTVSPropertyOp53
 70
     1
102
RTVSPropertyOp54
 70
     1
102
RTVSPropertyOp55
 70
     1
102
RTVSPropertyOp56
 70
     1
102
RTVSPropertyOp57
 70
     1
102
RTVSPropertyOp58
 70
     1
102
RTVSPropertyOp59
 70
     1
102
RTVSPropertyOp60
 70
     1
102
RTVSPropertyOp61
 70
     1
102
RTVSPropertyOp62
 70
     1
  0
XRECORD
  5
1076
102
{ACAD_REACTORS
330
1075
102
}
330
1075
100
AcDbXrecord
280
     1
102
RTVSPost2010Prop28
280
     0
102
RTVSPost2010PropOp28
 70
     1
102
RTVSPost2010Prop29
280
     1
102
RTVSPost2010PropOp29
 70
     1
102
RTVSPost2010Prop30
280
     1
102
RTVSPost2010PropOp30
 70
     1
102
RTVSPost2010Prop31
280
     0
102
RTVSPost2010PropOp31
 70
     1
102
RTVSPost2010Prop32
280
     0
102
RTVSPost2010PropOp32
 70
     1
102
RTVSPost2010Prop33
280
     0
102
RTVSPost2010PropOp33
 70
     1
102
RTVSPost2010Prop34
280
     0
102
RTVSPost2010PropOp34
 70
     1
102
RTVSPost2010Prop35
280
     0
102
RTVSPost2010PropOp35
 70
     1
102
RTVSPost2010Prop36
280
     0
102
RTVSPost2010PropOp36
 70
     1
102
RTVSPost2010Prop37
 90
       50
102
RTVSPost2010PropOp37
 70
     1
102
RTVSPost2010Prop38
140
0.0
102
RTVSPost2010PropOp38
 70
     1
102
RTVSPost2010Prop39
140
1.0
102
RTVSPost2010PropOp39
 70
     1
102
RTVSPost2010Prop40
 90
        0
102
RTVSPost2010PropOp40
 70
     1
102
RTVSPost2010Prop41ColorIndex
 90
       18
102
RTVSPost2010Prop41ColorRGB
 90
        0
102
RTVSPost2010PropOp41
 70
     1
102
RTVSPost2010Prop42
 90
       50
102
RTVSPost2010PropOp42
 70
     1
102
RTVSPost2010Prop43
 90
        3
102
RTVSPost2010PropOp43
 70
     1
102
RTVSPost2010Prop44ColorIndex
 90
        5
102
RTVSPost2010Prop44ColorRGB
 90
      255
102
RTVSPost2010PropOp44
 70
     1
102
RTVSPost2010Prop45
280
     0
102
RTVSPost2010PropOp45
 70
     1
102
RTVSPost2010Prop46
 90
       50
102
RTVSPost2010PropOp46
 70
     1
102
RTVSPost2010Prop47
 90
       50
102
RTVSPost2010PropOp47
 70
     1
102
RTVSPost2010Prop48
 90
       50
102
RTVSPost2010PropOp48
 70
     1
102
RTVSPost2010Prop49
280
     0
102
RTVSPost2010PropOp49
 70
     1
102
RTVSPost2010Prop50
 90
       50
102
RTVSPost2010PropOp50
 70
     1
102
RTVSPost2010Prop51ColorIndex
 90
      256
102
RTVSPost2010Prop51ColorRGB
 90
-16777216
102
RTVSPost2010PropOp51
 70
     0
102
RTVSPost2010Prop52
140
1.0
102
RTVSPost2010PropOp52
 70
     0
102
RTVSPost2010Prop53
 90
        2
102
RTVSPost2010PropOp53
 70
     1
102
RTVSPost2010Prop54
  1
strokes_ogs.tif
102
RTVSPost2010PropOp54
 70
     1
102
RTVSPost2010Prop55
280
     0
102
RTVSPost2010PropOp55
 70
     1
102
RTVSPost2010Prop56
140
1.0
102
RTVSPost2010PropOp56
 70
     1
102
RTVSPost2010Prop57
140
1.0
102
RTVSPost2010PropOp57
 70
     1
102
RTVSPropertyOp0
 70
     1
102
RTVSPropertyOp1
 70
     1
102
RTVSPropertyOp2
 70
     1
102
RTVSPropertyOp3
 70
     1
102
RTVSPropertyOp4
 70
     1
102
RTVSPropertyOp5
 70
     1
102
RTVSPropertyOp6
 70
     1
102
RTVSPropertyOp7
 70
     1
102
RTVSPropertyOp8
 70
     1
102
RTVSPropertyOp9
 70
     1
102
RTVSPropertyOp10
 70
     1
102
RTVSPropertyOp11
 70
     1
102
RTVSPropertyOp12
 70
     1
102
RTVSPropertyOp13
 70
     1
102
RTVSPropertyOp14
 70
     1
102
RTVSPropertyOp15
 70
     1
102
RTVSPropertyOp16
 70
     1
102
RTVSPropertyOp17
 70
     1
102
RTVSPropertyOp18
 70
     1
102
RTVSPropertyOp19
 70
     1
102
RTVSPropertyOp20
 70
     1
102
RTVSPropertyOp21
 70
     1
102
RTVSPropertyOp22
 70
     1
102
RTVSPropertyOp23
 70
     1
102
RTVSPropertyOp24
 70
     1
102
RTVSPropertyOp25
 70
     1
102
RTVSPropertyOp26
 70
     1
102
RTVSPropertyOp27
 70
     1
102
RTVSPropertyOp28
 70
     1
102
RTVSPropertyOp29
 70
     1
102
RTVSPropertyOp30
 70
     1
102
RTVSPropertyOp31
 70
     1
102
RTVSPropertyOp32
 70
     1
102
RTVSPropertyOp33
 70
     1
102
RTVSPropertyOp34
 70
     1
102
RTVSPropertyOp35
 70
     1
102
RTVSPropertyOp36
 70
     1
102
RTVSPropertyOp37
 70
     1
102
RTVSPropertyOp38
 70
     1
102
RTVSPropertyOp39
 70
     1
102
RTVSPropertyOp40
 70
     1
102
RTVSPropertyOp41
 70
     1
102
RTVSPropertyOp42
 70
     1
102
RTVSPropertyOp43
 70
     1
102
RTVSPropertyOp44
 70
     1
102
RTVSPropertyOp45
 70
     1
102
RTVSPropertyOp46
 70
     1
102
RTVSPropertyOp47
 70
     1
102
RTVSPropertyOp48
 70
     1
102
RTVSPropertyOp49
 70
     1
102
RTVSPropertyOp50
 70
     1
102
RTVSPropertyOp51
 70
     0
102
RTVSPropertyOp52
 70
     0
102
RTVSPropertyOp53
 70
     1
102
RTVSPropertyOp54
 70
     1
102
RTVSPropertyOp55
 70
     1
102
RTVSPropertyOp56
 70
     1
102
RTVSPropertyOp57
 70
     1
102
RTVSPropertyOp58
 70
     1
102
RTVSPropertyOp59
 70
     1
102
RTVSPropertyOp60
 70
     1
102
RTVSPropertyOp61
 70
     1
102
RTVSPropertyOp62
 70
     1
  0
XRECORD
  5
1084
102
{ACAD_REACTORS
330
1083
102
}
330
1083
100
AcDbXrecord
280
     1
102
RTVSPost2010Prop28
280
     0
102
RTVSPost2010PropOp28
 70
     1
102
RTVSPost2010Prop29
280
     1
102
RTVSPost2010PropOp29
 70
     1
102
RTVSPost2010Prop30
280
     1
102
RTVSPost2010PropOp30
 70
     1
102
RTVSPost2010Prop31
280
     0
102
RTVSPost2010PropOp31
 70
     1
102
RTVSPost2010Prop32
280
     0
102
RTVSPost2010PropOp32
 70
     1
102
RTVSPost2010Prop33
280
     0
102
RTVSPost2010PropOp33
 70
     1
102
RTVSPost2010Prop34
280
     0
102
RTVSPost2010PropOp34
 70
     1
102
RTVSPost2010Prop35
280
     0
102
RTVSPost2010PropOp35
 70
     1
102
RTVSPost2010Prop36
280
     0
102
RTVSPost2010PropOp36
 70
     1
102
RTVSPost2010Prop37
 90
       50
102
RTVSPost2010PropOp37
 70
     1
102
RTVSPost2010Prop38
140
0.0
102
RTVSPost2010PropOp38
 70
     1
102
RTVSPost2010Prop39
140
1.0
102
RTVSPost2010PropOp39
 70
     1
102
RTVSPost2010Prop40
 90
        0
102
RTVSPost2010PropOp40
 70
     1
102
RTVSPost2010Prop41ColorIndex
 90
       18
102
RTVSPost2010Prop41ColorRGB
 90
        0
102
RTVSPost2010PropOp41
 70
     1
102
RTVSPost2010Prop42
 90
       50
102
RTVSPost2010PropOp42
 70
     1
102
RTVSPost2010Prop43
 90
        3
102
RTVSPost2010PropOp43
 70
     1
102
RTVSPost2010Prop44ColorIndex
 90
        5
102
RTVSPost2010Prop44ColorRGB
 90
      255
102
RTVSPost2010PropOp44
 70
     1
102
RTVSPost2010Prop45
280
     0
102
RTVSPost2010PropOp45
 70
     1
102
RTVSPost2010Prop46
 90
       50
102
RTVSPost2010PropOp46
 70
     1
102
RTVSPost2010Prop47
 90
       50
102
RTVSPost2010PropOp47
 70
     1
102
RTVSPost2010Prop48
 90
       50
102
RTVSPost2010PropOp48
 70
     1
102
RTVSPost2010Prop49
280
     0
102
RTVSPost2010PropOp49
 70
     1
102
RTVSPost2010Prop50
 90
       50
102
RTVSPost2010PropOp50
 70
     1
102
RTVSPost2010Prop51ColorIndex
 90
      256
102
RTVSPost2010Prop51ColorRGB
 90
-16777216
102
RTVSPost2010PropOp51
 70
     0
102
RTVSPost2010Prop52
140
1.0
102
RTVSPost2010PropOp52
 70
     0
102
RTVSPost2010Prop53
 90
        2
102
RTVSPost2010PropOp53
 70
     1
102
RTVSPost2010Prop54
  1
strokes_ogs.tif
102
RTVSPost2010PropOp54
 70
     1
102
RTVSPost2010Prop55
280
     0
102
RTVSPost2010PropOp55
 70
     1
102
RTVSPost2010Prop56
140
1.0
102
RTVSPost2010PropOp56
 70
     1
102
RTVSPost2010Prop57
140
1.0
102
RTVSPost2010PropOp57
 70
     1
102
RTVSPropertyOp0
 70
     1
102
RTVSPropertyOp1
 70
     1
102
RTVSPropertyOp2
 70
     1
102
RTVSPropertyOp3
 70
     1
102
RTVSPropertyOp4
 70
     1
102
RTVSPropertyOp5
 70
     1
102
RTVSPropertyOp6
 70
     1
102
RTVSPropertyOp7
 70
     1
102
RTVSPropertyOp8
 70
     1
102
RTVSPropertyOp9
 70
     1
102
RTVSPropertyOp10
 70
     1
102
RTVSPropertyOp11
 70
     1
102
RTVSPropertyOp12
 70
     1
102
RTVSPropertyOp13
 70
     1
102
RTVSPropertyOp14
 70
     1
102
RTVSPropertyOp15
 70
     1
102
RTVSPropertyOp16
 70
     1
102
RTVSPropertyOp17
 70
     1
102
RTVSPropertyOp18
 70
     1
102
RTVSPropertyOp19
 70
     1
102
RTVSPropertyOp20
 70
     1
102
RTVSPropertyOp21
 70
     1
102
RTVSPropertyOp22
 70
     1
102
RTVSPropertyOp23
 70
     1
102
RTVSPropertyOp24
 70
     1
102
RTVSPropertyOp25
 70
     1
102
RTVSPropertyOp26
 70
     1
102
RTVSPropertyOp27
 70
     1
102
RTVSPropertyOp28
 70
     1
102
RTVSPropertyOp29
 70
     1
102
RTVSPropertyOp30
 70
     1
102
RTVSPropertyOp31
 70
     1
102
RTVSPropertyOp32
 70
     1
102
RTVSPropertyOp33
 70
     1
102
RTVSPropertyOp34
 70
     1
102
RTVSPropertyOp35
 70
     1
102
RTVSPropertyOp36
 70
     1
102
RTVSPropertyOp37
 70
     1
102
RTVSPropertyOp38
 70
     1
102
RTVSPropertyOp39
 70
     1
102
RTVSPropertyOp40
 70
     1
102
RTVSPropertyOp41
 70
     1
102
RTVSPropertyOp42
 70
     1
102
RTVSPropertyOp43
 70
     1
102
RTVSPropertyOp44
 70
     1
102
RTVSPropertyOp45
 70
     1
102
RTVSPropertyOp46
 70
     1
102
RTVSPropertyOp47
 70
     1
102
RTVSPropertyOp48
 70
     1
102
RTVSPropertyOp49
 70
     1
102
RTVSPropertyOp50
 70
     1
102
RTVSPropertyOp51
 70
     0
102
RTVSPropertyOp52
 70
     0
102
RTVSPropertyOp53
 70
     1
102
RTVSPropertyOp54
 70
     1
102
RTVSPropertyOp55
 70
     1
102
RTVSPropertyOp56
 70
     1
102
RTVSPropertyOp57
 70
     1
102
RTVSPropertyOp58
 70
     1
102
RTVSPropertyOp59
 70
     1
102
RTVSPropertyOp60
 70
     1
102
RTVSPropertyOp61
 70
     1
102
RTVSPropertyOp62
 70
     1
  0
XRECORD
  5
108C
102
{ACAD_REACTORS
330
108B
102
}
330
108B
100
AcDbXrecord
280
     1
102
RTVSPost2010Prop28
280
     0
102
RTVSPost2010PropOp28
 70
     1
102
RTVSPost2010Prop29
280
     1
102
RTVSPost2010PropOp29
 70
     1
102
RTVSPost2010Prop30
280
     1
102
RTVSPost2010PropOp30
 70
     1
102
RTVSPost2010Prop31
280
     0
102
RTVSPost2010PropOp31
 70
     1
102
RTVSPost2010Prop32
280
     0
102
RTVSPost2010PropOp32
 70
     1
102
RTVSPost2010Prop33
280
     0
102
RTVSPost2010PropOp33
 70
     1
102
RTVSPost2010Prop34
280
     0
102
RTVSPost2010PropOp34
 70
     1
102
RTVSPost2010Prop35
280
     0
102
RTVSPost2010PropOp35
 70
     1
102
RTVSPost2010Prop36
280
     0
102
RTVSPost2010PropOp36
 70
     1
102
RTVSPost2010Prop37
 90
       50
102
RTVSPost2010PropOp37
 70
     1
102
RTVSPost2010Prop38
140
0.0
102
RTVSPost2010PropOp38
 70
     1
102
RTVSPost2010Prop39
140
1.0
102
RTVSPost2010PropOp39
 70
     1
102
RTVSPost2010Prop40
 90
        0
102
RTVSPost2010PropOp40
 70
     1
102
RTVSPost2010Prop41ColorIndex
 90
       18
102
RTVSPost2010Prop41ColorRGB
 90
        0
102
RTVSPost2010PropOp41
 70
     1
102
RTVSPost2010Prop42
 90
       50
102
RTVSPost2010PropOp42
 70
     1
102
RTVSPost2010Prop43
 90
        3
102
RTVSPost2010PropOp43
 70
     1
102
RTVSPost2010Prop44ColorIndex
 90
        5
102
RTVSPost2010Prop44ColorRGB
 90
      255
102
RTVSPost2010PropOp44
 70
     1
102
RTVSPost2010Prop45
280
     0
102
RTVSPost2010PropOp45
 70
     1
102
RTVSPost2010Prop46
 90
       50
102
RTVSPost2010PropOp46
 70
     1
102
RTVSPost2010Prop47
 90
       50
102
RTVSPost2010PropOp47
 70
     1
102
RTVSPost2010Prop48
 90
       50
102
RTVSPost2010PropOp48
 70
     1
102
RTVSPost2010Prop49
280
     0
102
RTVSPost2010PropOp49
 70
     1
102
RTVSPost2010Prop50
 90
       50
102
RTVSPost2010PropOp50
 70
     1
102
RTVSPost2010Prop51ColorIndex
 90
      256
102
RTVSPost2010Prop51ColorRGB
 90
-16777216
102
RTVSPost2010PropOp51
 70
     0
102
RTVSPost2010Prop52
140
1.0
102
RTVSPost2010PropOp52
 70
     0
102
RTVSPost2010Prop53
 90
        2
102
RTVSPost2010PropOp53
 70
     1
102
RTVSPost2010Prop54
  1
strokes_ogs.tif
102
RTVSPost2010PropOp54
 70
     1
102
RTVSPost2010Prop55
280
     0
102
RTVSPost2010PropOp55
 70
     1
102
RTVSPost2010Prop56
140
1.0
102
RTVSPost2010PropOp56
 70
     1
102
RTVSPost2010Prop57
140
1.0
102
RTVSPost2010PropOp57
 70
     1
102
RTVSPropertyOp0
 70
     1
102
RTVSPropertyOp1
 70
     1
102
RTVSPropertyOp2
 70
     1
102
RTVSPropertyOp3
 70
     1
102
RTVSPropertyOp4
 70
     1
102
RTVSPropertyOp5
 70
     1
102
RTVSPropertyOp6
 70
     1
102
RTVSPropertyOp7
 70
     1
102
RTVSPropertyOp8
 70
     1
102
RTVSPropertyOp9
 70
     1
102
RTVSPropertyOp10
 70
     1
102
RTVSPropertyOp11
 70
     1
102
RTVSPropertyOp12
 70
     1
102
RTVSPropertyOp13
 70
     1
102
RTVSPropertyOp14
 70
     1
102
RTVSPropertyOp15
 70
     1
102
RTVSPropertyOp16
 70
     1
102
RTVSPropertyOp17
 70
     1
102
RTVSPropertyOp18
 70
     1
102
RTVSPropertyOp19
 70
     1
102
RTVSPropertyOp20
 70
     1
102
RTVSPropertyOp21
 70
     1
102
RTVSPropertyOp22
 70
     1
102
RTVSPropertyOp23
 70
     1
102
RTVSPropertyOp24
 70
     1
102
RTVSPropertyOp25
 70
     1
102
RTVSPropertyOp26
 70
     1
102
RTVSPropertyOp27
 70
     1
102
RTVSPropertyOp28
 70
     1
102
RTVSPropertyOp29
 70
     1
102
RTVSPropertyOp30
 70
     1
102
RTVSPropertyOp31
 70
     1
102
RTVSPropertyOp32
 70
     1
102
RTVSPropertyOp33
 70
     1
102
RTVSPropertyOp34
 70
     1
102
RTVSPropertyOp35
 70
     1
102
RTVSPropertyOp36
 70
     1
102
RTVSPropertyOp37
 70
     1
102
RTVSPropertyOp38
 70
     1
102
RTVSPropertyOp39
 70
     1
102
RTVSPropertyOp40
 70
     1
102
RTVSPropertyOp41
 70
     1
102
RTVSPropertyOp42
 70
     1
102
RTVSPropertyOp43
 70
     1
102
RTVSPropertyOp44
 70
     1
102
RTVSPropertyOp45
 70
     1
102
RTVSPropertyOp46
 70
     1
102
RTVSPropertyOp47
 70
     1
102
RTVSPropertyOp48
 70
     1
102
RTVSPropertyOp49
 70
     1
102
RTVSPropertyOp50
 70
     1
102
RTVSPropertyOp51
 70
     0
102
RTVSPropertyOp52
 70
     0
102
RTVSPropertyOp53
 70
     1
102
RTVSPropertyOp54
 70
     1
102
RTVSPropertyOp55
 70
     1
102
RTVSPropertyOp56
 70
     1
102
RTVSPropertyOp57
 70
     1
102
RTVSPropertyOp58
 70
     1
102
RTVSPropertyOp59
 70
     1
102
RTVSPropertyOp60
 70
     1
102
RTVSPropertyOp61
 70
     1
102
RTVSPropertyOp62
 70
     1
  0
XRECORD
  5
107E
102
{ACAD_REACTORS
330
107D
102
}
330
107D
100
AcDbXrecord
280
     1
102
RTVSPost2010Prop28
280
     0
102
RTVSPost2010PropOp28
 70
     1
102
RTVSPost2010Prop29
280
     1
102
RTVSPost2010PropOp29
 70
     1
102
RTVSPost2010Prop30
280
     1
102
RTVSPost2010PropOp30
 70
     1
102
RTVSPost2010Prop31
280
     0
102
RTVSPost2010PropOp31
 70
     1
102
RTVSPost2010Prop32
280
     0
102
RTVSPost2010PropOp32
 70
     1
102
RTVSPost2010Prop33
280
     0
102
RTVSPost2010PropOp33
 70
     1
102
RTVSPost2010Prop34
280
     0
102
RTVSPost2010PropOp34
 70
     1
102
RTVSPost2010Prop35
280
     0
102
RTVSPost2010PropOp35
 70
     1
102
RTVSPost2010Prop36
280
     0
102
RTVSPost2010PropOp36
 70
     1
102
RTVSPost2010Prop37
 90
       50
102
RTVSPost2010PropOp37
 70
     1
102
RTVSPost2010Prop38
140
0.0
102
RTVSPost2010PropOp38
 70
     1
102
RTVSPost2010Prop39
140
1.0
102
RTVSPost2010PropOp39
 70
     1
102
RTVSPost2010Prop40
 90
        0
102
RTVSPost2010PropOp40
 70
     1
102
RTVSPost2010Prop41ColorIndex
 90
       18
102
RTVSPost2010Prop41ColorRGB
 90
        0
102
RTVSPost2010PropOp41
 70
     1
102
RTVSPost2010Prop42
 90
       50
102
RTVSPost2010PropOp42
 70
     1
102
RTVSPost2010Prop43
 90
        3
102
RTVSPost2010PropOp43
 70
     1
102
RTVSPost2010Prop44ColorIndex
 90
        5
102
RTVSPost2010Prop44ColorRGB
 90
      255
102
RTVSPost2010PropOp44
 70
     1
102
RTVSPost2010Prop45
280
     0
102
RTVSPost2010PropOp45
 70
     1
102
RTVSPost2010Prop46
 90
       50
102
RTVSPost2010PropOp46
 70
     1
102
RTVSPost2010Prop47
 90
       50
102
RTVSPost2010PropOp47
 70
     1
102
RTVSPost2010Prop48
 90
       50
102
RTVSPost2010PropOp48
 70
     1
102
RTVSPost2010Prop49
280
     0
102
RTVSPost2010PropOp49
 70
     1
102
RTVSPost2010Prop50
 90
       50
102
RTVSPost2010PropOp50
 70
     1
102
RTVSPost2010Prop51ColorIndex
 90
      256
102
RTVSPost2010Prop51ColorRGB
 90
-16777216
102
RTVSPost2010PropOp51
 70
     0
102
RTVSPost2010Prop52
140
1.0
102
RTVSPost2010PropOp52
 70
     0
102
RTVSPost2010Prop53
 90
        2
102
RTVSPost2010PropOp53
 70
     1
102
RTVSPost2010Prop54
  1
strokes_ogs.tif
102
RTVSPost2010PropOp54
 70
     1
102
RTVSPost2010Prop55
280
     0
102
RTVSPost2010PropOp55
 70
     1
102
RTVSPost2010Prop56
140
1.0
102
RTVSPost2010PropOp56
 70
     1
102
RTVSPost2010Prop57
140
1.0
102
RTVSPost2010PropOp57
 70
     1
102
RTVSPropertyOp0
 70
     1
102
RTVSPropertyOp1
 70
     1
102
RTVSPropertyOp2
 70
     1
102
RTVSPropertyOp3
 70
     1
102
RTVSPropertyOp4
 70
     1
102
RTVSPropertyOp5
 70
     1
102
RTVSPropertyOp6
 70
     1
102
RTVSPropertyOp7
 70
     1
102
RTVSPropertyOp8
 70
     1
102
RTVSPropertyOp9
 70
     1
102
RTVSPropertyOp10
 70
     1
102
RTVSPropertyOp11
 70
     1
102
RTVSPropertyOp12
 70
     1
102
RTVSPropertyOp13
 70
     1
102
RTVSPropertyOp14
 70
     1
102
RTVSPropertyOp15
 70
     1
102
RTVSPropertyOp16
 70
     1
102
RTVSPropertyOp17
 70
     1
102
RTVSPropertyOp18
 70
     1
102
RTVSPropertyOp19
 70
     1
102
RTVSPropertyOp20
 70
     1
102
RTVSPropertyOp21
 70
     1
102
RTVSPropertyOp22
 70
     1
102
RTVSPropertyOp23
 70
     1
102
RTVSPropertyOp24
 70
     1
102
RTVSPropertyOp25
 70
     1
102
RTVSPropertyOp26
 70
     1
102
RTVSPropertyOp27
 70
     1
102
RTVSPropertyOp28
 70
     1
102
RTVSPropertyOp29
 70
     1
102
RTVSPropertyOp30
 70
     1
102
RTVSPropertyOp31
 70
     1
102
RTVSPropertyOp32
 70
     1
102
RTVSPropertyOp33
 70
     1
102
RTVSPropertyOp34
 70
     1
102
RTVSPropertyOp35
 70
     1
102
RTVSPropertyOp36
 70
     1
102
RTVSPropertyOp37
 70
     1
102
RTVSPropertyOp38
 70
     1
102
RTVSPropertyOp39
 70
     1
102
RTVSPropertyOp40
 70
     1
102
RTVSPropertyOp41
 70
     1
102
RTVSPropertyOp42
 70
     1
102
RTVSPropertyOp43
 70
     1
102
RTVSPropertyOp44
 70
     1
102
RTVSPropertyOp45
 70
     1
102
RTVSPropertyOp46
 70
     1
102
RTVSPropertyOp47
 70
     1
102
RTVSPropertyOp48
 70
     1
102
RTVSPropertyOp49
 70
     1
102
RTVSPropertyOp50
 70
     1
102
RTVSPropertyOp51
 70
     0
102
RTVSPropertyOp52
 70
     0
102
RTVSPropertyOp53
 70
     1
102
RTVSPropertyOp54
 70
     1
102
RTVSPropertyOp55
 70
     1
102
RTVSPropertyOp56
 70
     1
102
RTVSPropertyOp57
 70
     1
102
RTVSPropertyOp58
 70
     1
102
RTVSPropertyOp59
 70
     1
102
RTVSPropertyOp60
 70
     1
102
RTVSPropertyOp61
 70
     1
102
RTVSPropertyOp62
 70
     1
  0
XRECORD
  5
1082
102
{ACAD_REACTORS
330
1081
102
}
330
1081
100
AcDbXrecord
280
     1
102
RTVSPost2010Prop28
280
     0
102
RTVSPost2010PropOp28
 70
     1
102
RTVSPost2010Prop29
280
     1
102
RTVSPost2010PropOp29
 70
     1
102
RTVSPost2010Prop30
280
     1
102
RTVSPost2010PropOp30
 70
     1
102
RTVSPost2010Prop31
280
     0
102
RTVSPost2010PropOp31
 70
     1
102
RTVSPost2010Prop32
280
     0
102
RTVSPost2010PropOp32
 70
     1
102
RTVSPost2010Prop33
280
     0
102
RTVSPost2010PropOp33
 70
     1
102
RTVSPost2010Prop34
280
     0
102
RTVSPost2010PropOp34
 70
     1
102
RTVSPost2010Prop35
280
     0
102
RTVSPost2010PropOp35
 70
     1
102
RTVSPost2010Prop36
280
     0
102
RTVSPost2010PropOp36
 70
     1
102
RTVSPost2010Prop37
 90
       50
102
RTVSPost2010PropOp37
 70
     1
102
RTVSPost2010Prop38
140
0.0
102
RTVSPost2010PropOp38
 70
     1
102
RTVSPost2010Prop39
140
1.0
102
RTVSPost2010PropOp39
 70
     1
102
RTVSPost2010Prop40
 90
        0
102
RTVSPost2010PropOp40
 70
     1
102
RTVSPost2010Prop41ColorIndex
 90
       18
102
RTVSPost2010Prop41ColorRGB
 90
        0
102
RTVSPost2010PropOp41
 70
     1
102
RTVSPost2010Prop42
 90
       50
102
RTVSPost2010PropOp42
 70
     1
102
RTVSPost2010Prop43
 90
        3
102
RTVSPost2010PropOp43
 70
     1
102
RTVSPost2010Prop44ColorIndex
 90
        5
102
RTVSPost2010Prop44ColorRGB
 90
      255
102
RTVSPost2010PropOp44
 70
     1
102
RTVSPost2010Prop45
280
     0
102
RTVSPost2010PropOp45
 70
     1
102
RTVSPost2010Prop46
 90
       50
102
RTVSPost2010PropOp46
 70
     1
102
RTVSPost2010Prop47
 90
       50
102
RTVSPost2010PropOp47
 70
     1
102
RTVSPost2010Prop48
 90
       50
102
RTVSPost2010PropOp48
 70
     1
102
RTVSPost2010Prop49
280
     0
102
RTVSPost2010PropOp49
 70
     1
102
RTVSPost2010Prop50
 90
       50
102
RTVSPost2010PropOp50
 70
     1
102
RTVSPost2010Prop51ColorIndex
 90
      256
102
RTVSPost2010Prop51ColorRGB
 90
-16777216
102
RTVSPost2010PropOp51
 70
     0
102
RTVSPost2010Prop52
140
1.0
102
RTVSPost2010PropOp52
 70
     0
102
RTVSPost2010Prop53
 90
        2
102
RTVSPost2010PropOp53
 70
     1
102
RTVSPost2010Prop54
  1
strokes_ogs.tif
102
RTVSPost2010PropOp54
 70
     1
102
RTVSPost2010Prop55
280
     0
102
RTVSPost2010PropOp55
 70
     1
102
RTVSPost2010Prop56
140
1.0
102
RTVSPost2010PropOp56
 70
     1
102
RTVSPost2010Prop57
140
1.0
102
RTVSPost2010PropOp57
 70
     1
102
RTVSPropertyOp0
 70
     1
102
RTVSPropertyOp1
 70
     1
102
RTVSPropertyOp2
 70
     1
102
RTVSPropertyOp3
 70
     1
102
RTVSPropertyOp4
 70
     1
102
RTVSPropertyOp5
 70
     1
102
RTVSPropertyOp6
 70
     1
102
RTVSPropertyOp7
 70
     1
102
RTVSPropertyOp8
 70
     1
102
RTVSPropertyOp9
 70
     1
102
RTVSPropertyOp10
 70
     1
102
RTVSPropertyOp11
 70
     1
102
RTVSPropertyOp12
 70
     1
102
RTVSPropertyOp13
 70
     1
102
RTVSPropertyOp14
 70
     1
102
RTVSPropertyOp15
 70
     1
102
RTVSPropertyOp16
 70
     1
102
RTVSPropertyOp17
 70
     1
102
RTVSPropertyOp18
 70
     1
102
RTVSPropertyOp19
 70
     1
102
RTVSPropertyOp20
 70
     1
102
RTVSPropertyOp21
 70
     1
102
RTVSPropertyOp22
 70
     1
102
RTVSPropertyOp23
 70
     1
102
RTVSPropertyOp24
 70
     1
102
RTVSPropertyOp25
 70
     1
102
RTVSPropertyOp26
 70
     1
102
RTVSPropertyOp27
 70
     1
102
RTVSPropertyOp28
 70
     1
102
RTVSPropertyOp29
 70
     1
102
RTVSPropertyOp30
 70
     1
102
RTVSPropertyOp31
 70
     1
102
RTVSPropertyOp32
 70
     1
102
RTVSPropertyOp33
 70
     1
102
RTVSPropertyOp34
 70
     1
102
RTVSPropertyOp35
 70
     1
102
RTVSPropertyOp36
 70
     1
102
RTVSPropertyOp37
 70
     1
102
RTVSPropertyOp38
 70
     1
102
RTVSPropertyOp39
 70
     1
102
RTVSPropertyOp40
 70
     1
102
RTVSPropertyOp41
 70
     1
102
RTVSPropertyOp42
 70
     1
102
RTVSPropertyOp43
 70
     1
102
RTVSPropertyOp44
 70
     1
102
RTVSPropertyOp45
 70
     1
102
RTVSPropertyOp46
 70
     1
102
RTVSPropertyOp47
 70
     1
102
RTVSPropertyOp48
 70
     1
102
RTVSPropertyOp49
 70
     1
102
RTVSPropertyOp50
 70
     1
102
RTVSPropertyOp51
 70
     0
102
RTVSPropertyOp52
 70
     0
102
RTVSPropertyOp53
 70
     1
102
RTVSPropertyOp54
 70
     1
102
RTVSPropertyOp55
 70
     1
102
RTVSPropertyOp56
 70
     1
102
RTVSPropertyOp57
 70
     1
102
RTVSPropertyOp58
 70
     1
102
RTVSPropertyOp59
 70
     1
102
RTVSPropertyOp60
 70
     1
102
RTVSPropertyOp61
 70
     1
102
RTVSPropertyOp62
 70
     1
  0
XRECORD
  5
109C
102
{ACAD_REACTORS
330
109B
102
}
330
109B
100
AcDbXrecord
280
     1
102
RTVSPost2010Prop28
280
     0
102
RTVSPost2010PropOp28
 70
     0
102
RTVSPost2010Prop29
280
     1
102
RTVSPost2010PropOp29
 70
     0
102
RTVSPost2010Prop30
280
     1
102
RTVSPost2010PropOp30
 70
     0
102
RTVSPost2010Prop31
280
     0
102
RTVSPost2010PropOp31
 70
     0
102
RTVSPost2010Prop32
280
     0
102
RTVSPost2010PropOp32
 70
     0
102
RTVSPost2010Prop33
280
     0
102
RTVSPost2010PropOp33
 70
     0
102
RTVSPost2010Prop34
280
     0
102
RTVSPost2010PropOp34
 70
     0
102
RTVSPost2010Prop35
280
     0
102
RTVSPost2010PropOp35
 70
     0
102
RTVSPost2010Prop36
280
     0
102
RTVSPost2010PropOp36
 70
     0
102
RTVSPost2010Prop37
 90
       50
102
RTVSPost2010PropOp37
 70
     0
102
RTVSPost2010Prop38
140
0.0
102
RTVSPost2010PropOp38
 70
     0
102
RTVSPost2010Prop39
140
1.0
102
RTVSPost2010PropOp39
 70
     0
102
RTVSPost2010Prop40
 90
        0
102
RTVSPost2010PropOp40
 70
     0
102
RTVSPost2010Prop41ColorIndex
 90
       18
102
RTVSPost2010Prop41ColorRGB
 90
        0
102
RTVSPost2010PropOp41
 70
     0
102
RTVSPost2010Prop42
 90
       50
102
RTVSPost2010PropOp42
 70
     0
102
RTVSPost2010Prop43
 90
        3
102
RTVSPost2010PropOp43
 70
     0
102
RTVSPost2010Prop44ColorIndex
 90
        5
102
RTVSPost2010Prop44ColorRGB
 90
      255
102
RTVSPost2010PropOp44
 70
     0
102
RTVSPost2010Prop45
280
     0
102
RTVSPost2010PropOp45
 70
     0
102
RTVSPost2010Prop46
 90
       50
102
RTVSPost2010PropOp46
 70
     0
102
RTVSPost2010Prop47
 90
       50
102
RTVSPost2010PropOp47
 70
     0
102
RTVSPost2010Prop48
 90
       50
102
RTVSPost2010PropOp48
 70
     0
102
RTVSPost2010Prop49
280
     0
102
RTVSPost2010PropOp49
 70
     0
102
RTVSPost2010Prop50
 90
       50
102
RTVSPost2010PropOp50
 70
     0
102
RTVSPost2010Prop51ColorIndex
 90
      256
102
RTVSPost2010Prop51ColorRGB
 90
-16777216
102
RTVSPost2010PropOp51
 70
     0
102
RTVSPost2010Prop52
140
1.0
102
RTVSPost2010PropOp52
 70
     0
102
RTVSPost2010Prop53
 90
        2
102
RTVSPost2010PropOp53
 70
     0
102
RTVSPost2010Prop54
  1
strokes_ogs.tif
102
RTVSPost2010PropOp54
 70
     0
102
RTVSPost2010Prop55
280
     0
102
RTVSPost2010PropOp55
 70
     0
102
RTVSPost2010Prop56
140
1.0
102
RTVSPost2010PropOp56
 70
     0
102
RTVSPost2010Prop57
140
1.0
102
RTVSPost2010PropOp57
 70
     0
102
RTVSPropertyOp0
 70
     0
102
RTVSPropertyOp1
 70
     0
102
RTVSPropertyOp2
 70
     0
102
RTVSPropertyOp3
 70
     0
102
RTVSPropertyOp4
 70
     0
102
RTVSPropertyOp5
 70
     0
102
RTVSPropertyOp6
 70
     0
102
RTVSPropertyOp7
 70
     0
102
RTVSPropertyOp8
 70
     0
102
RTVSPropertyOp9
 70
     0
102
RTVSPropertyOp10
 70
     0
102
RTVSPropertyOp11
 70
     0
102
RTVSPropertyOp12
 70
     0
102
RTVSPropertyOp13
 70
     0
102
RTVSPropertyOp14
 70
     2
102
RTVSPropertyOp15
 70
     0
102
RTVSPropertyOp16
 70
     0
102
RTVSPropertyOp17
 70
     0
102
RTVSPropertyOp18
 70
     0
102
RTVSPropertyOp19
 70
     0
102
RTVSPropertyOp20
 70
     0
102
RTVSPropertyOp21
 70
     0
102
RTVSPropertyOp22
 70
     0
102
RTVSPropertyOp23
 70
     0
102
RTVSPropertyOp24
 70
     0
102
RTVSPropertyOp25
 70
     0
102
RTVSPropertyOp26
 70
     0
102
RTVSPropertyOp27
 70
     0
102
RTVSPropertyOp28
 70
     0
102
RTVSPropertyOp29
 70
     0
102
RTVSPropertyOp30
 70
     0
102
RTVSPropertyOp31
 70
     0
102
RTVSPropertyOp32
 70
     0
102
RTVSPropertyOp33
 70
     0
102
RTVSPropertyOp34
 70
     0
102
RTVSPropertyOp35
 70
     0
102
RTVSPropertyOp36
 70
     0
102
RTVSPropertyOp37
 70
     0
102
RTVSPropertyOp38
 70
     0
102
RTVSPropertyOp39
 70
     0
102
RTVSPropertyOp40
 70
     0
102
RTVSPropertyOp41
 70
     0
102
RTVSPropertyOp42
 70
     0
102
RTVSPropertyOp43
 70
     0
102
RTVSPropertyOp44
 70
     0
102
RTVSPropertyOp45
 70
     0
102
RTVSPropertyOp46
 70
     0
102
RTVSPropertyOp47
 70
     0
102
RTVSPropertyOp48
 70
     0
102
RTVSPropertyOp49
 70
     0
102
RTVSPropertyOp50
 70
     0
102
RTVSPropertyOp51
 70
     0
102
RTVSPropertyOp52
 70
     0
102
RTVSPropertyOp53
 70
     0
102
RTVSPropertyOp54
 70
     0
102
RTVSPropertyOp55
 70
     0
102
RTVSPropertyOp56
 70
     0
102
RTVSPropertyOp57
 70
     0
102
RTVSPropertyOp58
 70
     0
102
RTVSPropertyOp59
 70
     0
102
RTVSPropertyOp60
 70
     0
102
RTVSPropertyOp61
 70
     0
102
RTVSPropertyOp62
 70
     0
  0
XRECORD
  5
108A
102
{ACAD_REACTORS
330
1089
102
}
330
1089
100
AcDbXrecord
280
     1
102
RTVSPost2010Prop28
280
     0
102
RTVSPost2010PropOp28
 70
     1
102
RTVSPost2010Prop29
280
     1
102
RTVSPost2010PropOp29
 70
     1
102
RTVSPost2010Prop30
280
     1
102
RTVSPost2010PropOp30
 70
     1
102
RTVSPost2010Prop31
280
     0
102
RTVSPost2010PropOp31
 70
     1
102
RTVSPost2010Prop32
280
     0
102
RTVSPost2010PropOp32
 70
     1
102
RTVSPost2010Prop33
280
     0
102
RTVSPost2010PropOp33
 70
     1
102
RTVSPost2010Prop34
280
     0
102
RTVSPost2010PropOp34
 70
     1
102
RTVSPost2010Prop35
280
     0
102
RTVSPost2010PropOp35
 70
     1
102
RTVSPost2010Prop36
280
     0
102
RTVSPost2010PropOp36
 70
     1
102
RTVSPost2010Prop37
 90
       50
102
RTVSPost2010PropOp37
 70
     1
102
RTVSPost2010Prop38
140
0.0
102
RTVSPost2010PropOp38
 70
     1
102
RTVSPost2010Prop39
140
1.0
102
RTVSPost2010PropOp39
 70
     1
102
RTVSPost2010Prop40
 90
        0
102
RTVSPost2010PropOp40
 70
     1
102
RTVSPost2010Prop41ColorIndex
 90
       18
102
RTVSPost2010Prop41ColorRGB
 90
        0
102
RTVSPost2010PropOp41
 70
     1
102
RTVSPost2010Prop42
 90
       50
102
RTVSPost2010PropOp42
 70
     1
102
RTVSPost2010Prop43
 90
        3
102
RTVSPost2010PropOp43
 70
     1
102
RTVSPost2010Prop44ColorIndex
 90
        5
102
RTVSPost2010Prop44ColorRGB
 90
      255
102
RTVSPost2010PropOp44
 70
     1
102
RTVSPost2010Prop45
280
     0
102
RTVSPost2010PropOp45
 70
     1
102
RTVSPost2010Prop46
 90
       50
102
RTVSPost2010PropOp46
 70
     1
102
RTVSPost2010Prop47
 90
       50
102
RTVSPost2010PropOp47
 70
     1
102
RTVSPost2010Prop48
 90
       50
102
RTVSPost2010PropOp48
 70
     1
102
RTVSPost2010Prop49
280
     0
102
RTVSPost2010PropOp49
 70
     1
102
RTVSPost2010Prop50
 90
       50
102
RTVSPost2010PropOp50
 70
     1
102
RTVSPost2010Prop51ColorIndex
 90
      256
102
RTVSPost2010Prop51ColorRGB
 90
-16777216
102
RTVSPost2010PropOp51
 70
     0
102
RTVSPost2010Prop52
140
1.0
102
RTVSPost2010PropOp52
 70
     0
102
RTVSPost2010Prop53
 90
        2
102
RTVSPost2010PropOp53
 70
     1
102
RTVSPost2010Prop54
  1
strokes_ogs.tif
102
RTVSPost2010PropOp54
 70
     1
102
RTVSPost2010Prop55
280
     0
102
RTVSPost2010PropOp55
 70
     1
102
RTVSPost2010Prop56
140
1.0
102
RTVSPost2010PropOp56
 70
     1
102
RTVSPost2010Prop57
140
1.0
102
RTVSPost2010PropOp57
 70
     1
102
RTVSPropertyOp0
 70
     1
102
RTVSPropertyOp1
 70
     1
102
RTVSPropertyOp2
 70
     1
102
RTVSPropertyOp3
 70
     1
102
RTVSPropertyOp4
 70
     1
102
RTVSPropertyOp5
 70
     1
102
RTVSPropertyOp6
 70
     1
102
RTVSPropertyOp7
 70
     1
102
RTVSPropertyOp8
 70
     1
102
RTVSPropertyOp9
 70
     1
102
RTVSPropertyOp10
 70
     1
102
RTVSPropertyOp11
 70
     1
102
RTVSPropertyOp12
 70
     1
102
RTVSPropertyOp13
 70
     1
102
RTVSPropertyOp14
 70
     1
102
RTVSPropertyOp15
 70
     1
102
RTVSPropertyOp16
 70
     1
102
RTVSPropertyOp17
 70
     1
102
RTVSPropertyOp18
 70
     1
102
RTVSPropertyOp19
 70
     1
102
RTVSPropertyOp20
 70
     1
102
RTVSPropertyOp21
 70
     1
102
RTVSPropertyOp22
 70
     1
102
RTVSPropertyOp23
 70
     1
102
RTVSPropertyOp24
 70
     1
102
RTVSPropertyOp25
 70
     1
102
RTVSPropertyOp26
 70
     1
102
RTVSPropertyOp27
 70
     1
102
RTVSPropertyOp28
 70
     1
102
RTVSPropertyOp29
 70
     1
102
RTVSPropertyOp30
 70
     1
102
RTVSPropertyOp31
 70
     1
102
RTVSPropertyOp32
 70
     1
102
RTVSPropertyOp33
 70
     1
102
RTVSPropertyOp34
 70
     1
102
RTVSPropertyOp35
 70
     1
102
RTVSPropertyOp36
 70
     1
102
RTVSPropertyOp37
 70
     1
102
RTVSPropertyOp38
 70
     1
102
RTVSPropertyOp39
 70
     1
102
RTVSPropertyOp40
 70
     1
102
RTVSPropertyOp41
 70
     1
102
RTVSPropertyOp42
 70
     1
102
RTVSPropertyOp43
 70
     1
102
RTVSPropertyOp44
 70
     1
102
RTVSPropertyOp45
 70
     1
102
RTVSPropertyOp46
 70
     1
102
RTVSPropertyOp47
 70
     1
102
RTVSPropertyOp48
 70
     1
102
RTVSPropertyOp49
 70
     1
102
RTVSPropertyOp50
 70
     1
102
RTVSPropertyOp51
 70
     0
102
RTVSPropertyOp52
 70
     0
102
RTVSPropertyOp53
 70
     1
102
RTVSPropertyOp54
 70
     1
102
RTVSPropertyOp55
 70
     1
102
RTVSPropertyOp56
 70
     1
102
RTVSPropertyOp57
 70
     1
102
RTVSPropertyOp58
 70
     1
102
RTVSPropertyOp59
 70
     1
102
RTVSPropertyOp60
 70
     1
102
RTVSPropertyOp61
 70
     1
102
RTVSPropertyOp62
 70
     1
  0
XRECORD
  5
106E
102
{ACAD_REACTORS
330
106D
102
}
330
106D
100
AcDbXrecord
280
     1
102
RTVSPost2010Prop28
280
     0
102
RTVSPost2010PropOp28
 70
     1
102
RTVSPost2010Prop29
280
     1
102
RTVSPost2010PropOp29
 70
     1
102
RTVSPost2010Prop30
280
     1
102
RTVSPost2010PropOp30
 70
     1
102
RTVSPost2010Prop31
280
     0
102
RTVSPost2010PropOp31
 70
     1
102
RTVSPost2010Prop32
280
     0
102
RTVSPost2010PropOp32
 70
     1
102
RTVSPost2010Prop33
280
     0
102
RTVSPost2010PropOp33
 70
     1
102
RTVSPost2010Prop34
280
     0
102
RTVSPost2010PropOp34
 70
     1
102
RTVSPost2010Prop35
280
     0
102
RTVSPost2010PropOp35
 70
     1
102
RTVSPost2010Prop36
280
     0
102
RTVSPost2010PropOp36
 70
     1
102
RTVSPost2010Prop37
 90
       50
102
RTVSPost2010PropOp37
 70
     1
102
RTVSPost2010Prop38
140
0.0
102
RTVSPost2010PropOp38
 70
     1
102
RTVSPost2010Prop39
140
1.0
102
RTVSPost2010PropOp39
 70
     1
102
RTVSPost2010Prop40
 90
        0
102
RTVSPost2010PropOp40
 70
     1
102
RTVSPost2010Prop41ColorIndex
 90
       18
102
RTVSPost2010Prop41ColorRGB
 90
        0
102
RTVSPost2010PropOp41
 70
     1
102
RTVSPost2010Prop42
 90
       50
102
RTVSPost2010PropOp42
 70
     1
102
RTVSPost2010Prop43
 90
        3
102
RTVSPost2010PropOp43
 70
     1
102
RTVSPost2010Prop44ColorIndex
 90
        5
102
RTVSPost2010Prop44ColorRGB
 90
      255
102
RTVSPost2010PropOp44
 70
     1
102
RTVSPost2010Prop45
280
     0
102
RTVSPost2010PropOp45
 70
     1
102
RTVSPost2010Prop46
 90
       50
102
RTVSPost2010PropOp46
 70
     1
102
RTVSPost2010Prop47
 90
       50
102
RTVSPost2010PropOp47
 70
     1
102
RTVSPost2010Prop48
 90
       50
102
RTVSPost2010PropOp48
 70
     1
102
RTVSPost2010Prop49
280
     0
102
RTVSPost2010PropOp49
 70
     1
102
RTVSPost2010Prop50
 90
       50
102
RTVSPost2010PropOp50
 70
     1
102
RTVSPost2010Prop51ColorIndex
 90
      256
102
RTVSPost2010Prop51ColorRGB
 90
-16777216
102
RTVSPost2010PropOp51
 70
     0
102
RTVSPost2010Prop52
140
1.0
102
RTVSPost2010PropOp52
 70
     0
102
RTVSPost2010Prop53
 90
        2
102
RTVSPost2010PropOp53
 70
     1
102
RTVSPost2010Prop54
  1
strokes_ogs.tif
102
RTVSPost2010PropOp54
 70
     1
102
RTVSPost2010Prop55
280
     0
102
RTVSPost2010PropOp55
 70
     1
102
RTVSPost2010Prop56
140
1.0
102
RTVSPost2010PropOp56
 70
     1
102
RTVSPost2010Prop57
140
1.0
102
RTVSPost2010PropOp57
 70
     1
102
RTVSPropertyOp0
 70
     1
102
RTVSPropertyOp1
 70
     1
102
RTVSPropertyOp2
 70
     1
102
RTVSPropertyOp3
 70
     1
102
RTVSPropertyOp4
 70
     1
102
RTVSPropertyOp5
 70
     1
102
RTVSPropertyOp6
 70
     1
102
RTVSPropertyOp7
 70
     1
102
RTVSPropertyOp8
 70
     1
102
RTVSPropertyOp9
 70
     1
102
RTVSPropertyOp10
 70
     1
102
RTVSPropertyOp11
 70
     1
102
RTVSPropertyOp12
 70
     1
102
RTVSPropertyOp13
 70
     1
102
RTVSPropertyOp14
 70
     1
102
RTVSPropertyOp15
 70
     1
102
RTVSPropertyOp16
 70
     1
102
RTVSPropertyOp17
 70
     1
102
RTVSPropertyOp18
 70
     1
102
RTVSPropertyOp19
 70
     1
102
RTVSPropertyOp20
 70
     1
102
RTVSPropertyOp21
 70
     1
102
RTVSPropertyOp22
 70
     1
102
RTVSPropertyOp23
 70
     1
102
RTVSPropertyOp24
 70
     1
102
RTVSPropertyOp25
 70
     1
102
RTVSPropertyOp26
 70
     1
102
RTVSPropertyOp27
 70
     1
102
RTVSPropertyOp28
 70
     1
102
RTVSPropertyOp29
 70
     1
102
RTVSPropertyOp30
 70
     1
102
RTVSPropertyOp31
 70
     1
102
RTVSPropertyOp32
 70
     1
102
RTVSPropertyOp33
 70
     1
102
RTVSPropertyOp34
 70
     1
102
RTVSPropertyOp35
 70
     1
102
RTVSPropertyOp36
 70
     1
102
RTVSPropertyOp37
 70
     1
102
RTVSPropertyOp38
 70
     1
102
RTVSPropertyOp39
 70
     1
102
RTVSPropertyOp40
 70
     1
102
RTVSPropertyOp41
 70
     1
102
RTVSPropertyOp42
 70
     1
102
RTVSPropertyOp43
 70
     1
102
RTVSPropertyOp44
 70
     1
102
RTVSPropertyOp45
 70
     1
102
RTVSPropertyOp46
 70
     1
102
RTVSPropertyOp47
 70
     1
102
RTVSPropertyOp48
 70
     1
102
RTVSPropertyOp49
 70
     1
102
RTVSPropertyOp50
 70
     1
102
RTVSPropertyOp51
 70
     0
102
RTVSPropertyOp52
 70
     0
102
RTVSPropertyOp53
 70
     1
102
RTVSPropertyOp54
 70
     1
102
RTVSPropertyOp55
 70
     1
102
RTVSPropertyOp56
 70
     1
102
RTVSPropertyOp57
 70
     1
102
RTVSPropertyOp58
 70
     1
102
RTVSPropertyOp59
 70
     1
102
RTVSPropertyOp60
 70
     1
102
RTVSPropertyOp61
 70
     1
102
RTVSPropertyOp62
 70
     1
  0
XRECORD
  5
1070
102
{ACAD_REACTORS
330
106F
102
}
330
106F
100
AcDbXrecord
280
     1
102
RTVSPost2010Prop28
280
     0
102
RTVSPost2010PropOp28
 70
     1
102
RTVSPost2010Prop29
280
     1
102
RTVSPost2010PropOp29
 70
     1
102
RTVSPost2010Prop30
280
     1
102
RTVSPost2010PropOp30
 70
     1
102
RTVSPost2010Prop31
280
     0
102
RTVSPost2010PropOp31
 70
     1
102
RTVSPost2010Prop32
280
     0
102
RTVSPost2010PropOp32
 70
     1
102
RTVSPost2010Prop33
280
     0
102
RTVSPost2010PropOp33
 70
     1
102
RTVSPost2010Prop34
280
     0
102
RTVSPost2010PropOp34
 70
     1
102
RTVSPost2010Prop35
280
     0
102
RTVSPost2010PropOp35
 70
     1
102
RTVSPost2010Prop36
280
     0
102
RTVSPost2010PropOp36
 70
     1
102
RTVSPost2010Prop37
 90
       50
102
RTVSPost2010PropOp37
 70
     1
102
RTVSPost2010Prop38
140
0.0
102
RTVSPost2010PropOp38
 70
     1
102
RTVSPost2010Prop39
140
1.0
102
RTVSPost2010PropOp39
 70
     1
102
RTVSPost2010Prop40
 90
        0
102
RTVSPost2010PropOp40
 70
     1
102
RTVSPost2010Prop41ColorIndex
 90
       18
102
RTVSPost2010Prop41ColorRGB
 90
        0
102
RTVSPost2010PropOp41
 70
     1
102
RTVSPost2010Prop42
 90
       50
102
RTVSPost2010PropOp42
 70
     1
102
RTVSPost2010Prop43
 90
        3
102
RTVSPost2010PropOp43
 70
     1
102
RTVSPost2010Prop44ColorIndex
 90
        5
102
RTVSPost2010Prop44ColorRGB
 90
      255
102
RTVSPost2010PropOp44
 70
     1
102
RTVSPost2010Prop45
280
     0
102
RTVSPost2010PropOp45
 70
     1
102
RTVSPost2010Prop46
 90
       50
102
RTVSPost2010PropOp46
 70
     1
102
RTVSPost2010Prop47
 90
       50
102
RTVSPost2010PropOp47
 70
     1
102
RTVSPost2010Prop48
 90
       50
102
RTVSPost2010PropOp48
 70
     1
102
RTVSPost2010Prop49
280
     0
102
RTVSPost2010PropOp49
 70
     1
102
RTVSPost2010Prop50
 90
       50
102
RTVSPost2010PropOp50
 70
     1
102
RTVSPost2010Prop51ColorIndex
 90
      256
102
RTVSPost2010Prop51ColorRGB
 90
-16777216
102
RTVSPost2010PropOp51
 70
     0
102
RTVSPost2010Prop52
140
1.0
102
RTVSPost2010PropOp52
 70
     0
102
RTVSPost2010Prop53
 90
        2
102
RTVSPost2010PropOp53
 70
     1
102
RTVSPost2010Prop54
  1
strokes_ogs.tif
102
RTVSPost2010PropOp54
 70
     1
102
RTVSPost2010Prop55
280
     0
102
RTVSPost2010PropOp55
 70
     1
102
RTVSPost2010Prop56
140
1.0
102
RTVSPost2010PropOp56
 70
     1
102
RTVSPost2010Prop57
140
1.0
102
RTVSPost2010PropOp57
 70
     1
102
RTVSPropertyOp0
 70
     1
102
RTVSPropertyOp1
 70
     1
102
RTVSPropertyOp2
 70
     1
102
RTVSPropertyOp3
 70
     1
102
RTVSPropertyOp4
 70
     1
102
RTVSPropertyOp5
 70
     1
102
RTVSPropertyOp6
 70
     1
102
RTVSPropertyOp7
 70
     1
102
RTVSPropertyOp8
 70
     1
102
RTVSPropertyOp9
 70
     1
102
RTVSPropertyOp10
 70
     1
102
RTVSPropertyOp11
 70
     1
102
RTVSPropertyOp12
 70
     1
102
RTVSPropertyOp13
 70
     1
102
RTVSPropertyOp14
 70
     1
102
RTVSPropertyOp15
 70
     1
102
RTVSPropertyOp16
 70
     1
102
RTVSPropertyOp17
 70
     1
102
RTVSPropertyOp18
 70
     1
102
RTVSPropertyOp19
 70
     1
102
RTVSPropertyOp20
 70
     1
102
RTVSPropertyOp21
 70
     1
102
RTVSPropertyOp22
 70
     1
102
RTVSPropertyOp23
 70
     1
102
RTVSPropertyOp24
 70
     1
102
RTVSPropertyOp25
 70
     1
102
RTVSPropertyOp26
 70
     1
102
RTVSPropertyOp27
 70
     1
102
RTVSPropertyOp28
 70
     1
102
RTVSPropertyOp29
 70
     1
102
RTVSPropertyOp30
 70
     1
102
RTVSPropertyOp31
 70
     1
102
RTVSPropertyOp32
 70
     1
102
RTVSPropertyOp33
 70
     1
102
RTVSPropertyOp34
 70
     1
102
RTVSPropertyOp35
 70
     1
102
RTVSPropertyOp36
 70
     1
102
RTVSPropertyOp37
 70
     1
102
RTVSPropertyOp38
 70
     1
102
RTVSPropertyOp39
 70
     1
102
RTVSPropertyOp40
 70
     1
102
RTVSPropertyOp41
 70
     1
102
RTVSPropertyOp42
 70
     1
102
RTVSPropertyOp43
 70
     1
102
RTVSPropertyOp44
 70
     1
102
RTVSPropertyOp45
 70
     1
102
RTVSPropertyOp46
 70
     1
102
RTVSPropertyOp47
 70
     1
102
RTVSPropertyOp48
 70
     1
102
RTVSPropertyOp49
 70
     1
102
RTVSPropertyOp50
 70
     1
102
RTVSPropertyOp51
 70
     0
102
RTVSPropertyOp52
 70
     0
102
RTVSPropertyOp53
 70
     1
102
RTVSPropertyOp54
 70
     1
102
RTVSPropertyOp55
 70
     1
102
RTVSPropertyOp56
 70
     1
102
RTVSPropertyOp57
 70
     1
102
RTVSPropertyOp58
 70
     1
102
RTVSPropertyOp59
 70
     1
102
RTVSPropertyOp60
 70
     1
102
RTVSPropertyOp61
 70
     1
102
RTVSPropertyOp62
 70
     1
  0
XRECORD
  5
1072
102
{ACAD_REACTORS
330
1071
102
}
330
1071
100
AcDbXrecord
280
     1
102
RTVSPost2010Prop28
280
     0
102
RTVSPost2010PropOp28
 70
     1
102
RTVSPost2010Prop29
280
     1
102
RTVSPost2010PropOp29
 70
     1
102
RTVSPost2010Prop30
280
     1
102
RTVSPost2010PropOp30
 70
     1
102
RTVSPost2010Prop31
280
     0
102
RTVSPost2010PropOp31
 70
     1
102
RTVSPost2010Prop32
280
     0
102
RTVSPost2010PropOp32
 70
     1
102
RTVSPost2010Prop33
280
     0
102
RTVSPost2010PropOp33
 70
     1
102
RTVSPost2010Prop34
280
     0
102
RTVSPost2010PropOp34
 70
     1
102
RTVSPost2010Prop35
280
     0
102
RTVSPost2010PropOp35
 70
     1
102
RTVSPost2010Prop36
280
     0
102
RTVSPost2010PropOp36
 70
     1
102
RTVSPost2010Prop37
 90
       50
102
RTVSPost2010PropOp37
 70
     1
102
RTVSPost2010Prop38
140
0.0
102
RTVSPost2010PropOp38
 70
     1
102
RTVSPost2010Prop39
140
1.0
102
RTVSPost2010PropOp39
 70
     1
102
RTVSPost2010Prop40
 90
        0
102
RTVSPost2010PropOp40
 70
     1
102
RTVSPost2010Prop41ColorIndex
 90
       18
102
RTVSPost2010Prop41ColorRGB
 90
        0
102
RTVSPost2010PropOp41
 70
     1
102
RTVSPost2010Prop42
 90
       50
102
RTVSPost2010PropOp42
 70
     1
102
RTVSPost2010Prop43
 90
        3
102
RTVSPost2010PropOp43
 70
     1
102
RTVSPost2010Prop44ColorIndex
 90
        5
102
RTVSPost2010Prop44ColorRGB
 90
      255
102
RTVSPost2010PropOp44
 70
     1
102
RTVSPost2010Prop45
280
     0
102
RTVSPost2010PropOp45
 70
     1
102
RTVSPost2010Prop46
 90
       50
102
RTVSPost2010PropOp46
 70
     1
102
RTVSPost2010Prop47
 90
       50
102
RTVSPost2010PropOp47
 70
     1
102
RTVSPost2010Prop48
 90
       50
102
RTVSPost2010PropOp48
 70
     1
102
RTVSPost2010Prop49
280
     0
102
RTVSPost2010PropOp49
 70
     1
102
RTVSPost2010Prop50
 90
       50
102
RTVSPost2010PropOp50
 70
     1
102
RTVSPost2010Prop51ColorIndex
 90
      256
102
RTVSPost2010Prop51ColorRGB
 90
-16777216
102
RTVSPost2010PropOp51
 70
     0
102
RTVSPost2010Prop52
140
1.0
102
RTVSPost2010PropOp52
 70
     0
102
RTVSPost2010Prop53
 90
        2
102
RTVSPost2010PropOp53
 70
     1
102
RTVSPost2010Prop54
  1
strokes_ogs.tif
102
RTVSPost2010PropOp54
 70
     1
102
RTVSPost2010Prop55
280
     0
102
RTVSPost2010PropOp55
 70
     1
102
RTVSPost2010Prop56
140
1.0
102
RTVSPost2010PropOp56
 70
     1
102
RTVSPost2010Prop57
140
1.0
102
RTVSPost2010PropOp57
 70
     1
102
RTVSPropertyOp0
 70
     1
102
RTVSPropertyOp1
 70
     1
102
RTVSPropertyOp2
 70
     1
102
RTVSPropertyOp3
 70
     1
102
RTVSPropertyOp4
 70
     1
102
RTVSPropertyOp5
 70
     1
102
RTVSPropertyOp6
 70
     1
102
RTVSPropertyOp7
 70
     1
102
RTVSPropertyOp8
 70
     1
102
RTVSPropertyOp9
 70
     1
102
RTVSPropertyOp10
 70
     1
102
RTVSPropertyOp11
 70
     1
102
RTVSPropertyOp12
 70
     1
102
RTVSPropertyOp13
 70
     1
102
RTVSPropertyOp14
 70
     1
102
RTVSPropertyOp15
 70
     1
102
RTVSPropertyOp16
 70
     1
102
RTVSPropertyOp17
 70
     1
102
RTVSPropertyOp18
 70
     1
102
RTVSPropertyOp19
 70
     1
102
RTVSPropertyOp20
 70
     1
102
RTVSPropertyOp21
 70
     1
102
RTVSPropertyOp22
 70
     1
102
RTVSPropertyOp23
 70
     1
102
RTVSPropertyOp24
 70
     1
102
RTVSPropertyOp25
 70
     1
102
RTVSPropertyOp26
 70
     1
102
RTVSPropertyOp27
 70
     1
102
RTVSPropertyOp28
 70
     1
102
RTVSPropertyOp29
 70
     1
102
RTVSPropertyOp30
 70
     1
102
RTVSPropertyOp31
 70
     1
102
RTVSPropertyOp32
 70
     1
102
RTVSPropertyOp33
 70
     1
102
RTVSPropertyOp34
 70
     1
102
RTVSPropertyOp35
 70
     1
102
RTVSPropertyOp36
 70
     1
102
RTVSPropertyOp37
 70
     1
102
RTVSPropertyOp38
 70
     1
102
RTVSPropertyOp39
 70
     1
102
RTVSPropertyOp40
 70
     1
102
RTVSPropertyOp41
 70
     1
102
RTVSPropertyOp42
 70
     1
102
RTVSPropertyOp43
 70
     1
102
RTVSPropertyOp44
 70
     1
102
RTVSPropertyOp45
 70
     1
102
RTVSPropertyOp46
 70
     1
102
RTVSPropertyOp47
 70
     1
102
RTVSPropertyOp48
 70
     1
102
RTVSPropertyOp49
 70
     1
102
RTVSPropertyOp50
 70
     1
102
RTVSPropertyOp51
 70
     0
102
RTVSPropertyOp52
 70
     0
102
RTVSPropertyOp53
 70
     1
102
RTVSPropertyOp54
 70
     1
102
RTVSPropertyOp55
 70
     1
102
RTVSPropertyOp56
 70
     1
102
RTVSPropertyOp57
 70
     1
102
RTVSPropertyOp58
 70
     1
102
RTVSPropertyOp59
 70
     1
102
RTVSPropertyOp60
 70
     1
102
RTVSPropertyOp61
 70
     1
102
RTVSPropertyOp62
 70
     1
  0
XRECORD
  5
1074
102
{ACAD_REACTORS
330
1073
102
}
330
1073
100
AcDbXrecord
280
     1
102
RTVSPost2010Prop28
280
     0
102
RTVSPost2010PropOp28
 70
     1
102
RTVSPost2010Prop29
280
     1
102
RTVSPost2010PropOp29
 70
     1
102
RTVSPost2010Prop30
280
     1
102
RTVSPost2010PropOp30
 70
     1
102
RTVSPost2010Prop31
280
     0
102
RTVSPost2010PropOp31
 70
     1
102
RTVSPost2010Prop32
280
     0
102
RTVSPost2010PropOp32
 70
     1
102
RTVSPost2010Prop33
280
     0
102
RTVSPost2010PropOp33
 70
     1
102
RTVSPost2010Prop34
280
     0
102
RTVSPost2010PropOp34
 70
     1
102
RTVSPost2010Prop35
280
     0
102
RTVSPost2010PropOp35
 70
     1
102
RTVSPost2010Prop36
280
     0
102
RTVSPost2010PropOp36
 70
     1
102
RTVSPost2010Prop37
 90
       50
102
RTVSPost2010PropOp37
 70
     1
102
RTVSPost2010Prop38
140
0.0
102
RTVSPost2010PropOp38
 70
     1
102
RTVSPost2010Prop39
140
1.0
102
RTVSPost2010PropOp39
 70
     1
102
RTVSPost2010Prop40
 90
        0
102
RTVSPost2010PropOp40
 70
     1
102
RTVSPost2010Prop41ColorIndex
 90
       18
102
RTVSPost2010Prop41ColorRGB
 90
        0
102
RTVSPost2010PropOp41
 70
     1
102
RTVSPost2010Prop42
 90
       50
102
RTVSPost2010PropOp42
 70
     1
102
RTVSPost2010Prop43
 90
        3
102
RTVSPost2010PropOp43
 70
     1
102
RTVSPost2010Prop44ColorIndex
 90
        5
102
RTVSPost2010Prop44ColorRGB
 90
      255
102
RTVSPost2010PropOp44
 70
     1
102
RTVSPost2010Prop45
280
     0
102
RTVSPost2010PropOp45
 70
     1
102
RTVSPost2010Prop46
 90
       50
102
RTVSPost2010PropOp46
 70
     1
102
RTVSPost2010Prop47
 90
       50
102
RTVSPost2010PropOp47
 70
     1
102
RTVSPost2010Prop48
 90
       50
102
RTVSPost2010PropOp48
 70
     1
102
RTVSPost2010Prop49
280
     0
102
RTVSPost2010PropOp49
 70
     1
102
RTVSPost2010Prop50
 90
       50
102
RTVSPost2010PropOp50
 70
     1
102
RTVSPost2010Prop51ColorIndex
 90
      256
102
RTVSPost2010Prop51ColorRGB
 90
-16777216
102
RTVSPost2010PropOp51
 70
     0
102
RTVSPost2010Prop52
140
1.0
102
RTVSPost2010PropOp52
 70
     0
102
RTVSPost2010Prop53
 90
        2
102
RTVSPost2010PropOp53
 70
     1
102
RTVSPost2010Prop54
  1
strokes_ogs.tif
102
RTVSPost2010PropOp54
 70
     1
102
RTVSPost2010Prop55
280
     0
102
RTVSPost2010PropOp55
 70
     1
102
RTVSPost2010Prop56
140
1.0
102
RTVSPost2010PropOp56
 70
     1
102
RTVSPost2010Prop57
140
1.0
102
RTVSPost2010PropOp57
 70
     1
102
RTVSPropertyOp0
 70
     1
102
RTVSPropertyOp1
 70
     1
102
RTVSPropertyOp2
 70
     1
102
RTVSPropertyOp3
 70
     1
102
RTVSPropertyOp4
 70
     1
102
RTVSPropertyOp5
 70
     1
102
RTVSPropertyOp6
 70
     1
102
RTVSPropertyOp7
 70
     1
102
RTVSPropertyOp8
 70
     1
102
RTVSPropertyOp9
 70
     1
102
RTVSPropertyOp10
 70
     1
102
RTVSPropertyOp11
 70
     1
102
RTVSPropertyOp12
 70
     1
102
RTVSPropertyOp13
 70
     1
102
RTVSPropertyOp14
 70
     1
102
RTVSPropertyOp15
 70
     1
102
RTVSPropertyOp16
 70
     1
102
RTVSPropertyOp17
 70
     1
102
RTVSPropertyOp18
 70
     1
102
RTVSPropertyOp19
 70
     1
102
RTVSPropertyOp20
 70
     1
102
RTVSPropertyOp21
 70
     1
102
RTVSPropertyOp22
 70
     1
102
RTVSPropertyOp23
 70
     1
102
RTVSPropertyOp24
 70
     1
102
RTVSPropertyOp25
 70
     1
102
RTVSPropertyOp26
 70
     1
102
RTVSPropertyOp27
 70
     1
102
RTVSPropertyOp28
 70
     1
102
RTVSPropertyOp29
 70
     1
102
RTVSPropertyOp30
 70
     1
102
RTVSPropertyOp31
 70
     1
102
RTVSPropertyOp32
 70
     1
102
RTVSPropertyOp33
 70
     1
102
RTVSPropertyOp34
 70
     1
102
RTVSPropertyOp35
 70
     1
102
RTVSPropertyOp36
 70
     1
102
RTVSPropertyOp37
 70
     1
102
RTVSPropertyOp38
 70
     1
102
RTVSPropertyOp39
 70
     1
102
RTVSPropertyOp40
 70
     1
102
RTVSPropertyOp41
 70
     1
102
RTVSPropertyOp42
 70
     1
102
RTVSPropertyOp43
 70
     1
102
RTVSPropertyOp44
 70
     1
102
RTVSPropertyOp45
 70
     1
102
RTVSPropertyOp46
 70
     1
102
RTVSPropertyOp47
 70
     1
102
RTVSPropertyOp48
 70
     1
102
RTVSPropertyOp49
 70
     1
102
RTVSPropertyOp50
 70
     1
102
RTVSPropertyOp51
 70
     0
102
RTVSPropertyOp52
 70
     0
102
RTVSPropertyOp53
 70
     1
102
RTVSPropertyOp54
 70
     1
102
RTVSPropertyOp55
 70
     1
102
RTVSPropertyOp56
 70
     1
102
RTVSPropertyOp57
 70
     1
102
RTVSPropertyOp58
 70
     1
102
RTVSPropertyOp59
 70
     1
102
RTVSPropertyOp60
 70
     1
102
RTVSPropertyOp61
 70
     1
102
RTVSPropertyOp62
 70
     1
  0
XRECORD
  5
107C
102
{ACAD_REACTORS
330
107B
102
}
330
107B
100
AcDbXrecord
280
     1
102
RTVSPost2010Prop28
280
     0
102
RTVSPost2010PropOp28
 70
     1
102
RTVSPost2010Prop29
280
     1
102
RTVSPost2010PropOp29
 70
     1
102
RTVSPost2010Prop30
280
     1
102
RTVSPost2010PropOp30
 70
     1
102
RTVSPost2010Prop31
280
     0
102
RTVSPost2010PropOp31
 70
     1
102
RTVSPost2010Prop32
280
     0
102
RTVSPost2010PropOp32
 70
     1
102
RTVSPost2010Prop33
280
     0
102
RTVSPost2010PropOp33
 70
     1
102
RTVSPost2010Prop34
280
     0
102
RTVSPost2010PropOp34
 70
     1
102
RTVSPost2010Prop35
280
     0
102
RTVSPost2010PropOp35
 70
     1
102
RTVSPost2010Prop36
280
     0
102
RTVSPost2010PropOp36
 70
     1
102
RTVSPost2010Prop37
 90
       50
102
RTVSPost2010PropOp37
 70
     1
102
RTVSPost2010Prop38
140
0.0
102
RTVSPost2010PropOp38
 70
     1
102
RTVSPost2010Prop39
140
1.0
102
RTVSPost2010PropOp39
 70
     1
102
RTVSPost2010Prop40
 90
        0
102
RTVSPost2010PropOp40
 70
     1
102
RTVSPost2010Prop41ColorIndex
 90
       18
102
RTVSPost2010Prop41ColorRGB
 90
        0
102
RTVSPost2010PropOp41
 70
     1
102
RTVSPost2010Prop42
 90
       50
102
RTVSPost2010PropOp42
 70
     1
102
RTVSPost2010Prop43
 90
        3
102
RTVSPost2010PropOp43
 70
     1
102
RTVSPost2010Prop44ColorIndex
 90
        5
102
RTVSPost2010Prop44ColorRGB
 90
      255
102
RTVSPost2010PropOp44
 70
     1
102
RTVSPost2010Prop45
280
     0
102
RTVSPost2010PropOp45
 70
     1
102
RTVSPost2010Prop46
 90
       50
102
RTVSPost2010PropOp46
 70
     1
102
RTVSPost2010Prop47
 90
       50
102
RTVSPost2010PropOp47
 70
     1
102
RTVSPost2010Prop48
 90
       50
102
RTVSPost2010PropOp48
 70
     1
102
RTVSPost2010Prop49
280
     0
102
RTVSPost2010PropOp49
 70
     1
102
RTVSPost2010Prop50
 90
       50
102
RTVSPost2010PropOp50
 70
     1
102
RTVSPost2010Prop51ColorIndex
 90
      256
102
RTVSPost2010Prop51ColorRGB
 90
-16777216
102
RTVSPost2010PropOp51
 70
     0
102
RTVSPost2010Prop52
140
1.0
102
RTVSPost2010PropOp52
 70
     0
102
RTVSPost2010Prop53
 90
        2
102
RTVSPost2010PropOp53
 70
     1
102
RTVSPost2010Prop54
  1
strokes_ogs.tif
102
RTVSPost2010PropOp54
 70
     1
102
RTVSPost2010Prop55
280
     0
102
RTVSPost2010PropOp55
 70
     1
102
RTVSPost2010Prop56
140
1.0
102
RTVSPost2010PropOp56
 70
     1
102
RTVSPost2010Prop57
140
1.0
102
RTVSPost2010PropOp57
 70
     1
102
RTVSPropertyOp0
 70
     1
102
RTVSPropertyOp1
 70
     1
102
RTVSPropertyOp2
 70
     1
102
RTVSPropertyOp3
 70
     1
102
RTVSPropertyOp4
 70
     1
102
RTVSPropertyOp5
 70
     1
102
RTVSPropertyOp6
 70
     1
102
RTVSPropertyOp7
 70
     1
102
RTVSPropertyOp8
 70
     1
102
RTVSPropertyOp9
 70
     1
102
RTVSPropertyOp10
 70
     1
102
RTVSPropertyOp11
 70
     1
102
RTVSPropertyOp12
 70
     1
102
RTVSPropertyOp13
 70
     1
102
RTVSPropertyOp14
 70
     1
102
RTVSPropertyOp15
 70
     1
102
RTVSPropertyOp16
 70
     1
102
RTVSPropertyOp17
 70
     1
102
RTVSPropertyOp18
 70
     1
102
RTVSPropertyOp19
 70
     1
102
RTVSPropertyOp20
 70
     1
102
RTVSPropertyOp21
 70
     1
102
RTVSPropertyOp22
 70
     1
102
RTVSPropertyOp23
 70
     1
102
RTVSPropertyOp24
 70
     1
102
RTVSPropertyOp25
 70
     1
102
RTVSPropertyOp26
 70
     1
102
RTVSPropertyOp27
 70
     1
102
RTVSPropertyOp28
 70
     1
102
RTVSPropertyOp29
 70
     1
102
RTVSPropertyOp30
 70
     1
102
RTVSPropertyOp31
 70
     1
102
RTVSPropertyOp32
 70
     1
102
RTVSPropertyOp33
 70
     1
102
RTVSPropertyOp34
 70
     1
102
RTVSPropertyOp35
 70
     1
102
RTVSPropertyOp36
 70
     1
102
RTVSPropertyOp37
 70
     1
102
RTVSPropertyOp38
 70
     1
102
RTVSPropertyOp39
 70
     1
102
RTVSPropertyOp40
 70
     1
102
RTVSPropertyOp41
 70
     1
102
RTVSPropertyOp42
 70
     1
102
RTVSPropertyOp43
 70
     1
102
RTVSPropertyOp44
 70
     1
102
RTVSPropertyOp45
 70
     1
102
RTVSPropertyOp46
 70
     1
102
RTVSPropertyOp47
 70
     1
102
RTVSPropertyOp48
 70
     1
102
RTVSPropertyOp49
 70
     1
102
RTVSPropertyOp50
 70
     1
102
RTVSPropertyOp51
 70
     0
102
RTVSPropertyOp52
 70
     0
102
RTVSPropertyOp53
 70
     1
102
RTVSPropertyOp54
 70
     1
102
RTVSPropertyOp55
 70
     1
102
RTVSPropertyOp56
 70
     1
102
RTVSPropertyOp57
 70
     1
102
RTVSPropertyOp58
 70
     1
102
RTVSPropertyOp59
 70
     1
102
RTVSPropertyOp60
 70
     1
102
RTVSPropertyOp61
 70
     1
102
RTVSPropertyOp62
 70
     1
  0
XRECORD
  5
1098
102
{ACAD_REACTORS
330
1097
102
}
330
1097
100
AcDbXrecord
280
     1
102
RTVSPost2010Prop28
280
     0
102
RTVSPost2010PropOp28
 70
     0
102
RTVSPost2010Prop29
280
     1
102
RTVSPost2010PropOp29
 70
     0
102
RTVSPost2010Prop30
280
     1
102
RTVSPost2010PropOp30
 70
     0
102
RTVSPost2010Prop31
280
     0
102
RTVSPost2010PropOp31
 70
     0
102
RTVSPost2010Prop32
280
     0
102
RTVSPost2010PropOp32
 70
     0
102
RTVSPost2010Prop33
280
     0
102
RTVSPost2010PropOp33
 70
     0
102
RTVSPost2010Prop34
280
     0
102
RTVSPost2010PropOp34
 70
     0
102
RTVSPost2010Prop35
280
     0
102
RTVSPost2010PropOp35
 70
     0
102
RTVSPost2010Prop36
280
     0
102
RTVSPost2010PropOp36
 70
     0
102
RTVSPost2010Prop37
 90
       50
102
RTVSPost2010PropOp37
 70
     0
102
RTVSPost2010Prop38
140
0.0
102
RTVSPost2010PropOp38
 70
     0
102
RTVSPost2010Prop39
140
1.0
102
RTVSPost2010PropOp39
 70
     0
102
RTVSPost2010Prop40
 90
        0
102
RTVSPost2010PropOp40
 70
     0
102
RTVSPost2010Prop41ColorIndex
 90
       18
102
RTVSPost2010Prop41ColorRGB
 90
        0
102
RTVSPost2010PropOp41
 70
     0
102
RTVSPost2010Prop42
 90
       50
102
RTVSPost2010PropOp42
 70
     0
102
RTVSPost2010Prop43
 90
        3
102
RTVSPost2010PropOp43
 70
     0
102
RTVSPost2010Prop44ColorIndex
 90
        5
102
RTVSPost2010Prop44ColorRGB
 90
      255
102
RTVSPost2010PropOp44
 70
     0
102
RTVSPost2010Prop45
280
     0
102
RTVSPost2010PropOp45
 70
     0
102
RTVSPost2010Prop46
 90
       50
102
RTVSPost2010PropOp46
 70
     0
102
RTVSPost2010Prop47
 90
       50
102
RTVSPost2010PropOp47
 70
     0
102
RTVSPost2010Prop48
 90
       50
102
RTVSPost2010PropOp48
 70
     0
102
RTVSPost2010Prop49
280
     0
102
RTVSPost2010PropOp49
 70
     0
102
RTVSPost2010Prop50
 90
       50
102
RTVSPost2010PropOp50
 70
     0
102
RTVSPost2010Prop51ColorIndex
 90
      256
102
RTVSPost2010Prop51ColorRGB
 90
-16777216
102
RTVSPost2010PropOp51
 70
     0
102
RTVSPost2010Prop52
140
1.0
102
RTVSPost2010PropOp52
 70
     0
102
RTVSPost2010Prop53
 90
        2
102
RTVSPost2010PropOp53
 70
     0
102
RTVSPost2010Prop54
  1
strokes_ogs.tif
102
RTVSPost2010PropOp54
 70
     0
102
RTVSPost2010Prop55
280
     0
102
RTVSPost2010PropOp55
 70
     0
102
RTVSPost2010Prop56
140
1.0
102
RTVSPost2010PropOp56
 70
     0
102
RTVSPost2010Prop57
140
1.0
102
RTVSPost2010PropOp57
 70
     0
102
RTVSPropertyOp0
 70
     0
102
RTVSPropertyOp1
 70
     0
102
RTVSPropertyOp2
 70
     0
102
RTVSPropertyOp3
 70
     0
102
RTVSPropertyOp4
 70
     0
102
RTVSPropertyOp5
 70
     0
102
RTVSPropertyOp6
 70
     0
102
RTVSPropertyOp7
 70
     0
102
RTVSPropertyOp8
 70
     0
102
RTVSPropertyOp9
 70
     0
102
RTVSPropertyOp10
 70
     0
102
RTVSPropertyOp11
 70
     0
102
RTVSPropertyOp12
 70
     0
102
RTVSPropertyOp13
 70
     0
102
RTVSPropertyOp14
 70
     2
102
RTVSPropertyOp15
 70
     0
102
RTVSPropertyOp16
 70
     0
102
RTVSPropertyOp17
 70
     0
102
RTVSPropertyOp18
 70
     0
102
RTVSPropertyOp19
 70
     0
102
RTVSPropertyOp20
 70
     0
102
RTVSPropertyOp21
 70
     0
102
RTVSPropertyOp22
 70
     0
102
RTVSPropertyOp23
 70
     0
102
RTVSPropertyOp24
 70
     0
102
RTVSPropertyOp25
 70
     0
102
RTVSPropertyOp26
 70
     0
102
RTVSPropertyOp27
 70
     0
102
RTVSPropertyOp28
 70
     0
102
RTVSPropertyOp29
 70
     0
102
RTVSPropertyOp30
 70
     0
102
RTVSPropertyOp31
 70
     0
102
RTVSPropertyOp32
 70
     0
102
RTVSPropertyOp33
 70
     0
102
RTVSPropertyOp34
 70
     0
102
RTVSPropertyOp35
 70
     0
102
RTVSPropertyOp36
 70
     0
102
RTVSPropertyOp37
 70
     0
102
RTVSPropertyOp38
 70
     0
102
RTVSPropertyOp39
 70
     0
102
RTVSPropertyOp40
 70
     0
102
RTVSPropertyOp41
 70
     0
102
RTVSPropertyOp42
 70
     0
102
RTVSPropertyOp43
 70
     0
102
RTVSPropertyOp44
 70
     0
102
RTVSPropertyOp45
 70
     0
102
RTVSPropertyOp46
 70
     0
102
RTVSPropertyOp47
 70
     0
102
RTVSPropertyOp48
 70
     0
102
RTVSPropertyOp49
 70
     0
102
RTVSPropertyOp50
 70
     0
102
RTVSPropertyOp51
 70
     0
102
RTVSPropertyOp52
 70
     0
102
RTVSPropertyOp53
 70
     0
102
RTVSPropertyOp54
 70
     0
102
RTVSPropertyOp55
 70
     0
102
RTVSPropertyOp56
 70
     0
102
RTVSPropertyOp57
 70
     0
102
RTVSPropertyOp58
 70
     0
102
RTVSPropertyOp59
 70
     0
102
RTVSPropertyOp60
 70
     0
102
RTVSPropertyOp61
 70
     0
102
RTVSPropertyOp62
 70
     0
  0
XRECORD
  5
1088
102
{ACAD_REACTORS
330
1087
102
}
330
1087
100
AcDbXrecord
280
     1
102
RTVSPost2010Prop28
280
     0
102
RTVSPost2010PropOp28
 70
     1
102
RTVSPost2010Prop29
280
     1
102
RTVSPost2010PropOp29
 70
     1
102
RTVSPost2010Prop30
280
     1
102
RTVSPost2010PropOp30
 70
     1
102
RTVSPost2010Prop31
280
     0
102
RTVSPost2010PropOp31
 70
     1
102
RTVSPost2010Prop32
280
     0
102
RTVSPost2010PropOp32
 70
     1
102
RTVSPost2010Prop33
280
     0
102
RTVSPost2010PropOp33
 70
     1
102
RTVSPost2010Prop34
280
     0
102
RTVSPost2010PropOp34
 70
     1
102
RTVSPost2010Prop35
280
     0
102
RTVSPost2010PropOp35
 70
     1
102
RTVSPost2010Prop36
280
     0
102
RTVSPost2010PropOp36
 70
     1
102
RTVSPost2010Prop37
 90
       50
102
RTVSPost2010PropOp37
 70
     1
102
RTVSPost2010Prop38
140
0.0
102
RTVSPost2010PropOp38
 70
     1
102
RTVSPost2010Prop39
140
1.0
102
RTVSPost2010PropOp39
 70
     1
102
RTVSPost2010Prop40
 90
        0
102
RTVSPost2010PropOp40
 70
     1
102
RTVSPost2010Prop41ColorIndex
 90
       18
102
RTVSPost2010Prop41ColorRGB
 90
        0
102
RTVSPost2010PropOp41
 70
     1
102
RTVSPost2010Prop42
 90
       50
102
RTVSPost2010PropOp42
 70
     1
102
RTVSPost2010Prop43
 90
        3
102
RTVSPost2010PropOp43
 70
     1
102
RTVSPost2010Prop44ColorIndex
 90
        5
102
RTVSPost2010Prop44ColorRGB
 90
      255
102
RTVSPost2010PropOp44
 70
     1
102
RTVSPost2010Prop45
280
     0
102
RTVSPost2010PropOp45
 70
     1
102
RTVSPost2010Prop46
 90
       50
102
RTVSPost2010PropOp46
 70
     1
102
RTVSPost2010Prop47
 90
       50
102
RTVSPost2010PropOp47
 70
     1
102
RTVSPost2010Prop48
 90
       50
102
RTVSPost2010PropOp48
 70
     1
102
RTVSPost2010Prop49
280
     0
102
RTVSPost2010PropOp49
 70
     1
102
RTVSPost2010Prop50
 90
       50
102
RTVSPost2010PropOp50
 70
     1
102
RTVSPost2010Prop51ColorIndex
 90
      256
102
RTVSPost2010Prop51ColorRGB
 90
-16777216
102
RTVSPost2010PropOp51
 70
     0
102
RTVSPost2010Prop52
140
1.0
102
RTVSPost2010PropOp52
 70
     0
102
RTVSPost2010Prop53
 90
        2
102
RTVSPost2010PropOp53
 70
     1
102
RTVSPost2010Prop54
  1
strokes_ogs.tif
102
RTVSPost2010PropOp54
 70
     1
102
RTVSPost2010Prop55
280
     0
102
RTVSPost2010PropOp55
 70
     1
102
RTVSPost2010Prop56
140
1.0
102
RTVSPost2010PropOp56
 70
     1
102
RTVSPost2010Prop57
140
1.0
102
RTVSPost2010PropOp57
 70
     1
102
RTVSPropertyOp0
 70
     1
102
RTVSPropertyOp1
 70
     1
102
RTVSPropertyOp2
 70
     1
102
RTVSPropertyOp3
 70
     1
102
RTVSPropertyOp4
 70
     1
102
RTVSPropertyOp5
 70
     1
102
RTVSPropertyOp6
 70
     1
102
RTVSPropertyOp7
 70
     1
102
RTVSPropertyOp8
 70
     1
102
RTVSPropertyOp9
 70
     1
102
RTVSPropertyOp10
 70
     1
102
RTVSPropertyOp11
 70
     1
102
RTVSPropertyOp12
 70
     1
102
RTVSPropertyOp13
 70
     1
102
RTVSPropertyOp14
 70
     1
102
RTVSPropertyOp15
 70
     1
102
RTVSPropertyOp16
 70
     1
102
RTVSPropertyOp17
 70
     1
102
RTVSPropertyOp18
 70
     1
102
RTVSPropertyOp19
 70
     1
102
RTVSPropertyOp20
 70
     1
102
RTVSPropertyOp21
 70
     1
102
RTVSPropertyOp22
 70
     1
102
RTVSPropertyOp23
 70
     1
102
RTVSPropertyOp24
 70
     1
102
RTVSPropertyOp25
 70
     1
102
RTVSPropertyOp26
 70
     1
102
RTVSPropertyOp27
 70
     1
102
RTVSPropertyOp28
 70
     1
102
RTVSPropertyOp29
 70
     1
102
RTVSPropertyOp30
 70
     1
102
RTVSPropertyOp31
 70
     1
102
RTVSPropertyOp32
 70
     1
102
RTVSPropertyOp33
 70
     1
102
RTVSPropertyOp34
 70
     1
102
RTVSPropertyOp35
 70
     1
102
RTVSPropertyOp36
 70
     1
102
RTVSPropertyOp37
 70
     1
102
RTVSPropertyOp38
 70
     1
102
RTVSPropertyOp39
 70
     1
102
RTVSPropertyOp40
 70
     1
102
RTVSPropertyOp41
 70
     1
102
RTVSPropertyOp42
 70
     1
102
RTVSPropertyOp43
 70
     1
102
RTVSPropertyOp44
 70
     1
102
RTVSPropertyOp45
 70
     1
102
RTVSPropertyOp46
 70
     1
102
RTVSPropertyOp47
 70
     1
102
RTVSPropertyOp48
 70
     1
102
RTVSPropertyOp49
 70
     1
102
RTVSPropertyOp50
 70
     1
102
RTVSPropertyOp51
 70
     0
102
RTVSPropertyOp52
 70
     0
102
RTVSPropertyOp53
 70
     1
102
RTVSPropertyOp54
 70
     1
102
RTVSPropertyOp55
 70
     1
102
RTVSPropertyOp56
 70
     1
102
RTVSPropertyOp57
 70
     1
102
RTVSPropertyOp58
 70
     1
102
RTVSPropertyOp59
 70
     1
102
RTVSPropertyOp60
 70
     1
102
RTVSPropertyOp61
 70
     1
102
RTVSPropertyOp62
 70
     1
  0
XRECORD
  5
109A
102
{ACAD_REACTORS
330
1099
102
}
330
1099
100
AcDbXrecord
280
     1
102
RTVSPost2010Prop28
280
     0
102
RTVSPost2010PropOp28
 70
     0
102
RTVSPost2010Prop29
280
     1
102
RTVSPost2010PropOp29
 70
     0
102
RTVSPost2010Prop30
280
     1
102
RTVSPost2010PropOp30
 70
     0
102
RTVSPost2010Prop31
280
     0
102
RTVSPost2010PropOp31
 70
     0
102
RTVSPost2010Prop32
280
     0
102
RTVSPost2010PropOp32
 70
     0
102
RTVSPost2010Prop33
280
     0
102
RTVSPost2010PropOp33
 70
     0
102
RTVSPost2010Prop34
280
     0
102
RTVSPost2010PropOp34
 70
     0
102
RTVSPost2010Prop35
280
     0
102
RTVSPost2010PropOp35
 70
     0
102
RTVSPost2010Prop36
280
     0
102
RTVSPost2010PropOp36
 70
     0
102
RTVSPost2010Prop37
 90
       50
102
RTVSPost2010PropOp37
 70
     0
102
RTVSPost2010Prop38
140
0.0
102
RTVSPost2010PropOp38
 70
     0
102
RTVSPost2010Prop39
140
1.0
102
RTVSPost2010PropOp39
 70
     0
102
RTVSPost2010Prop40
 90
        0
102
RTVSPost2010PropOp40
 70
     0
102
RTVSPost2010Prop41ColorIndex
 90
       18
102
RTVSPost2010Prop41ColorRGB
 90
        0
102
RTVSPost2010PropOp41
 70
     0
102
RTVSPost2010Prop42
 90
       50
102
RTVSPost2010PropOp42
 70
     0
102
RTVSPost2010Prop43
 90
        3
102
RTVSPost2010PropOp43
 70
     0
102
RTVSPost2010Prop44ColorIndex
 90
        5
102
RTVSPost2010Prop44ColorRGB
 90
      255
102
RTVSPost2010PropOp44
 70
     0
102
RTVSPost2010Prop45
280
     0
102
RTVSPost2010PropOp45
 70
     0
102
RTVSPost2010Prop46
 90
       50
102
RTVSPost2010PropOp46
 70
     0
102
RTVSPost2010Prop47
 90
       50
102
RTVSPost2010PropOp47
 70
     0
102
RTVSPost2010Prop48
 90
       50
102
RTVSPost2010PropOp48
 70
     0
102
RTVSPost2010Prop49
280
     0
102
RTVSPost2010PropOp49
 70
     0
102
RTVSPost2010Prop50
 90
       50
102
RTVSPost2010PropOp50
 70
     0
102
RTVSPost2010Prop51ColorIndex
 90
      256
102
RTVSPost2010Prop51ColorRGB
 90
-16777216
102
RTVSPost2010PropOp51
 70
     0
102
RTVSPost2010Prop52
140
1.0
102
RTVSPost2010PropOp52
 70
     0
102
RTVSPost2010Prop53
 90
        2
102
RTVSPost2010PropOp53
 70
     0
102
RTVSPost2010Prop54
  1
strokes_ogs.tif
102
RTVSPost2010PropOp54
 70
     0
102
RTVSPost2010Prop55
280
     0
102
RTVSPost2010PropOp55
 70
     0
102
RTVSPost2010Prop56
140
1.0
102
RTVSPost2010PropOp56
 70
     0
102
RTVSPost2010Prop57
140
1.0
102
RTVSPost2010PropOp57
 70
     0
102
RTVSPropertyOp0
 70
     0
102
RTVSPropertyOp1
 70
     0
102
RTVSPropertyOp2
 70
     0
102
RTVSPropertyOp3
 70
     0
102
RTVSPropertyOp4
 70
     0
102
RTVSPropertyOp5
 70
     0
102
RTVSPropertyOp6
 70
     0
102
RTVSPropertyOp7
 70
     0
102
RTVSPropertyOp8
 70
     0
102
RTVSPropertyOp9
 70
     0
102
RTVSPropertyOp10
 70
     0
102
RTVSPropertyOp11
 70
     0
102
RTVSPropertyOp12
 70
     0
102
RTVSPropertyOp13
 70
     0
102
RTVSPropertyOp14
 70
     2
102
RTVSPropertyOp15
 70
     0
102
RTVSPropertyOp16
 70
     0
102
RTVSPropertyOp17
 70
     0
102
RTVSPropertyOp18
 70
     0
102
RTVSPropertyOp19
 70
     0
102
RTVSPropertyOp20
 70
     0
102
RTVSPropertyOp21
 70
     0
102
RTVSPropertyOp22
 70
     0
102
RTVSPropertyOp23
 70
     0
102
RTVSPropertyOp24
 70
     0
102
RTVSPropertyOp25
 70
     0
102
RTVSPropertyOp26
 70
     0
102
RTVSPropertyOp27
 70
     0
102
RTVSPropertyOp28
 70
     0
102
RTVSPropertyOp29
 70
     0
102
RTVSPropertyOp30
 70
     0
102
RTVSPropertyOp31
 70
     0
102
RTVSPropertyOp32
 70
     0
102
RTVSPropertyOp33
 70
     0
102
RTVSPropertyOp34
 70
     0
102
RTVSPropertyOp35
 70
     0
102
RTVSPropertyOp36
 70
     0
102
RTVSPropertyOp37
 70
     0
102
RTVSPropertyOp38
 70
     0
102
RTVSPropertyOp39
 70
     0
102
RTVSPropertyOp40
 70
     0
102
RTVSPropertyOp41
 70
     0
102
RTVSPropertyOp42
 70
     0
102
RTVSPropertyOp43
 70
     0
102
RTVSPropertyOp44
 70
     0
102
RTVSPropertyOp45
 70
     0
102
RTVSPropertyOp46
 70
     0
102
RTVSPropertyOp47
 70
     0
102
RTVSPropertyOp48
 70
     0
102
RTVSPropertyOp49
 70
     0
102
RTVSPropertyOp50
 70
     0
102
RTVSPropertyOp51
 70
     0
102
RTVSPropertyOp52
 70
     0
102
RTVSPropertyOp53
 70
     0
102
RTVSPropertyOp54
 70
     0
102
RTVSPropertyOp55
 70
     0
102
RTVSPropertyOp56
 70
     0
102
RTVSPropertyOp57
 70
     0
102
RTVSPropertyOp58
 70
     0
102
RTVSPropertyOp59
 70
     0
102
RTVSPropertyOp60
 70
     0
102
RTVSPropertyOp61
 70
     0
102
RTVSPropertyOp62
 70
     0
  0
XRECORD
  5
1080
102
{ACAD_REACTORS
330
107F
102
}
330
107F
100
AcDbXrecord
280
     1
102
RTVSPost2010Prop28
280
     0
102
RTVSPost2010PropOp28
 70
     1
102
RTVSPost2010Prop29
280
     1
102
RTVSPost2010PropOp29
 70
     1
102
RTVSPost2010Prop30
280
     1
102
RTVSPost2010PropOp30
 70
     1
102
RTVSPost2010Prop31
280
     0
102
RTVSPost2010PropOp31
 70
     1
102
RTVSPost2010Prop32
280
     0
102
RTVSPost2010PropOp32
 70
     1
102
RTVSPost2010Prop33
280
     0
102
RTVSPost2010PropOp33
 70
     1
102
RTVSPost2010Prop34
280
     0
102
RTVSPost2010PropOp34
 70
     1
102
RTVSPost2010Prop35
280
     0
102
RTVSPost2010PropOp35
 70
     1
102
RTVSPost2010Prop36
280
     0
102
RTVSPost2010PropOp36
 70
     1
102
RTVSPost2010Prop37
 90
       50
102
RTVSPost2010PropOp37
 70
     1
102
RTVSPost2010Prop38
140
0.0
102
RTVSPost2010PropOp38
 70
     1
102
RTVSPost2010Prop39
140
1.0
102
RTVSPost2010PropOp39
 70
     1
102
RTVSPost2010Prop40
 90
        0
102
RTVSPost2010PropOp40
 70
     1
102
RTVSPost2010Prop41ColorIndex
 90
       18
102
RTVSPost2010Prop41ColorRGB
 90
        0
102
RTVSPost2010PropOp41
 70
     1
102
RTVSPost2010Prop42
 90
       50
102
RTVSPost2010PropOp42
 70
     1
102
RTVSPost2010Prop43
 90
        3
102
RTVSPost2010PropOp43
 70
     1
102
RTVSPost2010Prop44ColorIndex
 90
        5
102
RTVSPost2010Prop44ColorRGB
 90
      255
102
RTVSPost2010PropOp44
 70
     1
102
RTVSPost2010Prop45
280
     0
102
RTVSPost2010PropOp45
 70
     1
102
RTVSPost2010Prop46
 90
       50
102
RTVSPost2010PropOp46
 70
     1
102
RTVSPost2010Prop47
 90
       50
102
RTVSPost2010PropOp47
 70
     1
102
RTVSPost2010Prop48
 90
       50
102
RTVSPost2010PropOp48
 70
     1
102
RTVSPost2010Prop49
280
     0
102
RTVSPost2010PropOp49
 70
     1
102
RTVSPost2010Prop50
 90
       50
102
RTVSPost2010PropOp50
 70
     1
102
RTVSPost2010Prop51ColorIndex
 90
      256
102
RTVSPost2010Prop51ColorRGB
 90
-16777216
102
RTVSPost2010PropOp51
 70
     0
102
RTVSPost2010Prop52
140
1.0
102
RTVSPost2010PropOp52
 70
     0
102
RTVSPost2010Prop53
 90
        2
102
RTVSPost2010PropOp53
 70
     1
102
RTVSPost2010Prop54
  1
strokes_ogs.tif
102
RTVSPost2010PropOp54
 70
     1
102
RTVSPost2010Prop55
280
     0
102
RTVSPost2010PropOp55
 70
     1
102
RTVSPost2010Prop56
140
1.0
102
RTVSPost2010PropOp56
 70
     1
102
RTVSPost2010Prop57
140
1.0
102
RTVSPost2010PropOp57
 70
     1
102
RTVSPropertyOp0
 70
     1
102
RTVSPropertyOp1
 70
     1
102
RTVSPropertyOp2
 70
     1
102
RTVSPropertyOp3
 70
     1
102
RTVSPropertyOp4
 70
     1
102
RTVSPropertyOp5
 70
     1
102
RTVSPropertyOp6
 70
     1
102
RTVSPropertyOp7
 70
     1
102
RTVSPropertyOp8
 70
     1
102
RTVSPropertyOp9
 70
     1
102
RTVSPropertyOp10
 70
     1
102
RTVSPropertyOp11
 70
     1
102
RTVSPropertyOp12
 70
     1
102
RTVSPropertyOp13
 70
     1
102
RTVSPropertyOp14
 70
     1
102
RTVSPropertyOp15
 70
     1
102
RTVSPropertyOp16
 70
     1
102
RTVSPropertyOp17
 70
     1
102
RTVSPropertyOp18
 70
     1
102
RTVSPropertyOp19
 70
     1
102
RTVSPropertyOp20
 70
     1
102
RTVSPropertyOp21
 70
     1
102
RTVSPropertyOp22
 70
     1
102
RTVSPropertyOp23
 70
     1
102
RTVSPropertyOp24
 70
     1
102
RTVSPropertyOp25
 70
     1
102
RTVSPropertyOp26
 70
     1
102
RTVSPropertyOp27
 70
     1
102
RTVSPropertyOp28
 70
     1
102
RTVSPropertyOp29
 70
     1
102
RTVSPropertyOp30
 70
     1
102
RTVSPropertyOp31
 70
     1
102
RTVSPropertyOp32
 70
     1
102
RTVSPropertyOp33
 70
     1
102
RTVSPropertyOp34
 70
     1
102
RTVSPropertyOp35
 70
     1
102
RTVSPropertyOp36
 70
     1
102
RTVSPropertyOp37
 70
     1
102
RTVSPropertyOp38
 70
     1
102
RTVSPropertyOp39
 70
     1
102
RTVSPropertyOp40
 70
     1
102
RTVSPropertyOp41
 70
     1
102
RTVSPropertyOp42
 70
     1
102
RTVSPropertyOp43
 70
     1
102
RTVSPropertyOp44
 70
     1
102
RTVSPropertyOp45
 70
     1
102
RTVSPropertyOp46
 70
     1
102
RTVSPropertyOp47
 70
     1
102
RTVSPropertyOp48
 70
     1
102
RTVSPropertyOp49
 70
     1
102
RTVSPropertyOp50
 70
     1
102
RTVSPropertyOp51
 70
     0
102
RTVSPropertyOp52
 70
     0
102
RTVSPropertyOp53
 70
     1
102
RTVSPropertyOp54
 70
     1
102
RTVSPropertyOp55
 70
     1
102
RTVSPropertyOp56
 70
     1
102
RTVSPropertyOp57
 70
     1
102
RTVSPropertyOp58
 70
     1
102
RTVSPropertyOp59
 70
     1
102
RTVSPropertyOp60
 70
     1
102
RTVSPropertyOp61
 70
     1
102
RTVSPropertyOp62
 70
     1
  0
XRECORD
  5
1096
102
{ACAD_REACTORS
330
1095
102
}
330
1095
100
AcDbXrecord
280
     1
102
RTVSPost2010Prop28
280
     0
102
RTVSPost2010PropOp28
 70
     1
102
RTVSPost2010Prop29
280
     1
102
RTVSPost2010PropOp29
 70
     1
102
RTVSPost2010Prop30
280
     1
102
RTVSPost2010PropOp30
 70
     1
102
RTVSPost2010Prop31
280
     0
102
RTVSPost2010PropOp31
 70
     1
102
RTVSPost2010Prop32
280
     0
102
RTVSPost2010PropOp32
 70
     1
102
RTVSPost2010Prop33
280
     0
102
RTVSPost2010PropOp33
 70
     1
102
RTVSPost2010Prop34
280
     0
102
RTVSPost2010PropOp34
 70
     1
102
RTVSPost2010Prop35
280
     0
102
RTVSPost2010PropOp35
 70
     1
102
RTVSPost2010Prop36
280
     0
102
RTVSPost2010PropOp36
 70
     1
102
RTVSPost2010Prop37
 90
       50
102
RTVSPost2010PropOp37
 70
     1
102
RTVSPost2010Prop38
140
0.0
102
RTVSPost2010PropOp38
 70
     1
102
RTVSPost2010Prop39
140
1.0
102
RTVSPost2010PropOp39
 70
     1
102
RTVSPost2010Prop40
 90
        0
102
RTVSPost2010PropOp40
 70
     1
102
RTVSPost2010Prop41ColorIndex
 90
       18
102
RTVSPost2010Prop41ColorRGB
 90
        0
102
RTVSPost2010PropOp41
 70
     1
102
RTVSPost2010Prop42
 90
       50
102
RTVSPost2010PropOp42
 70
     1
102
RTVSPost2010Prop43
 90
        3
102
RTVSPost2010PropOp43
 70
     1
102
RTVSPost2010Prop44ColorIndex
 90
        5
102
RTVSPost2010Prop44ColorRGB
 90
      255
102
RTVSPost2010PropOp44
 70
     1
102
RTVSPost2010Prop45
280
     0
102
RTVSPost2010PropOp45
 70
     1
102
RTVSPost2010Prop46
 90
       50
102
RTVSPost2010PropOp46
 70
     1
102
RTVSPost2010Prop47
 90
       50
102
RTVSPost2010PropOp47
 70
     1
102
RTVSPost2010Prop48
 90
       50
102
RTVSPost2010PropOp48
 70
     1
102
RTVSPost2010Prop49
280
     0
102
RTVSPost2010PropOp49
 70
     1
102
RTVSPost2010Prop50
 90
       50
102
RTVSPost2010PropOp50
 70
     1
102
RTVSPost2010Prop51ColorIndex
 90
      256
102
RTVSPost2010Prop51ColorRGB
 90
-16777216
102
RTVSPost2010PropOp51
 70
     0
102
RTVSPost2010Prop52
140
1.0
102
RTVSPost2010PropOp52
 70
     0
102
RTVSPost2010Prop53
 90
        2
102
RTVSPost2010PropOp53
 70
     1
102
RTVSPost2010Prop54
  1
strokes_ogs.tif
102
RTVSPost2010PropOp54
 70
     1
102
RTVSPost2010Prop55
280
     0
102
RTVSPost2010PropOp55
 70
     1
102
RTVSPost2010Prop56
140
1.0
102
RTVSPost2010PropOp56
 70
     1
102
RTVSPost2010Prop57
140
1.0
102
RTVSPost2010PropOp57
 70
     1
102
RTVSPropertyOp0
 70
     1
102
RTVSPropertyOp1
 70
     1
102
RTVSPropertyOp2
 70
     1
102
RTVSPropertyOp3
 70
     1
102
RTVSPropertyOp4
 70
     1
102
RTVSPropertyOp5
 70
     1
102
RTVSPropertyOp6
 70
     1
102
RTVSPropertyOp7
 70
     1
102
RTVSPropertyOp8
 70
     1
102
RTVSPropertyOp9
 70
     1
102
RTVSPropertyOp10
 70
     1
102
RTVSPropertyOp11
 70
     1
102
RTVSPropertyOp12
 70
     1
102
RTVSPropertyOp13
 70
     1
102
RTVSPropertyOp14
 70
     1
102
RTVSPropertyOp15
 70
     1
102
RTVSPropertyOp16
 70
     1
102
RTVSPropertyOp17
 70
     1
102
RTVSPropertyOp18
 70
     1
102
RTVSPropertyOp19
 70
     1
102
RTVSPropertyOp20
 70
     1
102
RTVSPropertyOp21
 70
     1
102
RTVSPropertyOp22
 70
     1
102
RTVSPropertyOp23
 70
     1
102
RTVSPropertyOp24
 70
     1
102
RTVSPropertyOp25
 70
     1
102
RTVSPropertyOp26
 70
     1
102
RTVSPropertyOp27
 70
     1
102
RTVSPropertyOp28
 70
     1
102
RTVSPropertyOp29
 70
     1
102
RTVSPropertyOp30
 70
     1
102
RTVSPropertyOp31
 70
     1
102
RTVSPropertyOp32
 70
     1
102
RTVSPropertyOp33
 70
     1
102
RTVSPropertyOp34
 70
     1
102
RTVSPropertyOp35
 70
     1
102
RTVSPropertyOp36
 70
     1
102
RTVSPropertyOp37
 70
     1
102
RTVSPropertyOp38
 70
     1
102
RTVSPropertyOp39
 70
     1
102
RTVSPropertyOp40
 70
     1
102
RTVSPropertyOp41
 70
     1
102
RTVSPropertyOp42
 70
     1
102
RTVSPropertyOp43
 70
     1
102
RTVSPropertyOp44
 70
     1
102
RTVSPropertyOp45
 70
     1
102
RTVSPropertyOp46
 70
     1
102
RTVSPropertyOp47
 70
     1
102
RTVSPropertyOp48
 70
     1
102
RTVSPropertyOp49
 70
     1
102
RTVSPropertyOp50
 70
     1
102
RTVSPropertyOp51
 70
     0
102
RTVSPropertyOp52
 70
     0
102
RTVSPropertyOp53
 70
     1
102
RTVSPropertyOp54
 70
     1
102
RTVSPropertyOp55
 70
     1
102
RTVSPropertyOp56
 70
     1
102
RTVSPropertyOp57
 70
     1
102
RTVSPropertyOp58
 70
     1
102
RTVSPropertyOp59
 70
     1
102
RTVSPropertyOp60
 70
     1
102
RTVSPropertyOp61
 70
     1
102
RTVSPropertyOp62
 70
     1
  0
XRECORD
  5
1094
102
{ACAD_REACTORS
330
1093
102
}
330
1093
100
AcDbXrecord
280
     1
102
RTVSPost2010Prop28
280
     0
102
RTVSPost2010PropOp28
 70
     1
102
RTVSPost2010Prop29
280
     1
102
RTVSPost2010PropOp29
 70
     1
102
RTVSPost2010Prop30
280
     1
102
RTVSPost2010PropOp30
 70
     1
102
RTVSPost2010Prop31
280
     0
102
RTVSPost2010PropOp31
 70
     1
102
RTVSPost2010Prop32
280
     0
102
RTVSPost2010PropOp32
 70
     1
102
RTVSPost2010Prop33
280
     0
102
RTVSPost2010PropOp33
 70
     1
102
RTVSPost2010Prop34
280
     0
102
RTVSPost2010PropOp34
 70
     1
102
RTVSPost2010Prop35
280
     0
102
RTVSPost2010PropOp35
 70
     1
102
RTVSPost2010Prop36
280
     0
102
RTVSPost2010PropOp36
 70
     1
102
RTVSPost2010Prop37
 90
       50
102
RTVSPost2010PropOp37
 70
     1
102
RTVSPost2010Prop38
140
0.0
102
RTVSPost2010PropOp38
 70
     1
102
RTVSPost2010Prop39
140
1.0
102
RTVSPost2010PropOp39
 70
     1
102
RTVSPost2010Prop40
 90
        0
102
RTVSPost2010PropOp40
 70
     1
102
RTVSPost2010Prop41ColorIndex
 90
       18
102
RTVSPost2010Prop41ColorRGB
 90
        0
102
RTVSPost2010PropOp41
 70
     1
102
RTVSPost2010Prop42
 90
       50
102
RTVSPost2010PropOp42
 70
     1
102
RTVSPost2010Prop43
 90
        3
102
RTVSPost2010PropOp43
 70
     1
102
RTVSPost2010Prop44ColorIndex
 90
        5
102
RTVSPost2010Prop44ColorRGB
 90
      255
102
RTVSPost2010PropOp44
 70
     1
102
RTVSPost2010Prop45
280
     0
102
RTVSPost2010PropOp45
 70
     1
102
RTVSPost2010Prop46
 90
       50
102
RTVSPost2010PropOp46
 70
     1
102
RTVSPost2010Prop47
 90
       50
102
RTVSPost2010PropOp47
 70
     1
102
RTVSPost2010Prop48
 90
       50
102
RTVSPost2010PropOp48
 70
     1
102
RTVSPost2010Prop49
280
     0
102
RTVSPost2010PropOp49
 70
     1
102
RTVSPost2010Prop50
 90
       50
102
RTVSPost2010PropOp50
 70
     1
102
RTVSPost2010Prop51ColorIndex
 90
      256
102
RTVSPost2010Prop51ColorRGB
 90
-16777216
102
RTVSPost2010PropOp51
 70
     0
102
RTVSPost2010Prop52
140
1.0
102
RTVSPost2010PropOp52
 70
     0
102
RTVSPost2010Prop53
 90
        2
102
RTVSPost2010PropOp53
 70
     1
102
RTVSPost2010Prop54
  1
strokes_ogs.tif
102
RTVSPost2010PropOp54
 70
     1
102
RTVSPost2010Prop55
280
     0
102
RTVSPost2010PropOp55
 70
     1
102
RTVSPost2010Prop56
140
1.0
102
RTVSPost2010PropOp56
 70
     1
102
RTVSPost2010Prop57
140
1.0
102
RTVSPost2010PropOp57
 70
     1
102
RTVSPropertyOp0
 70
     1
102
RTVSPropertyOp1
 70
     1
102
RTVSPropertyOp2
 70
     1
102
RTVSPropertyOp3
 70
     1
102
RTVSPropertyOp4
 70
     1
102
RTVSPropertyOp5
 70
     1
102
RTVSPropertyOp6
 70
     1
102
RTVSPropertyOp7
 70
     1
102
RTVSPropertyOp8
 70
     1
102
RTVSPropertyOp9
 70
     1
102
RTVSPropertyOp10
 70
     1
102
RTVSPropertyOp11
 70
     1
102
RTVSPropertyOp12
 70
     1
102
RTVSPropertyOp13
 70
     1
102
RTVSPropertyOp14
 70
     1
102
RTVSPropertyOp15
 70
     1
102
RTVSPropertyOp16
 70
     1
102
RTVSPropertyOp17
 70
     1
102
RTVSPropertyOp18
 70
     1
102
RTVSPropertyOp19
 70
     1
102
RTVSPropertyOp20
 70
     1
102
RTVSPropertyOp21
 70
     1
102
RTVSPropertyOp22
 70
     1
102
RTVSPropertyOp23
 70
     1
102
RTVSPropertyOp24
 70
     1
102
RTVSPropertyOp25
 70
     1
102
RTVSPropertyOp26
 70
     1
102
RTVSPropertyOp27
 70
     1
102
RTVSPropertyOp28
 70
     1
102
RTVSPropertyOp29
 70
     1
102
RTVSPropertyOp30
 70
     1
102
RTVSPropertyOp31
 70
     1
102
RTVSPropertyOp32
 70
     1
102
RTVSPropertyOp33
 70
     1
102
RTVSPropertyOp34
 70
     1
102
RTVSPropertyOp35
 70
     1
102
RTVSPropertyOp36
 70
     1
102
RTVSPropertyOp37
 70
     1
102
RTVSPropertyOp38
 70
     1
102
RTVSPropertyOp39
 70
     1
102
RTVSPropertyOp40
 70
     1
102
RTVSPropertyOp41
 70
     1
102
RTVSPropertyOp42
 70
     1
102
RTVSPropertyOp43
 70
     1
102
RTVSPropertyOp44
 70
     1
102
RTVSPropertyOp45
 70
     1
102
RTVSPropertyOp46
 70
     1
102
RTVSPropertyOp47
 70
     1
102
RTVSPropertyOp48
 70
     1
102
RTVSPropertyOp49
 70
     1
102
RTVSPropertyOp50
 70
     1
102
RTVSPropertyOp51
 70
     0
102
RTVSPropertyOp52
 70
     0
102
RTVSPropertyOp53
 70
     1
102
RTVSPropertyOp54
 70
     1
102
RTVSPropertyOp55
 70
     1
102
RTVSPropertyOp56
 70
     1
102
RTVSPropertyOp57
 70
     1
102
RTVSPropertyOp58
 70
     1
102
RTVSPropertyOp59
 70
     1
102
RTVSPropertyOp60
 70
     1
102
RTVSPropertyOp61
 70
     1
102
RTVSPropertyOp62
 70
     1
  0
XRECORD
  5
108E
102
{ACAD_REACTORS
330
108D
102
}
330
108D
100
AcDbXrecord
280
     1
102
RTVSPost2010Prop28
280
     0
102
RTVSPost2010PropOp28
 70
     1
102
RTVSPost2010Prop29
280
     1
102
RTVSPost2010PropOp29
 70
     1
102
RTVSPost2010Prop30
280
     1
102
RTVSPost2010PropOp30
 70
     1
102
RTVSPost2010Prop31
280
     0
102
RTVSPost2010PropOp31
 70
     1
102
RTVSPost2010Prop32
280
     0
102
RTVSPost2010PropOp32
 70
     1
102
RTVSPost2010Prop33
280
     0
102
RTVSPost2010PropOp33
 70
     1
102
RTVSPost2010Prop34
280
     0
102
RTVSPost2010PropOp34
 70
     1
102
RTVSPost2010Prop35
280
     0
102
RTVSPost2010PropOp35
 70
     1
102
RTVSPost2010Prop36
280
     0
102
RTVSPost2010PropOp36
 70
     1
102
RTVSPost2010Prop37
 90
       50
102
RTVSPost2010PropOp37
 70
     1
102
RTVSPost2010Prop38
140
0.0
102
RTVSPost2010PropOp38
 70
     1
102
RTVSPost2010Prop39
140
1.0
102
RTVSPost2010PropOp39
 70
     1
102
RTVSPost2010Prop40
 90
        0
102
RTVSPost2010PropOp40
 70
     1
102
RTVSPost2010Prop41ColorIndex
 90
       18
102
RTVSPost2010Prop41ColorRGB
 90
        0
102
RTVSPost2010PropOp41
 70
     1
102
RTVSPost2010Prop42
 90
       50
102
RTVSPost2010PropOp42
 70
     1
102
RTVSPost2010Prop43
 90
        3
102
RTVSPost2010PropOp43
 70
     1
102
RTVSPost2010Prop44ColorIndex
 90
        5
102
RTVSPost2010Prop44ColorRGB
 90
      255
102
RTVSPost2010PropOp44
 70
     1
102
RTVSPost2010Prop45
280
     0
102
RTVSPost2010PropOp45
 70
     1
102
RTVSPost2010Prop46
 90
       50
102
RTVSPost2010PropOp46
 70
     1
102
RTVSPost2010Prop47
 90
       50
102
RTVSPost2010PropOp47
 70
     1
102
RTVSPost2010Prop48
 90
       50
102
RTVSPost2010PropOp48
 70
     1
102
RTVSPost2010Prop49
280
     0
102
RTVSPost2010PropOp49
 70
     1
102
RTVSPost2010Prop50
 90
       50
102
RTVSPost2010PropOp50
 70
     1
102
RTVSPost2010Prop51ColorIndex
 90
      256
102
RTVSPost2010Prop51ColorRGB
 90
-16777216
102
RTVSPost2010PropOp51
 70
     0
102
RTVSPost2010Prop52
140
1.0
102
RTVSPost2010PropOp52
 70
     0
102
RTVSPost2010Prop53
 90
        2
102
RTVSPost2010PropOp53
 70
     1
102
RTVSPost2010Prop54
  1
strokes_ogs.tif
102
RTVSPost2010PropOp54
 70
     1
102
RTVSPost2010Prop55
280
     0
102
RTVSPost2010PropOp55
 70
     1
102
RTVSPost2010Prop56
140
1.0
102
RTVSPost2010PropOp56
 70
     1
102
RTVSPost2010Prop57
140
1.0
102
RTVSPost2010PropOp57
 70
     1
102
RTVSPropertyOp0
 70
     1
102
RTVSPropertyOp1
 70
     1
102
RTVSPropertyOp2
 70
     1
102
RTVSPropertyOp3
 70
     1
102
RTVSPropertyOp4
 70
     1
102
RTVSPropertyOp5
 70
     1
102
RTVSPropertyOp6
 70
     1
102
RTVSPropertyOp7
 70
     1
102
RTVSPropertyOp8
 70
     1
102
RTVSPropertyOp9
 70
     1
102
RTVSPropertyOp10
 70
     1
102
RTVSPropertyOp11
 70
     1
102
RTVSPropertyOp12
 70
     1
102
RTVSPropertyOp13
 70
     1
102
RTVSPropertyOp14
 70
     1
102
RTVSPropertyOp15
 70
     1
102
RTVSPropertyOp16
 70
     1
102
RTVSPropertyOp17
 70
     1
102
RTVSPropertyOp18
 70
     1
102
RTVSPropertyOp19
 70
     1
102
RTVSPropertyOp20
 70
     1
102
RTVSPropertyOp21
 70
     1
102
RTVSPropertyOp22
 70
     1
102
RTVSPropertyOp23
 70
     1
102
RTVSPropertyOp24
 70
     1
102
RTVSPropertyOp25
 70
     1
102
RTVSPropertyOp26
 70
     1
102
RTVSPropertyOp27
 70
     1
102
RTVSPropertyOp28
 70
     1
102
RTVSPropertyOp29
 70
     1
102
RTVSPropertyOp30
 70
     1
102
RTVSPropertyOp31
 70
     1
102
RTVSPropertyOp32
 70
     1
102
RTVSPropertyOp33
 70
     1
102
RTVSPropertyOp34
 70
     1
102
RTVSPropertyOp35
 70
     1
102
RTVSPropertyOp36
 70
     1
102
RTVSPropertyOp37
 70
     1
102
RTVSPropertyOp38
 70
     1
102
RTVSPropertyOp39
 70
     1
102
RTVSPropertyOp40
 70
     1
102
RTVSPropertyOp41
 70
     1
102
RTVSPropertyOp42
 70
     1
102
RTVSPropertyOp43
 70
     1
102
RTVSPropertyOp44
 70
     1
102
RTVSPropertyOp45
 70
     1
102
RTVSPropertyOp46
 70
     1
102
RTVSPropertyOp47
 70
     1
102
RTVSPropertyOp48
 70
     1
102
RTVSPropertyOp49
 70
     1
102
RTVSPropertyOp50
 70
     1
102
RTVSPropertyOp51
 70
     0
102
RTVSPropertyOp52
 70
     0
102
RTVSPropertyOp53
 70
     1
102
RTVSPropertyOp54
 70
     1
102
RTVSPropertyOp55
 70
     1
102
RTVSPropertyOp56
 70
     1
102
RTVSPropertyOp57
 70
     1
102
RTVSPropertyOp58
 70
     1
102
RTVSPropertyOp59
 70
     1
102
RTVSPropertyOp60
 70
     1
102
RTVSPropertyOp61
 70
     1
102
RTVSPropertyOp62
 70
     1
  0
XRECORD
  5
1090
102
{ACAD_REACTORS
330
108F
102
}
330
108F
100
AcDbXrecord
280
     1
102
RTVSPost2010Prop28
280
     0
102
RTVSPost2010PropOp28
 70
     1
102
RTVSPost2010Prop29
280
     1
102
RTVSPost2010PropOp29
 70
     1
102
RTVSPost2010Prop30
280
     1
102
RTVSPost2010PropOp30
 70
     1
102
RTVSPost2010Prop31
280
     0
102
RTVSPost2010PropOp31
 70
     1
102
RTVSPost2010Prop32
280
     0
102
RTVSPost2010PropOp32
 70
     1
102
RTVSPost2010Prop33
280
     0
102
RTVSPost2010PropOp33
 70
     1
102
RTVSPost2010Prop34
280
     0
102
RTVSPost2010PropOp34
 70
     1
102
RTVSPost2010Prop35
280
     0
102
RTVSPost2010PropOp35
 70
     1
102
RTVSPost2010Prop36
280
     0
102
RTVSPost2010PropOp36
 70
     1
102
RTVSPost2010Prop37
 90
       50
102
RTVSPost2010PropOp37
 70
     1
102
RTVSPost2010Prop38
140
0.0
102
RTVSPost2010PropOp38
 70
     1
102
RTVSPost2010Prop39
140
1.0
102
RTVSPost2010PropOp39
 70
     1
102
RTVSPost2010Prop40
 90
        0
102
RTVSPost2010PropOp40
 70
     1
102
RTVSPost2010Prop41ColorIndex
 90
       18
102
RTVSPost2010Prop41ColorRGB
 90
        0
102
RTVSPost2010PropOp41
 70
     1
102
RTVSPost2010Prop42
 90
       50
102
RTVSPost2010PropOp42
 70
     1
102
RTVSPost2010Prop43
 90
        3
102
RTVSPost2010PropOp43
 70
     1
102
RTVSPost2010Prop44ColorIndex
 90
        5
102
RTVSPost2010Prop44ColorRGB
 90
      255
102
RTVSPost2010PropOp44
 70
     1
102
RTVSPost2010Prop45
280
     0
102
RTVSPost2010PropOp45
 70
     1
102
RTVSPost2010Prop46
 90
       50
102
RTVSPost2010PropOp46
 70
     1
102
RTVSPost2010Prop47
 90
       50
102
RTVSPost2010PropOp47
 70
     1
102
RTVSPost2010Prop48
 90
       50
102
RTVSPost2010PropOp48
 70
     1
102
RTVSPost2010Prop49
280
     0
102
RTVSPost2010PropOp49
 70
     1
102
RTVSPost2010Prop50
 90
       50
102
RTVSPost2010PropOp50
 70
     1
102
RTVSPost2010Prop51ColorIndex
 90
      256
102
RTVSPost2010Prop51ColorRGB
 90
-16777216
102
RTVSPost2010PropOp51
 70
     0
102
RTVSPost2010Prop52
140
1.0
102
RTVSPost2010PropOp52
 70
     0
102
RTVSPost2010Prop53
 90
        2
102
RTVSPost2010PropOp53
 70
     1
102
RTVSPost2010Prop54
  1
strokes_ogs.tif
102
RTVSPost2010PropOp54
 70
     1
102
RTVSPost2010Prop55
280
     0
102
RTVSPost2010PropOp55
 70
     1
102
RTVSPost2010Prop56
140
1.0
102
RTVSPost2010PropOp56
 70
     1
102
RTVSPost2010Prop57
140
1.0
102
RTVSPost2010PropOp57
 70
     1
102
RTVSPropertyOp0
 70
     1
102
RTVSPropertyOp1
 70
     1
102
RTVSPropertyOp2
 70
     1
102
RTVSPropertyOp3
 70
     1
102
RTVSPropertyOp4
 70
     1
102
RTVSPropertyOp5
 70
     1
102
RTVSPropertyOp6
 70
     1
102
RTVSPropertyOp7
 70
     1
102
RTVSPropertyOp8
 70
     1
102
RTVSPropertyOp9
 70
     1
102
RTVSPropertyOp10
 70
     1
102
RTVSPropertyOp11
 70
     1
102
RTVSPropertyOp12
 70
     1
102
RTVSPropertyOp13
 70
     1
102
RTVSPropertyOp14
 70
     1
102
RTVSPropertyOp15
 70
     1
102
RTVSPropertyOp16
 70
     1
102
RTVSPropertyOp17
 70
     1
102
RTVSPropertyOp18
 70
     1
102
RTVSPropertyOp19
 70
     1
102
RTVSPropertyOp20
 70
     1
102
RTVSPropertyOp21
 70
     1
102
RTVSPropertyOp22
 70
     1
102
RTVSPropertyOp23
 70
     1
102
RTVSPropertyOp24
 70
     1
102
RTVSPropertyOp25
 70
     1
102
RTVSPropertyOp26
 70
     1
102
RTVSPropertyOp27
 70
     1
102
RTVSPropertyOp28
 70
     1
102
RTVSPropertyOp29
 70
     1
102
RTVSPropertyOp30
 70
     1
102
RTVSPropertyOp31
 70
     1
102
RTVSPropertyOp32
 70
     1
102
RTVSPropertyOp33
 70
     1
102
RTVSPropertyOp34
 70
     1
102
RTVSPropertyOp35
 70
     1
102
RTVSPropertyOp36
 70
     1
102
RTVSPropertyOp37
 70
     1
102
RTVSPropertyOp38
 70
     1
102
RTVSPropertyOp39
 70
     1
102
RTVSPropertyOp40
 70
     1
102
RTVSPropertyOp41
 70
     1
102
RTVSPropertyOp42
 70
     1
102
RTVSPropertyOp43
 70
     1
102
RTVSPropertyOp44
 70
     1
102
RTVSPropertyOp45
 70
     1
102
RTVSPropertyOp46
 70
     1
102
RTVSPropertyOp47
 70
     1
102
RTVSPropertyOp48
 70
     1
102
RTVSPropertyOp49
 70
     1
102
RTVSPropertyOp50
 70
     1
102
RTVSPropertyOp51
 70
     0
102
RTVSPropertyOp52
 70
     0
102
RTVSPropertyOp53
 70
     1
102
RTVSPropertyOp54
 70
     1
102
RTVSPropertyOp55
 70
     1
102
RTVSPropertyOp56
 70
     1
102
RTVSPropertyOp57
 70
     1
102
RTVSPropertyOp58
 70
     1
102
RTVSPropertyOp59
 70
     1
102
RTVSPropertyOp60
 70
     1
102
RTVSPropertyOp61
 70
     1
102
RTVSPropertyOp62
 70
     1
  0
XRECORD
  5
1086
102
{ACAD_REACTORS
330
1085
102
}
330
1085
100
AcDbXrecord
280
     1
102
RTVSPost2010Prop28
280
     0
102
RTVSPost2010PropOp28
 70
     1
102
RTVSPost2010Prop29
280
     1
102
RTVSPost2010PropOp29
 70
     1
102
RTVSPost2010Prop30
280
     1
102
RTVSPost2010PropOp30
 70
     1
102
RTVSPost2010Prop31
280
     0
102
RTVSPost2010PropOp31
 70
     1
102
RTVSPost2010Prop32
280
     0
102
RTVSPost2010PropOp32
 70
     1
102
RTVSPost2010Prop33
280
     0
102
RTVSPost2010PropOp33
 70
     1
102
RTVSPost2010Prop34
280
     0
102
RTVSPost2010PropOp34
 70
     1
102
RTVSPost2010Prop35
280
     0
102
RTVSPost2010PropOp35
 70
     1
102
RTVSPost2010Prop36
280
     0
102
RTVSPost2010PropOp36
 70
     1
102
RTVSPost2010Prop37
 90
       50
102
RTVSPost2010PropOp37
 70
     1
102
RTVSPost2010Prop38
140
0.0
102
RTVSPost2010PropOp38
 70
     1
102
RTVSPost2010Prop39
140
1.0
102
RTVSPost2010PropOp39
 70
     1
102
RTVSPost2010Prop40
 90
        0
102
RTVSPost2010PropOp40
 70
     1
102
RTVSPost2010Prop41ColorIndex
 90
       18
102
RTVSPost2010Prop41ColorRGB
 90
        0
102
RTVSPost2010PropOp41
 70
     1
102
RTVSPost2010Prop42
 90
       50
102
RTVSPost2010PropOp42
 70
     1
102
RTVSPost2010Prop43
 90
        3
102
RTVSPost2010PropOp43
 70
     1
102
RTVSPost2010Prop44ColorIndex
 90
        5
102
RTVSPost2010Prop44ColorRGB
 90
      255
102
RTVSPost2010PropOp44
 70
     1
102
RTVSPost2010Prop45
280
     0
102
RTVSPost2010PropOp45
 70
     1
102
RTVSPost2010Prop46
 90
       50
102
RTVSPost2010PropOp46
 70
     1
102
RTVSPost2010Prop47
 90
       50
102
RTVSPost2010PropOp47
 70
     1
102
RTVSPost2010Prop48
 90
       50
102
RTVSPost2010PropOp48
 70
     1
102
RTVSPost2010Prop49
280
     0
102
RTVSPost2010PropOp49
 70
     1
102
RTVSPost2010Prop50
 90
       50
102
RTVSPost2010PropOp50
 70
     1
102
RTVSPost2010Prop51ColorIndex
 90
      256
102
RTVSPost2010Prop51ColorRGB
 90
-16777216
102
RTVSPost2010PropOp51
 70
     0
102
RTVSPost2010Prop52
140
1.0
102
RTVSPost2010PropOp52
 70
     0
102
RTVSPost2010Prop53
 90
        2
102
RTVSPost2010PropOp53
 70
     1
102
RTVSPost2010Prop54
  1
strokes_ogs.tif
102
RTVSPost2010PropOp54
 70
     1
102
RTVSPost2010Prop55
280
     0
102
RTVSPost2010PropOp55
 70
     1
102
RTVSPost2010Prop56
140
1.0
102
RTVSPost2010PropOp56
 70
     1
102
RTVSPost2010Prop57
140
1.0
102
RTVSPost2010PropOp57
 70
     1
102
RTVSPropertyOp0
 70
     1
102
RTVSPropertyOp1
 70
     1
102
RTVSPropertyOp2
 70
     1
102
RTVSPropertyOp3
 70
     1
102
RTVSPropertyOp4
 70
     1
102
RTVSPropertyOp5
 70
     1
102
RTVSPropertyOp6
 70
     1
102
RTVSPropertyOp7
 70
     1
102
RTVSPropertyOp8
 70
     1
102
RTVSPropertyOp9
 70
     1
102
RTVSPropertyOp10
 70
     1
102
RTVSPropertyOp11
 70
     1
102
RTVSPropertyOp12
 70
     1
102
RTVSPropertyOp13
 70
     1
102
RTVSPropertyOp14
 70
     1
102
RTVSPropertyOp15
 70
     1
102
RTVSPropertyOp16
 70
     1
102
RTVSPropertyOp17
 70
     1
102
RTVSPropertyOp18
 70
     1
102
RTVSPropertyOp19
 70
     1
102
RTVSPropertyOp20
 70
     1
102
RTVSPropertyOp21
 70
     1
102
RTVSPropertyOp22
 70
     1
102
RTVSPropertyOp23
 70
     1
102
RTVSPropertyOp24
 70
     1
102
RTVSPropertyOp25
 70
     1
102
RTVSPropertyOp26
 70
     1
102
RTVSPropertyOp27
 70
     1
102
RTVSPropertyOp28
 70
     1
102
RTVSPropertyOp29
 70
     1
102
RTVSPropertyOp30
 70
     1
102
RTVSPropertyOp31
 70
     1
102
RTVSPropertyOp32
 70
     1
102
RTVSPropertyOp33
 70
     1
102
RTVSPropertyOp34
 70
     1
102
RTVSPropertyOp35
 70
     1
102
RTVSPropertyOp36
 70
     1
102
RTVSPropertyOp37
 70
     1
102
RTVSPropertyOp38
 70
     1
102
RTVSPropertyOp39
 70
     1
102
RTVSPropertyOp40
 70
     1
102
RTVSPropertyOp41
 70
     1
102
RTVSPropertyOp42
 70
     1
102
RTVSPropertyOp43
 70
     1
102
RTVSPropertyOp44
 70
     1
102
RTVSPropertyOp45
 70
     1
102
RTVSPropertyOp46
 70
     1
102
RTVSPropertyOp47
 70
     1
102
RTVSPropertyOp48
 70
     1
102
RTVSPropertyOp49
 70
     1
102
RTVSPropertyOp50
 70
     1
102
RTVSPropertyOp51
 70
     0
102
RTVSPropertyOp52
 70
     0
102
RTVSPropertyOp53
 70
     1
102
RTVSPropertyOp54
 70
     1
102
RTVSPropertyOp55
 70
     1
102
RTVSPropertyOp56
 70
     1
102
RTVSPropertyOp57
 70
     1
102
RTVSPropertyOp58
 70
     1
102
RTVSPropertyOp59
 70
     1
102
RTVSPropertyOp60
 70
     1
102
RTVSPropertyOp61
 70
     1
102
RTVSPropertyOp62
 70
     1
  0
XRECORD
  5
107A
102
{ACAD_REACTORS
330
1079
102
}
330
1079
100
AcDbXrecord
280
     1
102
RTVSPost2010Prop28
280
     0
102
RTVSPost2010PropOp28
 70
     1
102
RTVSPost2010Prop29
280
     1
102
RTVSPost2010PropOp29
 70
     1
102
RTVSPost2010Prop30
280
     1
102
RTVSPost2010PropOp30
 70
     1
102
RTVSPost2010Prop31
280
     0
102
RTVSPost2010PropOp31
 70
     1
102
RTVSPost2010Prop32
280
     0
102
RTVSPost2010PropOp32
 70
     1
102
RTVSPost2010Prop33
280
     0
102
RTVSPost2010PropOp33
 70
     1
102
RTVSPost2010Prop34
280
     0
102
RTVSPost2010PropOp34
 70
     1
102
RTVSPost2010Prop35
280
     0
102
RTVSPost2010PropOp35
 70
     1
102
RTVSPost2010Prop36
280
     0
102
RTVSPost2010PropOp36
 70
     1
102
RTVSPost2010Prop37
 90
       50
102
RTVSPost2010PropOp37
 70
     1
102
RTVSPost2010Prop38
140
0.0
102
RTVSPost2010PropOp38
 70
     1
102
RTVSPost2010Prop39
140
1.0
102
RTVSPost2010PropOp39
 70
     1
102
RTVSPost2010Prop40
 90
        0
102
RTVSPost2010PropOp40
 70
     1
102
RTVSPost2010Prop41ColorIndex
 90
       18
102
RTVSPost2010Prop41ColorRGB
 90
        0
102
RTVSPost2010PropOp41
 70
     1
102
RTVSPost2010Prop42
 90
       50
102
RTVSPost2010PropOp42
 70
     1
102
RTVSPost2010Prop43
 90
        3
102
RTVSPost2010PropOp43
 70
     1
102
RTVSPost2010Prop44ColorIndex
 90
        5
102
RTVSPost2010Prop44ColorRGB
 90
      255
102
RTVSPost2010PropOp44
 70
     1
102
RTVSPost2010Prop45
280
     0
102
RTVSPost2010PropOp45
 70
     1
102
RTVSPost2010Prop46
 90
       50
102
RTVSPost2010PropOp46
 70
     1
102
RTVSPost2010Prop47
 90
       50
102
RTVSPost2010PropOp47
 70
     1
102
RTVSPost2010Prop48
 90
       50
102
RTVSPost2010PropOp48
 70
     1
102
RTVSPost2010Prop49
280
     0
102
RTVSPost2010PropOp49
 70
     1
102
RTVSPost2010Prop50
 90
       50
102
RTVSPost2010PropOp50
 70
     1
102
RTVSPost2010Prop51ColorIndex
 90
      256
102
RTVSPost2010Prop51ColorRGB
 90
-16777216
102
RTVSPost2010PropOp51
 70
     0
102
RTVSPost2010Prop52
140
1.0
102
RTVSPost2010PropOp52
 70
     0
102
RTVSPost2010Prop53
 90
        2
102
RTVSPost2010PropOp53
 70
     1
102
RTVSPost2010Prop54
  1
strokes_ogs.tif
102
RTVSPost2010PropOp54
 70
     1
102
RTVSPost2010Prop55
280
     0
102
RTVSPost2010PropOp55
 70
     1
102
RTVSPost2010Prop56
140
1.0
102
RTVSPost2010PropOp56
 70
     1
102
RTVSPost2010Prop57
140
1.0
102
RTVSPost2010PropOp57
 70
     1
102
RTVSPropertyOp0
 70
     1
102
RTVSPropertyOp1
 70
     1
102
RTVSPropertyOp2
 70
     1
102
RTVSPropertyOp3
 70
     1
102
RTVSPropertyOp4
 70
     1
102
RTVSPropertyOp5
 70
     1
102
RTVSPropertyOp6
 70
     1
102
RTVSPropertyOp7
 70
     1
102
RTVSPropertyOp8
 70
     1
102
RTVSPropertyOp9
 70
     1
102
RTVSPropertyOp10
 70
     1
102
RTVSPropertyOp11
 70
     1
102
RTVSPropertyOp12
 70
     1
102
RTVSPropertyOp13
 70
     1
102
RTVSPropertyOp14
 70
     1
102
RTVSPropertyOp15
 70
     1
102
RTVSPropertyOp16
 70
     1
102
RTVSPropertyOp17
 70
     1
102
RTVSPropertyOp18
 70
     1
102
RTVSPropertyOp19
 70
     1
102
RTVSPropertyOp20
 70
     1
102
RTVSPropertyOp21
 70
     1
102
RTVSPropertyOp22
 70
     1
102
RTVSPropertyOp23
 70
     1
102
RTVSPropertyOp24
 70
     1
102
RTVSPropertyOp25
 70
     1
102
RTVSPropertyOp26
 70
     1
102
RTVSPropertyOp27
 70
     1
102
RTVSPropertyOp28
 70
     1
102
RTVSPropertyOp29
 70
     1
102
RTVSPropertyOp30
 70
     1
102
RTVSPropertyOp31
 70
     1
102
RTVSPropertyOp32
 70
     1
102
RTVSPropertyOp33
 70
     1
102
RTVSPropertyOp34
 70
     1
102
RTVSPropertyOp35
 70
     1
102
RTVSPropertyOp36
 70
     1
102
RTVSPropertyOp37
 70
     1
102
RTVSPropertyOp38
 70
     1
102
RTVSPropertyOp39
 70
     1
102
RTVSPropertyOp40
 70
     1
102
RTVSPropertyOp41
 70
     1
102
RTVSPropertyOp42
 70
     1
102
RTVSPropertyOp43
 70
     1
102
RTVSPropertyOp44
 70
     1
102
RTVSPropertyOp45
 70
     1
102
RTVSPropertyOp46
 70
     1
102
RTVSPropertyOp47
 70
     1
102
RTVSPropertyOp48
 70
     1
102
RTVSPropertyOp49
 70
     1
102
RTVSPropertyOp50
 70
     1
102
RTVSPropertyOp51
 70
     0
102
RTVSPropertyOp52
 70
     0
102
RTVSPropertyOp53
 70
     1
102
RTVSPropertyOp54
 70
     1
102
RTVSPropertyOp55
 70
     1
102
RTVSPropertyOp56
 70
     1
102
RTVSPropertyOp57
 70
     1
102
RTVSPropertyOp58
 70
     1
102
RTVSPropertyOp59
 70
     1
102
RTVSPropertyOp60
 70
     1
102
RTVSPropertyOp61
 70
     1
102
RTVSPropertyOp62
 70
     1
  0
XRECORD
  5
1092
102
{ACAD_REACTORS
330
1091
102
}
330
1091
100
AcDbXrecord
280
     1
102
RTVSPost2010Prop28
280
     0
102
RTVSPost2010PropOp28
 70
     1
102
RTVSPost2010Prop29
280
     1
102
RTVSPost2010PropOp29
 70
     1
102
RTVSPost2010Prop30
280
     1
102
RTVSPost2010PropOp30
 70
     1
102
RTVSPost2010Prop31
280
     0
102
RTVSPost2010PropOp31
 70
     1
102
RTVSPost2010Prop32
280
     0
102
RTVSPost2010PropOp32
 70
     1
102
RTVSPost2010Prop33
280
     0
102
RTVSPost2010PropOp33
 70
     1
102
RTVSPost2010Prop34
280
     0
102
RTVSPost2010PropOp34
 70
     1
102
RTVSPost2010Prop35
280
     0
102
RTVSPost2010PropOp35
 70
     1
102
RTVSPost2010Prop36
280
     0
102
RTVSPost2010PropOp36
 70
     1
102
RTVSPost2010Prop37
 90
       50
102
RTVSPost2010PropOp37
 70
     1
102
RTVSPost2010Prop38
140
0.0
102
RTVSPost2010PropOp38
 70
     1
102
RTVSPost2010Prop39
140
1.0
102
RTVSPost2010PropOp39
 70
     1
102
RTVSPost2010Prop40
 90
        0
102
RTVSPost2010PropOp40
 70
     1
102
RTVSPost2010Prop41ColorIndex
 90
       18
102
RTVSPost2010Prop41ColorRGB
 90
        0
102
RTVSPost2010PropOp41
 70
     1
102
RTVSPost2010Prop42
 90
       50
102
RTVSPost2010PropOp42
 70
     1
102
RTVSPost2010Prop43
 90
        3
102
RTVSPost2010PropOp43
 70
     1
102
RTVSPost2010Prop44ColorIndex
 90
        5
102
RTVSPost2010Prop44ColorRGB
 90
      255
102
RTVSPost2010PropOp44
 70
     1
102
RTVSPost2010Prop45
280
     0
102
RTVSPost2010PropOp45
 70
     1
102
RTVSPost2010Prop46
 90
       50
102
RTVSPost2010PropOp46
 70
     1
102
RTVSPost2010Prop47
 90
       50
102
RTVSPost2010PropOp47
 70
     1
102
RTVSPost2010Prop48
 90
       50
102
RTVSPost2010PropOp48
 70
     1
102
RTVSPost2010Prop49
280
     0
102
RTVSPost2010PropOp49
 70
     1
102
RTVSPost2010Prop50
 90
       50
102
RTVSPost2010PropOp50
 70
     1
102
RTVSPost2010Prop51ColorIndex
 90
      256
102
RTVSPost2010Prop51ColorRGB
 90
-16777216
102
RTVSPost2010PropOp51
 70
     0
102
RTVSPost2010Prop52
140
1.0
102
RTVSPost2010PropOp52
 70
     0
102
RTVSPost2010Prop53
 90
        2
102
RTVSPost2010PropOp53
 70
     1
102
RTVSPost2010Prop54
  1
strokes_ogs.tif
102
RTVSPost2010PropOp54
 70
     1
102
RTVSPost2010Prop55
280
     0
102
RTVSPost2010PropOp55
 70
     1
102
RTVSPost2010Prop56
140
1.0
102
RTVSPost2010PropOp56
 70
     1
102
RTVSPost2010Prop57
140
1.0
102
RTVSPost2010PropOp57
 70
     1
102
RTVSPropertyOp0
 70
     1
102
RTVSPropertyOp1
 70
     1
102
RTVSPropertyOp2
 70
     1
102
RTVSPropertyOp3
 70
     1
102
RTVSPropertyOp4
 70
     1
102
RTVSPropertyOp5
 70
     1
102
RTVSPropertyOp6
 70
     1
102
RTVSPropertyOp7
 70
     1
102
RTVSPropertyOp8
 70
     1
102
RTVSPropertyOp9
 70
     1
102
RTVSPropertyOp10
 70
     1
102
RTVSPropertyOp11
 70
     1
102
RTVSPropertyOp12
 70
     1
102
RTVSPropertyOp13
 70
     1
102
RTVSPropertyOp14
 70
     1
102
RTVSPropertyOp15
 70
     1
102
RTVSPropertyOp16
 70
     1
102
RTVSPropertyOp17
 70
     1
102
RTVSPropertyOp18
 70
     1
102
RTVSPropertyOp19
 70
     1
102
RTVSPropertyOp20
 70
     1
102
RTVSPropertyOp21
 70
     1
102
RTVSPropertyOp22
 70
     1
102
RTVSPropertyOp23
 70
     1
102
RTVSPropertyOp24
 70
     1
102
RTVSPropertyOp25
 70
     1
102
RTVSPropertyOp26
 70
     1
102
RTVSPropertyOp27
 70
     1
102
RTVSPropertyOp28
 70
     1
102
RTVSPropertyOp29
 70
     1
102
RTVSPropertyOp30
 70
     1
102
RTVSPropertyOp31
 70
     1
102
RTVSPropertyOp32
 70
     1
102
RTVSPropertyOp33
 70
     1
102
RTVSPropertyOp34
 70
     1
102
RTVSPropertyOp35
 70
     1
102
RTVSPropertyOp36
 70
     1
102
RTVSPropertyOp37
 70
     1
102
RTVSPropertyOp38
 70
     1
102
RTVSPropertyOp39
 70
     1
102
RTVSPropertyOp40
 70
     1
102
RTVSPropertyOp41
 70
     1
102
RTVSPropertyOp42
 70
     1
102
RTVSPropertyOp43
 70
     1
102
RTVSPropertyOp44
 70
     1
102
RTVSPropertyOp45
 70
     1
102
RTVSPropertyOp46
 70
     1
102
RTVSPropertyOp47
 70
     1
102
RTVSPropertyOp48
 70
     1
102
RTVSPropertyOp49
 70
     1
102
RTVSPropertyOp50
 70
     1
102
RTVSPropertyOp51
 70
     0
102
RTVSPropertyOp52
 70
     0
102
RTVSPropertyOp53
 70
     1
102
RTVSPropertyOp54
 70
     1
102
RTVSPropertyOp55
 70
     1
102
RTVSPropertyOp56
 70
     1
102
RTVSPropertyOp57
 70
     1
102
RTVSPropertyOp58
 70
     1
102
RTVSPropertyOp59
 70
     1
102
RTVSPropertyOp60
 70
     1
102
RTVSPropertyOp61
 70
     1
102
RTVSPropertyOp62
 70
     1
  0
ENDSEC
  0
EOF
