  0
SECTION
  2
HEADER
  9
$ACADVER
  1
AC1018
  9
$ACADMAINTVER
 70
     2
  9
$DWGCODEPAGE
  3
ANSI_1252
  9
$INSBASE
 10
0.0
 20
0.0
 30
0.0
  9
$EXTMIN
 10
0.0
 20
0.0
 30
0.0
  9
$EXTMAX
 10
840.0000000000002
 20
594.0
 30
0.0
  9
$LIMMIN
 10
0.0
 20
0.0
  9
$LIMMAX
 10
840.0000000000002
 20
594.0
  9
$ORTHOMODE
 70
     1
  9
$REGENMODE
 70
     1
  9
$FILLMODE
 70
     1
  9
$QTEXTMODE
 70
     0
  9
$MIRRTEXT
 70
     1
  9
$LTSCALE
 40
20.0
  9
$ATTMODE
 70
     1
  9
$TEXTSIZE
 40
2.5
  9
$TRACEWID
 40
0.5
  9
$TEXTSTYLE
  7
GREEKS
  9
$CLAYER
  8
SCHRAFF
  9
$CELTYPE
  6
BYLAYER
  9
$CECOLOR
 62
   256
  9
$CELTSCALE
 40
1.0
  9
$DISPSILH
 70
     0
  9
$DIMSCALE
 40
2.0
  9
$DIMASZ
 40
3.5
  9
$DIMEXO
 40
1.0
  9
$DIMDLI
 40
7.0
  9
$DIMRND
 40
0.0
  9
$DIMDLE
 40
0.0
  9
$DIMEXE
 40
1.0
  9
$DIMTP
 40
0.0
  9
$DIMTM
 40
0.0
  9
$DIMTXT
 40
3.5
  9
$DIMCEN
 40
1.5
  9
$DIMTSZ
 40
0.0
  9
$DIMTOL
 70
     0
  9
$DIMLIM
 70
     0
  9
$DIMTIH
 70
     0
  9
$DIMTOH
 70
     0
  9
$DIMSE1
 70
     0
  9
$DIMSE2
 70
     0
  9
$DIMTAD
 70
     1
  9
$DIMZIN
 70
     8
  9
$DIMBLK
  1

  9
$DIMASO
 70
     1
  9
$DIMSHO
 70
     0
  9
$DIMPOST
  1

  9
$DIMAPOST
  1

  9
$DIMALT
 70
     0
  9
$DIMALTD
 70
     2
  9
$DIMALTF
 40
25.4
  9
$DIMLFAC
 40
1.0
  9
$DIMTOFL
 70
     1
  9
$DIMTVP
 40
0.0
  9
$DIMTIX
 70
     0
  9
$DIMSOXD
 70
     0
  9
$DIMSAH
 70
     0
  9
$DIMBLK1
  1

  9
$DIMBLK2
  1

  9
$DIMSTYLE
  2
STANDARD
  9
$DIMCLRD
 70
     0
  9
$DIMCLRE
 70
     0
  9
$DIMCLRT
 70
     1
  9
$DIMTFAC
 40
1.0
  9
$DIMGAP
 40
1.5
  9
$DIMJUST
 70
     0
  9
$DIMSD1
 70
     0
  9
$DIMSD2
 70
     0
  9
$DIMTOLJ
 70
     1
  9
$DIMTZIN
 70
     8
  9
$DIMALTZ
 70
     8
  9
$DIMALTTZ
 70
     8
  9
$DIMUPT
 70
     0
  9
$DIMDEC
 70
     2
  9
$DIMTDEC
 70
     2
  9
$DIMALTU
 70
     2
  9
$DIMALTTD
 70
     2
  9
$DIMTXSTY
  7
GREEKS
  9
$DIMAUNIT
 70
     0
  9
$DIMADEC
 70
     0
  9
$DIMALTRND
 40
0.0
  9
$DIMAZIN
 70
     0
  9
$DIMDSEP
 70
    46
  9
$DIMATFIT
 70
     3
  9
$DIMFRAC
 70
     0
  9
$DIMLDRBLK
  1

  9
$DIMLUNIT
 70
     2
  9
$DIMLWD
 70
    -2
  9
$DIMLWE
 70
    -2
  9
$DIMTMOVE
 70
     0
  9
$LUNITS
 70
     2
  9
$LUPREC
 70
     2
  9
$SKETCHINC
 40
1.0
  9
$FILLETRAD
 40
0.0
  9
$AUNITS
 70
     0
  9
$AUPREC
 70
     0
  9
$MENU
  1
ACAD
  9
$ELEVATION
 40
0.0
  9
$PELEVATION
 40
0.0
  9
$THICKNESS
 40
0.0
  9
$LIMCHECK
 70
     0
  9
$CHAMFERA
 40
0.0
  9
$CHAMFERB
 40
0.0
  9
$CHAMFERC
 40
0.0
  9
$CHAMFERD
 40
0.0
  9
$SKPOLY
 70
     0
  9
$TDCREATE
 40
2451451.530958681
  9
$TDUCREATE
 40
2451451.447625347
  9
$TDUPDATE
 40
2456111.320415694
  9
$TDUUPDATE
 40
2456111.237082361
  9
$TDINDWG
 40
0.1491708796
  9
$TDUSRTIMER
 40
0.1491708796
  9
$USRTIMER
 70
     1
  9
$ANGBASE
 50
0.0
  9
$ANGDIR
 70
     0
  9
$PDMODE
 70
     0
  9
$PDSIZE
 40
0.0
  9
$PLINEWID
 40
0.0
  9
$SPLFRAME
 70
     0
  9
$SPLINETYPE
 70
     6
  9
$SPLINESEGS
 70
     8
  9
$HANDSEED
  5
1C22
  9
$SURFTAB1
 70
     6
  9
$SURFTAB2
 70
     6
  9
$SURFTYPE
 70
     6
  9
$SURFU
 70
     6
  9
$SURFV
 70
     6
  9
$UCSBASE
  2

  9
$UCSNAME
  2

  9
$UCSORG
 10
0.0
 20
0.0
 30
0.0
  9
$UCSXDIR
 10
1.0
 20
0.0
 30
0.0
  9
$UCSYDIR
 10
0.0
 20
1.0
 30
0.0
  9
$UCSORTHOREF
  2

  9
$UCSORTHOVIEW
 70
     0
  9
$UCSORGTOP
 10
0.0
 20
0.0
 30
0.0
  9
$UCSORGBOTTOM
 10
0.0
 20
0.0
 30
0.0
  9
$UCSORGLEFT
 10
0.0
 20
0.0
 30
0.0
  9
$UCSORGRIGHT
 10
0.0
 20
0.0
 30
0.0
  9
$UCSORGFRONT
 10
0.0
 20
0.0
 30
0.0
  9
$UCSORGBACK
 10
0.0
 20
0.0
 30
0.0
  9
$PUCSBASE
  2

  9
$PUCSNAME
  2

  9
$PUCSORG
 10
0.0
 20
0.0
 30
0.0
  9
$PUCSXDIR
 10
1.0
 20
0.0
 30
0.0
  9
$PUCSYDIR
 10
0.0
 20
1.0
 30
0.0
  9
$PUCSORTHOREF
  2

  9
$PUCSORTHOVIEW
 70
     0
  9
$PUCSORGTOP
 10
0.0
 20
0.0
 30
0.0
  9
$PUCSORGBOTTOM
 10
0.0
 20
0.0
 30
0.0
  9
$PUCSORGLEFT
 10
0.0
 20
0.0
 30
0.0
  9
$PUCSORGRIGHT
 10
0.0
 20
0.0
 30
0.0
  9
$PUCSORGFRONT
 10
0.0
 20
0.0
 30
0.0
  9
$PUCSORGBACK
 10
0.0
 20
0.0
 30
0.0
  9
$USERI1
 70
     0
  9
$USERI2
 70
     0
  9
$USERI3
 70
     0
  9
$USERI4
 70
     0
  9
$USERI5
 70
     0
  9
$USERR1
 40
0.0
  9
$USERR2
 40
0.0
  9
$USERR3
 40
0.0
  9
$USERR4
 40
0.0
  9
$USERR5
 40
0.0
  9
$WORLDVIEW
 70
     1
  9
$SHADEDGE
 70
     3
  9
$SHADEDIF
 70
    70
  9
$TILEMODE
 70
     1
  9
$MAXACTVP
 70
    16
  9
$PINSBASE
 10
0.0
 20
0.0
 30
0.0
  9
$PLIMCHECK
 70
     0
  9
$PEXTMIN
 10
1.000000000000000E+20
 20
1.000000000000000E+20
 30
1.000000000000000E+20
  9
$PEXTMAX
 10
-1.000000000000000E+20
 20
-1.000000000000000E+20
 30
-1.000000000000000E+20
  9
$PLIMMIN
 10
0.0
 20
0.0
  9
$PLIMMAX
 10
12.0
 20
9.0
  9
$UNITMODE
 70
     0
  9
$VISRETAIN
 70
     0
  9
$PLINEGEN
 70
     0
  9
$PSLTSCALE
 70
     0
  9
$TREEDEPTH
 70
  3020
  9
$CMLSTYLE
  2
STANDARD
  9
$CMLJUST
 70
     0
  9
$CMLSCALE
 40
1.0
  9
$PROXYGRAPHICS
 70
     1
  9
$MEASUREMENT
 70
     0
  9
$CELWEIGHT
370
    -1
  9
$ENDCAPS
280
     0
  9
$JOINSTYLE
280
     0
  9
$LWDISPLAY
290
     0
  9
$INSUNITS
 70
     0
  9
$HYPERLINKBASE
  1

  9
$STYLESHEET
  1

  9
$XEDIT
290
     1
  9
$CEPSNTYPE
380
     0
  9
$PSTYLEMODE
290
     1
  9
$FINGERPRINTGUID
  2
{C01D5B34-2C50-4F03-A0A5-553EEC128F47}
  9
$VERSIONGUID
  2
{8E128A40-FCAD-4562-9EAD-5D7A95047985}
  9
$EXTNAMES
290
     1
  9
$PSVPSCALE
 40
0.0
  9
$OLESTARTUP
290
     0
  9
$SORTENTS
280
    96
  9
$INDEXCTL
280
     0
  9
$HIDETEXT
280
     0
  9
$XCLIPFRAME
290
     0
  9
$HALOGAP
280
     0
  9
$OBSCOLOR
 70
   257
  9
$OBSLTYPE
280
     0
  9
$INTERSECTIONDISPLAY
280
     0
  9
$INTERSECTIONCOLOR
 70
   257
  9
$DIMASSOC
280
     1
  9
$PROJECTNAME
  1

  0
ENDSEC
  0
SECTION
  2
CLASSES
  0
CLASS
  1
DICTIONARYVAR
  2
AcDbDictionaryVar
  3
ObjectDBX Classes
 90
        0
 91
        4
280
     0
281
     0
  0
CLASS
  1
ACDBDICTIONARYWDFLT
  2
AcDbDictionaryWithDefault
  3
ObjectDBX Classes
 90
        0
 91
        1
280
     0
281
     0
  0
ENDSEC
  0
SECTION
  2
TABLES
  0
TABLE
  2
VPORT
  5
8
330
0
100
AcDbSymbolTable
 70
     2
  0
VPORT
  5
1C21
330
8
100
AcDbSymbolTableRecord
100
AcDbViewportTableRecord
  2
*Active
 70
     0
 10
0.0
 20
0.0
 11
1.0
 21
1.0
 12
420.0000000000001
 22
297.0
 13
0.0
 23
0.0
 14
1.0
 24
1.0
 15
20.0
 25
20.0
 16
0.0
 26
0.0
 36
1.0
 17
0.0
 27
0.0
 37
0.0
 40
611.7595064793407
 41
1.374331550802138
 42
50.0
 43
0.0
 44
0.0
 50
0.0
 51
0.0
 71
     0
 72
  1500
 73
     1
 74
     0
 75
     0
 76
     0
 77
     0
 78
     0
281
     0
 65
     1
110
0.0
120
0.0
130
0.0
111
1.0
121
0.0
131
0.0
112
0.0
122
1.0
132
0.0
 79
     0
146
0.0
  0
ENDTAB
  0
TABLE
  2
LTYPE
  5
5
330
0
100
AcDbSymbolTable
 70
     3
  0
LTYPE
  5
11
330
5
100
AcDbSymbolTableRecord
100
AcDbLinetypeTableRecord
  2
BYBLOCK
 70
     0
  3

 72
    65
 73
     0
 40
0.0
  0
LTYPE
  5
12
330
5
100
AcDbSymbolTableRecord
100
AcDbLinetypeTableRecord
  2
BYLAYER
 70
     0
  3

 72
    65
 73
     0
 40
0.0
  0
LTYPE
  5
13
330
5
100
AcDbSymbolTableRecord
100
AcDbLinetypeTableRecord
  2
AUSGEZOGEN
 70
     0
  3
Ausgezogene Linie
 72
    65
 73
     0
 40
0.0
  0
LTYPE
  5
39
330
5
100
AcDbSymbolTableRecord
100
AcDbLinetypeTableRecord
  2
STRICHPUNKT
 70
     0
  3
__ . __ . __ . __ . __ . __ . __ . __ . __ . __
 72
    65
 73
     4
 40
1.0
 49
0.5
 74
     0
 49
-0.25
 74
     0
 49
0.0
 74
     0
 49
-0.25
 74
     0
  0
LTYPE
  5
44
330
5
100
AcDbSymbolTableRecord
100
AcDbLinetypeTableRecord
  2
CONTINUOUS
 70
     0
  3
Solid line
 72
    65
 73
     0
 40
0.0
  0
ENDTAB
  0
TABLE
  2
LAYER
  5
2
330
0
100
AcDbSymbolTable
 70
     9
  0
LAYER
  5
E
330
2
100
AcDbSymbolTableRecord
100
AcDbLayerTableRecord
  2
0
 70
     0
 62
     7
  6
AUSGEZOGEN
370
    -3
390
1496
  0
LAYER
  5
3C
330
2
100
AcDbSymbolTableRecord
100
AcDbLayerTableRecord
  2
VOLL
 70
     0
 62
     1
  6
AUSGEZOGEN
370
    -3
390
1496
  0
LAYER
  5
3D
330
2
100
AcDbSymbolTableRecord
100
AcDbLayerTableRecord
  2
HILF
 70
     0
 62
     2
  6
AUSGEZOGEN
370
    -3
390
1496
  0
LAYER
  5
3E
330
2
100
AcDbSymbolTableRecord
100
AcDbLayerTableRecord
  2
MITTEL
 70
     0
 62
     2
  6
STRICHPUNKT
370
    -3
390
1496
  0
LAYER
  5
3F
330
2
100
AcDbSymbolTableRecord
100
AcDbLayerTableRecord
  2
BEM
 70
     0
 62
     7
  6
AUSGEZOGEN
370
    -3
390
1496
  0
LAYER
  5
40
330
2
100
AcDbSymbolTableRecord
100
AcDbLayerTableRecord
  2
STEMPEL
 70
     0
 62
     3
  6
AUSGEZOGEN
370
    -3
390
1496
  0
LAYER
  5
41
330
2
100
AcDbSymbolTableRecord
100
AcDbLayerTableRecord
  2
TEXT
 70
     0
 62
     7
  6
AUSGEZOGEN
370
    -3
390
1496
  0
LAYER
  5
42
330
2
100
AcDbSymbolTableRecord
100
AcDbLayerTableRecord
  2
DEFPOINTS
 70
     0
 62
     7
  6
AUSGEZOGEN
290
     0
370
    -3
390
1496
  0
LAYER
  5
43
330
2
100
AcDbSymbolTableRecord
100
AcDbLayerTableRecord
  2
SCHRAFF
 70
     0
 62
     7
  6
AUSGEZOGEN
370
    -3
390
1496
  0
ENDTAB
  0
TABLE
  2
STYLE
  5
3
330
0
100
AcDbSymbolTable
 70
     2
  0
STYLE
  5
F
330
3
100
AcDbSymbolTableRecord
100
AcDbTextStyleTableRecord
  2
STANDARD
 70
     0
 40
0.0
 41
0.8
 50
0.0
 71
     0
 42
3.5
  3
simplex.shx
  4

  0
STYLE
  5
38
330
3
100
AcDbSymbolTableRecord
100
AcDbTextStyleTableRecord
  2
GREEKS
 70
     0
 40
0.0
 41
0.8
 50
0.0
 71
     0
 42
2.5
  3
SIMPLEX.shx
  4

  0
ENDTAB
  0
TABLE
  2
VIEW
  5
6
330
0
100
AcDbSymbolTable
 70
     0
  0
ENDTAB
  0
TABLE
  2
UCS
  5
7
330
0
100
AcDbSymbolTable
 70
     0
  0
ENDTAB
  0
TABLE
  2
APPID
  5
9
330
0
100
AcDbSymbolTable
 70
     2
  0
APPID
  5
10
330
9
100
AcDbSymbolTableRecord
100
AcDbRegAppTableRecord
  2
ACAD
 70
     0
  0
APPID
  5
89C
330
9
100
AcDbSymbolTableRecord
100
AcDbRegAppTableRecord
  2
RAK
 70
     0
  0
ENDTAB
  0
TABLE
  2
DIMSTYLE
  5
A
330
0
100
AcDbSymbolTable
 70
     1
100
AcDbDimStyleTable
 71
     1
340
87F
  0
DIMSTYLE
105
87F
102
{ACAD_REACTORS
330
9E2
330
681
330
741
330
C8D
330
1A3B
330
1A3D
330
1A3E
330
1AE2
330
1B39
330
1B4F
102
}
330
A
100
AcDbSymbolTableRecord
100
AcDbDimStyleTableRecord
  2
STANDARD
 70
     0
 40
2.0
 41
3.5
 42
1.0
 43
7.0
 44
1.0
 73
     0
 74
     0
 77
     1
 78
     8
140
3.5
141
1.5
147
1.5
172
     1
178
     1
271
     2
272
     2
284
     8
285
     8
286
     8
340
38
  0
ENDTAB
  0
TABLE
  2
BLOCK_RECORD
  5
1
330
0
100
AcDbSymbolTable
 70
    11
  0
BLOCK_RECORD
  5
17
330
1
100
AcDbSymbolTableRecord
100
AcDbBlockTableRecord
  2
*MODEL_SPACE
340
149B
  0
BLOCK_RECORD
  5
14
330
1
100
AcDbSymbolTableRecord
100
AcDbBlockTableRecord
  2
*PAPER_SPACE
340
149C
  0
BLOCK_RECORD
  5
1C
330
1
100
AcDbSymbolTableRecord
100
AcDbBlockTableRecord
  2
LOGO
340
0
102
{BLKREFS
331
929
102
}
  0
BLOCK_RECORD
  5
95D
330
1
100
AcDbSymbolTableRecord
100
AcDbBlockTableRecord
  2
*D1
340
0
  0
BLOCK_RECORD
  5
9A3
330
1
100
AcDbSymbolTableRecord
100
AcDbBlockTableRecord
  2
*D2
340
0
  0
BLOCK_RECORD
  5
9D6
330
1
100
AcDbSymbolTableRecord
100
AcDbBlockTableRecord
  2
*D3
340
0
  0
BLOCK_RECORD
  5
D07
330
1
100
AcDbSymbolTableRecord
100
AcDbBlockTableRecord
  2
*D4
340
0
  0
BLOCK_RECORD
  5
1A51
330
1
100
AcDbSymbolTableRecord
100
AcDbBlockTableRecord
  2
*D5
340
0
  0
BLOCK_RECORD
  5
1A5F
330
1
100
AcDbSymbolTableRecord
100
AcDbBlockTableRecord
  2
*D6
340
0
  0
BLOCK_RECORD
  5
1A6B
330
1
100
AcDbSymbolTableRecord
100
AcDbBlockTableRecord
  2
*D7
340
0
  0
BLOCK_RECORD
  5
1AE3
330
1
100
AcDbSymbolTableRecord
100
AcDbBlockTableRecord
  2
*D8
340
0
  0
BLOCK_RECORD
  5
1B58
330
1
100
AcDbSymbolTableRecord
100
AcDbBlockTableRecord
  2
*D9
340
0
  0
BLOCK_RECORD
  5
1B64
330
1
100
AcDbSymbolTableRecord
100
AcDbBlockTableRecord
  2
*D10
340
0
  0
ENDTAB
  0
ENDSEC
  0
SECTION
  2
BLOCKS
  0
BLOCK
  5
47
330
17
100
AcDbEntity
  8
0
100
AcDbBlockBegin
  2
*MODEL_SPACE
 70
     0
 10
0.0
 20
0.0
 30
0.0
  3
*MODEL_SPACE
  1

  0
ENDBLK
  5
48
330
17
100
AcDbEntity
  8
0
100
AcDbBlockEnd
  0
BLOCK
  5
45
330
14
100
AcDbEntity
 67
     1
  8
0
100
AcDbBlockBegin
  2
*PAPER_SPACE
 70
     0
 10
0.0
 20
0.0
 30
0.0
  3
*PAPER_SPACE
  1

  0
ENDBLK
  5
46
330
14
100
AcDbEntity
 67
     1
  8
0
100
AcDbBlockEnd
  0
BLOCK
  5
4B
330
1C
100
AcDbEntity
  8
0
100
AcDbBlockBegin
  2
LOGO
 70
     0
 10
0.0
 20
0.0
 30
0.0
  3
LOGO
  1

  0
ARC
  5
4C
330
1C
100
AcDbEntity
  8
0
100
AcDbCircle
 10
11.59973089678112
 20
-9.271599258481501
 30
0.0
 40
4.5
100
AcDbArc
 50
270.0
 51
231.0575587310159
  0
LINE
  5
4D
330
1C
100
AcDbEntity
  8
0
100
AcDbLine
 10
3.599730896781125
 20
-4.771599258481529
 30
0.0
 11
3.599730896781153
 21
-11.77159925848133
 31
0.0
  0
LINE
  5
4E
330
1C
100
AcDbEntity
  8
0
100
AcDbLine
 10
2.599730896781125
 20
-4.771599258481529
 30
0.0
 11
2.599730896781153
 21
-11.77159925848133
 31
0.0
  0
CIRCLE
  5
4F
330
1C
100
AcDbEntity
  8
0
100
AcDbCircle
 10
11.59973089678112
 20
-9.271599258481501
 30
0.0
 40
3.5
  0
ARC
  5
50
330
1C
100
AcDbEntity
  8
0
100
AcDbCircle
 10
31.59973089678115
 20
-9.271599258481472
 30
0.0
 40
4.5
100
AcDbArc
 50
270.0
 51
231.0575587310182
  0
LINE
  5
51
330
1C
100
AcDbEntity
  8
0
100
AcDbLine
 10
17.59973089678112
 20
-4.771599258481472
 30
0.0
 11
17.59973089678115
 21
-13.77159925848147
 31
0.0
  0
ARC
  5
52
330
1C
100
AcDbEntity
  8
0
100
AcDbCircle
 10
22.59973089678116
 20
-7.271599258481472
 30
0.0
 40
2.5
100
AcDbArc
 50
293.1161887722295
 51
90.0
  0
CIRCLE
  5
53
330
1C
100
AcDbEntity
  8
0
100
AcDbCircle
 10
31.59973089678115
 20
-9.271599258481472
 30
0.0
 40
3.5
  0
ARC
  5
54
330
1C
100
AcDbEntity
  8
0
100
AcDbCircle
 10
4.599730896781153
 20
-11.77159925848133
 30
0.0
 40
1.0
100
AcDbArc
 50
180.0
 51
270.0
  0
ARC
  5
55
330
1C
100
AcDbEntity
  8
0
100
AcDbCircle
 10
4.599730896781153
 20
-11.77159925848133
 30
0.0
 40
2.0
100
AcDbArc
 50
179.9999999999992
 51
270.0
  0
LINE
  5
56
330
1C
100
AcDbEntity
  8
0
100
AcDbLine
 10
11.59973089678115
 20
-13.77159925848144
 30
0.0
 11
4.599730896781153
 21
-13.77159925848147
 31
0.0
  0
LINE
  5
57
330
1C
100
AcDbEntity
  8
0
100
AcDbLine
 10
8.771303772034769
 20
-12.77159925848136
 30
0.0
 11
4.599730896781153
 21
-12.77159925848133
 31
0.0
  0
LINE
  5
58
330
1C
100
AcDbEntity
  8
0
100
AcDbLine
 10
31.59973089678115
 20
-13.77159925848147
 30
0.0
 11
23.6715276665056
 21
-13.77159925848144
 31
0.0
  0
LINE
  5
59
330
1C
100
AcDbEntity
  8
0
100
AcDbLine
 10
23.56565672307022
 20
-9.51278021337896
 30
0.0
 11
24.4388546544846
 21
-12.77159925848144
 31
0.0
  0
LINE
  5
5A
330
1C
100
AcDbEntity
  8
0
100
AcDbLine
 10
22.59973089678116
 20
-9.771599258481472
 30
0.0
 11
18.59973089678112
 21
-9.771599258481472
 31
0.0
  0
LINE
  5
5B
330
1C
100
AcDbEntity
  8
0
100
AcDbLine
 10
18.59973089678115
 20
-13.77159925848144
 30
0.0
 11
17.59973089678115
 21
-13.77159925848144
 31
0.0
  0
LINE
  5
5C
330
1C
100
AcDbEntity
  8
0
100
AcDbLine
 10
18.59973089678115
 20
-9.771599258481472
 30
0.0
 11
18.59973089678115
 21
-13.77159925848144
 31
0.0
  0
LINE
  5
5D
330
1C
100
AcDbEntity
  8
0
100
AcDbLine
 10
22.59973089678116
 20
-9.771599258481472
 30
0.0
 11
23.67152766650562
 21
-13.77159925848147
 31
0.0
  0
ARC
  5
5E
330
1C
100
AcDbEntity
  8
0
100
AcDbCircle
 10
22.59973089678116
 20
-7.271599258481472
 30
0.0
 40
2.5
100
AcDbArc
 50
270.0
 51
270.0000000000007
  0
LINE
  5
5F
330
1C
100
AcDbEntity
  8
0
100
AcDbLine
 10
28.77130377203494
 20
-12.77159925848147
 30
0.0
 11
24.43885465448463
 21
-12.77159925848144
 31
0.0
  0
LINE
  5
60
330
1C
100
AcDbEntity
  8
0
100
AcDbLine
 10
3.599730896781125
 20
-4.771599258481472
 30
0.0
 11
2.599730896781125
 21
-4.771599258481472
 31
0.0
  0
LINE
  5
61
330
1C
100
AcDbEntity
  8
0
100
AcDbLine
 10
22.59973089678116
 20
-8.771599258481472
 30
0.0
 11
18.59973089678115
 21
-8.771599258481472
 31
0.0
  0
LINE
  5
62
330
1C
100
AcDbEntity
  8
0
100
AcDbLine
 10
22.59973089678116
 20
-5.771599258481472
 30
0.0
 11
18.59973089678115
 21
-5.771599258481472
 31
0.0
  0
LINE
  5
63
330
1C
100
AcDbEntity
  8
0
100
AcDbLine
 10
22.59973089678116
 20
-4.771599258481472
 30
0.0
 11
17.59973089678115
 21
-4.771599258481472
 31
0.0
  0
LINE
  5
64
330
1C
100
AcDbEntity
  8
0
100
AcDbLine
 10
18.59973089678115
 20
-5.771599258481472
 30
0.0
 11
18.59973089678115
 21
-8.771599258481472
 31
0.0
  0
ARC
  5
65
330
1C
100
AcDbEntity
  8
0
100
AcDbCircle
 10
22.59973089678116
 20
-7.271599258481472
 30
0.0
 40
1.5
100
AcDbArc
 50
270.0
 51
90.0
  0
ENDBLK
  5
66
330
1C
100
AcDbEntity
  8
0
100
AcDbBlockEnd
  0
BLOCK
  5
95E
330
95D
100
AcDbEntity
  8
0
100
AcDbBlockBegin
  2
*D1
 70
     1
 10
0.0
 20
0.0
 30
0.0
  3
*D1
  1

  0
LINE
  5
1725
330
95D
100
AcDbEntity
  8
BEM
 62
     0
370
    -2
100
AcDbLine
 10
288.7892148653473
 20
33.35719710520971
 30
0.0
 11
141.0394429038257
 21
33.35719710520975
 31
0.0
  0
LINE
  5
1726
330
95D
100
AcDbEntity
  8
BEM
 62
     0
370
    -2
100
AcDbLine
 10
190.2968545404342
 20
313.3571971052097
 30
0.0
 11
141.0394429038258
 21
313.3571971052097
 31
0.0
  0
LINE
  5
1727
330
95D
100
AcDbEntity
  8
BEM
 62
     0
370
    -2
100
AcDbLine
 10
143.0394429038257
 20
40.35719710520974
 30
0.0
 11
143.0394429038258
 21
306.3571971052097
 31
0.0
  0
SOLID
  5
1728
330
95D
100
AcDbEntity
  8
BEM
 62
     0
100
AcDbTrace
 10
141.8727762371591
 20
40.35719710520974
 30
0.0
 11
144.2061095704924
 21
40.35719710520974
 31
0.0
 12
143.0394429038257
 22
33.35719710520975
 32
0.0
 13
143.0394429038257
 23
33.35719710520975
 33
0.0
  0
SOLID
  5
1729
330
95D
100
AcDbEntity
  8
BEM
 62
     0
100
AcDbTrace
 10
141.8727762371591
 20
306.3571971052097
 30
0.0
 11
144.2061095704925
 21
306.3571971052097
 31
0.0
 12
143.0394429038258
 22
313.3571971052097
 32
0.0
 13
143.0394429038258
 23
313.3571971052097
 33
0.0
  0
MTEXT
  5
172A
330
95D
100
AcDbEntity
  8
BEM
 62
     1
100
AcDbMText
 10
136.5394429038258
 20
173.3571971052097
 30
0.0
 40
7.0
 41
0.0
 71
     5
 72
     1
  1
\A1;280
  7
GREEKS
 11
0.0000000000000001
 21
1.0
 31
0.0
 73
     1
 44
1.0
  0
POINT
  5
172B
330
95D
100
AcDbEntity
  8
DEFPOINTS
 62
     0
100
AcDbPoint
 10
290.7892148653473
 20
33.35719710520971
 30
0.0
  0
POINT
  5
172C
330
95D
100
AcDbEntity
  8
DEFPOINTS
 62
     0
100
AcDbPoint
 10
192.2968545404342
 20
313.3571971052097
 30
0.0
  0
POINT
  5
172D
330
95D
100
AcDbEntity
  8
DEFPOINTS
 62
     0
100
AcDbPoint
 10
143.0394429038258
 20
313.3571971052097
 30
0.0
  0
ENDBLK
  5
968
330
95D
100
AcDbEntity
  8
0
100
AcDbBlockEnd
  0
BLOCK
  5
A02
330
9A3
100
AcDbEntity
  8
0
100
AcDbBlockBegin
  2
*D2
 70
     1
 10
0.0
 20
0.0
 30
0.0
  3
*D2
  1

  0
LINE
  5
172E
330
9A3
100
AcDbEntity
  8
BEM
 62
     0
370
    -2
100
AcDbLine
 10
155.0897440390238
 20
439.1884698998665
 30
0.0
 11
141.0306382463241
 21
439.1884698998665
 31
0.0
  0
LINE
  5
172F
330
9A3
100
AcDbEntity
  8
BEM
 62
     0
370
    -2
100
AcDbLine
 10
159.6434169231445
 20
316.3571971052097
 30
0.0
 11
141.0306382463241
 21
316.3571971052097
 31
0.0
  0
LINE
  5
1730
330
9A3
100
AcDbEntity
  8
BEM
 62
     0
370
    -2
100
AcDbLine
 10
143.0306382463241
 20
432.1884698998665
 30
0.0
 11
143.0306382463241
 21
323.3571971052097
 31
0.0
  0
SOLID
  5
1731
330
9A3
100
AcDbEntity
  8
BEM
 62
     0
100
AcDbTrace
 10
141.8639715796574
 20
432.1884698998665
 30
0.0
 11
144.1973049129908
 21
432.1884698998665
 31
0.0
 12
143.0306382463241
 22
439.1884698998665
 32
0.0
 13
143.0306382463241
 23
439.1884698998665
 33
0.0
  0
SOLID
  5
1732
330
9A3
100
AcDbEntity
  8
BEM
 62
     0
100
AcDbTrace
 10
141.8639715796574
 20
323.3571971052097
 30
0.0
 11
144.1973049129908
 21
323.3571971052097
 31
0.0
 12
143.0306382463241
 22
316.3571971052097
 32
0.0
 13
143.0306382463241
 23
316.3571971052097
 33
0.0
  0
MTEXT
  5
1733
330
9A3
100
AcDbEntity
  8
BEM
 62
     1
100
AcDbMText
 10
136.530638246324
 20
377.7728335025382
 30
0.0
 40
7.0
 41
0.0
 71
     5
 72
     1
  1
\A1;max.180
  7
GREEKS
 11
0.0000000000000001
 21
1.0
 31
0.0
 73
     1
 44
1.0
  0
POINT
  5
1734
330
9A3
100
AcDbEntity
  8
DEFPOINTS
 62
     0
100
AcDbPoint
 10
157.0897440390238
 20
439.1884698998665
 30
0.0
  0
POINT
  5
1735
330
9A3
100
AcDbEntity
  8
DEFPOINTS
 62
     0
100
AcDbPoint
 10
161.6434169231445
 20
316.3571971052097
 30
0.0
  0
POINT
  5
1736
330
9A3
100
AcDbEntity
  8
DEFPOINTS
 62
     0
100
AcDbPoint
 10
143.0306382463241
 20
316.3571971052097
 30
0.0
  0
ENDBLK
  5
A0C
330
9A3
100
AcDbEntity
  8
0
100
AcDbBlockEnd
  0
BLOCK
  5
AB6
330
9D6
100
AcDbEntity
  8
0
100
AcDbBlockBegin
  2
*D3
 70
     1
 10
0.0
 20
0.0
 30
0.0
  3
*D3
  1

  0
LINE
  5
1AEF
330
9D6
100
AcDbEntity
  8
BEM
 62
     0
370
    -2
100
AcDbLine
 10
607.2968545404342
 20
444.1884698998665
 30
0.0
 11
607.2968545404342
 21
572.4079190071799
 31
0.0
  0
LINE
  5
1AF0
330
9D6
100
AcDbEntity
  8
BEM
 62
     0
370
    -2
100
AcDbLine
 10
107.2968545404342
 20
444.1884698998665
 30
0.0
 11
107.2968545404342
 21
572.4079190071799
 31
0.0
  0
LINE
  5
1AF1
330
9D6
100
AcDbEntity
  8
BEM
 62
     0
370
    -2
100
AcDbLine
 10
600.2968545404342
 20
570.40791900718
 30
0.0
 11
114.2968545404342
 21
570.40791900718
 31
0.0
  0
SOLID
  5
1AF2
330
9D6
100
AcDbEntity
  8
BEM
 62
     0
100
AcDbTrace
 10
600.2968545404342
 20
571.5745856738466
 30
0.0
 11
600.2968545404342
 21
569.2412523405133
 31
0.0
 12
607.2968545404342
 22
570.40791900718
 32
0.0
 13
607.2968545404342
 23
570.40791900718
 33
0.0
  0
SOLID
  5
1AF3
330
9D6
100
AcDbEntity
  8
BEM
 62
     0
100
AcDbTrace
 10
114.2968545404342
 20
571.5745856738466
 30
0.0
 11
114.2968545404342
 21
569.2412523405133
 31
0.0
 12
107.2968545404342
 22
570.40791900718
 32
0.0
 13
107.2968545404342
 23
570.40791900718
 33
0.0
  0
MTEXT
  5
1AF4
330
9D6
100
AcDbEntity
  8
BEM
 62
     1
100
AcDbMText
 10
357.2968545404342
 20
576.9079190071799
 30
0.0
 40
7.0
 41
0.0
 71
     5
 72
     1
  1
\A1; 500
  7
GREEKS
 73
     1
 44
1.0
  0
POINT
  5
1AF5
330
9D6
100
AcDbEntity
  8
DEFPOINTS
 62
     0
100
AcDbPoint
 10
607.2968545404342
 20
442.1884698998665
 30
0.0
  0
POINT
  5
1AF6
330
9D6
100
AcDbEntity
  8
DEFPOINTS
 62
     0
100
AcDbPoint
 10
107.2968545404342
 20
442.1884698998665
 30
0.0
  0
POINT
  5
1AF7
330
9D6
100
AcDbEntity
  8
DEFPOINTS
 62
     0
100
AcDbPoint
 10
107.2968545404342
 20
570.40791900718
 30
0.0
  0
ENDBLK
  5
AC0
330
9D6
100
AcDbEntity
  8
0
100
AcDbBlockEnd
  0
BLOCK
  5
DB8
330
D07
100
AcDbEntity
  8
0
100
AcDbBlockBegin
  2
*D4
 70
     1
 10
0.0
 20
0.0
 30
0.0
  3
*D4
  1

  0
LINE
  5
1737
330
D07
100
AcDbEntity
  8
BEM
 62
     0
370
    -2
100
AcDbLine
 10
290.7968545404342
 20
46.26987521939281
 30
0.0
 11
290.7968545404342
 21
16.10812614308986
 31
0.0
  0
LINE
  5
1738
330
D07
100
AcDbEntity
  8
BEM
 62
     0
370
    -2
100
AcDbLine
 10
423.7968545404337
 20
46.26987521937985
 30
0.0
 11
423.7968545404337
 21
16.10812614308986
 31
0.0
  0
LINE
  5
1739
330
D07
100
AcDbEntity
  8
BEM
 62
     0
370
    -2
100
AcDbLine
 10
297.7968545404342
 20
18.10812614308986
 30
0.0
 11
416.7968545404337
 21
18.10812614308986
 31
0.0
  0
SOLID
  5
173A
330
D07
100
AcDbEntity
  8
BEM
 62
     0
100
AcDbTrace
 10
297.7968545404342
 20
19.27479280975653
 30
0.0
 11
297.7968545404342
 21
16.94145947642319
 31
0.0
 12
290.7968545404342
 22
18.10812614308986
 32
0.0
 13
290.7968545404342
 23
18.10812614308986
 33
0.0
  0
SOLID
  5
173B
330
D07
100
AcDbEntity
  8
BEM
 62
     0
100
AcDbTrace
 10
416.7968545404337
 20
19.27479280975653
 30
0.0
 11
416.7968545404337
 21
16.94145947642319
 31
0.0
 12
423.7968545404337
 22
18.10812614308986
 32
0.0
 13
423.7968545404337
 23
18.10812614308986
 33
0.0
  0
MTEXT
  5
173C
330
D07
100
AcDbEntity
  8
BEM
 62
     1
100
AcDbMText
 10
357.296854540434
 20
24.60812614308987
 30
0.0
 40
7.0
 41
0.0
 71
     5
 72
     1
  1
\A1;%%c133
  7
GREEKS
 73
     1
 44
1.0
  0
POINT
  5
173D
330
D07
100
AcDbEntity
  8
DEFPOINTS
 62
     0
100
AcDbPoint
 10
290.7968545404342
 20
48.26987521939281
 30
0.0
  0
POINT
  5
173E
330
D07
100
AcDbEntity
  8
DEFPOINTS
 62
     0
100
AcDbPoint
 10
423.7968545404337
 20
48.26987521937986
 30
0.0
  0
POINT
  5
173F
330
D07
100
AcDbEntity
  8
DEFPOINTS
 62
     0
100
AcDbPoint
 10
423.7968545404337
 20
18.10812614308986
 30
0.0
  0
ENDBLK
  5
DC2
330
D07
100
AcDbEntity
  8
0
100
AcDbBlockEnd
  0
BLOCK
  5
1A5D
330
1A51
100
AcDbEntity
  8
0
100
AcDbBlockBegin
  2
*D5
 70
     1
 10
0.0
 20
0.0
 30
0.0
  3
*D5
  1

  0
LINE
  5
1A8F
330
1A51
100
AcDbEntity
  8
BEM
 62
     0
370
    -2
100
AcDbLine
 10
225.2968545404341
 20
458.6884698998662
 30
0.0
 11
199.6355945453588
 21
458.6884698998662
 31
0.0
  0
LINE
  5
1A90
330
1A51
100
AcDbEntity
  8
BEM
 62
     0
370
    -2
100
AcDbLine
 10
220.2968545404342
 20
443.6884698998663
 30
0.0
 11
199.6355945453587
 21
443.6884698998663
 31
0.0
  0
LINE
  5
1A91
330
1A51
100
AcDbEntity
  8
BEM
 62
     0
370
    -2
100
AcDbLine
 10
201.6355945453588
 20
465.6884698998662
 30
0.0
 11
201.6355945453588
 21
472.6884698998662
 31
0.0
  0
LINE
  5
1A92
330
1A51
100
AcDbEntity
  8
BEM
 62
     0
370
    -2
100
AcDbLine
 10
201.6355945453588
 20
436.6884698998663
 30
0.0
 11
201.6355945453588
 21
429.6884698998663
 31
0.0
  0
LINE
  5
1A93
330
1A51
100
AcDbEntity
  8
BEM
 62
     0
370
    -2
100
AcDbLine
 10
201.6355945453588
 20
458.6884698998662
 30
0.0
 11
201.6355945453588
 21
443.6884698998663
 31
0.0
  0
SOLID
  5
1A94
330
1A51
100
AcDbEntity
  8
BEM
 62
     0
100
AcDbTrace
 10
200.4689278786921
 20
465.6884698998662
 30
0.0
 11
202.8022612120254
 21
465.6884698998662
 31
0.0
 12
201.6355945453588
 22
458.6884698998662
 32
0.0
 13
201.6355945453588
 23
458.6884698998662
 33
0.0
  0
SOLID
  5
1A95
330
1A51
100
AcDbEntity
  8
BEM
 62
     0
100
AcDbTrace
 10
200.4689278786921
 20
436.6884698998663
 30
0.0
 11
202.8022612120254
 21
436.6884698998663
 31
0.0
 12
201.6355945453588
 22
443.6884698998663
 32
0.0
 13
201.6355945453588
 23
443.6884698998663
 33
0.0
  0
MTEXT
  5
1A96
330
1A51
100
AcDbEntity
  8
BEM
 62
     1
100
AcDbMText
 10
195.1355945453587
 20
451.1884698998663
 30
0.0
 40
7.0
 41
0.0
 71
     5
 72
     1
  1
\A1;15
  7
GREEKS
 11
0.0000000000000001
 21
1.0
 31
0.0
 73
     1
 44
1.0
  0
POINT
  5
1A97
330
1A51
100
AcDbEntity
  8
DEFPOINTS
 62
     0
100
AcDbPoint
 10
227.2968545404341
 20
458.6884698998662
 30
0.0
  0
POINT
  5
1A98
330
1A51
100
AcDbEntity
  8
DEFPOINTS
 62
     0
100
AcDbPoint
 10
222.2968545404342
 20
443.6884698998663
 30
0.0
  0
POINT
  5
1A99
330
1A51
100
AcDbEntity
  8
DEFPOINTS
 62
     0
100
AcDbPoint
 10
201.6355945453588
 20
443.6884698998663
 30
0.0
  0
ENDBLK
  5
1A5E
330
1A51
100
AcDbEntity
  8
0
100
AcDbBlockEnd
  0
BLOCK
  5
1A69
330
1A5F
100
AcDbEntity
  8
0
100
AcDbBlockBegin
  2
*D6
 70
     1
 10
0.0
 20
0.0
 30
0.0
  3
*D6
  1

  0
LINE
  5
1AD0
330
1A5F
100
AcDbEntity
  8
BEM
 62
     0
370
    -2
100
AcDbLine
 10
247.2968545404344
 20
530.6884119325506
 30
0.0
 11
247.2968545404344
 21
558.2125312719656
 31
0.0
  0
LINE
  5
1AD1
330
1A5F
100
AcDbEntity
  8
BEM
 62
     0
370
    -2
100
AcDbLine
 10
467.2968545404345
 20
530.6884119325506
 30
0.0
 11
467.2968545404345
 21
558.2125312719656
 31
0.0
  0
LINE
  5
1AD2
330
1A5F
100
AcDbEntity
  8
BEM
 62
     0
370
    -2
100
AcDbLine
 10
254.2968545404344
 20
556.2125312719656
 30
0.0
 11
460.2968545404345
 21
556.2125312719656
 31
0.0
  0
SOLID
  5
1AD3
330
1A5F
100
AcDbEntity
  8
BEM
 62
     0
100
AcDbTrace
 10
254.2968545404344
 20
557.3791979386323
 30
0.0
 11
254.2968545404344
 21
555.045864605299
 31
0.0
 12
247.2968545404344
 22
556.2125312719656
 32
0.0
 13
247.2968545404344
 23
556.2125312719656
 33
0.0
  0
SOLID
  5
1AD4
330
1A5F
100
AcDbEntity
  8
BEM
 62
     0
100
AcDbTrace
 10
460.2968545404345
 20
557.3791979386323
 30
0.0
 11
460.2968545404345
 21
555.045864605299
 31
0.0
 12
467.2968545404345
 22
556.2125312719656
 32
0.0
 13
467.2968545404345
 23
556.2125312719656
 33
0.0
  0
MTEXT
  5
1AD5
330
1A5F
100
AcDbEntity
  8
BEM
 62
     1
100
AcDbMText
 10
357.2968545404344
 20
562.7125312719656
 30
0.0
 40
7.0
 41
0.0
 71
     5
 72
     1
  1
\A1;%%c220
  7
GREEKS
 73
     1
 44
1.0
  0
POINT
  5
1AD6
330
1A5F
100
AcDbEntity
  8
DEFPOINTS
 62
     0
100
AcDbPoint
 10
247.2968545404344
 20
528.6884119325507
 30
0.0
  0
POINT
  5
1AD7
330
1A5F
100
AcDbEntity
  8
DEFPOINTS
 62
     0
100
AcDbPoint
 10
467.2968545404345
 20
528.6884119325507
 30
0.0
  0
POINT
  5
1AD8
330
1A5F
100
AcDbEntity
  8
DEFPOINTS
 62
     0
100
AcDbPoint
 10
467.2968545404345
 20
556.2125312719656
 30
0.0
  0
ENDBLK
  5
1A6A
330
1A5F
100
AcDbEntity
  8
0
100
AcDbBlockEnd
  0
BLOCK
  5
1A75
330
1A6B
100
AcDbEntity
  8
0
100
AcDbBlockBegin
  2
*D7
 70
     1
 10
0.0
 20
0.0
 30
0.0
  3
*D7
  1

  0
LINE
  5
1AA3
330
1A6B
100
AcDbEntity
  8
BEM
 62
     0
370
    -2
100
AcDbLine
 10
225.2968545404343
 20
458.6884698998662
 30
0.0
 11
199.6355945453588
 21
458.6884698998662
 31
0.0
  0
LINE
  5
1AA4
330
1A6B
100
AcDbEntity
  8
BEM
 62
     0
370
    -2
100
AcDbLine
 10
275.2968545404343
 20
548.6884698998653
 30
0.0
 11
199.6355945453588
 21
548.6884698998655
 31
0.0
  0
LINE
  5
1AA5
330
1A6B
100
AcDbEntity
  8
BEM
 62
     0
370
    -2
100
AcDbLine
 10
201.6355945453588
 20
465.6884698998662
 30
0.0
 11
201.6355945453588
 21
541.6884698998654
 31
0.0
  0
SOLID
  5
1AA6
330
1A6B
100
AcDbEntity
  8
BEM
 62
     0
100
AcDbTrace
 10
200.4689278786921
 20
465.6884698998662
 30
0.0
 11
202.8022612120254
 21
465.6884698998662
 31
0.0
 12
201.6355945453588
 22
458.6884698998662
 32
0.0
 13
201.6355945453588
 23
458.6884698998662
 33
0.0
  0
SOLID
  5
1AA7
330
1A6B
100
AcDbEntity
  8
BEM
 62
     0
100
AcDbTrace
 10
200.4689278786921
 20
541.6884698998654
 30
0.0
 11
202.8022612120254
 21
541.6884698998654
 31
0.0
 12
201.6355945453588
 22
548.6884698998655
 32
0.0
 13
201.6355945453588
 23
548.6884698998655
 33
0.0
  0
MTEXT
  5
1AA8
330
1A6B
100
AcDbEntity
  8
BEM
 62
     1
100
AcDbMText
 10
195.1355945453587
 20
503.6884698998658
 30
0.0
 40
7.0
 41
0.0
 71
     5
 72
     1
  1
\A1;90
  7
GREEKS
 11
0.0000000000000001
 21
1.0
 31
0.0
 73
     1
 44
1.0
  0
POINT
  5
1AA9
330
1A6B
100
AcDbEntity
  8
DEFPOINTS
 62
     0
100
AcDbPoint
 10
227.2968545404344
 20
458.6884698998662
 30
0.0
  0
POINT
  5
1AAA
330
1A6B
100
AcDbEntity
  8
DEFPOINTS
 62
     0
100
AcDbPoint
 10
277.2968545404344
 20
548.6884698998653
 30
0.0
  0
POINT
  5
1AAB
330
1A6B
100
AcDbEntity
  8
DEFPOINTS
 62
     0
100
AcDbPoint
 10
201.6355945453588
 20
548.6884698998655
 30
0.0
  0
ENDBLK
  5
1A76
330
1A6B
100
AcDbEntity
  8
0
100
AcDbBlockEnd
  0
BLOCK
  5
1AED
330
1AE3
100
AcDbEntity
  8
0
100
AcDbBlockBegin
  2
*D8
 70
     1
 10
0.0
 20
0.0
 30
0.0
  3
*D8
  1

  0
LINE
  5
1AE4
330
1AE3
100
AcDbEntity
  8
SCHRAFF
 62
     0
370
    -2
100
AcDbLine
 10
227.2968545404341
 20
456.6884698998671
 30
0.0
 11
227.2968545404341
 21
410.691176000096
 31
0.0
  0
LINE
  5
1AE5
330
1AE3
100
AcDbEntity
  8
SCHRAFF
 62
     0
370
    -2
100
AcDbLine
 10
487.2968545404343
 20
456.6884698998659
 30
0.0
 11
487.2968545404343
 21
410.691176000096
 31
0.0
  0
LINE
  5
1AE6
330
1AE3
100
AcDbEntity
  8
SCHRAFF
 62
     0
370
    -2
100
AcDbLine
 10
234.2968545404342
 20
412.6911760000959
 30
0.0
 11
480.2968545404342
 21
412.6911760000959
 31
0.0
  0
SOLID
  5
1AE7
330
1AE3
100
AcDbEntity
  8
SCHRAFF
 62
     0
100
AcDbTrace
 10
234.2968545404342
 20
413.8578426667626
 30
0.0
 11
234.2968545404342
 21
411.5245093334293
 31
0.0
 12
227.2968545404341
 22
412.6911760000959
 32
0.0
 13
227.2968545404341
 23
412.6911760000959
 33
0.0
  0
SOLID
  5
1AE8
330
1AE3
100
AcDbEntity
  8
SCHRAFF
 62
     0
100
AcDbTrace
 10
480.2968545404342
 20
413.8578426667626
 30
0.0
 11
480.2968545404342
 21
411.5245093334293
 31
0.0
 12
487.2968545404343
 22
412.6911760000959
 32
0.0
 13
487.2968545404343
 23
412.6911760000959
 33
0.0
  0
MTEXT
  5
1AE9
330
1AE3
100
AcDbEntity
  8
SCHRAFF
 62
     1
100
AcDbMText
 10
357.2968545404342
 20
419.191176000096
 30
0.0
 40
7.0
 41
0.0
 71
     5
 72
     1
  1
\A1;260
  7
GREEKS
 73
     1
 44
1.0
  0
POINT
  5
1AEA
330
1AE3
100
AcDbEntity
  8
DEFPOINTS
 62
     0
100
AcDbPoint
 10
227.2968545404341
 20
458.6884698998671
 30
0.0
  0
POINT
  5
1AEB
330
1AE3
100
AcDbEntity
  8
DEFPOINTS
 62
     0
100
AcDbPoint
 10
487.2968545404343
 20
458.688469899866
 30
0.0
  0
POINT
  5
1AEC
330
1AE3
100
AcDbEntity
  8
DEFPOINTS
 62
     0
100
AcDbPoint
 10
487.2968545404343
 20
412.6911760000959
 30
0.0
  0
ENDBLK
  5
1AEE
330
1AE3
100
AcDbEntity
  8
0
100
AcDbBlockEnd
  0
BLOCK
  5
1B62
330
1B58
100
AcDbEntity
  8
0
100
AcDbBlockBegin
  2
*D9
 70
     1
 10
0.0
 20
0.0
 30
0.0
  3
*D9
  1

  0
LINE
  5
1B82
330
1B58
100
AcDbEntity
  8
BEM
 62
     0
370
    -2
100
AcDbLine
 10
452.2968545404341
 20
149.3571971052084
 30
0.0
 11
452.2968545404341
 21
125.353444312719
 31
0.0
  0
LINE
  5
1B83
330
1B58
100
AcDbEntity
  8
BEM
 62
     0
370
    -2
100
AcDbLine
 10
262.2968545404343
 20
149.3571971052093
 30
0.0
 11
262.2968545404343
 21
125.353444312719
 31
0.0
  0
LINE
  5
1B84
330
1B58
100
AcDbEntity
  8
BEM
 62
     0
370
    -2
100
AcDbLine
 10
445.2968545404342
 20
127.353444312719
 30
0.0
 11
269.2968545404343
 21
127.353444312719
 31
0.0
  0
SOLID
  5
1B85
330
1B58
100
AcDbEntity
  8
BEM
 62
     0
100
AcDbTrace
 10
445.2968545404342
 20
128.5201109793857
 30
0.0
 11
445.2968545404342
 21
126.1867776460523
 31
0.0
 12
452.2968545404341
 22
127.353444312719
 32
0.0
 13
452.2968545404341
 23
127.353444312719
 33
0.0
  0
SOLID
  5
1B86
330
1B58
100
AcDbEntity
  8
BEM
 62
     0
100
AcDbTrace
 10
269.2968545404343
 20
128.5201109793857
 30
0.0
 11
269.2968545404343
 21
126.1867776460523
 31
0.0
 12
262.2968545404343
 22
127.353444312719
 32
0.0
 13
262.2968545404343
 23
127.353444312719
 33
0.0
  0
MTEXT
  5
1B87
330
1B58
100
AcDbEntity
  8
BEM
 62
     1
100
AcDbMText
 10
357.2968545404342
 20
133.853444312719
 30
0.0
 40
7.0
 41
0.0
 71
     5
 72
     1
  1
\A1;%%c190
  7
GREEKS
 73
     1
 44
1.0
  0
POINT
  5
1B88
330
1B58
100
AcDbEntity
  8
DEFPOINTS
 62
     0
100
AcDbPoint
 10
452.2968545404341
 20
151.3571971052084
 30
0.0
  0
POINT
  5
1B89
330
1B58
100
AcDbEntity
  8
DEFPOINTS
 62
     0
100
AcDbPoint
 10
262.2968545404343
 20
151.3571971052093
 30
0.0
  0
POINT
  5
1B8A
330
1B58
100
AcDbEntity
  8
DEFPOINTS
 62
     0
100
AcDbPoint
 10
262.2968545404343
 20
127.353444312719
 30
0.0
  0
ENDBLK
  5
1B63
330
1B58
100
AcDbEntity
  8
0
100
AcDbBlockEnd
  0
BLOCK
  5
1B6E
330
1B64
100
AcDbEntity
  8
0
100
AcDbBlockBegin
  2
*D10
 70
     1
 10
0.0
 20
0.0
 30
0.0
  3
*D10
  1

  0
LINE
  5
1B79
330
1B64
100
AcDbEntity
  8
BEM
 62
     0
370
    -2
100
AcDbLine
 10
190.2968545404343
 20
311.3571971052098
 30
0.0
 11
183.7840865715192
 21
311.3571971052098
 31
0.0
  0
LINE
  5
1B7A
330
1B64
100
AcDbEntity
  8
BEM
 62
     0
370
    -2
100
AcDbLine
 10
260.2968545404343
 20
151.3571971052093
 30
0.0
 11
183.7840865715191
 21
151.3571971052093
 31
0.0
  0
LINE
  5
1B7B
330
1B64
100
AcDbEntity
  8
BEM
 62
     0
370
    -2
100
AcDbLine
 10
185.7840865715192
 20
304.3571971052098
 30
0.0
 11
185.7840865715191
 21
158.3571971052093
 31
0.0
  0
SOLID
  5
1B7C
330
1B64
100
AcDbEntity
  8
BEM
 62
     0
100
AcDbTrace
 10
184.6174199048525
 20
304.3571971052098
 30
0.0
 11
186.9507532381858
 21
304.3571971052098
 31
0.0
 12
185.7840865715192
 22
311.3571971052098
 32
0.0
 13
185.7840865715192
 23
311.3571971052098
 33
0.0
  0
SOLID
  5
1B7D
330
1B64
100
AcDbEntity
  8
BEM
 62
     0
100
AcDbTrace
 10
184.6174199048525
 20
158.3571971052093
 30
0.0
 11
186.9507532381858
 21
158.3571971052093
 31
0.0
 12
185.7840865715191
 22
151.3571971052093
 32
0.0
 13
185.7840865715191
 23
151.3571971052093
 33
0.0
  0
MTEXT
  5
1B7E
330
1B64
100
AcDbEntity
  8
BEM
 62
     1
100
AcDbMText
 10
179.2840865715191
 20
231.3571971052096
 30
0.0
 40
7.0
 41
0.0
 71
     5
 72
     1
  1
\A1;160
  7
GREEKS
 11
0.0000000000000001
 21
1.0
 31
0.0
 73
     1
 44
1.0
  0
POINT
  5
1B7F
330
1B64
100
AcDbEntity
  8
DEFPOINTS
 62
     0
100
AcDbPoint
 10
192.2968545404343
 20
311.3571971052098
 30
0.0
  0
POINT
  5
1B80
330
1B64
100
AcDbEntity
  8
DEFPOINTS
 62
     0
100
AcDbPoint
 10
262.2968545404343
 20
151.3571971052093
 30
0.0
  0
POINT
  5
1B81
330
1B64
100
AcDbEntity
  8
DEFPOINTS
 62
     0
100
AcDbPoint
 10
185.7840865715191
 20
151.3571971052093
 30
0.0
  0
ENDBLK
  5
1B6F
330
1B64
100
AcDbEntity
  8
0
100
AcDbBlockEnd
  0
ENDSEC
  0
SECTION
  2
ENTITIES
  0
LINE
  5
66D
102
{ACAD_REACTORS
330
153F
102
}
330
17
100
AcDbEntity
  8
STEMPEL
100
AcDbLine
 10
444.2968545404341
 20
298.182219778158
 30
0.0
 11
444.2968545404341
 21
294.893095490072
 31
0.0
  0
LINE
  5
66E
102
{ACAD_REACTORS
330
153F
102
}
330
17
100
AcDbEntity
  8
STEMPEL
100
AcDbLine
 10
446.2968545404342
 20
298.3571971052097
 30
0.0
 11
446.2968545404342
 21
294.3571971052097
 31
0.0
  0
LINE
  5
66F
102
{ACAD_REACTORS
330
15E7
102
}
330
17
100
AcDbEntity
  8
STEMPEL
100
AcDbLine
 10
441.2968545404342
 20
297.9197537875803
 30
0.0
 11
441.2968545404342
 21
295.6969430673655
 31
0.0
  0
LINE
  5
670
102
{ACAD_REACTORS
330
15E7
102
}
330
17
100
AcDbEntity
  8
STEMPEL
100
AcDbLine
 10
273.2968545404342
 20
297.9197537875803
 30
0.0
 11
273.2968545404342
 21
295.6969430673655
 31
0.0
  0
LINE
  5
671
102
{ACAD_REACTORS
330
153F
102
}
330
17
100
AcDbEntity
  8
STEMPEL
100
AcDbLine
 10
268.2968545404342
 20
298.3571971052097
 30
0.0
 11
268.2968545404342
 21
294.3571971052097
 31
0.0
  0
LINE
  5
672
102
{ACAD_REACTORS
330
153F
102
}
330
17
100
AcDbEntity
  8
STEMPEL
100
AcDbLine
 10
270.2968545404342
 20
298.182219778158
 30
0.0
 11
270.2968545404342
 21
294.893095490072
 31
0.0
  0
LINE
  5
673
102
{ACAD_REACTORS
330
15E7
102
}
330
17
100
AcDbEntity
  8
STEMPEL
100
AcDbLine
 10
423.7968545404341
 20
295.1100308458886
 30
0.0
 11
424.930142907891
 21
301.5372285606306
 31
0.0
  0
LINE
  5
674
102
{ACAD_REACTORS
330
1569
330
15E7
102
}
330
17
100
AcDbEntity
  8
STEMPEL
100
AcDbLine
 10
432.2968545404342
 20
288.6031081164633
 30
0.0
 11
432.2968545404342
 21
311.6031081164633
 31
0.0
  0
LINE
  5
675
102
{ACAD_REACTORS
330
1569
330
15E7
102
}
330
17
100
AcDbEntity
  8
STEMPEL
100
AcDbLine
 10
430.2968545404342
 20
288.6031081164633
 30
0.0
 11
430.2968545404342
 21
311.6031081164633
 31
0.0
  0
LINE
  5
676
102
{ACAD_REACTORS
330
155A
102
}
330
17
100
AcDbEntity
  8
STEMPEL
100
AcDbLine
 10
421.7968545404342
 20
377.5154755836068
 30
0.0
 11
421.7968545404342
 21
194.2757917856839
 31
0.0
  0
LINE
  5
677
102
{ACAD_REACTORS
330
155A
330
15E7
102
}
330
17
100
AcDbEntity
  8
STEMPEL
100
AcDbLine
 10
423.7968545404341
 20
377.5154755836068
 30
0.0
 11
423.7968545404341
 21
194.1884698998668
 31
0.0
  0
LINE
  5
67A
102
{ACAD_REACTORS
330
15E7
102
}
330
17
100
AcDbEntity
  8
STEMPEL
100
AcDbLine
 10
290.7968545404342
 20
295.1100308458913
 30
0.0
 11
289.6635661729779
 21
301.5372285606306
 31
0.0
  0
LINE
  5
67B
102
{ACAD_REACTORS
330
155A
330
15E7
102
}
330
17
100
AcDbEntity
  8
STEMPEL
100
AcDbLine
 10
290.7968545404342
 20
377.5154755836068
 30
0.0
 11
290.7968545404342
 21
194.1884698998668
 31
0.0
  0
LINE
  5
67C
102
{ACAD_REACTORS
330
155A
102
}
330
17
100
AcDbEntity
  8
STEMPEL
100
AcDbLine
 10
292.7968545404342
 20
377.5154755836068
 30
0.0
 11
292.7968545404342
 21
194.2757917856843
 31
0.0
  0
LINE
  5
67D
102
{ACAD_REACTORS
330
1569
330
15E7
102
}
330
17
100
AcDbEntity
  8
STEMPEL
100
AcDbLine
 10
284.2968545404346
 20
288.6031081164633
 30
0.0
 11
284.2968545404342
 21
311.6031081164633
 31
0.0
  0
LINE
  5
67E
102
{ACAD_REACTORS
330
1569
330
15E7
102
}
330
17
100
AcDbEntity
  8
STEMPEL
100
AcDbLine
 10
282.2968545404346
 20
288.6031081164633
 30
0.0
 11
282.2968545404342
 21
311.6031081164633
 31
0.0
  0
DIMENSION
  5
681
330
17
100
AcDbEntity
  8
BEM
100
AcDbDimension
  2
*D1
 10
143.0394429038258
 20
313.3571971052097
 30
0.0
 11
136.5394429038258
 21
173.3571971052097
 31
0.0
 70
    32
 71
     5
 42
280.0
  3
STANDARD
100
AcDbAlignedDimension
 13
290.7892148653473
 23
33.35719710520971
 33
0.0
 14
192.2968545404342
 24
313.3571971052097
 34
0.0
 50
90.0
100
AcDbRotatedDimension
  0
LINE
  5
685
330
17
100
AcDbEntity
  8
MITTEL
100
AcDbLine
 10
357.2968545404342
 20
555.1884698998661
 30
0.0
 11
357.2968545404342
 21
424.6964365080195
 31
0.0
  0
LINE
  5
6D3
102
{ACAD_REACTORS
330
155A
102
}
330
17
100
AcDbEntity
  8
STEMPEL
100
AcDbLine
 10
292.1091844933226
 20
179.1884698998664
 30
0.0
 11
422.4845245875453
 21
179.1884698998666
 31
0.0
  0
LINE
  5
6D4
330
17
100
AcDbEntity
  8
HILF
100
AcDbLine
 10
294.7968545404342
 20
194.1884698998665
 30
0.0
 11
419.7968545404341
 21
194.1884698998666
 31
0.0
  0
LINE
  5
6D7
102
{ACAD_REACTORS
330
155A
102
}
330
17
100
AcDbEntity
  8
STEMPEL
100
AcDbLine
 10
292.7968545404342
 20
194.2757917856843
 30
0.0
 11
294.1168241684099
 21
179.1884698998665
 31
0.0
  0
LINE
  5
6D8
102
{ACAD_REACTORS
330
155A
102
}
330
17
100
AcDbEntity
  8
STEMPEL
100
AcDbLine
 10
290.7968545404342
 20
194.1884698998668
 30
0.0
 11
292.1091844933226
 21
179.1884698998664
 31
0.0
  0
LINE
  5
6DA
102
{ACAD_REACTORS
330
15E7
102
}
330
17
100
AcDbEntity
  8
STEMPEL
100
AcDbLine
 10
280.2968545404333
 20
283.6031081164633
 30
0.0
 11
290.7968545404342
 21
283.6031081164633
 31
0.0
  0
LINE
  5
6DB
330
17
100
AcDbEntity
  8
STEMPEL
100
AcDbLine
 10
279.0701962818048
 20
280.6031081164633
 30
0.0
 11
290.7968545404342
 21
280.6031081164633
 31
0.0
  0
LINE
  5
6DC
102
{ACAD_REACTORS
330
153F
102
}
330
17
100
AcDbEntity
  8
STEMPEL
100
AcDbLine
 10
282.7306112701749
 20
279.3571971052097
 30
0.0
 11
290.7968545404342
 21
279.3571971052097
 31
0.0
  0
LINE
  5
6DD
102
{ACAD_REACTORS
330
153F
102
}
330
17
100
AcDbEntity
  8
STEMPEL
100
AcDbLine
 10
282.7306112701749
 20
277.3571971052097
 30
0.0
 11
290.7968545404342
 21
277.3571971052099
 31
0.0
  0
LINE
  5
6DE
102
{ACAD_REACTORS
330
1569
330
15E7
102
}
330
17
100
AcDbEntity
  8
STEMPEL
100
AcDbLine
 10
282.2968545404346
 20
288.6031081164633
 30
0.0
 11
284.2968545404346
 21
288.6031081164633
 31
0.0
  0
ARC
  5
6DF
102
{ACAD_REACTORS
330
153F
102
}
330
17
100
AcDbEntity
  8
STEMPEL
100
AcDbCircle
 10
282.7306112701749
 20
285.3571971052099
 30
0.0
 40
6.0
100
AcDbArc
 50
210.0
 51
270.0
  0
ARC
  5
6E0
102
{ACAD_REACTORS
330
153F
102
}
330
17
100
AcDbEntity
  8
STEMPEL
100
AcDbCircle
 10
282.7306112701749
 20
285.3571971052099
 30
0.0
 40
8.0
100
AcDbArc
 50
210.0
 51
270.0
  0
POINT
  5
6E1
330
17
100
AcDbEntity
  8
DEFPOINTS
  6
ByBlock
 62
     0
100
AcDbPoint
 10
282.7306112701749
 20
277.3571971052097
 30
0.0
  0
ARC
  5
6E5
102
{ACAD_REACTORS
330
15E7
102
}
330
17
100
AcDbEntity
  8
STEMPEL
100
AcDbCircle
 10
282.7306112701749
 20
285.3571971052099
 30
0.0
 40
3.0
100
AcDbArc
 50
210.0
 51
215.7815399860359
  0
LINE
  5
6E6
102
{ACAD_REACTORS
330
15E7
102
}
330
17
100
AcDbEntity
  8
STEMPEL
100
AcDbLine
 10
273.2968545404342
 20
295.6969430673655
 30
0.0
 11
280.1325350588213
 21
283.85719710521
 31
0.0
  0
LINE
  5
6E7
102
{ACAD_REACTORS
330
153F
102
}
330
17
100
AcDbEntity
  8
STEMPEL
100
AcDbLine
 10
268.2968545404342
 20
294.3571971052097
 30
0.0
 11
275.8024080398991
 21
281.3571971052099
 31
0.0
  0
LINE
  5
6E8
102
{ACAD_REACTORS
330
153F
102
}
330
17
100
AcDbEntity
  8
STEMPEL
100
AcDbLine
 10
270.2968545404342
 20
294.893095490072
 30
0.0
 11
277.5344588474681
 21
282.3571971052099
 31
0.0
  0
LINE
  5
6E9
330
17
100
AcDbEntity
  8
STEMPEL
100
AcDbLine
 10
287.2968545404342
 20
283.6031081164633
 30
0.0
 11
287.2968545404342
 21
280.6031081164633
 31
0.0
  0
LINE
  5
6EA
102
{ACAD_REACTORS
330
153F
102
}
330
17
100
AcDbEntity
  8
STEMPEL
100
AcDbLine
 10
286.7968545404342
 20
279.3571971052097
 30
0.0
 11
286.7968545404342
 21
277.3571971052097
 31
0.0
  0
LINE
  5
6EB
102
{ACAD_REACTORS
330
15E7
102
}
330
17
100
AcDbEntity
  8
STEMPEL
100
AcDbLine
 10
287.2968545404342
 20
284.6031081164633
 30
0.0
 11
285.5648037328656
 21
283.6031081164633
 31
0.0
  0
LINE
  5
6EC
102
{ACAD_REACTORS
330
15E7
102
}
330
17
100
AcDbEntity
  8
STEMPEL
100
AcDbLine
 10
287.2968545404342
 20
284.6031081164633
 30
0.0
 11
290.7968545404342
 21
284.6031081164633
 31
0.0
  0
LINE
  5
6F0
102
{ACAD_REACTORS
330
155A
102
}
330
17
100
AcDbEntity
  8
STEMPEL
100
AcDbLine
 10
421.7968545404342
 20
194.2757917856839
 30
0.0
 11
420.4768849124584
 21
179.1884698998666
 31
0.0
  0
LINE
  5
6F1
102
{ACAD_REACTORS
330
155A
102
}
330
17
100
AcDbEntity
  8
STEMPEL
100
AcDbLine
 10
423.7968545404341
 20
194.1884698998668
 30
0.0
 11
422.4845245875453
 21
179.1884698998666
 31
0.0
  0
LINE
  5
6F2
102
{ACAD_REACTORS
330
153F
102
}
330
17
100
AcDbEntity
  8
STEMPEL
100
AcDbLine
 10
446.2968545404342
 20
294.3571971052097
 30
0.0
 11
438.7913010409692
 21
281.3571971052099
 31
0.0
  0
LINE
  5
6F3
102
{ACAD_REACTORS
330
153F
102
}
330
17
100
AcDbEntity
  8
STEMPEL
100
AcDbLine
 10
444.2968545404341
 20
294.893095490072
 30
0.0
 11
437.0592502334002
 21
282.3571971052099
 31
0.0
  0
LINE
  5
6F4
102
{ACAD_REACTORS
330
15E7
102
}
330
17
100
AcDbEntity
  8
STEMPEL
100
AcDbLine
 10
441.2968545404342
 20
295.6969430673655
 30
0.0
 11
434.4611740220471
 21
283.85719710521
 31
0.0
  0
ARC
  5
6F5
102
{ACAD_REACTORS
330
153F
102
}
330
17
100
AcDbEntity
  8
STEMPEL
100
AcDbCircle
 10
431.8630978106934
 20
285.3571971052099
 30
0.0
 40
6.0
100
AcDbArc
 50
270.0
 51
330.0000000000001
  0
ARC
  5
6F6
102
{ACAD_REACTORS
330
153F
102
}
330
17
100
AcDbEntity
  8
STEMPEL
100
AcDbCircle
 10
431.8630978106934
 20
285.3571971052099
 30
0.0
 40
8.0
100
AcDbArc
 50
270.0000000000001
 51
330.0000000000001
  0
POINT
  5
6F7
330
17
100
AcDbEntity
  8
DEFPOINTS
  6
ByBlock
 62
     0
100
AcDbPoint
 10
437.4163859839946
 20
279.5986390856817
 30
0.0
  0
POINT
  5
6F8
330
17
100
AcDbEntity
  8
DEFPOINTS
  6
ByBlock
 62
     0
100
AcDbPoint
 10
437.4163859839946
 20
279.5986390856817
 30
0.0
  0
ARC
  5
6FC
102
{ACAD_REACTORS
330
15E7
102
}
330
17
100
AcDbEntity
  8
STEMPEL
100
AcDbCircle
 10
431.8630978106934
 20
285.3571971052099
 30
0.0
 40
3.0
100
AcDbArc
 50
324.2184600139409
 51
330.0000000000001
  0
LINE
  5
6FD
330
17
100
AcDbEntity
  8
STEMPEL
100
AcDbLine
 10
427.2968545404341
 20
283.6031081164633
 30
0.0
 11
427.2968545404341
 21
280.6031081164633
 31
0.0
  0
LINE
  5
6FE
102
{ACAD_REACTORS
330
153F
102
}
330
17
100
AcDbEntity
  8
STEMPEL
100
AcDbLine
 10
427.7968545404341
 20
279.3571971052097
 30
0.0
 11
427.7968545404341
 21
277.3571971052097
 31
0.0
  0
LINE
  5
700
102
{ACAD_REACTORS
330
15E7
102
}
330
17
100
AcDbEntity
  8
STEMPEL
100
AcDbLine
 10
427.2968545404341
 20
284.6031081164633
 30
0.0
 11
429.0289053480032
 21
283.6031081164633
 31
0.0
  0
LINE
  5
701
102
{ACAD_REACTORS
330
15E7
102
}
330
17
100
AcDbEntity
  8
STEMPEL
100
AcDbLine
 10
423.7968545404341
 20
284.6031081164633
 30
0.0
 11
427.2968545404341
 21
284.6031081164633
 31
0.0
  0
LINE
  5
703
102
{ACAD_REACTORS
330
1569
330
15E7
102
}
330
17
100
AcDbEntity
  8
STEMPEL
100
AcDbLine
 10
432.2968545404342
 20
288.6031081164633
 30
0.0
 11
430.2968545404342
 21
288.6031081164633
 31
0.0
  0
LINE
  5
704
330
17
100
AcDbEntity
  8
STEMPEL
100
AcDbLine
 10
423.7968545404341
 20
280.6031081164633
 30
0.0
 11
435.5235127990622
 21
280.6031081164633
 31
0.0
  0
LINE
  5
705
102
{ACAD_REACTORS
330
153F
102
}
330
17
100
AcDbEntity
  8
STEMPEL
100
AcDbLine
 10
423.7968545404341
 20
279.3571971052097
 30
0.0
 11
431.8630978106934
 21
279.3571971052097
 31
0.0
  0
LINE
  5
706
102
{ACAD_REACTORS
330
153F
102
}
330
17
100
AcDbEntity
  8
STEMPEL
100
AcDbLine
 10
423.7968545404341
 20
277.3571971052099
 30
0.0
 11
431.8630978106934
 21
277.3571971052099
 31
0.0
  0
LINE
  5
707
102
{ACAD_REACTORS
330
15E7
102
}
330
17
100
AcDbEntity
  8
STEMPEL
100
AcDbLine
 10
423.7968545404341
 20
283.6031081164633
 30
0.0
 11
434.2968545404328
 21
283.6031081164633
 31
0.0
  0
LINE
  5
726
330
17
100
AcDbEntity
  8
STEMPEL
100
AcDbLine
 10
107.2968545404342
 20
442.1884698998665
 30
0.0
 11
266.4179677155644
 21
442.1884698998663
 31
0.0
  0
LINE
  5
72A
330
17
100
AcDbEntity
  8
STEMPEL
100
AcDbLine
 10
448.175741365304
 20
439.1884698998665
 30
0.0
 11
607.2968545404342
 21
439.1884698998665
 31
0.0
  0
LINE
  5
72B
102
{ACAD_REACTORS
330
153F
102
}
330
17
100
AcDbEntity
  8
STEMPEL
100
AcDbLine
 10
448.175741365304
 20
313.3571971052097
 30
0.0
 11
607.2968545404342
 21
313.3571971052097
 31
0.0
  0
LINE
  5
72C
330
17
100
AcDbEntity
  8
STEMPEL
100
AcDbLine
 10
423.7968545404341
 20
316.3571971052097
 30
0.0
 11
607.2968545404342
 21
316.3571971052097
 31
0.0
  0
LINE
  5
72D
102
{ACAD_REACTORS
330
153F
102
}
330
17
100
AcDbEntity
  8
STEMPEL
100
AcDbLine
 10
522.2968545404341
 20
311.3571971052097
 30
0.0
 11
448.175741365304
 21
311.3571971052097
 31
0.0
  0
LINE
  5
72E
330
17
100
AcDbEntity
  8
STEMPEL
100
AcDbLine
 10
522.2968545404341
 20
437.1884698998664
 30
0.0
 11
448.175741365304
 21
437.1884698998664
 31
0.0
  0
LINE
  5
739
330
17
100
AcDbEntity
  8
STEMPEL
100
AcDbLine
 10
192.2968545404342
 20
437.1884698998664
 30
0.0
 11
266.4179677155644
 21
437.1884698998664
 31
0.0
  0
LINE
  5
73A
330
17
100
AcDbEntity
  8
STEMPEL
100
AcDbLine
 10
107.2968545404342
 20
439.1884698998665
 30
0.0
 11
266.4179677155644
 21
439.1884698998665
 31
0.0
  0
LINE
  5
73C
102
{ACAD_REACTORS
330
153F
102
}
330
17
100
AcDbEntity
  8
STEMPEL
100
AcDbLine
 10
192.2968545404342
 20
311.3571971052097
 30
0.0
 11
266.4179677155644
 21
311.3571971052097
 31
0.0
  0
LINE
  5
73D
102
{ACAD_REACTORS
330
153F
102
}
330
17
100
AcDbEntity
  8
STEMPEL
100
AcDbLine
 10
107.2968545404342
 20
313.3571971052097
 30
0.0
 11
266.4179677155644
 21
313.3571971052097
 31
0.0
  0
LINE
  5
740
330
17
100
AcDbEntity
  8
STEMPEL
100
AcDbLine
 10
107.2968545404342
 20
316.3571971052097
 30
0.0
 11
290.7968545404342
 21
316.3571971052097
 31
0.0
  0
DIMENSION
  5
741
330
17
100
AcDbEntity
  8
BEM
100
AcDbDimension
  2
*D2
 10
143.0306382463241
 20
316.3571971052097
 30
0.0
 11
136.530638246324
 21
377.7728335025382
 31
0.0
 70
    32
  1
max.180
 71
     5
 42
122.8312727946568
  3
STANDARD
100
AcDbAlignedDimension
 13
157.0897440390238
 23
439.1884698998665
 33
0.0
 14
161.6434169231445
 24
316.3571971052097
 34
0.0
 50
90.0
100
AcDbRotatedDimension
  0
LINE
  5
742
330
17
100
AcDbEntity
  8
STEMPEL
100
AcDbLine
 10
107.2968545404342
 20
316.3571971052097
 30
0.0
 11
107.2968545404342
 21
313.3571971052097
 31
0.0
  0
LINE
  5
743
330
17
100
AcDbEntity
  8
STEMPEL
100
AcDbLine
 10
192.2968545404342
 20
313.3571971052097
 30
0.0
 11
192.2968545404342
 21
311.3571971052097
 31
0.0
  0
LINE
  5
744
102
{ACAD_REACTORS
330
153F
102
}
330
17
100
AcDbEntity
  8
STEMPEL
100
AcDbLine
 10
192.2968545404342
 20
313.3571971052097
 30
0.0
 11
192.2968545404342
 21
311.3571971052097
 31
0.0
  0
LINE
  5
745
330
17
100
AcDbEntity
  8
STEMPEL
100
AcDbLine
 10
107.2968545404342
 20
442.1884698998665
 30
0.0
 11
107.2968545404342
 21
439.1884698998665
 31
0.0
  0
LINE
  5
746
330
17
100
AcDbEntity
  8
STEMPEL
100
AcDbLine
 10
192.2968545404342
 20
439.1884698998665
 30
0.0
 11
192.2968545404342
 21
437.1884698998664
 31
0.0
  0
LINE
  5
747
330
17
100
AcDbEntity
  8
STEMPEL
100
AcDbLine
 10
192.2968545404342
 20
439.1884698998665
 30
0.0
 11
192.2968545404342
 21
437.1884698998664
 31
0.0
  0
ARC
  5
749
330
17
100
AcDbEntity
  8
STEMPEL
100
AcDbCircle
 10
431.8630978106934
 20
411.1884698998665
 30
0.0
 40
6.0
100
AcDbArc
 50
270.0
 51
330.0000000000001
  0
ARC
  5
74A
102
{ACAD_REACTORS
330
16A1
102
}
330
17
100
AcDbEntity
  8
STEMPEL
100
AcDbCircle
 10
431.8630978106934
 20
411.1884698998665
 30
0.0
 40
8.0
100
AcDbArc
 50
270.0000000000001
 51
330.0000000000001
  0
LINE
  5
74B
330
17
100
AcDbEntity
  8
STEMPEL
100
AcDbLine
 10
427.7968545404341
 20
405.1884698998665
 30
0.0
 11
427.7968545404341
 21
403.1884698998664
 31
0.0
  0
ARC
  5
74C
330
17
100
AcDbEntity
  8
STEMPEL
100
AcDbCircle
 10
282.7306112701749
 20
411.1884698998665
 30
0.0
 40
6.0
100
AcDbArc
 50
210.0
 51
270.0
  0
ARC
  5
74D
102
{ACAD_REACTORS
330
16A1
102
}
330
17
100
AcDbEntity
  8
STEMPEL
100
AcDbCircle
 10
282.7306112701749
 20
411.1884698998665
 30
0.0
 40
8.0
100
AcDbArc
 50
210.0
 51
270.0
  0
LINE
  5
74E
330
17
100
AcDbEntity
  8
STEMPEL
100
AcDbLine
 10
286.7968545404342
 20
405.1884698998665
 30
0.0
 11
286.7968545404342
 21
403.1884698998664
 31
0.0
  0
LINE
  5
754
330
17
100
AcDbEntity
  8
HILF
100
AcDbLine
 10
420.3669554267644
 20
381.6782024753686
 30
0.0
 11
294.226753654104
 21
381.6782024753686
 31
0.0
  0
LINE
  5
757
102
{ACAD_REACTORS
330
15E7
102
}
330
17
100
AcDbEntity
  8
STEMPEL
100
AcDbLine
 10
282.3044942155211
 20
313.6031081164633
 30
0.0
 11
290.7968545404342
 21
313.6031081164633
 31
0.0
  0
LINE
  5
758
102
{ACAD_REACTORS
330
1569
330
15E7
102
}
330
17
100
AcDbEntity
  8
STEMPEL
100
AcDbLine
 10
282.2968545404342
 20
311.6031081164633
 30
0.0
 11
284.2968545404342
 21
311.6031081164633
 31
0.0
  0
ARC
  5
759
102
{ACAD_REACTORS
330
15E7
102
}
330
17
100
AcDbEntity
  8
STEMPEL
100
AcDbCircle
 10
282.3044942155211
 20
311.6031081164633
 30
0.0
 40
2.0
100
AcDbArc
 50
90.0
 51
175.0
  0
LINE
  5
75A
330
17
100
AcDbEntity
  8
STEMPEL
100
AcDbLine
 10
275.9411550576378
 20
300.8800569215316
 30
0.0
 11
279.32092420964
 21
300.8800569215316
 31
0.0
  0
LINE
  5
75B
102
{ACAD_REACTORS
330
15E7
102
}
330
17
100
AcDbEntity
  8
STEMPEL
100
AcDbLine
 10
280.3121048193375
 20
311.7774196019586
 30
0.0
 11
279.3920813382906
 21
301.2615030938253
 31
0.0
  0
ARC
  5
75C
102
{ACAD_REACTORS
330
153F
102
}
330
17
100
AcDbEntity
  8
STEMPEL
100
AcDbCircle
 10
266.4179677155644
 20
307.8571971052097
 30
0.0
 40
3.5
100
AcDbArc
 50
350.0
 51
90.0
  0
ARC
  5
75D
102
{ACAD_REACTORS
330
153F
102
}
330
17
100
AcDbEntity
  8
STEMPEL
100
AcDbCircle
 10
266.4179677155644
 20
307.8571971052097
 30
0.0
 40
5.5
100
AcDbArc
 50
350.0000000000002
 51
90.00000000000003
  0
ARC
  5
75E
330
17
100
AcDbEntity
  8
STEMPEL
100
AcDbCircle
 10
266.4179677155644
 20
307.8571971052097
 30
0.0
 40
8.5
100
AcDbArc
 50
349.9999999999999
 51
90.00000000000003
  0
ARC
  5
75F
102
{ACAD_REACTORS
330
15E7
102
}
330
17
100
AcDbEntity
  8
STEMPEL
100
AcDbCircle
 10
278.2880309920311
 20
300.9766264562381
 30
0.0
 40
1.0
100
AcDbArc
 50
227.8915544213075
 51
332.6652690310767
  0
LINE
  5
760
102
{ACAD_REACTORS
330
15E7
102
}
330
17
100
AcDbEntity
  8
STEMPEL
100
AcDbLine
 10
273.4935930798415
 20
299.0355134893391
 30
0.0
 11
273.6637636078676
 21
299.4113125564313
 31
0.0
  0
ARC
  5
761
102
{ACAD_REACTORS
330
15E7
102
}
330
17
100
AcDbEntity
  8
STEMPEL
100
AcDbCircle
 10
277.399691942107
 20
301.4358145793206
 30
0.0
 40
2.0
100
AcDbArc
 50
332.6652690310767
 51
354.9999999999999
  0
ARC
  5
762
102
{ACAD_REACTORS
330
15E7
102
}
330
17
100
AcDbEntity
  8
STEMPEL
100
AcDbCircle
 10
275.9411550576378
 20
298.3800569215316
 30
0.0
 40
2.499999999999997
100
AcDbArc
 50
47.89155442130723
 51
155.6378802944081
  0
LINE
  5
763
102
{ACAD_REACTORS
330
15E7
102
}
330
17
100
AcDbEntity
  8
STEMPEL
100
AcDbLine
 10
273.2968545404342
 20
297.9197537875803
 30
0.0
 11
274.7888336161682
 21
306.381187595041
 31
0.0
  0
LINE
  5
764
102
{ACAD_REACTORS
330
153F
102
}
330
17
100
AcDbEntity
  8
STEMPEL
100
AcDbLine
 10
270.2968545404342
 20
298.182219778158
 30
0.0
 11
271.8344103571317
 21
306.9021321280416
 31
0.0
  0
LINE
  5
765
102
{ACAD_REACTORS
330
153F
102
}
330
17
100
AcDbEntity
  8
STEMPEL
100
AcDbLine
 10
268.2968545404342
 20
298.3571971052097
 30
0.0
 11
269.864794851107
 21
307.2494284833756
 31
0.0
  0
ARC
  5
766
102
{ACAD_REACTORS
330
15E7
102
}
330
17
100
AcDbEntity
  8
STEMPEL
100
AcDbCircle
 10
287.2015467904471
 20
301.1031081164633
 30
0.0
 40
2.5
100
AcDbArc
 50
9.999999999999989
 51
90.0
  0
ARC
  5
767
102
{ACAD_REACTORS
330
15E7
102
}
330
17
100
AcDbEntity
  8
STEMPEL
100
AcDbCircle
 10
284.2893055571403
 20
311.6031081164633
 30
0.0
 40
2.0
100
AcDbArc
 50
4.999999999999892
 51
90.0
  0
LINE
  5
768
102
{ACAD_REACTORS
330
15E7
102
}
330
17
100
AcDbEntity
  8
STEMPEL
100
AcDbLine
 10
286.9968545404345
 20
303.6031081164633
 30
0.0
 11
286.2816949533235
 21
311.7774196019586
 31
0.0
  0
LINE
  5
769
330
17
100
AcDbEntity
  8
STEMPEL
100
AcDbLine
 10
286.9968545404345
 20
303.6031081164633
 30
0.0
 11
290.7968545404342
 21
303.6031081164633
 31
0.0
  0
LINE
  5
76A
330
17
100
AcDbEntity
  8
STEMPEL
100
AcDbLine
 10
282.7306112701749
 20
403.1884698998664
 30
0.0
 11
290.796854540434
 21
403.1884698998664
 31
0.0
  0
LINE
  5
76B
102
{ACAD_REACTORS
330
155A
330
16A1
102
}
330
17
100
AcDbEntity
  8
STEMPEL
100
AcDbLine
 10
288.852074039155
 20
384.4870437008387
 30
0.0
 11
279.5231254458427
 21
402.3939380944421
 31
0.0
  0
LINE
  5
76C
102
{ACAD_REACTORS
330
155A
102
}
330
17
100
AcDbEntity
  8
STEMPEL
100
AcDbLine
 10
290.6258031337466
 20
385.411102735208
 30
0.0
 11
281.2968545404342
 21
403.3179971288113
 31
0.0
  0
LINE
  5
76D
102
{ACAD_REACTORS
330
155A
330
16A1
102
}
330
17
100
AcDbEntity
  8
STEMPEL
100
AcDbLine
 10
281.2968545404342
 20
403.3179971288113
 30
0.0
 11
279.5231254458427
 21
402.3939380944421
 31
0.0
  0
POINT
  5
76E
330
17
100
AcDbEntity
  8
DEFPOINTS
  6
ByBlock
 62
     0
100
AcDbPoint
 10
282.4828625594591
 20
403.2295952593285
 30
0.0
  0
POINT
  5
76F
330
17
100
AcDbEntity
  8
DEFPOINTS
  6
ByBlock
 62
     0
100
AcDbPoint
 10
282.7306112701749
 20
403.1884698998664
 30
0.0
  0
ARC
  5
770
102
{ACAD_REACTORS
330
16A1
102
}
330
17
100
AcDbEntity
  8
SCHRAFF
100
AcDbCircle
 10
281.2968545404342
 20
403.3179971288113
 30
0.0
 40
4.0
100
AcDbArc
 50
155.1981813039356
 51
267.5181462698049
  0
ARC
  5
771
102
{ACAD_REACTORS
330
155A
102
}
330
17
100
AcDbEntity
  8
STEMPEL
100
AcDbCircle
 10
275.3794193687268
 20
376.9725230246365
 30
0.0
 40
17.42589582896457
100
AcDbArc
 50
1.785499355245401
 51
28.96368305442304
  0
ARC
  5
772
102
{ACAD_REACTORS
330
155A
102
}
330
17
100
AcDbEntity
  8
STEMPEL
100
AcDbCircle
 10
275.3784002876336
 20
376.9714024968564
 30
0.0
 40
15.42805065682075
100
AcDbArc
 50
2.020965399060865
 51
29.15286240521088
  0
ARC
  5
773
330
17
100
AcDbEntity
  8
STEMPEL
100
AcDbCircle
 10
448.175741365304
 20
307.8571971052097
 30
0.0
 40
8.5
100
AcDbArc
 50
89.99999999999998
 51
190.0000000000004
  0
ARC
  5
774
102
{ACAD_REACTORS
330
153F
102
}
330
17
100
AcDbEntity
  8
STEMPEL
100
AcDbCircle
 10
448.175741365304
 20
307.8571971052097
 30
0.0
 40
5.5
100
AcDbArc
 50
89.99999999999998
 51
189.9999999999998
  0
LINE
  5
775
330
17
100
AcDbEntity
  8
STEMPEL
100
AcDbLine
 10
438.6525540232305
 20
300.8800569215316
 30
0.0
 11
435.2727848712284
 21
300.8800569215316
 31
0.0
  0
LINE
  5
776
102
{ACAD_REACTORS
330
15E7
102
}
330
17
100
AcDbEntity
  8
STEMPEL
100
AcDbLine
 10
434.2816042615313
 20
311.7774196019586
 30
0.0
 11
435.2016277425782
 21
301.2615030938253
 31
0.0
  0
ARC
  5
777
102
{ACAD_REACTORS
330
15E7
102
}
330
17
100
AcDbEntity
  8
STEMPEL
100
AcDbCircle
 10
432.2892148653477
 20
311.6031081164633
 30
0.0
 40
2.0
100
AcDbArc
 50
4.999999999999969
 51
90.0
  0
LINE
  5
778
330
17
100
AcDbEntity
  8
STEMPEL
100
AcDbLine
 10
423.7968545404341
 20
303.6031081164633
 30
0.0
 11
427.3921622904213
 21
303.6031081164633
 31
0.0
  0
ARC
  5
779
102
{ACAD_REACTORS
330
15E7
102
}
330
17
100
AcDbEntity
  8
STEMPEL
100
AcDbCircle
 10
427.3921622904213
 20
301.1031081164633
 30
0.0
 40
2.5
100
AcDbArc
 50
85.32030851368308
 51
170.0
  0
LINE
  5
77A
102
{ACAD_REACTORS
330
15E7
102
}
330
17
100
AcDbEntity
  8
STEMPEL
100
AcDbLine
 10
427.5961254027715
 20
303.594774034842
 30
0.0
 11
428.3120141275449
 21
311.7774196019586
 31
0.0
  0
ARC
  5
77B
102
{ACAD_REACTORS
330
15E7
102
}
330
17
100
AcDbEntity
  8
STEMPEL
100
AcDbCircle
 10
430.3044035237284
 20
311.6031081164633
 30
0.0
 40
2.0
100
AcDbArc
 50
90.0
 51
175.0000000000001
  0
LINE
  5
77C
102
{ACAD_REACTORS
330
1569
330
15E7
102
}
330
17
100
AcDbEntity
  8
STEMPEL
100
AcDbLine
 10
432.2968545404342
 20
311.6031081164633
 30
0.0
 11
430.2968545404342
 21
311.6031081164633
 31
0.0
  0
LINE
  5
77D
102
{ACAD_REACTORS
330
15E7
102
}
330
17
100
AcDbEntity
  8
STEMPEL
100
AcDbLine
 10
423.7968545404341
 20
313.6031081164633
 30
0.0
 11
432.2892148653477
 21
313.6031081164633
 31
0.0
  0
LINE
  5
77E
102
{ACAD_REACTORS
330
15E7
102
}
330
17
100
AcDbEntity
  8
SCHRAFF
100
AcDbLine
 10
441.1001160010268
 20
299.0355134893391
 30
0.0
 11
440.9299454730008
 21
299.4113125564313
 31
0.0
  0
ARC
  5
77F
102
{ACAD_REACTORS
330
15E7
102
}
330
17
100
AcDbEntity
  8
STEMPEL
100
AcDbCircle
 10
436.3056780888373
 20
300.9766264562379
 30
0.0
 40
1.0
100
AcDbArc
 50
207.3347309689232
 51
312.1084455786924
  0
ARC
  5
780
102
{ACAD_REACTORS
330
15E7
102
}
330
17
100
AcDbEntity
  8
STEMPEL
100
AcDbCircle
 10
438.6525540232305
 20
298.3800569215314
 30
0.0
 40
2.499999999999997
100
AcDbArc
 50
24.36211970559212
 51
132.1084455786927
  0
ARC
  5
781
102
{ACAD_REACTORS
330
15E7
102
}
330
17
100
AcDbEntity
  8
STEMPEL
100
AcDbCircle
 10
437.1940171387613
 20
301.4358145793206
 30
0.0
 40
2.0
100
AcDbArc
 50
184.9999999999999
 51
207.3347309689232
  0
LINE
  5
782
102
{ACAD_REACTORS
330
15E7
102
}
330
17
100
AcDbEntity
  8
STEMPEL
100
AcDbLine
 10
441.2968545404342
 20
297.9197537875803
 30
0.0
 11
439.8048754647001
 21
306.3811875950407
 31
0.0
  0
ARC
  5
783
102
{ACAD_REACTORS
330
153F
102
}
330
17
100
AcDbEntity
  8
STEMPEL
100
AcDbCircle
 10
448.175741365304
 20
307.8571971052097
 30
0.0
 40
3.5
100
AcDbArc
 50
89.99999999999998
 51
190.0
  0
LINE
  5
784
102
{ACAD_REACTORS
330
153F
102
}
330
17
100
AcDbEntity
  8
STEMPEL
100
AcDbLine
 10
444.2968545404341
 20
298.182219778158
 30
0.0
 11
442.7592987237367
 21
306.9021321280416
 31
0.0
  0
LINE
  5
785
102
{ACAD_REACTORS
330
153F
102
}
330
17
100
AcDbEntity
  8
STEMPEL
100
AcDbLine
 10
446.2968545404342
 20
298.3571971052097
 30
0.0
 11
444.7289142297613
 21
307.2494284833756
 31
0.0
  0
LINE
  5
786
102
{ACAD_REACTORS
330
155A
330
16A1
102
}
330
17
100
AcDbEntity
  8
STEMPEL
100
AcDbLine
 10
433.2968545404342
 20
403.3179971288113
 30
0.0
 11
435.0705836350257
 21
402.3939380944421
 31
0.0
  0
ARC
  5
787
102
{ACAD_REACTORS
330
16A1
102
}
330
17
100
AcDbEntity
  8
SCHRAFF
100
AcDbCircle
 10
433.2968545404342
 20
403.3179971288113
 30
0.0
 40
4.0
100
AcDbArc
 50
272.4818537301952
 51
24.80181869606506
  0
ARC
  5
788
102
{ACAD_REACTORS
330
155A
102
}
330
17
100
AcDbEntity
  8
STEMPEL
100
AcDbCircle
 10
439.2142897121416
 20
376.9725230246365
 30
0.0
 40
17.42589582896453
100
AcDbArc
 50
151.0363169455769
 51
178.2145006447546
  0
ARC
  5
789
102
{ACAD_REACTORS
330
155A
102
}
330
17
100
AcDbEntity
  8
STEMPEL
100
AcDbCircle
 10
439.2153087932347
 20
376.9714024968564
 30
0.0
 40
15.42805065682075
100
AcDbArc
 50
150.8471375947889
 51
177.9790346009389
  0
LINE
  5
78A
330
17
100
AcDbEntity
  8
STEMPEL
100
AcDbLine
 10
423.7968545404341
 20
403.1884698998664
 30
0.0
 11
431.8630978106934
 21
403.1884698998664
 31
0.0
  0
LINE
  5
78B
102
{ACAD_REACTORS
330
155A
330
16A1
102
}
330
17
100
AcDbEntity
  8
STEMPEL
100
AcDbLine
 10
425.7416350417133
 20
384.4870437008387
 30
0.0
 11
435.0705836350257
 21
402.3939380944421
 31
0.0
  0
LINE
  5
78C
102
{ACAD_REACTORS
330
155A
102
}
330
17
100
AcDbEntity
  8
STEMPEL
100
AcDbLine
 10
423.9679059471218
 20
385.411102735208
 30
0.0
 11
433.2968545404342
 21
403.3179971288113
 31
0.0
  0
ARC
  5
7A5
330
17
100
AcDbEntity
  8
STEMPEL
100
AcDbCircle
 10
282.3044942155211
 20
437.4343809111201
 30
0.0
 40
2.0
100
AcDbArc
 50
90.0
 51
175.0
  0
ARC
  5
7A6
330
17
100
AcDbEntity
  8
STEMPEL
100
AcDbCircle
 10
284.2893055571403
 20
437.4343809111201
 30
0.0
 40
2.0
100
AcDbArc
 50
5.000000000001365
 51
90.0
  0
ARC
  5
7A9
330
17
100
AcDbEntity
  8
STEMPEL
100
AcDbCircle
 10
266.4179677155644
 20
433.6884698998665
 30
0.0
 40
8.5
100
AcDbArc
 50
349.9999999999999
 51
90.00000000000003
  0
ARC
  5
7AA
330
17
100
AcDbEntity
  8
STEMPEL
100
AcDbCircle
 10
266.4179677155644
 20
433.6884698998665
 30
0.0
 40
5.5
100
AcDbArc
 50
350.0000000000002
 51
90.00000000000003
  0
LINE
  5
7AB
102
{ACAD_REACTORS
330
1578
102
}
330
17
100
AcDbEntity
  8
STEMPEL
100
AcDbLine
 10
282.2968545404342
 20
437.4343809111201
 30
0.0
 11
284.2968545404342
 21
437.4343809111201
 31
0.0
  0
LINE
  5
7AC
102
{ACAD_REACTORS
330
1578
102
}
330
17
100
AcDbEntity
  8
STEMPEL
100
AcDbLine
 10
282.2968545404346
 20
414.4343809111201
 30
0.0
 11
284.2968545404346
 21
414.4343809111201
 31
0.0
  0
LINE
  5
7AD
330
17
100
AcDbEntity
  8
STEMPEL
100
AcDbLine
 10
280.2968545404333
 20
409.4343809111201
 30
0.0
 11
290.796854540434
 21
409.4343809111203
 31
0.0
  0
LINE
  5
7AE
330
17
100
AcDbEntity
  8
STEMPEL
100
AcDbLine
 10
279.0701962818048
 20
406.4343809111201
 30
0.0
 11
290.796854540434
 21
406.4343809111203
 31
0.0
  0
LINE
  5
7AF
330
17
100
AcDbEntity
  8
STEMPEL
100
AcDbLine
 10
282.7306112701749
 20
405.1884698998665
 30
0.0
 11
290.796854540434
 21
405.1884698998665
 31
0.0
  0
ARC
  5
7B0
330
17
100
AcDbEntity
  8
STEMPEL
100
AcDbCircle
 10
277.399691942107
 20
427.2670873739776
 30
0.0
 40
2.0
100
AcDbArc
 50
332.6652690310767
 51
354.9999999999999
  0
ARC
  5
7B1
330
17
100
AcDbEntity
  8
STEMPEL
100
AcDbCircle
 10
278.2880309920311
 20
426.8078992508949
 30
0.0
 40
1.0
100
AcDbArc
 50
227.8915544213075
 51
332.6652690310767
  0
ARC
  5
7B2
330
17
100
AcDbEntity
  8
STEMPEL
100
AcDbCircle
 10
282.7306112701749
 20
411.1884698998665
 30
0.0
 40
3.0
100
AcDbArc
 50
210.0
 51
215.7815399860359
  0
LINE
  5
7B3
330
17
100
AcDbEntity
  8
STEMPEL
100
AcDbLine
 10
273.2968545404342
 20
423.751026582237
 30
0.0
 11
274.7888336161682
 21
432.2124603896977
 31
0.0
  0
LINE
  5
7B4
330
17
100
AcDbEntity
  8
STEMPEL
100
AcDbLine
 10
273.2968545404342
 20
423.751026582237
 30
0.0
 11
273.2968545404342
 21
421.5282158620221
 31
0.0
  0
LINE
  5
7B5
330
17
100
AcDbEntity
  8
STEMPEL
100
AcDbLine
 10
275.9411550576378
 20
426.7113297161881
 30
0.0
 11
279.32092420964
 21
426.7113297161881
 31
0.0
  0
ARC
  5
7B6
330
17
100
AcDbEntity
  8
STEMPEL
100
AcDbCircle
 10
275.9411550576378
 20
424.2113297161881
 30
0.0
 40
2.499999999999997
100
AcDbArc
 50
47.89155442130723
 51
155.6378802944081
  0
LINE
  5
7B7
330
17
100
AcDbEntity
  8
STEMPEL
100
AcDbLine
 10
273.2968545404342
 20
421.5282158620221
 30
0.0
 11
280.1325350588213
 21
409.6884698998665
 31
0.0
  0
LINE
  5
7B8
330
17
100
AcDbEntity
  8
STEMPEL
100
AcDbLine
 10
273.4935930798415
 20
424.8667862839961
 30
0.0
 11
273.6637636078676
 21
425.2425853510881
 31
0.0
  0
LINE
  5
7B9
330
17
100
AcDbEntity
  8
STEMPEL
100
AcDbLine
 10
280.3121048193375
 20
437.6086923966154
 30
0.0
 11
279.3920813382906
 21
427.0927758884822
 31
0.0
  0
LINE
  5
7BA
102
{ACAD_REACTORS
330
1578
102
}
330
17
100
AcDbEntity
  8
STEMPEL
100
AcDbLine
 10
282.2968545404346
 20
414.4343809111201
 30
0.0
 11
282.2968545404342
 21
437.4343809111201
 31
0.0
  0
LINE
  5
7BB
330
17
100
AcDbEntity
  8
STEMPEL
100
AcDbLine
 10
268.2968545404342
 20
424.1884698998664
 30
0.0
 11
269.864794851107
 21
433.0807012780324
 31
0.0
  0
LINE
  5
7BC
330
17
100
AcDbEntity
  8
STEMPEL
100
AcDbLine
 10
268.2968545404342
 20
424.1884698998664
 30
0.0
 11
268.2968545404342
 21
420.1884698998664
 31
0.0
  0
LINE
  5
7BD
330
17
100
AcDbEntity
  8
STEMPEL
100
AcDbLine
 10
270.2968545404342
 20
424.0134925728147
 30
0.0
 11
271.8344103571317
 21
432.7334049226983
 31
0.0
  0
LINE
  5
7BE
330
17
100
AcDbEntity
  8
STEMPEL
100
AcDbLine
 10
270.2968545404342
 20
424.0134925728147
 30
0.0
 11
270.2968545404342
 21
420.7243682847288
 31
0.0
  0
ARC
  5
7BF
330
17
100
AcDbEntity
  8
STEMPEL
100
AcDbCircle
 10
266.4179677155644
 20
433.6884698998665
 30
0.0
 40
3.5
100
AcDbArc
 50
350.0
 51
90.0
  0
LINE
  5
7C0
330
17
100
AcDbEntity
  8
STEMPEL
100
AcDbLine
 10
268.2968545404342
 20
420.1884698998664
 30
0.0
 11
275.8024080398991
 21
407.1884698998665
 31
0.0
  0
LINE
  5
7C1
330
17
100
AcDbEntity
  8
STEMPEL
100
AcDbLine
 10
270.2968545404342
 20
420.7243682847288
 30
0.0
 11
277.5344588474681
 21
408.1884698998664
 31
0.0
  0
ARC
  5
7C2
330
17
100
AcDbEntity
  8
STEMPEL
100
AcDbCircle
 10
284.2893055571403
 20
437.4343809111201
 30
0.0
 40
2.0
100
AcDbArc
 50
4.999999999999892
 51
5.279407259939081
  0
ARC
  5
7C3
330
17
100
AcDbEntity
  8
STEMPEL
100
AcDbCircle
 10
287.2015467904471
 20
426.9343809111201
 30
0.0
 40
2.5
100
AcDbArc
 50
9.999999999999891
 51
90.0
  0
LINE
  5
7C4
330
17
100
AcDbEntity
  8
STEMPEL
100
AcDbLine
 10
287.2968545404342
 20
410.4343809111201
 30
0.0
 11
285.5648037328656
 21
409.4343809111201
 31
0.0
  0
LINE
  5
7C7
330
17
100
AcDbEntity
  8
STEMPEL
100
AcDbLine
 10
290.796854540434
 20
420.9413036405496
 30
0.0
 11
289.6635661729778
 21
427.3685013552874
 31
0.0
  0
LINE
  5
7C8
330
17
100
AcDbEntity
  8
STEMPEL
100
AcDbLine
 10
287.2968545404342
 20
410.4343809111201
 30
0.0
 11
290.796854540434
 21
410.4343809111201
 31
0.0
  0
LINE
  5
7C9
330
17
100
AcDbEntity
  8
STEMPEL
100
AcDbLine
 10
286.9968545404345
 20
429.4343809111201
 30
0.0
 11
287.2015467904471
 21
429.4343809111201
 31
0.0
  0
LINE
  5
7CA
330
17
100
AcDbEntity
  8
STEMPEL
100
AcDbLine
 10
286.9968545404345
 20
429.4343809111201
 30
0.0
 11
286.2816949533234
 21
437.6086923966155
 31
0.0
  0
LINE
  5
7CB
102
{ACAD_REACTORS
330
1578
102
}
330
17
100
AcDbEntity
  8
STEMPEL
100
AcDbLine
 10
284.2968545404346
 20
414.4343809111201
 30
0.0
 11
284.2968545404342
 21
437.4343809111201
 31
0.0
  0
LINE
  5
7CC
330
17
100
AcDbEntity
  8
STEMPEL
100
AcDbLine
 10
287.2968545404342
 20
409.4343809111201
 30
0.0
 11
287.2968545404342
 21
406.4343809111201
 31
0.0
  0
LINE
  5
7CD
330
17
100
AcDbEntity
  8
STEMPEL
100
AcDbLine
 10
282.3044942155211
 20
439.4343809111201
 30
0.0
 11
290.7968545404342
 21
439.4343809111202
 31
0.0
  0
ARC
  5
805
330
17
100
AcDbEntity
  8
STEMPEL
100
AcDbCircle
 10
432.2892148653477
 20
437.4343809111201
 30
0.0
 40
2.0
100
AcDbArc
 50
4.999999999999969
 51
90.0
  0
ARC
  5
806
330
17
100
AcDbEntity
  8
STEMPEL
100
AcDbCircle
 10
448.175741365304
 20
433.6884698998665
 30
0.0
 40
5.5
100
AcDbArc
 50
89.99999999999998
 51
189.9999999999998
  0
ARC
  5
807
330
17
100
AcDbEntity
  8
STEMPEL
100
AcDbCircle
 10
448.175741365304
 20
433.6884698998665
 30
0.0
 40
8.5
100
AcDbArc
 50
89.99999999999998
 51
190.0000000000004
  0
ARC
  5
808
330
17
100
AcDbEntity
  8
STEMPEL
100
AcDbCircle
 10
430.3044035237284
 20
437.4343809111201
 30
0.0
 40
2.0
100
AcDbArc
 50
90.0
 51
175.0000000000002
  0
LINE
  5
80C
330
17
100
AcDbEntity
  8
STEMPEL
100
AcDbLine
 10
444.2968545404341
 20
420.7243682847288
 30
0.0
 11
437.0592502334002
 21
408.1884698998664
 31
0.0
  0
LINE
  5
80D
330
17
100
AcDbEntity
  8
STEMPEL
100
AcDbLine
 10
446.2968545404342
 20
420.1884698998664
 30
0.0
 11
438.7913010409692
 21
407.1884698998665
 31
0.0
  0
LINE
  5
80E
330
17
100
AcDbEntity
  8
STEMPEL
100
AcDbLine
 10
441.2968545404342
 20
423.751026582237
 30
0.0
 11
439.8048754647001
 21
432.2124603896972
 31
0.0
  0
LINE
  5
80F
330
17
100
AcDbEntity
  8
STEMPEL
100
AcDbLine
 10
441.2968545404342
 20
421.5282158620225
 30
0.0
 11
434.4611740220471
 21
409.6884698998665
 31
0.0
  0
LINE
  5
810
330
17
100
AcDbEntity
  8
STEMPEL
100
AcDbLine
 10
438.6525540232305
 20
426.7113297161881
 30
0.0
 11
435.2727848712284
 21
426.7113297161881
 31
0.0
  0
ARC
  5
811
330
17
100
AcDbEntity
  8
STEMPEL
100
AcDbCircle
 10
436.3056780888373
 20
426.8078992508945
 30
0.0
 40
1.0
100
AcDbArc
 50
207.3347309689232
 51
312.1084455786924
  0
ARC
  5
812
330
17
100
AcDbEntity
  8
STEMPEL
100
AcDbCircle
 10
438.6525540232305
 20
424.2113297161881
 30
0.0
 40
2.499999999999997
100
AcDbArc
 50
24.36211970559212
 51
132.1084455786927
  0
LINE
  5
813
330
17
100
AcDbEntity
  8
STEMPEL
100
AcDbLine
 10
441.1001160010268
 20
424.8667862839957
 30
0.0
 11
440.9299454730008
 21
425.2425853510881
 31
0.0
  0
ARC
  5
814
330
17
100
AcDbEntity
  8
STEMPEL
100
AcDbCircle
 10
431.8630978106934
 20
411.1884698998665
 30
0.0
 40
3.0
100
AcDbArc
 50
324.2184600139409
 51
330.0000000000001
  0
ARC
  5
815
330
17
100
AcDbEntity
  8
STEMPEL
100
AcDbCircle
 10
437.1940171387613
 20
427.267087373977
 30
0.0
 40
2.0
100
AcDbArc
 50
184.9999999999999
 51
207.3347309689232
  0
LINE
  5
816
102
{ACAD_REACTORS
330
1578
102
}
330
17
100
AcDbEntity
  8
STEMPEL
100
AcDbLine
 10
432.2968545404342
 20
414.4343809111201
 30
0.0
 11
432.2968545404342
 21
437.4343809111201
 31
0.0
  0
LINE
  5
817
330
17
100
AcDbEntity
  8
STEMPEL
100
AcDbLine
 10
434.2816042615313
 20
437.6086923966154
 30
0.0
 11
435.2016277425782
 21
427.0927758884822
 31
0.0
  0
LINE
  5
818
330
17
100
AcDbEntity
  8
STEMPEL
100
AcDbLine
 10
441.2968545404342
 20
423.751026582237
 30
0.0
 11
441.2968545404342
 21
421.5282158620225
 31
0.0
  0
ARC
  5
819
330
17
100
AcDbEntity
  8
STEMPEL
100
AcDbCircle
 10
430.3044035237284
 20
437.4343809111201
 30
0.0
 40
2.0
100
AcDbArc
 50
174.7205927399825
 51
175.0000000000001
  0
LINE
  5
81D
330
17
100
AcDbEntity
  8
STEMPEL
100
AcDbLine
 10
427.2968545404341
 20
410.4343809111201
 30
0.0
 11
429.0289053480032
 21
409.4343809111201
 31
0.0
  0
LINE
  5
81E
330
17
100
AcDbEntity
  8
STEMPEL
100
AcDbLine
 10
423.7968545404341
 20
410.4343809111201
 30
0.0
 11
427.2968545404341
 21
410.4343809111201
 31
0.0
  0
LINE
  5
81F
330
17
100
AcDbEntity
  8
STEMPEL
100
AcDbLine
 10
423.7968545404341
 20
420.941303640546
 30
0.0
 11
424.930142907891
 21
427.3685013552874
 31
0.0
  0
ARC
  5
820
330
17
100
AcDbEntity
  8
STEMPEL
100
AcDbCircle
 10
427.3921622904213
 20
426.9343809111201
 30
0.0
 40
2.5
100
AcDbArc
 50
85.32030851368308
 51
170.0000000000001
  0
LINE
  5
821
102
{ACAD_REACTORS
330
1578
102
}
330
17
100
AcDbEntity
  8
STEMPEL
100
AcDbLine
 10
430.2968545404342
 20
414.4343809111201
 30
0.0
 11
430.2968545404342
 21
437.4343809111201
 31
0.0
  0
LINE
  5
822
330
17
100
AcDbEntity
  8
STEMPEL
100
AcDbLine
 10
427.5961254027715
 20
429.4260468294988
 30
0.0
 11
428.3120141275448
 21
437.6086923966154
 31
0.0
  0
LINE
  5
823
102
{ACAD_REACTORS
330
1578
102
}
330
17
100
AcDbEntity
  8
STEMPEL
100
AcDbLine
 10
432.2968545404342
 20
437.4343809111201
 30
0.0
 11
430.2968545404342
 21
437.4343809111201
 31
0.0
  0
LINE
  5
824
102
{ACAD_REACTORS
330
1578
102
}
330
17
100
AcDbEntity
  8
STEMPEL
100
AcDbLine
 10
432.2968545404342
 20
414.4343809111201
 30
0.0
 11
430.2968545404342
 21
414.4343809111201
 31
0.0
  0
LINE
  5
825
330
17
100
AcDbEntity
  8
STEMPEL
100
AcDbLine
 10
423.7968545404341
 20
409.4343809111201
 30
0.0
 11
434.2968545404328
 21
409.4343809111201
 31
0.0
  0
POINT
  5
826
330
17
100
AcDbEntity
  8
DEFPOINTS
  6
ByBlock
 62
     0
100
AcDbPoint
 10
437.4163859839946
 20
405.4299118803387
 30
0.0
  0
POINT
  5
827
330
17
100
AcDbEntity
  8
DEFPOINTS
  6
ByBlock
 62
     0
100
AcDbPoint
 10
437.4163859839946
 20
405.4299118803383
 30
0.0
  0
POINT
  5
828
330
17
100
AcDbEntity
  8
DEFPOINTS
  6
ByBlock
 62
     0
100
AcDbPoint
 10
437.4163859839946
 20
405.4299118803383
 30
0.0
  0
LINE
  5
829
330
17
100
AcDbEntity
  8
STEMPEL
100
AcDbLine
 10
423.7968545404341
 20
405.1884698998665
 30
0.0
 11
431.8630978106934
 21
405.1884698998665
 31
0.0
  0
LINE
  5
82A
330
17
100
AcDbEntity
  8
STEMPEL
100
AcDbLine
 10
423.7968545404341
 20
406.4343809111203
 30
0.0
 11
435.5235127990622
 21
406.4343809111201
 31
0.0
  0
LINE
  5
82B
330
17
100
AcDbEntity
  8
STEMPEL
100
AcDbLine
 10
427.2968545404341
 20
409.4343809111201
 30
0.0
 11
427.2968545404341
 21
406.4343809111201
 31
0.0
  0
LINE
  5
82C
330
17
100
AcDbEntity
  8
STEMPEL
100
AcDbLine
 10
444.2968545404341
 20
424.0134925728147
 30
0.0
 11
442.7592987237367
 21
432.7334049226983
 31
0.0
  0
LINE
  5
82D
330
17
100
AcDbEntity
  8
STEMPEL
100
AcDbLine
 10
446.2968545404342
 20
424.1884698998664
 30
0.0
 11
444.7289142297613
 21
433.0807012780324
 31
0.0
  0
LINE
  5
82E
330
17
100
AcDbEntity
  8
STEMPEL
100
AcDbLine
 10
444.2968545404341
 20
424.0134925728147
 30
0.0
 11
444.2968545404341
 21
420.7243682847288
 31
0.0
  0
LINE
  5
82F
330
17
100
AcDbEntity
  8
STEMPEL
100
AcDbLine
 10
446.2968545404342
 20
424.1884698998664
 30
0.0
 11
446.2968545404342
 21
420.1884698998664
 31
0.0
  0
ARC
  5
830
330
17
100
AcDbEntity
  8
STEMPEL
100
AcDbCircle
 10
448.175741365304
 20
433.6884698998665
 30
0.0
 40
3.5
100
AcDbArc
 50
89.99999999999998
 51
190.0
  0
LINE
  5
83B
330
17
100
AcDbEntity
  8
STEMPEL
100
AcDbLine
 10
349.5763646894564
 20
439.4343809111193
 30
0.0
 11
365.0173443914121
 21
439.4343809111195
 31
0.0
  0
LINE
  5
867
330
17
100
AcDbEntity
  8
BEM
 62
     1
100
AcDbLine
 10
343.1733476671547
 20
580.3769838913419
 30
0.0
 11
350.1733476671548
 21
580.3769838913419
 31
0.0
  0
LINE
  5
869
330
17
100
AcDbEntity
  8
BEM
 62
     1
100
AcDbLine
 10
350.1733476671548
 20
580.3769838913419
 30
0.0
 11
350.1733476671548
 21
573.376983891342
 31
0.0
  0
LINE
  5
877
102
{ACAD_REACTORS
330
153F
102
}
330
17
100
AcDbEntity
  8
STEMPEL
100
AcDbLine
 10
522.2968545404341
 20
313.3571971052097
 30
0.0
 11
522.2968545404341
 21
311.3571971052097
 31
0.0
  0
LINE
  5
878
330
17
100
AcDbEntity
  8
STEMPEL
100
AcDbLine
 10
607.2968545404342
 20
316.3571971052097
 30
0.0
 11
607.2968545404342
 21
313.3571971052097
 31
0.0
  0
LINE
  5
879
330
17
100
AcDbEntity
  8
STEMPEL
100
AcDbLine
 10
522.2968545404341
 20
439.1884698998665
 30
0.0
 11
522.2968545404341
 21
437.1884698998664
 31
0.0
  0
LINE
  5
87B
330
17
100
AcDbEntity
  8
STEMPEL
100
AcDbLine
 10
607.2968545404342
 20
442.1884698998665
 30
0.0
 11
607.2968545404342
 21
439.1884698998665
 31
0.0
  0
TEXT
  5
8F0
330
17
100
AcDbEntity
  8
TEXT
 62
     1
100
AcDbText
 10
654.979117340995
 20
86.03758247564133
 30
0.0
 40
7.0
  1
Flachdachablauf DN125
 41
0.75
100
AcDbText
  0
LINE
  5
8F1
330
17
100
AcDbEntity
  8
STEMPEL
100
AcDbLine
 10
830.0
 20
110.0
 30
0.0
 11
470.0
 21
110.0
 31
0.0
  0
LINE
  5
8F2
330
17
100
AcDbEntity
  8
STEMPEL
100
AcDbLine
 10
470.0
 20
110.0
 30
0.0
 11
469.9999999999999
 21
10.0
 31
0.0
  0
LINE
  5
8F3
330
17
100
AcDbEntity
  8
STEMPEL
100
AcDbLine
 10
566.0000000000001
 20
109.9999999999999
 30
0.0
 11
565.9999999999999
 21
9.999999999999886
 31
0.0
  0
LINE
  5
8F4
330
17
100
AcDbEntity
  8
STEMPEL
100
AcDbLine
 10
649.9999999999999
 20
110.0
 30
0.0
 11
649.9999999999999
 21
10.0
 31
0.0
  0
LINE
  5
8F5
330
17
100
AcDbEntity
  8
STEMPEL
100
AcDbLine
 10
752.0000000000001
 20
109.9999999999996
 30
0.0
 11
752.0000000000001
 21
40.0
 31
0.0
  0
LINE
  5
8F6
330
17
100
AcDbEntity
  8
STEMPEL
100
AcDbLine
 10
565.9999999999999
 20
30.0
 30
0.0
 11
469.9999999999999
 21
30.0
 31
0.0
  0
LINE
  5
8F7
330
17
100
AcDbEntity
  8
STEMPEL
100
AcDbLine
 10
830.0
 20
40.0
 30
0.0
 11
565.9999999999999
 21
40.0
 31
0.0
  0
LINE
  5
8F8
330
17
100
AcDbEntity
  8
STEMPEL
100
AcDbLine
 10
830.0
 20
80.0
 30
0.0
 11
566.0000000000001
 21
80.0
 31
0.0
  0
LINE
  5
8F9
330
17
100
AcDbEntity
  8
VOLL
100
AcDbLine
 10
484.0
 20
110.0
 30
0.0
 11
483.9999999999998
 21
10.0
 31
0.0
  0
LINE
  5
8FA
330
17
100
AcDbEntity
  8
VOLL
100
AcDbLine
 10
524.0000000000001
 20
109.9999999999999
 30
0.0
 11
523.9999999999999
 21
9.999999999999943
 31
0.0
  0
LINE
  5
8FB
330
17
100
AcDbEntity
  8
VOLL
100
AcDbLine
 10
544.0000000000001
 20
109.9999999999999
 30
0.0
 11
543.9999999999998
 21
9.999999999999886
 31
0.0
  0
LINE
  5
8FC
330
17
100
AcDbEntity
  8
VOLL
100
AcDbLine
 10
584.0000000000001
 20
80.0
 30
0.0
 11
584.0000000000001
 21
40.0
 31
0.0
  0
LINE
  5
8FD
330
17
100
AcDbEntity
  8
VOLL
100
AcDbLine
 10
610.0000000000001
 20
109.9999999999998
 30
0.0
 11
609.9999999999998
 21
40.0
 31
0.0
  0
LINE
  5
8FE
330
17
100
AcDbEntity
  8
HILF
100
AcDbLine
 10
470.0
 20
100.0
 30
0.0
 11
566.0000000000001
 21
100.0
 31
0.0
  0
LINE
  5
8FF
330
17
100
AcDbEntity
  8
HILF
100
AcDbLine
 10
470.0
 20
90.0
 30
0.0
 11
566.0000000000001
 21
90.0
 31
0.0
  0
LINE
  5
900
330
17
100
AcDbEntity
  8
HILF
100
AcDbLine
 10
470.0
 20
80.0
 30
0.0
 11
566.0000000000001
 21
80.0
 31
0.0
  0
LINE
  5
901
330
17
100
AcDbEntity
  8
HILF
100
AcDbLine
 10
470.0
 20
70.0
 30
0.0
 11
566.0000000000001
 21
70.0
 31
0.0
  0
LINE
  5
902
330
17
100
AcDbEntity
  8
HILF
100
AcDbLine
 10
470.0
 20
60.0
 30
0.0
 11
566.0000000000001
 21
60.0
 31
0.0
  0
LINE
  5
903
330
17
100
AcDbEntity
  8
HILF
100
AcDbLine
 10
470.0
 20
50.0
 30
0.0
 11
566.0000000000001
 21
50.0
 31
0.0
  0
LINE
  5
904
330
17
100
AcDbEntity
  8
HILF
100
AcDbLine
 10
470.0
 20
40.0
 30
0.0
 11
566.0000000000001
 21
40.0
 31
0.0
  0
LINE
  5
905
330
17
100
AcDbEntity
  8
HILF
100
AcDbLine
 10
566.0000000000001
 20
70.0
 30
0.0
 11
649.9999999999999
 21
70.0
 31
0.0
  0
LINE
  5
906
330
17
100
AcDbEntity
  8
HILF
100
AcDbLine
 10
566.0000000000001
 20
60.0
 30
0.0
 11
649.9999999999999
 21
60.0
 31
0.0
  0
LINE
  5
907
330
17
100
AcDbEntity
  8
HILF
100
AcDbLine
 10
566.0000000000001
 20
50.0
 30
0.0
 11
649.9999999999999
 21
50.0
 31
0.0
  0
LINE
  5
908
330
17
100
AcDbEntity
  8
HILF
100
AcDbLine
 10
654.7736801096947
 20
84.03758247564132
 30
0.0
 11
746.629784251481
 21
84.03758247564132
 31
0.0
  0
LINE
  5
909
330
17
100
AcDbEntity
  8
HILF
100
AcDbLine
 10
654.7736801096947
 20
70.0
 30
0.0
 11
746.629784251481
 21
70.0
 31
0.0
  0
LINE
  5
90A
330
17
100
AcDbEntity
  8
HILF
100
AcDbLine
 10
654.7736801096947
 20
60.0
 30
0.0
 11
746.629784251481
 21
60.0
 31
0.0
  0
LINE
  5
90B
330
17
100
AcDbEntity
  8
HILF
100
AcDbLine
 10
654.7736801096947
 20
50.0
 30
0.0
 11
746.629784251481
 21
50.0
 31
0.0
  0
LINE
  5
90C
330
17
100
AcDbEntity
  8
VOLL
100
AcDbLine
 10
752.0000000000001
 20
60.0
 30
0.0
 11
830.0
 21
60.0
 31
0.0
  0
LINE
  5
90D
330
17
100
AcDbEntity
  8
HILF
100
AcDbLine
 10
756.7238616296994
 20
83.77983636955821
 30
0.0
 11
824.8588839326728
 21
83.77983636955821
 31
0.0
  0
LINE
  5
90E
330
17
100
AcDbEntity
  8
HILF
100
AcDbLine
 10
654.7736801096947
 20
14.89398258028302
 30
0.0
 11
824.8588839326728
 21
14.89398258028302
 31
0.0
  0
TEXT
  5
90F
330
17
100
AcDbEntity
  8
TEXT
100
AcDbText
 10
493.2571428571428
 20
20.0
 30
0.0
 40
4.0
  1
Änderung
 41
0.8
 72
     1
 11
503.9999999999999
 21
20.0
 31
0.0
100
AcDbText
  0
TEXT
  5
910
330
17
100
AcDbEntity
  8
TEXT
100
AcDbText
 10
654.8779403809009
 20
102.5489328011779
 30
0.0
 40
5.0
  1
Benennung
 41
0.8
100
AcDbText
  0
TEXT
  5
911
330
17
100
AcDbEntity
  8
TEXT
100
AcDbText
 10
756.1787549576341
 20
102.3132034537135
 30
0.0
 40
5.0
  1
Zeichnungs Nr.
 41
0.8
100
AcDbText
  0
TEXT
  5
912
330
17
100
AcDbEntity
  8
TEXT
100
AcDbText
 10
654.7422383911358
 20
30.84560570193054
 30
0.0
 40
5.0
  1
Bauvorhaben
 41
0.8
100
AcDbText
  0
TEXT
  5
913
330
17
100
AcDbEntity
  8
TEXT
100
AcDbText
 10
756.7238616296994
 20
73.18118237099963
 30
0.0
 40
5.0
  1
Ersatz für:
 41
0.8
100
AcDbText
  0
TEXT
  5
914
330
17
100
AcDbEntity
  8
TEXT
100
AcDbText
 10
478.2664110704574
 20
13.65465846027189
 30
0.0
 40
4.0
  1
Index
 50
90.0
 41
0.8
100
AcDbText
  0
TEXT
  5
915
330
17
100
AcDbEntity
  8
TEXT
100
AcDbText
 10
530.2666666666666
 20
20.0
 30
0.0
 40
4.0
  1
Tag
 41
0.8
 72
     1
 11
534.0
 21
20.0
 31
0.0
100
AcDbText
  0
TEXT
  5
916
330
17
100
AcDbEntity
  8
TEXT
100
AcDbText
 10
548.6761904761904
 20
20.0
 30
0.0
 40
4.0
  1
Name
 41
0.8
 72
     1
 11
554.9999999999998
 21
20.0
 31
0.0
100
AcDbText
  0
TEXT
  5
917
330
17
100
AcDbEntity
  8
TEXT
100
AcDbText
 10
567.5836127167614
 20
63.62990369617961
 30
0.0
 40
4.0
  1
Gez.
 41
0.8
100
AcDbText
  0
TEXT
  5
918
330
17
100
AcDbEntity
  8
TEXT
100
AcDbText
 10
567.5515086571671
 20
53.68926291428374
 30
0.0
 40
4.0
  1
Gepr.
 41
0.8
100
AcDbText
  0
TEXT
  5
919
330
17
100
AcDbEntity
  8
TEXT
100
AcDbText
 10
567.6006777387303
 20
43.52946389649804
 30
0.0
 40
4.0
  1
Norm.
 41
0.8
100
AcDbText
  0
TEXT
  5
91A
330
17
100
AcDbEntity
  8
TEXT
100
AcDbText
 10
757.2400861497007
 20
52.07416177878599
 30
0.0
 40
5.0
  1
ersetzt durch:
 41
0.8
100
AcDbText
  0
LINE
  5
91B
330
17
100
AcDbEntity
  8
HILF
100
AcDbLine
 10
0.0
 20
0.0
 30
0.0
 11
840.0000000000002
 21
0.0
 31
0.0
  0
LINE
  5
91C
330
17
100
AcDbEntity
  8
HILF
100
AcDbLine
 10
840.0000000000002
 20
0.0
 30
0.0
 11
840.0000000000002
 21
594.0
 31
0.0
  0
LINE
  5
91D
330
17
100
AcDbEntity
  8
HILF
100
AcDbLine
 10
840.0000000000002
 20
594.0
 30
0.0
 11
0.0
 21
594.0
 31
0.0
  0
LINE
  5
91E
330
17
100
AcDbEntity
  8
HILF
100
AcDbLine
 10
0.0
 20
594.0
 30
0.0
 11
0.0
 21
0.0
 31
0.0
  0
LINE
  5
91F
330
17
100
AcDbEntity
  8
STEMPEL
100
AcDbLine
 10
830.0
 20
584.0
 30
0.0
 11
40.0
 21
584.0
 31
0.0
  0
LINE
  5
920
330
17
100
AcDbEntity
  8
STEMPEL
100
AcDbLine
 10
40.0
 20
10.0
 30
0.0
 11
830.0
 21
10.0
 31
0.0
  0
LINE
  5
921
330
17
100
AcDbEntity
  8
STEMPEL
100
AcDbLine
 10
830.0
 20
10.0
 30
0.0
 11
830.0
 21
584.0
 31
0.0
  0
LINE
  5
922
330
17
100
AcDbEntity
  8
STEMPEL
100
AcDbLine
 10
40.0
 20
584.0
 30
0.0
 11
40.0
 21
10.0
 31
0.0
  0
TEXT
  5
923
330
17
100
AcDbEntity
  8
TEXT
100
AcDbText
 10
654.862987254257
 20
72.0
 30
0.0
 40
5.0
  1
Kompletteinheit, zweiteilig mit
 41
0.8
100
AcDbText
  0
TEXT
  5
924
330
17
100
AcDbEntity
  8
TEXT
100
AcDbText
 10
655.162303158329
 20
52.0
 30
0.0
 40
5.0
  1
EDV-Art.Nr. 17144.125A
 41
0.8
100
AcDbText
  0
TEXT
  5
925
330
17
100
AcDbEntity
  8
TEXT
100
AcDbText
 10
836.4132055378062
 20
10.5537806176784
 30
0.0
 40
4.0
  1
Diese Zeichnung ist urheberrechtlich geschützt und bleibt unser Eigentum. Sie darf weder ganz noch teilweise vervielfältigt und nicht an Dritte weitergegeben werden.
 50
90.0
 41
0.8
100
AcDbText
  0
TEXT
  5
926
330
17
100
AcDbEntity
  8
TEXT
 62
     1
100
AcDbText
 10
767.971106150903
 20
87.62172116968157
 30
0.0
 40
7.0
  1
17144125W
 41
0.8
 72
     1
 11
790.3711061509031
 21
87.62172116968157
 31
0.0
100
AcDbText
  0
TEXT
  5
928
330
17
100
AcDbEntity
  8
TEXT
100
AcDbText
 10
654.9713400534564
 20
42.0
 30
0.0
 40
4.0
  1
17144.125A.DWG
 41
0.8
100
AcDbText
  0
INSERT
  5
929
330
17
100
AcDbEntity
  8
STEMPEL
100
AcDbBlockReference
  2
LOGO
 10
568.9705276546529
 20
44.32391971867144
 30
0.0
 41
2.0
 42
2.0
 43
2.0
  0
LINE
  5
92A
330
17
100
AcDbEntity
  8
0
100
AcDbLine
 10
460.0000000000001
 20
0.0
 30
0.0
 11
460.0000000000001
 21
10.0
 31
0.0
  0
LINE
  5
92B
330
17
100
AcDbEntity
  8
0
100
AcDbLine
 10
460.0000000000001
 20
584.0
 30
0.0
 11
460.0000000000001
 21
594.0
 31
0.0
  0
TEXT
  5
92D
330
17
100
AcDbEntity
  8
TEXT
100
AcDbText
 10
576.1904761904762
 20
102.5489328011779
 30
0.0
 40
5.0
  1
Maßstab
 41
0.8
 72
     1
 11
588.0000000000001
 21
102.5489328011779
 31
0.0
100
AcDbText
  0
TEXT
  5
92E
330
17
100
AcDbEntity
  8
TEXT
100
AcDbText
 10
616.5714285714285
 20
102.5489328011779
 30
0.0
 40
5.0
  1
Zul. Abw.
 41
0.8
 72
     1
 11
630.0
 21
102.5489328011779
 31
0.0
100
AcDbText
  0
TEXT
  5
92F
330
17
100
AcDbEntity
  8
TEXT
100
AcDbText
 10
613.0095238095237
 20
87.97451858821995
 30
0.0
 40
4.0
  1
DIN EN1123-2
 41
0.8
 72
     1
 11
630.0
 21
87.97451858821995
 31
0.0
100
AcDbText
  0
TEXT
  5
930
330
17
100
AcDbEntity
  8
TEXT
 62
     1
100
AcDbText
 10
582.0000000000001
 20
89.75465154814319
 30
0.0
 40
7.0
  1
1:2
 41
0.8
 72
     1
 11
588.0000000000001
 21
89.75465154814319
 31
0.0
100
AcDbText
  0
TEXT
  5
931
330
17
100
AcDbEntity
  8
TEXT
100
AcDbText
 10
569.6666666666666
 20
73.0
 30
0.0
 40
4.0
  1
2012
 41
0.8
 72
     4
 11
575.0
 21
75.0
 31
0.0
100
AcDbText
  0
TEXT
  5
932
330
17
100
AcDbEntity
  8
TEXT
100
AcDbText
 10
593.2666666666666
 20
73.66666666666667
 30
0.0
 40
4.0
  1
Tag
 41
0.8
 72
     4
 11
597.0
 21
75.0
 31
0.0
100
AcDbText
  0
TEXT
  5
933
330
17
100
AcDbEntity
  8
TEXT
100
AcDbText
 10
623.6761904761905
 20
73.0
 30
0.0
 40
4.0
  1
Name
 41
0.8
 72
     4
 11
630.0
 21
75.0
 31
0.0
100
AcDbText
  0
TEXT
  5
934
330
17
100
AcDbEntity
  8
TEXT
100
AcDbText
 10
589.9904761904762
 20
63.0
 30
0.0
 40
4.0
  1
29.06.
 41
0.8
 72
     4
 11
597.0
 21
65.0
 31
0.0
100
AcDbText
  0
TEXT
  5
935
330
17
100
AcDbEntity
  8
TEXT
100
AcDbText
 10
624.7428571428571
 20
63.0
 30
0.0
 40
4.0
  1
Koeh
 41
0.8
 72
     4
 11
630.0
 21
65.0
 31
0.0
100
AcDbText
  0
TEXT
  5
938
330
17
100
AcDbEntity
  8
TEXT
100
AcDbText
 10
474.253600926873
 20
113.5018238503442
 30
0.0
 40
5.0
  1
Erstellt mit AUTOCAD 2004
 41
0.8
100
AcDbText
  0
DIMENSION
  5
9E2
330
17
100
AcDbEntity
  8
BEM
100
AcDbDimension
  2
*D3
 10
107.2968545404342
 20
570.40791900718
 30
0.0
 11
357.2968545404342
 21
576.9079190071799
 31
0.0
 70
    32
  1
 <>
 71
     5
 42
500.0
  3
STANDARD
100
AcDbAlignedDimension
 13
607.2968545404342
 23
442.1884698998665
 33
0.0
 14
107.2968545404342
 24
442.1884698998665
 34
0.0
100
AcDbRotatedDimension
  0
LINE
  5
C85
102
{ACAD_REACTORS
330
CD4
102
}
330
17
100
AcDbEntity
  8
STEMPEL
100
AcDbLine
 10
423.7968545404341
 20
169.9867243341546
 30
0.0
 11
423.7968545404337
 21
48.26987521937986
 31
0.0
  0
LINE
  5
C86
102
{ACAD_REACTORS
330
CD4
102
}
330
17
100
AcDbEntity
  8
STEMPEL
100
AcDbLine
 10
421.7968545404337
 20
169.9867243341544
 30
0.0
 11
421.7968545404349
 21
48.35719710521004
 31
0.0
  0
LINE
  5
C89
102
{ACAD_REACTORS
330
CD4
102
}
330
17
100
AcDbEntity
  8
STEMPEL
100
AcDbLine
 10
292.7968545404342
 20
169.9867243341547
 30
0.0
 11
292.7968545404342
 21
48.35719710520959
 31
0.0
  0
LINE
  5
C8A
102
{ACAD_REACTORS
330
CD4
102
}
330
17
100
AcDbEntity
  8
STEMPEL
100
AcDbLine
 10
290.7968545404342
 20
169.9867243341547
 30
0.0
 11
290.7968545404342
 21
48.26987521939281
 31
0.0
  0
LINE
  5
C8B
102
{ACAD_REACTORS
330
CD4
102
}
330
17
100
AcDbEntity
  8
STEMPEL
100
AcDbLine
 10
292.1015448182363
 20
33.35719710520982
 30
0.0
 11
422.4921642626325
 21
33.35719710521005
 31
0.0
  0
LINE
  5
C8C
330
17
100
AcDbEntity
  8
HILF
100
AcDbLine
 10
294.8044942155209
 20
48.35719710520982
 30
0.0
 11
419.7892148653479
 21
48.35719710520994
 31
0.0
  0
DIMENSION
  5
C8D
330
17
100
AcDbEntity
  8
BEM
100
AcDbDimension
  2
*D4
 10
423.7968545404337
 20
18.10812614308986
 30
0.0
 11
357.296854540434
 21
24.60812614308987
 31
0.0
 70
    32
  1
%%c<>
 71
     5
 42
132.9999999999995
  3
STANDARD
100
AcDbAlignedDimension
 13
290.7968545404342
 23
48.26987521939281
 33
0.0
 14
423.7968545404337
 24
48.26987521937986
 34
0.0
100
AcDbRotatedDimension
1001
ACAD
1000
DSTYLE
1002
{
1070
    47
1040
1.199999999999999
1070
    48
1040
1.199999999999999
1002
}
  0
LINE
  5
C8E
102
{ACAD_REACTORS
330
CD4
102
}
330
17
100
AcDbEntity
  8
STEMPEL
100
AcDbLine
 10
290.7968545404342
 20
48.26987521939281
 30
0.0
 11
292.1015448182363
 21
33.35719710520982
 31
0.0
  0
LINE
  5
C8F
102
{ACAD_REACTORS
330
CD4
102
}
330
17
100
AcDbEntity
  8
STEMPEL
100
AcDbLine
 10
292.7968545404342
 20
48.35719710520959
 30
0.0
 11
294.109184493323
 21
33.35719710520982
 31
0.0
  0
LINE
  5
C90
102
{ACAD_REACTORS
330
CD4
102
}
330
17
100
AcDbEntity
  8
STEMPEL
100
AcDbLine
 10
423.7968545404337
 20
48.26987521937986
 30
0.0
 11
422.4921642626325
 21
33.35719710521005
 31
0.0
  0
LINE
  5
C91
102
{ACAD_REACTORS
330
CD4
102
}
330
17
100
AcDbEntity
  8
STEMPEL
100
AcDbLine
 10
421.7968545404349
 20
48.35719710521004
 30
0.0
 11
420.4845245875458
 21
33.35719710520982
 31
0.0
  0
HATCH
  5
C92
330
17
100
AcDbEntity
  8
SCHRAFF
100
AcDbHatch
 10
0.0
 20
0.0
 30
0.0
210
0.0
220
0.0
230
1.0
  2
_U
 70
     0
 71
     0
 91
        2
 92
        7
 72
     1
 73
     1
 93
        4
 10
278.4985830064989
 20
278.5682401326371
 42
0.4627052573130741
 10
280.6828377216152
 20
274.5502326610508
 42
0.0
 10
279.5648037328653
 20
276.4867243341546
 42
0.0
 10
281.2968545404345
 20
277.4867243341547
 42
-0.0945887848327672
 97
        0
 92
        7
 72
     1
 73
     1
 93
        4
 10
435.028905348003
 20
276.4867243341548
 42
0.0
 10
433.9108713592529
 20
274.5502326610508
 42
0.4627052573130904
 10
436.0951260743695
 20
278.5682401326371
 42
-0.0945887848327672
 10
433.2968545404339
 20
277.4867243341547
 42
0.0
 97
        0
 75
     0
 76
     0
 52
0.0
 41
0.1
 77
     0
 78
     1
 53
0.0
 43
0.0
 44
-9.372950032879771
 45
0.0
 46
0.1
 79
     0
 47
0.2282970371298439
 98
        2
 10
279.5843680274818
 20
277.6494961048545
 10
435.3866309213151
 20
277.1929024965041
  0
LINE
  5
C95
330
17
100
AcDbEntity
  8
HILF
100
AcDbLine
 10
294.2894120127171
 20
173.7218137383246
 30
0.0
 11
420.3042970681515
 21
173.7218137383245
 31
0.0
  0
LINE
  5
CA2
102
{ACAD_REACTORS
330
CD4
102
}
330
17
100
AcDbEntity
  8
STEMPEL
100
AcDbLine
 10
279.5648037328653
 20
276.4867243341546
 30
0.0
 11
283.4571085782786
 21
269.7450545833527
 31
0.0
  0
LINE
  5
CA3
102
{ACAD_REACTORS
330
CD4
102
}
330
17
100
AcDbEntity
  8
STEMPEL
100
AcDbLine
 10
281.2968545404342
 20
277.4867243341546
 30
0.0
 11
285.1891593858475
 21
270.7450545833524
 31
0.0
  0
ARC
  5
CA5
330
17
100
AcDbEntity
  8
SCHRAFF
100
AcDbCircle
 10
281.2968545404342
 20
277.4867243341546
 30
0.0
 40
3.0
100
AcDbArc
 50
158.8687706150007
 51
258.1896851042214
  0
LINE
  5
CA7
102
{ACAD_REACTORS
330
CD4
102
}
330
17
100
AcDbEntity
  8
STEMPEL
100
AcDbLine
 10
281.2968545404342
 20
277.4867243341546
 30
0.0
 11
279.5648037328653
 21
276.4867243341546
 31
0.0
  0
ARC
  5
CB4
102
{ACAD_REACTORS
330
CD4
102
}
330
17
100
AcDbEntity
  8
STEMPEL
100
AcDbCircle
 10
433.7968545404343
 20
169.9867243341546
 30
0.0
 40
12.0
100
AcDbArc
 50
141.7867892982626
 51
179.9999999999999
  0
ARC
  5
CB5
102
{ACAD_REACTORS
330
CD4
102
}
330
17
100
AcDbEntity
  8
STEMPEL
100
AcDbCircle
 10
433.7968545404343
 20
169.9867243341546
 30
0.0
 40
10.0
100
AcDbArc
 50
141.7867892982628
 51
179.9999999999999
  0
LINE
  5
CB6
102
{ACAD_REACTORS
330
CD4
102
}
330
17
100
AcDbEntity
  8
STEMPEL
100
AcDbLine
 10
433.2968545404342
 20
277.4867243341546
 30
0.0
 11
429.4045496950209
 21
270.7450545833523
 31
0.0
  0
LINE
  5
CB7
102
{ACAD_REACTORS
330
CD4
102
}
330
17
100
AcDbEntity
  8
STEMPEL
100
AcDbLine
 10
435.028905348003
 20
276.4867243341546
 30
0.0
 11
431.1366005025897
 21
269.7450545833526
 31
0.0
  0
ARC
  5
CB9
330
17
100
AcDbEntity
  8
SCHRAFF
100
AcDbCircle
 10
433.2968545404342
 20
277.4867243341546
 30
0.0
 40
3.0
100
AcDbArc
 50
281.8103148957785
 51
21.13122938499929
  0
LINE
  5
CBA
102
{ACAD_REACTORS
330
CD4
102
}
330
17
100
AcDbEntity
  8
STEMPEL
100
AcDbLine
 10
433.2968545404342
 20
277.4867243341546
 30
0.0
 11
435.028905348003
 21
276.4867243341546
 31
0.0
  0
LINE
  5
CC6
102
{ACAD_REACTORS
330
CD4
102
}
330
17
100
AcDbEntity
  8
STEMPEL
100
AcDbLine
 10
286.7968545404342
 20
264.7450545833524
 30
0.0
 11
286.7968545404342
 21
187.3072324098431
 31
0.0
  0
LINE
  5
CC7
102
{ACAD_REACTORS
330
CD4
102
}
330
17
100
AcDbEntity
  8
STEMPEL
100
AcDbLine
 10
284.7968545404342
 20
264.7450545833526
 30
0.0
 11
284.7968545404342
 21
187.307232409843
 31
0.0
  0
ARC
  5
CC8
102
{ACAD_REACTORS
330
CD4
102
}
330
17
100
AcDbEntity
  8
STEMPEL
100
AcDbCircle
 10
280.796854540434
 20
169.9867243341546
 30
0.0
 40
12.0
100
AcDbArc
 50
0.0000000000000579
 51
38.21321070173754
  0
ARC
  5
CC9
102
{ACAD_REACTORS
330
CD4
102
}
330
17
100
AcDbEntity
  8
STEMPEL
100
AcDbCircle
 10
280.796854540434
 20
169.9867243341546
 30
0.0
 40
10.0
100
AcDbArc
 50
0.0000000000000579
 51
38.21321070173745
  0
ARC
  5
CCA
102
{ACAD_REACTORS
330
CD4
102
}
330
17
100
AcDbEntity
  8
STEMPEL
100
AcDbCircle
 10
302.7968545404342
 20
187.3072324098431
 30
0.0
 40
16.0
100
AcDbArc
 50
180.0
 51
218.2132107017374
  0
ARC
  5
CCB
102
{ACAD_REACTORS
330
CD4
102
}
330
17
100
AcDbEntity
  8
STEMPEL
100
AcDbCircle
 10
302.7968545404342
 20
187.307232409843
 30
0.0
 40
18.0
100
AcDbArc
 50
180.0
 51
218.2132107017373
  0
ARC
  5
CCC
102
{ACAD_REACTORS
330
CD4
102
}
330
17
100
AcDbEntity
  8
STEMPEL
100
AcDbCircle
 10
274.7968545404342
 20
264.7450545833526
 30
0.0
 40
10.0
100
AcDbArc
 50
0.0
 51
30.00000000000063
  0
ARC
  5
CCD
102
{ACAD_REACTORS
330
CD4
102
}
330
17
100
AcDbEntity
  8
STEMPEL
100
AcDbCircle
 10
274.7968545404342
 20
264.7450545833524
 30
0.0
 40
12.0
100
AcDbArc
 50
0.0
 51
30.00000000000027
  0
LINE
  5
CCE
102
{ACAD_REACTORS
330
CD4
102
}
330
17
100
AcDbEntity
  8
STEMPEL
100
AcDbLine
 10
427.7968545404341
 20
264.7450545833524
 30
0.0
 11
427.7968545404341
 21
187.3072324098431
 31
0.0
  0
LINE
  5
CCF
102
{ACAD_REACTORS
330
CD4
102
}
330
17
100
AcDbEntity
  8
STEMPEL
100
AcDbLine
 10
429.7968545404342
 20
264.7450545833526
 30
0.0
 11
429.7968545404342
 21
187.307232409843
 31
0.0
  0
ARC
  5
CD0
102
{ACAD_REACTORS
330
CD4
102
}
330
17
100
AcDbEntity
  8
STEMPEL
100
AcDbCircle
 10
411.7968545404342
 20
187.307232409843
 30
0.0
 40
18.0
100
AcDbArc
 50
321.7867892982625
 51
0.000000000000007
  0
ARC
  5
CD1
102
{ACAD_REACTORS
330
CD4
102
}
330
17
100
AcDbEntity
  8
STEMPEL
100
AcDbCircle
 10
411.7968545404342
 20
187.3072324098431
 30
0.0
 40
16.0
100
AcDbArc
 50
321.7867892982624
 51
0.000000000000007
  0
ARC
  5
CD2
102
{ACAD_REACTORS
330
CD4
102
}
330
17
100
AcDbEntity
  8
STEMPEL
100
AcDbCircle
 10
439.7968545404341
 20
264.7450545833526
 30
0.0
 40
10.0
100
AcDbArc
 50
149.9999999999993
 51
180.0
  0
ARC
  5
CD3
102
{ACAD_REACTORS
330
CD4
102
}
330
17
100
AcDbEntity
  8
STEMPEL
100
AcDbCircle
 10
439.7968545404341
 20
264.7450545833524
 30
0.0
 40
12.0
100
AcDbArc
 50
149.9999999999997
 51
180.0
  0
HATCH
  5
CD4
330
17
100
AcDbEntity
  8
SCHRAFF
100
AcDbHatch
 10
0.0
 20
0.0
 30
0.0
210
0.0
220
0.0
230
1.0
  2
_U
 70
     0
 71
     1
 91
        2
 92
        7
 72
     1
 73
     1
 93
       16
 10
284.7968545404342
 20
187.307232409843
 42
0.1682991173557597
 10
288.6539973975768
 20
176.1726200754719
 42
-0.1682991173557649
 10
290.7968545404342
 20
169.9867243341545
 42
0.0
 10
290.7968545404342
 20
48.26987521939273
 42
0.0
 10
292.1015448182364
 20
33.35719710520982
 42
0.0
 10
294.109184493323
 20
33.35719710520982
 42
0.0
 10
292.7968545404342
 20
48.35719710520976
 42
0.0
 10
292.7968545404342
 20
169.9867243341547
 42
0.1682991173557557
 10
290.2254259690057
 20
177.4097992237352
 42
-0.1682991173557651
 10
286.7968545404342
 20
187.3072324098431
 42
0.0
 10
286.7968545404342
 20
264.7450545833524
 42
0.1316524975873958
 10
285.1891593858475
 20
270.7450545833524
 42
0.0
 10
281.2968545404341
 20
277.4867243341546
 42
0.0
 10
279.5648037328653
 20
276.4867243341546
 42
0.0
 10
283.4571085782786
 20
269.7450545833527
 42
-0.1316524975873935
 10
284.7968545404342
 20
264.7450545833528
 42
0.0
 97
       16
330
CCD
330
CA3
330
CA7
330
CA2
330
CCC
330
CC7
330
CCB
330
CC9
330
C8A
330
C8E
330
C8B
330
C8F
330
C89
330
CC8
330
CCA
330
CC6
 92
        7
 72
     1
 73
     1
 93
       16
 10
427.7968545404341
 20
187.3072324098431
 42
-0.1682991173557617
 10
424.3682831118628
 20
177.4097992237353
 42
0.1682991173557674
 10
421.7968545404337
 20
169.9867243341545
 42
0.0
 10
421.7968545404347
 20
48.35719710521042
 42
0.0
 10
420.4845245875457
 20
33.35719710521004
 42
0.0
 10
422.4921642626324
 20
33.35719710521005
 42
0.0
 10
423.7968545404337
 20
48.26987521937866
 42
0.0
 10
423.7968545404341
 20
169.9867243341546
 42
-0.1682991173557618
 10
425.9397116832914
 20
176.1726200754719
 42
0.1682991173557601
 10
429.7968545404342
 20
187.307232409843
 42
0.0
 10
429.7968545404342
 20
264.7450545833526
 42
-0.131652497587395
 10
431.1366005025897
 20
269.7450545833526
 42
0.0
 10
435.028905348003
 20
276.4867243341546
 42
0.0
 10
433.2968545404341
 20
277.4867243341545
 42
0.0
 10
429.4045496950209
 20
270.7450545833523
 42
0.1316524975873956
 10
427.7968545404341
 20
264.7450545833523
 42
0.0
 97
       16
330
CD2
330
CB7
330
CBA
330
CB6
330
CD3
330
CCE
330
CD1
330
CB4
330
C86
330
C91
330
C8B
330
C90
330
C85
330
CB5
330
CD0
330
CCF
 75
     0
 76
     0
 52
45.0
 41
2.0
 77
     0
 78
     1
 53
45.0
 43
0.0
 44
0.6270499671202288
 45
-1.414213562373094
 46
1.414213562373095
 79
     0
 47
0.484019859282586
 98
        2
 10
285.5443811872726
 20
233.012145772085
 10
428.4253227231672
 20
242.208524193247
  0
LINE
  5
1433
330
17
100
AcDbEntity
  8
STEMPEL
100
AcDbLine
 10
448.175741365304
 20
442.1884698998665
 30
0.0
 11
607.2968545404342
 21
442.1884698998665
 31
0.0
  0
TEXT
  5
149E
330
17
100
AcDbEntity
  8
TEXT
 62
     1
100
AcDbText
 10
344.8631616721389
 20
249.4376374402091
 30
0.0
 40
7.0
  1
DN125
 50
90.0
 41
0.8
  7
GREEKS
100
AcDbText
  0
HATCH
  5
153F
330
17
100
AcDbEntity
  8
SCHRAFF
100
AcDbHatch
 10
0.0
 20
0.0
 30
0.0
210
0.0
220
0.0
230
1.0
  2
_USER
 70
     0
 71
     1
 91
        2
 92
        7
 72
     1
 73
     1
 93
       16
 10
522.2968545404341
 20
313.3571971052097
 42
0.0
 10
448.175741365304
 20
313.3571971052097
 42
0.4663076581550111
 10
442.7592987237367
 20
306.9021321280416
 42
0.0
 10
444.2968545404342
 20
298.1822197781576
 42
0.0
 10
444.2968545404341
 20
294.893095490072
 42
0.0
 10
437.0592502334002
 20
282.3571971052099
 42
-0.267949192431134
 10
431.8630978106934
 20
279.3571971052097
 42
0.0
 10
427.7968545404341
 20
279.3571971052097
 42
0.0
 10
427.7968545404341
 20
277.3571971052099
 42
0.0
 10
431.8630978106934
 20
277.3571971052099
 42
0.2679491924311325
 10
438.7913010409692
 20
281.3571971052099
 42
0.0
 10
446.2968545404343
 20
294.3571971052098
 42
0.0
 10
446.2968545404343
 20
298.3571971052092
 42
0.0
 10
444.7289142297613
 20
307.2494284833756
 42
-0.466307658154976
 10
448.175741365304
 20
311.3571971052097
 42
0.0
 10
522.2968545404341
 20
311.3571971052097
 42
0.0
 97
       16
330
72B
330
774
330
784
330
66D
330
6F3
330
6F5
330
705
330
6FE
330
706
330
6F6
330
6F2
330
66E
330
785
330
783
330
72D
330
877
 92
        7
 72
     1
 73
     1
 93
       16
 10
266.4179677155644
 20
313.3571971052097
 42
0.0
 10
192.2968545404342
 20
313.3571971052097
 42
0.0
 10
192.2968545404342
 20
311.3571971052097
 42
0.0
 10
266.4179677155644
 20
311.3571971052097
 42
-0.4663076581549757
 10
269.864794851107
 20
307.2494284833756
 42
0.0
 10
268.2968545404341
 20
298.3571971052098
 42
0.0
 10
268.2968545404342
 20
294.3571971052098
 42
0.0
 10
275.8024080398991
 20
281.3571971052099
 42
0.267949192431135
 10
282.7306112701748
 20
277.3571971052097
 42
0.0
 10
286.7968545404342
 20
277.3571971052098
 42
0.0
 10
286.7968545404342
 20
279.3571971052097
 42
0.0
 10
282.7306112701749
 20
279.3571971052097
 42
-0.2679491924311339
 10
277.5344588474681
 20
282.3571971052099
 42
0.0
 10
270.2968545404342
 20
294.893095490072
 42
0.0
 10
270.2968545404342
 20
298.1822197781582
 42
0.0
 10
271.8344103571317
 20
306.9021321280416
 42
0.4663076581550107
 97
       16
330
73D
330
744
330
73C
330
75C
330
765
330
671
330
6E7
330
6E0
330
6DD
330
6EA
330
6DC
330
6DF
330
6E8
330
672
330
764
330
75D
 75
     0
 76
     0
 52
135.0
 41
2.0
 77
     0
 78
     1
 53
135.0
 43
0.0
 44
-9.372950032879771
 45
-1.414213562373095
 46
-1.414213562373094
 79
     0
 47
0.5695916490130167
 98
        2
 10
478.1981730711772
 20
311.7102740143739
 10
230.8461483753972
 20
311.7102740143739
  0
HATCH
  5
155A
330
17
100
AcDbEntity
  8
SCHRAFF
100
AcDbHatch
 10
0.0
 20
0.0
 30
0.0
210
0.0
220
0.0
230
1.0
  2
_USER
 70
     0
 71
     1
 91
        2
 92
        7
 72
     1
 73
     1
 93
       10
 10
423.7968545404341
 20
377.5154755836068
 42
-0.1189414107770636
 10
425.7416350417105
 20
384.4870437008333
 42
0.0
 10
435.0705836350257
 20
402.393938094442
 42
0.0
 10
433.2968545404342
 20
403.3179971288113
 42
0.0
 10
423.9679059471218
 20
385.411102735208
 42
0.1191462366923557
 10
421.7968545404342
 20
377.5154755836069
 42
0.0
 10
421.7968545404341
 20
194.2757917856841
 42
0.0
 10
420.4768849124584
 20
179.1884698998666
 42
0.0
 10
422.4845245875453
 20
179.1884698998666
 42
0.0
 10
423.7968545404341
 20
194.1884698998668
 42
0.0
 97
       10
330
789
330
78B
330
786
330
78C
330
788
330
676
330
6F0
330
6D3
330
6F1
330
677
 92
        7
 72
     1
 73
     1
 93
       10
 10
292.7968545404342
 20
377.5154755836068
 42
0.1191462366923067
 10
290.6258031337482
 20
385.411102735205
 42
0.0
 10
281.2968545404343
 20
403.3179971288113
 42
0.0
 10
279.5231254458427
 20
402.3939380944421
 42
0.0
 10
288.852074039155
 20
384.4870437008387
 42
-0.1189414107771764
 10
290.7968545404342
 20
377.5154755836061
 42
0.0
 10
290.7968545404342
 20
194.1884698998667
 42
0.0
 10
292.1091844933226
 20
179.1884698998664
 42
0.0
 10
294.11682416841
 20
179.1884698998664
 42
0.0
 10
292.7968545404342
 20
194.2757917856843
 42
0.0
 97
       10
330
771
330
76C
330
76D
330
76B
330
772
330
67B
330
6D8
330
6D3
330
6D7
330
67C
 75
     0
 76
     0
 52
135.0
 41
2.0
 77
     0
 78
     1
 53
135.0
 43
0.0
 44
-9.372950032879771
 45
-1.414213562373095
 46
-1.414213562373094
 79
     0
 47
0.5695916490130167
 98
        2
 10
422.3444890615001
 20
352.1512812126064
 10
292.3991875755564
 20
352.7208728041428
  0
HATCH
  5
1569
330
17
100
AcDbEntity
  8
SCHRAFF
100
AcDbHatch
 10
0.0
 20
0.0
 30
0.0
210
0.0
220
0.0
230
1.0
  2
_USER
 70
     0
 71
     1
 91
        2
 92
        7
 72
     0
 73
     1
 93
        4
 10
430.2968545404342
 20
288.6031081164633
 10
432.2968545404342
 20
288.6031081164633
 10
432.2968545404341
 20
311.6031081164633
 10
430.2968545404341
 20
311.6031081164633
 97
        4
330
77C
330
675
330
703
330
674
 92
        7
 72
     0
 73
     1
 93
        4
 10
284.2968545404342
 20
311.6031081164633
 10
282.2968545404342
 20
311.6031081164633
 10
282.2968545404346
 20
288.6031081164633
 10
284.2968545404346
 20
288.6031081164633
 97
        4
330
758
330
67E
330
6DE
330
67D
 75
     0
 76
     0
 52
45.0
 41
2.0
 77
     0
 78
     1
 53
45.0
 43
0.0
 44
-9.372950032879771
 45
-1.414213562373094
 46
1.414213562373095
 79
     0
 47
0.5695916490130167
 98
        2
 10
430.893523156787
 20
298.6096660093208
 10
283.8501534802695
 20
301.457623967003
  0
HATCH
  5
1578
330
17
100
AcDbEntity
  8
SCHRAFF
100
AcDbHatch
 10
0.0
 20
0.0
 30
0.0
210
0.0
220
0.0
230
1.0
  2
_USER
 70
     0
 71
     1
 91
        2
 92
        7
 72
     0
 73
     1
 93
        4
 10
432.2968545404342
 20
437.4343809111201
 10
430.2968545404341
 20
437.4343809111201
 10
430.2968545404342
 20
414.4343809111201
 10
432.2968545404342
 20
414.4343809111201
 97
        4
330
823
330
821
330
824
330
816
 92
        7
 72
     0
 73
     1
 93
        4
 10
282.2968545404346
 20
414.4343809111201
 10
284.2968545404346
 20
414.4343809111201
 10
284.2968545404342
 20
437.4343809111201
 10
282.2968545404342
 20
437.4343809111201
 97
        4
330
7AB
330
7BA
330
7AC
330
7CB
 75
     0
 76
     0
 52
45.0
 41
2.0
 77
     0
 78
     1
 53
45.0
 43
0.0
 44
-9.372950032879771
 45
-1.414213562373094
 46
1.414213562373095
 79
     0
 47
0.5695916490130167
 98
        2
 10
431.4634584139225
 20
427.3373782939915
 10
283.2802182231339
 20
422.7806455617001
  0
HATCH
  5
15A3
330
17
100
AcDbEntity
  8
SCHRAFF
100
AcDbHatch
 10
0.0
 20
0.0
 30
0.0
210
0.0
220
0.0
230
1.0
  2
_USER
 70
     0
 71
     0
 91
        3
 92
        7
 72
     0
 73
     1
 93
        4
 10
522.2968545404341
 20
439.1884698998664
 10
466.4997522854094
 20
439.1884698998665
 10
467.7608652475153
 20
437.1884698998665
 10
522.2968545404341
 20
437.1884698998664
 97
        0
 92
        7
 72
     1
 73
     1
 93
       16
 10
466.4997522854094
 20
439.1884698998665
 42
0.0
 10
448.175741365304
 20
439.1884698998665
 42
0.4663076581550111
 10
442.7592987237367
 20
432.7334049226983
 42
0.0
 10
444.2968545404342
 20
424.0134925728147
 42
0.0
 10
444.2968545404342
 20
420.7243682847289
 42
0.0
 10
437.0592502334002
 20
408.1884698998664
 42
-0.2679491924311281
 10
431.8630978106934
 20
405.1884698998665
 42
0.0
 10
427.7968545404341
 20
405.1884698998665
 42
0.0
 10
427.7968545404341
 20
403.1884698998664
 42
0.0
 10
431.8630978106934
 20
403.1884698998664
 42
0.2679491924311325
 10
438.7913010409692
 20
407.1884698998665
 42
0.0
 10
446.2968545404343
 20
420.1884698998666
 42
0.0
 10
446.2968545404343
 20
424.1884698998667
 42
0.0
 10
444.7289142297613
 20
433.0807012780324
 42
-0.466307658154976
 10
448.175741365304
 20
437.1884698998664
 42
0.0
 10
467.7608652475152
 20
437.1884698998665
 42
0.0
 97
        0
 92
        7
 72
     1
 73
     1
 93
       16
 10
266.4179677155644
 20
439.1884698998665
 42
0.0
 10
192.2968545404342
 20
439.1884698998665
 42
0.0
 10
192.2968545404342
 20
437.1884698998664
 42
0.0
 10
266.4179677155644
 20
437.1884698998664
 42
-0.4663076581549757
 10
269.864794851107
 20
433.0807012780324
 42
0.0
 10
268.2968545404341
 20
424.1884698998666
 42
0.0
 10
268.2968545404342
 20
420.1884698998665
 42
0.0
 10
275.8024080398991
 20
407.1884698998665
 42
0.267949192431123
 10
282.7306112701746
 20
403.1884698998664
 42
0.0
 10
286.7968545404342
 20
403.1884698998664
 42
0.0
 10
286.7968545404342
 20
405.1884698998665
 42
0.0
 10
282.7306112701749
 20
405.1884698998665
 42
-0.267949192431128
 10
277.5344588474681
 20
408.1884698998664
 42
0.0
 10
270.2968545404342
 20
420.7243682847288
 42
0.0
 10
270.2968545404342
 20
424.0134925728149
 42
0.0
 10
271.8344103571317
 20
432.7334049226983
 42
0.4663076581550107
 97
        0
 75
     0
 76
     0
 52
45.0
 41
2.0
 77
     0
 78
     1
 53
45.0
 43
0.0
 44
-9.372950032879771
 45
-1.414213562373094
 46
1.414213562373095
 79
     0
 47
0.5656097341608334
 98
        3
 10
487.330243299757
 20
437.5527931250424
 10
460.1645839384113
 20
437.5527931250424
 10
259.2518991678776
 20
437.5527931250424
  0
HATCH
  5
15E7
330
17
100
AcDbEntity
  8
SCHRAFF
100
AcDbHatch
 10
0.0
 20
0.0
 30
0.0
210
0.0
220
0.0
230
1.0
  2
NET
 70
     0
 71
     1
 91
        4
 92
        7
 72
     1
 73
     1
 93
       19
 10
423.7968545404343
 20
284.6031081164633
 42
0.0
 10
427.2968545404341
 20
284.6031081164633
 42
0.0
 10
429.0289053480034
 20
283.6031081164633
 42
0.0
 10
434.2968545404328
 20
283.6031081164633
 42
0.0252320798375026
 10
434.4611740220471
 20
283.85719710521
 42
0.0
 10
441.2968545404342
 20
295.6969430673654
 42
0.0
 10
441.2968545404342
 20
297.9197537875802
 42
0.0
 10
441.1001160010268
 20
299.0355134893397
 42
0.0
 10
440.9299454730008
 20
299.4113125564313
 42
0.508132013265954
 10
436.9762140700925
 20
300.2347494463217
 42
-0.4919185491804483
 10
435.4173390389135
 20
300.5174383331552
 42
-0.0977633374688719
 10
435.2016277425782
 20
301.2615030938253
 42
0.0
 10
434.2816042615313
 20
311.7774196019586
 42
0.3888787318530061
 10
432.2892148653477
 20
313.6031081164633
 42
0.0
 10
430.3044035237284
 20
313.6031081164633
 42
0.3888787318530064
 10
428.3120141275449
 20
311.7774196019586
 42
0.0
 10
427.5961254027715
 20
303.594774034842
 42
0.3872706394239044
 10
424.930142907891
 20
301.5372285606306
 42
0.0
 10
423.7968545404343
 20
295.1100308458888
 42
0.0
 97
       19
330
66F
330
782
330
77E
330
780
330
77F
330
781
330
776
330
777
330
77D
330
77B
330
77A
330
779
330
673
330
677
330
701
330
700
330
707
330
6FC
330
6F4
 92
       22
 72
     0
 73
     1
 93
        4
 10
430.2968545404342
 20
311.6031081164633
 10
432.2968545404342
 20
311.6031081164633
 10
432.2968545404342
 20
288.6031081164633
 10
430.2968545404342
 20
288.6031081164633
 97
        4
330
77C
330
674
330
703
330
675
 92
        7
 72
     1
 73
     1
 93
       19
 10
280.1325350588213
 20
283.85719710521
 42
0.0252320798374431
 10
280.2968545404342
 20
283.6031081164633
 42
0.0
 10
285.5648037328655
 20
283.6031081164633
 42
0.0
 10
287.2968545404342
 20
284.6031081164633
 42
0.0
 10
290.7968545404342
 20
284.6031081164633
 42
0.0
 10
290.7968545404342
 20
295.1100308458913
 42
0.0
 10
289.6635661729779
 20
301.5372285606306
 42
0.3872706394237101
 10
286.9975836780974
 20
303.5947740348401
 42
0.0
 10
286.2816949533235
 20
311.7774196019586
 42
0.3888787318529901
 10
284.28930555714
 20
313.6031081164633
 42
0.0
 10
282.3044942155211
 20
313.6031081164633
 42
0.3888787318529987
 10
280.3121048193375
 20
311.7774196019587
 42
0.0
 10
279.3920813382906
 20
301.2615030938253
 42
-0.0977633374688539
 10
279.176370041955
 20
300.5174383331554
 42
-0.4919185491805284
 10
277.6174950107759
 20
300.234749446322
 42
0.5081320132659683
 10
273.6637636078676
 20
299.4113125564313
 42
0.0
 10
273.4935930798416
 20
299.0355134893392
 42
0.0
 10
273.2968545404342
 20
297.9197537875803
 42
0.0
 10
273.2968545404341
 20
295.6969430673655
 42
0.0
 97
       19
330
67A
330
766
330
768
330
767
330
757
330
759
330
75B
330
761
330
75F
330
762
330
760
330
763
330
670
330
6E6
330
6E5
330
6DA
330
6EB
330
6EC
330
67B
 92
       22
 72
     0
 73
     1
 93
        4
 10
282.2968545404343
 20
311.6031081164633
 10
284.2968545404342
 20
311.6031081164633
 10
284.2968545404347
 20
288.6031081164633
 10
282.2968545404346
 20
288.6031081164633
 97
        4
330
758
330
67D
330
6DE
330
67E
 75
     0
 76
     1
 52
45.0
 41
20.0
 77
     0
 78
     2
 53
45.0
 43
0.0
 44
-9.372950032879771
 45
-1.767766952966368
 46
1.767766952966368
 79
     0
 53
135.0
 43
0.0
 44
-9.372950032879771
 45
-1.767766952966368
 46
-1.767766952966368
 79
     0
 47
0.5656097341608334
 98
        4
 10
427.3394115553373
 20
294.4535302876161
 10
427.3394115553373
 20
294.4535302876161
 10
278.494241870279
 20
295.0191396902032
 10
278.494241870279
 20
295.0191396902032
  0
HATCH
  5
161E
330
17
100
AcDbEntity
  8
SCHRAFF
100
AcDbHatch
 10
0.0
 20
0.0
 30
0.0
210
0.0
220
0.0
230
1.0
  2
NET
 70
     0
 71
     0
 91
        4
 92
        7
 72
     1
 73
     1
 93
       20
 10
441.2968545404342
 20
421.5282158620225
 42
0.0
 10
441.2968545404342
 20
423.7510265822375
 42
0.0
 10
441.1001160010273
 20
424.8667862839948
 42
0.0
 10
440.9299454730008
 20
425.2425853510881
 42
0.508132013265961
 10
436.9762140700924
 20
426.0660222409783
 42
-0.4919185491804872
 10
435.4173390389134
 20
426.348711127812
 42
-0.0977633374688959
 10
435.2016277425782
 20
427.0927758884822
 42
0.0
 10
434.2816042615313
 20
437.6086923966154
 42
0.3888787318530061
 10
432.2892148653477
 20
439.4343809111201
 42
0.0
 10
430.3044035237284
 20
439.4343809111201
 42
0.3888787318530155
 10
428.3120141275448
 20
437.6086923966154
 42
0.0
 10
427.5961254027715
 20
429.4260468294988
 42
0.1346016104188502
 10
426.2968452759722
 20
429.181663856781
 42
-0.2909781181567291
 10
424.8513693947217
 20
426.921754562184
 42
0.0
 10
423.7968545404341
 20
420.9413036405462
 42
0.0
 10
423.7968545404341
 20
410.4343809111202
 42
0.0
 10
427.2968545404341
 20
410.43438091112
 42
0.0
 10
429.0289053480033
 20
409.4343809111201
 42
0.0
 10
434.2968545404328
 20
409.4343809111201
 42
0.0252320798374867
 10
434.4611740220471
 20
409.6884698998665
 42
0.0
 97
        0
 92
       22
 72
     0
 73
     1
 93
        4
 10
432.2968545404342
 20
414.4343809111202
 10
430.2968545404342
 20
414.4343809111201
 10
430.2968545404341
 20
437.43438091112
 10
432.2968545404341
 20
437.43438091112
 97
        0
 92
        7
 72
     1
 73
     1
 93
       20
 10
290.796854540434
 20
420.9413036405494
 42
0.0
 10
289.7423396861471
 20
426.9217545621834
 42
-0.2909781181568548
 10
288.2968638048956
 20
429.1816638567812
 42
0.1346016104186989
 10
286.9975836780974
 20
429.4260468294969
 42
0.0
 10
286.2816949533234
 20
437.6086923966155
 42
0.3888787318529746
 10
284.28930555714
 20
439.4343809111201
 42
0.0
 10
282.3044942155211
 20
439.4343809111201
 42
0.3888787318529987
 10
280.3121048193375
 20
437.6086923966155
 42
0.0
 10
279.3920813382906
 20
427.0927758884822
 42
-0.0977633374688992
 10
279.1763700419547
 20
426.3487111278122
 42
-0.4919185491803808
 10
277.6174950107759
 20
426.0660222409788
 42
0.5081320132659683
 10
273.6637636078676
 20
425.2425853510881
 42
0.0
 10
273.4935930798416
 20
424.8667862839962
 42
0.0
 10
273.2968545404342
 20
423.7510265822368
 42
0.0
 10
273.2968545404341
 20
421.5282158620221
 42
0.0
 10
280.1325350588213
 20
409.6884698998665
 42
0.0252320798374195
 10
280.2968545404341
 20
409.4343809111201
 42
0.0
 10
285.5648037328658
 20
409.4343809111202
 42
0.0
 10
287.2968545404343
 20
410.4343809111201
 42
0.0
 10
290.796854540434
 20
410.4343809111201
 42
0.0
 97
        0
 92
       22
 72
     0
 73
     1
 93
        4
 10
284.2968545404346
 20
414.4343809111201
 10
282.2968545404346
 20
414.4343809111201
 10
282.2968545404342
 20
437.43438091112
 10
284.2968545404342
 20
437.43438091112
 97
        0
 75
     0
 76
     1
 52
45.0
 41
20.0
 77
     0
 78
     2
 53
45.0
 43
0.0
 44
-9.372950032879771
 45
-1.767766952966368
 46
1.767766952966368
 79
     0
 53
135.0
 43
0.0
 44
-9.372950032879771
 45
-1.767766952966368
 46
-1.767766952966368
 79
     0
 47
0.5656097341608334
 98
        4
 10
436.3946313424526
 20
420.0188918468383
 10
436.3946313424526
 20
420.0188918468383
 10
287.5494616573942
 20
416.625232631886
 10
287.5494616573942
 20
416.625232631886
  0
HATCH
  5
1645
330
17
100
AcDbEntity
  8
SCHRAFF
100
AcDbHatch
 10
0.0
 20
0.0
 30
0.0
210
0.0
220
0.0
230
1.0
  2
NET
 70
     0
 71
     0
 91
        2
 92
        7
 72
     1
 73
     1
 93
       16
 10
607.2968545404342
 20
316.3571971052097
 42
0.0
 10
448.175741365304
 20
316.3571971052097
 42
0.4663076581550035
 10
439.8048754647001
 20
306.3811875950407
 42
0.0
 10
441.2968545404342
 20
297.9197537875799
 42
0.0
 10
441.2968545404341
 20
295.6969430673655
 42
0.0
 10
434.4611740220471
 20
283.85719710521
 42
-0.0252320798375026
 10
434.2968545404328
 20
283.6031081164633
 42
0.0
 10
427.2968545404341
 20
283.6031081164634
 42
0.0
 10
427.2968545404341
 20
280.6031081164633
 42
0.0
 10
435.5235127990627
 20
280.6031081164633
 42
0.0980750678644189
 10
437.0592502334002
 20
282.3571971052099
 42
0.0
 10
444.2968545404341
 20
294.8930954900721
 42
0.0
 10
444.2968545404341
 20
298.1822197781576
 42
0.0
 10
442.7592987237367
 20
306.9021321280416
 42
-0.4663076581550015
 10
448.1757413653038
 20
313.3571971052097
 42
0.0
 10
607.2968545404342
 20
313.3571971052096
 42
0.0
 97
        0
 92
        7
 72
     1
 73
     1
 93
       16
 10
266.4179677155644
 20
316.3571971052097
 42
0.0
 10
107.2968545404342
 20
316.3571971052097
 42
0.0
 10
107.2968545404342
 20
313.3571971052098
 42
0.0
 10
266.4179677155644
 20
313.3571971052097
 42
-0.4663076581550107
 10
271.8344103571317
 20
306.9021321280416
 42
0.0
 10
270.2968545404342
 20
298.182219778158
 42
0.0
 10
270.2968545404341
 20
294.893095490072
 42
0.0
 10
277.5344588474681
 20
282.3571971052099
 42
0.0980750678644156
 10
279.0701962818056
 20
280.6031081164633
 42
0.0
 10
287.2968545404342
 20
280.6031081164633
 42
0.0
 10
287.2968545404342
 20
283.6031081164632
 42
0.0
 10
280.2968545404333
 20
283.6031081164633
 42
-0.0252320798373993
 10
280.1325350588213
 20
283.85719710521
 42
0.0
 10
273.2968545404343
 20
295.6969430673656
 42
0.0
 10
273.2968545404342
 20
297.9197537875804
 42
0.0
 10
274.7888336161682
 20
306.381187595041
 42
0.4663076581549938
 97
        0
 75
     0
 76
     1
 52
45.0
 41
10.0
 77
     0
 78
     2
 53
45.0
 43
0.0
 44
-9.372950032879771
 45
-0.8838834764831842
 46
0.8838834764831844
 79
     0
 53
135.0
 43
0.0
 44
-9.372950032879771
 45
-0.8838834764831844
 46
-0.8838834764831842
 79
     0
 47
0.5656097341608334
 98
        2
 10
499.7811698522582
 20
314.8154799784704
 10
224.7288747116741
 20
314.8154799784704
  0
HATCH
  5
1672
330
17
100
AcDbEntity
  8
SCHRAFF
100
AcDbHatch
 10
0.0
 20
0.0
 30
0.0
210
0.0
220
0.0
230
1.0
  2
NET
 70
     0
 71
     0
 91
        3
 92
        7
 72
     0
 73
     1
 93
        4
 10
607.2968545404342
 20
442.1884698998665
 10
464.6080828422507
 20
442.1884698998663
 10
466.4997522854094
 20
439.1884698998664
 10
607.2968545404342
 20
439.1884698998664
 97
        0
 92
        7
 72
     1
 73
     1
 93
       17
 10
464.6080828422507
 20
442.1884698998663
 42
0.0
 10
454.7968545404342
 20
442.1884698998664
 42
0.0
 10
448.175741365304
 20
442.1884698998665
 42
0.4663076581550151
 10
439.8048754647001
 20
432.2124603896972
 42
0.0
 10
441.2968545404342
 20
423.7510265822375
 42
0.0
 10
441.2968545404342
 20
421.5282158620224
 42
0.0
 10
434.4611740220471
 20
409.6884698998665
 42
-0.0252320798374867
 10
434.2968545404328
 20
409.4343809111201
 42
0.0
 10
427.2968545404341
 20
409.4343809111201
 42
0.0
 10
427.2968545404341
 20
406.4343809111202
 42
0.0
 10
435.523512799063
 20
406.4343809111201
 42
0.0980750678644036
 10
437.0592502334002
 20
408.1884698998664
 42
0.0
 10
444.2968545404341
 20
420.7243682847289
 42
0.0
 10
444.2968545404341
 20
424.0134925728145
 42
0.0
 10
442.7592987237367
 20
432.7334049226983
 42
-0.4663076581550015
 10
448.1757413653038
 20
439.1884698998665
 42
0.0
 10
466.4997522854093
 20
439.1884698998664
 42
0.0
 97
        0
 92
        7
 72
     1
 73
     1
 93
       17
 10
266.4179677155644
 20
442.1884698998666
 42
0.0
 10
259.7968545404342
 20
442.1884698998666
 42
0.0
 10
107.2968545404342
 20
442.1884698998665
 42
0.0
 10
107.2968545404342
 20
439.1884698998664
 42
0.0
 10
266.4179677155644
 20
439.1884698998665
 42
-0.4663076581550107
 10
271.8344103571317
 20
432.7334049226983
 42
0.0
 10
270.2968545404342
 20
424.0134925728147
 42
0.0
 10
270.2968545404341
 20
420.7243682847289
 42
0.0
 10
277.5344588474681
 20
408.1884698998664
 42
0.0980750678643987
 10
279.0701962818052
 20
406.4343809111201
 42
0.0
 10
287.2968545404342
 20
406.4343809111202
 42
0.0
 10
287.2968545404341
 20
409.4343809111202
 42
0.0
 10
280.2968545404333
 20
409.4343809111201
 42
-0.0252320798373834
 10
280.1325350588213
 20
409.6884698998665
 42
0.0
 10
273.2968545404342
 20
421.5282158620221
 42
0.0
 10
273.2968545404342
 20
423.751026582237
 42
0.0
 10
274.7888336161682
 20
432.2124603896977
 42
0.4663076581549987
 97
        0
 75
     0
 76
     1
 52
45.0
 41
10.0
 77
     0
 78
     2
 53
45.0
 43
0.0
 44
-9.372950032879771
 45
-0.8838834764831842
 46
0.8838834764831844
 79
     0
 53
135.0
 43
0.0
 44
-9.372950032879771
 45
-0.8838834764831844
 46
-0.8838834764831842
 79
     0
 47
0.5656097341608334
 98
        3
 10
507.7044865112021
 20
439.8152321351055
 10
455.6369740448539
 20
440.9464509402798
 10
251.8945340730197
 20
440.9464509402798
  0
LINE
  5
1697
330
17
100
AcDbEntity
  8
BEM
 62
     1
100
AcDbLine
 10
343.1733476671547
 20
573.376983891342
 30
0.0
 11
350.1733476671548
 21
573.376983891342
 31
0.0
  0
LINE
  5
1698
330
17
100
AcDbEntity
  8
BEM
 62
     1
100
AcDbLine
 10
343.1733476671547
 20
580.3769838913419
 30
0.0
 11
343.1733476671547
 21
573.376983891342
 31
0.0
  0
HATCH
  5
16A1
330
17
100
AcDbEntity
  8
SCHRAFF
100
AcDbHatch
 10
0.0
 20
0.0
 30
0.0
210
0.0
220
0.0
230
1.0
  2
_USER
 70
     0
 71
     1
 91
        2
 92
        7
 72
     1
 73
     1
 93
        4
 10
435.0705836350257
 20
402.393938094442
 42
0.0
 10
433.4700664383049
 20
399.3217491837464
 42
0.5335015749934734
 10
436.9279111953511
 20
404.9959207172929
 42
-0.1270166537925753
 10
433.2968545404345
 20
403.3179971288111
 42
0.0
 97
        4
330
74A
330
786
330
78B
330
787
 92
        7
 72
     1
 73
     1
 93
        4
 10
281.1236426425633
 20
399.3217491837464
 42
0.0
 10
279.5231254458426
 20
402.3939380944421
 42
0.0
 10
281.2968545404339
 20
403.3179971288111
 42
-0.1270166537925736
 10
277.6657978855173
 20
404.9959207172929
 42
0.5335015749934725
 97
        4
330
74D
330
770
330
76B
330
76D
 75
     0
 76
     0
 52
0.0
 41
0.1
 77
     0
 78
     1
 53
0.0
 43
0.0
 44
-9.372950032879771
 45
0.0
 46
0.1
 79
     0
 47
0.2800265359875475
 98
        2
 10
436.0794533868084
 20
402.3597678726848
 10
278.3293285021787
 20
402.6397948397182
  0
LINE
  5
16D1
330
17
100
AcDbEntity
  8
TEXT
 62
     2
100
AcDbLine
 10
423.2317908358494
 20
129.2312198711951
 30
0.0
 11
513.1630288873289
 21
145.1224609708013
 31
0.0
  0
LINE
  5
16D2
330
17
100
AcDbEntity
  8
TEXT
 62
     2
100
AcDbLine
 10
435.0331031678258
 20
295.307198965896
 30
0.0
 11
530.9210084696159
 21
246.4696942097249
 31
0.0
  0
TEXT
  5
16D3
330
17
100
AcDbEntity
  8
TEXT
 62
     1
100
AcDbText
 10
532.9416425736361
 20
235.9797377786011
 30
0.0
 40
7.0
  1
EDV-Art.Nr. 17201.125A
 41
0.8
  7
GREEKS
100
AcDbText
  0
TEXT
  5
16D4
330
17
100
AcDbEntity
  8
TEXT
 62
     1
100
AcDbText
 10
532.9416425736361
 20
250.1926475095313
 30
0.0
 40
7.0
  1
Klemmring DN125
 41
0.8
  7
GREEKS
100
AcDbText
  0
LINE
  5
16D5
330
17
100
AcDbEntity
  8
TEXT
 62
     2
100
AcDbLine
 10
530.9210084696159
 20
246.4696942097249
 30
0.0
 11
638.42567488324
 21
246.4696942097248
 31
0.0
  0
TEXT
  5
16D6
330
17
100
AcDbEntity
  8
TEXT
 62
     1
100
AcDbText
 10
514.4764020364728
 20
134.9449801242051
 30
0.0
 40
7.0
  1
EDV-Art.Nr. 17115.125A
 41
0.8
  7
GREEKS
100
AcDbText
  0
TEXT
  5
16D7
330
17
100
AcDbEntity
  8
TEXT
 62
     1
100
AcDbText
 10
515.1836629913491
 20
148.8454142706077
 30
0.0
 40
7.0
  1
Ablautopf DN125
 41
0.8
  7
GREEKS
100
AcDbText
  0
LINE
  5
16DA
330
17
100
AcDbEntity
  8
TEXT
 62
     2
100
AcDbLine
 10
513.1630288873289
 20
145.1224609708013
 30
0.0
 11
619.8209023080661
 21
145.1224609708012
 31
0.0
  0
TEXT
  5
16DE
330
17
100
AcDbEntity
  8
TEXT
 62
     1
100
AcDbText
 10
611.5081068285225
 20
276.5363181601557
 30
0.0
 40
7.0
  1
EDV-Art.Nr. 17000.125A
 41
0.8
  7
GREEKS
100
AcDbText
  0
LINE
  5
16DF
330
17
100
AcDbEntity
  8
TEXT
 62
     2
100
AcDbLine
 10
611.4847587800294
 20
286.7844889534384
 30
0.0
 11
731.3581198299904
 21
286.7844889534384
 31
0.0
  0
TEXT
  5
16E0
330
17
100
AcDbEntity
  8
TEXT
 62
     1
100
AcDbText
 10
612.2511518461489
 20
290.5074422532447
 30
0.0
 40
7.0
  1
Anschlußmanschette DN125
 41
0.8
  7
GREEKS
100
AcDbText
  0
LINE
  5
16E1
330
17
100
AcDbEntity
  8
TEXT
 62
     2
100
AcDbLine
 10
580.3066023617978
 20
314.9293398856726
 30
0.0
 11
611.4847587800294
 21
286.7844889534384
 31
0.0
  0
LINE
  5
16E2
330
17
100
AcDbEntity
  8
TEXT
 62
     2
100
AcDbLine
 10
423.0500828416564
 20
353.6505706562243
 30
0.0
 11
567.3594534379112
 21
334.2174892314119
 31
0.0
  0
TEXT
  5
16E3
330
17
100
AcDbEntity
  8
TEXT
 62
     1
100
AcDbText
 10
612.2511518461489
 20
423.0542963363022
 30
0.0
 40
7.0
  1
Anschlußmanschette DN125
 41
0.8
  7
GREEKS
100
AcDbText
  0
LINE
  5
16E4
330
17
100
AcDbEntity
  8
TEXT
 62
     2
100
AcDbLine
 10
611.4847587800294
 20
419.3313430364958
 30
0.0
 11
731.3581198299904
 21
419.3313430364958
 31
0.0
  0
TEXT
  5
16E5
330
17
100
AcDbEntity
  8
TEXT
 62
     1
100
AcDbText
 10
611.5081068285225
 20
409.0831722432131
 30
0.0
 40
7.0
  1
EDV-Art.Nr. 17000.125A
 41
0.8
  7
GREEKS
100
AcDbText
  0
LINE
  5
16E7
330
17
100
AcDbEntity
  8
TEXT
 62
     2
100
AcDbLine
 10
486.6954552268482
 20
443.0174174983306
 30
0.0
 11
636.7160915061093
 21
478.9885139488967
 31
0.0
  0
TEXT
  5
16EB
330
17
100
AcDbEntity
  8
TEXT
 62
     1
100
AcDbText
 10
569.3800875419314
 20
323.7275328002882
 30
0.0
 40
7.0
  1
EDV-Art.Nr. 17117.125A
 41
0.8
  7
GREEKS
100
AcDbText
  0
TEXT
  5
16EC
330
17
100
AcDbEntity
  8
TEXT
 62
     1
100
AcDbText
 10
569.3800875419314
 20
337.9404425312184
 30
0.0
 40
7.0
  1
Etageneinsatz DN125
 41
0.8
  7
GREEKS
100
AcDbText
  0
LINE
  5
16ED
330
17
100
AcDbEntity
  8
TEXT
 62
     2
100
AcDbLine
 10
567.3594534379112
 20
334.2174892314119
 30
0.0
 11
674.8641198515352
 21
334.2174892314119
 31
0.0
  0
LINE
  5
16F0
330
17
100
AcDbEntity
  8
TEXT
 62
     2
100
AcDbLine
 10
580.3066023617978
 20
440.1298618558037
 30
0.0
 11
611.4847587800294
 21
419.3313430364958
 31
0.0
  0
LINE
  5
1706
330
17
100
AcDbEntity
  8
TEXT
 62
     2
100
AcDbLine
 10
436.3516994757899
 20
421.1903250831541
 30
0.0
 11
576.412541975233
 21
371.8368626735911
 31
0.0
  0
LINE
  5
1707
330
17
100
AcDbEntity
  8
TEXT
 62
     2
100
AcDbLine
 10
576.412541975233
 20
371.8368626735911
 30
0.0
 11
683.9172083888571
 21
371.8368626735909
 31
0.0
  0
TEXT
  5
1708
330
17
100
AcDbEntity
  8
TEXT
 62
     1
100
AcDbText
 10
578.4331760792532
 20
375.5598159733975
 30
0.0
 40
7.0
  1
Klemmring DN125
 41
0.8
  7
GREEKS
100
AcDbText
  0
TEXT
  5
1709
330
17
100
AcDbEntity
  8
TEXT
 62
     1
100
AcDbText
 10
578.4331760792532
 20
361.3469062424672
 30
0.0
 40
7.0
  1
EDV-Art.Nr. 17201.125A
 41
0.8
  7
GREEKS
100
AcDbText
  0
LINE
  5
18EA
330
17
100
AcDbEntity
  8
STEMPEL
100
AcDbLine
 10
421.7968545404342
 20
442.1884698998665
 30
0.0
 11
421.7968545404342
 21
402.1884698998666
 31
0.0
  0
LINE
  5
18ED
330
17
100
AcDbEntity
  8
STEMPEL
100
AcDbLine
 10
492.2968545404341
 20
443.6884698998666
 30
0.0
 11
222.2968545404342
 21
443.6884698998666
 31
0.0
  0
LINE
  5
18EE
330
17
100
AcDbEntity
  8
STEMPEL
100
AcDbLine
 10
492.2968545404341
 20
442.1884698998665
 30
0.0
 11
222.2968545404342
 21
442.1884698998665
 31
0.0
  0
HATCH
  5
18EF
330
17
100
AcDbEntity
  8
SCHRAFF
100
AcDbHatch
 10
0.0
 20
0.0
 30
0.0
210
0.0
220
0.0
230
1.0
  2
_USER
 70
     0
 71
     0
 91
        3
 92
        7
 72
     0
 73
     1
 93
        4
 10
421.7968545404345
 20
443.6884698998666
 10
421.7968545404345
 20
442.1884698998665
 10
492.2968545404341
 20
442.1884698998665
 10
492.2968545404341
 20
443.6884698998667
 97
        0
 92
        7
 72
     0
 73
     1
 93
        4
 10
235.2968545404342
 20
443.6884698998664
 10
235.2968545404342
 20
442.1884698998665
 10
292.7968545404342
 20
442.1884698998664
 10
292.7968545404342
 20
443.6884698998666
 97
        0
 92
        7
 72
     0
 73
     1
 93
        4
 10
235.2968545404342
 20
442.1884698998666
 10
235.2968545404342
 20
443.6884698998666
 10
222.2968545404342
 20
443.6884698998664
 10
222.2968545404342
 20
442.1884698998666
 97
        0
 75
     0
 76
     0
 52
135.0
 41
2.0
 77
     0
 78
     1
 53
135.0
 43
132.2968545404342
 44
-81.23804272777277
 45
-1.414213562373095
 46
-1.414213562373094
 79
     0
 47
0.4145230693519903
 98
        3
 10
452.7796023202776
 20
443.0943273347826
 10
276.5595556398503
 20
443.0943273347826
 10
231.3642968682075
 20
442.6798040314237
  0
LINE
  5
18F0
330
17
100
AcDbEntity
  8
STEMPEL
100
AcDbLine
 10
222.2968545404342
 20
443.6884698998666
 30
0.0
 11
222.2968545404342
 21
442.1884698998664
 31
0.0
  0
LINE
  5
18F1
330
17
100
AcDbEntity
  8
STEMPEL
100
AcDbLine
 10
292.7968545404342
 20
443.6884698998666
 30
0.0
 11
292.7968545404342
 21
442.1884698998665
 31
0.0
  0
ARC
  5
18F2
330
17
100
AcDbEntity
  8
SCHRAFF
100
AcDbCircle
 10
291.751910504981
 20
442.1884698998665
 30
0.0
 40
1.828088629478462
100
AcDbArc
 50
304.8622016819284
 51
55.13779831807161
  0
HATCH
  5
18F3
330
17
100
AcDbEntity
  8
SCHRAFF
100
AcDbHatch
 10
0.0
 20
0.0
 30
0.0
210
0.0
220
0.0
230
1.0
  2
_USER
 70
     0
 71
     0
 91
        2
 92
        7
 72
     1
 73
     1
 93
        3
 10
292.7968545404338
 20
443.688469899866
 42
-0.2453357974240878
 10
293.5799991344591
 20
442.1884698998668
 42
0.0
 10
292.7968545404338
 20
442.1884698998668
 42
0.0
 97
        0
 92
        7
 72
     1
 73
     1
 93
        3
 10
292.7968545404338
 20
442.1884698998668
 42
0.0
 10
293.5799991344595
 20
442.1884698998668
 42
-0.2453357974242125
 10
292.7968545404338
 20
440.6884698998665
 42
0.0
 97
        0
 75
     0
 76
     0
 52
0.0
 41
0.1
 77
     0
 78
     1
 53
179.9999999999998
 43
553.0968545404321
 44
-71.23804272777403
 45
0.0000000000000003
 46
0.1
 79
     0
 47
0.0937308931428171
 98
        2
 10
293.1481017273767
 20
442.6333262413201
 10
293.0543367116018
 20
441.7897477118334
  0
LINE
  5
18F4
330
17
100
AcDbEntity
  8
STEMPEL
100
AcDbLine
 10
304.4285562464549
 20
442.1884698998668
 30
0.0
 11
302.7962380565762
 21
432.4133267956184
 31
0.0
  0
ELLIPSE
  5
18F5
330
17
100
AcDbEntity
  8
STEMPEL
100
AcDbEllipse
 10
299.7061651887689
 20
434.1884698998668
 30
0.0
 11
-0.0000000000000166
 21
-6.0
 31
0.0
210
0.0
220
0.0
230
-1.0
 40
0.5391486519126829
 41
5.01274173125013
 42
5.986102071232593
  0
LINE
  5
18F6
330
17
100
AcDbEntity
  8
STEMPEL
100
AcDbLine
 10
306.0185802552963
 20
442.1884698998668
 30
0.0
 11
304.4353543418051
 21
432.4133267956184
 31
0.0
  0
ELLIPSE
  5
18F7
330
17
100
AcDbEntity
  8
STEMPEL
100
AcDbEllipse
 10
301.4382159963378
 20
434.1884698998668
 30
0.0
 11
0.0000000000000166
 21
6.0
 31
0.0
210
0.0
220
0.0
230
-1.0
 40
0.5229336548626785
 41
1.871149077660318
 42
3.141592653589793
  0
LINE
  5
18F8
330
17
100
AcDbEntity
  8
STEMPEL
100
AcDbLine
 10
297.7742193530407
 20
442.1884698998668
 30
0.0
 11
298.8371472588164
 21
432.7260982077732
 31
0.0
  0
ELLIPSE
  5
18F9
330
17
100
AcDbEntity
  8
STEMPEL
100
AcDbEllipse
 10
301.4382159963378
 20
434.1884698998668
 30
0.0
 11
0.0000000000000166
 21
6.0
 31
0.0
210
0.0
220
0.0
230
-1.0
 40
0.4469911571673986
 41
3.141592653589793
 42
4.466180421600129
  0
ARC
  5
18FA
330
17
100
AcDbEntity
  8
STEMPEL
100
AcDbCircle
 10
357.2968545404342
 20
434.1884698998665
 30
0.0
 40
6.0
100
AcDbArc
 50
195.8034962890195
 51
344.1965037109804
  0
LINE
  5
18FB
330
17
100
AcDbEntity
  8
STEMPEL
100
AcDbLine
 10
365.7968545404342
 20
442.1884698998665
 30
0.0
 11
363.0700628007499
 21
432.554436123281
 31
0.0
  0
LINE
  5
18FC
330
17
100
AcDbEntity
  8
STEMPEL
100
AcDbLine
 10
348.7968545404342
 20
442.1884698998665
 30
0.0
 11
351.5236462801185
 21
432.554436123281
 31
0.0
  0
ARC
  5
18FD
330
17
100
AcDbEntity
  8
SCHRAFF
100
AcDbCircle
 10
340.1013855019266
 20
442.1884698998664
 30
0.0
 40
5.0
100
AcDbArc
 50
342.5423968762808
 51
17.45760312371915
  0
ARC
  5
18FE
330
17
100
AcDbEntity
  8
SCHRAFF
100
AcDbCircle
 10
335.1013855019266
 20
442.1884698998664
 30
0.0
 40
5.0
100
AcDbArc
 50
342.5423968762808
 51
17.45760312371915
  0
ARC
  5
18FF
330
17
100
AcDbEntity
  8
SCHRAFF
100
AcDbCircle
 10
330.1013855019267
 20
442.1884698998664
 30
0.0
 40
5.0
100
AcDbArc
 50
342.5423968762808
 51
17.45760312371915
  0
ARC
  5
1900
330
17
100
AcDbEntity
  8
SCHRAFF
100
AcDbCircle
 10
315.1013855019266
 20
442.1884698998664
 30
0.0
 40
5.0
100
AcDbArc
 50
342.5423968762808
 51
17.45760312371915
  0
ARC
  5
1901
330
17
100
AcDbEntity
  8
SCHRAFF
100
AcDbCircle
 10
320.1013855019267
 20
442.1884698998664
 30
0.0
 40
5.0
100
AcDbArc
 50
342.5423968762808
 51
17.45760312371915
  0
ARC
  5
1902
330
17
100
AcDbEntity
  8
SCHRAFF
100
AcDbCircle
 10
325.1013855019266
 20
442.1884698998664
 30
0.0
 40
5.0
100
AcDbArc
 50
342.5423968762808
 51
17.45760312371915
  0
ARC
  5
1903
330
17
100
AcDbEntity
  8
SCHRAFF
100
AcDbCircle
 10
310.1013855019266
 20
442.1884698998664
 30
0.0
 40
5.0
100
AcDbArc
 50
342.5423968762808
 51
17.45760312371915
  0
ARC
  5
1904
330
17
100
AcDbEntity
  8
SCHRAFF
100
AcDbCircle
 10
305.1013855019267
 20
442.1884698998664
 30
0.0
 40
5.0
100
AcDbArc
 50
342.5423968762808
 51
17.45760312371915
  0
ELLIPSE
  5
1905
330
17
100
AcDbEntity
  8
STEMPEL
100
AcDbEllipse
 10
413.1554930845304
 20
434.1884698998665
 30
0.0
 11
0.0
 21
6.0
 31
0.0
210
0.0
220
0.0
230
1.0
 40
0.4469911571673986
 41
3.141592653589793
 42
4.466180421600129
  0
LINE
  5
1906
330
17
100
AcDbEntity
  8
STEMPEL
100
AcDbLine
 10
416.8194897278276
 20
442.1884698998665
 30
0.0
 11
415.7565618220518
 21
432.7260982077731
 31
0.0
  0
ELLIPSE
  5
1907
330
17
100
AcDbEntity
  8
STEMPEL
100
AcDbEllipse
 10
413.1554930845304
 20
434.1884698998665
 30
0.0
 11
0.0
 21
6.0
 31
0.0
210
0.0
220
0.0
230
1.0
 40
0.5229336548626785
 41
1.871149077660318
 42
3.141592653589793
  0
LINE
  5
1908
330
17
100
AcDbEntity
  8
STEMPEL
100
AcDbLine
 10
408.575128825572
 20
442.1884698998665
 30
0.0
 11
410.1583547390633
 21
432.4133267956181
 31
0.0
  0
ELLIPSE
  5
1909
330
17
100
AcDbEntity
  8
STEMPEL
100
AcDbEllipse
 10
414.8875438920994
 20
434.1884698998665
 30
0.0
 11
0.0
 21
-6.0
 31
0.0
210
0.0
220
0.0
230
1.0
 40
0.5391486519126829
 41
5.01274173125013
 42
5.986102071232593
  0
LINE
  5
190A
330
17
100
AcDbEntity
  8
STEMPEL
100
AcDbLine
 10
410.1651528344134
 20
442.1884698998665
 30
0.0
 11
411.7974710242921
 21
432.4133267956181
 31
0.0
  0
ARC
  5
190B
330
17
100
AcDbEntity
  8
SCHRAFF
100
AcDbCircle
 10
365.0356443271753
 20
442.1884698998664
 30
0.0
 40
5.0
100
AcDbArc
 50
342.5423968762808
 51
17.45760312371915
  0
ARC
  5
190C
330
17
100
AcDbEntity
  8
SCHRAFF
100
AcDbCircle
 10
370.0356443271753
 20
442.1884698998664
 30
0.0
 40
5.0
100
AcDbArc
 50
342.5423968762808
 51
17.45760312371915
  0
ARC
  5
190D
330
17
100
AcDbEntity
  8
SCHRAFF
100
AcDbCircle
 10
375.0356443271753
 20
442.1884698998664
 30
0.0
 40
5.0
100
AcDbArc
 50
342.5423968762808
 51
17.45760312371915
  0
ARC
  5
190E
330
17
100
AcDbEntity
  8
SCHRAFF
100
AcDbCircle
 10
385.0356443271753
 20
442.1884698998664
 30
0.0
 40
5.0
100
AcDbArc
 50
342.5423968762808
 51
17.45760312371915
  0
ARC
  5
190F
330
17
100
AcDbEntity
  8
SCHRAFF
100
AcDbCircle
 10
380.0356443271753
 20
442.1884698998664
 30
0.0
 40
5.0
100
AcDbArc
 50
342.5423968762808
 51
17.45760312371915
  0
ARC
  5
1910
330
17
100
AcDbEntity
  8
SCHRAFF
100
AcDbCircle
 10
390.0356443271753
 20
442.1884698998664
 30
0.0
 40
5.0
100
AcDbArc
 50
342.5423968762808
 51
17.45760312371915
  0
ARC
  5
1911
330
17
100
AcDbEntity
  8
SCHRAFF
100
AcDbCircle
 10
395.0356443271752
 20
442.1884698998664
 30
0.0
 40
5.0
100
AcDbArc
 50
342.5423968762808
 51
17.45760312371915
  0
ARC
  5
1912
330
17
100
AcDbEntity
  8
SCHRAFF
100
AcDbCircle
 10
400.0356443271751
 20
442.1884698998664
 30
0.0
 40
5.0
100
AcDbArc
 50
342.5423968762808
 51
17.45760312371915
  0
LINE
  5
1913
330
17
100
AcDbEntity
  8
STEMPEL
100
AcDbLine
 10
421.7968545404345
 20
443.6884698998659
 30
0.0
 11
421.7968545404345
 21
442.1884698998665
 31
0.0
  0
HATCH
  5
1914
330
17
100
AcDbEntity
  8
SCHRAFF
100
AcDbHatch
 10
0.0
 20
0.0
 30
0.0
210
0.0
220
0.0
230
1.0
  2
_USER
 70
     0
 71
     0
 91
        2
 92
        7
 72
     1
 73
     1
 93
        3
 10
421.7968545404345
 20
443.6884698998659
 42
0.2453357974240878
 10
421.0137099464092
 20
442.1884698998665
 42
0.0
 10
421.7968545404345
 20
442.1884698998665
 42
0.0
 97
        0
 92
        7
 72
     1
 73
     1
 93
        3
 10
421.7968545404345
 20
442.1884698998665
 42
0.0
 10
421.0137099464088
 20
442.1884698998665
 42
0.2453357974242125
 10
421.7968545404345
 20
440.6884698998664
 42
0.0
 97
        0
 75
     0
 76
     0
 52
0.0
 41
0.1
 77
     0
 78
     1
 53
0.0
 43
161.4968545404346
 44
-71.23804272777334
 45
0.0
 46
0.1
 79
     0
 47
0.0937308931428171
 98
        2
 10
421.4456073534917
 20
442.6333262413199
 10
421.5393723692665
 20
441.7897477118333
  0
ARC
  5
1915
330
17
100
AcDbEntity
  8
SCHRAFF
100
AcDbCircle
 10
422.8417985758873
 20
442.1884698998664
 30
0.0
 40
1.828088629478462
100
AcDbArc
 50
124.8622016819284
 51
235.1377983180716
  0
LINE
  5
1916
330
17
100
AcDbEntity
  8
STEMPEL
100
AcDbLine
 10
492.2968545404341
 20
443.6884698998666
 30
0.0
 11
492.2968545404341
 21
442.1884698998664
 31
0.0
  0
LINE
  5
1917
330
17
100
AcDbEntity
  8
STEMPEL
100
AcDbLine
 10
290.7968545404342
 20
442.1884698998665
 30
0.0
 11
290.7968545404342
 21
402.1011480140495
 31
0.0
  0
LINE
  5
1918
330
17
100
AcDbEntity
  8
HILF
100
AcDbLine
 10
419.7892148653476
 20
402.1884698998666
 30
0.0
 11
294.8044942155208
 21
402.1884698998666
 31
0.0
  0
LINE
  5
1919
330
17
100
AcDbEntity
  8
STEMPEL
100
AcDbLine
 10
292.7968545404342
 20
402.1884698998666
 30
0.0
 11
293.6717411756934
 21
392.1884698998667
 31
0.0
  0
LINE
  5
191A
330
17
100
AcDbEntity
  8
STEMPEL
100
AcDbLine
 10
290.7968545404342
 20
402.1011480140495
 30
0.0
 11
291.6641015006067
 21
392.1884698998667
 31
0.0
  0
LINE
  5
191B
330
17
100
AcDbEntity
  8
STEMPEL
100
AcDbLine
 10
292.7968545404342
 20
442.1884698998665
 30
0.0
 11
292.7968545404342
 21
402.1884698998666
 31
0.0
  0
LINE
  5
191C
330
17
100
AcDbEntity
  8
STEMPEL
100
AcDbLine
 10
422.9296075802616
 20
392.1884698998667
 30
0.0
 11
291.6641015006067
 21
392.1884698998667
 31
0.0
  0
LINE
  5
191D
330
17
100
AcDbEntity
  8
STEMPEL
100
AcDbLine
 10
423.7968545404345
 20
442.1884698998659
 30
0.0
 11
423.7968545404341
 21
402.1011480140488
 31
0.0
  0
LINE
  5
191E
330
17
100
AcDbEntity
  8
STEMPEL
100
AcDbLine
 10
423.7968545404341
 20
402.1011480140488
 30
0.0
 11
422.9296075802616
 21
392.1884698998667
 31
0.0
  0
LINE
  5
191F
330
17
100
AcDbEntity
  8
STEMPEL
100
AcDbLine
 10
421.7968545404342
 20
402.1884698998659
 30
0.0
 11
420.9219679051748
 21
392.188469899866
 31
0.0
  0
HATCH
  5
1920
330
17
100
AcDbEntity
  8
SCHRAFF
100
AcDbHatch
 10
0.0
 20
0.0
 30
0.0
210
0.0
220
0.0
230
1.0
  2
_USER
 70
     0
 71
     0
 91
        2
 92
        7
 72
     0
 73
     1
 93
        6
 10
421.7968545404342
 20
402.1884698998658
 10
420.9219679051749
 20
392.1884698998667
 10
422.9296075802616
 20
392.1884698998665
 10
423.7968545404341
 20
402.1011480140484
 10
423.7968545404345
 20
442.1884698998665
 10
421.7968545404345
 20
442.1884698998664
 97
        0
 92
        7
 72
     0
 73
     1
 93
        6
 10
292.7968545404342
 20
442.1884698998665
 10
290.7968545404342
 20
442.1884698998665
 10
290.7968545404342
 20
402.1011480140495
 10
291.6641015006068
 20
392.1884698998667
 10
293.6717411756934
 20
392.1884698998667
 10
292.7968545404342
 20
402.1884698998666
 97
        0
 75
     0
 76
     0
 52
45.0
 41
2.0
 77
     0
 78
     1
 53
45.0
 43
132.2968545404342
 44
-81.23804272777277
 45
-1.414213562373094
 46
1.414213562373095
 79
     0
 47
0.2291050733570159
 98
        2
 10
422.660965211525
 20
414.1303599905111
 10
292.0235678992774
 20
416.6505167669971
  0
LINE
  5
1921
330
17
100
AcDbEntity
  8
MITTEL
100
AcDbLine
 10
418.2968545404341
 20
437.1884698998668
 30
0.0
 11
418.2968545404341
 21
471.2884698998673
 31
0.0
  0
LINE
  5
1922
330
17
100
AcDbEntity
  8
STEMPEL
100
AcDbLine
 10
425.0349656192631
 20
460.7553008412994
 30
0.0
 11
419.0666077358939
 21
460.7553008412994
 31
0.0
  0
ARC
  5
1923
330
17
100
AcDbEntity
  8
STEMPEL
100
AcDbCircle
 10
424.846854540434
 20
460.2384698998672
 30
0.0
 40
0.5500000000000009
100
AcDbArc
 50
270.0
 51
69.99999999999935
  0
LINE
  5
1924
330
17
100
AcDbEntity
  8
STEMPEL
100
AcDbLine
 10
425.0349656192631
 20
460.7553008412994
 30
0.0
 11
424.0703572323303
 21
461.1063895818666
 31
0.0
  0
LINE
  5
1925
330
17
100
AcDbEntity
  8
STEMPEL
100
AcDbLine
 10
423.296854540434
 20
466.2884698998673
 30
0.0
 11
418.1546311345154
 21
466.2884698998673
 31
0.0
  0
LINE
  5
1926
330
17
100
AcDbEntity
  8
STEMPEL
100
AcDbLine
 10
424.0703572323303
 20
466.0812104782303
 30
0.0
 11
424.0703572323303
 21
461.1063895818666
 31
0.0
  0
LINE
  5
1927
330
17
100
AcDbEntity
  8
STEMPEL
100
AcDbLine
 10
421.1836058863822
 20
466.0812104782303
 30
0.0
 11
421.1836058863822
 21
461.1063895818666
 31
0.0
  0
LINE
  5
1928
330
17
100
AcDbEntity
  8
STEMPEL
100
AcDbLine
 10
424.846854540434
 20
459.6884698998672
 30
0.0
 11
419.7926542106198
 21
459.6884698998672
 31
0.0
  0
ARC
  5
1929
330
17
100
AcDbEntity
  8
STEMPEL
100
AcDbCircle
 10
422.6269815593562
 20
461.1589327613441
 30
0.0
 40
5.129537138523076
100
AcDbArc
 50
73.65710669401345
 51
106.3428933059865
  0
LINE
  5
192A
330
17
100
AcDbEntity
  8
STEMPEL
100
AcDbLine
 10
423.296854540434
 20
466.2884698998673
 30
0.0
 11
424.0703572323303
 21
466.0812104782303
 31
0.0
  0
ARC
  5
192B
330
17
100
AcDbEntity
  8
STEMPEL
100
AcDbCircle
 10
418.2968545404341
 20
446.0812104782304
 30
0.0
 40
20.20725942163691
100
AcDbArc
 50
81.78678929826059
 51
90.40326439207246
  0
ARC
  5
192C
330
17
100
AcDbEntity
  8
HILF
100
AcDbCircle
 10
422.6269815593562
 20
457.5459965761626
 30
0.0
 40
3.841839622940954
100
AcDbArc
 50
67.9324721810082
 51
112.0675278189918
  0
ARC
  5
192D
330
17
100
AcDbEntity
  8
HILF
100
AcDbCircle
 10
418.2968545404341
 20
446.447177872641
 30
0.0
 40
14.94074366520046
100
AcDbArc
 50
78.85962783889434
 51
88.16153752705751
  0
HATCH
  5
192E
330
17
100
AcDbEntity
  8
SCHRAFF
100
AcDbHatch
 10
0.0
 20
0.0
 30
0.0
210
0.0
220
0.0
230
1.0
  2
ANSI31
 70
     0
 71
     0
 91
        5
 92
        7
 72
     1
 73
     1
 93
       39
 10
277.2968545404343
 20
548.6884698998669
 42
0.1316524975847141
 10
274.2968545404896
 20
547.8846223226049
 42
0.0
 10
250.2641599187244
 20
533.8655504599091
 42
0.2662608607102479
 10
247.2968545404342
 20
528.6884119325511
 42
0.0
 10
247.2968545404342
 20
523.6884698998669
 42
0.0
 10
248.2968545404343
 20
523.6884698998669
 42
0.0
 10
248.2968545404343
 20
528.6884119325513
 42
-0.2667503951500742
 10
250.7775009723074
 20
533.0073073467478
 42
0.0
 10
274.7563548652585
 20
546.9949605129332
 42
-0.1340385084111775
 10
277.2968545404343
 20
547.6884698998669
 42
0.0
 10
331.8573399453777
 20
547.6884698998665
 42
0.2679491924311568
 10
334.022403454839
 20
548.9384698998665
 42
-0.2679491924313146
 10
334.4554161567318
 20
549.1884698998663
 42
0.0
 10
334.6554161567318
 20
549.1884698998663
 42
-0.2679491924310819
 10
335.0884288586239
 20
548.9384698998662
 42
0.2679491924311186
 10
337.2534923680851
 20
547.6884698998665
 42
0.0
 10
343.7073399453781
 20
547.6884698998665
 42
0.2679491924311333
 10
345.8724034548394
 20
548.9384698998662
 42
-0.2679491924311795
 10
346.3054161567317
 20
549.1884698998663
 42
0.0
 10
346.5054161567317
 20
549.1884698998663
 42
-0.3419987131196873
 10
346.9895390750076
 20
548.8134698998663
 42
0.359675761990544
 10
348.5362824261352
 20
547.6914416985375
 42
0.3596757619904921
 10
350.0830257772626
 20
548.8134698998663
 42
-0.3419987131195469
 10
350.5671486955382
 20
549.1884698998663
 42
0.0
 10
357.2968545404344
 20
549.1884698998663
 42
0.0
 10
357.2968545404344
 20
550.1884698998662
 42
0.0
 10
350.5671486955382
 20
550.1884698998662
 42
0.3419987131196276
 10
349.1147799407105
 20
549.0634698998662
 42
-0.3419987131196876
 10
348.6306570224345
 20
548.6884698998663
 42
0.0
 10
348.4419078298357
 20
548.6884698998663
 42
-0.3419987131196593
 10
347.9577849115598
 20
549.0634698998662
 42
0.3607372083888518
 10
346.4054161567317
 20
550.1851328545758
 42
0.2859076546238796
 10
345.0063780510549
 20
549.4384698998662
 42
-0.2679491924311347
 10
343.7073399453782
 20
548.6884698998663
 42
0.0
 10
337.2534923680841
 20
548.6884698998663
 42
-0.2679491924310867
 10
335.9544542624076
 20
549.438469899866
 42
0.2859076546238621
 10
334.5554161567311
 20
550.1851328545758
 42
0.2859076546237983
 10
333.1563780510547
 20
549.4384698998662
 42
-0.267949192431112
 10
331.8573399453781
 20
548.6884698998665
 42
0.0
 97
        0
 92
        7
 72
     1
 73
     1
 93
        8
 10
247.2968545404339
 20
464.6884698998674
 42
-0.4142135623730736
 10
242.2968545404343
 20
459.6884698998675
 42
0.0
 10
239.2968545404341
 20
459.6884698998673
 42
0.0
 10
239.2968545404341
 20
458.6884698998671
 42
0.0
 10
242.296854540434
 20
458.6884698998671
 42
0.414213562373112
 10
248.296854540434
 20
464.6884698998674
 42
0.0
 10
248.2968545404341
 20
483.6884698998669
 42
0.0
 10
247.296854540434
 20
483.6884698998669
 42
0.0
 97
        0
 92
        7
 72
     0
 73
     1
 93
        4
 10
227.2968545404343
 20
459.6884698998671
 10
227.2968545404341
 20
458.6884698998671
 10
231.2968545404341
 20
458.6884698998671
 10
231.2968545404341
 20
459.6884698998672
 97
        0
 92
        7
 72
     1
 73
     1
 93
        8
 10
487.2968545404344
 20
458.688469899866
 42
0.0
 10
487.2968545404342
 20
459.688469899866
 42
0.0
 10
472.2968545404338
 20
459.6884698998664
 42
-0.4142135623730833
 10
467.2968545404341
 20
464.6884698998664
 42
0.0
 10
467.2968545404343
 20
483.6884698998658
 42
0.0
 10
466.296854540434
 20
483.688469899866
 42
0.0
 10
466.2968545404339
 20
464.6884698998664
 42
0.4142135623731169
 10
472.296854540434
 20
458.688469899866
 42
0.0
 97
        0
 92
        7
 72
     1
 73
     1
 93
       40
 10
382.5584923680851
 20
548.688469899866
 42
-0.2679491924311478
 10
381.2594542624085
 20
549.4384698998662
 42
0.2859076546238744
 10
379.8604161567317
 20
550.1851328545756
 42
0.2859076546239183
 10
378.4613780510547
 20
549.438469899866
 42
-0.2679491924311158
 10
377.1623399453781
 20
548.688469899866
 42
0.0
 10
375.1034923680854
 20
548.688469899866
 42
-0.2679491924311457
 10
373.8044542624087
 20
549.4384698998662
 42
0.2859076546238805
 10
372.4054161567319
 20
550.1851328545758
 42
0.2859076546238791
 10
371.0063780510552
 20
549.438469899866
 42
-0.2679491924311259
 10
369.7073399453785
 20
548.688469899866
 42
0.0
 10
363.2534923680845
 20
548.688469899866
 42
-0.2679491924311028
 10
361.9544542624079
 20
549.438469899866
 42
0.2679491924311533
 10
360.6554161567311
 20
550.1884698998662
 42
0.0
 10
357.2968545404344
 20
550.1884698998662
 42
0.0
 10
357.2968545404344
 20
549.188469899866
 42
0.0
 10
360.6554161567318
 20
549.1884698998663
 42
-0.267949192431122
 10
361.088428858624
 20
548.9384698998662
 42
0.267949192431119
 10
363.2534923680851
 20
547.6884698998662
 42
0.0
 10
369.7073399453787
 20
547.6884698998662
 42
0.2679491924311053
 10
371.8724034548397
 20
548.938469899866
 42
-0.2679491924310267
 10
372.3054161567317
 20
549.1884698998663
 42
0.0
 10
372.5054161567317
 20
549.1884698998663
 42
-0.2679491924311632
 10
372.938428858624
 20
548.938469899866
 42
0.2679491924311225
 10
375.1034923680851
 20
547.6884698998662
 42
0.0
 10
377.1623399453778
 20
547.6884698998662
 42
0.2679491924311512
 10
379.3274034548391
 20
548.9384698998662
 42
-0.2679491924312574
 10
379.7604161567316
 20
549.188469899866
 42
0.0
 10
379.9604161567316
 20
549.188469899866
 42
-0.2679491924311204
 10
380.3934288586238
 20
548.938469899866
 42
0.2679491924311204
 10
382.558492368085
 20
547.688469899866
 42
0.0
 10
437.2968545404345
 20
547.6884698998658
 42
-0.1340385084113062
 10
439.8373542156104
 20
546.9949605129322
 42
0.0
 10
463.8162081085615
 20
533.0073073467467
 42
-0.2667503951500889
 10
466.2968545404343
 20
528.6884119325507
 42
0.0
 10
466.2968545404343
 20
523.688469899866
 42
0.0
 10
467.2968545404343
 20
523.688469899866
 42
0.0
 10
467.2968545404343
 20
528.6884119325504
 42
0.2662608607100668
 10
464.3295491621479
 20
533.8655504599059
 42
0.0
 10
440.2968545403566
 20
547.8846223226173
 42
0.1316524975835771
 10
437.2968545404345
 20
548.6884698998653
 42
0.0
 97
        0
 75
     0
 76
     1
 52
0.0
 41
20.0
 77
     0
 78
     1
 53
134.9999999999997
 43
595.7403260951073
 44
41.86211955135189
 45
1.767766952966376
 46
1.767766952966361
 79
     0
 47
0.2376111440341236
 98
        5
 10
295.1867768787083
 20
548.4832926827846
 10
247.5060625667167
 20
474.8189978043796
 10
228.9761866670474
 20
459.4710767727926
 10
480.423863642914
 20
459.0473364416661
 10
430.0055530455047
 20
548.3891289625171
  0
LINE
  5
192F
330
17
100
AcDbEntity
  8
STEMPEL
100
AcDbLine
 10
437.2968545404345
 20
547.6884698998658
 30
0.0
 11
277.2968545404343
 21
547.6884698998669
 31
0.0
  0
LINE
  5
1930
330
17
100
AcDbEntity
  8
STEMPEL
100
AcDbLine
 10
487.296854540434
 20
458.688469899866
 30
0.0
 11
227.296854540434
 21
458.6884698998671
 31
0.0
  0
LINE
  5
1931
330
17
100
AcDbEntity
  8
HILF
100
AcDbLine
 10
254.9705214829038
 20
531.6884698998697
 30
0.0
 11
460.1231875979651
 21
531.6884698998685
 31
0.0
  0
LINE
  5
1932
330
17
100
AcDbEntity
  8
STEMPEL
100
AcDbLine
 10
437.2968545404345
 20
548.6884698998653
 30
0.0
 11
382.5584923680851
 21
548.688469899866
 31
0.0
  0
LINE
  5
1933
330
17
100
AcDbEntity
  8
STEMPEL
100
AcDbLine
 10
466.2968545404343
 20
528.6884119325504
 30
0.0
 11
466.2968545404339
 21
464.6884698998664
 31
0.0
  0
LINE
  5
1934
330
17
100
AcDbEntity
  8
STEMPEL
100
AcDbLine
 10
467.2968545404343
 20
528.6884119325504
 30
0.0
 11
467.2968545404341
 21
464.6884698998664
 31
0.0
  0
ELLIPSE
  5
1935
330
17
100
AcDbEntity
  8
STEMPEL
100
AcDbEllipse
 10
451.4699000470971
 20
491.1884698998678
 30
0.0
 11
-0.0000000000000334
 21
-7.499999999999999
 31
0.0
210
0.0
220
0.0
230
1.0
 40
0.4999999999999926
 41
4.712388980384689
 42
7.853981633974482
  0
ELLIPSE
  5
1936
330
17
100
AcDbEntity
  8
STEMPEL
100
AcDbEllipse
 10
452.3379640667862
 20
491.1884698998678
 30
0.0
 11
-0.0000000000000334
 21
-7.499999999999999
 31
0.0
210
0.0
220
0.0
230
1.0
 40
0.4999999999999926
 41
4.712388980384689
 42
6.167183451052224
  0
ELLIPSE
  5
1937
330
17
100
AcDbEntity
  8
STEMPEL
100
AcDbEllipse
 10
452.3379640667863
 20
516.1884698998663
 30
0.0
 11
0.0000000000000334
 21
7.499999999999999
 31
0.0
210
0.0
220
0.0
230
-1.0
 40
0.4999999999999926
 41
4.712388980384689
 42
6.167183451052224
  0
ELLIPSE
  5
1938
330
17
100
AcDbEntity
  8
STEMPEL
100
AcDbEllipse
 10
451.4699000470973
 20
516.1884698998663
 30
0.0
 11
0.0000000000000334
 21
7.499999999999999
 31
0.0
210
0.0
220
0.0
230
-1.0
 40
0.4999999999999926
 41
4.712388980384689
 42
7.853981633974482
  0
LWPOLYLINE
  5
1939
330
17
100
AcDbEntity
  8
STEMPEL
100
AcDbPolyline
 90
       10
 70
   128
 43
0.0
 10
452.4968356581113
 20
458.6884698998661
 10
451.7390860330171
 20
458.7796233817928
 10
451.0043602468415
 20
459.0503141751507
 10
450.3149825708084
 20
459.4923174771595
 10
449.6918993967621
 20
460.0922032411523
 10
449.1540427916505
 20
460.8317442417471
 10
448.7177552562516
 20
461.6884698998664
 10
448.3962931665563
 20
462.6363490399124
 10
448.1994239854923
 20
463.646580833865
 10
448.1331294835054
 20
464.6884698998666
  0
LINE
  5
193A
330
17
100
AcDbEntity
  8
STEMPEL
100
AcDbLine
 10
487.296854540434
 20
459.688469899866
 30
0.0
 11
472.2968545404338
 21
459.6884698998664
 31
0.0
  0
LINE
  5
193B
330
17
100
AcDbEntity
  8
STEMPEL
100
AcDbLine
 10
487.2968545404342
 20
459.6884698998662
 30
0.0
 11
487.2968545404343
 21
458.688469899866
 31
0.0
  0
LWPOLYLINE
  5
193C
330
17
100
AcDbEntity
  8
STEMPEL
100
AcDbPolyline
 90
       18
 70
   128
 43
0.0
 10
-466.0871672993988
 20
471.1884698998641
 10
-466.0704988759221
 20
472.5665912834887
 10
-466.0210612286617
 20
473.8977823962684
 10
-465.9405378974012
 20
475.1367111214451
 10
-465.8316710076095
 20
476.2411872272145
 10
-465.6981678906472
 20
477.1735991044673
 10
-465.5445748350431
 20
477.9021945850285
 10
-465.3761222680911
 20
478.4021622236618
 10
-465.1985466399221
 20
478.6564762220786
 10
-465.017895075575
 20
478.6564762220786
 10
-464.8403194474061
 20
478.4021622236618
 10
-464.6718668804541
 20
477.9021945850285
 10
-464.5182738248499
 20
477.1735991044673
 10
-464.3847707078877
 20
476.2411872272145
 10
-464.275903818096
 20
475.1367111214451
 10
-464.1953804868355
 20
473.8977823962684
 10
-464.1459428395751
 20
472.5665912834887
 10
-464.1292744160984
 20
471.1884698998641
210
0.0
220
0.0
230
-1.0
  0
LWPOLYLINE
  5
193D
330
17
100
AcDbEntity
  8
STEMPEL
100
AcDbPolyline
 90
        9
 70
   128
 43
0.0
 10
-458.2240815781781
 20
478.5902281445293
 10
-457.7350210349094
 20
478.263795246772
 10
-457.2754080670084
 20
477.7185262335147
 10
-456.8594582633842
 20
476.9712859903868
 10
-456.5000367340926
 20
476.0451862676092
 10
-456.2082601992051
 20
474.9688708456389
 10
-455.993153154467
 20
473.7756295980081
 10
-455.8613687483594
 20
472.5023688529321
 10
-455.8169830036946
 20
471.1884698998658
210
0.0
220
0.0
230
-1.0
  0
LWPOLYLINE
  5
193E
330
17
100
AcDbEntity
  8
STEMPEL
100
AcDbPolyline
 90
       18
 70
   128
 43
0.0
 10
-460.631180152665
 20
471.1884698998643
 10
-460.5823108077487
 20
472.5665912834887
 10
-460.4373669599286
 20
473.8977823962684
 10
-460.2012844981015
 20
475.1367111214453
 10
-459.8821029273547
 20
476.2411872272145
 10
-459.4906915932644
 20
477.1735991044674
 10
-459.0403795393664
 20
477.9021945850287
 10
-458.5465016025669
 20
478.4021622236619
 10
-458.025876203662
 20
478.6564762220786
 10
-457.4962326161902
 20
478.6564762220786
 10
-456.9756072172853
 20
478.4021622236619
 10
-456.4817292804859
 20
477.9021945850287
 10
-456.0314172265878
 20
477.1735991044674
 10
-455.6400058924976
 20
476.2411872272145
 10
-455.3208243217508
 20
475.1367111214453
 10
-455.0847418599236
 20
473.8977823962684
 10
-454.9397980121035
 20
472.5665912834887
 10
-454.8909286671872
 20
471.1884698998643
210
0.0
220
0.0
230
-1.0
  0
ARC
  5
193F
330
17
100
AcDbEntity
  8
STEMPEL
100
AcDbCircle
 10
472.296854540434
 20
464.6884698998664
 30
0.0
 40
6.0
100
AcDbArc
 50
180.0
 51
269.9999999999968
  0
ARC
  5
1940
330
17
100
AcDbEntity
  8
STEMPEL
100
AcDbCircle
 10
472.296854540434
 20
464.6884698998664
 30
0.0
 40
5.0
100
AcDbArc
 50
180.0
 51
269.9999999999968
  0
LWPOLYLINE
  5
1941
330
17
100
AcDbEntity
  8
STEMPEL
100
AcDbPolyline
 90
       10
 70
   128
 43
0.0
 10
471.5931560304295
 20
458.6884698998671
 10
470.7350830341567
 20
458.7545971144398
 10
469.8822708345345
 20
459.0071508641701
 10
469.0615125276175
 20
459.4381965804876
 10
468.2985941612185
 20
460.0341919509275
 10
467.6174846057193
 20
460.7764123826481
 10
467.0395825157736
 20
461.6415392794455
 10
466.5830440413674
 20
462.6023926501616
 10
466.2622124097699
 20
463.6287850318738
 10
466.0871672993987
 20
464.6884698998664
  0
LWPOLYLINE
  5
1942
330
17
100
AcDbEntity
  8
STEMPEL
100
AcDbPolyline
 90
       10
 70
   128
 43
0.0
 10
469.6352631471291
 20
458.688469899866
 10
468.7771901508563
 20
458.7545971144386
 10
467.924377951234
 20
459.0071508641689
 10
467.1036196443171
 20
459.4381965804864
 10
466.3407012779181
 20
460.0341919509264
 10
465.6595917224189
 20
460.776412382647
 10
465.0816896324731
 20
461.6415392794444
 10
464.6251511580669
 20
462.6023926501605
 10
464.3043195264693
 20
463.6287850318727
 10
464.1292744160982
 20
464.6884698998653
  0
LINE
  5
1943
330
17
100
AcDbEntity
  8
STEMPEL
100
AcDbLine
 10
468.7076264830693
 20
459.688469899866
 30
0.0
 11
467.7435123133067
 21
459.688469899866
 31
0.0
  0
LINE
  5
1944
330
17
100
AcDbEntity
  8
STEMPEL
100
AcDbLine
 10
462.7847517853334
 20
459.688469899866
 30
0.0
 11
457.970554636362
 21
459.688469899866
 31
0.0
  0
LWPOLYLINE
  5
1945
330
17
100
AcDbEntity
  8
STEMPEL
100
AcDbPolyline
 90
       10
 70
   128
 43
0.0
 10
459.706293193761
 20
458.6884698998661
 10
458.8701139189195
 20
458.7796233817928
 10
458.0593415282169
 20
459.0503141751507
 10
457.298610930474
 20
459.4923174771595
 10
456.6110365399553
 20
460.0922032411523
 10
456.0175099565868
 20
460.8317442417471
 10
455.5360651852656
 20
461.6884698998663
 10
455.1813306817453
 20
462.6363490399123
 10
454.9640848744111
 20
463.6465808338648
 10
454.8909286671871
 20
464.6884698998666
  0
LINE
  5
1946
330
17
100
AcDbEntity
  8
STEMPEL
100
AcDbLine
 10
464.1292744160984
 20
471.1884698998641
 30
0.0
 11
464.1292744160982
 21
464.6884698998653
 31
0.0
  0
LINE
  5
1947
330
17
100
AcDbEntity
  8
STEMPEL
100
AcDbLine
 10
465.1230531296362
 20
471.1884698998641
 30
0.0
 11
465.1230531296361
 21
464.6884698998664
 31
0.0
  0
LINE
  5
1948
330
17
100
AcDbEntity
  8
STEMPEL
100
AcDbLine
 10
466.0871672993988
 20
471.1884698998641
 30
0.0
 11
466.0871672993987
 21
464.6884698998664
 31
0.0
  0
LINE
  5
1949
330
17
100
AcDbEntity
  8
STEMPEL
100
AcDbLine
 10
460.631180152665
 20
471.1884698998643
 30
0.0
 11
460.6311801526649
 21
464.6884698998676
 31
0.0
  0
LWPOLYLINE
  5
194A
330
17
100
AcDbEntity
  8
STEMPEL
100
AcDbPolyline
 90
       10
 70
   128
 43
0.0
 10
465.4465446792388
 20
458.688469899866
 10
464.6103654043972
 20
458.7796233817927
 10
463.7995930136947
 20
459.0503141751506
 10
463.0388624159518
 20
459.4923174771595
 10
462.351288025433
 20
460.0922032411522
 10
461.7577614420646
 20
460.8317442417471
 10
461.2763166707434
 20
461.6884698998663
 10
460.921582167223
 20
462.6363490399123
 10
460.7043363598888
 20
463.6465808338648
 10
460.6311801526649
 20
464.6884698998666
  0
LWPOLYLINE
  5
194B
330
17
100
AcDbEntity
  8
STEMPEL
100
AcDbPolyline
 90
        7
 70
   128
 43
0.0
 10
467.7435123133069
 20
459.6884698998664
 10
467.0668104382294
 20
460.2980706277254
 10
466.4672610145955
 20
461.0256297116372
 10
465.9609723414458
 20
461.8515995733174
 10
465.5615470494003
 20
462.7537885985204
 10
465.2797166341374
 20
463.7079573667142
 10
465.1230531296359
 20
464.6884698998664
  0
LWPOLYLINE
  5
194C
330
17
100
AcDbEntity
  8
STEMPEL
100
AcDbPolyline
 90
        7
 70
   128
 43
0.0
 10
-465.6051102145177
 20
477.650523955704
 10
-465.4672812049474
 20
476.8984177187655
 10
-465.3484169279813
 20
475.9757041080507
 10
-465.25206892608
 20
474.9099528581465
 10
-465.1811159785418
 20
473.7330075213253
 10
-465.1376780865339
 20
472.4800340149235
 10
-465.1230531296363
 20
471.1884698998641
210
0.0
220
0.0
230
-1.0
  0
LINE
  5
194D
330
17
100
AcDbEntity
  8
STEMPEL
100
AcDbLine
 10
455.8169830036945
 20
471.1884698998643
 30
0.0
 11
455.8169830036944
 21
464.6884698998676
 31
0.0
  0
LINE
  5
194E
330
17
100
AcDbEntity
  8
STEMPEL
100
AcDbLine
 10
454.8909286671872
 20
471.1884698998643
 30
0.0
 11
454.8909286671871
 21
464.6884698998676
 31
0.0
  0
LWPOLYLINE
  5
194F
330
17
100
AcDbEntity
  8
STEMPEL
100
AcDbPolyline
 90
        7
 70
   128
 43
0.0
 10
457.9705546363631
 20
459.688469899866
 10
457.3504641132987
 20
460.2978078017069
 10
456.8186439665153
 20
461.0252380749961
 10
456.389398166784
 20
461.8511955689398
 10
456.0742718189867
 20
462.7534651194022
 10
455.8817406420208
 20
463.7077790536454
 10
455.8169830036945
 20
464.6884698998666
  0
LINE
  5
1950
330
17
100
AcDbEntity
  8
STEMPEL
100
AcDbLine
 10
455.2199000470973
 20
516.1884698998663
 30
0.0
 11
455.2199000470972
 21
491.1884698998694
 31
0.0
  0
LINE
  5
1951
330
17
100
AcDbEntity
  8
STEMPEL
100
AcDbLine
 10
467.2968545404345
 20
483.6884698998658
 30
0.0
 11
466.2968545404343
 21
483.6884698998658
 31
0.0
  0
LINE
  5
1952
330
17
100
AcDbEntity
  8
STEMPEL
100
AcDbLine
 10
467.2968545404345
 20
523.6884698998657
 30
0.0
 11
466.2968545404345
 21
523.6884698998657
 31
0.0
  0
LWPOLYLINE
  5
1953
330
17
100
AcDbEntity
  8
STEMPEL
100
AcDbPolyline
 90
       18
 70
   128
 43
0.0
 10
-429.444736791022
 20
471.1884698998644
 10
-429.3434241792176
 20
472.566591283489
 10
-429.0429364232884
 20
473.8977823962685
 10
-428.5535062733672
 20
475.1367111214453
 10
-427.8918006862028
 20
476.2411872272146
 10
-427.0803532519376
 20
477.1735991044674
 10
-426.1467968397219
 20
477.9021945850288
 10
-425.1229225934959
 20
478.402162223662
 10
-424.0435973227131
 20
478.6564762220788
 10
-422.945576154962
 20
478.6564762220788
 10
-421.8662508841792
 20
478.402162223662
 10
-420.8423766379532
 20
477.9021945850288
 10
-419.9088202257375
 20
477.1735991044675
 10
-419.0973727914723
 20
476.2411872272148
 10
-418.4356672043079
 20
475.1367111214454
 10
-417.9462370543867
 20
473.8977823962685
 10
-417.6457492984575
 20
472.566591283489
 10
-417.5444366866531
 20
471.1884698998644
210
0.0
220
0.0
230
-1.0
  0
LWPOLYLINE
  5
1954
330
17
100
AcDbEntity
  8
STEMPEL
100
AcDbPolyline
 90
        9
 70
   128
 43
0.0
 10
-423.799683962757
 20
478.6786039776881
 10
-422.6832762413859
 20
478.4712968412811
 10
-421.6179969896436
 20
478.0020421138273
 10
-420.6421620066053
 20
477.2877178766586
 10
-419.7908699737473
 20
476.3540168332624
 10
-419.0947400310109
 20
475.2345221981019
 10
-418.5788104723195
 20
473.9694997807632
 10
-418.2616381721036
 20
472.6044497115539
 10
-418.1546311345154
 20
471.188469899866
210
0.0
220
0.0
230
-1.0
  0
LWPOLYLINE
  5
1955
330
17
100
AcDbEntity
  8
STEMPEL
100
AcDbPolyline
 90
       10
 70
   128
 43
0.0
 10
421.207039822177
 20
458.6884698998662
 10
420.5710354621762
 20
458.779623381793
 10
419.9543557728199
 20
459.0503141751508
 10
419.3757382544149
 20
459.4923174771596
 10
418.8527639074631
 20
460.0922032411524
 10
418.4013230428586
 20
460.8317442417471
 10
418.0351324628325
 20
461.6884698998664
 10
417.7653186828576
 20
462.6363490399125
 10
417.600079858106
 20
463.646580833865
 10
417.5444366866529
 20
464.6884698998666
  0
LWPOLYLINE
  5
1956
330
17
100
AcDbEntity
  8
STEMPEL
100
AcDbPolyline
 90
        7
 70
   128
 43
0.0
 10
419.7926542106206
 20
459.6884698998662
 10
419.3210086100537
 20
460.2978078017072
 10
418.916502133671
 20
461.0252380749964
 10
418.5900144911819
 20
461.85119556894
 10
418.3503269777737
 20
462.7534651194022
 10
418.2038862901476
 20
463.7077790536456
 10
418.1546311345153
 20
464.6884698998666
  0
LWPOLYLINE
  5
1957
330
17
100
AcDbEntity
  8
STEMPEL
100
AcDbPolyline
 90
       18
 70
   128
 43
0.0
 10
-448.1331294835054
 20
471.1884698998644
 10
-448.0553895822453
 20
472.5665912834888
 10
-447.8248172175634
 20
473.8977823962685
 10
-447.4492642547983
 20
475.1367111214453
 10
-446.9415196996705
 20
476.2411872272145
 10
-446.3188741840326
 20
477.1735991044674
 10
-445.6025311541386
 20
477.9021945850288
 10
-444.8168848127127
 20
478.402162223662
 10
-443.9886894036333
 20
478.6564762220786
 10
-443.1461481282456
 20
478.6564762220786
 10
-442.3179527191662
 20
478.402162223662
 10
-441.5323063777402
 20
477.9021945850288
 10
-440.8159633478462
 20
477.1735991044674
 10
-440.1933178322082
 20
476.2411872272145
 10
-439.6855732770806
 20
475.1367111214453
 10
-439.3100203143155
 20
473.8977823962685
 10
-439.0794479496336
 20
472.5665912834888
 10
-439.0017080483735
 20
471.1884698998644
210
0.0
220
0.0
230
-1.0
  0
LWPOLYLINE
  5
1958
330
17
100
AcDbEntity
  8
STEMPEL
100
AcDbPolyline
 90
       10
 70
   128
 43
0.0
 10
-444.3626396527604
 20
478.6884698998675
 10
-443.5698123069007
 20
478.574528047459
 10
-442.801074618755
 20
478.2361645557617
 10
-442.0797842939775
 20
477.6836604282507
 10
-441.4278573740959
 20
476.9338032232594
 10
-440.8651023286803
 20
476.009376972516
 10
-440.4086181850174
 20
474.9384698998666
 10
-440.0722749828206
 20
473.753620974809
 10
-439.8662923400905
 20
472.4908312323681
 10
-439.7969289351944
 20
471.188469899866
210
0.0
220
0.0
230
-1.0
  0
LWPOLYLINE
  5
1959
330
17
100
AcDbEntity
  8
STEMPEL
100
AcDbPolyline
 90
       10
 70
   128
 43
0.0
 10
443.3654142229794
 20
458.6884698998662
 10
442.6076645978851
 20
458.779623381793
 10
441.8729388117096
 20
459.0503141751507
 10
441.1835611356765
 20
459.4923174771595
 10
440.5604779616302
 20
460.0922032411523
 10
440.0226213565186
 20
460.8317442417471
 10
439.5863338211198
 20
461.6884698998664
 10
439.2648717314244
 20
462.6363490399124
 10
439.0680025503605
 20
463.646580833865
 10
439.0017080483736
 20
464.6884698998666
  0
LINE
  5
195A
330
17
100
AcDbEntity
  8
STEMPEL
100
AcDbLine
 10
450.0847063120239
 20
459.688469899866
 30
0.0
 11
441.7485057637119
 21
459.6884698998662
 31
0.0
  0
LINE
  5
195B
330
17
100
AcDbEntity
  8
STEMPEL
100
AcDbLine
 10
448.1331294835054
 20
471.1884698998644
 30
0.0
 11
448.1331294835054
 21
464.6884698998678
 31
0.0
  0
LINE
  5
195C
330
17
100
AcDbEntity
  8
STEMPEL
100
AcDbLine
 10
439.7969289351943
 20
471.1884698998644
 30
0.0
 11
439.7969289351943
 21
464.6884698998678
 31
0.0
  0
LINE
  5
195D
330
17
100
AcDbEntity
  8
STEMPEL
100
AcDbLine
 10
439.0017080483736
 20
471.1884698998644
 30
0.0
 11
439.0017080483735
 21
464.6884698998678
 31
0.0
  0
LWPOLYLINE
  5
195E
330
17
100
AcDbEntity
  8
STEMPEL
100
AcDbPolyline
 90
        7
 70
   128
 43
0.0
 10
441.7485057637126
 20
459.6884698998662
 10
441.1865767904485
 20
460.2978078017069
 10
440.7046388508613
 20
461.0252380749964
 10
440.3156542711115
 20
461.85119556894
 10
440.0300852800049
 20
462.7534651194022
 10
439.8556126142091
 20
463.7077790536454
 10
439.7969289351941
 20
464.6884698998666
  0
LINE
  5
195F
330
17
100
AcDbEntity
  8
STEMPEL
100
AcDbLine
 10
431.0827598671271
 20
459.6884698998662
 30
0.0
 11
419.79265421062
 21
459.6884698998662
 31
0.0
  0
LINE
  5
1960
330
17
100
AcDbEntity
  8
STEMPEL
100
AcDbLine
 10
429.4447367910219
 20
471.1884698998644
 30
0.0
 11
429.4447367910217
 21
464.6884698998678
 31
0.0
  0
LWPOLYLINE
  5
1961
330
17
100
AcDbEntity
  8
STEMPEL
100
AcDbPolyline
 90
       10
 70
   128
 43
0.0
 10
433.1073399265459
 20
458.6884698998662
 10
432.471335566545
 20
458.779623381793
 10
431.8546558771888
 20
459.0503141751507
 10
431.2760383587837
 20
459.4923174771596
 10
430.7530640118319
 20
460.0922032411523
 10
430.3016231472274
 20
460.8317442417471
 10
429.9354325672014
 20
461.6884698998664
 10
429.6656187872265
 20
462.6363490399125
 10
429.5003799624748
 20
463.646580833865
 10
429.4447367910217
 20
464.6884698998666
  0
LINE
  5
1962
330
17
100
AcDbEntity
  8
STEMPEL
100
AcDbLine
 10
447.7199000470974
 20
516.1884698998663
 30
0.0
 11
447.7199000470973
 21
491.1884698998679
 31
0.0
  0
LINE
  5
1963
330
17
100
AcDbEntity
  8
STEMPEL
100
AcDbLine
 10
448.5879640667861
 20
491.1884698998663
 30
0.0
 11
448.5879640667863
 21
516.1884698998679
 31
0.0
  0
LWPOLYLINE
  5
1964
330
17
100
AcDbEntity
  8
STEMPEL
100
AcDbPolyline
 90
       18
 70
   128
 43
0.0
 10
-405.8395851531718
 20
471.1884698998645
 10
-405.7216041178906
 20
472.566591283489
 10
-405.371678714701
 20
473.8977823962687
 10
-404.8017252335192
 20
475.1367111214455
 10
-404.0311527565632
 20
476.2411872272148
 10
-403.0862022053356
 20
477.1735991044677
 10
-401.9990527375155
 20
477.9021945850288
 10
-400.8067259243373
 20
478.4021622236621
 10
-399.5498250253855
 20
478.6564762220788
 10
-398.2711522932872
 20
478.6564762220788
 10
-397.0142513943354
 20
478.4021622236623
 10
-395.8219245811572
 20
477.9021945850289
 10
-394.734775113337
 20
477.1735991044677
 10
-393.7898245621095
 20
476.2411872272148
 10
-393.0192520851534
 20
475.1367111214455
 10
-392.4492986039717
 20
473.8977823962688
 10
-392.099373200782
 20
472.5665912834891
 10
-391.9813921655009
 20
471.1884698998646
210
0.0
220
0.0
230
-1.0
  0
LWPOLYLINE
  5
1965
330
17
100
AcDbEntity
  8
STEMPEL
100
AcDbPolyline
 90
        9
 70
   128
 43
0.0
 10
-399.1022807921482
 20
478.6855963229046
 10
-397.7780713418184
 20
478.5067634158569
 10
-396.5100919446324
 20
478.0564874985326
 10
-395.3453732565467
 20
477.3514697663935
 10
-394.3271158879401
 20
476.4178600500101
 10
-393.4930880486778
 20
475.2902868910339
 10
-392.8742246864839
 20
474.0105731340822
 10
-392.4934800780097
 20
472.6261846745466
 10
-392.3649764311779
 20
471.1884698998662
210
0.0
220
0.0
230
-1.0
  0
LINE
  5
1966
330
17
100
AcDbEntity
  8
STEMPEL
100
AcDbLine
 10
407.0570965859007
 20
459.6884698998663
 30
0.0
 11
393.5824878639064
 21
459.6884698998664
 31
0.0
  0
LINE
  5
1967
330
17
100
AcDbEntity
  8
STEMPEL
100
AcDbLine
 10
418.1546311345154
 20
471.1884698998644
 30
0.0
 11
418.1546311345153
 21
464.6884698998678
 31
0.0
  0
LINE
  5
1968
330
17
100
AcDbEntity
  8
STEMPEL
100
AcDbLine
 10
417.544436686653
 20
471.1884698998644
 30
0.0
 11
417.5444366866529
 21
464.6884698998678
 31
0.0
  0
LINE
  5
1969
330
17
100
AcDbEntity
  8
STEMPEL
100
AcDbLine
 10
405.8395851531718
 20
471.1884698998645
 30
0.0
 11
405.8395851531717
 21
464.6884698998679
 31
0.0
  0
LWPOLYLINE
  5
196A
330
17
100
AcDbEntity
  8
STEMPEL
100
AcDbPolyline
 90
       10
 70
   128
 43
0.0
 10
408.5619284803807
 20
458.6884698998663
 10
408.0891985226271
 20
458.7796233817931
 10
407.6308322254269
 20
459.050314175151
 10
407.2007568167761
 20
459.4923174771596
 10
406.8120399203379
 20
460.0922032411526
 10
406.4764925023102
 20
460.8317442417473
 10
406.2043100011947
 20
461.6884698998665
 10
406.0037625445565
 20
462.6363490399125
 10
405.8809436653842
 20
463.6465808338651
 10
405.8395851531717
 20
464.6884698998667
  0
LWPOLYLINE
  5
196B
330
17
100
AcDbEntity
  8
STEMPEL
100
AcDbPolyline
 90
       10
 70
   128
 43
0.0
 10
394.7037354927098
 20
458.6884698998664
 10
394.2310055349563
 20
458.7796233817932
 10
393.772639237756
 20
459.050314175151
 10
393.3425638291053
 20
459.4923174771598
 10
392.953846932667
 20
460.0922032411526
 10
392.6182995146394
 20
460.8317442417473
 10
392.3461170135238
 20
461.6884698998666
 10
392.1455695568857
 20
462.6363490399127
 10
392.0227506777132
 20
463.6465808338652
 10
391.9813921655008
 20
464.6884698998668
  0
LINE
  5
196C
330
17
100
AcDbEntity
  8
STEMPEL
100
AcDbLine
 10
392.3649764311779
 20
471.1884698998646
 30
0.0
 11
392.3649764311777
 21
464.688469899868
 31
0.0
  0
LINE
  5
196D
330
17
100
AcDbEntity
  8
STEMPEL
100
AcDbLine
 10
391.9813921655009
 20
471.188469899863
 30
0.0
 11
391.9813921655008
 21
464.688469899868
 31
0.0
  0
LWPOLYLINE
  5
196E
330
17
100
AcDbEntity
  8
STEMPEL
100
AcDbPolyline
 90
        7
 70
   128
 43
0.0
 10
393.5824878639069
 20
459.6884698998664
 10
393.2319226494949
 20
460.2978078017072
 10
392.9312606705562
 20
461.0252380749964
 10
392.6885886086216
 20
461.8511955689402
 10
392.5104334335731
 20
462.7534651194024
 10
392.4015868525926
 20
463.7077790536456
 10
392.3649764311777
 20
464.6884698998668
  0
LINE
  5
196F
330
17
100
AcDbEntity
  8
STEMPEL
100
AcDbLine
 10
405.1724971857305
 20
516.1884698998664
 30
0.0
 11
405.1724971857304
 21
491.1884698998664
 31
0.0
  0
LINE
  5
1970
330
17
100
AcDbEntity
  8
STEMPEL
100
AcDbLine
 10
418.1628782424963
 20
516.1884698998664
 30
0.0
 11
418.1628782424962
 21
491.188469899868
 31
0.0
  0
LINE
  5
1971
330
17
100
AcDbEntity
  8
STEMPEL
100
AcDbLine
 10
405.6736741811725
 20
516.1884698998664
 30
0.0
 11
405.6736741811724
 21
491.1884698998664
 31
0.0
  0
ELLIPSE
  5
1972
330
17
100
AcDbEntity
  8
STEMPEL
100
AcDbEllipse
 10
411.6676877141133
 20
491.1884698998664
 30
0.0
 11
-0.0000000000000334
 21
-7.5
 31
0.0
210
0.0
220
0.0
230
1.0
 40
0.8660254037843856
 41
4.712388980384689
 42
7.853981633974482
  0
ELLIPSE
  5
1973
330
17
100
AcDbEntity
  8
STEMPEL
100
AcDbEllipse
 10
412.1688647095553
 20
491.1884698998664
 30
0.0
 11
-0.0000000000000334
 21
-7.5
 31
0.0
210
0.0
220
0.0
230
1.0
 40
0.8660254037843856
 41
4.712388980384689
 42
6.24459510668465
  0
ELLIPSE
  5
1974
330
17
100
AcDbEntity
  8
STEMPEL
100
AcDbEllipse
 10
411.6676877141135
 20
516.1884698998664
 30
0.0
 11
0.0000000000000334
 21
7.5
 31
0.0
210
0.0
220
0.0
230
-1.0
 40
0.8660254037843856
 41
4.712388980384689
 42
7.853981633974482
  0
ELLIPSE
  5
1975
330
17
100
AcDbEntity
  8
STEMPEL
100
AcDbEllipse
 10
412.1688647095554
 20
516.1884698998664
 30
0.0
 11
0.0000000000000334
 21
7.5
 31
0.0
210
0.0
220
0.0
230
-1.0
 40
0.8660254037843856
 41
4.712388980384689
 42
6.24459510668465
  0
LINE
  5
1976
330
17
100
AcDbEntity
  8
STEMPEL
100
AcDbLine
 10
463.8162081085615
 20
533.0073073467467
 30
0.0
 11
439.8373542156104
 21
546.9949605129322
 31
0.0
  0
LINE
  5
1977
330
17
100
AcDbEntity
  8
STEMPEL
100
AcDbLine
 10
464.3295491621422
 20
533.8655504599094
 30
0.0
 11
440.3432462866755
 21
547.8575604705979
 31
0.0
  0
ARC
  5
1978
330
17
100
AcDbEntity
  8
STEMPEL
100
AcDbCircle
 10
461.2968545404343
 20
528.6884119325504
 30
0.0
 40
6.0
100
AcDbArc
 50
0.0
 51
59.74358352518112
  0
ARC
  5
1979
330
17
100
AcDbEntity
  8
STEMPEL
100
AcDbCircle
 10
466.8079981447459
 20
538.2083068823278
 30
0.0
 40
5.0
100
AcDbArc
 50
239.7435628364684
 51
239.9329541615128
  0
ARC
  5
197A
330
17
100
AcDbEntity
  8
STEMPEL
100
AcDbCircle
 10
461.2968545404343
 20
528.6884119325504
 30
0.0
 40
5.0
100
AcDbArc
 50
0.0
 51
59.74358352518112
  0
ARC
  5
197B
330
17
100
AcDbEntity
  8
STEMPEL
100
AcDbCircle
 10
437.2968545404345
 20
542.6884698998658
 30
0.0
 40
5.0
100
AcDbArc
 50
59.46264995169811
 51
90.0
  0
ARC
  5
197C
330
17
100
AcDbEntity
  8
STEMPEL
100
AcDbCircle
 10
437.2968545404345
 20
542.6884698998658
 30
0.0
 40
6.0
100
AcDbArc
 50
59.48712567237889
 51
90.0
  0
ARC
  5
197D
330
17
100
AcDbEntity
  8
STEMPEL
100
AcDbCircle
 10
437.2968545404345
 20
542.6884698998658
 30
0.0
 40
6.0
100
AcDbArc
 50
90.0
 51
90.0
  0
LWPOLYLINE
  5
197E
330
17
100
AcDbEntity
  8
STEMPEL
100
AcDbPolyline
 90
       18
 70
   128
 43
0.0
 10
253.9625289282032
 20
471.1884698998652
 10
254.0113982731194
 20
472.5665912834896
 10
254.1563421209395
 20
473.8977823962693
 10
254.3924245827667
 20
475.1367111214462
 10
254.7116061535133
 20
476.2411872272154
 10
255.1030174876038
 20
477.1735991044683
 10
255.5533295415017
 20
477.9021945850296
 10
256.0472074783012
 20
478.4021622236628
 10
256.5678328772061
 20
478.6564762220796
 10
257.0974764646779
 20
478.6564762220796
 10
257.6181018635828
 20
478.4021622236628
 10
258.1119798003823
 20
477.9021945850295
 10
258.5622918542803
 20
477.1735991044682
 10
258.9537031883707
 20
476.2411872272154
 10
259.2728847591173
 20
475.1367111214461
 10
259.5089672209446
 20
473.8977823962692
 10
259.6539110687646
 20
472.5665912834896
 10
259.7027804136809
 20
471.1884698998651
  0
LINE
  5
197F
330
17
100
AcDbEntity
  8
STEMPEL
100
AcDbLine
 10
251.8089572955345
 20
459.688469899867
 30
0.0
 11
256.6231544445059
 21
459.688469899867
 31
0.0
  0
LINE
  5
1980
330
17
100
AcDbEntity
  8
STEMPEL
100
AcDbLine
 10
250.2641599187264
 20
533.8655504599103
 30
0.0
 11
274.2504627941934
 21
547.8575604705988
 31
0.0
  0
LINE
  5
1981
330
17
100
AcDbEntity
  8
STEMPEL
100
AcDbLine
 10
250.7775009723072
 20
533.0073073467477
 30
0.0
 11
274.7563548652585
 21
546.9949605129332
 31
0.0
  0
LWPOLYLINE
  5
1982
330
17
100
AcDbEntity
  8
STEMPEL
100
AcDbPolyline
 90
       18
 70
   128
 43
0.0
 10
308.7541239276963
 20
471.1884698998649
 10
308.8721049629775
 20
472.5665912834895
 10
309.2220303661671
 20
473.8977823962691
 10
309.7919838473489
 20
475.1367111214459
 10
310.562556324305
 20
476.2411872272152
 10
311.5075068755325
 20
477.1735991044679
 10
312.5946563433525
 20
477.9021945850292
 10
313.7869831565308
 20
478.4021622236624
 10
315.0438840554826
 20
478.6564762220793
 10
316.322556787581
 20
478.6564762220793
 10
317.5794576865328
 20
478.4021622236624
 10
318.7717844997111
 20
477.9021945850292
 10
319.8589339675312
 20
477.1735991044679
 10
320.8038845187587
 20
476.2411872272152
 10
321.5744569957148
 20
475.1367111214459
 10
322.1444104768965
 20
473.8977823962691
 10
322.4943358800862
 20
472.5665912834895
 10
322.6123169153673
 20
471.1884698998648
  0
LWPOLYLINE
  5
1983
330
17
100
AcDbEntity
  8
STEMPEL
100
AcDbPolyline
 90
        9
 70
   128
 43
0.0
 10
315.4914282887199
 20
478.6855963229051
 10
316.8156377390498
 20
478.5067634158571
 10
318.0836171362358
 20
478.0564874985331
 10
319.2483358243214
 20
477.3514697663939
 10
320.2665931929281
 20
476.4178600500103
 10
321.1006210321904
 20
475.2902868910343
 10
321.7194843943843
 20
474.0105731340825
 10
322.1002290028585
 20
472.626184674547
 10
322.2287326496903
 20
471.1884698998664
  0
LINE
  5
1984
330
17
100
AcDbEntity
  8
STEMPEL
100
AcDbLine
 10
307.5366124949672
 20
459.6884698998668
 30
0.0
 11
321.0112212169616
 21
459.6884698998667
 31
0.0
  0
LWPOLYLINE
  5
1985
330
17
100
AcDbEntity
  8
STEMPEL
100
AcDbPolyline
 90
       10
 70
   128
 43
0.0
 10
-319.8899735881582
 20
458.6884698998666
 10
-320.3627035459117
 20
458.7796233817934
 10
-320.821069843112
 20
459.0503141751512
 10
-321.2511452517627
 20
459.4923174771601
 10
-321.639862148201
 20
460.0922032411528
 10
-321.9754095662286
 20
460.8317442417475
 10
-322.2475920673442
 20
461.6884698998669
 10
-322.4481395239823
 20
462.6363490399129
 10
-322.5709584031548
 20
463.6465808338654
 10
-322.6123169153672
 20
464.6884698998671
210
0.0
220
0.0
230
-1.0
  0
ARC
  5
1986
330
17
100
AcDbEntity
  8
STEMPEL
100
AcDbCircle
 10
357.2968545404342
 20
491.1884698998666
 30
0.0
 40
7.5
100
AcDbArc
 50
180.000000000026
 51
0.0000000000130276
  0
ARC
  5
1987
330
17
100
AcDbEntity
  8
STEMPEL
100
AcDbCircle
 10
357.2968545404342
 20
516.1884698998667
 30
0.0
 40
7.5
100
AcDbArc
 50
359.999999999987
 51
179.9999999999739
  0
LWPOLYLINE
  5
1988
330
17
100
AcDbEntity
  8
STEMPEL
100
AcDbPolyline
 90
       18
 70
   128
 43
0.0
 10
-378.9263266447211
 20
471.1884698998646
 10
-378.7997173985447
 20
472.5665912834892
 10
-378.424201186043
 20
473.8977823962688
 10
-377.8125657614506
 20
475.1367111214455
 10
-376.9856396355763
 20
476.2411872272148
 10
-375.971582785848
 20
477.1735991044677
 10
-374.8049277020563
 20
477.9021945850289
 10
-373.525403423831
 20
478.4021622236623
 10
-372.1765826158469
 20
478.656476222079
 10
-370.8043977529876
 20
478.656476222079
 10
-369.4555769450035
 20
478.4021622236623
 10
-368.1760526667782
 20
477.9021945850289
 10
-367.0093975829865
 20
477.1735991044677
 10
-365.9953407332582
 20
476.2411872272149
 10
-365.1684146073839
 20
475.1367111214456
 10
-364.5567791827915
 20
473.8977823962688
 10
-364.1812629702898
 20
472.5665912834892
 10
-364.0546537241135
 20
471.1884698998646
210
0.0
220
0.0
230
-1.0
  0
LWPOLYLINE
  5
1989
330
17
100
AcDbEntity
  8
STEMPEL
100
AcDbPolyline
 90
        9
 70
   128
 43
0.0
 10
-371.5559069091607
 20
478.6881796596394
 10
-370.1145669252829
 20
478.5328782657157
 10
-368.7304860218334
 20
478.0984780187014
 10
-367.4562614093014
 20
477.4014867984262
 10
-366.3403155895716
 20
476.4683913469804
 10
-365.4250562261185
 20
475.334650731637
 10
-364.7452645873434
 20
474.0433488455677
 10
-364.326773804694
 20
472.6435571534081
 10
-364.1854871738001
 20
471.1884698998662
210
0.0
220
0.0
230
-1.0
  0
LINE
  5
198A
330
17
100
AcDbEntity
  8
STEMPEL
100
AcDbLine
 10
379.5129011669781
 20
459.6884698998664
 30
0.0
 11
364.7720616960567
 21
459.6884698998664
 31
0.0
  0
LINE
  5
198B
330
17
100
AcDbEntity
  8
STEMPEL
100
AcDbLine
 10
378.9263266447213
 20
471.1884698998662
 30
0.0
 11
378.9263266447212
 21
464.688469899868
 31
0.0
  0
LWPOLYLINE
  5
198C
330
17
100
AcDbEntity
  8
STEMPEL
100
AcDbPolyline
 90
       10
 70
   128
 43
0.0
 10
380.2379013812289
 20
458.6884698998664
 10
380.0101488183603
 20
458.7796233817932
 10
379.7893164018661
 20
459.050314175151
 10
379.582114012975
 20
459.4923174771599
 10
379.3948373914238
 20
460.0922032411526
 10
379.2331768425918
 20
460.8317442417473
 10
379.1020443404512
 20
461.6884698998666
 10
379.0054242797233
 20
462.6363490399127
 10
378.946252412061
 20
463.6465808338652
 10
378.9263266447211
 20
464.6884698998668
  0
LINE
  5
198D
330
17
100
AcDbEntity
  8
STEMPEL
100
AcDbLine
 10
364.1854871738001
 20
471.1884698998646
 30
0.0
 11
364.1854871738
 21
464.688469899868
 31
0.0
  0
LINE
  5
198E
330
17
100
AcDbEntity
  8
STEMPEL
100
AcDbLine
 10
364.0546537241136
 20
471.188469899863
 30
0.0
 11
364.0546537241135
 21
464.688469899868
 31
0.0
  0
LWPOLYLINE
  5
198F
330
17
100
AcDbEntity
  8
STEMPEL
100
AcDbPolyline
 90
       10
 70
   128
 43
0.0
 10
365.3662284606213
 20
458.6884698998664
 10
365.1384758977528
 20
458.7796233817932
 10
364.9176434812586
 20
459.050314175151
 10
364.7104410923674
 20
459.4923174771599
 10
364.5231644708162
 20
460.0922032411527
 10
364.3615039219842
 20
460.8317442417474
 10
364.2303714198436
 20
461.6884698998666
 10
364.1337513591157
 20
462.6363490399127
 10
364.0745794914534
 20
463.6465808338652
 10
364.0546537241135
 20
464.6884698998668
  0
LWPOLYLINE
  5
1990
330
17
100
AcDbEntity
  8
STEMPEL
100
AcDbPolyline
 90
        7
 70
   128
 43
0.0
 10
364.7720616960571
 20
459.6884698998664
 10
364.6031658502886
 20
460.2978078017073
 10
364.458312461716
 20
461.0252380749965
 10
364.3413975441488
 20
461.8511955689402
 10
364.2555656711311
 20
462.7534651194024
 10
364.2031253986855
 20
463.7077790536459
 10
364.1854871738001
 20
464.6884698998668
  0
LINE
  5
1991
330
17
100
AcDbEntity
  8
STEMPEL
100
AcDbLine
 10
364.7968545404343
 20
516.1884698998651
 30
0.0
 11
364.7968545404341
 21
491.188469899865
 31
0.0
  0
LWPOLYLINE
  5
1992
330
17
100
AcDbEntity
  8
STEMPEL
100
AcDbPolyline
 90
        9
 70
   128
 43
0.0
 10
343.0378021717074
 20
478.6881796596396
 10
344.4791421555852
 20
478.5328782657158
 10
345.8632230590348
 20
478.0984780187015
 10
347.1374476715667
 20
477.4014867984262
 10
348.2533934912966
 20
476.4683913469806
 10
349.1686528547497
 20
475.334650731637
 10
349.8484444935248
 20
474.0433488455678
 10
350.2669352761742
 20
472.6435571534081
 10
350.4082219070681
 20
471.1884698998663
  0
LWPOLYLINE
  5
1993
330
17
100
AcDbEntity
  8
STEMPEL
100
AcDbPolyline
 90
       18
 70
   128
 43
0.0
 10
335.6673824361471
 20
471.1884698998648
 10
335.7939916823235
 20
472.5665912834893
 10
336.1695078948252
 20
473.8977823962691
 10
336.7811433194175
 20
475.1367111214458
 10
337.6080694452919
 20
476.2411872272149
 10
338.6221262950201
 20
477.1735991044678
 10
339.7887813788119
 20
477.9021945850292
 10
341.0683056570372
 20
478.4021622236624
 10
342.4171264650213
 20
478.656476222079
 10
343.7893113278806
 20
478.656476222079
 10
345.1381321358647
 20
478.4021622236624
 10
346.4176564140899
 20
477.9021945850292
 10
347.5843114978817
 20
477.1735991044678
 10
348.59836834761
 20
476.2411872272149
 10
349.4252944734843
 20
475.1367111214458
 10
350.0369298980767
 20
473.8977823962689
 10
350.4124461105783
 20
472.5665912834892
 10
350.5390553567547
 20
471.1884698998647
  0
LINE
  5
1994
330
17
100
AcDbEntity
  8
STEMPEL
100
AcDbLine
 10
335.08080791389
 20
459.6884698998667
 30
0.0
 11
349.8216473848113
 21
459.6884698998665
 31
0.0
  0
LINE
  5
1995
330
17
100
AcDbEntity
  8
STEMPEL
100
AcDbLine
 10
350.5390553567546
 20
471.1884698998631
 30
0.0
 11
350.5390553567545
 21
464.6884698998682
 31
0.0
  0
LINE
  5
1996
330
17
100
AcDbEntity
  8
STEMPEL
100
AcDbLine
 10
350.4082219070681
 20
471.1884698998647
 30
0.0
 11
350.408221907068
 21
464.6884698998682
 31
0.0
  0
LWPOLYLINE
  5
1997
330
17
100
AcDbEntity
  8
STEMPEL
100
AcDbPolyline
 90
        7
 70
   128
 43
0.0
 10
-349.821647384811
 20
459.6884698998665
 10
-349.9905432305795
 20
460.2978078017073
 10
-350.1353966191521
 20
461.0252380749967
 10
-350.2523115367192
 20
461.8511955689403
 10
-350.3381434097369
 20
462.7534651194026
 10
-350.3905836821826
 20
463.7077790536459
 10
-350.4082219070679
 20
464.688469899867
210
0.0
220
0.0
230
-1.0
  0
LWPOLYLINE
  5
1998
330
17
100
AcDbEntity
  8
STEMPEL
100
AcDbPolyline
 90
       10
 70
   128
 43
0.0
 10
-349.2274806202467
 20
458.6884698998665
 10
-349.4552331831152
 20
458.7796233817933
 10
-349.6760655996094
 20
459.0503141751511
 10
-349.8832679885007
 20
459.4923174771599
 10
-350.0705446100519
 20
460.0922032411528
 10
-350.2322051588838
 20
460.8317442417475
 10
-350.3633376610244
 20
461.6884698998667
 10
-350.4599577217523
 20
462.6363490399127
 10
-350.5191295894146
 20
463.6465808338654
 10
-350.5390553567545
 20
464.688469899867
210
0.0
220
0.0
230
-1.0
  0
LINE
  5
1999
330
17
100
AcDbEntity
  8
STEMPEL
100
AcDbLine
 10
335.6673824361469
 20
471.1884698998664
 30
0.0
 11
335.6673824361469
 21
464.6884698998682
 31
0.0
  0
LWPOLYLINE
  5
199A
330
17
100
AcDbEntity
  8
STEMPEL
100
AcDbPolyline
 90
       10
 70
   128
 43
0.0
 10
-334.3558076996391
 20
458.6884698998666
 10
-334.5835602625077
 20
458.7796233817934
 10
-334.8043926790019
 20
459.0503141751511
 10
-335.0115950678931
 20
459.49231747716
 10
-335.1988716894443
 20
460.0922032411528
 10
-335.3605322382762
 20
460.8317442417475
 10
-335.4916647404169
 20
461.6884698998669
 10
-335.5882848011447
 20
462.6363490399128
 10
-335.6474566688069
 20
463.6465808338654
 10
-335.6673824361469
 20
464.6884698998671
210
0.0
220
0.0
230
-1.0
  0
LINE
  5
199B
330
17
100
AcDbEntity
  8
STEMPEL
100
AcDbLine
 10
322.6123169153673
 20
471.1884698998632
 30
0.0
 11
322.6123169153672
 21
464.6884698998682
 31
0.0
  0
LINE
  5
199C
330
17
100
AcDbEntity
  8
STEMPEL
100
AcDbLine
 10
322.2287326496903
 20
471.1884698998648
 30
0.0
 11
322.2287326496902
 21
464.6884698998682
 31
0.0
  0
LWPOLYLINE
  5
199D
330
17
100
AcDbEntity
  8
STEMPEL
100
AcDbPolyline
 90
        7
 70
   128
 43
0.0
 10
-321.0112212169611
 20
459.6884698998667
 10
-321.3617864313731
 20
460.2978078017076
 10
-321.6624484103118
 20
461.0252380749968
 10
-321.9051204722465
 20
461.8511955689404
 10
-322.0832756472949
 20
462.7534651194027
 10
-322.1921222282754
 20
463.7077790536459
 10
-322.2287326496902
 20
464.6884698998671
210
0.0
220
0.0
230
-1.0
  0
LINE
  5
199E
330
17
100
AcDbEntity
  8
STEMPEL
100
AcDbLine
 10
349.7968545404343
 20
516.1884698998667
 30
0.0
 11
349.7968545404341
 21
491.1884698998666
 31
0.0
  0
LWPOLYLINE
  5
199F
330
17
100
AcDbEntity
  8
STEMPEL
100
AcDbPolyline
 90
       18
 70
   128
 43
0.0
 10
285.1489722898461
 20
471.1884698998651
 10
285.2502849016505
 20
472.5665912834895
 10
285.5507726575797
 20
473.8977823962692
 10
286.0402028075009
 20
475.1367111214459
 10
286.7019083946654
 20
476.2411872272152
 10
287.5133558289304
 20
477.1735991044681
 10
288.4469122411461
 20
477.9021945850295
 10
289.4707864873723
 20
478.4021622236627
 10
290.550111758155
 20
478.6564762220793
 10
291.6481329259061
 20
478.6564762220793
 10
292.7274581966889
 20
478.4021622236627
 10
293.751332442915
 20
477.9021945850295
 10
294.6848888551307
 20
477.1735991044681
 10
295.4963362893958
 20
476.2411872272152
 10
296.1580418765602
 20
475.1367111214459
 10
296.6474720264814
 20
473.8977823962692
 10
296.9479597824106
 20
472.5665912834895
 10
297.049272394215
 20
471.1884698998649
  0
LINE
  5
19A0
330
17
100
AcDbEntity
  8
STEMPEL
100
AcDbLine
 10
283.5109492137409
 20
459.6884698998668
 30
0.0
 11
294.8010548702479
 21
459.6884698998668
 31
0.0
  0
LWPOLYLINE
  5
19A1
330
17
100
AcDbEntity
  8
STEMPEL
100
AcDbPolyline
 90
        9
 70
   128
 43
0.0
 10
290.7940251181111
 20
478.6786039776887
 10
291.9104328394823
 20
478.4712968412815
 10
292.9757120912245
 20
478.0020421138278
 10
293.9515470742628
 20
477.2877178766592
 10
294.8028391071208
 20
476.3540168332628
 10
295.4989690498572
 20
475.2345221981023
 10
296.0148986085486
 20
473.9694997807638
 10
296.3320709087644
 20
472.6044497115544
 10
296.4390779463526
 20
471.1884698998665
  0
LINE
  5
19A2
330
17
100
AcDbEntity
  8
STEMPEL
100
AcDbLine
 10
308.7541239276963
 20
471.1884698998649
 30
0.0
 11
308.7541239276963
 21
464.6884698998683
 31
0.0
  0
LWPOLYLINE
  5
19A3
330
17
100
AcDbEntity
  8
STEMPEL
100
AcDbPolyline
 90
       10
 70
   128
 43
0.0
 10
-306.0317806004873
 20
458.6884698998668
 10
-306.5045105582409
 20
458.7796233817935
 10
-306.9628768554411
 20
459.0503141751514
 10
-307.3929522640918
 20
459.4923174771601
 10
-307.78166916053
 20
460.092203241153
 10
-308.1172165785577
 20
460.8317442417478
 10
-308.3893990796733
 20
461.688469899867
 10
-308.5899465363114
 20
462.6363490399129
 10
-308.7127654154838
 20
463.6465808338655
 10
-308.7541239276963
 20
464.6884698998672
210
0.0
220
0.0
230
-1.0
  0
LWPOLYLINE
  5
19A4
330
17
100
AcDbEntity
  8
STEMPEL
100
AcDbPolyline
 90
       10
 70
   128
 43
0.0
 10
-293.3866692586909
 20
458.6884698998669
 10
-294.0226736186918
 20
458.7796233817936
 10
-294.639353308048
 20
459.0503141751514
 10
-295.217970826453
 20
459.4923174771603
 10
-295.7409451734049
 20
460.092203241153
 10
-296.1923860380094
 20
460.8317442417478
 10
-296.5585766180354
 20
461.688469899867
 10
-296.8283903980103
 20
462.6363490399129
 10
-296.993629222762
 20
463.6465808338655
 10
-297.049272394215
 20
464.6884698998672
210
0.0
220
0.0
230
-1.0
  0
LWPOLYLINE
  5
19A5
330
17
100
AcDbEntity
  8
STEMPEL
100
AcDbPolyline
 90
        7
 70
   128
 43
0.0
 10
-294.8010548702474
 20
459.6884698998668
 10
-295.2727004708142
 20
460.2978078017077
 10
-295.677206947197
 20
461.025238074997
 10
-296.003694589686
 20
461.8511955689406
 10
-296.2433821030943
 20
462.7534651194028
 10
-296.3898227907203
 20
463.707779053646
 10
-296.4390779463527
 20
464.6884698998672
210
0.0
220
0.0
230
-1.0
  0
LINE
  5
19A6
330
17
100
AcDbEntity
  8
STEMPEL
100
AcDbLine
 10
297.0492723942151
 20
471.1884698998649
 30
0.0
 11
297.049272394215
 21
464.6884698998683
 31
0.0
  0
LINE
  5
19A7
330
17
100
AcDbEntity
  8
STEMPEL
100
AcDbLine
 10
296.4390779463528
 20
471.1884698998649
 30
0.0
 11
296.4390779463527
 21
464.6884698998683
 31
0.0
  0
ELLIPSE
  5
19A8
330
17
100
AcDbEntity
  8
STEMPEL
100
AcDbEllipse
 10
302.4248443713131
 20
491.1884698998669
 30
0.0
 11
-0.0000000000000334
 21
-7.5
 31
0.0
210
0.0
220
0.0
230
-1.0
 40
0.8660254037843856
 41
4.712388980384689
 42
6.24459510668465
  0
ELLIPSE
  5
19A9
330
17
100
AcDbEntity
  8
STEMPEL
100
AcDbEllipse
 10
302.9260213667551
 20
491.1884698998669
 30
0.0
 11
-0.0000000000000334
 21
-7.5
 31
0.0
210
0.0
220
0.0
230
-1.0
 40
0.8660254037843856
 41
4.712388980384689
 42
7.853981633974482
  0
ELLIPSE
  5
19AA
330
17
100
AcDbEntity
  8
STEMPEL
100
AcDbEllipse
 10
302.4248443713132
 20
516.1884698998669
 30
0.0
 11
0.0000000000000334
 21
7.5
 31
0.0
210
0.0
220
0.0
230
1.0
 40
0.8660254037843856
 41
4.712388980384689
 42
6.24459510668465
  0
ELLIPSE
  5
19AB
330
17
100
AcDbEntity
  8
STEMPEL
100
AcDbEllipse
 10
302.9260213667551
 20
516.1884698998669
 30
0.0
 11
0.0000000000000334
 21
7.5
 31
0.0
210
0.0
220
0.0
230
1.0
 40
0.8660254037843856
 41
4.712388980384689
 42
7.853981633974482
  0
LINE
  5
19AC
330
17
100
AcDbEntity
  8
STEMPEL
100
AcDbLine
 10
308.9200348996961
 20
516.1884698998669
 30
0.0
 11
308.920034899696
 21
491.1884698998669
 31
0.0
  0
LINE
  5
19AD
330
17
100
AcDbEntity
  8
STEMPEL
100
AcDbLine
 10
309.421211895138
 20
516.1884698998669
 30
0.0
 11
309.4212118951379
 21
491.1884698998669
 31
0.0
  0
LINE
  5
19AE
330
17
100
AcDbEntity
  8
STEMPEL
100
AcDbLine
 10
296.4308308383723
 20
516.1884698998669
 30
0.0
 11
296.4308308383722
 21
491.1884698998685
 31
0.0
  0
LWPOLYLINE
  5
19AF
330
17
100
AcDbEntity
  8
STEMPEL
100
AcDbPolyline
 90
       10
 70
   128
 43
0.0
 10
270.2310694281077
 20
478.6884698998682
 10
271.0238967739674
 20
478.5745280474597
 10
271.7926344621131
 20
478.2361645557624
 10
272.5139247868907
 20
477.6836604282514
 10
273.1658517067722
 20
476.9338032232602
 10
273.7286067521878
 20
476.0093769725166
 10
274.1850908958507
 20
474.9384698998674
 10
274.5214340980475
 20
473.7536209748097
 10
274.7274167407776
 20
472.4908312323688
 10
274.7967801456737
 20
471.1884698998666
  0
LWPOLYLINE
  5
19B0
330
17
100
AcDbEntity
  8
STEMPEL
100
AcDbPolyline
 90
       18
 70
   128
 43
0.0
 10
266.4605795973628
 20
471.1884698998651
 10
266.5383194986229
 20
472.5665912834896
 10
266.7688918633047
 20
473.8977823962692
 10
267.1444448260698
 20
475.1367111214461
 10
267.6521893811976
 20
476.2411872272154
 10
268.2748348968355
 20
477.1735991044682
 10
268.9911779267296
 20
477.9021945850295
 10
269.7768242681554
 20
478.4021622236627
 10
270.6050196772348
 20
478.6564762220796
 10
271.4475609526226
 20
478.6564762220794
 10
272.2757563617019
 20
478.4021622236627
 10
273.0614027031278
 20
477.9021945850295
 10
273.7777457330219
 20
477.1735991044681
 10
274.4003912486598
 20
476.2411872272153
 10
274.9081358037876
 20
475.1367111214459
 10
275.2836887665527
 20
473.8977823962692
 10
275.5142611312345
 20
472.5665912834896
 10
275.5920010324946
 20
471.1884698998651
  0
LWPOLYLINE
  5
19B1
330
17
100
AcDbEntity
  8
STEMPEL
100
AcDbPolyline
 90
        9
 70
   128
 43
0.0
 10
256.3696275026899
 20
478.5902281445302
 10
256.8586880459587
 20
478.2637952467728
 10
257.3183010138597
 20
477.7185262335156
 10
257.7342508174839
 20
476.9712859903877
 10
258.0936723467755
 20
476.04518626761
 10
258.385448881663
 20
474.9688708456398
 10
258.6005559264012
 20
473.7756295980089
 10
258.7323403325087
 20
472.5023688529331
 10
258.7767260771735
 20
471.1884698998666
  0
LINE
  5
19B2
330
17
100
AcDbEntity
  8
STEMPEL
100
AcDbLine
 10
264.5090027688441
 20
459.6884698998668
 30
0.0
 11
272.845203317156
 21
459.6884698998668
 31
0.0
  0
LINE
  5
19B3
330
17
100
AcDbEntity
  8
STEMPEL
100
AcDbLine
 10
285.1489722898463
 20
471.1884698998651
 30
0.0
 11
285.1489722898462
 21
464.6884698998684
 31
0.0
  0
LWPOLYLINE
  5
19B4
330
17
100
AcDbEntity
  8
STEMPEL
100
AcDbPolyline
 90
       10
 70
   128
 43
0.0
 10
-281.4863691543221
 20
458.6884698998669
 10
-282.122373514323
 20
458.7796233817936
 10
-282.7390532036791
 20
459.0503141751514
 10
-283.3176707220842
 20
459.4923174771603
 10
-283.840645069036
 20
460.092203241153
 10
-284.2920859336405
 20
460.8317442417478
 10
-284.6582765136665
 20
461.6884698998671
 10
-284.9280902936414
 20
462.6363490399131
 10
-285.0933291183931
 20
463.6465808338656
 10
-285.1489722898462
 20
464.6884698998674
210
0.0
220
0.0
230
-1.0
  0
LINE
  5
19B5
330
17
100
AcDbEntity
  8
STEMPEL
100
AcDbLine
 10
275.5920010324945
 20
471.1884698998651
 30
0.0
 11
275.5920010324945
 21
464.6884698998684
 31
0.0
  0
LINE
  5
19B6
330
17
100
AcDbEntity
  8
STEMPEL
100
AcDbLine
 10
274.7967801456738
 20
471.1884698998651
 30
0.0
 11
274.7967801456737
 21
464.6884698998684
 31
0.0
  0
LWPOLYLINE
  5
19B7
330
17
100
AcDbEntity
  8
STEMPEL
100
AcDbPolyline
 90
       10
 70
   128
 43
0.0
 10
-271.2282948578886
 20
458.6884698998669
 10
-271.9860444829828
 20
458.7796233817936
 10
-272.7207702691583
 20
459.0503141751514
 10
-273.4101479451914
 20
459.4923174771603
 10
-274.0332311192379
 20
460.092203241153
 10
-274.5710877243493
 20
460.8317442417478
 10
-275.0073752597482
 20
461.6884698998671
 10
-275.3288373494435
 20
462.6363490399132
 10
-275.5257065305075
 20
463.6465808338656
 10
-275.5920010324944
 20
464.6884698998674
210
0.0
220
0.0
230
-1.0
  0
LWPOLYLINE
  5
19B8
330
17
100
AcDbEntity
  8
STEMPEL
100
AcDbPolyline
 90
        7
 70
   128
 43
0.0
 10
-272.8452033171554
 20
459.6884698998668
 10
-273.4071322904195
 20
460.2978078017077
 10
-273.8890702300067
 20
461.025238074997
 10
-274.2780548097565
 20
461.8511955689406
 10
-274.5636238008629
 20
462.753465119403
 10
-274.7380964666589
 20
463.7077790536462
 10
-274.7967801456738
 20
464.6884698998674
210
0.0
220
0.0
230
-1.0
  0
LWPOLYLINE
  5
19B9
330
17
100
AcDbEntity
  8
STEMPEL
100
AcDbPolyline
 90
       10
 70
   128
 43
0.0
 10
-262.0968734227567
 20
458.6884698998669
 10
-262.8546230478509
 20
458.7796233817936
 10
-263.5893488340264
 20
459.0503141751515
 10
-264.2787265100596
 20
459.4923174771603
 10
-264.901809684106
 20
460.0922032411531
 10
-265.4396662892174
 20
460.8317442417479
 10
-265.8759538246164
 20
461.6884698998671
 10
-266.1974159143117
 20
462.6363490399132
 10
-266.3942850953757
 20
463.6465808338656
 10
-266.4605795973625
 20
464.6884698998674
210
0.0
220
0.0
230
-1.0
  0
LINE
  5
19BA
330
17
100
AcDbEntity
  8
STEMPEL
100
AcDbLine
 10
266.4605795973626
 20
471.1884698998651
 30
0.0
 11
266.4605795973626
 21
464.6884698998684
 31
0.0
  0
LINE
  5
19BB
330
17
100
AcDbEntity
  8
STEMPEL
100
AcDbLine
 10
259.7027804136809
 20
471.1884698998651
 30
0.0
 11
259.7027804136808
 21
464.6884698998684
 31
0.0
  0
LINE
  5
19BC
330
17
100
AcDbEntity
  8
STEMPEL
100
AcDbLine
 10
258.7767260771737
 20
471.1884698998651
 30
0.0
 11
258.7767260771736
 21
464.6884698998684
 31
0.0
  0
LWPOLYLINE
  5
19BD
330
17
100
AcDbEntity
  8
STEMPEL
100
AcDbPolyline
 90
       10
 70
   128
 43
0.0
 10
-254.8874158871069
 20
458.688469899867
 10
-255.7235951619485
 20
458.7796233817938
 10
-256.5343675526511
 20
459.0503141751516
 10
-257.2950981503939
 20
459.4923174771603
 10
-257.9826725409127
 20
460.0922032411531
 10
-258.5761991242811
 20
460.8317442417479
 10
-259.0576438956023
 20
461.6884698998671
 10
-259.4123783991227
 20
462.6363490399132
 10
-259.6296242064568
 20
463.6465808338656
 10
-259.7027804136808
 20
464.6884698998674
210
0.0
220
0.0
230
-1.0
  0
LWPOLYLINE
  5
19BE
330
17
100
AcDbEntity
  8
STEMPEL
100
AcDbPolyline
 90
        7
 70
   128
 43
0.0
 10
-256.6231544445049
 20
459.688469899867
 10
-257.2432449675692
 20
460.2978078017078
 10
-257.7750651143527
 20
461.025238074997
 10
-258.2043109140839
 20
461.8511955689406
 10
-258.5194372618813
 20
462.753465119403
 10
-258.7119684388471
 20
463.7077790536462
 10
-258.7767260771735
 20
464.6884698998674
210
0.0
220
0.0
230
-1.0
  0
LINE
  5
19BF
330
17
100
AcDbEntity
  8
STEMPEL
100
AcDbLine
 10
266.005745014082
 20
491.1884698998671
 30
0.0
 11
266.0057450140822
 21
516.1884698998687
 31
0.0
  0
LINE
  5
19C0
330
17
100
AcDbEntity
  8
STEMPEL
100
AcDbLine
 10
266.8738090337711
 20
516.1884698998671
 30
0.0
 11
266.873809033771
 21
491.1884698998687
 31
0.0
  0
LINE
  5
19C1
330
17
100
AcDbEntity
  8
STEMPEL
100
AcDbLine
 10
259.3738090337712
 20
516.1884698998671
 30
0.0
 11
259.3738090337711
 21
491.1884698998703
 31
0.0
  0
ELLIPSE
  5
19C2
330
17
100
AcDbEntity
  8
STEMPEL
100
AcDbEllipse
 10
263.123809033771
 20
491.1884698998687
 30
0.0
 11
-0.0000000000000334
 21
-7.499999999999999
 31
0.0
210
0.0
220
0.0
230
-1.0
 40
0.4999999999999926
 41
4.712388980384689
 42
7.853981633974482
  0
ELLIPSE
  5
19C3
330
17
100
AcDbEntity
  8
STEMPEL
100
AcDbEllipse
 10
262.2557450140823
 20
491.1884698998687
 30
0.0
 11
-0.0000000000000334
 21
-7.499999999999999
 31
0.0
210
0.0
220
0.0
230
-1.0
 40
0.4999999999999926
 41
4.712388980384689
 42
6.167183451052224
  0
ELLIPSE
  5
19C4
330
17
100
AcDbEntity
  8
STEMPEL
100
AcDbEllipse
 10
263.1238090337711
 20
516.1884698998671
 30
0.0
 11
0.0000000000000334
 21
7.499999999999999
 31
0.0
210
0.0
220
0.0
230
1.0
 40
0.4999999999999926
 41
4.712388980384689
 42
7.853981633974482
  0
ELLIPSE
  5
19C5
330
17
100
AcDbEntity
  8
STEMPEL
100
AcDbEllipse
 10
262.2557450140824
 20
516.1884698998671
 30
0.0
 11
0.0000000000000334
 21
7.499999999999999
 31
0.0
210
0.0
220
0.0
230
1.0
 40
0.4999999999999926
 41
4.712388980384689
 42
6.167183451052224
  0
LINE
  5
19C6
330
17
100
AcDbEntity
  8
STEMPEL
100
AcDbLine
 10
331.8573399453777
 20
548.6884698998665
 30
0.0
 11
277.2968545404343
 21
548.6884698998669
 31
0.0
  0
LINE
  5
19C7
330
17
100
AcDbEntity
  8
STEMPEL
100
AcDbLine
 10
379.9604161567316
 20
550.188469899866
 30
0.0
 11
334.4554161567318
 21
550.1884698998662
 31
0.0
  0
LINE
  5
19C8
330
17
100
AcDbEntity
  8
STEMPEL
100
AcDbLine
 10
360.6554161567318
 20
549.1884698998663
 30
0.0
 11
350.5671486955382
 21
549.1884698998663
 31
0.0
  0
LINE
  5
19C9
330
17
100
AcDbEntity
  8
STEMPEL
100
AcDbLine
 10
369.7073399453787
 20
548.688469899866
 30
0.0
 11
363.2534923680845
 21
548.688469899866
 31
0.0
  0
LINE
  5
19CA
330
17
100
AcDbEntity
  8
STEMPEL
100
AcDbLine
 10
369.7073399453787
 20
548.688469899866
 30
0.0
 11
363.2534923680845
 21
548.688469899866
 31
0.0
  0
ARC
  5
19CB
330
17
100
AcDbEntity
  8
STEMPEL
100
AcDbCircle
 10
369.7073399453787
 20
550.188469899866
 30
0.0
 40
2.5
100
AcDbArc
 50
270.0
 51
329.9999999999995
  0
ARC
  5
19CC
330
17
100
AcDbEntity
  8
STEMPEL
100
AcDbCircle
 10
375.1034923680854
 20
550.188469899866
 30
0.0
 40
2.5
100
AcDbArc
 50
209.9999999999933
 51
270.0
  0
ARC
  5
19CD
330
17
100
AcDbEntity
  8
STEMPEL
100
AcDbCircle
 10
377.1623399453778
 20
550.188469899866
 30
0.0
 40
2.5
100
AcDbArc
 50
270.0
 51
330.0000000000068
  0
ARC
  5
19CE
330
17
100
AcDbEntity
  8
STEMPEL
100
AcDbCircle
 10
382.5584923680851
 20
550.188469899866
 30
0.0
 40
2.5
100
AcDbArc
 50
210.0000000000005
 51
270.0
  0
ARC
  5
19CF
330
17
100
AcDbEntity
  8
STEMPEL
100
AcDbCircle
 10
377.1623399453778
 20
550.188469899866
 30
0.0
 40
1.5
100
AcDbArc
 50
270.0
 51
330.0000000000068
  0
ARC
  5
19D0
330
17
100
AcDbEntity
  8
STEMPEL
100
AcDbCircle
 10
382.5584923680851
 20
550.188469899866
 30
0.0
 40
1.5
100
AcDbArc
 50
209.9999999999933
 51
270.0
  0
ARC
  5
19D1
330
17
100
AcDbEntity
  8
STEMPEL
100
AcDbCircle
 10
379.9604161567316
 20
548.688469899866
 30
0.0
 40
1.5
100
AcDbArc
 50
30.00000000000055
 51
90.0
  0
ARC
  5
19D2
330
17
100
AcDbEntity
  8
STEMPEL
100
AcDbCircle
 10
379.7604161567316
 20
548.688469899866
 30
0.0
 40
1.5
100
AcDbArc
 50
90.0
 51
150.0000000000067
  0
ARC
  5
19D3
330
17
100
AcDbEntity
  8
STEMPEL
100
AcDbCircle
 10
379.7604161567316
 20
548.688469899866
 30
0.0
 40
0.5
100
AcDbArc
 50
90.0
 51
149.9999999999994
  0
LINE
  5
19D4
330
17
100
AcDbEntity
  8
STEMPEL
100
AcDbLine
 10
379.9604161567316
 20
549.188469899866
 30
0.0
 11
379.7604161567316
 21
549.188469899866
 31
0.0
  0
ARC
  5
19D5
330
17
100
AcDbEntity
  8
STEMPEL
100
AcDbCircle
 10
379.9604161567316
 20
548.688469899866
 30
0.0
 40
0.5
100
AcDbArc
 50
30.00000000000055
 51
90.0
  0
ARC
  5
19D6
330
17
100
AcDbEntity
  8
STEMPEL
100
AcDbCircle
 10
372.5054161567317
 20
548.6884698998663
 30
0.0
 40
1.5
100
AcDbArc
 50
29.99999999999328
 51
90.0
  0
LINE
  5
19D7
330
17
100
AcDbEntity
  8
STEMPEL
100
AcDbLine
 10
377.1623399453778
 20
548.688469899866
 30
0.0
 11
375.1034923680854
 21
548.688469899866
 31
0.0
  0
LINE
  5
19D8
330
17
100
AcDbEntity
  8
STEMPEL
100
AcDbLine
 10
377.1623399453778
 20
548.688469899866
 30
0.0
 11
375.1034923680854
 21
548.688469899866
 31
0.0
  0
ARC
  5
19D9
330
17
100
AcDbEntity
  8
STEMPEL
100
AcDbCircle
 10
375.1034923680854
 20
550.188469899866
 30
0.0
 40
1.5
100
AcDbArc
 50
209.9999999999933
 51
270.0
  0
ARC
  5
19DA
330
17
100
AcDbEntity
  8
STEMPEL
100
AcDbCircle
 10
372.3054161567317
 20
548.6884698998663
 30
0.0
 40
1.5
100
AcDbArc
 50
90.0
 51
149.9999999999994
  0
ARC
  5
19DB
330
17
100
AcDbEntity
  8
STEMPEL
100
AcDbCircle
 10
372.3054161567317
 20
548.6884698998663
 30
0.0
 40
0.5
100
AcDbArc
 50
90.0
 51
149.9999999999994
  0
LINE
  5
19DC
330
17
100
AcDbEntity
  8
STEMPEL
100
AcDbLine
 10
372.5054161567317
 20
549.1884698998663
 30
0.0
 11
372.3054161567317
 21
549.1884698998663
 31
0.0
  0
ARC
  5
19DD
330
17
100
AcDbEntity
  8
STEMPEL
100
AcDbCircle
 10
372.5054161567317
 20
548.6884698998663
 30
0.0
 40
0.5
100
AcDbArc
 50
29.99999999999328
 51
90.0
  0
ARC
  5
19DE
330
17
100
AcDbEntity
  8
STEMPEL
100
AcDbCircle
 10
369.7073399453787
 20
550.188469899866
 30
0.0
 40
1.5
100
AcDbArc
 50
270.0
 51
329.9999999999995
  0
ARC
  5
19DF
330
17
100
AcDbEntity
  8
STEMPEL
100
AcDbCircle
 10
363.2534923680845
 20
550.188469899866
 30
0.0
 40
2.5
100
AcDbArc
 50
210.0000000000078
 51
270.0
  0
ARC
  5
19E0
330
17
100
AcDbEntity
  8
STEMPEL
100
AcDbCircle
 10
360.6554161567318
 20
548.6884698998663
 30
0.0
 40
1.5
100
AcDbArc
 50
30.00000000000055
 51
90.0
  0
ARC
  5
19E1
330
17
100
AcDbEntity
  8
STEMPEL
100
AcDbCircle
 10
363.2534923680845
 20
550.188469899866
 30
0.0
 40
1.5
100
AcDbArc
 50
210.0000000000078
 51
270.0
  0
ARC
  5
19E2
330
17
100
AcDbEntity
  8
STEMPEL
100
AcDbCircle
 10
360.6554161567318
 20
548.6884698998663
 30
0.0
 40
0.5
100
AcDbArc
 50
30.00000000000055
 51
90.0
  0
ARC
  5
19E3
330
17
100
AcDbEntity
  8
STEMPEL
100
AcDbCircle
 10
337.2534923680841
 20
550.1884698998662
 30
0.0
 40
2.5
100
AcDbArc
 50
210.0000000000078
 51
270.0
  0
ARC
  5
19E4
330
17
100
AcDbEntity
  8
STEMPEL
100
AcDbCircle
 10
337.2534923680841
 20
550.1884698998662
 30
0.0
 40
1.5
100
AcDbArc
 50
210.0000000000078
 51
270.0
  0
ARC
  5
19E5
330
17
100
AcDbEntity
  8
STEMPEL
100
AcDbCircle
 10
343.7073399453782
 20
550.1884698998662
 30
0.0
 40
2.5
100
AcDbArc
 50
270.0
 51
329.9999999999995
  0
ARC
  5
19E6
330
17
100
AcDbEntity
  8
STEMPEL
100
AcDbCircle
 10
348.4419078298357
 20
549.1884698998663
 30
0.0
 40
1.5
100
AcDbArc
 50
194.4775121859303
 51
270.0
  0
ARC
  5
19E7
330
17
100
AcDbEntity
  8
STEMPEL
100
AcDbCircle
 10
348.6306570224349
 20
549.1884698998663
 30
0.0
 40
1.5
100
AcDbArc
 50
270.0
 51
345.5224878140697
  0
ARC
  5
19E8
330
17
100
AcDbEntity
  8
STEMPEL
100
AcDbCircle
 10
343.7073399453782
 20
550.1884698998662
 30
0.0
 40
1.5
100
AcDbArc
 50
270.0
 51
329.9999999999995
  0
ARC
  5
19E9
330
17
100
AcDbEntity
  8
STEMPEL
100
AcDbCircle
 10
348.6306570224349
 20
549.1884698998663
 30
0.0
 40
0.5
100
AcDbArc
 50
270.0
 51
345.5224878140697
  0
ARC
  5
19EA
330
17
100
AcDbEntity
  8
STEMPEL
100
AcDbCircle
 10
350.5671486955382
 20
548.6884698998663
 30
0.0
 40
1.5
100
AcDbArc
 50
90.0
 51
165.5224878140697
  0
ARC
  5
19EB
330
17
100
AcDbEntity
  8
STEMPEL
100
AcDbCircle
 10
350.5671486955382
 20
548.6884698998663
 30
0.0
 40
0.5
100
AcDbArc
 50
90.0
 51
165.5224878140697
  0
ARC
  5
19EC
330
17
100
AcDbEntity
  8
STEMPEL
100
AcDbCircle
 10
346.3054161567317
 20
548.6884698998663
 30
0.0
 40
0.5
100
AcDbArc
 50
90.0
 51
149.9999999999994
  0
LINE
  5
19ED
330
17
100
AcDbEntity
  8
STEMPEL
100
AcDbLine
 10
346.5054161567317
 20
549.1884698998663
 30
0.0
 11
346.3054161567317
 21
549.1884698998663
 31
0.0
  0
ARC
  5
19EE
330
17
100
AcDbEntity
  8
STEMPEL
100
AcDbCircle
 10
346.5054161567317
 20
548.6884698998663
 30
0.0
 40
0.5
100
AcDbArc
 50
14.47751218593027
 51
90.0
  0
LINE
  5
19EF
330
17
100
AcDbEntity
  8
STEMPEL
100
AcDbLine
 10
348.6306570224349
 20
548.6884698998663
 30
0.0
 11
348.4419078298357
 21
548.6884698998663
 31
0.0
  0
ARC
  5
19F0
330
17
100
AcDbEntity
  8
STEMPEL
100
AcDbCircle
 10
348.4419078298357
 20
549.1884698998663
 30
0.0
 40
0.5
100
AcDbArc
 50
194.4775121859303
 51
270.0
  0
ARC
  5
19F1
330
17
100
AcDbEntity
  8
STEMPEL
100
AcDbCircle
 10
346.5054161567317
 20
548.6884698998663
 30
0.0
 40
1.5
100
AcDbArc
 50
14.47751218593027
 51
90.0
  0
ARC
  5
19F2
330
17
100
AcDbEntity
  8
STEMPEL
100
AcDbCircle
 10
346.3054161567317
 20
548.6884698998663
 30
0.0
 40
1.5
100
AcDbArc
 50
90.0
 51
149.9999999999994
  0
LINE
  5
19F3
330
17
100
AcDbEntity
  8
STEMPEL
100
AcDbLine
 10
343.7073399453782
 20
548.6884698998663
 30
0.0
 11
337.2534923680841
 21
548.6884698998663
 31
0.0
  0
LINE
  5
19F4
330
17
100
AcDbEntity
  8
STEMPEL
100
AcDbLine
 10
343.7073399453782
 20
548.6884698998663
 30
0.0
 11
337.2534923680841
 21
548.6884698998663
 31
0.0
  0
ARC
  5
19F5
330
17
100
AcDbEntity
  8
STEMPEL
100
AcDbCircle
 10
331.8573399453777
 20
550.1884698998662
 30
0.0
 40
2.5
100
AcDbArc
 50
270.0
 51
330.0000000000068
  0
ARC
  5
19F6
330
17
100
AcDbEntity
  8
STEMPEL
100
AcDbCircle
 10
331.8573399453777
 20
550.1884698998662
 30
0.0
 40
1.5
100
AcDbArc
 50
270.0
 51
330.0000000000068
  0
ARC
  5
19F7
330
17
100
AcDbEntity
  8
STEMPEL
100
AcDbCircle
 10
334.4554161567318
 20
548.6884698998663
 30
0.0
 40
1.5
100
AcDbArc
 50
90.0
 51
150.0000000000067
  0
ARC
  5
19F8
330
17
100
AcDbEntity
  8
STEMPEL
100
AcDbCircle
 10
334.4554161567318
 20
548.6884698998663
 30
0.0
 40
0.5
100
AcDbArc
 50
90.0
 51
150.0000000000067
  0
LINE
  5
19F9
330
17
100
AcDbEntity
  8
STEMPEL
100
AcDbLine
 10
334.6554161567318
 20
549.1884698998663
 30
0.0
 11
334.4554161567318
 21
549.1884698998663
 31
0.0
  0
ARC
  5
19FA
330
17
100
AcDbEntity
  8
STEMPEL
100
AcDbCircle
 10
334.6554161567318
 20
548.6884698998663
 30
0.0
 40
0.5
100
AcDbArc
 50
30.00000000000782
 51
90.0
  0
ARC
  5
19FB
330
17
100
AcDbEntity
  8
STEMPEL
100
AcDbCircle
 10
334.6554161567318
 20
548.6884698998663
 30
0.0
 40
1.5
100
AcDbArc
 50
30.00000000000782
 51
90.0
  0
ARC
  5
19FC
330
17
100
AcDbEntity
  8
STEMPEL
100
AcDbCircle
 10
277.2968545404363
 20
542.6884698998619
 30
0.0
 40
5.000000000004884
100
AcDbArc
 50
90.00000000002279
 51
120.5373500482991
  0
ARC
  5
19FD
330
17
100
AcDbEntity
  8
STEMPEL
100
AcDbCircle
 10
277.2968545404343
 20
542.6884698998671
 30
0.0
 40
5.999999999999263
100
AcDbArc
 50
90.0
 51
120.5128743276239
  0
ARC
  5
19FE
330
17
100
AcDbEntity
  8
STEMPEL
100
AcDbCircle
 10
277.2968545404343
 20
542.6884698998665
 30
0.0
 40
6.0
100
AcDbArc
 50
90.0
 51
90.0
  0
LINE
  5
19FF
330
17
100
AcDbEntity
  8
STEMPEL
100
AcDbLine
 10
247.2968545404342
 20
528.6884119325513
 30
0.0
 11
247.2968545404339
 21
464.6884698998674
 31
0.0
  0
LINE
  5
1A00
330
17
100
AcDbEntity
  8
STEMPEL
100
AcDbLine
 10
248.2968545404343
 20
528.6884119325513
 30
0.0
 11
248.296854540434
 21
464.6884698998674
 31
0.0
  0
LWPOLYLINE
  5
1A01
330
17
100
AcDbEntity
  8
STEMPEL
100
AcDbPolyline
 90
       18
 70
   128
 43
0.0
 10
248.5065417814693
 20
471.1884698998652
 10
248.5232102049462
 20
472.5665912834896
 10
248.5726478522065
 20
473.8977823962693
 10
248.653171183467
 20
475.1367111214462
 10
248.7620380732586
 20
476.2411872272154
 10
248.8955411902209
 20
477.1735991044683
 10
249.049134245825
 20
477.9021945850296
 10
249.2175868127771
 20
478.4021622236628
 10
249.395162440946
 20
478.6564762220796
 10
249.5758140052931
 20
478.6564762220796
 10
249.753389633462
 20
478.4021622236628
 10
249.921842200414
 20
477.9021945850296
 10
250.0754352560182
 20
477.1735991044683
 10
250.2089383729805
 20
476.2411872272154
 10
250.3178052627721
 20
475.1367111214462
 10
250.3983285940326
 20
473.8977823962693
 10
250.4477662412929
 20
472.5665912834896
 10
250.4644346647698
 20
471.1884698998652
  0
LINE
  5
1A02
330
17
100
AcDbEntity
  8
STEMPEL
100
AcDbLine
 10
227.2968545404344
 20
459.6884698998671
 30
0.0
 11
242.2968545404343
 21
459.6884698998675
 31
0.0
  0
LWPOLYLINE
  5
1A03
330
17
100
AcDbEntity
  8
STEMPEL
100
AcDbPolyline
 90
       10
 70
   128
 43
0.0
 10
-244.9584459337389
 20
458.6884698998671
 10
-245.8165189300117
 20
458.7545971144397
 10
-246.6693311296339
 20
459.0071508641698
 10
-247.4900894365509
 20
459.4381965804875
 10
-248.25300780295
 20
460.0341919509273
 10
-248.9341173584491
 20
460.7764123826479
 10
-249.5120194483948
 20
461.6415392794454
 10
-249.968557922801
 20
462.6023926501615
 10
-250.2893895543986
 20
463.6287850318737
 10
-250.4644346647697
 20
464.6884698998663
210
0.0
220
0.0
230
-1.0
  0
ARC
  5
1A04
330
17
100
AcDbEntity
  8
STEMPEL
100
AcDbCircle
 10
242.296854540434
 20
464.6884698998675
 30
0.0
 40
6.0
100
AcDbArc
 50
270.0
 51
0.0
  0
LWPOLYLINE
  5
1A05
330
17
100
AcDbEntity
  8
STEMPEL
100
AcDbPolyline
 90
       10
 70
   128
 43
0.0
 10
-243.0005530504384
 20
458.6884698998682
 10
-243.8586260467112
 20
458.7545971144408
 10
-244.7114382463334
 20
459.007150864171
 10
-245.5321965532505
 20
459.4381965804886
 10
-246.2951149196495
 20
460.0341919509284
 10
-246.9762244751486
 20
460.776412382649
 10
-247.5541265650944
 20
461.6415392794466
 10
-248.0106650395005
 20
462.6023926501627
 10
-248.3314966710981
 20
463.6287850318749
 10
-248.5065417814693
 20
464.6884698998674
210
0.0
220
0.0
230
-1.0
  0
ARC
  5
1A06
330
17
100
AcDbEntity
  8
STEMPEL
100
AcDbCircle
 10
242.296854540434
 20
464.6884698998675
 30
0.0
 40
5.0
100
AcDbArc
 50
270.0
 51
0.0
  0
LINE
  5
1A07
330
17
100
AcDbEntity
  8
STEMPEL
100
AcDbLine
 10
245.8860825977986
 20
459.688469899867
 30
0.0
 11
246.8501967675613
 21
459.688469899867
 31
0.0
  0
LINE
  5
1A08
330
17
100
AcDbEntity
  8
STEMPEL
100
AcDbLine
 10
249.4706559512319
 20
471.1884698998652
 30
0.0
 11
249.4706559512319
 21
464.6884698998674
 31
0.0
  0
LINE
  5
1A09
330
17
100
AcDbEntity
  8
STEMPEL
100
AcDbLine
 10
250.4644346647698
 20
471.1884698998652
 30
0.0
 11
250.4644346647697
 21
464.6884698998663
 31
0.0
  0
LINE
  5
1A0A
330
17
100
AcDbEntity
  8
STEMPEL
100
AcDbLine
 10
253.9625289282032
 20
471.1884698998652
 30
0.0
 11
253.9625289282031
 21
464.6884698998686
 31
0.0
  0
LINE
  5
1A0B
330
17
100
AcDbEntity
  8
STEMPEL
100
AcDbLine
 10
248.5065417814693
 20
471.1884698998652
 30
0.0
 11
248.5065417814693
 21
464.6884698998674
 31
0.0
  0
LWPOLYLINE
  5
1A0C
330
17
100
AcDbEntity
  8
STEMPEL
100
AcDbPolyline
 90
       10
 70
   128
 43
0.0
 10
-249.1471644016292
 20
458.688469899867
 10
-249.9833436764707
 20
458.7796233817938
 10
-250.7941160671733
 20
459.0503141751516
 10
-251.5548466649162
 20
459.4923174771603
 10
-252.2424210554349
 20
460.0922032411532
 10
-252.8359476388033
 20
460.8317442417479
 10
-253.3173924101246
 20
461.6884698998672
 10
-253.672126913645
 20
462.6363490399132
 10
-253.8893727209791
 20
463.6465808338658
 10
-253.9625289282031
 20
464.6884698998674
210
0.0
220
0.0
230
-1.0
  0
LWPOLYLINE
  5
1A0D
330
17
100
AcDbEntity
  8
STEMPEL
100
AcDbPolyline
 90
        7
 70
   128
 43
0.0
 10
-246.8501967675611
 20
459.6884698998675
 10
-247.5268986426384
 20
460.2980706277265
 10
-248.1264480662724
 20
461.0256297116381
 10
-248.632736739422
 20
461.8515995733184
 10
-249.0321620314676
 20
462.7537885985214
 10
-249.3139924467306
 20
463.7079573667151
 10
-249.470655951232
 20
464.6884698998674
210
0.0
220
0.0
230
-1.0
  0
LWPOLYLINE
  5
1A0E
330
17
100
AcDbEntity
  8
STEMPEL
100
AcDbPolyline
 90
        7
 70
   128
 43
0.0
 10
248.9885988663504
 20
477.6505239557049
 10
249.1264278759207
 20
476.8984177187664
 10
249.2452921528869
 20
475.9757041080517
 10
249.3416401547881
 20
474.9099528581474
 10
249.4125931023262
 20
473.7330075213263
 10
249.4560309943342
 20
472.4800340149244
 10
249.4706559512319
 20
471.1884698998652
  0
LINE
  5
1A0F
330
17
100
AcDbEntity
  8
STEMPEL
100
AcDbLine
 10
239.2968545404341
 20
459.6884698998676
 30
0.0
 11
239.2968545404341
 21
458.6884698998671
 31
0.0
  0
LINE
  5
1A10
330
17
100
AcDbEntity
  8
STEMPEL
100
AcDbLine
 10
231.2968545404341
 20
459.6884698998671
 30
0.0
 11
231.2968545404341
 21
458.6884698998671
 31
0.0
  0
LINE
  5
1A11
330
17
100
AcDbEntity
  8
STEMPEL
100
AcDbLine
 10
227.2968545404343
 20
459.6884698998673
 30
0.0
 11
227.2968545404341
 21
458.6884698998671
 31
0.0
  0
LINE
  5
1A12
330
17
100
AcDbEntity
  8
STEMPEL
100
AcDbLine
 10
247.2968545404344
 20
483.6884698998669
 30
0.0
 11
248.2968545404343
 21
483.6884698998669
 31
0.0
  0
LINE
  5
1A13
330
17
100
AcDbEntity
  8
STEMPEL
100
AcDbLine
 10
247.2968545404345
 20
523.6884698998669
 30
0.0
 11
248.2968545404345
 21
523.6884698998669
 31
0.0
  0
ARC
  5
1A14
330
17
100
AcDbEntity
  8
STEMPEL
100
AcDbCircle
 10
253.2968545404348
 20
528.6884119325511
 30
0.0
 40
5.000000000000511
100
AcDbArc
 50
120.2564164748189
 51
179.9999999999935
  0
ARC
  5
1A15
330
17
100
AcDbEntity
  8
STEMPEL
100
AcDbCircle
 10
253.2968545404346
 20
528.6884119325511
 30
0.0
 40
6.000000000000454
100
AcDbArc
 50
120.2564164748189
 51
179.9999999999935
  0
ARC
  5
1A16
330
17
100
AcDbEntity
  8
STEMPEL
100
AcDbCircle
 10
247.7857109361227
 20
538.2083068823288
 30
0.0
 40
5.0
100
AcDbArc
 50
300.0670458384872
 51
300.2564371635316
  0
LINE
  5
1A17
330
17
100
AcDbEntity
  8
TEXT
 62
     2
100
AcDbLine
 10
634.5573556565859
 20
531.9212096703413
 30
0.0
 11
466.9645925420239
 21
512.8789210907041
 31
0.0
  0
HATCH
  5
1A18
330
17
100
AcDbEntity
  8
SCHRAFF
100
AcDbHatch
 10
0.0
 20
0.0
 30
0.0
210
0.0
220
0.0
230
1.0
  2
_USER
 70
     0
 71
     0
 91
        4
 92
        7
 72
     0
 73
     1
 93
        9
 10
238.2968545404342
 20
448.3019698998669
 10
238.2968545404342
 20
445.688469899866
 10
237.2968545404342
 20
445.688469899866
 10
237.2968545404342
 20
444.6884698998662
 10
235.2968545404342
 20
444.1525715150039
 10
235.2968545404341
 20
443.6884698998662
 10
240.2968545404342
 20
443.6884698998662
 10
240.2968545404342
 20
458.6884698998666
 10
238.2968545404342
 20
458.6884698998665
 97
        0
 92
       23
 72
     0
 73
     1
 93
        5
 10
237.2968545404343
 20
445.688469899866
 10
238.2968545404342
 20
445.688469899866
 10
238.2968545404342
 20
448.3019698998669
 10
237.6833545404342
 20
447.6884698998668
 10
237.2968545404343
 20
447.6884698998668
 97
        0
 92
       22
 72
     0
 73
     1
 93
        5
 10
232.2968545404342
 20
445.6884698998662
 10
233.2968545404342
 20
445.6884698998662
 10
233.2968545404342
 20
447.688469899867
 10
232.910354540434
 20
447.6884698998668
 10
232.2968545404342
 20
448.3019698998668
 97
        0
 92
        7
 72
     0
 73
     1
 93
        9
 10
232.2968545404342
 20
448.3019698998669
 10
232.2968545404342
 20
458.6884698998668
 10
230.2968545404342
 20
458.6884698998668
 10
230.2968545404342
 20
443.6884698998663
 10
235.2968545404342
 20
443.6884698998664
 10
235.2968545404342
 20
444.1525715150039
 10
233.2968545404342
 20
444.6884698998663
 10
233.2968545404342
 20
445.6884698998661
 10
232.2968545404342
 20
445.6884698998662
 97
        0
 75
     0
 76
     0
 52
45.0
 41
1.0
 77
     0
 78
     1
 53
45.0
 43
85.04448220948985
 44
-147.4677350184598
 45
-0.7071067811865475
 46
0.7071067811865476
 79
     0
 47
0.0321819604051909
 98
        4
 10
239.2611657851174
 20
453.3938506154374
 10
237.6514816282618
 20
446.1207272739872
 10
232.7902377864232
 20
447.1183678872463
 10
232.0819765423496
 20
446.9574581740118
  0
ARC
  5
1A19
330
17
100
AcDbEntity
  8
HILF
100
AcDbCircle
 10
235.2968545404342
 20
446.4471778726406
 30
0.0
 40
14.94074366520046
100
AcDbArc
 50
78.85962783889434
 51
101.1403721611056
  0
ARC
  5
1A1A
330
17
100
AcDbEntity
  8
HILF
100
AcDbCircle
 10
230.966727521512
 20
457.5471611380505
 30
0.0
 40
3.840760399790701
100
AcDbArc
 50
67.92594526324179
 51
112.0740547367582
  0
ARC
  5
1A1B
330
17
100
AcDbEntity
  8
HILF
100
AcDbCircle
 10
239.6269815593564
 20
457.5459965761623
 30
0.0
 40
3.841839622940954
100
AcDbArc
 50
67.9324721810082
 51
112.0675278189918
  0
ARC
  5
1A1C
330
17
100
AcDbEntity
  8
STEMPEL
100
AcDbCircle
 10
235.2968545404342
 20
446.08121047823
 30
0.0
 40
20.20725942163691
100
AcDbArc
 50
81.78678929826059
 51
98.2132107017394
  0
ARC
  5
1A1D
330
17
100
AcDbEntity
  8
STEMPEL
100
AcDbCircle
 10
230.966727521512
 20
461.1589327613438
 30
0.0
 40
5.129537138523076
100
AcDbArc
 50
73.65710669401345
 51
106.3428933059865
  0
LINE
  5
1A1E
330
17
100
AcDbEntity
  8
STEMPEL
100
AcDbLine
 10
230.2968545404342
 20
466.2884698998669
 30
0.0
 11
229.5233518485379
 21
466.0812104782301
 31
0.0
  0
LINE
  5
1A1F
330
17
100
AcDbEntity
  8
STEMPEL
100
AcDbLine
 10
240.2968545404342
 20
466.2884698998669
 30
0.0
 11
241.0703572323304
 21
466.0812104782301
 31
0.0
  0
ARC
  5
1A20
330
17
100
AcDbEntity
  8
STEMPEL
100
AcDbCircle
 10
239.6269815593564
 20
461.1589327613438
 30
0.0
 40
5.129537138523076
100
AcDbArc
 50
73.65710669401345
 51
106.3428933059865
  0
POINT
  5
1A21
330
17
100
AcDbEntity
  8
0
100
AcDbPoint
 10
235.2968545404341
 20
447.6884698998668
 30
0.0
210
-0.0000000000000002
220
-1.0
230
0.0
  0
LINE
  5
1A22
330
17
100
AcDbEntity
  8
HILF
100
AcDbLine
 10
232.9103545404342
 20
456.6884698998669
 30
0.0
 11
232.2968545404342
 21
459.6884698998668
 31
0.0
  0
LINE
  5
1A23
330
17
100
AcDbEntity
  8
HILF
100
AcDbLine
 10
232.9103545404342
 20
456.6884698998669
 30
0.0
 11
232.9103545404342
 21
447.6884698998668
 31
0.0
  0
LINE
  5
1A24
330
17
100
AcDbEntity
  8
HILF
100
AcDbLine
 10
232.2968545404342
 20
456.6884698998669
 30
0.0
 11
238.2968545404342
 21
456.6884698998669
 31
0.0
  0
LINE
  5
1A25
330
17
100
AcDbEntity
  8
HILF
100
AcDbLine
 10
237.6833545404342
 20
456.6884698998669
 30
0.0
 11
238.2968545404342
 21
459.6884698998668
 31
0.0
  0
LINE
  5
1A26
330
17
100
AcDbEntity
  8
HILF
100
AcDbLine
 10
237.6833545404342
 20
456.6884698998669
 30
0.0
 11
237.6833545404342
 21
447.6884698998668
 31
0.0
  0
LINE
  5
1A27
330
17
100
AcDbEntity
  8
STEMPEL
100
AcDbLine
 10
242.0349656192632
 20
460.7553008412991
 30
0.0
 11
228.558743461605
 21
460.7553008412991
 31
0.0
  0
LINE
  5
1A28
330
17
100
AcDbEntity
  8
STEMPEL
100
AcDbLine
 10
241.8468545404341
 20
459.6884698998668
 30
0.0
 11
228.7468545404342
 21
459.6884698998668
 31
0.0
  0
LINE
  5
1A29
330
17
100
AcDbEntity
  8
STEMPEL
100
AcDbLine
 10
229.5233518485379
 20
466.0812104782301
 30
0.0
 11
229.5233518485379
 21
461.1063895818662
 31
0.0
  0
LINE
  5
1A2A
330
17
100
AcDbEntity
  8
STEMPEL
100
AcDbLine
 10
232.410103194486
 20
466.0812104782301
 30
0.0
 11
232.410103194486
 21
461.1063895818662
 31
0.0
  0
LINE
  5
1A2B
330
17
100
AcDbEntity
  8
STEMPEL
100
AcDbLine
 10
238.1836058863823
 20
466.0812104782301
 30
0.0
 11
238.1836058863823
 21
461.1063895818662
 31
0.0
  0
LINE
  5
1A2C
330
17
100
AcDbEntity
  8
STEMPEL
100
AcDbLine
 10
241.0703572323304
 20
466.0812104782301
 30
0.0
 11
241.0703572323304
 21
461.1063895818662
 31
0.0
  0
LINE
  5
1A2D
330
17
100
AcDbEntity
  8
STEMPEL
100
AcDbLine
 10
240.2968545404342
 20
466.2884698998669
 30
0.0
 11
230.2968545404342
 21
466.2884698998669
 31
0.0
  0
LINE
  5
1A2E
330
17
100
AcDbEntity
  8
STEMPEL
100
AcDbLine
 10
237.6833545404342
 20
447.6884698998668
 30
0.0
 11
232.9103545404342
 21
447.6884698998668
 31
0.0
  0
LINE
  5
1A2F
330
17
100
AcDbEntity
  8
STEMPEL
100
AcDbLine
 10
238.2968545404342
 20
448.3019698998669
 30
0.0
 11
232.2968545404342
 21
448.3019698998669
 31
0.0
  0
LINE
  5
1A30
330
17
100
AcDbEntity
  8
STEMPEL
100
AcDbLine
 10
229.5233518485379
 20
461.1063895818662
 30
0.0
 11
228.558743461605
 21
460.7553008412991
 31
0.0
  0
LINE
  5
1A31
330
17
100
AcDbEntity
  8
STEMPEL
100
AcDbLine
 10
242.0349656192632
 20
460.7553008412991
 30
0.0
 11
241.0703572323304
 21
461.1063895818662
 31
0.0
  0
ARC
  5
1A32
330
17
100
AcDbEntity
  8
STEMPEL
100
AcDbCircle
 10
241.8468545404341
 20
460.2384698998668
 30
0.0
 40
0.5500000000000009
100
AcDbArc
 50
270.0
 51
69.99999999999935
  0
ARC
  5
1A33
330
17
100
AcDbEntity
  8
STEMPEL
100
AcDbCircle
 10
228.7468545404342
 20
460.2384698998668
 30
0.0
 40
0.5500000000000003
100
AcDbArc
 50
110.0000000000006
 51
270.0
  0
LINE
  5
1A34
330
17
100
AcDbEntity
  8
STEMPEL
100
AcDbLine
 10
232.2968545404342
 20
448.3019698998669
 30
0.0
 11
232.9103545404342
 21
447.6884698998668
 31
0.0
  0
LINE
  5
1A35
330
17
100
AcDbEntity
  8
STEMPEL
100
AcDbLine
 10
237.6833545404342
 20
447.6884698998668
 30
0.0
 11
238.2968545404342
 21
448.3019698998669
 31
0.0
  0
LINE
  5
1A36
330
17
100
AcDbEntity
  8
STEMPEL
100
AcDbLine
 10
232.2968545404342
 20
459.6884698998668
 30
0.0
 11
232.2968545404342
 21
448.3019698998669
 31
0.0
  0
LINE
  5
1A37
330
17
100
AcDbEntity
  8
STEMPEL
100
AcDbLine
 10
238.2968545404342
 20
448.3019698998669
 30
0.0
 11
238.2968545404342
 21
459.6884698998668
 31
0.0
  0
LINE
  5
1A38
330
17
100
AcDbEntity
  8
TEXT
 62
     2
100
AcDbLine
 10
634.5573556565859
 20
531.9212096703413
 30
0.0
 11
737.8307651925445
 21
531.9212096703413
 31
0.0
  0
TEXT
  5
1A39
330
17
100
AcDbEntity
  8
TEXT
 62
     1
100
AcDbText
 10
634.8227327942099
 20
535.2570579512253
 30
0.0
 40
7.0
  1
Siebkorb
 41
0.8
  7
GREEKS
100
AcDbText
  0
TEXT
  5
1A3A
330
17
100
AcDbEntity
  8
TEXT
 62
     1
100
AcDbText
 10
634.8227327942099
 20
521.9805324008594
 30
0.0
 40
7.0
  1
EDV-Art.Nr. 21004.000X
 41
0.8
  7
GREEKS
100
AcDbText
  0
DIMENSION
  5
1A3B
330
17
100
AcDbEntity
  8
BEM
100
AcDbDimension
  2
*D5
 10
201.6355945453588
 20
443.6884698998663
 30
0.0
 11
195.1355945453587
 21
451.1884698998663
 31
0.0
 70
    32
 71
     5
 42
14.99999999999988
  3
STANDARD
100
AcDbAlignedDimension
 13
227.2968545404341
 23
458.6884698998662
 33
0.0
 14
222.2968545404342
 24
443.6884698998663
 34
0.0
 50
90.0
100
AcDbRotatedDimension
1001
ACAD
1000
DSTYLE
1002
{
1070
    40
1040
2.0
1070
    41
1040
3.5
1070
    42
1040
1.0
1070
    43
1040
7.0
1070
    44
1040
1.0
1070
    73
1070
     0
1070
    74
1070
     0
1070
    77
1070
     1
1070
    78
1070
     8
1070
    79
1070
     2
1070
   140
1040
3.5
1070
   141
1040
1.5
1070
   146
1040
0.5142857142857144
1070
   147
1040
1.5
1070
   172
1070
     1
1070
   178
1070
     1
1070
   179
1070
     2
1070
   271
1070
     2
1070
   272
1070
     2
1070
   284
1070
     8
1070
   285
1070
     8
1070
   286
1070
     8
1002
}
  0
DIMENSION
  5
1A3D
330
17
100
AcDbEntity
  8
BEM
100
AcDbDimension
  2
*D6
 10
467.2968545404345
 20
556.2125312719656
 30
0.0
 11
357.2968545404344
 21
562.7125312719656
 31
0.0
 70
    32
  1
%%c<>
 71
     5
 42
220.0000000000002
  3
STANDARD
100
AcDbAlignedDimension
 13
247.2968545404344
 23
528.6884119325507
 33
0.0
 14
467.2968545404345
 24
528.6884119325507
 34
0.0
100
AcDbRotatedDimension
1001
ACAD
1000
DSTYLE
1002
{
1070
    40
1040
2.0
1070
    41
1040
3.5
1070
    42
1040
1.0
1070
    43
1040
7.0
1070
    44
1040
1.0
1070
    73
1070
     0
1070
    74
1070
     0
1070
    77
1070
     1
1070
    78
1070
     8
1070
    79
1070
     2
1070
   140
1040
3.5
1070
   141
1040
1.5
1070
   146
1040
0.5142857142857144
1070
   147
1040
1.5
1070
   172
1070
     1
1070
   178
1070
     1
1070
   179
1070
     2
1070
   271
1070
     2
1070
   272
1070
     2
1070
   284
1070
     8
1070
   285
1070
     8
1070
   286
1070
     8
1002
}
  0
DIMENSION
  5
1A3E
330
17
100
AcDbEntity
  8
BEM
100
AcDbDimension
  2
*D7
 10
201.6355945453588
 20
548.6884698998655
 30
0.0
 11
195.1355945453587
 21
503.6884698998658
 31
0.0
 70
    32
 71
     5
 42
89.9999999999992
  3
STANDARD
100
AcDbAlignedDimension
 13
227.2968545404344
 23
458.6884698998662
 33
0.0
 14
277.2968545404344
 24
548.6884698998653
 34
0.0
 50
90.0
100
AcDbRotatedDimension
1001
ACAD
1000
DSTYLE
1002
{
1070
    40
1040
2.0
1070
    41
1040
3.5
1070
    42
1040
1.0
1070
    43
1040
7.0
1070
    44
1040
1.0
1070
    73
1070
     0
1070
    74
1070
     0
1070
    77
1070
     1
1070
    78
1070
     8
1070
    79
1070
     2
1070
   140
1040
3.5
1070
   141
1040
1.5
1070
   146
1040
0.5142857142857144
1070
   147
1040
1.5
1070
   172
1070
     1
1070
   178
1070
     1
1070
   179
1070
     2
1070
   271
1070
     2
1070
   272
1070
     2
1070
   284
1070
     8
1070
   285
1070
     8
1070
   286
1070
     8
1002
}
  0
TEXT
  5
1A3F
330
17
100
AcDbEntity
  8
TEXT
 62
     1
100
AcDbText
 10
636.9814686437333
 20
469.0478366794149
 30
0.0
 40
7.0
  1
EDV-Art.Nr. 17014.125X
 41
0.8
  7
GREEKS
100
AcDbText
  0
TEXT
  5
1A40
330
17
100
AcDbEntity
  8
TEXT
 62
     1
100
AcDbText
 10
636.9814686437333
 20
482.3243622297808
 30
0.0
 40
7.0
  1
Losflansch DN125
 41
0.8
  7
GREEKS
100
AcDbText
  0
LINE
  5
1A41
330
17
100
AcDbEntity
  8
TEXT
 62
     2
100
AcDbLine
 10
636.7160915061093
 20
478.9885139488967
 30
0.0
 11
739.9895010420679
 21
478.9885139488967
 31
0.0
  0
LINE
  5
1A42
330
17
100
AcDbEntity
  8
STEMPEL
100
AcDbLine
 10
240.2968545404342
 20
458.6884698998662
 30
0.0
 11
230.2968545404342
 21
458.6884698998662
 31
0.0
  0
LINE
  5
1A43
330
17
100
AcDbEntity
  8
STEMPEL
100
AcDbLine
 10
230.2968545404342
 20
443.6884698998662
 30
0.0
 11
230.2968545404342
 21
458.6884698998662
 31
0.0
  0
LINE
  5
1A44
330
17
100
AcDbEntity
  8
STEMPEL
100
AcDbLine
 10
240.2968545404342
 20
443.6884698998662
 30
0.0
 11
240.2968545404342
 21
458.6884698998662
 31
0.0
  0
LINE
  5
1A45
330
17
100
AcDbEntity
  8
HILF
100
AcDbLine
 10
232.2968545404342
 20
445.6884698998662
 30
0.0
 11
232.2968545404342
 21
448.3019698998669
 31
0.0
  0
LINE
  5
1A46
330
17
100
AcDbEntity
  8
HILF
100
AcDbLine
 10
238.2968545404342
 20
445.6884698998662
 30
0.0
 11
238.2968545404342
 21
448.3019698998669
 31
0.0
  0
LINE
  5
1A47
330
17
100
AcDbEntity
  8
STEMPEL
100
AcDbLine
 10
238.2968545404342
 20
445.688469899866
 30
0.0
 11
232.2968545404342
 21
445.6884698998662
 31
0.0
  0
LINE
  5
1A48
330
17
100
AcDbEntity
  8
STEMPEL
100
AcDbLine
 10
237.2968545404342
 20
444.6884698998657
 30
0.0
 11
237.2968545404342
 21
447.688469899867
 31
0.0
  0
LINE
  5
1A49
330
17
100
AcDbEntity
  8
STEMPEL
100
AcDbLine
 10
233.2968545404342
 20
444.6884698998659
 30
0.0
 11
233.2968545404342
 21
447.688469899867
 31
0.0
  0
LINE
  5
1A4A
330
17
100
AcDbEntity
  8
STEMPEL
100
AcDbLine
 10
237.2968545404342
 20
444.6884698998662
 30
0.0
 11
233.2968545404342
 21
444.6884698998662
 31
0.0
  0
LINE
  5
1A4B
330
17
100
AcDbEntity
  8
STEMPEL
100
AcDbLine
 10
233.2968545404342
 20
444.6884698998662
 30
0.0
 11
235.2968545404342
 21
444.1525715150039
 31
0.0
  0
LINE
  5
1A4C
330
17
100
AcDbEntity
  8
STEMPEL
100
AcDbLine
 10
237.2968545404342
 20
444.6884698998662
 30
0.0
 11
235.2968545404342
 21
444.1525715150039
 31
0.0
  0
LINE
  5
1A4D
330
17
100
AcDbEntity
  8
MITTEL
100
AcDbLine
 10
235.2968545404342
 20
437.1884698998664
 30
0.0
 11
235.2968545404342
 21
471.2884698998669
 31
0.0
  0
LINE
  5
1A4E
330
17
100
AcDbEntity
  8
STEMPEL
100
AcDbLine
 10
423.2968545404341
 20
443.6884698998663
 30
0.0
 11
423.2968545404341
 21
458.6884698998663
 31
0.0
  0
LINE
  5
1A4F
330
17
100
AcDbEntity
  8
STEMPEL
100
AcDbLine
 10
413.2968545404342
 20
443.6884698998663
 30
0.0
 11
413.2968545404342
 21
458.6884698998663
 31
0.0
  0
LINE
  5
1A50
330
17
100
AcDbEntity
  8
STEMPEL
100
AcDbLine
 10
423.2968545404341
 20
458.6884698998663
 30
0.0
 11
413.2968545404342
 21
458.6884698998663
 31
0.0
  0
LINE
  5
1ABE
330
17
100
AcDbEntity
  8
STEMPEL
100
AcDbLine
 10
427.5961254027715
 20
429.4260468294988
 30
0.0
 11
423.7968545404345
 21
429.4260468294988
 31
0.0
  0
LINE
  5
1ABF
330
17
100
AcDbEntity
  8
STEMPEL
100
AcDbLine
 10
410.6250488691755
 20
439.43438091112
 30
0.0
 11
416.5101171797618
 21
439.43438091112
 31
0.0
  0
LINE
  5
1AC0
330
17
100
AcDbEntity
  8
STEMPEL
100
AcDbLine
 10
360.9464197883547
 20
429.4260468294988
 30
0.0
 11
353.6472892925137
 21
429.4260468294988
 31
0.0
  0
LINE
  5
1AC1
330
17
100
AcDbEntity
  8
STEMPEL
100
AcDbLine
 10
414.7868164778563
 20
429.4260468294988
 30
0.0
 11
412.9198857086157
 21
429.4260468294988
 31
0.0
  0
LINE
  5
1AC2
330
17
100
AcDbEntity
  8
STEMPEL
100
AcDbLine
 10
423.7968545404345
 20
439.4343809111201
 30
0.0
 11
432.2892148653477
 21
439.4343809111201
 31
0.0
  0
LINE
  5
1AC3
330
17
100
AcDbEntity
  8
STEMPEL
100
AcDbLine
 10
286.9968545404345
 20
429.4343809111201
 30
0.0
 11
290.7968545404342
 21
429.4343809111201
 31
0.0
  0
LINE
  5
1AC4
330
17
100
AcDbEntity
  8
STEMPEL
100
AcDbLine
 10
298.0835919011065
 20
439.43438091112
 30
0.0
 11
303.9686602116928
 21
439.43438091112
 31
0.0
  0
LINE
  5
1AC5
330
17
100
AcDbEntity
  8
STEMPEL
100
AcDbLine
 10
299.8020428649738
 20
429.4343809111201
 30
0.0
 11
301.6796729951892
 21
429.4343809111201
 31
0.0
  0
DIMENSION
  5
1AE2
330
17
100
AcDbEntity
  8
SCHRAFF
100
AcDbDimension
  2
*D8
 10
487.2968545404343
 20
412.6911760000959
 30
0.0
 11
357.2968545404342
 21
419.191176000096
 31
0.0
 70
    32
 71
     5
 42
260.0000000000002
  3
STANDARD
100
AcDbAlignedDimension
 13
227.2968545404341
 23
458.6884698998671
 33
0.0
 14
487.2968545404343
 24
458.688469899866
 34
0.0
100
AcDbRotatedDimension
  0
LINE
  5
1AF8
330
17
100
AcDbEntity
  8
MITTEL
100
AcDbLine
 10
357.2968545404342
 20
410.8317670632422
 30
0.0
 11
357.2968545404343
 21
141.8885194220836
 31
0.0
  0
DIMENSION
  5
1B39
330
17
100
AcDbEntity
  8
BEM
100
AcDbDimension
  2
*D9
 10
262.2968545404343
 20
127.353444312719
 30
0.0
 11
357.2968545404342
 21
133.853444312719
 31
0.0
 70
    32
  1
%%c<>
 71
     5
 42
189.9999999999998
  3
STANDARD
100
AcDbAlignedDimension
 13
452.2968545404341
 23
151.3571971052084
 33
0.0
 14
262.2968545404343
 24
151.3571971052093
 34
0.0
100
AcDbRotatedDimension
  0
LINE
  5
1B3B
330
17
100
AcDbEntity
  8
STEMPEL
  6
Continuous
100
AcDbLine
 10
433.7968545404343
 20
171.3571971052085
 30
0.0
 11
434.7968545404341
 21
171.3571971052084
 31
0.0
  0
LINE
  5
1B3C
330
17
100
AcDbEntity
  8
STEMPEL
  6
Continuous
100
AcDbLine
 10
433.7968545404343
 20
151.3571971052085
 30
0.0
 11
449.5649497879366
 21
151.3571971052084
 31
0.0
  0
LINE
  5
1B3D
330
17
100
AcDbEntity
  8
STEMPEL
100
AcDbLine
 10
433.7968545404343
 20
170.1571971052087
 30
0.0
 11
434.7968545404341
 21
171.3571971052084
 31
0.0
  0
LINE
  5
1B3E
330
17
100
AcDbEntity
  8
STEMPEL
  6
Continuous
100
AcDbLine
 10
467.2968545404343
 20
311.3571971052092
 30
0.0
 11
452.5518524661144
 21
154.07717497913
 31
0.0
  0
ARC
  5
1B44
330
17
100
AcDbEntity
  8
STEMPEL
  6
Continuous
100
AcDbCircle
 10
449.5649497879366
 20
154.3571971052092
 30
0.0
 40
3.0
100
AcDbArc
 50
270.0
 51
354.6441749571445
  0
LINE
  5
1B46
330
17
100
AcDbEntity
  8
STEMPEL
100
AcDbLine
 10
446.2968545404343
 20
286.3571971052092
 30
0.0
 11
434.7968545404342
 21
241.3571971052086
 31
0.0
  0
LINE
  5
1B47
330
17
100
AcDbEntity
  8
STEMPEL
100
AcDbLine
 10
441.6780523869168
 20
286.3571971052092
 30
0.0
 11
446.2968545404342
 21
286.3571971052092
 31
0.0
  0
LINE
  5
1B48
330
17
100
AcDbEntity
  8
STEMPEL
100
AcDbLine
 10
446.2968545404343
 20
306.357197105209
 30
0.0
 11
446.2968545404343
 21
286.3571971052092
 31
0.0
  0
LINE
  5
1B49
330
17
100
AcDbEntity
  8
STEMPEL
100
AcDbLine
 10
452.2968545404343
 20
311.3571971052092
 30
0.0
 11
446.2968545404343
 21
306.3571971052092
 31
0.0
  0
LINE
  5
1B4A
330
17
100
AcDbEntity
  8
STEMPEL
100
AcDbLine
 10
444.8862386947667
 20
306.357197105209
 30
0.0
 11
446.2968545404343
 21
306.357197105209
 31
0.0
  0
LINE
  5
1B4B
330
17
100
AcDbEntity
  8
STEMPEL
100
AcDbLine
 10
279.7968545404342
 20
241.3571971052091
 30
0.0
 11
279.7968545404341
 21
171.3571971052092
 31
0.0
  0
LINE
  5
1B4C
330
17
100
AcDbEntity
  8
STEMPEL
  6
Continuous
100
AcDbLine
 10
265.028759292932
 20
151.3571971052093
 30
0.0
 11
290.7968545404344
 21
151.3571971052092
 31
0.0
  0
LINE
  5
1B4D
330
17
100
AcDbEntity
  8
STEMPEL
100
AcDbLine
 10
290.7968545404343
 20
158.1571971052088
 30
0.0
 11
279.7968545404341
 21
171.3571971052092
 31
0.0
  0
LINE
  5
1B4E
330
17
100
AcDbEntity
  8
STEMPEL
  6
Continuous
100
AcDbLine
 10
279.7968545404341
 20
171.3571971052092
 30
0.0
 11
290.7024996170458
 21
171.3571971052092
 31
0.0
  0
DIMENSION
  5
1B4F
330
17
100
AcDbEntity
  8
BEM
100
AcDbDimension
  2
*D10
 10
185.7840865715191
 20
151.3571971052093
 30
0.0
 11
179.2840865715191
 21
231.3571971052096
 31
0.0
 70
    32
 71
     5
 42
160.0000000000005
  3
STANDARD
100
AcDbAlignedDimension
 13
192.2968545404343
 23
311.3571971052098
 33
0.0
 14
262.2968545404343
 24
151.3571971052093
 34
0.0
 50
90.0
100
AcDbRotatedDimension
  0
LINE
  5
1B50
330
17
100
AcDbEntity
  8
STEMPEL
  6
Continuous
100
AcDbLine
 10
247.2968545404343
 20
311.3571971052092
 30
0.0
 11
262.0418566147542
 21
154.07717497913
 31
0.0
  0
LINE
  5
1B51
330
17
100
AcDbEntity
  8
STEMPEL
100
AcDbLine
 10
268.2968545404343
 20
286.3571971052092
 30
0.0
 11
279.7968545404342
 21
241.3571971052091
 31
0.0
  0
ARC
  5
1B52
330
17
100
AcDbEntity
  8
STEMPEL
  6
Continuous
100
AcDbCircle
 10
265.028759292932
 20
154.3571971052092
 30
0.0
 40
3.0
100
AcDbArc
 50
185.3558250428554
 51
270.0
  0
LINE
  5
1B53
330
17
100
AcDbEntity
  8
STEMPEL
100
AcDbLine
 10
284.7968545404344
 20
241.3571971052091
 30
0.0
 11
279.7968545404342
 21
241.357197105209
 31
0.0
  0
LINE
  5
1B54
330
17
100
AcDbEntity
  8
STEMPEL
100
AcDbLine
 10
268.2968545404343
 20
306.357197105209
 30
0.0
 11
268.2968545404343
 21
286.3571971052092
 31
0.0
  0
LINE
  5
1B55
330
17
100
AcDbEntity
  8
STEMPEL
100
AcDbLine
 10
268.2968545404343
 20
286.3571971052092
 30
0.0
 11
272.9156566939517
 21
286.3571971052092
 31
0.0
  0
LINE
  5
1B56
330
17
100
AcDbEntity
  8
STEMPEL
100
AcDbLine
 10
262.2968545404343
 20
311.3571971052092
 30
0.0
 11
268.2968545404343
 21
306.3571971052092
 31
0.0
  0
LINE
  5
1B57
330
17
100
AcDbEntity
  8
STEMPEL
100
AcDbLine
 10
268.2968545404343
 20
306.357197105209
 30
0.0
 11
269.7074703861018
 21
306.357197105209
 31
0.0
  0
LINE
  5
1B8B
330
17
100
AcDbEntity
  8
MITTEL
100
AcDbLine
 10
357.2968545404343
 20
123.1118652254431
 30
0.0
 11
357.2968545404343
 21
28.35719710520994
 31
0.0
  0
TEXT
  5
1B8C
330
17
100
AcDbEntity
  8
TEXT
100
AcDbText
 10
654.862987254257
 20
62.0
 30
0.0
 40
5.0
  1
Wärmedämmung und Heizung
 41
0.8
100
AcDbText
  0
LINE
  5
1BCC
330
17
100
AcDbEntity
  8
TEXT
 62
     2
100
AcDbLine
 10
517.9808948225587
 20
172.4288670740464
 30
0.0
 11
431.0243783355294
 21
149.5183534599644
 31
0.0
  0
LINE
  5
1BCD
330
17
100
AcDbEntity
  8
TEXT
 62
     2
100
AcDbLine
 10
517.9808948225587
 20
172.4288670740464
 30
0.0
 11
611.8707439202252
 21
172.4288670740464
 31
0.0
  0
TEXT
  5
1BCE
330
17
100
AcDbEntity
  8
TEXT
 62
     1
100
AcDbText
 10
522.1092662136089
 20
176.5740176837582
 30
0.0
 40
7.0
  1
Heizbandkabel
 41
0.8
  7
GREEKS
100
AcDbText
  0
TEXT
  5
1BCF
330
17
100
AcDbEntity
  8
TEXT
 62
     1
100
AcDbText
 10
519.7799868170251
 20
152.0273761719363
 30
0.0
 40
7.0
  1
EDV-Art.Nr. 19853.000X
 41
0.7
  7
GREEKS
100
AcDbText
  0
LINE
  5
1BD0
330
17
100
AcDbEntity
  8
TEXT
 62
     2
100
AcDbLine
 10
523.4615812901447
 20
204.8471160412727
 30
0.0
 11
630.9662477037687
 21
204.8471160412727
 31
0.0
  0
TEXT
  5
1BD1
330
17
100
AcDbEntity
  8
TEXT
 62
     1
100
AcDbText
 10
525.4822153941651
 20
208.5700693410792
 30
0.0
 40
7.0
  1
Wärmedämmung DN125
 41
0.8
  7
GREEKS
100
AcDbText
  0
TEXT
  5
1BD2
330
17
100
AcDbEntity
  8
TEXT
 62
     1
100
AcDbText
 10
525.4822153941648
 20
194.357159610149
 30
0.0
 40
7.0
  1
EDV-Art.Nr. 19842.125X
 41
0.8
  7
GREEKS
100
AcDbText
  0
LINE
  5
1BD3
330
17
100
AcDbEntity
  8
TEXT
 62
     2
100
AcDbLine
 10
449.3163465749417
 20
188.699467640805
 30
0.0
 11
523.4615812901447
 21
204.8471160412727
 31
0.0
  0
LINE
  5
1BD4
330
17
100
AcDbEntity
  8
MITTEL
100
AcDbLine
 10
442.3645865078905
 20
111.2388214332255
 30
0.0
 11
428.9399904245031
 21
107.2663889293435
 31
0.0
  0
POLYLINE
  5
1BD5
330
17
100
AcDbEntity
  8
STEMPEL
100
AcDb2dPolyline
 66
     1
 10
0.0
 20
0.0
 30
0.0
 70
     4
 75
     6
  0
VERTEX
  5
1BD6
330
1BD5
100
AcDbEntity
  8
STEMPEL
100
AcDbVertex
100
AcDb2dVertex
 10
423.796863218276
 20
149.3635529721754
 30
0.0
 70
    16
  0
VERTEX
  5
1BD7
330
1BD5
100
AcDbEntity
  8
STEMPEL
100
AcDbVertex
100
AcDb2dVertex
 10
423.796863218276
 20
149.3635529721754
 30
0.0
 70
     8
  0
VERTEX
  5
1BD8
330
1BD5
100
AcDbEntity
  8
STEMPEL
100
AcDbVertex
100
AcDb2dVertex
 10
424.4515183219115
 20
142.4419308818407
 30
0.0
 70
     8
  0
VERTEX
  5
1BD9
330
1BD5
100
AcDbEntity
  8
STEMPEL
100
AcDbVertex
100
AcDb2dVertex
 10
425.0175867999955
 20
136.9915476771718
 30
0.0
 70
     8
  0
VERTEX
  5
1BDA
330
1BD5
100
AcDbEntity
  8
STEMPEL
100
AcDbVertex
100
AcDb2dVertex
 10
425.5890509927655
 20
132.5290526334857
 30
0.0
 70
     8
  0
VERTEX
  5
1BDB
330
1BD5
100
AcDbEntity
  8
STEMPEL
100
AcDbVertex
100
AcDb2dVertex
 10
426.2598932404594
 20
128.5710950260992
 30
0.0
 70
     8
  0
VERTEX
  5
1BDC
330
1BD5
100
AcDbEntity
  8
STEMPEL
100
AcDbVertex
100
AcDb2dVertex
 10
427.1240958833151
 20
124.6343241303294
 30
0.0
 70
     8
  0
VERTEX
  5
1BDD
330
1BD5
100
AcDbEntity
  8
STEMPEL
100
AcDbVertex
100
AcDb2dVertex
 10
428.2756412615699
 20
120.2353892214933
 30
0.0
 70
     8
  0
VERTEX
  5
1BDE
330
1BD5
100
AcDbEntity
  8
STEMPEL
100
AcDbVertex
100
AcDb2dVertex
 10
429.8085117154619
 20
114.8909395749077
 30
0.0
 70
     8
  0
VERTEX
  5
1BDF
330
1BD5
100
AcDbEntity
  8
STEMPEL
100
AcDbVertex
100
AcDb2dVertex
 10
431.8166895852287
 20
108.1176244658896
 30
0.0
 70
     8
  0
VERTEX
  5
1BE0
330
1BD5
100
AcDbEntity
  8
STEMPEL
100
AcDbVertex
100
AcDb2dVertex
 10
425.7442655200285
 20
128.5145971284548
 30
0.0
 70
    16
  0
VERTEX
  5
1BE1
330
1BD5
100
AcDbEntity
  8
STEMPEL
100
AcDbVertex
100
AcDb2dVertex
 10
431.8166895852288
 20
108.1176244658897
 30
0.0
 70
    16
  0
SEQEND
  5
1BE2
330
1BD5
100
AcDbEntity
  8
STEMPEL
  0
POLYLINE
  5
1BE3
330
17
100
AcDbEntity
  8
STEMPEL
100
AcDb2dPolyline
 66
     1
 10
0.0
 20
0.0
 30
0.0
  0
VERTEX
  5
1BE4
330
1BE3
100
AcDbEntity
  8
STEMPEL
100
AcDbVertex
100
AcDb2dVertex
 10
433.7968545404343
 20
149.3571971052091
 30
0.0
  0
VERTEX
  5
1BE5
330
1BE3
100
AcDbEntity
  8
STEMPEL
100
AcDbVertex
100
AcDb2dVertex
 10
433.7913987490732
 20
142.4901060624531
 30
0.0
  0
VERTEX
  5
1BE6
330
1BE3
100
AcDbEntity
  8
STEMPEL
100
AcDbVertex
100
AcDb2dVertex
 10
433.8588504236364
 20
137.2363599492314
 30
0.0
  0
VERTEX
  5
1BE7
330
1BE3
100
AcDbEntity
  8
STEMPEL
100
AcDbVertex
100
AcDb2dVertex
 10
434.0562741102481
 20
133.1575805493438
 30
0.0
  0
VERTEX
  5
1BE8
330
1BE3
100
AcDbEntity
  8
STEMPEL
100
AcDbVertex
100
AcDb2dVertex
 10
434.4312572991009
 20
129.7264689659817
 30
0.0
  0
VERTEX
  5
1BE9
330
1BE3
100
AcDbEntity
  8
STEMPEL
100
AcDbVertex
100
AcDb2dVertex
 10
435.0564331562647
 20
126.3066128719274
 30
0.0
  0
VERTEX
  5
1BEA
330
1BE3
100
AcDbEntity
  8
STEMPEL
100
AcDbVertex
100
AcDb2dVertex
 10
436.0445151706379
 20
122.2720819965183
 30
0.0
  0
VERTEX
  5
1BEB
330
1BE3
100
AcDbEntity
  8
STEMPEL
100
AcDbVertex
100
AcDb2dVertex
 10
437.4985000251967
 20
117.1106003782927
 30
0.0
  0
VERTEX
  5
1BEC
330
1BE3
100
AcDbEntity
  8
STEMPEL
100
AcDbVertex
100
AcDb2dVertex
 10
439.4878873471646
 20
110.3875858966793
 30
0.0
  0
SEQEND
  5
1BED
330
1BE3
100
AcDbEntity
  8
STEMPEL
  0
HATCH
  5
1BEE
330
17
100
AcDbEntity
  8
SCHRAFF
100
AcDbHatch
 10
0.0
 20
0.0
 30
0.0
210
0.0
220
0.0
230
1.0
  2
HONEY
 70
     0
 71
     0
 91
        2
 92
        7
 72
     1
 73
     1
 93
       10
 10
434.7968545404341
 20
241.3571971052085
 42
0.0
 10
434.7968545404341
 20
171.3571971052084
 42
0.0
 10
433.7968545404343
 20
170.1571971052087
 42
0.0
 10
433.7968545404343
 20
151.3571971052084
 42
0.0
 10
449.5649497879364
 20
151.3571971052084
 42
0.3870924378343681
 10
452.5518524661143
 20
154.07717497913
 42
0.0
 10
467.2968545404343
 20
311.35719710521
 42
0.0
 10
452.2968545404351
 20
311.3571971052099
 42
0.0
 10
446.2968545404343
 20
306.3571971052092
 42
0.0
 10
446.2968545404343
 20
286.3571971052092
 42
0.0
 97
        0
 92
        7
 72
     1
 73
     1
 93
       10
 10
268.2968545404343
 20
286.3571971052092
 42
0.0
 10
268.2968545404343
 20
306.3571971052091
 42
0.0
 10
262.2968545404334
 20
311.3571971052099
 42
0.0
 10
247.2968545404342
 20
311.3571971052099
 42
0.0
 10
262.0418566147542
 20
154.07717497913
 42
0.3870924378342832
 10
265.0287592929321
 20
151.3571971052093
 42
0.0
 10
290.7968545404343
 20
151.3571971052091
 42
0.0
 10
290.7968545404343
 20
158.1571971052088
 42
0.0
 10
279.7968545404341
 20
171.3571971052092
 42
0.0
 10
279.7968545404342
 20
241.3571971052091
 42
0.0
 97
        0
 75
     0
 76
     1
 52
0.0
 41
35.0
 77
     0
 78
     3
 53
0.0
 43
118.3350916887528
 44
-181.7995054070461
 45
6.5625
 46
3.788861124999999
 79
     2
 49
4.375
 49
-8.75
 53
120.0
 43
118.3350916887528
 44
-181.7995054070461
 45
-6.562499985661285
 46
3.788861149835379
 79
     2
 49
4.374999999999996
 49
-8.749999999999992
 53
60.0
 43
118.3350916887528
 44
-181.7995054070461
 45
0.000000014338714
 46
7.577722274835378
 79
     2
 49
-8.75
 49
4.375
 47
0.3167460275531706
 98
        2
 10
445.0999533327043
 20
254.2162124033471
 10
266.3945795325066
 20
253.5827201453335
  0
LINE
  5
1BEF
330
17
100
AcDbEntity
  8
STEMPEL
100
AcDbLine
 10
433.7968545404343
 20
171.3571971052084
 30
0.0
 11
433.7968545404343
 21
149.3571971052091
 31
0.0
  0
ARC
  5
1BF0
330
17
100
AcDbEntity
  8
STEMPEL
100
AcDbCircle
 10
437.7968545404343
 20
171.3571971052084
 30
0.0
 40
4.0
100
AcDbArc
 50
151.0449756281418
 51
180.0
  0
ARC
  5
1BF1
330
17
100
AcDbEntity
  8
STEMPEL
100
AcDbCircle
 10
430.7968545404341
 20
175.2301804514155
 30
0.0
 40
4.0
100
AcDbArc
 50
331.0449756281418
 51
0.0
  0
LINE
  5
1BF2
330
17
100
AcDbEntity
  8
STEMPEL
100
AcDbLine
 10
431.7968545404342
 20
265.7450545833526
 30
0.0
 11
432.7968545404342
 21
265.7450545833525
 31
0.0
  0
LINE
  5
1BF3
330
17
100
AcDbEntity
  8
STEMPEL
100
AcDbLine
 10
432.7968545404342
 20
266.7450545833525
 30
0.0
 11
431.7968545404342
 21
266.7450545833526
 31
0.0
  0
LINE
  5
1BF4
330
17
100
AcDbEntity
  8
STEMPEL
100
AcDbLine
 10
431.7968545404342
 20
257.7450545833525
 30
0.0
 11
432.7968545404342
 21
257.7450545833525
 31
0.0
  0
LINE
  5
1BF5
330
17
100
AcDbEntity
  8
STEMPEL
100
AcDbLine
 10
431.7968545404342
 20
256.7450545833525
 30
0.0
 11
432.7968545404342
 21
256.7450545833525
 31
0.0
  0
HATCH
  5
1BF6
330
17
100
AcDbEntity
  8
SCHRAFF
100
AcDbHatch
 10
0.0
 20
0.0
 30
0.0
210
0.0
220
0.0
230
1.0
  2
_USER
 70
     0
 71
     0
 91
        1
 92
        7
 72
     1
 73
     1
 93
        8
 10
433.7968545404343
 20
264.7450545833525
 42
0.4142135623730951
 10
432.7968545404342
 20
265.7450545833525
 42
0.0
 10
431.7968545404342
 20
265.7450545833526
 42
0.4142135623730951
 10
430.7968545404342
 20
264.7450545833526
 42
0.0
 10
430.7968545404342
 20
258.7450545833525
 42
0.4142135623730951
 10
431.7968545404342
 20
257.7450545833525
 42
0.0
 10
432.7968545404342
 20
257.7450545833525
 42
0.4142135623730951
 10
433.7968545404343
 20
258.7450545833525
 42
0.0
 97
        0
 75
     0
 76
     0
 52
135.0
 41
1.0
 77
     0
 78
     1
 53
135.0
 43
171.8669357885924
 44
-117.6620593869836
 45
-0.7071067811865476
 46
-0.7071067811865475
 79
     0
 47
0.1071053300341939
 98
        1
 10
432.3620045522266
 20
261.5211300169292
  0
HATCH
  5
1BF7
330
17
100
AcDbEntity
  8
SCHRAFF
100
AcDbHatch
 10
0.0
 20
0.0
 30
0.0
210
0.0
220
0.0
230
1.0
  2
NET
 70
     0
 71
     0
 91
        2
 92
        7
 72
     1
 73
     1
 93
        8
 10
434.7968545404342
 20
264.7450545833525
 42
0.4142135623730618
 10
432.7968545404345
 20
266.7450545833525
 42
0.0
 10
431.7968545404342
 20
266.7450545833526
 42
0.4142135623730951
 10
429.7968545404343
 20
264.7450545833526
 42
0.0
 10
429.7968545404343
 20
258.7450545833525
 42
0.4142135623730951
 10
431.7968545404342
 20
256.7450545833525
 42
0.0
 10
432.7968545404342
 20
256.7450545833525
 42
0.4142135623730951
 10
434.7968545404342
 20
258.7450545833525
 42
0.0
 97
        0
 92
       22
 72
     1
 73
     1
 93
        8
 10
433.7968545404343
 20
258.7450545833525
 42
-0.4142135623730951
 10
432.7968545404342
 20
257.7450545833525
 42
0.0
 10
431.7968545404342
 20
257.7450545833525
 42
-0.4142135623730951
 10
430.7968545404342
 20
258.7450545833525
 42
0.0
 10
430.7968545404342
 20
264.7450545833526
 42
-0.4142135623731284
 10
431.7968545404343
 20
265.7450545833526
 42
0.0
 10
432.7968545404342
 20
265.7450545833525
 42
-0.4142135623730951
 10
433.7968545404343
 20
264.7450545833525
 42
0.0
 97
        0
 75
     0
 76
     1
 52
45.0
 41
10.0
 77
     0
 78
     2
 53
45.0
 43
139.5210823869152
 44
-86.35909495220221
 45
-0.8838834764831842
 46
0.8838834764831844
 79
     0
 53
135.0
 43
139.5210823869152
 44
-86.35909495220221
 45
-0.8838834764831844
 46
-0.8838834764831842
 79
     0
 47
0.2432155912222071
 98
        2
 10
434.5092849475873
 20
259.0642299759968
 10
434.5092849475873
 20
259.0642299759968
  0
LINE
  5
1BF8
330
17
100
AcDbEntity
  8
STEMPEL
  6
Continuous
100
AcDbLine
 10
430.7968545404342
 20
264.7450545833526
 30
0.0
 11
430.7968545404342
 21
258.7450545833525
 31
0.0
  0
LINE
  5
1BF9
330
17
100
AcDbEntity
  8
STEMPEL
  6
Continuous
100
AcDbLine
 10
429.7968545404343
 20
264.7450545833526
 30
0.0
 11
429.7968545404343
 21
258.7450545833525
 31
0.0
  0
ARC
  5
1BFA
330
17
100
AcDbEntity
  8
STEMPEL
100
AcDbCircle
 10
431.7968545404342
 20
258.7450545833525
 30
0.0
 40
1.0
100
AcDbArc
 50
180.0
 51
270.0
  0
ARC
  5
1BFB
330
17
100
AcDbEntity
  8
STEMPEL
100
AcDbCircle
 10
431.7968545404342
 20
258.7450545833525
 30
0.0
 40
2.0
100
AcDbArc
 50
180.0
 51
270.0
  0
ARC
  5
1BFC
330
17
100
AcDbEntity
  8
STEMPEL
100
AcDbCircle
 10
431.7968545404342
 20
264.7450545833526
 30
0.0
 40
1.0
100
AcDbArc
 50
90.0
 51
180.0
  0
ARC
  5
1BFD
330
17
100
AcDbEntity
  8
STEMPEL
100
AcDbCircle
 10
431.7968545404342
 20
264.7450545833526
 30
0.0
 40
2.0
100
AcDbArc
 50
90.0
 51
180.0
  0
ARC
  5
1BFE
330
17
100
AcDbEntity
  8
STEMPEL
100
AcDbCircle
 10
439.7968545404343
 20
264.7450545833526
 30
0.0
 40
10.0
100
AcDbArc
 50
149.9999999999984
 51
180.0
  0
LINE
  5
1BFF
330
17
100
AcDbEntity
  8
STEMPEL
100
AcDbLine
 10
434.7968545404341
 20
258.7450545833525
 30
0.0
 11
434.7968545404341
 21
171.3571971052084
 31
0.0
  0
LINE
  5
1C00
330
17
100
AcDbEntity
  8
STEMPEL
  6
Continuous
100
AcDbLine
 10
433.7968545404343
 20
264.7450545833525
 30
0.0
 11
433.7968545404343
 21
258.7450545833525
 31
0.0
  0
LINE
  5
1C01
330
17
100
AcDbEntity
  8
STEMPEL
  6
Continuous
100
AcDbLine
 10
434.7968545404342
 20
264.7450545833525
 30
0.0
 11
434.7968545404342
 21
258.7450545833525
 31
0.0
  0
ARC
  5
1C02
330
17
100
AcDbEntity
  8
STEMPEL
100
AcDbCircle
 10
432.7968545404342
 20
258.7450545833525
 30
0.0
 40
1.0
100
AcDbArc
 50
270.0
 51
0.0
  0
ARC
  5
1C03
330
17
100
AcDbEntity
  8
STEMPEL
100
AcDbCircle
 10
432.7968545404342
 20
258.7450545833525
 30
0.0
 40
2.0
100
AcDbArc
 50
270.0
 51
0.0
  0
ARC
  5
1C04
330
17
100
AcDbEntity
  8
STEMPEL
100
AcDbCircle
 10
432.7968545404342
 20
264.7450545833525
 30
0.0
 40
1.0
100
AcDbArc
 50
0.0
 51
90.0
  0
ARC
  5
1C05
330
17
100
AcDbEntity
  8
STEMPEL
100
AcDbCircle
 10
432.7968545404342
 20
264.7450545833525
 30
0.0
 40
2.0
100
AcDbArc
 50
0.0
 51
90.0
  0
LINE
  5
1C06
330
17
100
AcDbEntity
  8
STEMPEL
  6
Continuous
100
AcDbLine
 10
279.7968545404342
 20
264.7450545833525
 30
0.0
 11
279.7968545404342
 21
258.7450545833525
 31
0.0
  0
LINE
  5
1C07
330
17
100
AcDbEntity
  8
STEMPEL
  6
Continuous
100
AcDbLine
 10
280.7968545404342
 20
264.7450545833525
 30
0.0
 11
280.7968545404342
 21
258.7450545833525
 31
0.0
  0
LINE
  5
1C08
330
17
100
AcDbEntity
  8
STEMPEL
  6
Continuous
100
AcDbLine
 10
284.7968545404342
 20
264.7450545833526
 30
0.0
 11
284.7968545404342
 21
258.7450545833525
 31
0.0
  0
LINE
  5
1C09
330
17
100
AcDbEntity
  8
STEMPEL
  6
Continuous
100
AcDbLine
 10
283.7968545404342
 20
264.7450545833526
 30
0.0
 11
283.7968545404342
 21
258.7450545833525
 31
0.0
  0
HATCH
  5
1C0A
330
17
100
AcDbEntity
  8
SCHRAFF
100
AcDbHatch
 10
0.0
 20
0.0
 30
0.0
210
0.0
220
0.0
230
1.0
  2
NET
 70
     0
 71
     0
 91
        2
 92
        7
 72
     1
 73
     1
 93
        8
 10
279.7968545404342
 20
264.7450545833525
 42
-0.4142135623730618
 10
281.796854540434
 20
266.7450545833525
 42
0.0
 10
282.7968545404342
 20
266.7450545833526
 42
-0.4142135623730951
 10
284.7968545404342
 20
264.7450545833526
 42
0.0
 10
284.7968545404342
 20
258.7450545833525
 42
-0.4142135623730951
 10
282.7968545404342
 20
256.7450545833525
 42
0.0
 10
281.7968545404342
 20
256.7450545833525
 42
-0.4142135623730951
 10
279.7968545404342
 20
258.7450545833525
 42
0.0
 97
        0
 92
       22
 72
     1
 73
     1
 93
        8
 10
280.7968545404342
 20
258.7450545833525
 42
0.4142135623730951
 10
281.7968545404342
 20
257.7450545833525
 42
0.0
 10
282.7968545404342
 20
257.7450545833525
 42
0.4142135623730951
 10
283.7968545404342
 20
258.7450545833525
 42
0.0
 10
283.7968545404342
 20
264.7450545833526
 42
0.4142135623731284
 10
282.7968545404341
 20
265.7450545833526
 42
0.0
 10
281.7968545404342
 20
265.7450545833525
 42
0.4142135623730951
 10
280.7968545404342
 20
264.7450545833525
 42
0.0
 97
        0
 75
     0
 76
     1
 52
45.0
 41
10.0
 77
     0
 78
     2
 53
135.0
 43
575.0726266939533
 44
-86.35909495220221
 45
0.8838834764831847
 46
0.8838834764831844
 79
     0
 53
44.99999999999999
 43
575.0726266939533
 44
-86.35909495220221
 45
0.8838834764831847
 46
-0.8838834764831842
 79
     0
 47
0.2432155912222071
 98
        2
 10
280.0844241332811
 20
259.0642299759968
 10
280.0844241332811
 20
259.0642299759968
  0
HATCH
  5
1C0B
330
17
100
AcDbEntity
  8
SCHRAFF
100
AcDbHatch
 10
0.0
 20
0.0
 30
0.0
210
0.0
220
0.0
230
1.0
  2
_USER
 70
     0
 71
     0
 91
        1
 92
        7
 72
     1
 73
     1
 93
        8
 10
280.7968545404342
 20
264.7450545833525
 42
-0.4142135623730951
 10
281.7968545404342
 20
265.7450545833525
 42
0.0
 10
282.7968545404342
 20
265.7450545833526
 42
-0.4142135623730951
 10
283.7968545404342
 20
264.7450545833526
 42
0.0
 10
283.7968545404342
 20
258.7450545833525
 42
-0.4142135623730951
 10
282.7968545404342
 20
257.7450545833525
 42
0.0
 10
281.7968545404342
 20
257.7450545833525
 42
-0.4142135623730951
 10
280.7968545404342
 20
258.7450545833525
 42
0.0
 97
        0
 75
     0
 76
     0
 52
135.0
 41
1.0
 77
     0
 78
     1
 53
44.99999999999999
 43
542.7267732922761
 44
-117.6620593869836
 45
0.7071067811865479
 46
-0.7071067811865475
 79
     0
 47
0.1071053300341939
 98
        1
 10
282.2317045286418
 20
261.5211300169292
  0
ARC
  5
1C0C
330
17
100
AcDbEntity
  8
STEMPEL
100
AcDbCircle
 10
281.7968545404342
 20
258.7450545833525
 30
0.0
 40
2.0
100
AcDbArc
 50
180.0
 51
270.0
  0
ARC
  5
1C0D
330
17
100
AcDbEntity
  8
STEMPEL
100
AcDbCircle
 10
281.7968545404342
 20
258.7450545833525
 30
0.0
 40
1.0
100
AcDbArc
 50
180.0
 51
270.0
  0
ARC
  5
1C0E
330
17
100
AcDbEntity
  8
STEMPEL
100
AcDbCircle
 10
282.7968545404342
 20
258.7450545833525
 30
0.0
 40
2.0
100
AcDbArc
 50
270.0
 51
0.000000000000007
  0
ARC
  5
1C0F
330
17
100
AcDbEntity
  8
STEMPEL
100
AcDbCircle
 10
282.7968545404342
 20
258.7450545833525
 30
0.0
 40
1.0
100
AcDbArc
 50
270.0
 51
0.000000000000007
  0
LINE
  5
1C10
330
17
100
AcDbEntity
  8
STEMPEL
100
AcDbLine
 10
282.7968545404342
 20
256.7450545833525
 30
0.0
 11
281.7968545404342
 21
256.7450545833525
 31
0.0
  0
LINE
  5
1C11
330
17
100
AcDbEntity
  8
STEMPEL
100
AcDbLine
 10
282.7968545404342
 20
257.7450545833525
 30
0.0
 11
281.7968545404342
 21
257.7450545833525
 31
0.0
  0
ARC
  5
1C12
330
17
100
AcDbEntity
  8
STEMPEL
100
AcDbCircle
 10
281.7968545404342
 20
264.7450545833525
 30
0.0
 40
2.0
100
AcDbArc
 50
90.0
 51
180.0
  0
ARC
  5
1C13
330
17
100
AcDbEntity
  8
STEMPEL
100
AcDbCircle
 10
281.7968545404342
 20
264.7450545833525
 30
0.0
 40
1.0
100
AcDbArc
 50
90.0
 51
180.0
  0
ARC
  5
1C14
330
17
100
AcDbEntity
  8
STEMPEL
100
AcDbCircle
 10
282.7968545404342
 20
264.7450545833526
 30
0.0
 40
2.0
100
AcDbArc
 50
0.000000000000007
 51
90.0
  0
ARC
  5
1C15
330
17
100
AcDbEntity
  8
STEMPEL
100
AcDbCircle
 10
282.7968545404342
 20
264.7450545833526
 30
0.0
 40
1.0
100
AcDbArc
 50
0.000000000000007
 51
90.0
  0
LINE
  5
1C16
330
17
100
AcDbEntity
  8
STEMPEL
100
AcDbLine
 10
281.7968545404342
 20
266.7450545833525
 30
0.0
 11
282.7968545404342
 21
266.7450545833526
 31
0.0
  0
LINE
  5
1C17
330
17
100
AcDbEntity
  8
STEMPEL
100
AcDbLine
 10
282.7968545404342
 20
265.7450545833526
 30
0.0
 11
281.7968545404342
 21
265.7450545833525
 31
0.0
  0
ENDSEC
  0
SECTION
  2
OBJECTS
  0
DICTIONARY
  5
C
330
0
100
AcDbDictionary
281
     1
  3
ACAD_COLOR
350
1498
  3
ACAD_GROUP
350
D
  3
ACAD_LAYOUT
350
1499
  3
ACAD_MATERIAL
350
1497
  3
ACAD_MLINESTYLE
350
1A
  3
ACAD_PLOTSETTINGS
350
149A
  3
ACAD_PLOTSTYLENAME
350
1495
  3
ACDBVARIABLEDICTIONARY
350
49
  0
DICTIONARY
  5
1498
102
{ACAD_REACTORS
330
C
102
}
330
C
100
AcDbDictionary
281
     1
  0
DICTIONARY
  5
D
102
{ACAD_REACTORS
330
C
102
}
330
C
100
AcDbDictionary
281
     1
  0
DICTIONARY
  5
1499
102
{ACAD_REACTORS
330
C
102
}
330
C
100
AcDbDictionary
281
     1
  3
Layout1
350
149C
  3
Model
350
149B
  0
DICTIONARY
  5
1497
102
{ACAD_REACTORS
330
C
102
}
330
C
100
AcDbDictionary
281
     1
  0
DICTIONARY
  5
1A
102
{ACAD_REACTORS
330
C
102
}
330
C
100
AcDbDictionary
281
     1
  3
STANDARD
350
1B
  0
DICTIONARY
  5
149A
102
{ACAD_REACTORS
330
C
102
}
330
C
100
AcDbDictionary
281
     1
  0
ACDBDICTIONARYWDFLT
  5
1495
102
{ACAD_REACTORS
330
C
102
}
330
C
100
AcDbDictionary
281
     1
  3
Normal
350
1496
100
AcDbDictionaryWithDefault
340
1496
  0
DICTIONARY
  5
49
102
{ACAD_REACTORS
330
C
102
}
330
C
100
AcDbDictionary
281
     1
  3
DIMADEC
350
4A
  3
DIMASSOC
350
1513
  3
PROJECTNAME
350
1514
  3
SORTENTS
350
1447
  0
LAYOUT
  5
149C
102
{ACAD_REACTORS
330
1499
102
}
330
1499
100
AcDbPlotSettings
  1

  2
RICOH Aficio 2027 PCL 6
  4

  6

 40
0.0
 41
0.0
 42
0.0
 43
0.0
 44
0.0
 45
0.0
 46
0.0
 47
0.0
 48
0.0
 49
0.0
140
0.0
141
0.0
142
1.0
143
1.0
 70
   688
 72
     0
 73
     0
 74
     5
  7
monochrome1.ctb
 75
    16
147
1.0
 76
     0
 77
     2
 78
   300
148
0.0
149
0.0
100
AcDbLayout
  1
Layout1
 70
     0
 71
     1
 10
0.0
 20
0.0
 11
12.0
 21
9.0
 12
0.0
 22
0.0
 32
0.0
 14
1.000000000000000E+20
 24
1.000000000000000E+20
 34
1.000000000000000E+20
 15
-1.000000000000000E+20
 25
-1.000000000000000E+20
 35
-1.000000000000000E+20
146
0.0
 13
0.0
 23
0.0
 33
0.0
 16
1.0
 26
0.0
 36
0.0
 17
0.0
 27
1.0
 37
0.0
 76
     0
330
14
  0
LAYOUT
  5
149B
102
{ACAD_REACTORS
330
1499
102
}
330
1499
100
AcDbPlotSettings
  1

  2
none_device
  4
Letter_(8.50_x_11.00_Inches)
  6

 40
6.349999904632568
 41
6.349999904632568
 42
6.350006103515625
 43
6.350006103515625
 44
215.8999938964844
 45
279.3999938964844
 46
0.0
 47
0.0
 48
0.0
 49
0.0
140
0.0
141
0.0
142
1.0
143
1.0
 70
 11952
 72
     0
 73
     1
 74
     0
  7
monochrome1.ctb
 75
     0
147
1.0
 76
     0
 77
     2
 78
   300
148
-2902.168395514184
149
222.0316044858175
100
AcDbLayout
  1
Model
 70
     1
 71
     0
 10
0.0
 20
0.0
 11
12.0
 21
9.0
 12
0.0
 22
0.0
 32
0.0
 14
0.0
 24
0.0
 34
0.0
 15
0.0
 25
0.0
 35
0.0
146
0.0
 13
0.0
 23
0.0
 33
0.0
 16
1.0
 26
0.0
 36
0.0
 17
0.0
 27
1.0
 37
0.0
 76
     0
330
17
  0
MLINESTYLE
  5
1B
102
{ACAD_REACTORS
330
1A
102
}
330
1A
100
AcDbMlineStyle
  2
STANDARD
 70
     0
  3

 62
   256
 51
90.0
 52
90.0
 71
     2
 49
0.5
 62
   256
  6
BYLAYER
 49
-0.5
 62
   256
  6
BYLAYER
  0
ACDBPLACEHOLDER
  5
1496
102
{ACAD_REACTORS
330
1495
102
}
330
1495
  0
DICTIONARYVAR
  5
4A
102
{ACAD_REACTORS
330
49
102
}
330
49
100
DictionaryVariables
280
     0
  1
0
  0
DICTIONARYVAR
  5
1513
102
{ACAD_REACTORS
330
49
102
}
330
49
100
DictionaryVariables
280
     0
  1
1
  0
DICTIONARYVAR
  5
1514
102
{ACAD_REACTORS
330
49
102
}
330
49
100
DictionaryVariables
280
     0
  1

  0
DICTIONARYVAR
  5
1447
102
{ACAD_REACTORS
330
49
102
}
330
49
100
DictionaryVariables
280
     0
  1
96
  0
ENDSEC
  0
EOF
