  0
SECTION
  2
HEADER
  9
$ACADVER
  1
AC1018
  9
$ACADMAINTVER
 70
     2
  9
$DWGCODEPAGE
  3
ANSI_1252
  9
$INSBASE
 10
0.0
 20
0.0
 30
0.0
  9
$EXTMIN
 10
0.0
 20
-0.0000000000001137
 30
0.0
  9
$EXTMAX
 10
840.0000000000002
 20
594.0
 30
0.0
  9
$LIMMIN
 10
0.0
 20
0.0
  9
$LIMMAX
 10
840.0
 20
594.0
  9
$ORTHOMODE
 70
     1
  9
$REGENMODE
 70
     1
  9
$FILLMODE
 70
     1
  9
$QTEXTMODE
 70
     0
  9
$MIRRTEXT
 70
     1
  9
$LTSCALE
 40
20.0
  9
$ATTMODE
 70
     1
  9
$TEXTSIZE
 40
3.5
  9
$TRACEWID
 40
1.0
  9
$TEXTSTYLE
  7
STANDARD
  9
$CLAYER
  8
SCHRAFF
  9
$CELTYPE
  6
ByLayer
  9
$CECOLOR
 62
   256
  9
$CELTSCALE
 40
1.0
  9
$DISPSILH
 70
     0
  9
$DIMSCALE
 40
2.0
  9
$DIMASZ
 40
3.5
  9
$DIMEXO
 40
1.0
  9
$DIMDLI
 40
7.0
  9
$DIMRND
 40
0.0
  9
$DIMDLE
 40
0.0
  9
$DIMEXE
 40
1.0
  9
$DIMTP
 40
0.0
  9
$DIMTM
 40
0.0
  9
$DIMTXT
 40
3.5
  9
$DIMCEN
 40
1.5
  9
$DIMTSZ
 40
0.0
  9
$DIMTOL
 70
     0
  9
$DIMLIM
 70
     0
  9
$DIMTIH
 70
     0
  9
$DIMTOH
 70
     0
  9
$DIMSE1
 70
     0
  9
$DIMSE2
 70
     0
  9
$DIMTAD
 70
     1
  9
$DIMZIN
 70
     8
  9
$DIMBLK
  1

  9
$DIMASO
 70
     1
  9
$DIMSHO
 70
     0
  9
$DIMPOST
  1

  9
$DIMAPOST
  1

  9
$DIMALT
 70
     0
  9
$DIMALTD
 70
     2
  9
$DIMALTF
 40
25.4
  9
$DIMLFAC
 40
1.0
  9
$DIMTOFL
 70
     1
  9
$DIMTVP
 40
0.0
  9
$DIMTIX
 70
     0
  9
$DIMSOXD
 70
     0
  9
$DIMSAH
 70
     0
  9
$DIMBLK1
  1

  9
$DIMBLK2
  1

  9
$DIMSTYLE
  2
Standard
  9
$DIMCLRD
 70
     0
  9
$DIMCLRE
 70
     0
  9
$DIMCLRT
 70
     1
  9
$DIMTFAC
 40
0.5142857142857144
  9
$DIMGAP
 40
1.5
  9
$DIMJUST
 70
     0
  9
$DIMSD1
 70
     0
  9
$DIMSD2
 70
     0
  9
$DIMTOLJ
 70
     1
  9
$DIMTZIN
 70
     8
  9
$DIMALTZ
 70
     8
  9
$DIMALTTZ
 70
     8
  9
$DIMUPT
 70
     0
  9
$DIMDEC
 70
     2
  9
$DIMTDEC
 70
     2
  9
$DIMALTU
 70
     2
  9
$DIMALTTD
 70
     2
  9
$DIMTXSTY
  7
STANDARD
  9
$DIMAUNIT
 70
     0
  9
$DIMADEC
 70
     2
  9
$DIMALTRND
 40
0.0
  9
$DIMAZIN
 70
     2
  9
$DIMDSEP
 70
    46
  9
$DIMATFIT
 70
     3
  9
$DIMFRAC
 70
     0
  9
$DIMLDRBLK
  1

  9
$DIMLUNIT
 70
     2
  9
$DIMLWD
 70
    -2
  9
$DIMLWE
 70
    -2
  9
$DIMTMOVE
 70
     0
  9
$LUNITS
 70
     2
  9
$LUPREC
 70
     2
  9
$SKETCHINC
 40
1.0
  9
$FILLETRAD
 40
0.0
  9
$AUNITS
 70
     0
  9
$AUPREC
 70
     0
  9
$MENU
  1
ACAD
  9
$ELEVATION
 40
0.0
  9
$PELEVATION
 40
0.0
  9
$THICKNESS
 40
0.0
  9
$LIMCHECK
 70
     0
  9
$CHAMFERA
 40
0.0
  9
$CHAMFERB
 40
0.0
  9
$CHAMFERC
 40
0.0
  9
$CHAMFERD
 40
0.0
  9
$SKPOLY
 70
     0
  9
$TDCREATE
 40
2455397.867059838
  9
$TDUCREATE
 40
2455397.783726505
  9
$TDUPDATE
 40
2456111.320450429
  9
$TDUUPDATE
 40
2456111.237117095
  9
$TDINDWG
 40
0.0708261806
  9
$TDUSRTIMER
 40
0.0708261806
  9
$USRTIMER
 70
     1
  9
$ANGBASE
 50
0.0
  9
$ANGDIR
 70
     0
  9
$PDMODE
 70
     0
  9
$PDSIZE
 40
0.0
  9
$PLINEWID
 40
0.0
  9
$SPLFRAME
 70
     0
  9
$SPLINETYPE
 70
     6
  9
$SPLINESEGS
 70
     8
  9
$HANDSEED
  5
150B
  9
$SURFTAB1
 70
     6
  9
$SURFTAB2
 70
     6
  9
$SURFTYPE
 70
     6
  9
$SURFU
 70
     6
  9
$SURFV
 70
     6
  9
$UCSBASE
  2

  9
$UCSNAME
  2

  9
$UCSORG
 10
0.0
 20
0.0
 30
0.0
  9
$UCSXDIR
 10
1.0
 20
0.0
 30
0.0
  9
$UCSYDIR
 10
0.0
 20
1.0
 30
0.0
  9
$UCSORTHOREF
  2

  9
$UCSORTHOVIEW
 70
     0
  9
$UCSORGTOP
 10
0.0
 20
0.0
 30
0.0
  9
$UCSORGBOTTOM
 10
0.0
 20
0.0
 30
0.0
  9
$UCSORGLEFT
 10
0.0
 20
0.0
 30
0.0
  9
$UCSORGRIGHT
 10
0.0
 20
0.0
 30
0.0
  9
$UCSORGFRONT
 10
0.0
 20
0.0
 30
0.0
  9
$UCSORGBACK
 10
0.0
 20
0.0
 30
0.0
  9
$PUCSBASE
  2

  9
$PUCSNAME
  2

  9
$PUCSORG
 10
0.0
 20
0.0
 30
0.0
  9
$PUCSXDIR
 10
1.0
 20
0.0
 30
0.0
  9
$PUCSYDIR
 10
0.0
 20
1.0
 30
0.0
  9
$PUCSORTHOREF
  2

  9
$PUCSORTHOVIEW
 70
     0
  9
$PUCSORGTOP
 10
0.0
 20
0.0
 30
0.0
  9
$PUCSORGBOTTOM
 10
0.0
 20
0.0
 30
0.0
  9
$PUCSORGLEFT
 10
0.0
 20
0.0
 30
0.0
  9
$PUCSORGRIGHT
 10
0.0
 20
0.0
 30
0.0
  9
$PUCSORGFRONT
 10
0.0
 20
0.0
 30
0.0
  9
$PUCSORGBACK
 10
0.0
 20
0.0
 30
0.0
  9
$USERI1
 70
     0
  9
$USERI2
 70
     0
  9
$USERI3
 70
     0
  9
$USERI4
 70
     0
  9
$USERI5
 70
     0
  9
$USERR1
 40
0.0
  9
$USERR2
 40
0.0
  9
$USERR3
 40
0.0
  9
$USERR4
 40
0.0
  9
$USERR5
 40
0.0
  9
$WORLDVIEW
 70
     1
  9
$SHADEDGE
 70
     3
  9
$SHADEDIF
 70
    70
  9
$TILEMODE
 70
     1
  9
$MAXACTVP
 70
    16
  9
$PINSBASE
 10
0.0
 20
0.0
 30
0.0
  9
$PLIMCHECK
 70
     0
  9
$PEXTMIN
 10
1.000000000000000E+20
 20
1.000000000000000E+20
 30
1.000000000000000E+20
  9
$PEXTMAX
 10
-1.000000000000000E+20
 20
-1.000000000000000E+20
 30
-1.000000000000000E+20
  9
$PLIMMIN
 10
0.0
 20
0.0
  9
$PLIMMAX
 10
12.0
 20
9.0
  9
$UNITMODE
 70
     0
  9
$VISRETAIN
 70
     0
  9
$PLINEGEN
 70
     0
  9
$PSLTSCALE
 70
     0
  9
$TREEDEPTH
 70
  3020
  9
$CMLSTYLE
  2
Standard
  9
$CMLJUST
 70
     0
  9
$CMLSCALE
 40
1.0
  9
$PROXYGRAPHICS
 70
     1
  9
$MEASUREMENT
 70
     0
  9
$CELWEIGHT
370
    -1
  9
$ENDCAPS
280
     0
  9
$JOINSTYLE
280
     0
  9
$LWDISPLAY
290
     0
  9
$INSUNITS
 70
     0
  9
$HYPERLINKBASE
  1

  9
$STYLESHEET
  1
monochrome 1.ctb
  9
$XEDIT
290
     1
  9
$CEPSNTYPE
380
     0
  9
$PSTYLEMODE
290
     1
  9
$FINGERPRINTGUID
  2
{D68B0D0D-A558-11D7-B632-000102183313}
  9
$VERSIONGUID
  2
{46C9982E-135B-44E1-A1C8-5923717FC6B4}
  9
$EXTNAMES
290
     1
  9
$PSVPSCALE
 40
0.0
  9
$OLESTARTUP
290
     0
  9
$SORTENTS
280
   127
  9
$INDEXCTL
280
     0
  9
$HIDETEXT
280
     0
  9
$XCLIPFRAME
290
     0
  9
$HALOGAP
280
     0
  9
$OBSCOLOR
 70
   257
  9
$OBSLTYPE
280
     0
  9
$INTERSECTIONDISPLAY
280
     0
  9
$INTERSECTIONCOLOR
 70
   257
  9
$DIMASSOC
280
     1
  9
$PROJECTNAME
  1

  0
ENDSEC
  0
SECTION
  2
CLASSES
  0
CLASS
  1
ACDBDICTIONARYWDFLT
  2
AcDbDictionaryWithDefault
  3
ObjectDBX Classes
 90
        0
 91
        1
280
     0
281
     0
  0
CLASS
  1
DICTIONARYVAR
  2
AcDbDictionaryVar
  3
ObjectDBX Classes
 90
        0
 91
        2
280
     0
281
     0
  0
ENDSEC
  0
SECTION
  2
TABLES
  0
TABLE
  2
VPORT
  5
8
330
0
100
AcDbSymbolTable
 70
     2
  0
VPORT
  5
150A
330
8
100
AcDbSymbolTableRecord
100
AcDbViewportTableRecord
  2
*Active
 70
     0
 10
0.0
 20
0.0
 11
1.0
 21
1.0
 12
420.0000000000001
 22
296.9999999999999
 13
0.0
 23
0.0
 14
1.0
 24
1.0
 15
10.0
 25
10.0
 16
0.0
 26
0.0
 36
1.0
 17
0.0
 27
0.0
 37
0.0
 40
611.6636372150779
 41
1.374331550802138
 42
50.0
 43
0.0
 44
0.0
 50
0.0
 51
0.0
 71
     0
 72
  1500
 73
     1
 74
     0
 75
     0
 76
     0
 77
     0
 78
     0
281
     0
 65
     1
110
0.0
120
0.0
130
0.0
111
1.0
121
0.0
131
0.0
112
0.0
122
1.0
132
0.0
 79
     0
146
0.0
  0
ENDTAB
  0
TABLE
  2
LTYPE
  5
5
330
0
100
AcDbSymbolTable
 70
     3
  0
LTYPE
  5
13
330
5
100
AcDbSymbolTableRecord
100
AcDbLinetypeTableRecord
  2
ByBlock
 70
     0
  3

 72
    65
 73
     0
 40
0.0
  0
LTYPE
  5
14
330
5
100
AcDbSymbolTableRecord
100
AcDbLinetypeTableRecord
  2
ByLayer
 70
     0
  3

 72
    65
 73
     0
 40
0.0
  0
LTYPE
  5
15
330
5
100
AcDbSymbolTableRecord
100
AcDbLinetypeTableRecord
  2
Continuous
 70
     0
  3
Solid line
 72
    65
 73
     0
 40
0.0
  0
LTYPE
  5
25
330
5
100
AcDbSymbolTableRecord
100
AcDbLinetypeTableRecord
  2
STRICHPUNKT
 70
     0
  3
__ . __ . __ . __ . __ . __ . __ . __ . __ . __
 72
    65
 73
     4
 40
1.0
 49
0.5
 74
     0
 49
-0.25
 74
     0
 49
0.0
 74
     0
 49
-0.25
 74
     0
  0
LTYPE
  5
34
330
5
100
AcDbSymbolTableRecord
100
AcDbLinetypeTableRecord
  2
AUSGEZOGEN
 70
     0
  3
Ausgezogene Linie
 72
    65
 73
     0
 40
0.0
  0
ENDTAB
  0
TABLE
  2
LAYER
  5
2
330
0
100
AcDbSymbolTable
 70
     9
  0
LAYER
  5
10
330
2
100
AcDbSymbolTableRecord
100
AcDbLayerTableRecord
  2
0
 70
     0
 62
     7
  6
Continuous
370
    -3
390
F
  0
LAYER
  5
2B
330
2
100
AcDbSymbolTableRecord
100
AcDbLayerTableRecord
  2
VOLL
 70
     0
 62
     1
  6
Continuous
370
    -3
390
F
  0
LAYER
  5
2C
330
2
100
AcDbSymbolTableRecord
100
AcDbLayerTableRecord
  2
HILF
 70
     0
 62
     2
  6
Continuous
370
    -3
390
F
  0
LAYER
  5
2D
330
2
100
AcDbSymbolTableRecord
100
AcDbLayerTableRecord
  2
MITTEL
 70
     0
 62
     2
  6
STRICHPUNKT
370
    -3
390
F
  0
LAYER
  5
2F
330
2
100
AcDbSymbolTableRecord
100
AcDbLayerTableRecord
  2
BEM
 70
     0
 62
     7
  6
Continuous
370
    -3
390
F
  0
LAYER
  5
30
330
2
100
AcDbSymbolTableRecord
100
AcDbLayerTableRecord
  2
STEMPEL
 70
     0
 62
     3
  6
Continuous
370
    -3
390
F
  0
LAYER
  5
33
330
2
100
AcDbSymbolTableRecord
100
AcDbLayerTableRecord
  2
TEXT
 70
     0
 62
     7
  6
Continuous
370
    -3
390
F
  0
LAYER
  5
85A
330
2
100
AcDbSymbolTableRecord
100
AcDbLayerTableRecord
  2
DEFPOINTS
 70
     0
 62
     7
  6
AUSGEZOGEN
290
     0
370
    -3
390
F
  0
LAYER
  5
85B
330
2
100
AcDbSymbolTableRecord
100
AcDbLayerTableRecord
  2
SCHRAFF
 70
     0
 62
     7
  6
AUSGEZOGEN
370
    -3
390
F
  0
ENDTAB
  0
TABLE
  2
STYLE
  5
3
330
0
100
AcDbSymbolTable
 70
     2
  0
STYLE
  5
11
330
3
100
AcDbSymbolTableRecord
100
AcDbTextStyleTableRecord
  2
STANDARD
 70
     0
 40
0.0
 41
0.8
 50
0.0
 71
     0
 42
3.5
  3
simplex.shx
  4

  0
STYLE
  5
24
330
3
100
AcDbSymbolTableRecord
100
AcDbTextStyleTableRecord
  2
GREEKS
 70
     0
 40
0.0
 41
0.8
 50
0.0
 71
     0
 42
2.5
  3
SIMPLEX.shx
  4

  0
ENDTAB
  0
TABLE
  2
VIEW
  5
6
330
0
100
AcDbSymbolTable
 70
     0
  0
ENDTAB
  0
TABLE
  2
UCS
  5
7
330
0
100
AcDbSymbolTable
 70
     0
  0
ENDTAB
  0
TABLE
  2
APPID
  5
9
330
0
100
AcDbSymbolTable
 70
     1
  0
APPID
  5
12
330
9
100
AcDbSymbolTableRecord
100
AcDbRegAppTableRecord
  2
ACAD
 70
     0
  0
ENDTAB
  0
TABLE
  2
DIMSTYLE
  5
A
330
0
100
AcDbSymbolTable
 70
     1
100
AcDbDimStyleTable
 71
     1
340
A2
  0
DIMSTYLE
105
A2
102
{ACAD_REACTORS
330
AE0
330
A7A
330
A60
330
A97
330
A8E
330
1107
330
124C
330
124E
330
124F
330
1414
330
1427
102
}
330
A
100
AcDbSymbolTableRecord
100
AcDbDimStyleTableRecord
  2
Standard
 70
     0
340
11
  0
ENDTAB
  0
TABLE
  2
BLOCK_RECORD
  5
1
330
0
100
AcDbSymbolTable
 70
    12
  0
BLOCK_RECORD
  5
1E
102
{ACAD_XDICTIONARY
360
DB
102
}
330
1
100
AcDbSymbolTableRecord
100
AcDbBlockTableRecord
  2
*Model_Space
340
21
  0
BLOCK_RECORD
  5
1A
102
{ACAD_XDICTIONARY
360
DD
102
}
330
1
100
AcDbSymbolTableRecord
100
AcDbBlockTableRecord
  2
*Paper_Space
340
1D
  0
BLOCK_RECORD
  5
22
330
1
100
AcDbSymbolTableRecord
100
AcDbBlockTableRecord
  2
LOGO
340
0
102
{BLKREFS
331
BAF
102
}
  0
BLOCK_RECORD
  5
C32
330
1
100
AcDbSymbolTableRecord
100
AcDbBlockTableRecord
  2
*D1
340
0
  0
BLOCK_RECORD
  5
C4C
330
1
100
AcDbSymbolTableRecord
100
AcDbBlockTableRecord
  2
*D2
340
0
  0
BLOCK_RECORD
  5
C59
330
1
100
AcDbSymbolTableRecord
100
AcDbBlockTableRecord
  2
*D3
340
0
  0
BLOCK_RECORD
  5
C73
330
1
100
AcDbSymbolTableRecord
100
AcDbBlockTableRecord
  2
*D4
340
0
  0
BLOCK_RECORD
  5
C8D
330
1
100
AcDbSymbolTableRecord
100
AcDbBlockTableRecord
  2
*D5
340
0
  0
BLOCK_RECORD
  5
1260
330
1
100
AcDbSymbolTableRecord
100
AcDbBlockTableRecord
  2
*D6
340
0
  0
BLOCK_RECORD
  5
126C
330
1
100
AcDbSymbolTableRecord
100
AcDbBlockTableRecord
  2
*D7
340
0
  0
BLOCK_RECORD
  5
127A
330
1
100
AcDbSymbolTableRecord
100
AcDbBlockTableRecord
  2
*D8
340
0
  0
BLOCK_RECORD
  5
1286
330
1
100
AcDbSymbolTableRecord
100
AcDbBlockTableRecord
  2
*D9
340
0
  0
BLOCK_RECORD
  5
1433
330
1
100
AcDbSymbolTableRecord
100
AcDbBlockTableRecord
  2
*D10
340
0
  0
BLOCK_RECORD
  5
143F
330
1
100
AcDbSymbolTableRecord
100
AcDbBlockTableRecord
  2
*D11
340
0
  0
ENDTAB
  0
ENDSEC
  0
SECTION
  2
BLOCKS
  0
BLOCK
  5
37
330
1E
100
AcDbEntity
  8
0
100
AcDbBlockBegin
  2
*Model_Space
 70
     0
 10
0.0
 20
0.0
 30
0.0
  3
*Model_Space
  1

  0
ENDBLK
  5
38
330
1E
100
AcDbEntity
  8
0
100
AcDbBlockEnd
  0
BLOCK
  5
35
330
1A
100
AcDbEntity
 67
     1
  8
0
100
AcDbBlockBegin
  2
*Paper_Space
 70
     0
 10
0.0
 20
0.0
 30
0.0
  3
*Paper_Space
  1

  0
ENDBLK
  5
36
330
1A
100
AcDbEntity
 67
     1
  8
0
100
AcDbBlockEnd
  0
BLOCK
  5
39
330
22
100
AcDbEntity
  8
0
100
AcDbBlockBegin
  2
LOGO
 70
     0
 10
0.0
 20
0.0
 30
0.0
  3
LOGO
  1

  0
ARC
  5
3A
330
22
100
AcDbEntity
  8
0
100
AcDbCircle
 10
11.59973089678112
 20
-9.271599258481501
 30
0.0
 40
4.5
100
AcDbArc
 50
270.0
 51
231.0575587310159
  0
LINE
  5
3B
330
22
100
AcDbEntity
  8
0
100
AcDbLine
 10
3.599730896781125
 20
-4.771599258481529
 30
0.0
 11
3.599730896781153
 21
-11.77159925848133
 31
0.0
  0
LINE
  5
3C
330
22
100
AcDbEntity
  8
0
100
AcDbLine
 10
2.599730896781125
 20
-4.771599258481529
 30
0.0
 11
2.599730896781153
 21
-11.77159925848133
 31
0.0
  0
CIRCLE
  5
3D
330
22
100
AcDbEntity
  8
0
100
AcDbCircle
 10
11.59973089678112
 20
-9.271599258481501
 30
0.0
 40
3.5
  0
ARC
  5
3E
330
22
100
AcDbEntity
  8
0
100
AcDbCircle
 10
31.59973089678115
 20
-9.271599258481472
 30
0.0
 40
4.5
100
AcDbArc
 50
270.0
 51
231.0575587310182
  0
LINE
  5
3F
330
22
100
AcDbEntity
  8
0
100
AcDbLine
 10
17.59973089678112
 20
-4.771599258481472
 30
0.0
 11
17.59973089678115
 21
-13.77159925848147
 31
0.0
  0
ARC
  5
40
330
22
100
AcDbEntity
  8
0
100
AcDbCircle
 10
22.59973089678116
 20
-7.271599258481472
 30
0.0
 40
2.5
100
AcDbArc
 50
293.1161887722295
 51
90.0
  0
CIRCLE
  5
41
330
22
100
AcDbEntity
  8
0
100
AcDbCircle
 10
31.59973089678115
 20
-9.271599258481472
 30
0.0
 40
3.5
  0
ARC
  5
42
330
22
100
AcDbEntity
  8
0
100
AcDbCircle
 10
4.599730896781153
 20
-11.77159925848133
 30
0.0
 40
1.0
100
AcDbArc
 50
180.0
 51
270.0
  0
ARC
  5
43
330
22
100
AcDbEntity
  8
0
100
AcDbCircle
 10
4.599730896781153
 20
-11.77159925848133
 30
0.0
 40
2.0
100
AcDbArc
 50
179.9999999999992
 51
270.0
  0
LINE
  5
44
330
22
100
AcDbEntity
  8
0
100
AcDbLine
 10
11.59973089678115
 20
-13.77159925848144
 30
0.0
 11
4.599730896781153
 21
-13.77159925848147
 31
0.0
  0
LINE
  5
45
330
22
100
AcDbEntity
  8
0
100
AcDbLine
 10
8.771303772034769
 20
-12.77159925848136
 30
0.0
 11
4.599730896781153
 21
-12.77159925848133
 31
0.0
  0
LINE
  5
46
330
22
100
AcDbEntity
  8
0
100
AcDbLine
 10
31.59973089678115
 20
-13.77159925848147
 30
0.0
 11
23.6715276665056
 21
-13.77159925848144
 31
0.0
  0
LINE
  5
47
330
22
100
AcDbEntity
  8
0
100
AcDbLine
 10
23.56565672307022
 20
-9.51278021337896
 30
0.0
 11
24.4388546544846
 21
-12.77159925848144
 31
0.0
  0
LINE
  5
48
330
22
100
AcDbEntity
  8
0
100
AcDbLine
 10
22.59973089678116
 20
-9.771599258481472
 30
0.0
 11
18.59973089678112
 21
-9.771599258481472
 31
0.0
  0
LINE
  5
49
330
22
100
AcDbEntity
  8
0
100
AcDbLine
 10
18.59973089678115
 20
-13.77159925848144
 30
0.0
 11
17.59973089678115
 21
-13.77159925848144
 31
0.0
  0
LINE
  5
4A
330
22
100
AcDbEntity
  8
0
100
AcDbLine
 10
18.59973089678115
 20
-9.771599258481472
 30
0.0
 11
18.59973089678115
 21
-13.77159925848144
 31
0.0
  0
LINE
  5
4B
330
22
100
AcDbEntity
  8
0
100
AcDbLine
 10
22.59973089678116
 20
-9.771599258481472
 30
0.0
 11
23.67152766650562
 21
-13.77159925848147
 31
0.0
  0
ARC
  5
4C
330
22
100
AcDbEntity
  8
0
100
AcDbCircle
 10
22.59973089678116
 20
-7.271599258481472
 30
0.0
 40
2.5
100
AcDbArc
 50
270.0
 51
270.0000000000007
  0
LINE
  5
4D
330
22
100
AcDbEntity
  8
0
100
AcDbLine
 10
28.77130377203494
 20
-12.77159925848147
 30
0.0
 11
24.43885465448463
 21
-12.77159925848144
 31
0.0
  0
LINE
  5
4E
330
22
100
AcDbEntity
  8
0
100
AcDbLine
 10
3.599730896781125
 20
-4.771599258481472
 30
0.0
 11
2.599730896781125
 21
-4.771599258481472
 31
0.0
  0
LINE
  5
4F
330
22
100
AcDbEntity
  8
0
100
AcDbLine
 10
22.59973089678116
 20
-8.771599258481472
 30
0.0
 11
18.59973089678115
 21
-8.771599258481472
 31
0.0
  0
LINE
  5
50
330
22
100
AcDbEntity
  8
0
100
AcDbLine
 10
22.59973089678116
 20
-5.771599258481472
 30
0.0
 11
18.59973089678115
 21
-5.771599258481472
 31
0.0
  0
LINE
  5
51
330
22
100
AcDbEntity
  8
0
100
AcDbLine
 10
22.59973089678116
 20
-4.771599258481472
 30
0.0
 11
17.59973089678115
 21
-4.771599258481472
 31
0.0
  0
LINE
  5
52
330
22
100
AcDbEntity
  8
0
100
AcDbLine
 10
18.59973089678115
 20
-5.771599258481472
 30
0.0
 11
18.59973089678115
 21
-8.771599258481472
 31
0.0
  0
ARC
  5
53
330
22
100
AcDbEntity
  8
0
100
AcDbCircle
 10
22.59973089678116
 20
-7.271599258481472
 30
0.0
 40
1.5
100
AcDbArc
 50
270.0
 51
90.0
  0
ENDBLK
  5
54
330
22
100
AcDbEntity
  8
0
100
AcDbBlockEnd
  0
BLOCK
  5
C3D
330
C32
100
AcDbEntity
  8
0
100
AcDbBlockBegin
  2
*D1
 70
     1
 10
0.0
 20
0.0
 30
0.0
  3
*D1
  1

  0
LINE
  5
135F
330
C32
100
AcDbEntity
  8
BEM
 62
     0
370
    -2
100
AcDbLine
 10
110.0050247332442
 20
415.4262363754757
 30
0.0
 11
110.0050247332442
 21
572.6598407853884
 31
0.0
  0
LINE
  5
1360
330
C32
100
AcDbEntity
  8
BEM
 62
     0
370
    -2
100
AcDbLine
 10
610.0050247332442
 20
415.4262363754757
 30
0.0
 11
610.0050247332442
 21
572.6598407853884
 31
0.0
  0
LINE
  5
1361
330
C32
100
AcDbEntity
  8
BEM
 62
     0
370
    -2
100
AcDbLine
 10
117.0050247332442
 20
570.6598407853885
 30
0.0
 11
603.0050247332442
 21
570.6598407853885
 31
0.0
  0
SOLID
  5
1362
330
C32
100
AcDbEntity
  8
BEM
 62
     0
100
AcDbTrace
 10
117.0050247332442
 20
571.8265074520551
 30
0.0
 11
117.0050247332442
 21
569.4931741187218
 31
0.0
 12
110.0050247332442
 22
570.6598407853885
 32
0.0
 13
110.0050247332442
 23
570.6598407853885
 33
0.0
  0
SOLID
  5
1363
330
C32
100
AcDbEntity
  8
BEM
 62
     0
100
AcDbTrace
 10
603.0050247332442
 20
571.8265074520551
 30
0.0
 11
603.0050247332442
 21
569.4931741187218
 31
0.0
 12
610.0050247332442
 22
570.6598407853885
 32
0.0
 13
610.0050247332442
 23
570.6598407853885
 33
0.0
  0
MTEXT
  5
1364
330
C32
100
AcDbEntity
  8
BEM
 62
     1
100
AcDbMText
 10
360.0050247332442
 20
577.1598407853884
 30
0.0
 40
7.0
 41
0.0
 71
     5
 72
     1
  1
\A1;500
 73
     1
 44
1.0
  0
POINT
  5
1365
330
C32
100
AcDbEntity
  8
DEFPOINTS
 62
     0
100
AcDbPoint
 10
110.0050247332442
 20
413.4262363754758
 30
0.0
  0
POINT
  5
1366
330
C32
100
AcDbEntity
  8
DEFPOINTS
 62
     0
100
AcDbPoint
 10
610.0050247332442
 20
413.4262363754758
 30
0.0
  0
POINT
  5
1367
330
C32
100
AcDbEntity
  8
DEFPOINTS
 62
     0
100
AcDbPoint
 10
610.0050247332442
 20
570.6598407853885
 30
0.0
  0
ENDBLK
  5
C3E
330
C32
100
AcDbEntity
  8
0
100
AcDbBlockEnd
  0
BLOCK
  5
C57
330
C4C
100
AcDbEntity
  8
0
100
AcDbBlockBegin
  2
*D2
 70
     1
 10
0.0
 20
0.0
 30
0.0
  3
*D2
  1

  0
LINE
  5
137A
330
C4C
100
AcDbEntity
  8
BEM
 62
     0
370
    -2
100
AcDbLine
 10
195.0050247332442
 20
412.4262363754757
 30
0.0
 11
195.0050247332442
 21
559.3511545482206
 31
0.0
  0
LINE
  5
137B
330
C4C
100
AcDbEntity
  8
BEM
 62
     0
370
    -2
100
AcDbLine
 10
525.0050247332442
 20
412.4262363754757
 30
0.0
 11
525.0050247332442
 21
559.3511545482206
 31
0.0
  0
LINE
  5
137C
330
C4C
100
AcDbEntity
  8
BEM
 62
     0
370
    -2
100
AcDbLine
 10
202.0050247332442
 20
557.3511545482205
 30
0.0
 11
518.0050247332442
 21
557.3511545482205
 31
0.0
  0
SOLID
  5
137D
330
C4C
100
AcDbEntity
  8
BEM
 62
     0
100
AcDbTrace
 10
202.0050247332442
 20
558.5178212148872
 30
0.0
 11
202.0050247332442
 21
556.184487881554
 31
0.0
 12
195.0050247332442
 22
557.3511545482205
 32
0.0
 13
195.0050247332442
 23
557.3511545482205
 33
0.0
  0
SOLID
  5
137E
330
C4C
100
AcDbEntity
  8
BEM
 62
     0
100
AcDbTrace
 10
518.0050247332442
 20
558.5178212148872
 30
0.0
 11
518.0050247332442
 21
556.184487881554
 31
0.0
 12
525.0050247332442
 22
557.3511545482205
 32
0.0
 13
525.0050247332442
 23
557.3511545482205
 33
0.0
  0
MTEXT
  5
137F
330
C4C
100
AcDbEntity
  8
BEM
 62
     1
100
AcDbMText
 10
360.0050247332442
 20
563.8511545482206
 30
0.0
 40
7.0
 41
0.0
 71
     5
 72
     1
  1
\A1;%%c330
 73
     1
 44
1.0
  0
POINT
  5
1380
330
C4C
100
AcDbEntity
  8
DEFPOINTS
 62
     0
100
AcDbPoint
 10
195.0050247332442
 20
410.4262363754758
 30
0.0
  0
POINT
  5
1381
330
C4C
100
AcDbEntity
  8
DEFPOINTS
 62
     0
100
AcDbPoint
 10
525.0050247332442
 20
410.4262363754758
 30
0.0
  0
POINT
  5
1382
330
C4C
100
AcDbEntity
  8
DEFPOINTS
 62
     0
100
AcDbPoint
 10
525.0050247332442
 20
557.3511545482205
 30
0.0
  0
ENDBLK
  5
C58
330
C4C
100
AcDbEntity
  8
0
100
AcDbBlockEnd
  0
BLOCK
  5
C64
330
C59
100
AcDbEntity
  8
0
100
AcDbBlockBegin
  2
*D3
 70
     1
 10
0.0
 20
0.0
 30
0.0
  3
*D3
  1

  0
LINE
  5
D29
330
C59
100
AcDbEntity
  8
BEM
 62
     0
370
    -2
100
AcDbLine
 10
308.3173546861331
 20
48.47379997379198
 30
0.0
 11
166.8868866583461
 21
48.47379997379203
 31
0.0
  0
LINE
  5
D2A
330
C59
100
AcDbEntity
  8
BEM
 62
     0
370
    -2
100
AcDbLine
 10
193.0050247332442
 20
318.473799973792
 30
0.0
 11
166.8868866583461
 21
318.473799973792
 31
0.0
  0
LINE
  5
D2B
330
C59
100
AcDbEntity
  8
BEM
 62
     0
370
    -2
100
AcDbLine
 10
168.8868866583461
 20
55.47379997379202
 30
0.0
 11
168.8868866583461
 21
311.473799973792
 31
0.0
  0
SOLID
  5
D2C
330
C59
100
AcDbEntity
  8
BEM
 62
     0
100
AcDbTrace
 10
167.7202199916794
 20
55.47379997379202
 30
0.0
 11
170.0535533250127
 21
55.47379997379202
 31
0.0
 12
168.8868866583461
 22
48.47379997379203
 32
0.0
 13
168.8868866583461
 23
48.47379997379203
 33
0.0
  0
SOLID
  5
D2D
330
C59
100
AcDbEntity
  8
BEM
 62
     0
100
AcDbTrace
 10
167.7202199916795
 20
311.473799973792
 30
0.0
 11
170.0535533250128
 21
311.473799973792
 31
0.0
 12
168.8868866583461
 22
318.473799973792
 32
0.0
 13
168.8868866583461
 23
318.473799973792
 33
0.0
  0
MTEXT
  5
D2E
330
C59
100
AcDbEntity
  8
BEM
 62
     1
100
AcDbMText
 10
162.3868866583461
 20
183.473799973792
 30
0.0
 40
7.0
 41
0.0
 71
     5
 72
     1
  1
\A1;270
 11
0.0000000000000001
 21
1.0
 31
0.0
 73
     1
 44
1.0
  0
POINT
  5
D2F
330
C59
100
AcDbEntity
  8
DEFPOINTS
 62
     0
100
AcDbPoint
 10
310.3173546861331
 20
48.47379997379198
 30
0.0
  0
POINT
  5
D30
330
C59
100
AcDbEntity
  8
DEFPOINTS
 62
     0
100
AcDbPoint
 10
195.0050247332442
 20
318.473799973792
 30
0.0
  0
POINT
  5
D31
330
C59
100
AcDbEntity
  8
DEFPOINTS
 62
     0
100
AcDbPoint
 10
168.8868866583461
 20
318.473799973792
 30
0.0
  0
ENDBLK
  5
C65
330
C59
100
AcDbEntity
  8
0
100
AcDbBlockEnd
  0
BLOCK
  5
C7E
330
C73
100
AcDbEntity
  8
0
100
AcDbBlockBegin
  2
*D4
 70
     1
 10
0.0
 20
0.0
 30
0.0
  3
*D4
  1

  0
LINE
  5
D17
330
C73
100
AcDbEntity
  8
BEM
 62
     0
370
    -2
100
AcDbLine
 10
309.0050247332442
 20
54.47379997379186
 30
0.0
 11
309.0050247332442
 21
29.86437759506862
 31
0.0
  0
LINE
  5
D18
330
C73
100
AcDbEntity
  8
BEM
 62
     0
370
    -2
100
AcDbLine
 10
411.0050247332444
 20
54.47379997379186
 30
0.0
 11
411.0050247332444
 21
29.86437759506862
 31
0.0
  0
LINE
  5
D19
330
C73
100
AcDbEntity
  8
BEM
 62
     0
370
    -2
100
AcDbLine
 10
316.0050247332442
 20
31.86437759506862
 30
0.0
 11
404.0050247332444
 21
31.86437759506862
 31
0.0
  0
SOLID
  5
D1A
330
C73
100
AcDbEntity
  8
BEM
 62
     0
100
AcDbTrace
 10
316.0050247332442
 20
33.03104426173528
 30
0.0
 11
316.0050247332442
 21
30.69771092840195
 31
0.0
 12
309.0050247332442
 22
31.86437759506862
 32
0.0
 13
309.0050247332442
 23
31.86437759506862
 33
0.0
  0
SOLID
  5
D1B
330
C73
100
AcDbEntity
  8
BEM
 62
     0
100
AcDbTrace
 10
404.0050247332444
 20
33.03104426173528
 30
0.0
 11
404.0050247332444
 21
30.69771092840195
 31
0.0
 12
411.0050247332444
 22
31.86437759506862
 32
0.0
 13
411.0050247332444
 23
31.86437759506862
 33
0.0
  0
MTEXT
  5
D1C
330
C73
100
AcDbEntity
  8
BEM
 62
     1
100
AcDbMText
 10
360.0050247332443
 20
38.36437759506862
 30
0.0
 40
7.0
 41
0.0
 71
     5
 72
     1
  1
\A1;%%c102
 73
     1
 44
1.0
  0
POINT
  5
D1D
330
C73
100
AcDbEntity
  8
DEFPOINTS
 62
     0
100
AcDbPoint
 10
309.0050247332442
 20
56.47379997379187
 30
0.0
  0
POINT
  5
D1E
330
C73
100
AcDbEntity
  8
DEFPOINTS
 62
     0
100
AcDbPoint
 10
411.0050247332444
 20
56.47379997379187
 30
0.0
  0
POINT
  5
D1F
330
C73
100
AcDbEntity
  8
DEFPOINTS
 62
     0
100
AcDbPoint
 10
411.0050247332444
 20
31.86437759506862
 30
0.0
  0
ENDBLK
  5
C7F
330
C73
100
AcDbEntity
  8
0
100
AcDbBlockEnd
  0
BLOCK
  5
C98
330
C8D
100
AcDbEntity
  8
0
100
AcDbBlockBegin
  2
*D5
 70
     1
 10
0.0
 20
0.0
 30
0.0
  3
*D5
  1

  0
LINE
  5
12B8
330
C8D
100
AcDbEntity
  8
BEM
 62
     0
370
    -2
100
AcDbLine
 10
169.6070891793661
 20
321.473799973792
 30
0.0
 11
166.8730958694814
 21
321.473799973792
 31
0.0
  0
LINE
  5
12B9
330
C8D
100
AcDbEntity
  8
BEM
 62
     0
370
    -2
100
AcDbLine
 10
169.9685290437319
 20
410.4262363754758
 30
0.0
 11
170.8730958694814
 21
410.4262363754758
 31
0.0
  0
LINE
  5
12BA
330
C8D
100
AcDbEntity
  8
BEM
 62
     0
370
    -2
100
AcDbLine
 10
168.8730958694814
 20
328.473799973792
 30
0.0
 11
168.8730958694814
 21
403.4262363754757
 31
0.0
  0
SOLID
  5
12BB
330
C8D
100
AcDbEntity
  8
BEM
 62
     0
100
AcDbTrace
 10
167.7064292028147
 20
328.473799973792
 30
0.0
 11
170.039762536148
 21
328.473799973792
 31
0.0
 12
168.8730958694814
 22
321.473799973792
 32
0.0
 13
168.8730958694814
 23
321.473799973792
 33
0.0
  0
SOLID
  5
12BC
330
C8D
100
AcDbEntity
  8
BEM
 62
     0
100
AcDbTrace
 10
167.7064292028147
 20
403.4262363754757
 30
0.0
 11
170.039762536148
 21
403.4262363754757
 31
0.0
 12
168.8730958694814
 22
410.4262363754758
 32
0.0
 13
168.8730958694814
 23
410.4262363754758
 33
0.0
  0
MTEXT
  5
12BD
330
C8D
100
AcDbEntity
  8
BEM
 62
     1
100
AcDbMText
 10
162.3730958694813
 20
365.950018174634
 30
0.0
 40
7.0
 41
0.0
 71
     5
 72
     1
  1
\A1;max.180
 11
0.0000000000000001
 21
1.0
 31
0.0
 73
     1
 44
1.0
  0
POINT
  5
12BE
330
C8D
100
AcDbEntity
  8
DEFPOINTS
 62
     0
100
AcDbPoint
 10
171.6070891793661
 20
321.473799973792
 30
0.0
  0
POINT
  5
12BF
330
C8D
100
AcDbEntity
  8
DEFPOINTS
 62
     0
100
AcDbPoint
 10
167.9685290437319
 20
410.4262363754758
 30
0.0
  0
POINT
  5
12C0
330
C8D
100
AcDbEntity
  8
DEFPOINTS
 62
     0
100
AcDbPoint
 10
168.8730958694814
 20
410.4262363754758
 30
0.0
  0
ENDBLK
  5
C99
330
C8D
100
AcDbEntity
  8
0
100
AcDbBlockEnd
  0
BLOCK
  5
126A
330
1260
100
AcDbEntity
  8
0
100
AcDbBlockBegin
  2
*D6
 70
     1
 10
0.0
 20
0.0
 30
0.0
  3
*D6
  1

  0
LINE
  5
1371
330
1260
100
AcDbEntity
  8
BEM
 62
     0
370
    -2
100
AcDbLine
 10
230.0050247332442
 20
432.9262363754761
 30
0.0
 11
230.0050247332442
 21
547.1063295961743
 31
0.0
  0
LINE
  5
1372
330
1260
100
AcDbEntity
  8
BEM
 62
     0
370
    -2
100
AcDbLine
 10
490.0050247332442
 20
432.9262363754749
 30
0.0
 11
490.0050247332442
 21
547.1063295961743
 31
0.0
  0
LINE
  5
1373
330
1260
100
AcDbEntity
  8
BEM
 62
     0
370
    -2
100
AcDbLine
 10
237.0050247332442
 20
545.1063295961743
 30
0.0
 11
483.0050247332442
 21
545.1063295961743
 31
0.0
  0
SOLID
  5
1374
330
1260
100
AcDbEntity
  8
BEM
 62
     0
100
AcDbTrace
 10
237.0050247332442
 20
546.2729962628409
 30
0.0
 11
237.0050247332442
 21
543.9396629295076
 31
0.0
 12
230.0050247332442
 22
545.1063295961743
 32
0.0
 13
230.0050247332442
 23
545.1063295961743
 33
0.0
  0
SOLID
  5
1375
330
1260
100
AcDbEntity
  8
BEM
 62
     0
100
AcDbTrace
 10
483.0050247332442
 20
546.2729962628409
 30
0.0
 11
483.0050247332442
 21
543.9396629295076
 31
0.0
 12
490.0050247332442
 22
545.1063295961743
 32
0.0
 13
490.0050247332442
 23
545.1063295961743
 33
0.0
  0
MTEXT
  5
1376
330
1260
100
AcDbEntity
  8
BEM
 62
     1
100
AcDbMText
 10
360.0050247332442
 20
551.6063295961743
 30
0.0
 40
7.0
 41
0.0
 71
     5
 72
     1
  1
\A1;%%c260
 73
     1
 44
1.0
  0
POINT
  5
1377
330
1260
100
AcDbEntity
  8
DEFPOINTS
 62
     0
100
AcDbPoint
 10
230.0050247332442
 20
430.9262363754761
 30
0.0
  0
POINT
  5
1378
330
1260
100
AcDbEntity
  8
DEFPOINTS
 62
     0
100
AcDbPoint
 10
490.0050247332442
 20
430.926236375475
 30
0.0
  0
POINT
  5
1379
330
1260
100
AcDbEntity
  8
DEFPOINTS
 62
     0
100
AcDbPoint
 10
490.0050247332442
 20
545.1063295961743
 30
0.0
  0
ENDBLK
  5
126B
330
1260
100
AcDbEntity
  8
0
100
AcDbBlockEnd
  0
BLOCK
  5
1278
330
126C
100
AcDbEntity
  8
0
100
AcDbBlockBegin
  2
*D7
 70
     1
 10
0.0
 20
0.0
 30
0.0
  3
*D7
  1

  0
LINE
  5
1315
330
126C
100
AcDbEntity
  8
BEM
 62
     0
370
    -2
100
AcDbLine
 10
228.0050247332441
 20
429.9262363754752
 30
0.0
 11
185.821950399014
 21
429.9262363754752
 31
0.0
  0
LINE
  5
1316
330
126C
100
AcDbEntity
  8
BEM
 62
     0
370
    -2
100
AcDbLine
 10
223.0050247332442
 20
414.9262363754753
 30
0.0
 11
185.821950399014
 21
414.9262363754753
 31
0.0
  0
LINE
  5
1317
330
126C
100
AcDbEntity
  8
BEM
 62
     0
370
    -2
100
AcDbLine
 10
187.821950399014
 20
436.9262363754752
 30
0.0
 11
187.821950399014
 21
443.9262363754752
 31
0.0
  0
LINE
  5
1318
330
126C
100
AcDbEntity
  8
BEM
 62
     0
370
    -2
100
AcDbLine
 10
187.821950399014
 20
407.9262363754753
 30
0.0
 11
187.821950399014
 21
400.9262363754753
 31
0.0
  0
LINE
  5
1319
330
126C
100
AcDbEntity
  8
BEM
 62
     0
370
    -2
100
AcDbLine
 10
187.821950399014
 20
429.9262363754752
 30
0.0
 11
187.821950399014
 21
414.9262363754753
 31
0.0
  0
SOLID
  5
131A
330
126C
100
AcDbEntity
  8
BEM
 62
     0
100
AcDbTrace
 10
186.6552837323473
 20
436.9262363754752
 30
0.0
 11
188.9886170656806
 21
436.9262363754752
 31
0.0
 12
187.821950399014
 22
429.9262363754752
 32
0.0
 13
187.821950399014
 23
429.9262363754752
 33
0.0
  0
SOLID
  5
131B
330
126C
100
AcDbEntity
  8
BEM
 62
     0
100
AcDbTrace
 10
186.6552837323473
 20
407.9262363754753
 30
0.0
 11
188.9886170656806
 21
407.9262363754753
 31
0.0
 12
187.821950399014
 22
414.9262363754753
 32
0.0
 13
187.821950399014
 23
414.9262363754753
 33
0.0
  0
MTEXT
  5
131C
330
126C
100
AcDbEntity
  8
BEM
 62
     1
100
AcDbMText
 10
181.3219503990139
 20
422.4262363754753
 30
0.0
 40
7.0
 41
0.0
 71
     5
 72
     1
  1
\A1;15
 11
0.0000000000000001
 21
1.0
 31
0.0
 73
     1
 44
1.0
  0
POINT
  5
131D
330
126C
100
AcDbEntity
  8
DEFPOINTS
 62
     0
100
AcDbPoint
 10
230.0050247332441
 20
429.9262363754752
 30
0.0
  0
POINT
  5
131E
330
126C
100
AcDbEntity
  8
DEFPOINTS
 62
     0
100
AcDbPoint
 10
225.0050247332442
 20
414.9262363754753
 30
0.0
  0
POINT
  5
131F
330
126C
100
AcDbEntity
  8
DEFPOINTS
 62
     0
100
AcDbPoint
 10
187.821950399014
 20
414.9262363754753
 30
0.0
  0
ENDBLK
  5
1279
330
126C
100
AcDbEntity
  8
0
100
AcDbBlockEnd
  0
BLOCK
  5
1284
330
127A
100
AcDbEntity
  8
0
100
AcDbBlockBegin
  2
*D8
 70
     1
 10
0.0
 20
0.0
 30
0.0
  3
*D8
  1

  0
LINE
  5
1368
330
127A
100
AcDbEntity
  8
BEM
 62
     0
370
    -2
100
AcDbLine
 10
250.0050247332443
 20
501.9261784081597
 30
0.0
 11
250.0050247332443
 21
532.7371103413399
 31
0.0
  0
LINE
  5
1369
330
127A
100
AcDbEntity
  8
BEM
 62
     0
370
    -2
100
AcDbLine
 10
470.0050247332444
 20
501.9261784081597
 30
0.0
 11
470.0050247332444
 21
532.7371103413399
 31
0.0
  0
LINE
  5
136A
330
127A
100
AcDbEntity
  8
BEM
 62
     0
370
    -2
100
AcDbLine
 10
257.0050247332444
 20
530.73711034134
 30
0.0
 11
463.0050247332444
 21
530.73711034134
 31
0.0
  0
SOLID
  5
136B
330
127A
100
AcDbEntity
  8
BEM
 62
     0
100
AcDbTrace
 10
257.0050247332444
 20
531.9037770080066
 30
0.0
 11
257.0050247332444
 21
529.5704436746733
 31
0.0
 12
250.0050247332443
 22
530.73711034134
 32
0.0
 13
250.0050247332443
 23
530.73711034134
 33
0.0
  0
SOLID
  5
136C
330
127A
100
AcDbEntity
  8
BEM
 62
     0
100
AcDbTrace
 10
463.0050247332444
 20
531.9037770080066
 30
0.0
 11
463.0050247332444
 21
529.5704436746733
 31
0.0
 12
470.0050247332444
 22
530.73711034134
 32
0.0
 13
470.0050247332444
 23
530.73711034134
 33
0.0
  0
MTEXT
  5
136D
330
127A
100
AcDbEntity
  8
BEM
 62
     1
100
AcDbMText
 10
360.0050247332444
 20
537.2371103413399
 30
0.0
 40
7.0
 41
0.0
 71
     5
 72
     1
  1
\A1;%%c220
 73
     1
 44
1.0
  0
POINT
  5
136E
330
127A
100
AcDbEntity
  8
DEFPOINTS
 62
     0
100
AcDbPoint
 10
250.0050247332443
 20
499.9261784081596
 30
0.0
  0
POINT
  5
136F
330
127A
100
AcDbEntity
  8
DEFPOINTS
 62
     0
100
AcDbPoint
 10
470.0050247332444
 20
499.9261784081596
 30
0.0
  0
POINT
  5
1370
330
127A
100
AcDbEntity
  8
DEFPOINTS
 62
     0
100
AcDbPoint
 10
470.0050247332444
 20
530.73711034134
 30
0.0
  0
ENDBLK
  5
1285
330
127A
100
AcDbEntity
  8
0
100
AcDbBlockEnd
  0
BLOCK
  5
1290
330
1286
100
AcDbEntity
  8
0
100
AcDbBlockBegin
  2
*D9
 70
     1
 10
0.0
 20
0.0
 30
0.0
  3
*D9
  1

  0
LINE
  5
130C
330
1286
100
AcDbEntity
  8
BEM
 62
     0
370
    -2
100
AcDbLine
 10
228.0050247332443
 20
429.9262363754752
 30
0.0
 11
185.8219503990139
 21
429.9262363754752
 31
0.0
  0
LINE
  5
130D
330
1286
100
AcDbEntity
  8
BEM
 62
     0
370
    -2
100
AcDbLine
 10
278.0050247332443
 20
519.9262363754744
 30
0.0
 11
185.821950399014
 21
519.9262363754745
 31
0.0
  0
LINE
  5
130E
330
1286
100
AcDbEntity
  8
BEM
 62
     0
370
    -2
100
AcDbLine
 10
187.8219503990139
 20
436.9262363754752
 30
0.0
 11
187.821950399014
 21
512.9262363754746
 31
0.0
  0
SOLID
  5
130F
330
1286
100
AcDbEntity
  8
BEM
 62
     0
100
AcDbTrace
 10
186.6552837323473
 20
436.9262363754752
 30
0.0
 11
188.9886170656806
 21
436.9262363754752
 31
0.0
 12
187.8219503990139
 22
429.9262363754752
 32
0.0
 13
187.8219503990139
 23
429.9262363754752
 33
0.0
  0
SOLID
  5
1310
330
1286
100
AcDbEntity
  8
BEM
 62
     0
100
AcDbTrace
 10
186.6552837323473
 20
512.9262363754746
 30
0.0
 11
188.9886170656806
 21
512.9262363754746
 31
0.0
 12
187.821950399014
 22
519.9262363754745
 32
0.0
 13
187.821950399014
 23
519.9262363754745
 33
0.0
  0
MTEXT
  5
1311
330
1286
100
AcDbEntity
  8
BEM
 62
     1
100
AcDbMText
 10
181.3219503990139
 20
474.9262363754748
 30
0.0
 40
7.0
 41
0.0
 71
     5
 72
     1
  1
\A1;90
 11
0.0000000000000001
 21
1.0
 31
0.0
 73
     1
 44
1.0
  0
POINT
  5
1312
330
1286
100
AcDbEntity
  8
DEFPOINTS
 62
     0
100
AcDbPoint
 10
230.0050247332444
 20
429.9262363754752
 30
0.0
  0
POINT
  5
1313
330
1286
100
AcDbEntity
  8
DEFPOINTS
 62
     0
100
AcDbPoint
 10
280.0050247332444
 20
519.9262363754744
 30
0.0
  0
POINT
  5
1314
330
1286
100
AcDbEntity
  8
DEFPOINTS
 62
     0
100
AcDbPoint
 10
187.821950399014
 20
519.9262363754745
 30
0.0
  0
ENDBLK
  5
1291
330
1286
100
AcDbEntity
  8
0
100
AcDbBlockEnd
  0
BLOCK
  5
143D
330
1433
100
AcDbEntity
  8
0
100
AcDbBlockBegin
  2
*D10
 70
     1
 10
0.0
 20
0.0
 30
0.0
  3
*D10
  1

  0
LINE
  5
145D
330
1433
100
AcDbEntity
  8
BEM
 62
     0
370
    -2
100
AcDbLine
 10
280.0050247332442
 20
154.4737999737928
 30
0.0
 11
280.0050247332442
 21
14.75700117569408
 31
0.0
  0
LINE
  5
145E
330
1433
100
AcDbEntity
  8
BEM
 62
     0
370
    -2
100
AcDbLine
 10
440.005024733244
 20
154.4737999737922
 30
0.0
 11
440.005024733244
 21
14.75700117569408
 31
0.0
  0
LINE
  5
145F
330
1433
100
AcDbEntity
  8
BEM
 62
     0
370
    -2
100
AcDbLine
 10
287.0050247332441
 20
16.75700117569407
 30
0.0
 11
433.005024733244
 21
16.75700117569407
 31
0.0
  0
SOLID
  5
1460
330
1433
100
AcDbEntity
  8
BEM
 62
     0
100
AcDbTrace
 10
287.0050247332441
 20
17.92366784236074
 30
0.0
 11
287.0050247332441
 21
15.5903345090274
 31
0.0
 12
280.0050247332442
 22
16.75700117569407
 32
0.0
 13
280.0050247332442
 23
16.75700117569407
 33
0.0
  0
SOLID
  5
1461
330
1433
100
AcDbEntity
  8
BEM
 62
     0
100
AcDbTrace
 10
433.005024733244
 20
17.92366784236074
 30
0.0
 11
433.005024733244
 21
15.5903345090274
 31
0.0
 12
440.005024733244
 22
16.75700117569407
 32
0.0
 13
440.005024733244
 23
16.75700117569407
 33
0.0
  0
MTEXT
  5
1462
330
1433
100
AcDbEntity
  8
BEM
 62
     1
100
AcDbMText
 10
360.0050247332441
 20
23.25700117569407
 30
0.0
 40
7.0
 41
0.0
 71
     5
 72
     1
  1
\A1;%%c160
 73
     1
 44
1.0
  0
POINT
  5
1463
330
1433
100
AcDbEntity
  8
DEFPOINTS
 62
     0
100
AcDbPoint
 10
280.0050247332442
 20
156.4737999737928
 30
0.0
  0
POINT
  5
1464
330
1433
100
AcDbEntity
  8
DEFPOINTS
 62
     0
100
AcDbPoint
 10
440.005024733244
 20
156.4737999737922
 30
0.0
  0
POINT
  5
1465
330
1433
100
AcDbEntity
  8
DEFPOINTS
 62
     0
100
AcDbPoint
 10
440.005024733244
 20
16.75700117569407
 30
0.0
  0
ENDBLK
  5
143E
330
1433
100
AcDbEntity
  8
0
100
AcDbBlockEnd
  0
BLOCK
  5
1449
330
143F
100
AcDbEntity
  8
0
100
AcDbBlockBegin
  2
*D11
 70
     1
 10
0.0
 20
0.0
 30
0.0
  3
*D11
  1

  0
LINE
  5
1454
330
143F
100
AcDbEntity
  8
BEM
 62
     0
370
    -2
100
AcDbLine
 10
193.0050247332439
 20
316.473799973792
 30
0.0
 11
187.5548370370695
 21
316.473799973792
 31
0.0
  0
LINE
  5
1455
330
143F
100
AcDbEntity
  8
BEM
 62
     0
370
    -2
100
AcDbLine
 10
278.0050247332442
 20
156.4737999737928
 30
0.0
 11
187.5548370370694
 21
156.4737999737928
 31
0.0
  0
LINE
  5
1456
330
143F
100
AcDbEntity
  8
BEM
 62
     0
370
    -2
100
AcDbLine
 10
189.5548370370695
 20
309.473799973792
 30
0.0
 11
189.5548370370694
 21
163.4737999737928
 31
0.0
  0
SOLID
  5
1457
330
143F
100
AcDbEntity
  8
BEM
 62
     0
100
AcDbTrace
 10
188.3881703704028
 20
309.473799973792
 30
0.0
 11
190.7215037037361
 21
309.473799973792
 31
0.0
 12
189.5548370370695
 22
316.473799973792
 32
0.0
 13
189.5548370370695
 23
316.473799973792
 33
0.0
  0
SOLID
  5
1458
330
143F
100
AcDbEntity
  8
BEM
 62
     0
100
AcDbTrace
 10
188.3881703704028
 20
163.4737999737928
 30
0.0
 11
190.7215037037361
 21
163.4737999737928
 31
0.0
 12
189.5548370370694
 22
156.4737999737928
 32
0.0
 13
189.5548370370694
 23
156.4737999737928
 33
0.0
  0
MTEXT
  5
1459
330
143F
100
AcDbEntity
  8
BEM
 62
     1
100
AcDbMText
 10
183.0548370370694
 20
236.4737999737924
 30
0.0
 40
7.0
 41
0.0
 71
     5
 72
     1
  1
\A1;160
 11
0.0000000000000001
 21
1.0
 31
0.0
 73
     1
 44
1.0
  0
POINT
  5
145A
330
143F
100
AcDbEntity
  8
DEFPOINTS
 62
     0
100
AcDbPoint
 10
195.0050247332439
 20
316.473799973792
 30
0.0
  0
POINT
  5
145B
330
143F
100
AcDbEntity
  8
DEFPOINTS
 62
     0
100
AcDbPoint
 10
280.0050247332442
 20
156.4737999737928
 30
0.0
  0
POINT
  5
145C
330
143F
100
AcDbEntity
  8
DEFPOINTS
 62
     0
100
AcDbPoint
 10
189.5548370370694
 20
156.4737999737928
 30
0.0
  0
ENDBLK
  5
144A
330
143F
100
AcDbEntity
  8
0
100
AcDbBlockEnd
  0
ENDSEC
  0
SECTION
  2
ENTITIES
  0
LINE
  5
A4C
102
{ACAD_REACTORS
330
EE0
102
}
330
1E
100
AcDbEntity
  8
STEMPEL
100
AcDbLine
 10
420.0050247332441
 20
282.5284806995485
 30
0.0
 11
416.0088276618502
 21
275.3191503432779
 31
0.0
  0
LINE
  5
A4D
102
{ACAD_REACTORS
330
EE0
102
}
330
1E
100
AcDbEntity
  8
STEMPEL
100
AcDbLine
 10
421.5356092207382
 20
281.6800638641175
 30
0.0
 11
417.5394121493441
 21
274.4707335078469
 31
0.0
  0
LINE
  5
A5C
330
1E
100
AcDbEntity
  8
STEMPEL
100
AcDbLine
 10
40.0
 20
10.0
 30
0.0
 11
830.0
 21
9.999999999999886
 31
0.0
  0
LINE
  5
A5D
330
1E
100
AcDbEntity
  8
STEMPEL
100
AcDbLine
 10
830.0000000000002
 20
583.9999999999998
 30
0.0
 11
40.00000000000011
 21
584.0
 31
0.0
  0
LINE
  5
A5E
330
1E
100
AcDbEntity
  8
HILF
100
AcDbLine
 10
840.0000000000002
 20
593.9999999999998
 30
0.0
 11
0.0000000000001137
 21
594.0
 31
0.0
  0
LINE
  5
A5F
330
1E
100
AcDbEntity
  8
HILF
100
AcDbLine
 10
0.0
 20
0.0
 30
0.0
 11
840.0
 21
-0.0000000000001137
 31
0.0
  0
DIMENSION
  5
A60
330
1E
100
AcDbEntity
  8
BEM
100
AcDbDimension
  2
*D1
 10
610.0050247332442
 20
570.6598407853885
 30
0.0
 11
360.0050247332442
 21
577.1598407853884
 31
0.0
 70
    32
 71
     5
 42
500.0
  3
Standard
100
AcDbAlignedDimension
 13
110.0050247332442
 23
413.4262363754758
 33
0.0
 14
610.0050247332442
 24
413.4262363754758
 34
0.0
100
AcDbRotatedDimension
1001
ACAD
1000
DSTYLE
1002
{
1070
    40
1040
2.0
1070
    41
1040
3.5
1070
    42
1040
1.0
1070
    43
1040
7.0
1070
    44
1040
1.0
1070
    73
1070
     0
1070
    74
1070
     0
1070
    77
1070
     1
1070
    78
1070
     8
1070
    79
1070
     2
1070
   140
1040
3.5
1070
   141
1040
1.5
1070
   146
1040
0.5142857142857144
1070
   147
1040
1.5
1070
   172
1070
     1
1070
   178
1070
     1
1070
   179
1070
     2
1070
   271
1070
     2
1070
   272
1070
     2
1070
   284
1070
     8
1070
   285
1070
     8
1070
   286
1070
     8
1002
}
  0
HATCH
  5
A62
330
1E
100
AcDbEntity
  8
SCHRAFF
100
AcDbHatch
 10
0.0
 20
0.0
 30
0.0
210
0.0
220
0.0
230
1.0
  2
_U
 70
     0
 71
     0
 91
        2
 92
        7
 72
     1
 73
     1
 93
        4
 10
300.005024733244
 20
282.5284806995484
 42
-0.0945887848327614
 10
297.1440272977856
 20
283.4310845297531
 42
0.4706943623819096
 10
299.6557751619816
 20
279.5488792602663
 42
0.0
 10
298.4744402457502
 20
281.6800638641174
 42
0.0
 97
        0
 92
        7
 72
     1
 73
     1
 93
        4
 10
422.8660221687027
 20
283.4310845297531
 42
-0.0945887848327614
 10
420.0050247332444
 20
282.5284806995486
 42
0.0
 10
421.5356092207382
 20
281.6800638641174
 42
0.0
 10
420.3542743045066
 20
279.5488792602663
 42
0.470694362381929
 97
        0
 75
     0
 76
     0
 52
0.0
 41
0.1
 77
     0
 78
     1
 53
0.0
 43
0.0
 44
0.0
 45
0.0
 46
0.1
 79
     0
 47
0.1722615632248931
 98
        2
 10
297.8039365930909
 20
282.1727597333844
 10
421.9148553447471
 20
281.6559747881667
  0
ARC
  5
A63
102
{ACAD_REACTORS
330
13D7
102
}
330
1E
100
AcDbEntity
  8
STEMPEL
100
AcDbCircle
 10
419.9973850581577
 20
409.5076520884338
 30
0.0
 40
2.0
100
AcDbArc
 50
4.999999999999742
 51
90.00000000000161
  0
LINE
  5
A64
102
{ACAD_REACTORS
330
E1B
330
13D7
102
}
330
1E
100
AcDbEntity
  8
STEMPEL
100
AcDbLine
 10
420.0050247332442
 20
409.5076520884338
 30
0.0
 11
418.0050247332442
 21
409.5076520884338
 31
0.0
  0
LINE
  5
A65
102
{ACAD_REACTORS
330
E1B
330
13D7
102
}
330
1E
100
AcDbEntity
  8
STEMPEL
100
AcDbLine
 10
420.0050247332442
 20
386.5076520884338
 30
0.0
 11
418.0050247332442
 21
386.5076520884338
 31
0.0
  0
ARC
  5
A66
330
1E
100
AcDbEntity
  8
STEMPEL
100
AcDbCircle
 10
419.0712680035034
 20
382.4262363754758
 30
0.0
 40
6.0
100
AcDbArc
 50
270.0
 51
330.0000000000001
  0
ARC
  5
A67
102
{ACAD_REACTORS
330
EBB
102
}
330
1E
100
AcDbEntity
  8
STEMPEL
100
AcDbCircle
 10
419.0712680035034
 20
382.4262363754758
 30
0.0
 40
8.0
100
AcDbArc
 50
270.0
 51
330.0000000000001
  0
LINE
  5
A68
330
1E
100
AcDbEntity
  8
STEMPEL
100
AcDbLine
 10
410.8050247332442
 20
378.5076520884337
 30
0.0
 11
423.6149116058722
 21
378.5076520884336
 31
0.0
  0
LINE
  5
A69
102
{ACAD_REACTORS
330
13D7
102
}
330
1E
100
AcDbEntity
  8
STEMPEL
100
AcDbLine
 10
410.8050247332442
 20
381.5076520884336
 30
0.0
 11
422.0050247332442
 21
381.5076520884336
 31
0.0
  0
LINE
  5
A6A
102
{ACAD_REACTORS
330
DE1
102
}
330
1E
100
AcDbEntity
  8
STEMPEL
100
AcDbLine
 10
409.8676310191681
 20
355.9988994351333
 30
0.0
 11
420.0050247332442
 21
374.4809171012323
 31
0.0
  0
LINE
  5
A6B
102
{ACAD_REACTORS
330
DE1
330
EBB
102
}
330
1E
100
AcDbEntity
  8
STEMPEL
100
AcDbLine
 10
411.6211720803326
 20
355.0370814966389
 30
0.0
 11
421.7585657944087
 21
373.519099162738
 31
0.0
  0
ARC
  5
A6C
102
{ACAD_REACTORS
330
DC6
102
}
330
1E
100
AcDbEntity
  8
STEMPEL
100
AcDbCircle
 10
419.9973850581582
 20
317.55521568675
 30
0.0
 40
2.0
100
AcDbArc
 50
4.999999999999742
 51
90.00000000000161
  0
LINE
  5
A6D
102
{ACAD_REACTORS
330
D6C
330
DC6
102
}
330
1E
100
AcDbEntity
  8
STEMPEL
100
AcDbLine
 10
420.0050247332447
 20
317.55521568675
 30
0.0
 11
418.0050247332446
 21
317.55521568675
 31
0.0
  0
LINE
  5
A6E
102
{ACAD_REACTORS
330
D6C
330
DC6
102
}
330
1E
100
AcDbEntity
  8
STEMPEL
100
AcDbLine
 10
420.0050247332447
 20
294.5552156867501
 30
0.0
 11
418.0050247332446
 21
294.5552156867501
 31
0.0
  0
ARC
  5
A6F
102
{ACAD_REACTORS
330
D63
330
D93
102
}
330
1E
100
AcDbEntity
  8
STEMPEL
100
AcDbCircle
 10
419.0712680035034
 20
290.473799973792
 30
0.0
 40
6.0
100
AcDbArc
 50
270.0
 51
330.0000000000001
  0
ARC
  5
A70
102
{ACAD_REACTORS
330
D63
102
}
330
1E
100
AcDbEntity
  8
STEMPEL
100
AcDbCircle
 10
419.0712680035034
 20
290.473799973792
 30
0.0
 40
8.0
100
AcDbArc
 50
270.0
 51
330.0000000000001
  0
LINE
  5
A71
102
{ACAD_REACTORS
330
D93
102
}
330
1E
100
AcDbEntity
  8
STEMPEL
100
AcDbLine
 10
411.0050247332442
 20
286.5552156867499
 30
0.0
 11
423.6149116058727
 21
286.5552156867499
 31
0.0
  0
LINE
  5
A72
102
{ACAD_REACTORS
330
D93
330
DC6
102
}
330
1E
100
AcDbEntity
  8
STEMPEL
100
AcDbLine
 10
411.0050247332442
 20
289.5552156867499
 30
0.0
 11
422.0050247332442
 21
289.5552156867499
 31
0.0
  0
DIMENSION
  5
A7A
330
1E
100
AcDbEntity
  8
BEM
100
AcDbDimension
  2
*D2
 10
525.0050247332442
 20
557.3511545482205
 30
0.0
 11
360.0050247332442
 21
563.8511545482206
 31
0.0
 70
    32
  1
%%c<>
 71
     5
 42
330.0
  3
Standard
100
AcDbAlignedDimension
 13
195.0050247332442
 23
410.4262363754758
 33
0.0
 14
525.0050247332442
 24
410.4262363754758
 34
0.0
100
AcDbRotatedDimension
1001
ACAD
1000
DSTYLE
1002
{
1070
    40
1040
2.0
1070
    41
1040
3.5
1070
    42
1040
1.0
1070
    43
1040
7.0
1070
    44
1040
1.0
1070
    73
1070
     0
1070
    74
1070
     0
1070
    77
1070
     1
1070
    78
1070
     8
1070
    79
1070
     2
1070
   140
1040
3.5
1070
   141
1040
1.5
1070
   146
1040
0.5142857142857144
1070
   147
1040
1.5
1070
   172
1070
     1
1070
   178
1070
     1
1070
   179
1070
     2
1070
   271
1070
     2
1070
   272
1070
     2
1070
   284
1070
     8
1070
   285
1070
     8
1070
   286
1070
     8
1002
}
  0
LINE
  5
A7B
102
{ACAD_REACTORS
330
D93
102
}
330
1E
100
AcDbEntity
  8
STEMPEL
100
AcDbLine
 10
411.0050247332442
 20
321.473799973792
 30
0.0
 11
610.0050247332442
 21
321.473799973792
 31
0.0
  0
LINE
  5
A80
330
1E
100
AcDbEntity
  8
STEMPEL
100
AcDbLine
 10
40.00000000000011
 20
584.0
 30
0.0
 11
40.0
 21
10.0
 31
0.0
  0
LINE
  5
A81
330
1E
100
AcDbEntity
  8
HILF
100
AcDbLine
 10
0.0000000000001137
 20
594.0
 30
0.0
 11
0.0
 21
0.0
 31
0.0
  0
LINE
  5
A82
102
{ACAD_REACTORS
330
D6C
330
DC6
102
}
330
1E
100
AcDbEntity
  8
STEMPEL
100
AcDbLine
 10
418.0050247332446
 20
294.5552156867501
 30
0.0
 11
418.0050247332446
 21
317.55521568675
 31
0.0
  0
LINE
  5
A83
102
{ACAD_REACTORS
330
D93
330
DC6
102
}
330
1E
100
AcDbEntity
  8
STEMPEL
100
AcDbLine
 10
291.463767165043
 20
300.8850061402694
 30
0.0
 11
298.0050247332442
 21
289.5552156867498
 31
0.0
  0
LINE
  5
A84
102
{ACAD_REACTORS
330
D6C
330
DC6
102
}
330
1E
100
AcDbEntity
  8
STEMPEL
100
AcDbLine
 10
302.0050247332442
 20
294.55521568675
 30
0.0
 11
302.0050247332442
 21
317.5552156867498
 31
0.0
  0
LINE
  5
A85
102
{ACAD_REACTORS
330
D6C
330
DC6
102
}
330
1E
100
AcDbEntity
  8
STEMPEL
100
AcDbLine
 10
300.0050247332442
 20
294.55521568675
 30
0.0
 11
300.0050247332442
 21
317.5552156867498
 31
0.0
  0
LINE
  5
A87
102
{ACAD_REACTORS
330
D63
330
D93
102
}
330
1E
100
AcDbEntity
  8
STEMPEL
100
AcDbLine
 10
288.5050247332442
 20
300.0096983586543
 30
0.0
 11
295.7426290402787
 21
287.473799973792
 31
0.0
  0
LINE
  5
A88
102
{ACAD_REACTORS
330
D63
102
}
330
1E
100
AcDbEntity
  8
STEMPEL
100
AcDbLine
 10
286.5050247332442
 20
299.473799973792
 30
0.0
 11
294.0105782327096
 21
286.473799973792
 31
0.0
  0
LINE
  5
A8A
102
{ACAD_REACTORS
330
DE1
102
}
330
1E
100
AcDbEntity
  8
STEMPEL
100
AcDbLine
 10
409.0050247332442
 20
352.6325366504029
 30
0.0
 11
409.0050247332442
 21
204.1776183988988
 31
0.0
  0
LINE
  5
A8B
102
{ACAD_REACTORS
330
DC6
330
DE1
102
}
330
1E
100
AcDbEntity
  8
STEMPEL
100
AcDbLine
 10
411.0050247332442
 20
352.6325366504029
 30
0.0
 11
411.0050247332442
 21
204.0902965130817
 31
0.0
  0
LINE
  5
A8C
102
{ACAD_REACTORS
330
DC6
330
DE1
102
}
330
1E
100
AcDbEntity
  8
STEMPEL
100
AcDbLine
 10
309.0050247332442
 20
352.6325366504025
 30
0.0
 11
309.0050247332442
 21
204.0902965130811
 31
0.0
  0
LINE
  5
A8D
102
{ACAD_REACTORS
330
DE1
102
}
330
1E
100
AcDbEntity
  8
STEMPEL
100
AcDbLine
 10
311.0050247332442
 20
352.6325366504025
 30
0.0
 11
311.0050247332442
 21
204.1776183988984
 31
0.0
  0
DIMENSION
  5
A8E
330
1E
100
AcDbEntity
  8
BEM
100
AcDbDimension
  2
*D3
 10
168.8868866583461
 20
318.473799973792
 30
0.0
 11
162.3868866583461
 21
183.473799973792
 31
0.0
 70
    32
 71
     5
 42
270.0
  3
Standard
100
AcDbAlignedDimension
 13
310.3173546861331
 23
48.47379997379198
 33
0.0
 14
195.0050247332442
 24
318.473799973792
 34
0.0
 50
90.0
100
AcDbRotatedDimension
1001
ACAD
1000
DSTYLE
1002
{
1070
    40
1040
2.0
1070
    41
1040
3.5
1070
    42
1040
1.0
1070
    43
1040
7.0
1070
    44
1040
1.0
1070
    73
1070
     0
1070
    74
1070
     0
1070
    77
1070
     1
1070
    78
1070
     8
1070
    79
1070
     2
1070
   140
1040
3.5
1070
   141
1040
1.5
1070
   146
1040
0.5142857142857144
1070
   147
1040
1.5
1070
   172
1070
     1
1070
   178
1070
     1
1070
   179
1070
     2
1070
   271
1070
     2
1070
   272
1070
     2
1070
   284
1070
     8
1070
   285
1070
     8
1070
   286
1070
     8
1002
}
  0
LINE
  5
A8F
330
1E
100
AcDbEntity
  8
MITTEL
100
AcDbLine
 10
360.0050247332442
 20
526.426236375475
 30
0.0
 11
360.0050247332442
 21
43.47379997379181
 31
0.0
  0
LINE
  5
A90
102
{ACAD_REACTORS
330
EE0
102
}
330
1E
100
AcDbEntity
  8
STEMPEL
100
AcDbLine
 10
309.0050247332442
 20
175.1836066143091
 30
0.0
 11
309.0050247332442
 21
56.47379997379093
 31
0.0
  0
LINE
  5
A91
102
{ACAD_REACTORS
330
EE0
102
}
330
1E
100
AcDbEntity
  8
STEMPEL
100
AcDbLine
 10
310.7550247332442
 20
175.1836066143091
 30
0.0
 11
310.7550247332442
 21
56.58275103331309
 31
0.0
  0
LINE
  5
A92
102
{ACAD_REACTORS
330
EE0
102
}
330
1E
100
AcDbEntity
  8
STEMPEL
100
AcDbLine
 10
411.0050247332441
 20
175.1836066143091
 30
0.0
 11
411.0050247332442
 21
56.47379997379196
 31
0.0
  0
LINE
  5
A93
102
{ACAD_REACTORS
330
EE0
102
}
330
1E
100
AcDbEntity
  8
STEMPEL
100
AcDbLine
 10
409.2550247332441
 20
175.1836066143091
 30
0.0
 11
409.2550247332442
 21
56.58275103331504
 31
0.0
  0
LINE
  5
A95
102
{ACAD_REACTORS
330
EE0
102
}
330
1E
100
AcDbEntity
  8
STEMPEL
100
AcDbLine
 10
310.0050247332442
 20
48.47379997379182
 30
0.0
 11
410.0050247332442
 21
48.4737999737919
 31
0.0
  0
LINE
  5
A96
330
1E
100
AcDbEntity
  8
HILF
100
AcDbLine
 10
312.5186436156845
 20
56.58275103331312
 30
0.0
 11
407.5050247332441
 21
56.58275103331312
 31
0.0
  0
DIMENSION
  5
A97
330
1E
100
AcDbEntity
  8
BEM
100
AcDbDimension
  2
*D4
 10
411.0050247332444
 20
31.86437759506862
 30
0.0
 11
360.0050247332443
 21
38.36437759506862
 31
0.0
 70
    32
  1
%%c<>
 71
     5
 42
102.0000000000002
  3
Standard
100
AcDbAlignedDimension
 13
309.0050247332442
 23
56.47379997379187
 33
0.0
 14
411.0050247332444
 24
56.47379997379187
 34
0.0
100
AcDbRotatedDimension
1001
ACAD
1000
DSTYLE
1002
{
1070
    40
1040
2.0
1070
    41
1040
3.5
1070
    42
1040
1.0
1070
    43
1040
7.0
1070
    44
1040
1.0
1070
    73
1070
     0
1070
    74
1070
     0
1070
    77
1070
     1
1070
    78
1070
     8
1070
    79
1070
     2
1070
   140
1040
3.5
1070
   141
1040
1.5
1070
   146
1040
0.5142857142857144
1070
   147
1040
1.5
1070
   172
1070
     1
1070
   178
1070
     1
1070
   179
1070
     2
1070
   271
1070
     2
1070
   272
1070
     2
1070
   284
1070
     8
1070
   285
1070
     8
1070
   286
1070
     8
1002
}
  0
LINE
  5
A98
102
{ACAD_REACTORS
330
EE0
102
}
330
1E
100
AcDbEntity
  8
STEMPEL
100
AcDbLine
 10
309.0050247332442
 20
56.47379997379093
 30
0.0
 11
310.0050247332442
 21
48.47379997379182
 31
0.0
  0
LINE
  5
A99
102
{ACAD_REACTORS
330
EE0
102
}
330
1E
100
AcDbEntity
  8
STEMPEL
100
AcDbLine
 10
310.7550247332442
 20
56.58275103331309
 30
0.0
 11
311.7686436156845
 21
48.47379997379178
 31
0.0
  0
LINE
  5
A9A
102
{ACAD_REACTORS
330
EE0
102
}
330
1E
100
AcDbEntity
  8
STEMPEL
100
AcDbLine
 10
411.0050247332442
 20
56.47379997379196
 30
0.0
 11
410.0050247332442
 21
48.4737999737919
 31
0.0
  0
LINE
  5
A9B
102
{ACAD_REACTORS
330
EE0
102
}
330
1E
100
AcDbEntity
  8
STEMPEL
100
AcDbLine
 10
409.2550247332442
 20
56.58275103331504
 30
0.0
 11
408.2414058508039
 21
48.47379997379187
 31
0.0
  0
LINE
  5
A9C
102
{ACAD_REACTORS
330
EE0
102
}
330
1E
100
AcDbEntity
  8
STEMPEL
100
AcDbLine
 10
416.5050247332441
 20
270.4710541408147
 30
0.0
 11
416.5050247332441
 21
191.9317408387534
 31
0.0
  0
LINE
  5
A9D
102
{ACAD_REACTORS
330
EE0
102
}
330
1E
100
AcDbEntity
  8
STEMPEL
100
AcDbLine
 10
414.7550247332441
 20
270.4710541408147
 30
0.0
 11
414.7550247332444
 21
191.9317408387534
 31
0.0
  0
LINE
  5
A9E
102
{ACAD_REACTORS
330
EE0
102
}
330
1E
100
AcDbEntity
  8
STEMPEL
100
AcDbLine
 10
303.5050247332442
 20
270.4710541408147
 30
0.0
 11
303.5050247332442
 21
191.9317408387534
 31
0.0
  0
LINE
  5
A9F
102
{ACAD_REACTORS
330
EE0
102
}
330
1E
100
AcDbEntity
  8
STEMPEL
100
AcDbLine
 10
305.2550247332442
 20
270.4710541408147
 30
0.0
 11
305.2550247332442
 21
191.9317408387534
 31
0.0
  0
LINE
  5
AA0
330
1E
100
AcDbEntity
  8
HILF
100
AcDbLine
 10
309.1891246018556
 20
187.7977167861798
 30
0.0
 11
410.8209248646327
 21
187.7977167861799
 31
0.0
  0
LINE
  5
AA1
330
1E
100
AcDbEntity
  8
HILF
100
AcDbLine
 10
312.1398213480087
 20
179.8636338436377
 30
0.0
 11
407.8702281184794
 21
179.8636338436377
 31
0.0
  0
LINE
  5
AA2
330
1E
100
AcDbEntity
  8
HILF
100
AcDbLine
 10
313.0050247332442
 20
204.1776183988984
 30
0.0
 11
407.0050247332442
 21
204.1776183988988
 31
0.0
  0
LINE
  5
AA3
102
{ACAD_REACTORS
330
DE1
102
}
330
1E
100
AcDbEntity
  8
STEMPEL
100
AcDbLine
 10
310.3173546861331
 20
189.090296513081
 30
0.0
 11
409.6926947803553
 21
189.090296513081
 31
0.0
  0
TEXT
  5
AA4
330
1E
100
AcDbEntity
  8
TEXT
 62
     1
100
AcDbText
 10
344.6203445368993
 20
121.9809623696612
 30
0.0
 40
7.0
  1
DN100
 50
90.0
 41
0.8
  7
GREEKS
100
AcDbText
  0
ARC
  5
AA5
102
{ACAD_REACTORS
330
EE0
102
}
330
1E
100
AcDbEntity
  8
STEMPEL
100
AcDbCircle
 10
318.5050247332442
 20
191.9317408387534
 30
0.0
 40
15.0
100
AcDbArc
 50
180.0
 51
216.359821324844
  0
ARC
  5
AA6
102
{ACAD_REACTORS
330
EE0
102
}
330
1E
100
AcDbEntity
  8
STEMPEL
100
AcDbCircle
 10
318.5050247332442
 20
191.9317408387534
 30
0.0
 40
13.25
100
AcDbArc
 50
180.0
 51
216.3598213248441
  0
LINE
  5
AA7
102
{ACAD_REACTORS
330
DE1
102
}
330
1E
100
AcDbEntity
  8
STEMPEL
100
AcDbLine
 10
309.0050247332442
 20
204.0902965130811
 30
0.0
 11
310.3173546861331
 21
189.090296513081
 31
0.0
  0
LINE
  5
AA8
102
{ACAD_REACTORS
330
DE1
102
}
330
1E
100
AcDbEntity
  8
STEMPEL
100
AcDbLine
 10
311.0050247332442
 20
204.1776183988984
 30
0.0
 11
312.3249943612195
 21
189.090296513081
 31
0.0
  0
ARC
  5
AA9
102
{ACAD_REACTORS
330
EE0
102
}
330
1E
100
AcDbEntity
  8
STEMPEL
100
AcDbCircle
 10
295.7550247332441
 20
175.1836066143091
 30
0.0
 40
15.0
100
AcDbArc
 50
0.0
 51
36.35982132484399
  0
ARC
  5
AAA
102
{ACAD_REACTORS
330
EE0
102
}
330
1E
100
AcDbEntity
  8
STEMPEL
100
AcDbCircle
 10
295.7550247332441
 20
175.1836066143091
 30
0.0
 40
13.25
100
AcDbArc
 50
0.0
 51
36.35982132484403
  0
ARC
  5
AAB
102
{ACAD_REACTORS
330
EE0
102
}
330
1E
100
AcDbEntity
  8
STEMPEL
100
AcDbCircle
 10
401.5050247332442
 20
191.9317408387534
 30
0.0
 40
15.0
100
AcDbArc
 50
323.640178675156
 51
0.000000000000007
  0
ARC
  5
AAC
102
{ACAD_REACTORS
330
EE0
102
}
330
1E
100
AcDbEntity
  8
STEMPEL
100
AcDbCircle
 10
401.5050247332442
 20
191.9317408387534
 30
0.0
 40
13.25
100
AcDbArc
 50
323.640178675156
 51
0.000000000000007
  0
LINE
  5
AAD
102
{ACAD_REACTORS
330
DE1
102
}
330
1E
100
AcDbEntity
  8
STEMPEL
100
AcDbLine
 10
411.0050247332442
 20
204.0902965130817
 30
0.0
 11
409.6926947803553
 21
189.090296513081
 31
0.0
  0
LINE
  5
AAE
102
{ACAD_REACTORS
330
DE1
102
}
330
1E
100
AcDbEntity
  8
STEMPEL
100
AcDbLine
 10
409.0050247332442
 20
204.1776183988988
 30
0.0
 11
407.6850551052689
 21
189.090296513081
 31
0.0
  0
ARC
  5
AAF
102
{ACAD_REACTORS
330
EE0
102
}
330
1E
100
AcDbEntity
  8
STEMPEL
100
AcDbCircle
 10
424.2550247332442
 20
175.1836066143091
 30
0.0
 40
13.25
100
AcDbArc
 50
143.6401786751559
 51
180.0
  0
ARC
  5
AB0
102
{ACAD_REACTORS
330
EE0
102
}
330
1E
100
AcDbEntity
  8
STEMPEL
100
AcDbCircle
 10
424.2550247332442
 20
175.1836066143091
 30
0.0
 40
15.0
100
AcDbArc
 50
143.640178675156
 51
180.0
  0
ARC
  5
AB1
102
{ACAD_REACTORS
330
EE0
102
}
330
1E
100
AcDbEntity
  8
STEMPEL
100
AcDbCircle
 10
295.2550247332442
 20
270.4710541408147
 30
0.0
 40
10.0
100
AcDbArc
 50
0.0
 51
28.99999999999947
  0
ARC
  5
AB2
102
{ACAD_REACTORS
330
EE0
102
}
330
1E
100
AcDbEntity
  8
STEMPEL
100
AcDbCircle
 10
295.2550247332442
 20
270.4710541408147
 30
0.0
 40
8.25
100
AcDbArc
 50
0.0
 51
28.99999999999947
  0
LINE
  5
AB3
102
{ACAD_REACTORS
330
DC6
102
}
330
1E
100
AcDbEntity
  8
STEMPEL
100
AcDbLine
 10
305.5050247332442
 20
290.55521568675
 30
0.0
 11
303.7729739256756
 21
289.55521568675
 31
0.0
  0
LINE
  5
AB4
102
{ACAD_REACTORS
330
D93
330
DC6
102
}
330
1E
100
AcDbEntity
  8
STEMPEL
100
AcDbLine
 10
298.0050247332442
 20
289.5552156867498
 30
0.0
 11
309.0050247332442
 21
289.5552156867498
 31
0.0
  0
LINE
  5
AB5
102
{ACAD_REACTORS
330
D63
102
}
330
1E
100
AcDbEntity
  8
STEMPEL
100
AcDbLine
 10
300.938781462985
 20
284.473799973792
 30
0.0
 11
309.0050247332442
 21
284.473799973792
 31
0.0
  0
LINE
  5
AB6
102
{ACAD_REACTORS
330
D93
102
}
330
1E
100
AcDbEntity
  8
STEMPEL
100
AcDbLine
 10
296.3951378606166
 20
286.5552156867498
 30
0.0
 11
309.0050247332442
 21
286.5552156867498
 31
0.0
  0
LINE
  5
AB7
102
{ACAD_REACTORS
330
D63
102
}
330
1E
100
AcDbEntity
  8
STEMPEL
100
AcDbLine
 10
300.938781462985
 20
282.473799973792
 30
0.0
 11
309.0050247332442
 21
282.473799973792
 31
0.0
  0
ARC
  5
AB8
102
{ACAD_REACTORS
330
D63
102
}
330
1E
100
AcDbEntity
  8
STEMPEL
100
AcDbCircle
 10
300.938781462985
 20
290.473799973792
 30
0.0
 40
8.0
100
AcDbArc
 50
210.0
 51
270.0
  0
ARC
  5
AB9
102
{ACAD_REACTORS
330
D63
330
D93
102
}
330
1E
100
AcDbEntity
  8
STEMPEL
100
AcDbCircle
 10
300.938781462985
 20
290.473799973792
 30
0.0
 40
6.0
100
AcDbArc
 50
210.0
 51
270.0
  0
ARC
  5
ABA
330
1E
100
AcDbEntity
  8
SCHRAFF
100
AcDbCircle
 10
300.0050247332442
 20
282.5284806995486
 30
0.0
 40
3.0
100
AcDbArc
 50
162.4902587344859
 51
263.3146652873462
  0
LINE
  5
ABB
102
{ACAD_REACTORS
330
EE0
102
}
330
1E
100
AcDbEntity
  8
STEMPEL
100
AcDbLine
 10
300.0050247332442
 20
282.5284806995485
 30
0.0
 11
304.0012218046382
 21
275.319150343278
 31
0.0
  0
LINE
  5
ABC
102
{ACAD_REACTORS
330
EE0
102
}
330
1E
100
AcDbEntity
  8
STEMPEL
100
AcDbLine
 10
298.4744402457502
 20
281.6800638641175
 30
0.0
 11
302.470637317144
 21
274.4707335078468
 31
0.0
  0
LINE
  5
ABD
102
{ACAD_REACTORS
330
EE0
102
}
330
1E
100
AcDbEntity
  8
STEMPEL
100
AcDbLine
 10
300.0050247332442
 20
282.5284806995486
 30
0.0
 11
298.4744402457502
 21
281.6800638641174
 31
0.0
  0
LINE
  5
ABE
102
{ACAD_REACTORS
330
D63
102
}
330
1E
100
AcDbEntity
  8
STEMPEL
100
AcDbLine
 10
302.5050247332442
 20
284.473799973792
 30
0.0
 11
302.5050247332442
 21
282.473799973792
 31
0.0
  0
LINE
  5
ABF
102
{ACAD_REACTORS
330
D93
102
}
330
1E
100
AcDbEntity
  8
STEMPEL
100
AcDbLine
 10
302.5050247332442
 20
289.5552156867498
 30
0.0
 11
302.5050247332442
 21
286.5552156867498
 31
0.0
  0
LINE
  5
AC0
102
{ACAD_REACTORS
330
D6C
330
DC6
102
}
330
1E
100
AcDbEntity
  8
STEMPEL
100
AcDbLine
 10
300.0050247332442
 20
294.55521568675
 30
0.0
 11
302.0050247332442
 21
294.55521568675
 31
0.0
  0
LINE
  5
AC1
102
{ACAD_REACTORS
330
DC6
102
}
330
1E
100
AcDbEntity
  8
STEMPEL
100
AcDbLine
 10
305.5050247332442
 20
290.55521568675
 30
0.0
 11
309.0050247332442
 21
290.55521568675
 31
0.0
  0
ARC
  5
AC2
102
{ACAD_REACTORS
330
EE0
102
}
330
1E
100
AcDbEntity
  8
STEMPEL
100
AcDbCircle
 10
424.7550247332442
 20
270.4710541408147
 30
0.0
 40
8.25
100
AcDbArc
 50
151.0000000000005
 51
180.0
  0
ARC
  5
AC3
102
{ACAD_REACTORS
330
EE0
102
}
330
1E
100
AcDbEntity
  8
STEMPEL
100
AcDbCircle
 10
424.7550247332442
 20
270.4710541408147
 30
0.0
 40
10.0
100
AcDbArc
 50
151.0000000000005
 51
180.0
  0
LINE
  5
AC4
102
{ACAD_REACTORS
330
D63
102
}
330
1E
100
AcDbEntity
  8
STEMPEL
100
AcDbLine
 10
411.0050247332442
 20
284.473799973792
 30
0.0
 11
419.0712680035034
 21
284.4737999737921
 31
0.0
  0
LINE
  5
AC5
102
{ACAD_REACTORS
330
D63
102
}
330
1E
100
AcDbEntity
  8
STEMPEL
100
AcDbLine
 10
411.0050247332442
 20
282.473799973792
 30
0.0
 11
419.0712680035034
 21
282.4737999737921
 31
0.0
  0
LINE
  5
AC6
102
{ACAD_REACTORS
330
D63
102
}
330
1E
100
AcDbEntity
  8
STEMPEL
100
AcDbLine
 10
417.5050247332442
 20
284.473799973792
 30
0.0
 11
417.5050247332442
 21
282.473799973792
 31
0.0
  0
LINE
  5
AC7
102
{ACAD_REACTORS
330
DC6
102
}
330
1E
100
AcDbEntity
  8
STEMPEL
100
AcDbLine
 10
411.0050247332442
 20
290.55521568675
 30
0.0
 11
414.5050247332451
 21
290.55521568675
 31
0.0
  0
LINE
  5
AC8
102
{ACAD_REACTORS
330
D93
102
}
330
1E
100
AcDbEntity
  8
STEMPEL
100
AcDbLine
 10
417.5050247332442
 20
289.55521568675
 30
0.0
 11
417.5050247332442
 21
286.5552156867499
 31
0.0
  0
LINE
  5
AC9
102
{ACAD_REACTORS
330
DC6
102
}
330
1E
100
AcDbEntity
  8
STEMPEL
100
AcDbLine
 10
414.5050247332451
 20
290.55521568675
 30
0.0
 11
416.2370755408137
 21
289.55521568675
 31
0.0
  0
LINE
  5
ACA
330
1E
100
AcDbEntity
  8
STEMPEL
100
AcDbLine
 10
110.0050247332442
 20
410.4262363754758
 30
0.0
 11
281.7533867274774
 21
410.4262363754758
 31
0.0
  0
LINE
  5
ACB
330
1E
100
AcDbEntity
  8
STEMPEL
100
AcDbLine
 10
110.0050247332442
 20
410.4262363754758
 30
0.0
 11
281.7533867274774
 21
410.4262363754758
 31
0.0
  0
LINE
  5
ACC
102
{ACAD_REACTORS
330
D63
330
D93
102
}
330
1E
100
AcDbEntity
  8
STEMPEL
100
AcDbLine
 10
110.0050247332442
 20
318.473799973792
 30
0.0
 11
281.7533867274774
 21
318.473799973792
 31
0.0
  0
LINE
  5
ACD
102
{ACAD_REACTORS
330
D93
102
}
330
1E
100
AcDbEntity
  8
STEMPEL
100
AcDbLine
 10
110.0050247332442
 20
321.473799973792
 30
0.0
 11
309.0050247332447
 21
321.473799973792
 31
0.0
  0
LINE
  5
ACE
330
1E
100
AcDbEntity
  8
STEMPEL
100
AcDbLine
 10
110.0050247332442
 20
413.4262363754758
 30
0.0
 11
281.7533867274774
 21
413.4262363754758
 31
0.0
  0
LINE
  5
ACF
102
{ACAD_REACTORS
330
D93
102
}
330
1E
100
AcDbEntity
  8
STEMPEL
100
AcDbLine
 10
110.0050247332442
 20
321.473799973792
 30
0.0
 11
110.0050247332442
 21
318.473799973792
 31
0.0
  0
LINE
  5
AD0
330
1E
100
AcDbEntity
  8
STEMPEL
100
AcDbLine
 10
110.0050247332442
 20
413.4262363754758
 30
0.0
 11
110.0050247332442
 21
410.4262363754758
 31
0.0
  0
LINE
  5
AD5
330
1E
100
AcDbEntity
  8
STEMPEL
100
AcDbLine
 10
288.5050247332442
 20
395.2336582790806
 30
0.0
 11
289.6064041950581
 21
400.8997644124636
 31
0.0
  0
ARC
  5
AD6
330
1E
100
AcDbEntity
  8
STEMPEL
100
AcDbCircle
 10
281.7533867274774
 20
402.4262363754758
 30
0.0
 40
6.0
100
AcDbArc
 50
348.9999999999999
 51
90.0
  0
ARC
  5
AD7
330
1E
100
AcDbEntity
  8
STEMPEL
100
AcDbCircle
 10
281.7533867274774
 20
402.4262363754758
 30
0.0
 40
8.0
100
AcDbArc
 50
348.9999999999997
 51
90.0
  0
ARC
  5
AD8
330
1E
100
AcDbEntity
  8
STEMPEL
100
AcDbCircle
 10
281.7533867274774
 20
402.4262363754758
 30
0.0
 40
11.0
100
AcDbArc
 50
348.9999999999998
 51
90.0
  0
LINE
  5
AD9
102
{ACAD_REACTORS
330
D63
330
D93
102
}
330
1E
100
AcDbEntity
  8
STEMPEL
100
AcDbLine
 10
288.5050247332442
 20
303.2812218773969
 30
0.0
 11
289.6064041950585
 21
308.9473280107798
 31
0.0
  0
ARC
  5
ADA
102
{ACAD_REACTORS
330
D63
102
}
330
1E
100
AcDbEntity
  8
STEMPEL
100
AcDbCircle
 10
281.7533867274774
 20
310.4737999737921
 30
0.0
 40
6.0
100
AcDbArc
 50
348.9999999999999
 51
90.0
  0
ARC
  5
ADB
102
{ACAD_REACTORS
330
D63
330
D93
102
}
330
1E
100
AcDbEntity
  8
STEMPEL
100
AcDbCircle
 10
281.7533867274774
 20
310.4737999737921
 30
0.0
 40
8.0
100
AcDbArc
 50
348.9999999999997
 51
90.0
  0
ARC
  5
ADC
102
{ACAD_REACTORS
330
D93
102
}
330
1E
100
AcDbEntity
  8
STEMPEL
100
AcDbCircle
 10
281.7533867274774
 20
310.4737999737921
 30
0.0
 40
11.0
100
AcDbArc
 50
348.9999999999998
 51
90.0
  0
LINE
  5
ADD
330
1E
100
AcDbEntity
  8
STEMPEL
100
AcDbLine
 10
288.5050247332442
 20
391.9621347603381
 30
0.0
 11
295.7426290402787
 21
379.4262363754758
 31
0.0
  0
LINE
  5
ADE
330
1E
100
AcDbEntity
  8
STEMPEL
100
AcDbLine
 10
286.5050247332442
 20
391.4262363754758
 30
0.0
 11
294.0105782327096
 21
378.4262363754758
 31
0.0
  0
DIMENSION
  5
AE0
330
1E
100
AcDbEntity
  8
BEM
100
AcDbDimension
  2
*D5
 10
168.8730958694814
 20
410.4262363754758
 30
0.0
 11
162.3730958694813
 21
365.950018174634
 31
0.0
 70
    32
  1
max.180
 71
     5
 42
88.95243640168382
  3
Standard
100
AcDbAlignedDimension
 13
171.6070891793661
 23
321.473799973792
 33
0.0
 14
167.9685290437319
 24
410.4262363754758
 34
0.0
 50
90.0
100
AcDbRotatedDimension
1001
ACAD
1000
DSTYLE
1002
{
1070
    40
1040
2.0
1070
    41
1040
3.5
1070
    42
1040
1.0
1070
    43
1040
7.0
1070
    44
1040
1.0
1070
    73
1070
     0
1070
    74
1070
     0
1070
    77
1070
     1
1070
    78
1070
     8
1070
    79
1070
     2
1070
   140
1040
3.5
1070
   141
1040
1.5
1070
   146
1040
0.5142857142857144
1070
   147
1040
1.5
1070
   172
1070
     1
1070
   178
1070
     1
1070
   179
1070
     2
1070
   271
1070
     2
1070
   272
1070
     2
1070
   284
1070
     8
1070
   285
1070
     8
1070
   286
1070
     8
1002
}
  0
LINE
  5
AE1
102
{ACAD_REACTORS
330
D63
102
}
330
1E
100
AcDbEntity
  8
STEMPEL
100
AcDbLine
 10
195.0050247332442
 20
316.473799973792
 30
0.0
 11
281.7533867274774
 21
316.4737999737921
 31
0.0
  0
LINE
  5
AE2
102
{ACAD_REACTORS
330
D63
102
}
330
1E
100
AcDbEntity
  8
STEMPEL
100
AcDbLine
 10
195.0050247332442
 20
318.473799973792
 30
0.0
 11
195.0050247332442
 21
316.473799973792
 31
0.0
  0
LINE
  5
AE3
102
{ACAD_REACTORS
330
D63
102
}
330
1E
100
AcDbEntity
  8
STEMPEL
100
AcDbLine
 10
286.5050247332442
 20
303.473799973792
 30
0.0
 11
287.6431498281631
 21
309.3289460015328
 31
0.0
  0
LINE
  5
AE4
102
{ACAD_REACTORS
330
D63
330
D93
102
}
330
1E
100
AcDbEntity
  8
STEMPEL
100
AcDbLine
 10
288.5050247332442
 20
303.2812218773969
 30
0.0
 11
288.5050247332442
 21
300.0096983586543
 31
0.0
  0
LINE
  5
AE5
102
{ACAD_REACTORS
330
D63
102
}
330
1E
100
AcDbEntity
  8
STEMPEL
100
AcDbLine
 10
286.5050247332442
 20
303.473799973792
 30
0.0
 11
286.5050247332442
 21
299.473799973792
 31
0.0
  0
LINE
  5
AE6
330
1E
100
AcDbEntity
  8
STEMPEL
100
AcDbLine
 10
195.0050247332442
 20
408.4262363754758
 30
0.0
 11
281.7533867274774
 21
408.4262363754758
 31
0.0
  0
LINE
  5
AE7
330
1E
100
AcDbEntity
  8
STEMPEL
100
AcDbLine
 10
195.0050247332442
 20
410.4262363754758
 30
0.0
 11
195.0050247332442
 21
408.4262363754758
 31
0.0
  0
LINE
  5
AE8
330
1E
100
AcDbEntity
  8
STEMPEL
100
AcDbLine
 10
286.5050247332442
 20
395.4262363754758
 30
0.0
 11
287.6431498281631
 21
401.2813824032166
 31
0.0
  0
LINE
  5
AE9
330
1E
100
AcDbEntity
  8
STEMPEL
100
AcDbLine
 10
288.5050247332442
 20
395.2336582790806
 30
0.0
 11
288.5050247332442
 21
391.9621347603381
 31
0.0
  0
LINE
  5
AEA
330
1E
100
AcDbEntity
  8
STEMPEL
100
AcDbLine
 10
286.5050247332442
 20
395.4262363754758
 30
0.0
 11
286.5050247332442
 21
391.4262363754758
 31
0.0
  0
LINE
  5
AF6
330
1E
100
AcDbEntity
  8
STEMPEL
100
AcDbLine
 10
304.7049340414519
 20
309.5552156867499
 30
0.0
 11
309.0050247332442
 21
309.5552156867498
 31
0.0
  0
ARC
  5
AF7
102
{ACAD_REACTORS
330
DC6
102
}
330
1E
100
AcDbEntity
  8
STEMPEL
100
AcDbCircle
 10
304.9097169832576
 20
307.0552156867499
 30
0.0
 40
2.5
100
AcDbArc
 50
9.999999999999989
 51
90.0
  0
LINE
  5
AF8
102
{ACAD_REACTORS
330
DC6
102
}
330
1E
100
AcDbEntity
  8
STEMPEL
100
AcDbLine
 10
300.0126644083311
 20
319.55521568675
 30
0.0
 11
309.0050247332442
 21
319.5552156867503
 31
0.0
  0
LINE
  5
AF9
102
{ACAD_REACTORS
330
DC6
102
}
330
1E
100
AcDbEntity
  8
STEMPEL
100
AcDbLine
 10
298.0202750121475
 20
317.7295271722453
 30
0.0
 11
297.1014601372485
 21
307.2274250955969
 31
0.0
  0
ARC
  5
AFA
102
{ACAD_REACTORS
330
DC6
102
}
330
1E
100
AcDbEntity
  8
STEMPEL
100
AcDbCircle
 10
295.1090707410653
 20
307.4017365810922
 30
0.0
 40
2.0
100
AcDbArc
 50
299.0145945450109
 51
354.9999999999999
  0
LINE
  5
AFB
330
1E
100
AcDbEntity
  8
STEMPEL
100
AcDbLine
 10
294.0929436111714
 20
305.865513003361
 30
0.0
 11
296.3897022724682
 21
305.865513003361
 31
0.0
  0
ARC
  5
AFC
102
{ACAD_REACTORS
330
DC6
102
}
330
1E
100
AcDbEntity
  8
STEMPEL
100
AcDbCircle
 10
295.5941031312173
 20
306.5272403944204
 30
0.0
 40
1.0
100
AcDbArc
 50
244.6020558641299
 51
299.0145945450109
  0
LINE
  5
AFD
102
{ACAD_REACTORS
330
D93
330
DC6
102
}
330
1E
100
AcDbEntity
  8
STEMPEL
100
AcDbLine
 10
291.5642261814487
 20
303.2969197809141
 30
0.0
 11
292.5512857454014
 21
308.3749010246501
 31
0.0
  0
ARC
  5
AFE
102
{ACAD_REACTORS
330
DC6
102
}
330
1E
100
AcDbEntity
  8
STEMPEL
100
AcDbCircle
 10
294.0929436111714
 20
303.365513003361
 30
0.0
 40
2.499999999999928
100
AcDbArc
 50
64.60205586413088
 51
159.9924893337503
  0
ARC
  5
AFF
102
{ACAD_REACTORS
330
D93
330
DC6
102
}
330
1E
100
AcDbEntity
  8
STEMPEL
100
AcDbCircle
 10
292.3297925688271
 20
301.3850061402694
 30
0.0
 40
1.0
100
AcDbArc
 50
172.7731439551196
 51
209.9999999999999
  0
LINE
  5
B00
102
{ACAD_REACTORS
330
D93
330
DC6
102
}
330
1E
100
AcDbEntity
  8
STEMPEL
100
AcDbLine
 10
291.337736723493
 20
301.5108043904081
 30
0.0
 11
291.5642261814487
 21
303.2969197809141
 31
0.0
  0
ARC
  5
B01
102
{ACAD_REACTORS
330
DC6
102
}
330
1E
100
AcDbEntity
  8
STEMPEL
100
AcDbCircle
 10
301.9973850581578
 20
317.55521568675
 30
0.0
 40
2.0
100
AcDbArc
 50
5.000000000000045
 51
90.0
  0
LINE
  5
B02
102
{ACAD_REACTORS
330
DC6
102
}
330
1E
100
AcDbEntity
  8
STEMPEL
100
AcDbLine
 10
303.9897744543414
 20
317.7295271722453
 30
0.0
 11
304.7049340414519
 21
309.55521568675
 31
0.0
  0
ARC
  5
B03
102
{ACAD_REACTORS
330
DC6
102
}
330
1E
100
AcDbEntity
  8
STEMPEL
100
AcDbCircle
 10
300.0126644083311
 20
317.55521568675
 30
0.0
 40
2.0
100
AcDbArc
 50
90.0
 51
174.9999999999993
  0
LINE
  5
B04
102
{ACAD_REACTORS
330
D6C
330
DC6
102
}
330
1E
100
AcDbEntity
  8
STEMPEL
100
AcDbLine
 10
300.0050247332442
 20
317.5552156867498
 30
0.0
 11
302.0050247332442
 21
317.5552156867498
 31
0.0
  0
LINE
  5
B05
102
{ACAD_REACTORS
330
DC6
102
}
330
1E
100
AcDbEntity
  8
STEMPEL
100
AcDbLine
 10
309.0050247332442
 20
298.2264975063685
 30
0.0
 11
307.3717363657884
 21
307.4893361309172
 31
0.0
  0
ARC
  5
B06
102
{ACAD_REACTORS
330
DC6
102
}
330
1E
100
AcDbEntity
  8
STEMPEL
100
AcDbCircle
 10
415.1003324832317
 20
307.05521568675
 30
0.0
 40
2.5
100
AcDbArc
 50
90.0
 51
170.0000000000001
  0
LINE
  5
B07
102
{ACAD_REACTORS
330
DC6
102
}
330
1E
100
AcDbEntity
  8
STEMPEL
100
AcDbLine
 10
411.0050247332442
 20
298.2264975063663
 30
0.0
 11
412.638313100701
 21
307.4893361309173
 31
0.0
  0
LINE
  5
B08
102
{ACAD_REACTORS
330
DC6
102
}
330
1E
100
AcDbEntity
  8
STEMPEL
100
AcDbLine
 10
411.0050247332442
 20
319.5552156867532
 30
0.0
 11
419.9973850581577
 21
319.5552156867534
 31
0.0
  0
LINE
  5
B09
330
1E
100
AcDbEntity
  8
STEMPEL
100
AcDbLine
 10
411.0050247332442
 20
309.5552156867498
 30
0.0
 11
415.3051154250374
 21
309.5552156867499
 31
0.0
  0
ARC
  5
B0A
102
{ACAD_REACTORS
330
DC6
102
}
330
1E
100
AcDbEntity
  8
STEMPEL
100
AcDbCircle
 10
418.0126644083316
 20
317.55521568675
 30
0.0
 40
2.0
100
AcDbArc
 50
90.00000000000161
 51
175.0
  0
LINE
  5
B0B
102
{ACAD_REACTORS
330
DC6
102
}
330
1E
100
AcDbEntity
  8
STEMPEL
100
AcDbLine
 10
416.0202750121475
 20
317.7295271722453
 30
0.0
 11
415.3051154250374
 21
309.5552156867499
 31
0.0
  0
LINE
  5
B10
330
1E
100
AcDbEntity
  8
HILF
100
AcDbLine
 10
313.0050247332442
 20
354.4262363754758
 30
0.0
 11
407.0050247332442
 21
354.4262363754758
 31
0.0
  0
ARC
  5
B13
102
{ACAD_REACTORS
330
13D7
102
}
330
1E
100
AcDbEntity
  8
STEMPEL
100
AcDbCircle
 10
295.5941031312173
 20
398.4796767961041
 30
0.0
 40
1.0
100
AcDbArc
 50
244.6020558641299
 51
299.0145945450109
  0
ARC
  5
B14
102
{ACAD_REACTORS
330
13D7
102
}
330
1E
100
AcDbEntity
  8
STEMPEL
100
AcDbCircle
 10
295.1090707410653
 20
399.3541729827759
 30
0.0
 40
2.0
100
AcDbArc
 50
299.0145945450109
 51
354.9999999999999
  0
LINE
  5
B15
102
{ACAD_REACTORS
330
13D7
102
}
330
1E
100
AcDbEntity
  8
STEMPEL
100
AcDbLine
 10
291.5642261814487
 20
395.2493561825977
 30
0.0
 11
292.5512857454014
 21
400.3273374263337
 31
0.0
  0
ARC
  5
B16
102
{ACAD_REACTORS
330
13D7
102
}
330
1E
100
AcDbEntity
  8
STEMPEL
100
AcDbCircle
 10
294.0929436111714
 20
395.3179494050448
 30
0.0
 40
2.499999999999928
100
AcDbArc
 50
64.60205586413088
 51
159.9924893337503
  0
LINE
  5
B17
102
{ACAD_REACTORS
330
E1B
330
13D7
102
}
330
1E
100
AcDbEntity
  8
STEMPEL
100
AcDbLine
 10
300.0050247332442
 20
386.5076520884338
 30
0.0
 11
300.0050247332442
 21
409.5076520884336
 31
0.0
  0
LINE
  5
B18
102
{ACAD_REACTORS
330
E1B
330
13D7
102
}
330
1E
100
AcDbEntity
  8
STEMPEL
100
AcDbLine
 10
302.0050247332442
 20
386.5076520884338
 30
0.0
 11
302.0050247332442
 21
409.5076520884336
 31
0.0
  0
LINE
  5
B1A
102
{ACAD_REACTORS
330
DE1
330
EBB
102
}
330
1E
100
AcDbEntity
  8
STEMPEL
100
AcDbLine
 10
300.0050247332442
 20
374.4809171012323
 30
0.0
 11
298.2514836720798
 21
373.519099162738
 31
0.0
  0
ARC
  5
B1B
102
{ACAD_REACTORS
330
EBB
102
}
330
1E
100
AcDbEntity
  8
SCHRAFF
100
AcDbCircle
 10
300.0050247332442
 20
374.4809171012323
 30
0.0
 40
4.0
100
AcDbArc
 50
158.8196694234164
 51
268.7447850681548
  0
ARC
  5
B1C
102
{ACAD_REACTORS
330
EBB
102
}
330
1E
100
AcDbEntity
  8
STEMPEL
100
AcDbCircle
 10
300.938781462985
 20
382.4262363754758
 30
0.0
 40
8.0
100
AcDbArc
 50
210.0
 51
270.0
  0
LINE
  5
B1D
102
{ACAD_REACTORS
330
DE1
102
}
330
1E
100
AcDbEntity
  8
STEMPEL
100
AcDbLine
 10
310.1424184473203
 20
355.9988994351329
 30
0.0
 11
300.0050247332442
 21
374.4809171012323
 31
0.0
  0
LINE
  5
B1E
102
{ACAD_REACTORS
330
DE1
330
EBB
102
}
330
1E
100
AcDbEntity
  8
STEMPEL
100
AcDbLine
 10
308.3888773861559
 20
355.0370814966386
 30
0.0
 11
298.2514836720798
 21
373.519099162738
 31
0.0
  0
ARC
  5
B1F
102
{ACAD_REACTORS
330
DE1
102
}
330
1E
100
AcDbEntity
  8
STEMPEL
100
AcDbCircle
 10
304.0050247332442
 20
352.6325366504025
 30
0.0
 40
7.0
100
AcDbArc
 50
0.0
 51
28.7447850681547
  0
ARC
  5
B20
102
{ACAD_REACTORS
330
DE1
102
}
330
1E
100
AcDbEntity
  8
STEMPEL
100
AcDbCircle
 10
304.0050247332442
 20
352.6325366504025
 30
0.0
 40
5.0
100
AcDbArc
 50
0.0
 51
28.74478506815464
  0
LINE
  5
B21
102
{ACAD_REACTORS
330
13D7
102
}
330
1E
100
AcDbEntity
  8
STEMPEL
100
AcDbLine
 10
305.5050247332442
 20
382.5076520884338
 30
0.0
 11
303.7729739256751
 21
381.5076520884338
 31
0.0
  0
LINE
  5
B22
102
{ACAD_REACTORS
330
13D7
102
}
330
1E
100
AcDbEntity
  8
STEMPEL
100
AcDbLine
 10
298.0050247332442
 20
381.5076520884336
 30
0.0
 11
309.2050247332442
 21
381.5076520884336
 31
0.0
  0
LINE
  5
B23
330
1E
100
AcDbEntity
  8
STEMPEL
100
AcDbLine
 10
296.3951378606166
 20
378.5076520884336
 30
0.0
 11
309.2050247332442
 21
378.5076520884336
 31
0.0
  0
LINE
  5
B24
330
1E
100
AcDbEntity
  8
STEMPEL
100
AcDbLine
 10
300.938781462985
 20
376.4262363754758
 30
0.0
 11
309.2050247332442
 21
376.4262363754759
 31
0.0
  0
LINE
  5
B25
330
1E
100
AcDbEntity
  8
STEMPEL
100
AcDbLine
 10
300.938781462985
 20
374.4262363754758
 30
0.0
 11
309.2050247332442
 21
374.4262363754759
 31
0.0
  0
LINE
  5
B26
102
{ACAD_REACTORS
330
13D7
102
}
330
1E
100
AcDbEntity
  8
STEMPEL
100
AcDbLine
 10
291.463767165043
 20
392.8374425419531
 30
0.0
 11
298.0050247332442
 21
381.5076520884336
 31
0.0
  0
ARC
  5
B27
330
1E
100
AcDbEntity
  8
STEMPEL
100
AcDbCircle
 10
300.938781462985
 20
382.4262363754758
 30
0.0
 40
6.0
100
AcDbArc
 50
210.0
 51
270.0
  0
LINE
  5
B28
330
1E
100
AcDbEntity
  8
STEMPEL
100
AcDbLine
 10
302.5050247332442
 20
381.5076520884336
 30
0.0
 11
302.5050247332442
 21
378.5076520884336
 31
0.0
  0
LINE
  5
B29
330
1E
100
AcDbEntity
  8
STEMPEL
100
AcDbLine
 10
302.5050247332442
 20
376.4262363754758
 30
0.0
 11
302.5050247332442
 21
374.4262363754758
 31
0.0
  0
ARC
  5
B2A
102
{ACAD_REACTORS
330
13D7
102
}
330
1E
100
AcDbEntity
  8
STEMPEL
100
AcDbCircle
 10
292.3297925688271
 20
393.3374425419531
 30
0.0
 40
1.0
100
AcDbArc
 50
172.7731439551196
 51
209.9999999999999
  0
LINE
  5
B2B
102
{ACAD_REACTORS
330
13D7
102
}
330
1E
100
AcDbEntity
  8
STEMPEL
100
AcDbLine
 10
291.337736723493
 20
393.4632407920917
 30
0.0
 11
291.5642261814487
 21
395.2493561825977
 31
0.0
  0
LINE
  5
B2C
102
{ACAD_REACTORS
330
E1B
330
13D7
102
}
330
1E
100
AcDbEntity
  8
STEMPEL
100
AcDbLine
 10
300.0050247332442
 20
386.5076520884338
 30
0.0
 11
302.0050247332442
 21
386.5076520884338
 31
0.0
  0
LINE
  5
B2D
102
{ACAD_REACTORS
330
13D7
102
}
330
1E
100
AcDbEntity
  8
STEMPEL
100
AcDbLine
 10
305.5050247332442
 20
382.5076520884338
 30
0.0
 11
309.2050247332442
 21
382.5076520884338
 31
0.0
  0
LINE
  5
B2F
102
{ACAD_REACTORS
330
13D7
102
}
330
1E
100
AcDbEntity
  8
STEMPEL
100
AcDbLine
 10
309.2050247332442
 20
389.0446775441287
 30
0.0
 11
307.3717363657884
 21
399.441772532601
 31
0.0
  0
ARC
  5
B33
102
{ACAD_REACTORS
330
13D7
102
}
330
1E
100
AcDbEntity
  8
STEMPEL
100
AcDbCircle
 10
304.9097169832571
 20
399.0076520884336
 30
0.0
 40
2.5
100
AcDbArc
 50
9.999999999997099
 51
90.0
  0
LINE
  5
B34
102
{ACAD_REACTORS
330
13D7
102
}
330
1E
100
AcDbEntity
  8
STEMPEL
100
AcDbLine
 10
300.0126644083307
 20
411.5076520884338
 30
0.0
 11
309.2050247332442
 21
411.5076520884342
 31
0.0
  0
LINE
  5
B35
102
{ACAD_REACTORS
330
13D7
102
}
330
1E
100
AcDbEntity
  8
STEMPEL
100
AcDbLine
 10
303.9897744543409
 20
409.6819635739291
 30
0.0
 11
304.7049340414519
 21
401.5076520884337
 31
0.0
  0
LINE
  5
B36
102
{ACAD_REACTORS
330
13D7
102
}
330
1E
100
AcDbEntity
  8
STEMPEL
100
AcDbLine
 10
298.0202750121475
 20
409.6819635739291
 30
0.0
 11
297.1014601372485
 21
399.1798614972806
 31
0.0
  0
LINE
  5
B37
330
1E
100
AcDbEntity
  8
STEMPEL
100
AcDbLine
 10
294.0929436111714
 20
397.8179494050448
 30
0.0
 11
296.3897022724682
 21
397.8179494050448
 31
0.0
  0
LINE
  5
B38
102
{ACAD_REACTORS
330
13D7
102
}
330
1E
100
AcDbEntity
  8
STEMPEL
100
AcDbLine
 10
304.7049340414519
 20
401.5076520884336
 30
0.0
 11
304.9097169832571
 21
401.5076520884336
 31
0.0
  0
ARC
  5
B39
102
{ACAD_REACTORS
330
13D7
102
}
330
1E
100
AcDbEntity
  8
STEMPEL
100
AcDbCircle
 10
301.9973850581578
 20
409.5076520884338
 30
0.0
 40
2.0
100
AcDbArc
 50
5.000000000000045
 51
90.0
  0
ARC
  5
B3A
102
{ACAD_REACTORS
330
13D7
102
}
330
1E
100
AcDbEntity
  8
STEMPEL
100
AcDbCircle
 10
300.0126644083307
 20
409.5076520884338
 30
0.0
 40
2.0
100
AcDbArc
 50
90.0
 51
174.9999999999993
  0
LINE
  5
B3B
102
{ACAD_REACTORS
330
E1B
330
13D7
102
}
330
1E
100
AcDbEntity
  8
STEMPEL
100
AcDbLine
 10
300.0050247332442
 20
409.5076520884336
 30
0.0
 11
302.0050247332442
 21
409.5076520884336
 31
0.0
  0
LINE
  5
B41
102
{ACAD_REACTORS
330
E1B
330
13D7
102
}
330
1E
100
AcDbEntity
  8
STEMPEL
100
AcDbLine
 10
418.0050247332442
 20
386.5076520884338
 30
0.0
 11
418.0050247332442
 21
409.5076520884338
 31
0.0
  0
ARC
  5
B45
102
{ACAD_REACTORS
330
DE1
102
}
330
1E
100
AcDbEntity
  8
STEMPEL
100
AcDbCircle
 10
416.0050247332442
 20
352.6325366504029
 30
0.0
 40
5.0
100
AcDbArc
 50
151.2552149318453
 51
180.0
  0
POINT
  5
B46
330
1E
100
AcDbEntity
  8
DEFPOINTS
  6
ByBlock
 62
     0
100
AcDbPoint
 10
406.1672078363776
 20
354.4262363754758
 30
0.0
  0
ARC
  5
B47
102
{ACAD_REACTORS
330
DE1
102
}
330
1E
100
AcDbEntity
  8
STEMPEL
100
AcDbCircle
 10
416.0050247332442
 20
352.6325366504029
 30
0.0
 40
7.0
100
AcDbArc
 50
151.2552149318454
 51
180.0
  0
LINE
  5
B48
102
{ACAD_REACTORS
330
13D7
102
}
330
1E
100
AcDbEntity
  8
STEMPEL
100
AcDbLine
 10
410.8050247332441
 20
382.5076520884338
 30
0.0
 11
414.5050247332451
 21
382.5076520884338
 31
0.0
  0
LINE
  5
B49
330
1E
100
AcDbEntity
  8
STEMPEL
100
AcDbLine
 10
411.0050247332442
 20
376.4262363754758
 30
0.0
 11
419.0712680035034
 21
376.4262363754758
 31
0.0
  0
LINE
  5
B4A
330
1E
100
AcDbEntity
  8
STEMPEL
100
AcDbLine
 10
411.0050247332442
 20
374.4262363754758
 30
0.0
 11
419.0712680035034
 21
374.4262363754758
 31
0.0
  0
LINE
  5
B4B
330
1E
100
AcDbEntity
  8
STEMPEL
100
AcDbLine
 10
417.5050247332442
 20
381.5076520884336
 30
0.0
 11
417.5050247332442
 21
378.5076520884336
 31
0.0
  0
LINE
  5
B4C
102
{ACAD_REACTORS
330
13D7
102
}
330
1E
100
AcDbEntity
  8
STEMPEL
100
AcDbLine
 10
414.5050247332451
 20
382.5076520884338
 30
0.0
 11
416.2370755408137
 21
381.5076520884336
 31
0.0
  0
LINE
  5
B4D
330
1E
100
AcDbEntity
  8
STEMPEL
100
AcDbLine
 10
417.5050247332442
 20
376.4262363754758
 30
0.0
 11
417.5050247332442
 21
374.4262363754758
 31
0.0
  0
LINE
  5
B4F
102
{ACAD_REACTORS
330
13D7
102
}
330
1E
100
AcDbEntity
  8
STEMPEL
100
AcDbLine
 10
410.8050247332441
 20
389.0446775441269
 30
0.0
 11
412.638313100701
 21
399.4417725326012
 31
0.0
  0
LINE
  5
B51
102
{ACAD_REACTORS
330
13D7
102
}
330
1E
100
AcDbEntity
  8
STEMPEL
100
AcDbLine
 10
416.0202750121475
 20
409.6819635739291
 30
0.0
 11
415.3051154250374
 21
401.5076520884336
 31
0.0
  0
LINE
  5
B52
102
{ACAD_REACTORS
330
13D7
102
}
330
1E
100
AcDbEntity
  8
STEMPEL
100
AcDbLine
 10
415.1003324832313
 20
401.5076520884336
 30
0.0
 11
415.3051154250374
 21
401.5076520884336
 31
0.0
  0
ARC
  5
B53
102
{ACAD_REACTORS
330
13D7
102
}
330
1E
100
AcDbEntity
  8
STEMPEL
100
AcDbCircle
 10
415.1003324832313
 20
399.0076520884338
 30
0.0
 40
2.5
100
AcDbArc
 50
90.0
 51
170.0000000000001
  0
ARC
  5
B56
102
{ACAD_REACTORS
330
13D7
102
}
330
1E
100
AcDbEntity
  8
STEMPEL
100
AcDbCircle
 10
418.0126644083316
 20
409.5076520884338
 30
0.0
 40
2.0
100
AcDbArc
 50
90.00000000000161
 51
175.0
  0
LINE
  5
B57
330
1E
100
AcDbEntity
  8
STEMPEL
100
AcDbLine
 10
313.7078088691566
 20
411.5076520884385
 30
0.0
 11
320.5454742977772
 21
411.5076520884385
 31
0.0
  0
LINE
  5
B6E
330
1E
100
AcDbEntity
  8
BEM
 62
     1
100
AcDbLine
 10
349.7552189637422
 20
573.5617105312298
 30
0.0
 11
349.7552189637421
 21
580.5617105312298
 31
0.0
  0
LINE
  5
B7C
330
1E
100
AcDbEntity
  8
BEM
 62
     1
100
AcDbLine
 10
342.7552189637422
 20
573.5617105312298
 30
0.0
 11
349.7552189637422
 21
573.5617105312298
 31
0.0
  0
TEXT
  5
B86
330
1E
100
AcDbEntity
  8
TEXT
100
AcDbText
 10
836.4132055378062
 20
10.55378061767836
 30
0.0
 40
4.0
  1
Diese Zeichnung ist urheberrechtlich geschützt und bleibt unser Eigentum. Sie darf weder ganz noch teilweise vervielfältigt und nicht an Dritte weitergegeben werden.
 50
89.99999999999998
 41
0.8
100
AcDbText
  0
LINE
  5
B87
330
1E
100
AcDbEntity
  8
STEMPEL
100
AcDbLine
 10
830.0
 20
9.999999999999886
 30
0.0
 11
830.0000000000002
 21
583.9999999999998
 31
0.0
  0
LINE
  5
B88
330
1E
100
AcDbEntity
  8
HILF
100
AcDbLine
 10
840.0
 20
-0.0000000000001137
 30
0.0
 11
840.0000000000002
 21
593.9999999999998
 31
0.0
  0
LINE
  5
B89
102
{ACAD_REACTORS
330
D63
102
}
330
1E
100
AcDbEntity
  8
STEMPEL
100
AcDbLine
 10
433.5050247332442
 20
299.473799973792
 30
0.0
 11
425.9994712337788
 21
286.473799973792
 31
0.0
  0
LINE
  5
B8A
102
{ACAD_REACTORS
330
D93
330
DC6
102
}
330
1E
100
AcDbEntity
  8
STEMPEL
100
AcDbLine
 10
428.5462823014459
 20
300.8850061402693
 30
0.0
 11
422.0050247332442
 21
289.5552156867499
 31
0.0
  0
LINE
  5
B8B
102
{ACAD_REACTORS
330
D63
330
D93
102
}
330
1E
100
AcDbEntity
  8
STEMPEL
100
AcDbLine
 10
431.5050247332442
 20
300.0096983586543
 30
0.0
 11
424.2674204262102
 21
287.473799973792
 31
0.0
  0
LINE
  5
B8C
102
{ACAD_REACTORS
330
D6C
330
DC6
102
}
330
1E
100
AcDbEntity
  8
STEMPEL
100
AcDbLine
 10
420.0050247332447
 20
294.5552156867501
 30
0.0
 11
420.0050247332447
 21
317.55521568675
 31
0.0
  0
TEXT
  5
B8D
330
1E
100
AcDbEntity
  8
TEXT
100
AcDbText
 10
654.9713400534565
 20
41.99999999999988
 30
0.0
 40
4.0
  1
17144.100A.DWG
 41
0.8
100
AcDbText
  0
TEXT
  5
B8E
330
1E
100
AcDbEntity
  8
TEXT
100
AcDbText
 10
655.1623031583289
 20
51.99999999999988
 30
0.0
 40
5.0
  1
EDV-Art.Nr. 17144.100A
 41
0.8
100
AcDbText
  0
TEXT
  5
B8F
330
1E
100
AcDbEntity
  8
TEXT
100
AcDbText
 10
654.8629872542569
 20
71.99999999999988
 30
0.0
 40
5.0
  1
Kompletteinheit, zweiteilig
 41
0.8
100
AcDbText
  0
TEXT
  5
B90
330
1E
100
AcDbEntity
  8
TEXT
100
AcDbText
 10
654.7422383911357
 20
30.84560570193037
 30
0.0
 40
5.0
  1
Bauvorhaben
 41
0.8
100
AcDbText
  0
TEXT
  5
B91
330
1E
100
AcDbEntity
  8
TEXT
100
AcDbText
 10
654.8779403809008
 20
102.5489328011778
 30
0.0
 40
5.0
  1
Benennung
 41
0.8
100
AcDbText
  0
LINE
  5
B92
330
1E
100
AcDbEntity
  8
HILF
100
AcDbLine
 10
654.7736801096948
 20
14.89398258028279
 30
0.0
 11
824.858883932673
 21
14.89398258028279
 31
0.0
  0
LINE
  5
B93
330
1E
100
AcDbEntity
  8
HILF
100
AcDbLine
 10
654.7736801096948
 20
49.99999999999989
 30
0.0
 11
746.6297842514809
 21
49.99999999999989
 31
0.0
  0
LINE
  5
B94
330
1E
100
AcDbEntity
  8
HILF
100
AcDbLine
 10
654.7736801096948
 20
59.99999999999989
 30
0.0
 11
746.6297842514809
 21
59.99999999999989
 31
0.0
  0
LINE
  5
B95
330
1E
100
AcDbEntity
  8
HILF
100
AcDbLine
 10
654.7736801096948
 20
69.99999999999989
 30
0.0
 11
746.6297842514809
 21
69.99999999999989
 31
0.0
  0
LINE
  5
B96
330
1E
100
AcDbEntity
  8
HILF
100
AcDbLine
 10
654.7736801096948
 20
84.03758247564121
 30
0.0
 11
746.6297842514809
 21
84.03758247564121
 31
0.0
  0
LINE
  5
B97
330
1E
100
AcDbEntity
  8
STEMPEL
100
AcDbLine
 10
830.0
 20
79.99999999999983
 30
0.0
 11
566.0
 21
79.99999999999989
 31
0.0
  0
LINE
  5
B98
330
1E
100
AcDbEntity
  8
STEMPEL
100
AcDbLine
 10
830.0
 20
39.99999999999989
 30
0.0
 11
566.0
 21
39.99999999999989
 31
0.0
  0
LINE
  5
B99
330
1E
100
AcDbEntity
  8
STEMPEL
100
AcDbLine
 10
830.0
 20
109.9999999999998
 30
0.0
 11
470.0
 21
109.9999999999999
 31
0.0
  0
TEXT
  5
B9A
330
1E
100
AcDbEntity
  8
TEXT
 62
     1
100
AcDbText
 10
654.9791173409949
 20
86.03758247564121
 30
0.0
 40
7.0
  1
Flachdachablauf DN100
 41
0.75
100
AcDbText
  0
TEXT
  5
B9B
330
1E
100
AcDbEntity
  8
TEXT
100
AcDbText
 10
548.6761904761904
 20
17.9999999999999
 30
0.0
 40
4.0
  1
Name
 41
0.8
 72
     4
 11
555.0
 21
19.9999999999999
 31
0.0
100
AcDbText
  0
LINE
  5
B9C
330
1E
100
AcDbEntity
  8
HILF
100
AcDbLine
 10
470.0
 20
39.99999999999989
 30
0.0
 11
566.0
 21
39.99999999999989
 31
0.0
  0
LINE
  5
B9D
330
1E
100
AcDbEntity
  8
HILF
100
AcDbLine
 10
470.0
 20
49.99999999999989
 30
0.0
 11
566.0
 21
49.99999999999989
 31
0.0
  0
LINE
  5
B9E
330
1E
100
AcDbEntity
  8
HILF
100
AcDbLine
 10
470.0
 20
59.99999999999989
 30
0.0
 11
566.0
 21
59.99999999999989
 31
0.0
  0
LINE
  5
B9F
330
1E
100
AcDbEntity
  8
HILF
100
AcDbLine
 10
470.0
 20
69.99999999999989
 30
0.0
 11
566.0
 21
69.99999999999989
 31
0.0
  0
LINE
  5
BA0
330
1E
100
AcDbEntity
  8
HILF
100
AcDbLine
 10
470.0
 20
79.99999999999994
 30
0.0
 11
566.0
 21
79.99999999999989
 31
0.0
  0
LINE
  5
BA1
330
1E
100
AcDbEntity
  8
HILF
100
AcDbLine
 10
470.0
 20
89.99999999999994
 30
0.0
 11
566.0
 21
89.99999999999989
 31
0.0
  0
LINE
  5
BA2
330
1E
100
AcDbEntity
  8
HILF
100
AcDbLine
 10
470.0
 20
99.99999999999994
 30
0.0
 11
566.0
 21
99.99999999999989
 31
0.0
  0
LINE
  5
BA3
330
1E
100
AcDbEntity
  8
STEMPEL
100
AcDbLine
 10
566.0
 20
29.99999999999989
 30
0.0
 11
469.9999999999997
 21
29.99999999999989
 31
0.0
  0
TEXT
  5
BA4
330
1E
100
AcDbEntity
  8
TEXT
100
AcDbText
 10
530.2666666666666
 20
18.66666666666657
 30
0.0
 40
4.0
  1
Tag
 41
0.8
 72
     4
 11
534.0
 21
19.99999999999991
 31
0.0
100
AcDbText
  0
TEXT
  5
BA5
330
1E
100
AcDbEntity
  8
TEXT
100
AcDbText
 10
478.2664110704574
 20
13.65465846027192
 30
0.0
 40
4.0
  1
Index
 50
89.99999999999998
 41
0.8
100
AcDbText
  0
TEXT
  5
BA6
330
1E
100
AcDbEntity
  8
TEXT
100
AcDbText
 10
493.2571428571428
 20
18.2857142857142
 30
0.0
 40
4.0
  1
Änderung
 41
0.8
 72
     4
 11
504.0
 21
19.99999999999991
 31
0.0
100
AcDbText
  0
LINE
  5
BA7
330
1E
100
AcDbEntity
  8
VOLL
100
AcDbLine
 10
544.0
 20
109.9999999999996
 30
0.0
 11
543.9999999999997
 21
9.999999999999658
 31
0.0
  0
LINE
  5
BA8
330
1E
100
AcDbEntity
  8
VOLL
100
AcDbLine
 10
524.0
 20
109.9999999999999
 30
0.0
 11
523.9999999999997
 21
9.999999999999886
 31
0.0
  0
LINE
  5
BA9
330
1E
100
AcDbEntity
  8
VOLL
100
AcDbLine
 10
484.0
 20
109.9999999999999
 30
0.0
 11
483.9999999999998
 21
9.999999999999886
 31
0.0
  0
LINE
  5
BAA
330
1E
100
AcDbEntity
  8
STEMPEL
100
AcDbLine
 10
470.0
 20
109.9999999999999
 30
0.0
 11
469.9999999999997
 21
9.999999999999886
 31
0.0
  0
LINE
  5
BAB
330
1E
100
AcDbEntity
  8
HILF
100
AcDbLine
 10
460.0
 20
-0.0000000000001137
 30
0.0
 11
460.0
 21
9.999999999999886
 31
0.0
  0
INSERT
  5
BAF
330
1E
100
AcDbEntity
  8
STEMPEL
100
AcDbBlockReference
  2
LOGO
 10
568.9705276546528
 20
44.3239197186714
 30
0.0
 41
2.0
 42
2.0
 43
2.0
  0
LINE
  5
BB0
330
1E
100
AcDbEntity
  8
STEMPEL
100
AcDbLine
 10
650.0
 20
109.9999999999999
 30
0.0
 11
650.0
 21
9.999999999999886
 31
0.0
  0
LINE
  5
BB1
330
1E
100
AcDbEntity
  8
STEMPEL
100
AcDbLine
 10
566.0
 20
109.9999999999996
 30
0.0
 11
566.0
 21
9.999999999999658
 31
0.0
  0
TEXT
  5
BB2
330
1E
100
AcDbEntity
  8
TEXT
100
AcDbText
 10
614.0714285714286
 20
87.9745185882199
 30
0.0
 40
4.0
  1
DIN EN1123-2
 41
0.75
 72
     1
 11
630.0
 21
87.9745185882199
 31
0.0
100
AcDbText
  0
TEXT
  5
BB3
330
1E
100
AcDbEntity
  8
TEXT
100
AcDbText
 10
616.5714285714285
 20
102.5489328011778
 30
0.0
 40
5.0
  1
Zul. Abw.
 41
0.8
 72
     1
 11
630.0
 21
102.5489328011778
 31
0.0
100
AcDbText
  0
LINE
  5
BB4
330
1E
100
AcDbEntity
  8
HILF
100
AcDbLine
 10
566.0
 20
49.99999999999989
 30
0.0
 11
650.0
 21
49.99999999999989
 31
0.0
  0
LINE
  5
BB5
330
1E
100
AcDbEntity
  8
HILF
100
AcDbLine
 10
566.0
 20
59.99999999999989
 30
0.0
 11
650.0
 21
59.99999999999989
 31
0.0
  0
LINE
  5
BB6
330
1E
100
AcDbEntity
  8
HILF
100
AcDbLine
 10
566.0
 20
69.99999999999989
 30
0.0
 11
650.0
 21
69.99999999999989
 31
0.0
  0
TEXT
  5
BB7
330
1E
100
AcDbEntity
  8
TEXT
100
AcDbText
 10
589.9904761904762
 20
62.9999999999999
 30
0.0
 40
4.0
  1
29.06.
 41
0.8
 72
     4
 11
597.0
 21
64.9999999999999
 31
0.0
100
AcDbText
  0
TEXT
  5
BB8
330
1E
100
AcDbEntity
  8
TEXT
100
AcDbText
 10
567.5836127167612
 20
63.62990369617945
 30
0.0
 40
4.0
  1
Gez.
 41
0.8
100
AcDbText
  0
LINE
  5
BB9
330
1E
100
AcDbEntity
  8
VOLL
100
AcDbLine
 10
610.0
 20
109.9999999999996
 30
0.0
 11
610.0
 21
39.99999999999989
 31
0.0
  0
LINE
  5
BBA
330
1E
100
AcDbEntity
  8
VOLL
100
AcDbLine
 10
584.0
 20
79.99999999999989
 30
0.0
 11
584.0
 21
39.99999999999989
 31
0.0
  0
TEXT
  5
BBC
330
1E
100
AcDbEntity
  8
TEXT
100
AcDbText
 10
567.6006777387301
 20
43.529463896498
 30
0.0
 40
4.0
  1
Norm.
 41
0.8
100
AcDbText
  0
TEXT
  5
BBD
330
1E
100
AcDbEntity
  8
TEXT
100
AcDbText
 10
567.5515086571672
 20
53.68926291428365
 30
0.0
 40
4.0
  1
Gepr.
 41
0.8
100
AcDbText
  0
TEXT
  5
BBE
330
1E
100
AcDbEntity
  8
TEXT
 62
     1
100
AcDbText
 10
582.0
 20
88.4706213762478
 30
0.0
 40
7.0
  1
1:2
 41
0.8
 72
     1
 11
588.0
 21
88.4706213762478
 31
0.0
100
AcDbText
  0
TEXT
  5
BBF
330
1E
100
AcDbEntity
  8
TEXT
100
AcDbText
 10
576.1904761904761
 20
102.5489328011778
 30
0.0
 40
5.0
  1
Maßstab
 41
0.8
 72
     1
 11
588.0
 21
102.5489328011778
 31
0.0
100
AcDbText
  0
TEXT
  5
BC0
330
1E
100
AcDbEntity
  8
TEXT
100
AcDbText
 10
569.6666666666666
 20
72.9999999999999
 30
0.0
 40
4.0
  1
2012
 41
0.8
 72
     4
 11
575.0
 21
74.9999999999999
 31
0.0
100
AcDbText
  0
TEXT
  5
BC1
330
1E
100
AcDbEntity
  8
TEXT
100
AcDbText
 10
593.2666666666666
 20
73.66666666666656
 30
0.0
 40
4.0
  1
Tag
 41
0.8
 72
     4
 11
597.0
 21
74.99999999999989
 31
0.0
100
AcDbText
  0
TEXT
  5
BC2
330
1E
100
AcDbEntity
  8
TEXT
100
AcDbText
 10
624.7428571428571
 20
62.99999999999989
 30
0.0
 40
4.0
  1
Koeh
 41
0.8
 72
     4
 11
630.0
 21
64.99999999999989
 31
0.0
100
AcDbText
  0
TEXT
  5
BC3
330
1E
100
AcDbEntity
  8
TEXT
100
AcDbText
 10
623.6761904761905
 20
72.99999999999989
 30
0.0
 40
4.0
  1
Name
 41
0.8
 72
     4
 11
630.0
 21
74.99999999999989
 31
0.0
100
AcDbText
  0
TEXT
  5
BC4
330
1E
100
AcDbEntity
  8
TEXT
100
AcDbText
 10
473.8788982020937
 20
113.8645035607948
 30
0.0
 40
5.0
  1
Erstellt mit AUTOCAD 2004
 41
0.8
100
AcDbText
  0
LINE
  5
BC8
102
{ACAD_REACTORS
330
EE0
102
}
330
1E
100
AcDbEntity
  8
STEMPEL
100
AcDbLine
 10
420.0050247332442
 20
282.5284806995486
 30
0.0
 11
421.5356092207382
 21
281.6800638641174
 31
0.0
  0
ARC
  5
BC9
330
1E
100
AcDbEntity
  8
SCHRAFF
100
AcDbCircle
 10
420.0050247332442
 20
282.5284806995486
 30
0.0
 40
3.0
100
AcDbArc
 50
276.6853347126515
 51
17.50974126551402
  0
TEXT
  5
BCA
330
1E
100
AcDbEntity
  8
TEXT
 62
     1
100
AcDbText
 10
767.971106150903
 20
85.77983636955819
 30
0.0
 40
7.0
  1
17144100W
 41
0.8
 72
     1
 11
790.3711061509029
 21
85.77983636955819
 31
0.0
100
AcDbText
  0
LINE
  5
BCB
330
1E
100
AcDbEntity
  8
HILF
100
AcDbLine
 10
756.7238616296995
 20
83.77983636955798
 30
0.0
 11
824.858883932673
 21
83.77983636955793
 31
0.0
  0
LINE
  5
BCC
330
1E
100
AcDbEntity
  8
VOLL
100
AcDbLine
 10
752.0
 20
59.99999999999989
 30
0.0
 11
830.0
 21
59.99999999999989
 31
0.0
  0
LINE
  5
BCE
330
1E
100
AcDbEntity
  8
STEMPEL
100
AcDbLine
 10
752.0
 20
109.9999999999994
 30
0.0
 11
752.0
 21
39.99999999999989
 31
0.0
  0
TEXT
  5
BCF
330
1E
100
AcDbEntity
  8
TEXT
100
AcDbText
 10
757.2400861497007
 20
52.07416177878585
 30
0.0
 40
5.0
  1
ersetzt durch:
 41
0.8
100
AcDbText
  0
TEXT
  5
BD0
330
1E
100
AcDbEntity
  8
TEXT
100
AcDbText
 10
756.7238616296995
 20
73.18118237099938
 30
0.0
 40
5.0
  1
Ersatz für:
 41
0.8
100
AcDbText
  0
TEXT
  5
BD1
330
1E
100
AcDbEntity
  8
TEXT
100
AcDbText
 10
756.1787549576343
 20
102.3132034537135
 30
0.0
 40
5.0
  1
Zeichnungs Nr.
 41
0.8
100
AcDbText
  0
LINE
  5
BD4
330
1E
100
AcDbEntity
  8
STEMPEL
100
AcDbLine
 10
438.2566627390115
 20
413.4262363754758
 30
0.0
 11
610.0050247332442
 21
413.4262363754758
 31
0.0
  0
LINE
  5
BDB
330
1E
100
AcDbEntity
  8
STEMPEL
100
AcDbLine
 10
438.2566627390115
 20
410.4262363754758
 30
0.0
 11
610.0050247332442
 21
410.4262363754758
 31
0.0
  0
LINE
  5
BDC
102
{ACAD_REACTORS
330
D63
330
D93
102
}
330
1E
100
AcDbEntity
  8
STEMPEL
100
AcDbLine
 10
438.2566627390115
 20
318.473799973792
 30
0.0
 11
610.0050247332442
 21
318.473799973792
 31
0.0
  0
LINE
  5
BDD
102
{ACAD_REACTORS
330
D63
102
}
330
1E
100
AcDbEntity
  8
STEMPEL
100
AcDbLine
 10
525.0050247332442
 20
316.473799973792
 30
0.0
 11
438.2566627390115
 21
316.4737999737921
 31
0.0
  0
ARC
  5
BDE
102
{ACAD_REACTORS
330
D63
330
D93
102
}
330
1E
100
AcDbEntity
  8
STEMPEL
100
AcDbCircle
 10
438.2566627390115
 20
310.4737999737921
 30
0.0
 40
8.0
100
AcDbArc
 50
90.0
 51
191.0000000000002
  0
ARC
  5
BDF
102
{ACAD_REACTORS
330
D93
102
}
330
1E
100
AcDbEntity
  8
STEMPEL
100
AcDbCircle
 10
438.2566627390115
 20
310.4737999737921
 30
0.0
 40
11.0
100
AcDbArc
 50
90.0
 51
191.0000000000005
  0
ARC
  5
BE0
102
{ACAD_REACTORS
330
D63
102
}
330
1E
100
AcDbEntity
  8
STEMPEL
100
AcDbCircle
 10
438.2566627390115
 20
310.4737999737921
 30
0.0
 40
6.0
100
AcDbArc
 50
90.0
 51
191.0
  0
LINE
  5
BE1
102
{ACAD_REACTORS
330
D63
330
D93
102
}
330
1E
100
AcDbEntity
  8
STEMPEL
100
AcDbLine
 10
431.5050247332442
 20
303.2812218773969
 30
0.0
 11
430.4036452714304
 21
308.9473280107798
 31
0.0
  0
LINE
  5
BE2
102
{ACAD_REACTORS
330
D63
102
}
330
1E
100
AcDbEntity
  8
STEMPEL
100
AcDbLine
 10
433.5050247332442
 20
303.473799973792
 30
0.0
 11
432.3668996383253
 21
309.3289460015328
 31
0.0
  0
LINE
  5
BE3
102
{ACAD_REACTORS
330
DC6
102
}
330
1E
100
AcDbEntity
  8
STEMPEL
100
AcDbLine
 10
421.9897744543418
 20
317.7295271722453
 30
0.0
 11
422.9085893292404
 21
307.2274250955969
 31
0.0
  0
LINE
  5
BE4
102
{ACAD_REACTORS
330
D93
330
DC6
102
}
330
1E
100
AcDbEntity
  8
STEMPEL
100
AcDbLine
 10
428.4458232850401
 20
303.2969197809141
 30
0.0
 11
427.4587637210875
 21
308.3749010246501
 31
0.0
  0
ARC
  5
BE5
102
{ACAD_REACTORS
330
DC6
102
}
330
1E
100
AcDbEntity
  8
STEMPEL
100
AcDbCircle
 10
425.9171058553179
 20
303.365513003361
 30
0.0
 40
2.499999999999928
100
AcDbArc
 50
20.00751066586306
 51
115.3979441358685
  0
ARC
  5
BE6
102
{ACAD_REACTORS
330
DC6
102
}
330
1E
100
AcDbEntity
  8
STEMPEL
100
AcDbCircle
 10
424.9009787254236
 20
307.4017365810922
 30
0.0
 40
2.0
100
AcDbArc
 50
184.9999999999997
 51
240.9854054549876
  0
LINE
  5
BE7
330
1E
100
AcDbEntity
  8
STEMPEL
100
AcDbLine
 10
425.9171058553175
 20
305.865513003361
 30
0.0
 11
423.6203471940207
 21
305.865513003361
 31
0.0
  0
ARC
  5
BE8
102
{ACAD_REACTORS
330
DC6
102
}
330
1E
100
AcDbEntity
  8
STEMPEL
100
AcDbCircle
 10
424.4159463352716
 20
306.5272403944204
 30
0.0
 40
1.0
100
AcDbArc
 50
240.9854054549876
 51
295.3979441358715
  0
ARC
  5
BE9
102
{ACAD_REACTORS
330
D93
330
DC6
102
}
330
1E
100
AcDbEntity
  8
STEMPEL
100
AcDbCircle
 10
427.6802568976613
 20
301.3850061402694
 30
0.0
 40
1.0
100
AcDbArc
 50
329.9999999999995
 51
7.226856044883642
  0
LINE
  5
BEA
102
{ACAD_REACTORS
330
D63
102
}
330
1E
100
AcDbEntity
  8
STEMPEL
100
AcDbLine
 10
433.5050247332442
 20
303.473799973792
 30
0.0
 11
433.5050247332442
 21
299.473799973792
 31
0.0
  0
LINE
  5
BEB
102
{ACAD_REACTORS
330
D93
330
DC6
102
}
330
1E
100
AcDbEntity
  8
STEMPEL
100
AcDbLine
 10
428.6723127429954
 20
301.5108043904081
 30
0.0
 11
428.4458232850401
 21
303.2969197809141
 31
0.0
  0
LINE
  5
BEC
102
{ACAD_REACTORS
330
D63
330
D93
102
}
330
1E
100
AcDbEntity
  8
STEMPEL
100
AcDbLine
 10
431.5050247332442
 20
303.2812218773969
 30
0.0
 11
431.5050247332442
 21
300.0096983586543
 31
0.0
  0
LINE
  5
BED
102
{ACAD_REACTORS
330
D63
102
}
330
1E
100
AcDbEntity
  8
STEMPEL
100
AcDbLine
 10
525.0050247332442
 20
318.473799973792
 30
0.0
 11
525.0050247332442
 21
316.473799973792
 31
0.0
  0
LINE
  5
BEF
330
1E
100
AcDbEntity
  8
STEMPEL
100
AcDbLine
 10
525.0050247332442
 20
408.4262363754758
 30
0.0
 11
438.2566627390115
 21
408.4262363754758
 31
0.0
  0
LINE
  5
BF0
330
1E
100
AcDbEntity
  8
STEMPEL
100
AcDbLine
 10
431.5050247332442
 20
395.2336582790806
 30
0.0
 11
430.4036452714304
 21
400.8997644124636
 31
0.0
  0
LINE
  5
BF1
102
{ACAD_REACTORS
330
13D7
102
}
330
1E
100
AcDbEntity
  8
STEMPEL
100
AcDbLine
 10
428.4458232850401
 20
395.2493561825979
 30
0.0
 11
427.4587637210875
 21
400.3273374263337
 31
0.0
  0
ARC
  5
BF2
102
{ACAD_REACTORS
330
13D7
102
}
330
1E
100
AcDbEntity
  8
STEMPEL
100
AcDbCircle
 10
425.9171058553175
 20
395.3179494050448
 30
0.0
 40
2.499999999999928
100
AcDbArc
 50
20.00751066586306
 51
115.3979441358685
  0
LINE
  5
BF3
330
1E
100
AcDbEntity
  8
STEMPEL
100
AcDbLine
 10
433.5050247332442
 20
395.4262363754758
 30
0.0
 11
432.3668996383253
 21
401.2813824032166
 31
0.0
  0
ARC
  5
BF4
102
{ACAD_REACTORS
330
13D7
102
}
330
1E
100
AcDbEntity
  8
STEMPEL
100
AcDbCircle
 10
424.900978725423
 20
399.3541729827759
 30
0.0
 40
2.0
100
AcDbArc
 50
184.9999999999997
 51
240.9854054549876
  0
ARC
  5
BF5
102
{ACAD_REACTORS
330
13D7
102
}
330
1E
100
AcDbEntity
  8
STEMPEL
100
AcDbCircle
 10
424.4159463352712
 20
398.4796767961041
 30
0.0
 40
1.0
100
AcDbArc
 50
240.9854054549876
 51
295.3979441358715
  0
LINE
  5
BF6
102
{ACAD_REACTORS
330
E1B
330
13D7
102
}
330
1E
100
AcDbEntity
  8
STEMPEL
100
AcDbLine
 10
420.0050247332442
 20
386.5076520884338
 30
0.0
 11
420.0050247332442
 21
409.5076520884338
 31
0.0
  0
LINE
  5
BF7
102
{ACAD_REACTORS
330
DE1
330
EBB
102
}
330
1E
100
AcDbEntity
  8
STEMPEL
100
AcDbLine
 10
420.0050247332442
 20
374.4809171012323
 30
0.0
 11
421.7585657944087
 21
373.519099162738
 31
0.0
  0
ARC
  5
BF8
102
{ACAD_REACTORS
330
EBB
102
}
330
1E
100
AcDbEntity
  8
SCHRAFF
100
AcDbCircle
 10
420.0050247332442
 20
374.4809171012323
 30
0.0
 40
4.0
100
AcDbArc
 50
271.2552149318452
 51
21.18033057658344
  0
LINE
  5
BF9
330
1E
100
AcDbEntity
  8
STEMPEL
100
AcDbLine
 10
431.5050247332442
 20
391.9621347603381
 30
0.0
 11
424.2674204262102
 21
379.4262363754758
 31
0.0
  0
LINE
  5
BFA
102
{ACAD_REACTORS
330
13D7
102
}
330
1E
100
AcDbEntity
  8
STEMPEL
100
AcDbLine
 10
428.5462823014459
 20
392.8374425419531
 30
0.0
 11
422.0050247332442
 21
381.5076520884336
 31
0.0
  0
LINE
  5
BFB
330
1E
100
AcDbEntity
  8
STEMPEL
100
AcDbLine
 10
433.5050247332442
 20
391.4262363754758
 30
0.0
 11
425.9994712337788
 21
378.4262363754758
 31
0.0
  0
ARC
  5
BFC
102
{ACAD_REACTORS
330
13D7
102
}
330
1E
100
AcDbEntity
  8
STEMPEL
100
AcDbCircle
 10
427.6802568976613
 20
393.3374425419531
 30
0.0
 40
1.0
100
AcDbArc
 50
329.9999999999995
 51
7.226856044883642
  0
LINE
  5
BFD
330
1E
100
AcDbEntity
  8
STEMPEL
100
AcDbLine
 10
433.5050247332442
 20
395.4262363754758
 30
0.0
 11
433.5050247332442
 21
391.4262363754758
 31
0.0
  0
LINE
  5
BFE
330
1E
100
AcDbEntity
  8
STEMPEL
100
AcDbLine
 10
431.5050247332442
 20
395.2336582790806
 30
0.0
 11
431.5050247332442
 21
391.9621347603381
 31
0.0
  0
LINE
  5
BFF
102
{ACAD_REACTORS
330
13D7
102
}
330
1E
100
AcDbEntity
  8
STEMPEL
100
AcDbLine
 10
428.6723127429954
 20
393.4632407920919
 30
0.0
 11
428.4458232850401
 21
395.2493561825979
 31
0.0
  0
ARC
  5
C06
330
1E
100
AcDbEntity
  8
STEMPEL
100
AcDbCircle
 10
438.2566627390115
 20
402.4262363754758
 30
0.0
 40
6.0
100
AcDbArc
 50
90.0
 51
191.0
  0
ARC
  5
C07
330
1E
100
AcDbEntity
  8
STEMPEL
100
AcDbCircle
 10
438.2566627390115
 20
402.4262363754758
 30
0.0
 40
8.0
100
AcDbArc
 50
90.0
 51
191.0000000000002
  0
ARC
  5
C08
330
1E
100
AcDbEntity
  8
STEMPEL
100
AcDbCircle
 10
438.2566627390115
 20
402.4262363754758
 30
0.0
 40
11.0
100
AcDbArc
 50
90.0
 51
191.0000000000005
  0
LINE
  5
C09
102
{ACAD_REACTORS
330
13D7
102
}
330
1E
100
AcDbEntity
  8
STEMPEL
100
AcDbLine
 10
421.9897744543418
 20
409.6819635739291
 30
0.0
 11
422.9085893292399
 21
399.1798614972806
 31
0.0
  0
LINE
  5
C0A
330
1E
100
AcDbEntity
  8
STEMPEL
100
AcDbLine
 10
425.9171058553175
 20
397.8179494050448
 30
0.0
 11
423.6203471940207
 21
397.8179494050448
 31
0.0
  0
LINE
  5
C12
330
1E
100
AcDbEntity
  8
STEMPEL
100
AcDbLine
 10
525.0050247332442
 20
410.4262363754758
 30
0.0
 11
525.0050247332442
 21
408.4262363754758
 31
0.0
  0
LINE
  5
C13
102
{ACAD_REACTORS
330
D93
102
}
330
1E
100
AcDbEntity
  8
STEMPEL
100
AcDbLine
 10
610.0050247332442
 20
321.473799973792
 30
0.0
 11
610.0050247332442
 21
318.473799973792
 31
0.0
  0
LINE
  5
C14
330
1E
100
AcDbEntity
  8
STEMPEL
100
AcDbLine
 10
610.0050247332442
 20
413.4262363754758
 30
0.0
 11
610.0050247332442
 21
410.4262363754758
 31
0.0
  0
LINE
  5
C31
330
1E
100
AcDbEntity
  8
HILF
100
AcDbLine
 10
460.0000000000002
 20
583.9999999999998
 30
0.0
 11
460.0000000000002
 21
593.9999999999998
 31
0.0
  0
LINE
  5
D3B
330
1E
100
AcDbEntity
  8
BEM
 62
     1
100
AcDbLine
 10
342.7552189637422
 20
573.5617105312298
 30
0.0
 11
342.7552189637422
 21
580.5617105312299
 31
0.0
  0
LINE
  5
D3C
330
1E
100
AcDbEntity
  8
BEM
 62
     1
100
AcDbLine
 10
342.7552189637422
 20
580.5617105312299
 30
0.0
 11
349.7552189637421
 21
580.5617105312298
 31
0.0
  0
HATCH
  5
D63
330
1E
100
AcDbEntity
  8
SCHRAFF
100
AcDbHatch
 10
0.0
 20
0.0
 30
0.0
210
0.0
220
0.0
230
1.0
  2
_USER
 70
     0
 71
     1
 91
        2
 92
        7
 72
     1
 73
     1
 93
       16
 10
525.0050247332441
 20
318.473799973792
 42
0.0
 10
438.2566627390115
 20
318.473799973792
 42
0.4716306187712083
 10
430.4036452714304
 20
308.9473280107798
 42
0.0
 10
431.5050247332442
 20
303.2812218773968
 42
0.0
 10
431.5050247332442
 20
300.0096983586542
 42
0.0
 10
424.2674204262102
 20
287.473799973792
 42
-0.267949192431125
 10
419.0712680035034
 20
284.4737999737921
 42
0.0
 10
417.5050247332442
 20
284.473799973792
 42
0.0
 10
417.5050247332442
 20
282.473799973792
 42
0.0
 10
419.0712680035034
 20
282.4737999737921
 42
0.267949192431115
 10
425.9994712337788
 20
286.473799973792
 42
0.0
 10
433.5050247332442
 20
299.4737999737918
 42
0.0
 10
433.5050247332441
 20
303.473799973792
 42
0.0
 10
432.3668996383253
 20
309.3289460015328
 42
-0.4716306187712328
 10
438.2566627390115
 20
316.4737999737921
 42
0.0
 10
525.0050247332443
 20
316.4737999737921
 42
0.0
 97
       16
330
BDC
330
BDE
330
BE1
330
BEC
330
B8B
330
A6F
330
AC4
330
AC6
330
AC5
330
A70
330
B89
330
BEA
330
BE2
330
BE0
330
BDD
330
BED
 92
        7
 72
     1
 73
     1
 93
       16
 10
281.7533867274774
 20
318.473799973792
 42
0.0
 10
195.0050247332442
 20
318.4737999737919
 42
0.0
 10
195.0050247332442
 20
316.473799973792
 42
0.0
 10
281.7533867274774
 20
316.4737999737921
 42
-0.4716306187712097
 10
287.6431498281631
 20
309.3289460015328
 42
0.0
 10
286.5050247332442
 20
303.4737999737921
 42
0.0
 10
286.5050247332443
 20
299.4737999737919
 42
0.0
 10
294.0105782327096
 20
286.473799973792
 42
0.2679491924311229
 10
300.9387814629851
 20
282.473799973792
 42
0.0
 10
302.5050247332442
 20
282.473799973792
 42
0.0
 10
302.5050247332442
 20
284.4737999737919
 42
0.0
 10
300.938781462985
 20
284.473799973792
 42
-0.2679491924311077
 10
295.7426290402787
 20
287.473799973792
 42
0.0
 10
288.5050247332442
 20
300.0096983586544
 42
0.0
 10
288.5050247332442
 20
303.2812218773967
 42
0.0
 10
289.6064041950585
 20
308.9473280107798
 42
0.4716306187712083
 97
       16
330
ACC
330
AE2
330
AE1
330
ADA
330
AE3
330
AE5
330
A88
330
AB8
330
AB7
330
ABE
330
AB5
330
AB9
330
A87
330
AE4
330
AD9
330
ADB
 75
     0
 76
     0
 52
135.0
 41
2.0
 77
     0
 78
     1
 53
135.0
 43
0.0
 44
0.0
 45
-1.414213562373095
 46
-1.414213562373094
 79
     0
 47
0.5783367143269944
 98
        2
 10
454.4805325497921
 20
317.5036889275761
 10
265.250248111169
 20
317.5036889275761
  0
HATCH
  5
D6C
330
1E
100
AcDbEntity
  8
SCHRAFF
100
AcDbHatch
 10
0.0
 20
0.0
 30
0.0
210
0.0
220
0.0
230
1.0
  2
_USER
 70
     0
 71
     1
 91
        2
 92
        7
 72
     0
 73
     1
 93
        4
 10
420.0050247332447
 20
317.55521568675
 10
418.0050247332446
 20
317.55521568675
 10
418.0050247332447
 20
294.5552156867501
 10
420.0050247332446
 20
294.5552156867501
 97
        4
330
A6D
330
A82
330
A6E
330
B8C
 92
        7
 72
     0
 73
     1
 93
        4
 10
302.0050247332442
 20
317.5552156867497
 10
300.0050247332442
 20
317.5552156867498
 10
300.0050247332442
 20
294.55521568675
 10
302.0050247332442
 20
294.55521568675
 97
        4
330
B04
330
A85
330
AC0
330
A84
 75
     0
 76
     0
 52
135.0
 41
2.0
 77
     0
 78
     1
 53
135.0
 43
0.0
 44
0.0
 45
-1.414213562373095
 46
-1.414213562373094
 79
     0
 47
0.1998139305430626
 98
        2
 10
418.457619402842
 20
311.4786884296882
 10
300.8960940654999
 20
303.0865022050632
  0
HATCH
  5
D93
330
1E
100
AcDbEntity
  8
SCHRAFF
100
AcDbHatch
 10
0.0
 20
0.0
 30
0.0
210
0.0
220
0.0
230
1.0
  2
NET
 70
     0
 71
     1
 91
        2
 92
        7
 72
     1
 73
     1
 93
       16
 10
610.0050247332441
 20
321.4737999737919
 42
0.0
 10
438.2566627390115
 20
321.473799973792
 42
0.4716306187712101
 10
427.4587637210875
 20
308.3749010246501
 42
0.0
 10
428.4458232850403
 20
303.2969197809143
 42
0.0
 10
428.6723127429954
 20
301.5108043904081
 42
-0.1638766063562659
 10
428.5462823014457
 20
300.885006140269
 42
0.0
 10
422.0050247332442
 20
289.5552156867499
 42
0.0
 10
417.5050247332442
 20
289.5552156867499
 42
0.0
 10
417.5050247332442
 20
286.5552156867499
 42
0.0
 10
423.6149116058722
 20
286.5552156867499
 42
0.0470518403705422
 10
424.2674204262102
 20
287.473799973792
 42
0.0
 10
431.5050247332441
 20
300.0096983586543
 42
0.0
 10
431.5050247332441
 20
303.2812218773969
 42
0.0
 10
430.4036452714304
 20
308.9473280107798
 42
-0.4716306187712148
 10
438.2566627390117
 20
318.473799973792
 42
0.0
 10
610.0050247332442
 20
318.4737999737919
 42
0.0
 97
       16
330
A7B
330
BDF
330
BE4
330
BEB
330
BE9
330
B8A
330
A72
330
AC8
330
A71
330
A6F
330
B8B
330
BEC
330
BE1
330
BDE
330
BDC
330
C13
 92
        7
 72
     1
 73
     1
 93
       16
 10
281.7533867274773
 20
321.473799973792
 42
0.0
 10
110.0050247332442
 20
321.473799973792
 42
0.0
 10
110.0050247332442
 20
318.4737999737919
 42
0.0
 10
281.7533867274774
 20
318.473799973792
 42
-0.4716306187712083
 10
289.6064041950585
 20
308.9473280107798
 42
0.0
 10
288.5050247332442
 20
303.2812218773968
 42
0.0
 10
288.5050247332442
 20
300.0096983586542
 42
0.0
 10
295.7426290402787
 20
287.473799973792
 42
0.0470518403705461
 10
296.3951378606166
 20
286.5552156867498
 42
0.0
 10
302.5050247332442
 20
286.5552156867498
 42
0.0
 10
302.5050247332442
 20
289.5552156867498
 42
0.0
 10
298.0050247332443
 20
289.5552156867498
 42
0.0
 10
291.463767165043
 20
300.8850061402694
 42
-0.1638766063563059
 10
291.3377367234931
 20
301.5108043904086
 42
0.0
 10
291.5642261814487
 20
303.2969197809145
 42
0.0
 10
292.5512857454014
 20
308.3749010246501
 42
0.4716306187712122
 97
       16
330
ACD
330
ACF
330
ACC
330
ADB
330
AD9
330
AE4
330
A87
330
AB9
330
AB6
330
ABF
330
AB4
330
A83
330
AFF
330
B00
330
AFD
330
ADC
 75
     0
 76
     1
 52
45.0
 41
10.0
 77
     0
 78
     2
 53
45.0
 43
0.0
 44
0.0
 45
-0.8838834764831842
 46
0.8838834764831844
 79
     0
 53
135.0
 43
0.0
 44
0.0
 45
-0.8838834764831844
 46
-0.8838834764831842
 79
     0
 47
0.5783367143269944
 98
        2
 10
510.0343780007208
 20
320.9737085468876
 10
253.6765310327157
 20
320.9737085468876
  0
HATCH
  5
DC6
330
1E
100
AcDbEntity
  8
SCHRAFF
100
AcDbHatch
 10
0.0
 20
0.0
 30
0.0
210
0.0
220
0.0
230
1.0
  2
NET
 70
     0
 71
     1
 91
        4
 92
        7
 72
     1
 73
     1
 93
       18
 10
423.9309139451197
 20
305.6527442077486
 42
-0.2492603645242922
 10
422.9085893292404
 20
307.2274250955969
 42
0.0
 10
421.9897744543418
 20
317.7295271722453
 42
0.3888787318535223
 10
419.9973850581577
 20
319.5552156867534
 42
0.0
 10
418.0126644083315
 20
319.5552156867533
 42
0.3888787318530222
 10
416.0202750121477
 20
317.7295271722486
 42
0.0
 10
415.3043856423471
 20
309.546874232429
 42
0.3872810292961629
 10
412.638313100701
 20
307.4893361309173
 42
0.0
 10
411.0050247332442
 20
298.2264975063663
 42
0.0
 10
411.0050247332441
 20
290.55521568675
 42
0.0
 10
414.505024733245
 20
290.55521568675
 42
0.0
 10
416.2370755408137
 20
289.5552156867499
 42
0.0
 10
422.0050247332442
 20
289.5552156867499
 42
0.0
 10
428.5462823014459
 20
300.8850061402693
 42
0.1638766063560635
 10
428.6723127429955
 20
301.5108043904076
 42
0.0
 10
428.4458232850404
 20
303.2969197809121
 42
0.0
 10
428.2662253020905
 20
304.2208713053573
 42
0.4420454759424171
 10
424.8448490552848
 20
305.6238897112605
 42
-0.2419833741269681
 97
       18
330
BEB
330
BE4
330
BE5
330
BE8
330
BE6
330
BE3
330
A6C
330
B08
330
B0A
330
B0B
330
B06
330
B07
330
A8B
330
AC7
330
AC9
330
A72
330
B8A
330
BE9
 92
       22
 72
     0
 73
     1
 93
        4
 10
420.0050247332447
 20
294.5552156867501
 10
418.0050247332446
 20
294.5552156867501
 10
418.0050247332447
 20
317.55521568675
 10
420.0050247332446
 20
317.55521568675
 97
        4
330
A6E
330
A82
330
A6D
330
B8C
 92
        7
 72
     1
 73
     1
 93
       18
 10
309.0050247332443
 20
298.2264975063681
 42
0.0
 10
307.3717363657884
 20
307.4893361309172
 42
0.3872810292961498
 10
304.7056638241423
 20
309.5468742324288
 42
0.0
 10
303.9897744543414
 20
317.7295271722453
 42
0.3888787318530051
 10
301.9973850581578
 20
319.55521568675
 42
0.0
 10
300.0126644083311
 20
319.55521568675
 42
0.3888787318530029
 10
298.0202750121475
 20
317.7295271722453
 42
0.0
 10
297.1014601372485
 20
307.2274250955969
 42
-0.2492603645242387
 10
296.0791355213696
 20
305.6527442077487
 42
-0.2419833741270567
 10
295.1652004112041
 20
305.6238897112606
 42
0.4420454759428242
 10
291.7438241643975
 20
304.2208713053538
 42
0.0
 10
291.5642261814485
 20
303.2969197809137
 42
0.0
 10
291.337736723493
 20
301.5108043904081
 42
0.1638766063562244
 10
291.4637671650431
 20
300.8850061402692
 42
0.0
 10
298.0050247332443
 20
289.5552156867498
 42
0.0
 10
303.7729739256751
 20
289.5552156867498
 42
0.0
 10
305.5050247332442
 20
290.55521568675
 42
0.0
 10
309.0050247332443
 20
290.55521568675
 42
0.0
 97
       18
330
B05
330
AF7
330
B02
330
B01
330
AF8
330
B03
330
AF9
330
AFA
330
AFC
330
AFE
330
AFD
330
B00
330
AFF
330
A83
330
AB4
330
AB3
330
AC1
330
A8C
 92
       22
 72
     0
 73
     1
 93
        4
 10
302.0050247332442
 20
294.55521568675
 10
300.0050247332442
 20
294.55521568675
 10
300.0050247332442
 20
317.5552156867498
 10
302.0050247332442
 20
317.5552156867498
 97
        4
330
AC0
330
A85
330
B04
330
A84
 75
     0
 76
     1
 52
45.0
 41
20.0
 77
     0
 78
     2
 53
45.0
 43
0.0
 44
0.0
 45
-1.767766952966368
 46
1.767766952966368
 79
     0
 53
135.0
 43
0.0
 44
0.0
 45
-1.767766952966368
 46
-1.767766952966368
 79
     0
 47
0.5783367143269944
 98
        4
 10
421.4954373561706
 20
300.7319241742691
 10
421.4954373561706
 20
300.7319241742691
 10
305.7582600572262
 20
296.6835670203195
 10
305.7582600572262
 20
296.6835670203195
  0
HATCH
  5
DE1
330
1E
100
AcDbEntity
  8
SCHRAFF
100
AcDbHatch
 10
0.0
 20
0.0
 30
0.0
210
0.0
220
0.0
230
1.0
  2
_USER
 70
     0
 71
     1
 91
        2
 92
        7
 72
     1
 73
     1
 93
       10
 10
411.0050247332442
 20
352.6325366504029
 42
-0.1260846204227942
 10
411.6211720803326
 20
355.0370814966389
 42
0.0
 10
421.7585657944087
 20
373.519099162738
 42
0.0
 10
420.0050247332442
 20
374.4809171012324
 42
0.0
 10
409.8676310191681
 20
355.9988994351333
 42
0.1260846204228012
 10
409.0050247332442
 20
352.6325366504027
 42
0.0
 10
409.0050247332442
 20
204.1776183988985
 42
0.0
 10
407.6850551052689
 20
189.090296513081
 42
0.0
 10
409.6926947803553
 20
189.090296513081
 42
0.0
 10
411.0050247332442
 20
204.0902965130817
 42
0.0
 97
       10
330
B45
330
A6B
330
BF7
330
A6A
330
B47
330
A8A
330
AAE
330
AA3
330
AAD
330
A8B
 92
        7
 72
     1
 73
     1
 93
       10
 10
311.0050247332442
 20
352.6325366504025
 42
0.1260846204227909
 10
310.1424184473204
 20
355.9988994351328
 42
0.0
 10
300.0050247332442
 20
374.4809171012324
 42
0.0
 10
298.2514836720798
 20
373.519099162738
 42
0.0
 10
308.3888773861559
 20
355.0370814966386
 42
-0.1260846204227877
 10
309.0050247332442
 20
352.6325366504027
 42
0.0
 10
309.0050247332442
 20
204.0902965130816
 42
0.0
 10
310.3173546861331
 20
189.090296513081
 42
0.0
 10
312.3249943612196
 20
189.090296513081
 42
0.0
 10
311.0050247332443
 20
204.1776183988984
 42
0.0
 97
       10
330
B1F
330
B1D
330
B1A
330
B1E
330
B20
330
A8C
330
AA7
330
AA3
330
AA8
330
A8D
 75
     0
 76
     0
 52
135.0
 41
2.0
 77
     0
 78
     1
 53
135.0
 43
0.0
 44
0.0
 45
-1.414213562373095
 46
-1.414213562373094
 79
     0
 47
0.5783367143269944
 98
        2
 10
410.500406348787
 20
321.5520460815258
 10
310.3877486257836
 20
315.768677720791
  0
HATCH
  5
E0C
330
1E
100
AcDbEntity
  8
SCHRAFF
100
AcDbHatch
 10
0.0
 20
0.0
 30
0.0
210
0.0
220
0.0
230
1.0
  2
_USER
 70
     0
 71
     0
 91
        3
 92
        7
 72
     0
 73
     1
 93
        4
 10
525.0050247332443
 20
410.4262363754759
 10
493.1546769148699
 20
410.4262363754759
 10
495.3152618955745
 20
408.4262363754758
 10
525.0050247332442
 20
408.4262363754758
 97
        0
 92
        7
 72
     1
 73
     1
 93
       16
 10
493.1546769148699
 20
410.4262363754757
 42
0.0
 10
438.2566627390115
 20
410.4262363754758
 42
0.4716306187712085
 10
430.4036452714304
 20
400.8997644124636
 42
0.0
 10
431.5050247332442
 20
395.2336582790806
 42
0.0
 10
431.5050247332442
 20
391.9621347603381
 42
0.0
 10
424.2674204262102
 20
379.4262363754758
 42
-0.267949192431128
 10
419.0712680035034
 20
376.4262363754758
 42
0.0
 10
417.5050247332442
 20
376.4262363754758
 42
0.0
 10
417.5050247332442
 20
374.4262363754758
 42
0.0
 10
419.0712680035034
 20
374.4262363754758
 42
0.2679491924311172
 10
425.9994712337788
 20
378.4262363754758
 42
0.0
 10
433.5050247332442
 20
391.4262363754758
 42
0.0
 10
433.5050247332441
 20
395.4262363754762
 42
0.0
 10
432.3668996383253
 20
401.2813824032166
 42
-0.4716306187712259
 10
438.2566627390115
 20
408.4262363754758
 42
0.0
 10
495.3152618955743
 20
408.4262363754758
 42
0.0
 97
        0
 92
        7
 72
     1
 73
     1
 93
       16
 10
281.7533867274774
 20
410.4262363754758
 42
0.0
 10
195.0050247332442
 20
410.4262363754758
 42
0.0
 10
195.0050247332442
 20
408.4262363754758
 42
0.0
 10
281.7533867274774
 20
408.4262363754758
 42
-0.4716306187712026
 10
287.6431498281631
 20
401.2813824032166
 42
0.0
 10
286.5050247332442
 20
395.4262363754758
 42
0.0
 10
286.5050247332442
 20
391.4262363754759
 42
0.0
 10
294.0105782327096
 20
378.4262363754758
 42
0.2679491924311229
 10
300.9387814629851
 20
374.4262363754758
 42
0.0
 10
302.5050247332442
 20
374.4262363754758
 42
0.0
 10
302.5050247332442
 20
376.4262363754758
 42
0.0
 10
300.938781462985
 20
376.4262363754758
 42
-0.2679491924311077
 10
295.7426290402787
 20
379.4262363754758
 42
0.0
 10
288.5050247332442
 20
391.9621347603381
 42
0.0
 10
288.5050247332442
 20
395.2336582790804
 42
0.0
 10
289.6064041950581
 20
400.8997644124636
 42
0.4716306187711911
 97
        0
 75
     0
 76
     0
 52
45.0
 41
2.0
 77
     0
 78
     1
 53
45.0
 43
0.0
 44
-38.66406013760525
 45
-1.414213562373094
 46
1.414213562373095
 79
     0
 47
0.5829126228834056
 98
        3
 10
501.777743030105
 20
409.3982916123527
 10
476.1141042278266
 20
409.3982916123527
 10
236.392371638706
 20
409.9812047458621
  0
HATCH
  5
E1B
330
1E
100
AcDbEntity
  8
SCHRAFF
100
AcDbHatch
 10
0.0
 20
0.0
 30
0.0
210
0.0
220
0.0
230
1.0
  2
_USER
 70
     0
 71
     1
 91
        2
 92
        7
 72
     0
 73
     1
 93
        4
 10
418.0050247332442
 20
386.5076520884338
 10
420.0050247332442
 20
386.5076520884338
 10
420.0050247332442
 20
409.5076520884338
 10
418.0050247332442
 20
409.5076520884338
 97
        4
330
A64
330
B41
330
A65
330
BF6
 92
        7
 72
     0
 73
     1
 93
        4
 10
302.0050247332442
 20
409.5076520884336
 10
300.0050247332442
 20
409.5076520884336
 10
300.0050247332442
 20
386.5076520884338
 10
302.0050247332442
 20
386.5076520884338
 97
        4
330
B3B
330
B17
330
B2C
330
B18
 75
     0
 76
     0
 52
45.0
 41
2.0
 77
     0
 78
     1
 53
45.0
 43
0.0
 44
-38.66406013760525
 45
-1.414213562373094
 46
1.414213562373095
 79
     0
 47
0.5829126228834056
 98
        2
 10
418.9541761109592
 20
396.5742138521816
 10
301.1347365185459
 20
393.0767378453843
  0
HATCH
  5
E8D
330
1E
100
AcDbEntity
  8
SCHRAFF
100
AcDbHatch
 10
0.0
 20
0.0
 30
0.0
210
0.0
220
0.0
230
1.0
  2
NET
 70
     0
 71
     0
 91
        3
 92
        7
 72
     0
 73
     1
 93
        4
 10
610.0050247332442
 20
413.4262363754758
 10
489.9137994438129
 20
413.4262363754757
 10
493.1546769148698
 20
410.4262363754758
 10
610.0050247332442
 20
410.4262363754759
 97
        0
 92
        7
 72
     1
 73
     1
 93
       16
 10
489.9137994438131
 20
413.4262363754758
 42
0.0
 10
438.2566627390115
 20
413.4262363754758
 42
0.471630618771214
 10
427.4587637210875
 20
400.3273374263337
 42
0.0
 10
428.4458232850403
 20
395.249356182597
 42
0.0
 10
428.6723127429954
 20
393.4632407920919
 42
-0.163876606356281
 10
428.5462823014457
 20
392.8374425419528
 42
0.0
 10
422.0050247332442
 20
381.5076520884336
 42
0.0
 10
417.5050247332442
 20
381.5076520884337
 42
0.0
 10
417.5050247332442
 20
378.5076520884335
 42
0.0
 10
423.6149116058721
 20
378.5076520884336
 42
0.0470518403705488
 10
424.2674204262102
 20
379.4262363754758
 42
0.0
 10
431.5050247332442
 20
391.9621347603381
 42
0.0
 10
431.5050247332442
 20
395.2336582790808
 42
0.0
 10
430.4036452714304
 20
400.8997644124636
 42
-0.4716306187712169
 10
438.2566627390117
 20
410.4262363754758
 42
0.0
 10
493.1546769148699
 20
410.4262363754758
 42
0.0
 97
        0
 92
        7
 72
     1
 73
     1
 93
       17
 10
281.7533867274773
 20
413.4262363754758
 42
0.0
 10
262.5050247332442
 20
413.4262363754758
 42
0.0
 10
110.0050247332442
 20
413.4262363754757
 42
0.0
 10
110.0050247332442
 20
410.4262363754758
 42
0.0
 10
281.7533867274774
 20
410.4262363754758
 42
-0.4716306187711912
 10
289.6064041950581
 20
400.8997644124636
 42
0.0
 10
288.5050247332442
 20
395.2336582790804
 42
0.0
 10
288.5050247332442
 20
391.9621347603381
 42
0.0
 10
295.7426290402787
 20
379.4262363754758
 42
0.0470518403705461
 10
296.3951378606166
 20
378.5076520884336
 42
0.0
 10
302.5050247332442
 20
378.5076520884337
 42
0.0
 10
302.5050247332442
 20
381.5076520884336
 42
0.0
 10
298.0050247332442
 20
381.5076520884336
 42
0.0
 10
291.463767165043
 20
392.8374425419531
 42
-0.1638766063563059
 10
291.3377367234931
 20
393.4632407920923
 42
0.0
 10
291.5642261814487
 20
395.249356182597
 42
0.0
 10
292.5512857454014
 20
400.3273374263337
 42
0.4716306187712161
 97
        0
 75
     0
 76
     1
 52
45.0
 41
10.0
 77
     0
 78
     2
 53
45.0
 43
0.0
 44
-38.66406013760525
 45
-0.8838834764831842
 46
0.8838834764831844
 79
     0
 53
135.0
 43
0.0
 44
-38.66406013760525
 45
-0.8838834764831844
 46
-0.8838834764831842
 79
     0
 47
0.5829126228834056
 98
        3
 10
549.0221737447816
 20
412.3128544856408
 10
467.9483995907109
 20
412.3128544856408
 10
263.2225418463292
 20
412.3128544856408
  0
HATCH
  5
EBB
330
1E
100
AcDbEntity
  8
SCHRAFF
100
AcDbHatch
 10
0.0
 20
0.0
 30
0.0
210
0.0
220
0.0
230
1.0
  2
_USER
 70
     0
 71
     1
 91
        2
 92
        7
 72
     1
 73
     1
 93
        4
 10
423.7348162957073
 20
375.9261350434746
 42
-0.1270166537925862
 10
420.005024733244
 20
374.4809171012324
 42
0.0
 10
421.7585657944086
 20
373.519099162738
 42
0.0
 10
420.0926482573051
 20
370.4818769516425
 42
0.5201518319756577
 97
        4
330
A67
330
BF7
330
A6B
330
BF8
 92
        7
 72
     1
 73
     1
 93
        4
 10
298.2514836720798
 20
373.519099162738
 42
0.0
 10
300.0050247332443
 20
374.4809171012324
 42
-0.1270166537925862
 10
296.2752331707811
 20
375.9261350434746
 42
0.5201518319756538
 10
299.9174012091832
 20
370.4818769516425
 42
0.0
 97
        4
330
B1C
330
B1B
330
B1E
330
B1A
 75
     0
 76
     0
 52
0.0
 41
0.1
 77
     0
 78
     1
 53
0.0
 43
0.0
 44
-38.66406013760525
 45
0.0
 46
0.1
 79
     0
 47
0.2195866976567284
 98
        2
 10
423.2337653626518
 20
373.7298792203926
 10
297.3678936531128
 20
373.9494654826974
  0
HATCH
  5
EE0
330
1E
100
AcDbEntity
  8
SCHRAFF
100
AcDbHatch
 10
0.0
 20
0.0
 30
0.0
210
0.0
220
0.0
230
1.0
  2
_USER
 70
     0
 71
     1
 91
        2
 92
        7
 72
     1
 73
     1
 93
       16
 10
416.5050247332441
 20
270.4710541408147
 42
-0.1272160680010468
 10
417.5394121493441
 20
274.4707335078469
 42
0.0
 10
421.5356092207381
 20
281.6800638641175
 42
0.0
 10
420.0050247332441
 20
282.5284806995487
 42
0.0
 10
416.0088276618502
 20
275.3191503432779
 42
0.1272160680010511
 10
414.7550247332441
 20
270.4710541408144
 42
0.0
 10
414.7550247332444
 20
191.9317408387534
 42
-0.1599942435199957
 10
412.175378715545
 20
184.0764212467574
 42
0.1599942435199938
 10
409.2550247332441
 20
175.1836066143092
 42
0.0
 10
409.2550247332442
 20
56.58275103331515
 42
0.0
 10
408.2414058508039
 20
48.47379997379189
 42
0.0
 10
410.0050247332441
 20
48.4737999737919
 42
0.0
 10
411.0050247332442
 20
56.47379997379186
 42
0.0
 10
411.0050247332441
 20
175.1836066143091
 42
-0.1599942435199944
 10
413.5846707509433
 20
183.0389262063051
 42
0.1599942435199943
 10
416.5050247332441
 20
191.9317408387534
 42
0.0
 97
       16
330
AC2
330
A4D
330
BC8
330
A4C
330
AC3
330
A9D
330
AAC
330
AB0
330
A93
330
A9B
330
A95
330
A9A
330
A92
330
AAF
330
AAB
330
A9C
 92
        7
 72
     1
 73
     1
 93
       16
 10
305.2550247332442
 20
270.4710541408147
 42
0.1272160680010446
 10
304.0012218046382
 20
275.319150343278
 42
0.0
 10
300.0050247332441
 20
282.5284806995485
 42
0.0
 10
298.4744402457502
 20
281.6800638641174
 42
0.0
 10
302.470637317144
 20
274.4707335078468
 42
-0.1272160680010547
 10
303.5050247332442
 20
270.4710541408143
 42
0.0
 10
303.5050247332442
 20
191.9317408387534
 42
0.1599942435199948
 10
306.425378715545
 20
183.038926206305
 42
-0.159994243519995
 10
309.0050247332442
 20
175.1836066143091
 42
0.0
 10
309.0050247332442
 20
56.47379997379069
 42
0.0
 10
310.0050247332441
 20
48.47379997379181
 42
0.0
 10
311.7686436156845
 20
48.47379997379182
 42
0.0
 10
310.7550247332442
 20
56.58275103331322
 42
0.0
 10
310.7550247332442
 20
175.1836066143091
 42
0.1599942435199948
 10
307.8346707509433
 20
184.0764212467574
 42
-0.159994243519994
 10
305.2550247332442
 20
191.9317408387534
 42
0.0
 97
       16
330
AB1
330
ABB
330
ABD
330
ABC
330
AB2
330
A9E
330
AA5
330
AAA
330
A90
330
A98
330
A95
330
A99
330
A91
330
AA9
330
AA6
330
A9F
 75
     0
 76
     0
 52
45.0
 41
2.0
 77
     0
 78
     1
 53
45.0
 43
0.0
 44
0.0
 45
-1.414213562373094
 46
1.414213562373095
 79
     0
 47
0.4408436686114064
 98
        2
 10
415.39965228562
 20
221.1713618187853
 10
304.710346916394
 20
229.1065478970422
  0
LINE
  5
F05
330
1E
100
AcDbEntity
  8
TEXT
 62
     2
100
AcDbLine
 10
409.964924385364
 20
135.5594459286529
 30
0.0
 11
492.5426101964171
 21
152.5104541850953
 31
0.0
  0
LINE
  5
F06
330
1E
100
AcDbEntity
  8
TEXT
 62
     2
100
AcDbLine
 10
492.5426101964171
 20
152.5104541850953
 30
0.0
 11
594.998451053972
 21
152.5104541850953
 31
0.0
  0
TEXT
  5
F07
330
1E
100
AcDbEntity
  8
TEXT
 62
     1
100
AcDbText
 10
494.5632443004373
 20
156.2334074849017
 30
0.0
 40
7.0
  1
Ablautopf DN100
 41
0.8
  7
GREEKS
100
AcDbText
  0
TEXT
  5
F08
330
1E
100
AcDbEntity
  8
TEXT
 62
     1
100
AcDbText
 10
493.855983345561
 20
143.5868598867604
 30
0.0
 40
7.0
  1
EDV-Art.Nr. 17115.100A
 41
0.8
  7
GREEKS
100
AcDbText
  0
LINE
  5
F09
330
1E
100
AcDbEntity
  8
TEXT
 62
     2
100
AcDbLine
 10
425.031624740958
 20
301.058686154346
 30
0.0
 11
542.4546249178392
 21
256.442202712841
 31
0.0
  0
LINE
  5
F0A
330
1E
100
AcDbEntity
  8
TEXT
 62
     2
100
AcDbLine
 10
514.2572447514353
 20
319.9262022932277
 30
0.0
 11
544.2938294410064
 21
292.9258357522465
 31
0.0
  0
LINE
  5
F0B
330
1E
100
AcDbEntity
  8
TEXT
 62
     2
100
AcDbLine
 10
544.2938294410064
 20
292.9258357522465
 30
0.0
 11
667.73165884076
 21
292.9258357522465
 31
0.0
  0
TEXT
  5
F0C
330
1E
100
AcDbEntity
  8
TEXT
 62
     1
100
AcDbText
 10
546.3144635450267
 20
282.4358793211228
 30
0.0
 40
7.0
  1
EDV-Art.Nr. 17000.100A
 41
0.8
  7
GREEKS
100
AcDbText
  0
TEXT
  5
F0D
330
1E
100
AcDbEntity
  8
TEXT
 62
     1
100
AcDbText
 10
544.4752590218595
 20
245.9522462817172
 30
0.0
 40
7.0
  1
EDV-Art.Nr. 17201.100A
 41
0.8
  7
GREEKS
100
AcDbText
  0
TEXT
  5
F0E
330
1E
100
AcDbEntity
  8
TEXT
 62
     1
100
AcDbText
 10
544.4752590218595
 20
260.1651560126474
 30
0.0
 40
7.0
  1
Klemmring DN100
 41
0.8
  7
GREEKS
100
AcDbText
  0
LINE
  5
F0F
330
1E
100
AcDbEntity
  8
TEXT
 62
     2
100
AcDbLine
 10
542.4546249178392
 20
256.442202712841
 30
0.0
 11
649.9592913314634
 21
256.4422027128409
 31
0.0
  0
TEXT
  5
F10
330
1E
100
AcDbEntity
  8
TEXT
 62
     1
100
AcDbText
 10
546.3144635450267
 20
296.6487890520531
 30
0.0
 40
7.0
  1
Anschlußmannschette DN100
 41
0.8
  7
GREEKS
100
AcDbText
  0
LINE
  5
F11
330
1E
100
AcDbEntity
  8
TEXT
 62
     2
100
AcDbLine
 10
410.6912840951848
 20
352.1242313920958
 30
0.0
 11
543.1905850682755
 21
334.5457957858064
 31
0.0
  0
LINE
  5
F12
330
1E
100
AcDbEntity
  8
TEXT
 62
     2
100
AcDbLine
 10
425.031624740958
 20
392.8453475269592
 30
0.0
 11
542.4546249178392
 21
358.8487342070966
 31
0.0
  0
TEXT
  5
F13
330
1E
100
AcDbEntity
  8
TEXT
 62
     1
100
AcDbText
 10
543.4070173144696
 20
338.2687490856128
 30
0.0
 40
7.0
  1
Etageneinsatz DN100
 41
0.8
  7
GREEKS
100
AcDbText
  0
TEXT
  5
F14
330
1E
100
AcDbEntity
  8
TEXT
 62
     1
100
AcDbText
 10
543.2139331167684
 20
325.6222014874716
 30
0.0
 40
7.0
  1
EDV-Art.Nr.17117.100A
 41
0.8
  7
GREEKS
100
AcDbText
  0
LINE
  5
F15
330
1E
100
AcDbEntity
  8
TEXT
 62
     2
100
AcDbLine
 10
543.1905850682755
 20
334.5457957858064
 30
0.0
 11
640.291282700731
 21
334.5457957858064
 31
0.0
  0
TEXT
  5
F16
330
1E
100
AcDbEntity
  8
TEXT
 62
     1
100
AcDbText
 10
546.3144635450267
 20
388.4354504246664
 30
0.0
 40
7.0
  1
Anschlußmannschette DN100
 41
0.8
  7
GREEKS
100
AcDbText
  0
TEXT
  5
F17
330
1E
100
AcDbEntity
  8
TEXT
 62
     1
100
AcDbText
 10
546.3144635450267
 20
374.2225406937361
 30
0.0
 40
7.0
  1
EDV-Art.Nr. 17000.100A
 41
0.8
  7
GREEKS
100
AcDbText
  0
LINE
  5
F18
330
1E
100
AcDbEntity
  8
TEXT
 62
     2
100
AcDbLine
 10
544.2938294410064
 20
384.7124971248598
 30
0.0
 11
667.73165884076
 21
384.7124971248598
 31
0.0
  0
LINE
  5
F19
330
1E
100
AcDbEntity
  8
TEXT
 62
     2
100
AcDbLine
 10
542.4546249178392
 20
358.8487342070966
 30
0.0
 11
649.9592913314634
 21
358.8487342070965
 31
0.0
  0
TEXT
  5
F1A
330
1E
100
AcDbEntity
  8
TEXT
 62
     1
100
AcDbText
 10
544.4752590218595
 20
362.5716875069031
 30
0.0
 40
7.0
  1
Klemmring DN100
 41
0.8
  7
GREEKS
100
AcDbText
  0
TEXT
  5
F1B
330
1E
100
AcDbEntity
  8
TEXT
 62
     1
100
AcDbText
 10
544.4752590218595
 20
348.3587777759729
 30
0.0
 40
7.0
  1
EDV-Art.Nr. 17201.100A
 41
0.8
  7
GREEKS
100
AcDbText
  0
LINE
  5
F1C
330
1E
100
AcDbEntity
  8
TEXT
 62
     2
100
AcDbLine
 10
514.2572447514353
 20
411.7128636658409
 30
0.0
 11
544.2938294410064
 21
384.7124971248598
 31
0.0
  0
LINE
  5
F22
330
1E
100
AcDbEntity
  8
TEXT
 62
     2
100
AcDbLine
 10
423.6580732544623
 20
415.9416453714847
 30
0.0
 11
628.5956497642671
 21
439.4874518333769
 31
0.0
  0
LINE
  5
F23
330
1E
100
AcDbEntity
  8
TEXT
 62
     2
100
AcDbLine
 10
470.0162765488862
 20
469.6828421709779
 30
0.0
 11
628.5956497642671
 21
470.8948748694329
 31
0.0
  0
DIMENSION
  5
1107
330
1E
100
AcDbEntity
  8
BEM
100
AcDbDimension
  2
*D6
 10
490.0050247332442
 20
545.1063295961743
 30
0.0
 11
360.0050247332442
 21
551.6063295961743
 31
0.0
 70
    32
  1
%%c<>
 71
     5
 42
260.0
  3
Standard
100
AcDbAlignedDimension
 13
230.0050247332442
 23
430.9262363754761
 33
0.0
 14
490.0050247332442
 24
430.926236375475
 34
0.0
100
AcDbRotatedDimension
1001
ACAD
1000
DSTYLE
1002
{
1070
    40
1040
2.0
1070
    41
1040
3.5
1070
    42
1040
1.0
1070
    43
1040
7.0
1070
    44
1040
1.0
1070
    73
1070
     0
1070
    74
1070
     0
1070
    77
1070
     1
1070
    78
1070
     8
1070
    79
1070
     2
1070
   140
1040
3.5
1070
   141
1040
1.5
1070
   146
1040
0.5142857142857144
1070
   147
1040
1.5
1070
   172
1070
     1
1070
   178
1070
     1
1070
   179
1070
     2
1070
   271
1070
     2
1070
   272
1070
     2
1070
   284
1070
     8
1070
   285
1070
     8
1070
   286
1070
     8
1002
}
  0
LINE
  5
1108
330
1E
100
AcDbEntity
  8
STEMPEL
100
AcDbLine
 10
495.0050247332439
 20
413.426236375476
 30
0.0
 11
225.0050247332442
 21
413.4262363754754
 31
0.0
  0
LINE
  5
1109
330
1E
100
AcDbEntity
  8
STEMPEL
100
AcDbLine
 10
225.0050247332442
 20
414.9262363754757
 30
0.0
 11
225.0050247332442
 21
413.4262363754754
 31
0.0
  0
ARC
  5
110A
330
1E
100
AcDbEntity
  8
SCHRAFF
100
AcDbCircle
 10
309.3600806977913
 20
413.4262363754758
 30
0.0
 40
1.828088629478462
100
AcDbArc
 50
304.8622016819311
 51
55.13779831806894
  0
HATCH
  5
110B
330
1E
100
AcDbEntity
  8
SCHRAFF
100
AcDbHatch
 10
0.0
 20
0.0
 30
0.0
210
0.0
220
0.0
230
1.0
  2
_USER
 70
     0
 71
     0
 91
        2
 92
        7
 72
     1
 73
     1
 93
        3
 10
310.4050247332441
 20
414.9262363754753
 42
-0.2453357974240878
 10
311.1881693272694
 20
413.4262363754758
 42
0.0
 10
310.4050247332442
 20
413.4262363754758
 42
0.0
 97
        0
 92
        7
 72
     1
 73
     1
 93
        3
 10
310.4050247332441
 20
413.4262363754758
 42
0.0
 10
311.1881693272697
 20
413.4262363754758
 42
-0.2453357974242125
 10
310.4050247332441
 20
411.9262363754757
 42
0.0
 97
        0
 75
     0
 76
     0
 52
0.0
 41
0.1
 77
     0
 78
     1
 53
179.9999999999998
 43
570.7050247332424
 44
-100.0002762521648
 45
0.0000000000000003
 46
0.1
 79
     0
 47
0.0937308931428171
 98
        2
 10
310.7562719201869
 20
413.8710927169293
 10
310.6625069044121
 20
413.0275141874426
  0
LINE
  5
110C
102
{ACAD_REACTORS
330
13D7
102
}
330
1E
100
AcDbEntity
  8
STEMPEL
100
AcDbLine
 10
309.2050247332442
 20
413.4262363754759
 30
0.0
 11
309.2050247332442
 21
373.3738432439856
 31
0.0
  0
LINE
  5
110D
330
1E
100
AcDbEntity
  8
STEMPEL
100
AcDbLine
 10
310.4050247332441
 20
414.9262363754756
 30
0.0
 11
310.4050247332441
 21
373.4262363754757
 31
0.0
  0
LINE
  5
110E
330
1E
100
AcDbEntity
  8
STEMPEL
100
AcDbLine
 10
310.4050247332441
 20
373.4262363754757
 30
0.0
 11
311.2799113685034
 21
363.4262363754757
 31
0.0
  0
LINE
  5
110F
330
1E
100
AcDbEntity
  8
STEMPEL
100
AcDbLine
 10
309.2050247332442
 20
373.3738432439856
 30
0.0
 11
310.0753275634513
 21
363.4262363754756
 31
0.0
  0
LINE
  5
1110
330
1E
100
AcDbEntity
  8
STEMPEL
100
AcDbLine
 10
320.8811558719126
 20
413.4262363754758
 30
0.0
 11
319.163908229682
 21
403.6113266598597
 31
0.0
  0
ELLIPSE
  5
1111
330
1E
100
AcDbEntity
  8
STEMPEL
100
AcDbEllipse
 10
316.0109342209947
 20
405.4262363754758
 30
0.0
 11
0.0000000000000166
 21
6.0
 31
0.0
210
0.0
220
0.0
230
-1.0
 40
0.5513228499210167
 41
1.878094989772523
 42
2.965625447397827
  0
LINE
  5
1112
330
1E
100
AcDbEntity
  8
STEMPEL
100
AcDbLine
 10
321.8053417505266
 20
413.4262363754758
 30
0.0
 11
320.1286590132308
 21
403.6113266598597
 31
0.0
  0
ELLIPSE
  5
1113
330
1E
100
AcDbEntity
  8
STEMPEL
100
AcDbEllipse
 10
317.050164705536
 20
405.4262363754758
 30
0.0
 11
0.0000000000000166
 21
6.0
 31
0.0
210
0.0
220
0.0
230
-1.0
 40
0.5382994755134405
 41
1.878094989772521
 42
3.141592653589793
  0
LINE
  5
1114
330
1E
100
AcDbEntity
  8
STEMPEL
100
AcDbLine
 10
313.5061291521014
 20
413.4262363754758
 30
0.0
 11
314.4942467941084
 21
404.0262480703534
 31
0.0
  0
ELLIPSE
  5
1115
330
1E
100
AcDbEntity
  8
STEMPEL
100
AcDbEllipse
 10
317.050164705536
 20
405.4262363754758
 30
0.0
 11
0.0000000000000166
 21
6.0
 31
0.0
210
0.0
220
0.0
230
-1.0
 40
0.4380784772424609
 41
3.141592653589793
 42
4.476886748139611
  0
ARC
  5
1116
330
1E
100
AcDbEntity
  8
SCHRAFF
100
AcDbCircle
 10
338.4791934155935
 20
413.4262363754756
 30
0.0
 40
5.0
100
AcDbArc
 50
342.5423968762799
 51
17.45760312372013
  0
ARC
  5
1117
330
1E
100
AcDbEntity
  8
SCHRAFF
100
AcDbCircle
 10
333.4791934155935
 20
413.4262363754756
 30
0.0
 40
5.0
100
AcDbArc
 50
342.5423968762799
 51
17.45760312372013
  0
ARC
  5
1118
330
1E
100
AcDbEntity
  8
SCHRAFF
100
AcDbCircle
 10
318.4791934155935
 20
413.4262363754756
 30
0.0
 40
5.0
100
AcDbArc
 50
342.5423968762799
 51
17.45760312372013
  0
ARC
  5
1119
330
1E
100
AcDbEntity
  8
SCHRAFF
100
AcDbCircle
 10
323.4791934155935
 20
413.4262363754756
 30
0.0
 40
5.0
100
AcDbArc
 50
342.5423968762799
 51
17.45760312372013
  0
ARC
  5
111A
330
1E
100
AcDbEntity
  8
SCHRAFF
100
AcDbCircle
 10
328.4791934155935
 20
413.4262363754756
 30
0.0
 40
5.0
100
AcDbArc
 50
342.5423968762799
 51
17.45760312372013
  0
LINE
  5
111B
330
1E
100
AcDbEntity
  8
STEMPEL
100
AcDbLine
 10
351.5050247332442
 20
413.4262363754758
 30
0.0
 11
354.2318164729286
 21
403.7922025988903
 31
0.0
  0
LINE
  5
111C
330
1E
100
AcDbEntity
  8
STEMPEL
100
AcDbLine
 10
368.5050247332442
 20
413.4262363754758
 30
0.0
 11
365.7782329935599
 21
403.7922025988903
 31
0.0
  0
ARC
  5
111D
330
1E
100
AcDbEntity
  8
STEMPEL
100
AcDbCircle
 10
360.0050247332442
 20
405.4262363754758
 30
0.0
 40
6.0
100
AcDbArc
 50
195.8034962890204
 51
344.1965037109795
  0
ARC
  5
111E
330
1E
100
AcDbEntity
  8
SCHRAFF
100
AcDbCircle
 10
343.4791934155935
 20
413.4262363754756
 30
0.0
 40
5.0
100
AcDbArc
 50
342.5423968762799
 51
17.45760312372013
  0
ARC
  5
111F
330
1E
100
AcDbEntity
  8
SCHRAFF
100
AcDbCircle
 10
367.2081035829033
 20
413.4262363754756
 30
0.0
 40
5.0
100
AcDbArc
 50
342.5423968762799
 51
17.45760312372013
  0
ARC
  5
1120
330
1E
100
AcDbEntity
  8
SCHRAFF
100
AcDbCircle
 10
372.2081035829033
 20
413.4262363754756
 30
0.0
 40
5.0
100
AcDbArc
 50
342.5423968762799
 51
17.45760312372013
  0
ARC
  5
1121
330
1E
100
AcDbEntity
  8
SCHRAFF
100
AcDbCircle
 10
377.2081035829033
 20
413.4262363754756
 30
0.0
 40
5.0
100
AcDbArc
 50
342.5423968762799
 51
17.45760312372013
  0
ARC
  5
1122
330
1E
100
AcDbEntity
  8
SCHRAFF
100
AcDbCircle
 10
387.2081035829033
 20
413.4262363754756
 30
0.0
 40
5.0
100
AcDbArc
 50
342.5423968762799
 51
17.45760312372013
  0
ARC
  5
1123
330
1E
100
AcDbEntity
  8
SCHRAFF
100
AcDbCircle
 10
382.2081035829033
 20
413.4262363754756
 30
0.0
 40
5.0
100
AcDbArc
 50
342.5423968762799
 51
17.45760312372013
  0
ELLIPSE
  5
1124
330
1E
100
AcDbEntity
  8
STEMPEL
100
AcDbEllipse
 10
402.9598847609524
 20
405.4262363754757
 30
0.0
 11
0.0
 21
6.0
 31
0.0
210
0.0
220
0.0
230
1.0
 40
0.4380784772424609
 41
3.141592653589793
 42
4.476886748139611
  0
LINE
  5
1125
330
1E
100
AcDbEntity
  8
STEMPEL
100
AcDbLine
 10
406.5039203143869
 20
413.4262363754756
 30
0.0
 11
405.51580267238
 21
404.0262480703533
 31
0.0
  0
ELLIPSE
  5
1126
330
1E
100
AcDbEntity
  8
STEMPEL
100
AcDbEllipse
 10
402.9598847609524
 20
405.4262363754757
 30
0.0
 11
0.0
 21
6.0
 31
0.0
210
0.0
220
0.0
230
1.0
 40
0.5382994755134405
 41
1.878094989772521
 42
3.141592653589793
  0
LINE
  5
1127
330
1E
100
AcDbEntity
  8
STEMPEL
100
AcDbLine
 10
398.2047077159616
 20
413.4262363754758
 30
0.0
 11
399.8813904532574
 21
403.6113266598597
 31
0.0
  0
ELLIPSE
  5
1128
330
1E
100
AcDbEntity
  8
STEMPEL
100
AcDbEllipse
 10
403.9991152454936
 20
405.4262363754757
 30
0.0
 11
0.0
 21
6.0
 31
0.0
210
0.0
220
0.0
230
1.0
 40
0.5513228499210167
 41
1.878094989772523
 42
2.965625447397827
  0
LINE
  5
1129
330
1E
100
AcDbEntity
  8
STEMPEL
100
AcDbLine
 10
399.1288935945759
 20
413.4262363754758
 30
0.0
 11
400.8461412368062
 21
403.6113266598595
 31
0.0
  0
ARC
  5
112A
330
1E
100
AcDbEntity
  8
SCHRAFF
100
AcDbCircle
 10
392.2081035829033
 20
413.4262363754756
 30
0.0
 40
5.0
100
AcDbArc
 50
342.5423968762799
 51
17.45760312372013
  0
HATCH
  5
112B
330
1E
100
AcDbEntity
  8
SCHRAFF
100
AcDbHatch
 10
0.0
 20
0.0
 30
0.0
210
0.0
220
0.0
230
1.0
  2
_USER
 70
     0
 71
     0
 91
        2
 92
        7
 72
     1
 73
     1
 93
        3
 10
409.6050247332443
 20
414.926236375475
 42
0.2453357974240878
 10
408.8218801392188
 20
413.4262363754756
 42
0.0
 10
409.6050247332443
 20
413.4262363754756
 42
0.0
 97
        0
 92
        7
 72
     1
 73
     1
 93
        3
 10
409.6050247332443
 20
413.4262363754756
 42
0.0
 10
408.8218801392185
 20
413.4262363754756
 42
0.2453357974242125
 10
409.6050247332443
 20
411.9262363754756
 42
0.0
 97
        0
 75
     0
 76
     0
 52
0.0
 41
0.1
 77
     0
 78
     1
 53
0.0
 43
149.3050247332443
 44
-100.0002762521642
 45
0.0
 46
0.1
 79
     0
 47
0.0937308931428171
 98
        2
 10
409.2537775463013
 20
413.871092716929
 10
409.3475425620761
 20
413.0275141874424
  0
ARC
  5
112C
330
1E
100
AcDbEntity
  8
SCHRAFF
100
AcDbCircle
 10
410.6499687686971
 20
413.4262363754755
 30
0.0
 40
1.828088629478462
100
AcDbArc
 50
124.862201681931
 51
235.1377983180689
  0
LINE
  5
112D
330
1E
100
AcDbEntity
  8
STEMPEL
100
AcDbLine
 10
409.9347219030368
 20
363.4262363754756
 30
0.0
 11
310.0753275634513
 21
363.4262363754756
 31
0.0
  0
LINE
  5
112E
330
1E
100
AcDbEntity
  8
HILF
100
AcDbLine
 10
408.4004409281922
 20
373.4262363754757
 30
0.0
 11
311.6096085382961
 21
373.4262363754757
 31
0.0
  0
LINE
  5
112F
330
1E
100
AcDbEntity
  8
STEMPEL
100
AcDbLine
 10
409.6050247332443
 20
414.9262363754753
 30
0.0
 11
409.6050247332441
 21
373.4262363754755
 31
0.0
  0
LINE
  5
1130
102
{ACAD_REACTORS
330
13D7
102
}
330
1E
100
AcDbEntity
  8
STEMPEL
100
AcDbLine
 10
410.8050247332442
 20
413.4262363754756
 30
0.0
 11
410.8050247332442
 21
373.3738432439853
 31
0.0
  0
LINE
  5
1131
330
1E
100
AcDbEntity
  8
STEMPEL
100
AcDbLine
 10
410.8050247332442
 20
373.3738432439853
 30
0.0
 11
409.9347219030368
 21
363.4262363754756
 31
0.0
  0
LINE
  5
1132
330
1E
100
AcDbEntity
  8
STEMPEL
100
AcDbLine
 10
409.6050247332441
 20
373.4262363754755
 30
0.0
 11
408.730138097985
 21
363.4262363754755
 31
0.0
  0
HATCH
  5
1133
330
1E
100
AcDbEntity
  8
SCHRAFF
100
AcDbHatch
 10
0.0
 20
0.0
 30
0.0
210
0.0
220
0.0
230
1.0
  2
_USER
 70
     0
 71
     0
 91
        2
 92
        7
 72
     0
 73
     1
 93
        6
 10
410.8050247332442
 20
413.4262363754758
 10
409.6050247332443
 20
413.4262363754756
 10
409.6050247332441
 20
373.4262363754751
 10
408.7301380979847
 20
363.4262363754756
 10
409.9347219030368
 20
363.4262363754757
 10
410.8050247332442
 20
373.3738432439854
 97
        0
 92
        7
 72
     0
 73
     1
 93
        6
 10
309.2050247332442
 20
373.3738432439856
 10
310.0753275634513
 20
363.4262363754757
 10
311.2799113685034
 20
363.4262363754755
 10
310.4050247332441
 20
373.4262363754751
 10
310.4050247332441
 20
413.4262363754759
 10
309.2050247332442
 20
413.4262363754759
 97
        0
 75
     0
 76
     0
 52
45.0
 41
2.0
 77
     0
 78
     1
 53
45.0
 43
135.0050247332442
 44
-115.0002762521637
 45
-1.414213562373094
 46
1.414213562373095
 79
     0
 47
0.2802701113960166
 98
        2
 10
410.5297731584053
 20
403.6711304863752
 10
309.598093947207
 20
402.2697808043294
  0
HATCH
  5
1134
330
1E
100
AcDbEntity
  8
SCHRAFF
100
AcDbHatch
 10
0.0
 20
0.0
 30
0.0
210
0.0
220
0.0
230
1.0
  2
_USER
 70
     0
 71
     0
 91
        4
 92
        7
 72
     0
 73
     1
 93
        4
 10
421.0050247332442
 20
414.9262363754758
 10
421.0050247332442
 20
413.4262363754758
 10
495.0050247332439
 20
413.4262363754755
 10
495.0050247332439
 20
414.9262363754758
 97
        0
 92
        7
 72
     0
 73
     1
 93
        4
 10
421.0050247332442
 20
413.4262363754759
 10
421.0050247332442
 20
414.9262363754758
 10
409.6050247332443
 20
414.9262363754758
 10
409.6050247332443
 20
413.4262363754758
 97
        0
 92
        7
 72
     0
 73
     1
 93
        4
 10
310.4050247332441
 20
413.4262363754759
 10
310.4050247332441
 20
414.9262363754756
 10
238.0050247332442
 20
414.9262363754756
 10
238.0050247332442
 20
413.4262363754761
 97
        0
 92
        7
 72
     0
 73
     1
 93
        4
 10
238.0050247332442
 20
413.4262363754761
 10
238.0050247332442
 20
414.9262363754756
 10
225.0050247332442
 20
414.9262363754754
 10
225.0050247332442
 20
413.4262363754761
 97
        0
 75
     0
 76
     0
 52
135.0
 41
2.0
 77
     0
 78
     1
 53
135.0
 43
135.0050247332442
 44
-110.0002762521637
 45
-1.414213562373095
 46
-1.414213562373094
 79
     0
 47
0.2802701113960166
 98
        4
 10
455.1079324648906
 20
414.2765333639806
 10
413.6137971427863
 20
413.9962634275716
 10
301.7478510778733
 20
413.9962634275716
 10
232.7778712717607
 20
413.9962634275716
  0
LINE
  5
1135
330
1E
100
AcDbEntity
  8
STEMPEL
100
AcDbLine
 10
495.0050247332439
 20
414.9262363754757
 30
0.0
 11
495.0050247332439
 21
413.4262363754754
 31
0.0
  0
LINE
  5
1136
330
1E
100
AcDbEntity
  8
MITTEL
100
AcDbLine
 10
421.0050247332439
 20
408.4262363754758
 30
0.0
 11
421.0050247332439
 21
442.5262363754763
 31
0.0
  0
LINE
  5
1137
330
1E
100
AcDbEntity
  8
STEMPEL
100
AcDbLine
 10
427.7431358120732
 20
431.9930673169085
 30
0.0
 11
421.774777928704
 21
431.9930673169085
 31
0.0
  0
ARC
  5
1138
330
1E
100
AcDbEntity
  8
STEMPEL
100
AcDbCircle
 10
427.5550247332441
 20
431.4762363754762
 30
0.0
 40
0.5500000000000009
100
AcDbArc
 50
270.0
 51
69.99999999999629
  0
LINE
  5
1139
330
1E
100
AcDbEntity
  8
STEMPEL
100
AcDbLine
 10
427.7431358120732
 20
431.9930673169085
 30
0.0
 11
426.7785274251402
 21
432.3441560574756
 31
0.0
  0
LINE
  5
113A
330
1E
100
AcDbEntity
  8
STEMPEL
100
AcDbLine
 10
426.005024733244
 20
437.5262363754763
 30
0.0
 11
420.8628013273253
 21
437.5262363754763
 31
0.0
  0
LINE
  5
113B
330
1E
100
AcDbEntity
  8
STEMPEL
100
AcDbLine
 10
426.7785274251402
 20
437.3189769538393
 30
0.0
 11
426.7785274251402
 21
432.3441560574756
 31
0.0
  0
LINE
  5
113C
330
1E
100
AcDbEntity
  8
STEMPEL
100
AcDbLine
 10
423.8917760791921
 20
437.3189769538393
 30
0.0
 11
423.8917760791921
 21
432.3441560574756
 31
0.0
  0
LINE
  5
113D
330
1E
100
AcDbEntity
  8
STEMPEL
100
AcDbLine
 10
427.5550247332441
 20
430.9262363754762
 30
0.0
 11
422.50082440343
 21
430.9262363754762
 31
0.0
  0
ARC
  5
113E
330
1E
100
AcDbEntity
  8
STEMPEL
100
AcDbCircle
 10
425.3351517521662
 20
432.3966992369531
 30
0.0
 40
5.129537138523076
100
AcDbArc
 50
73.65710669401345
 51
106.3428933059865
  0
LINE
  5
113F
330
1E
100
AcDbEntity
  8
STEMPEL
100
AcDbLine
 10
426.005024733244
 20
437.5262363754763
 30
0.0
 11
426.7785274251402
 21
437.3189769538393
 31
0.0
  0
ARC
  5
1140
330
1E
100
AcDbEntity
  8
STEMPEL
100
AcDbCircle
 10
421.0050247332439
 20
417.3189769538394
 30
0.0
 40
20.20725942163691
100
AcDbArc
 50
81.7867892982638
 51
90.4032643920692
  0
ARC
  5
1141
330
1E
100
AcDbEntity
  8
HILF
100
AcDbCircle
 10
425.3351517521662
 20
428.7837630517716
 30
0.0
 40
3.841839622940954
100
AcDbArc
 50
67.9324721810082
 51
112.0675278189905
  0
ARC
  5
1142
330
1E
100
AcDbEntity
  8
HILF
100
AcDbCircle
 10
421.0050247332439
 20
417.68494434825
 30
0.0
 40
14.94074366520046
100
AcDbArc
 50
78.85962783889434
 51
88.16153752705751
  0
HATCH
  5
1143
330
1E
100
AcDbEntity
  8
SCHRAFF
100
AcDbHatch
 10
0.0
 20
0.0
 30
0.0
210
0.0
220
0.0
230
1.0
  2
ANSI31
 70
     0
 71
     0
 91
        5
 92
        7
 72
     1
 73
     1
 93
       39
 10
280.0050247332444
 20
519.9262363754759
 42
0.1316524975847141
 10
277.0050247332996
 20
519.1223887982138
 42
0.0
 10
252.9723301115345
 20
505.1033169355182
 42
0.2662608607102479
 10
250.0050247332442
 20
499.9261784081601
 42
0.0
 10
250.0050247332442
 20
494.9262363754759
 42
0.0
 10
251.0050247332443
 20
494.9262363754759
 42
0.0
 10
251.0050247332443
 20
499.9261784081604
 42
-0.2667503951500742
 10
253.4856711651174
 20
504.2450738223569
 42
0.0
 10
277.4645250580685
 20
518.2327269885421
 42
-0.1340385084111775
 10
280.0050247332444
 20
518.9262363754759
 42
0.0
 10
334.5655101381876
 20
518.9262363754754
 42
0.2679491924311568
 10
336.730573647649
 20
520.1762363754754
 42
-0.2679491924313146
 10
337.1635863495417
 20
520.4262363754752
 42
0.0
 10
337.3635863495417
 20
520.4262363754752
 42
-0.2679491924310819
 10
337.796599051434
 20
520.1762363754753
 42
0.2679491924311186
 10
339.9616625608951
 20
518.9262363754754
 42
0.0
 10
346.4155101381882
 20
518.9262363754754
 42
0.2679491924311333
 10
348.5805736476493
 20
520.1762363754753
 42
-0.2679491924311795
 10
349.0135863495416
 20
520.4262363754753
 42
0.0
 10
349.2135863495416
 20
520.4262363754753
 42
-0.3419987131196873
 10
349.6977092678176
 20
520.0512363754752
 42
0.359675761990544
 10
351.2444526189451
 20
518.9292081741465
 42
0.3596757619904921
 10
352.7911959700725
 20
520.0512363754752
 42
-0.3419987131195469
 10
353.2753188883483
 20
520.4262363754752
 42
0.0
 10
360.0050247332445
 20
520.4262363754752
 42
0.0
 10
360.0050247332445
 20
521.4262363754752
 42
0.0
 10
353.2753188883483
 20
521.4262363754752
 42
0.3419987131196276
 10
351.8229501335206
 20
520.3012363754752
 42
-0.3419987131196876
 10
351.3388272152444
 20
519.9262363754752
 42
0.0
 10
351.1500780226456
 20
519.9262363754752
 42
-0.3419987131196593
 10
350.6659551043697
 20
520.3012363754752
 42
0.3607372083888518
 10
349.1135863495417
 20
521.4228993301848
 42
0.2859076546238796
 10
347.714548243865
 20
520.6762363754752
 42
-0.2679491924311347
 10
346.4155101381882
 20
519.9262363754752
 42
0.0
 10
339.9616625608942
 20
519.9262363754752
 42
-0.2679491924310867
 10
338.6626244552176
 20
520.676236375475
 42
0.2859076546238621
 10
337.2635863495411
 20
521.4228993301849
 42
0.2859076546237983
 10
335.8645482438649
 20
520.6762363754752
 42
-0.267949192431112
 10
334.5655101381881
 20
519.9262363754754
 42
0.0
 97
        0
 92
        7
 72
     1
 73
     1
 93
        8
 10
250.0050247332439
 20
435.9262363754765
 42
-0.4142135623730736
 10
245.0050247332442
 20
430.9262363754765
 42
0.0
 10
242.0050247332441
 20
430.9262363754763
 42
0.0
 10
242.0050247332441
 20
429.9262363754762
 42
0.0
 10
245.005024733244
 20
429.9262363754762
 42
0.414213562373112
 10
251.005024733244
 20
435.9262363754765
 42
0.0
 10
251.0050247332441
 20
454.9262363754759
 42
0.0
 10
250.005024733244
 20
454.9262363754759
 42
0.0
 97
        0
 92
        7
 72
     0
 73
     1
 93
        4
 10
230.0050247332442
 20
430.9262363754761
 10
230.0050247332441
 20
429.9262363754762
 10
234.0050247332441
 20
429.9262363754762
 10
234.0050247332441
 20
430.9262363754762
 97
        0
 92
        7
 72
     1
 73
     1
 93
        8
 10
490.0050247332444
 20
429.926236375475
 42
0.0
 10
490.0050247332442
 20
430.926236375475
 42
0.0
 10
475.0050247332439
 20
430.9262363754754
 42
-0.4142135623730833
 10
470.0050247332439
 20
435.9262363754754
 42
0.0
 10
470.0050247332444
 20
454.9262363754748
 42
0.0
 10
469.005024733244
 20
454.926236375475
 42
0.0
 10
469.005024733244
 20
435.9262363754754
 42
0.4142135623731169
 10
475.0050247332439
 20
429.926236375475
 42
0.0
 97
        0
 92
        7
 72
     1
 73
     1
 93
       40
 10
385.2666625608951
 20
519.9262363754749
 42
-0.2679491924311478
 10
383.9676244552184
 20
520.6762363754752
 42
0.2859076546238744
 10
382.5685863495417
 20
521.4228993301847
 42
0.2859076546239183
 10
381.1695482438647
 20
520.676236375475
 42
-0.2679491924311158
 10
379.8705101381881
 20
519.9262363754749
 42
0.0
 10
377.8116625608955
 20
519.9262363754749
 42
-0.2679491924311457
 10
376.5126244552186
 20
520.6762363754752
 42
0.2859076546238805
 10
375.113586349542
 20
521.4228993301848
 42
0.2859076546238791
 10
373.7145482438652
 20
520.6762363754751
 42
-0.2679491924311259
 10
372.4155101381886
 20
519.9262363754751
 42
0.0
 10
365.9616625608944
 20
519.9262363754751
 42
-0.2679491924311028
 10
364.6626244552178
 20
520.676236375475
 42
0.2679491924311533
 10
363.3635863495413
 20
521.4262363754752
 42
0.0
 10
360.0050247332445
 20
521.4262363754752
 42
0.0
 10
360.0050247332445
 20
520.4262363754751
 42
0.0
 10
363.3635863495417
 20
520.4262363754752
 42
-0.267949192431122
 10
363.796599051434
 20
520.1762363754752
 42
0.267949192431119
 10
365.9616625608951
 20
518.9262363754752
 42
0.0
 10
372.4155101381886
 20
518.9262363754752
 42
0.2679491924311053
 10
374.5805736476498
 20
520.176236375475
 42
-0.2679491924310267
 10
375.0135863495416
 20
520.4262363754752
 42
0.0
 10
375.2135863495416
 20
520.4262363754752
 42
-0.2679491924311632
 10
375.6465990514339
 20
520.1762363754751
 42
0.2679491924311225
 10
377.811662560895
 20
518.9262363754752
 42
0.0
 10
379.8705101381877
 20
518.9262363754752
 42
0.2679491924311512
 10
382.035573647649
 20
520.1762363754752
 42
-0.2679491924312574
 10
382.4685863495415
 20
520.4262363754751
 42
0.0
 10
382.6685863495415
 20
520.4262363754751
 42
-0.2679491924311204
 10
383.1015990514338
 20
520.1762363754751
 42
0.2679491924311204
 10
385.2666625608949
 20
518.9262363754751
 42
0.0
 10
440.0050247332444
 20
518.9262363754748
 42
-0.1340385084113062
 10
442.5455244084202
 20
518.2327269885413
 42
0.0
 10
466.5243783013713
 20
504.2450738223557
 42
-0.2667503951500889
 10
469.0050247332444
 20
499.9261784081596
 42
0.0
 10
469.0050247332444
 20
494.9262363754749
 42
0.0
 10
470.0050247332444
 20
494.9262363754749
 42
0.0
 10
470.0050247332444
 20
499.9261784081594
 42
0.2662608607100668
 10
467.037719354958
 20
505.103316935515
 42
0.0
 10
443.0050247331666
 20
519.1223887982263
 42
0.1316524975835771
 10
440.0050247332444
 20
519.9262363754744
 42
0.0
 97
        0
 75
     0
 76
     1
 52
0.0
 41
20.0
 77
     0
 78
     1
 53
134.9999999999997
 43
598.4484962879173
 44
13.09988602696092
 45
1.767766952966376
 46
1.767766952966361
 79
     0
 47
0.2376111440341236
 98
        5
 10
297.8949470715183
 20
519.7210591583935
 10
250.2142327595267
 20
446.0567642799886
 10
231.6843568598574
 20
430.7088432484016
 10
483.132033835724
 20
430.2851029172751
 10
432.7137232383147
 20
519.6268954381261
  0
LINE
  5
1144
330
1E
100
AcDbEntity
  8
STEMPEL
100
AcDbLine
 10
440.0050247332444
 20
518.9262363754748
 30
0.0
 11
280.0050247332444
 21
518.9262363754759
 31
0.0
  0
LINE
  5
1145
330
1E
100
AcDbEntity
  8
STEMPEL
100
AcDbLine
 10
490.005024733244
 20
429.926236375475
 30
0.0
 11
230.005024733244
 21
429.9262363754762
 31
0.0
  0
LINE
  5
1146
330
1E
100
AcDbEntity
  8
HILF
100
AcDbLine
 10
257.6786916757138
 20
502.9262363754788
 30
0.0
 11
462.8313577907752
 21
502.9262363754776
 31
0.0
  0
LINE
  5
1147
330
1E
100
AcDbEntity
  8
STEMPEL
100
AcDbLine
 10
440.0050247332444
 20
519.9262363754744
 30
0.0
 11
385.2666625608951
 21
519.9262363754749
 31
0.0
  0
LINE
  5
1148
330
1E
100
AcDbEntity
  8
STEMPEL
100
AcDbLine
 10
469.0050247332444
 20
499.9261784081594
 30
0.0
 11
469.005024733244
 21
435.9262363754754
 31
0.0
  0
LINE
  5
1149
330
1E
100
AcDbEntity
  8
STEMPEL
100
AcDbLine
 10
470.0050247332444
 20
499.9261784081594
 30
0.0
 11
470.0050247332439
 21
435.9262363754754
 31
0.0
  0
ELLIPSE
  5
114A
330
1E
100
AcDbEntity
  8
STEMPEL
100
AcDbEllipse
 10
454.1780702399071
 20
462.4262363754768
 30
0.0
 11
-0.0000000000000334
 21
-7.499999999999999
 31
0.0
210
0.0
220
0.0
230
1.0
 40
0.4999999999999926
 41
4.712388980384689
 42
7.853981633974482
  0
ELLIPSE
  5
114B
330
1E
100
AcDbEntity
  8
STEMPEL
100
AcDbEllipse
 10
455.046134259596
 20
462.4262363754768
 30
0.0
 11
-0.0000000000000334
 21
-7.499999999999999
 31
0.0
210
0.0
220
0.0
230
1.0
 40
0.4999999999999926
 41
4.712388980384689
 42
6.167183451052224
  0
ELLIPSE
  5
114C
330
1E
100
AcDbEntity
  8
STEMPEL
100
AcDbEllipse
 10
455.0461342595963
 20
487.4262363754752
 30
0.0
 11
0.0000000000000334
 21
7.499999999999999
 31
0.0
210
0.0
220
0.0
230
-1.0
 40
0.4999999999999926
 41
4.712388980384689
 42
6.167183451052224
  0
ELLIPSE
  5
114D
330
1E
100
AcDbEntity
  8
STEMPEL
100
AcDbEllipse
 10
454.1780702399073
 20
487.4262363754752
 30
0.0
 11
0.0000000000000334
 21
7.499999999999999
 31
0.0
210
0.0
220
0.0
230
-1.0
 40
0.4999999999999926
 41
4.712388980384689
 42
7.853981633974482
  0
LWPOLYLINE
  5
114E
330
1E
100
AcDbEntity
  8
STEMPEL
100
AcDbPolyline
 90
       10
 70
   128
 43
0.0
 10
455.2050058509214
 20
429.9262363754751
 10
454.4472562258272
 20
430.0173898574018
 10
453.7125304396515
 20
430.2880806507597
 10
453.0231527636185
 20
430.7300839527685
 10
452.4000695895722
 20
431.3299697167614
 10
451.8622129844604
 20
432.0695107173561
 10
451.4259254490617
 20
432.9262363754755
 10
451.1044633593662
 20
433.8741155155214
 10
450.9075941783023
 20
434.884347309474
 10
450.8412996763156
 20
435.9262363754757
  0
LINE
  5
114F
330
1E
100
AcDbEntity
  8
STEMPEL
100
AcDbLine
 10
490.005024733244
 20
430.926236375475
 30
0.0
 11
475.0050247332439
 21
430.9262363754754
 31
0.0
  0
LINE
  5
1150
330
1E
100
AcDbEntity
  8
STEMPEL
100
AcDbLine
 10
490.0050247332442
 20
430.9262363754752
 30
0.0
 11
490.0050247332444
 21
429.926236375475
 31
0.0
  0
LWPOLYLINE
  5
1151
330
1E
100
AcDbEntity
  8
STEMPEL
100
AcDbPolyline
 90
       18
 70
   128
 43
0.0
 10
-468.7953374922087
 20
442.4262363754731
 10
-468.7786690687321
 20
443.8043577590978
 10
-468.7292314214716
 20
445.1355488718774
 10
-468.6487080902113
 20
446.3744775970542
 10
-468.5398412004194
 20
447.4789537028235
 10
-468.4063380834572
 20
448.4113655800763
 10
-468.2527450278533
 20
449.1399610606375
 10
-468.0842924609012
 20
449.6399286992708
 10
-467.9067168327321
 20
449.8942426976876
 10
-467.7260652683851
 20
449.8942426976876
 10
-467.548489640216
 20
449.6399286992708
 10
-467.380037073264
 20
449.1399610606375
 10
-467.22644401766
 20
448.4113655800763
 10
-467.0929409006978
 20
447.4789537028235
 10
-466.9840740109059
 20
446.3744775970542
 10
-466.9035506796456
 20
445.1355488718774
 10
-466.8541130323851
 20
443.8043577590978
 10
-466.8374446089085
 20
442.4262363754731
210
0.0
220
0.0
230
-1.0
  0
LWPOLYLINE
  5
1152
330
1E
100
AcDbEntity
  8
STEMPEL
100
AcDbPolyline
 90
        9
 70
   128
 43
0.0
 10
-460.9322517709881
 20
449.8279946201384
 10
-460.4431912277193
 20
449.501561722381
 10
-459.9835782598185
 20
448.9562927091237
 10
-459.5676284561943
 20
448.2090524659958
 10
-459.2082069269026
 20
447.2829527432183
 10
-458.9164303920151
 20
446.2066373212479
 10
-458.7013233472768
 20
445.0133960736171
 10
-458.5695389411696
 20
443.7401353285411
 10
-458.5251531965048
 20
442.4262363754748
210
0.0
220
0.0
230
-1.0
  0
LWPOLYLINE
  5
1153
330
1E
100
AcDbEntity
  8
STEMPEL
100
AcDbPolyline
 90
       18
 70
   128
 43
0.0
 10
-463.3393503454751
 20
442.4262363754733
 10
-463.2904810005586
 20
443.8043577590978
 10
-463.1455371527388
 20
445.1355488718775
 10
-462.9094546909116
 20
446.3744775970543
 10
-462.5902731201647
 20
447.4789537028235
 10
-462.1988617860745
 20
448.4113655800764
 10
-461.7485497321765
 20
449.1399610606377
 10
-461.2546717953771
 20
449.6399286992709
 10
-460.7340463964722
 20
449.8942426976876
 10
-460.2044028090001
 20
449.8942426976876
 10
-459.6837774100952
 20
449.6399286992709
 10
-459.1898994732957
 20
449.1399610606377
 10
-458.7395874193978
 20
448.4113655800764
 10
-458.3481760853076
 20
447.4789537028235
 10
-458.0289945145607
 20
446.3744775970543
 10
-457.7929120527335
 20
445.1355488718775
 10
-457.6479682049137
 20
443.8043577590978
 10
-457.5990988599971
 20
442.4262363754733
210
0.0
220
0.0
230
-1.0
  0
ARC
  5
1154
330
1E
100
AcDbEntity
  8
STEMPEL
100
AcDbCircle
 10
475.0050247332439
 20
435.9262363754754
 30
0.0
 40
6.0
100
AcDbArc
 50
180.0
 51
270.0
  0
ARC
  5
1155
330
1E
100
AcDbEntity
  8
STEMPEL
100
AcDbCircle
 10
475.0050247332439
 20
435.9262363754754
 30
0.0
 40
5.0
100
AcDbArc
 50
180.0
 51
270.0
  0
LWPOLYLINE
  5
1156
330
1E
100
AcDbEntity
  8
STEMPEL
100
AcDbPolyline
 90
       10
 70
   128
 43
0.0
 10
474.3013262232396
 20
429.9262363754762
 10
473.4432532269668
 20
429.9923635900488
 10
472.5904410273444
 20
430.2449173397791
 10
471.7696827204274
 20
430.6759630560966
 10
471.0067643540285
 20
431.2719584265365
 10
470.3256547985295
 20
432.0141788582572
 10
469.7477527085836
 20
432.8793057550545
 10
469.2912142341774
 20
433.8401591257706
 10
468.97038260258
 20
434.8665515074828
 10
468.7953374922087
 20
435.9262363754754
  0
LWPOLYLINE
  5
1157
330
1E
100
AcDbEntity
  8
STEMPEL
100
AcDbPolyline
 90
       10
 70
   128
 43
0.0
 10
472.343433339939
 20
429.926236375475
 10
471.4853603436663
 20
429.9923635900476
 10
470.6325481440442
 20
430.2449173397779
 10
469.8117898371272
 20
430.6759630560955
 10
469.0488714707282
 20
431.2719584265354
 10
468.3677619152287
 20
432.014178858256
 10
467.7898598252832
 20
432.8793057550534
 10
467.333321350877
 20
433.8401591257695
 10
467.0124897192793
 20
434.8665515074817
 10
466.8374446089083
 20
435.9262363754743
  0
LINE
  5
1158
330
1E
100
AcDbEntity
  8
STEMPEL
100
AcDbLine
 10
471.4157966758794
 20
430.926236375475
 30
0.0
 11
470.4516825061166
 21
430.926236375475
 31
0.0
  0
LINE
  5
1159
330
1E
100
AcDbEntity
  8
STEMPEL
100
AcDbLine
 10
465.4929219781435
 20
430.926236375475
 30
0.0
 11
460.6787248291721
 21
430.9262363754751
 31
0.0
  0
LWPOLYLINE
  5
115A
330
1E
100
AcDbEntity
  8
STEMPEL
100
AcDbPolyline
 90
       10
 70
   128
 43
0.0
 10
462.414463386571
 20
429.9262363754751
 10
461.5782841117295
 20
430.0173898574018
 10
460.7675117210269
 20
430.2880806507597
 10
460.0067811232841
 20
430.7300839527685
 10
459.3192067327652
 20
431.3299697167614
 10
458.725680149397
 20
432.0695107173561
 10
458.2442353780757
 20
432.9262363754753
 10
457.8895008745553
 20
433.8741155155213
 10
457.6722550672212
 20
434.8843473094738
 10
457.5990988599971
 20
435.9262363754756
  0
LINE
  5
115B
330
1E
100
AcDbEntity
  8
STEMPEL
100
AcDbLine
 10
466.8374446089085
 20
442.4262363754731
 30
0.0
 11
466.8374446089083
 21
435.9262363754743
 31
0.0
  0
LINE
  5
115C
330
1E
100
AcDbEntity
  8
STEMPEL
100
AcDbLine
 10
467.8312233224462
 20
442.4262363754731
 30
0.0
 11
467.8312233224462
 21
435.9262363754754
 31
0.0
  0
LINE
  5
115D
330
1E
100
AcDbEntity
  8
STEMPEL
100
AcDbLine
 10
468.7953374922087
 20
442.4262363754731
 30
0.0
 11
468.7953374922087
 21
435.9262363754754
 31
0.0
  0
LINE
  5
115E
330
1E
100
AcDbEntity
  8
STEMPEL
100
AcDbLine
 10
463.3393503454751
 20
442.4262363754733
 30
0.0
 11
463.3393503454749
 21
435.9262363754766
 31
0.0
  0
LWPOLYLINE
  5
115F
330
1E
100
AcDbEntity
  8
STEMPEL
100
AcDbPolyline
 90
       10
 70
   128
 43
0.0
 10
468.154714872049
 20
429.926236375475
 10
467.3185355972073
 20
430.0173898574017
 10
466.5077632065047
 20
430.2880806507596
 10
465.7470326087618
 20
430.7300839527685
 10
465.0594582182431
 20
431.3299697167613
 10
464.4659316348745
 20
432.0695107173561
 10
463.9844868635534
 20
432.9262363754753
 10
463.629752360033
 20
433.8741155155213
 10
463.4125065526989
 20
434.8843473094738
 10
463.3393503454749
 20
435.9262363754756
  0
LWPOLYLINE
  5
1160
330
1E
100
AcDbEntity
  8
STEMPEL
100
AcDbPolyline
 90
        7
 70
   128
 43
0.0
 10
470.4516825061171
 20
430.9262363754754
 10
469.7749806310396
 20
431.5358371033345
 10
469.1754312074055
 20
432.2633961872462
 10
468.6691425342558
 20
433.0893660489264
 10
468.2697172422104
 20
433.9915550741294
 10
467.9878868269475
 20
434.9457238423232
 10
467.831223322446
 20
435.9262363754754
  0
LWPOLYLINE
  5
1161
330
1E
100
AcDbEntity
  8
STEMPEL
100
AcDbPolyline
 90
        7
 70
   128
 43
0.0
 10
-468.3132804073277
 20
448.888290431313
 10
-468.1754513977573
 20
448.1361841943745
 10
-468.0565871207911
 20
447.2134705836597
 10
-467.96023911889
 20
446.1477193337555
 10
-467.8892861713518
 20
444.9707739969343
 10
-467.8458482793439
 20
443.7178004905326
 10
-467.8312233224462
 20
442.4262363754731
210
0.0
220
0.0
230
-1.0
  0
LINE
  5
1162
330
1E
100
AcDbEntity
  8
STEMPEL
100
AcDbLine
 10
458.5251531965045
 20
442.4262363754733
 30
0.0
 11
458.5251531965043
 21
435.9262363754766
 31
0.0
  0
LINE
  5
1163
330
1E
100
AcDbEntity
  8
STEMPEL
100
AcDbLine
 10
457.5990988599971
 20
442.4262363754733
 30
0.0
 11
457.5990988599971
 21
435.9262363754766
 31
0.0
  0
LWPOLYLINE
  5
1164
330
1E
100
AcDbEntity
  8
STEMPEL
100
AcDbPolyline
 90
        7
 70
   128
 43
0.0
 10
460.6787248291732
 20
430.9262363754751
 10
460.0586343061088
 20
431.5355742773159
 10
459.5268141593253
 20
432.2630045506051
 10
459.097568359594
 20
433.0889620445488
 10
458.7824420117967
 20
433.9912315950112
 10
458.589910834831
 20
434.9455455292544
 10
458.5251531965045
 20
435.9262363754756
  0
LINE
  5
1165
330
1E
100
AcDbEntity
  8
STEMPEL
100
AcDbLine
 10
457.9280702399073
 20
487.4262363754752
 30
0.0
 11
457.9280702399071
 21
462.4262363754784
 31
0.0
  0
LINE
  5
1166
330
1E
100
AcDbEntity
  8
STEMPEL
100
AcDbLine
 10
470.0050247332444
 20
454.9262363754748
 30
0.0
 11
469.0050247332444
 21
454.9262363754748
 31
0.0
  0
LINE
  5
1167
330
1E
100
AcDbEntity
  8
STEMPEL
100
AcDbLine
 10
470.0050247332444
 20
494.9262363754749
 30
0.0
 11
469.0050247332444
 21
494.9262363754749
 31
0.0
  0
LWPOLYLINE
  5
1168
330
1E
100
AcDbEntity
  8
STEMPEL
100
AcDbPolyline
 90
       18
 70
   128
 43
0.0
 10
-432.152906983832
 20
442.4262363754734
 10
-432.0515943720277
 20
443.804357759098
 10
-431.7511066160984
 20
445.1355488718776
 10
-431.2616764661773
 20
446.3744775970543
 10
-430.5999708790129
 20
447.4789537028236
 10
-429.7885234447478
 20
448.4113655800764
 10
-428.8549670325322
 20
449.1399610606378
 10
-427.831092786306
 20
449.639928699271
 10
-426.7517675155231
 20
449.8942426976878
 10
-425.653746347772
 20
449.8942426976879
 10
-424.5744210769892
 20
449.639928699271
 10
-423.550546830763
 20
449.1399610606378
 10
-422.6169904185473
 20
448.4113655800765
 10
-421.8055429842823
 20
447.4789537028238
 10
-421.1438373971179
 20
446.3744775970544
 10
-420.6544072471968
 20
445.1355488718776
 10
-420.3539194912675
 20
443.804357759098
 10
-420.2526068794631
 20
442.4262363754734
210
0.0
220
0.0
230
-1.0
  0
LWPOLYLINE
  5
1169
330
1E
100
AcDbEntity
  8
STEMPEL
100
AcDbPolyline
 90
        9
 70
   128
 43
0.0
 10
-426.5078541555669
 20
449.9163704532971
 10
-425.3914464341958
 20
449.7090633168901
 10
-424.3261671824536
 20
449.2398085894363
 10
-423.3503321994153
 20
448.5254843522676
 10
-422.4990401665575
 20
447.5917833088714
 10
-421.8029102238208
 20
446.4722886737109
 10
-421.2869806651294
 20
445.2072662563722
 10
-420.9698083649136
 20
443.8422161871629
 10
-420.8628013273255
 20
442.426236375475
210
0.0
220
0.0
230
-1.0
  0
LWPOLYLINE
  5
116A
330
1E
100
AcDbEntity
  8
STEMPEL
100
AcDbPolyline
 90
       10
 70
   128
 43
0.0
 10
423.915210014987
 20
429.9262363754752
 10
423.2792056549863
 20
430.017389857402
 10
422.66252596563
 20
430.2880806507598
 10
422.083908447225
 20
430.7300839527687
 10
421.560934100273
 20
431.3299697167614
 10
421.1094932356686
 20
432.0695107173562
 10
420.7433026556425
 20
432.9262363754755
 10
420.4734888756677
 20
433.8741155155215
 10
420.308250050916
 20
434.884347309474
 10
420.252606879463
 20
435.9262363754757
  0
LWPOLYLINE
  5
116B
330
1E
100
AcDbEntity
  8
STEMPEL
100
AcDbPolyline
 90
        7
 70
   128
 43
0.0
 10
422.5008244034306
 20
430.9262363754752
 10
422.0291788028637
 20
431.5355742773162
 10
421.6246723264809
 20
432.2630045506054
 10
421.2981846839918
 20
433.088962044549
 10
421.0584971705836
 20
433.9912315950113
 10
420.9120564829577
 20
434.9455455292546
 10
420.8628013273253
 20
435.9262363754757
  0
LWPOLYLINE
  5
116C
330
1E
100
AcDbEntity
  8
STEMPEL
100
AcDbPolyline
 90
       18
 70
   128
 43
0.0
 10
-450.8412996763154
 20
442.4262363754734
 10
-450.7635597750552
 20
443.8043577590979
 10
-450.5329874103733
 20
445.1355488718776
 10
-450.1574344476082
 20
446.3744775970543
 10
-449.6496898924806
 20
447.4789537028235
 10
-449.0270443768427
 20
448.4113655800764
 10
-448.3107013469487
 20
449.1399610606378
 10
-447.5250550055227
 20
449.639928699271
 10
-446.6968595964433
 20
449.8942426976876
 10
-445.8543183210556
 20
449.8942426976876
 10
-445.0261229119762
 20
449.639928699271
 10
-444.2404765705503
 20
449.1399610606378
 10
-443.5241335406563
 20
448.4113655800764
 10
-442.9014880250183
 20
447.4789537028235
 10
-442.3937434698907
 20
446.3744775970543
 10
-442.0181905071256
 20
445.1355488718776
 10
-441.7876181424437
 20
443.8043577590979
 10
-441.7098782411835
 20
442.4262363754734
210
0.0
220
0.0
230
-1.0
  0
LWPOLYLINE
  5
116D
330
1E
100
AcDbEntity
  8
STEMPEL
100
AcDbPolyline
 90
       10
 70
   128
 43
0.0
 10
-447.0708098455705
 20
449.9262363754765
 10
-446.2779824997108
 20
449.812294523068
 10
-445.5092448115649
 20
449.4739310313707
 10
-444.7879544867876
 20
448.9214269038597
 10
-444.136027566906
 20
448.1715696988684
 10
-443.5732725214904
 20
447.247143448125
 10
-443.1167883778273
 20
446.1762363754757
 10
-442.7804451756307
 20
444.991387450418
 10
-442.5744625329005
 20
443.7285977079771
 10
-442.5050991280045
 20
442.426236375475
210
0.0
220
0.0
230
-1.0
  0
LWPOLYLINE
  5
116E
330
1E
100
AcDbEntity
  8
STEMPEL
100
AcDbPolyline
 90
       10
 70
   128
 43
0.0
 10
446.0735844157896
 20
429.9262363754752
 10
445.3158347906954
 20
430.017389857402
 10
444.5811090045197
 20
430.2880806507597
 10
443.8917313284867
 20
430.7300839527686
 10
443.2686481544403
 20
431.3299697167614
 10
442.7307915493286
 20
432.0695107173561
 10
442.2945040139297
 20
432.9262363754755
 10
441.9730419242344
 20
433.8741155155214
 10
441.7761727431704
 20
434.884347309474
 10
441.7098782411837
 20
435.9262363754757
  0
LINE
  5
116F
330
1E
100
AcDbEntity
  8
STEMPEL
100
AcDbLine
 10
452.7928765048338
 20
430.9262363754751
 30
0.0
 11
444.456675956522
 21
430.9262363754752
 31
0.0
  0
LINE
  5
1170
330
1E
100
AcDbEntity
  8
STEMPEL
100
AcDbLine
 10
450.8412996763156
 20
442.4262363754734
 30
0.0
 11
450.8412996763154
 21
435.9262363754768
 31
0.0
  0
LINE
  5
1171
330
1E
100
AcDbEntity
  8
STEMPEL
100
AcDbLine
 10
442.5050991280043
 20
442.4262363754734
 30
0.0
 11
442.5050991280043
 21
435.9262363754768
 31
0.0
  0
LINE
  5
1172
330
1E
100
AcDbEntity
  8
STEMPEL
100
AcDbLine
 10
441.7098782411837
 20
442.4262363754734
 30
0.0
 11
441.7098782411835
 21
435.9262363754768
 31
0.0
  0
LWPOLYLINE
  5
1173
330
1E
100
AcDbEntity
  8
STEMPEL
100
AcDbPolyline
 90
        7
 70
   128
 43
0.0
 10
444.4566759565225
 20
430.9262363754752
 10
443.8947469832585
 20
431.5355742773159
 10
443.4128090436713
 20
432.2630045506054
 10
443.0238244639215
 20
433.088962044549
 10
442.7382554728149
 20
433.9912315950113
 10
442.5637828070192
 20
434.9455455292544
 10
442.5050991280043
 20
435.9262363754757
  0
LINE
  5
1174
330
1E
100
AcDbEntity
  8
STEMPEL
100
AcDbLine
 10
433.7909300599371
 20
430.9262363754752
 30
0.0
 11
422.50082440343
 21
430.9262363754752
 31
0.0
  0
LINE
  5
1175
330
1E
100
AcDbEntity
  8
STEMPEL
100
AcDbLine
 10
432.1529069838318
 20
442.4262363754734
 30
0.0
 11
432.1529069838318
 21
435.9262363754768
 31
0.0
  0
LWPOLYLINE
  5
1176
330
1E
100
AcDbEntity
  8
STEMPEL
100
AcDbPolyline
 90
       10
 70
   128
 43
0.0
 10
435.8155101193558
 20
429.9262363754752
 10
435.1795057593551
 20
430.017389857402
 10
434.5628260699989
 20
430.2880806507597
 10
433.9842085515938
 20
430.7300839527687
 10
433.4612342046418
 20
431.3299697167614
 10
433.0097933400375
 20
432.0695107173561
 10
432.6436027600114
 20
432.9262363754755
 10
432.3737889800366
 20
433.8741155155215
 10
432.2085501552849
 20
434.884347309474
 10
432.1529069838318
 20
435.9262363754757
  0
LINE
  5
1177
330
1E
100
AcDbEntity
  8
STEMPEL
100
AcDbLine
 10
450.4280702399076
 20
487.4262363754753
 30
0.0
 11
450.4280702399073
 21
462.4262363754769
 31
0.0
  0
LINE
  5
1178
330
1E
100
AcDbEntity
  8
STEMPEL
100
AcDbLine
 10
451.2961342595961
 20
462.4262363754753
 30
0.0
 11
451.2961342595963
 21
487.4262363754769
 31
0.0
  0
LWPOLYLINE
  5
1179
330
1E
100
AcDbEntity
  8
STEMPEL
100
AcDbPolyline
 90
       18
 70
   128
 43
0.0
 10
-408.5477553459818
 20
442.4262363754735
 10
-408.4297743107006
 20
443.804357759098
 10
-408.0798489075111
 20
445.1355488718777
 10
-407.5098954263292
 20
446.3744775970545
 10
-406.7393229493732
 20
447.4789537028238
 10
-405.7943723981456
 20
448.4113655800767
 10
-404.7072229303255
 20
449.1399610606379
 10
-403.5148961171473
 20
449.6399286992711
 10
-402.2579952181956
 20
449.8942426976879
 10
-400.979322486097
 20
449.8942426976879
 10
-399.7224215871454
 20
449.6399286992713
 10
-398.5300947739672
 20
449.139961060638
 10
-397.4429453061471
 20
448.4113655800767
 10
-396.4979947549196
 20
447.4789537028238
 10
-395.7274222779636
 20
446.3744775970545
 10
-395.1574687967816
 20
445.1355488718778
 10
-394.8075433935922
 20
443.8043577590981
 10
-394.6895623583109
 20
442.4262363754736
210
0.0
220
0.0
230
-1.0
  0
LWPOLYLINE
  5
117A
330
1E
100
AcDbEntity
  8
STEMPEL
100
AcDbPolyline
 90
        9
 70
   128
 43
0.0
 10
-401.8104509849584
 20
449.9233627985137
 10
-400.4862415346285
 20
449.744529891466
 10
-399.2182621374425
 20
449.2942539741417
 10
-398.0535434493568
 20
448.5892362420026
 10
-397.03528608075
 20
447.6556265256191
 10
-396.201258241488
 20
446.528053366643
 10
-395.5823948792938
 20
445.2483396096912
 10
-395.2016502708198
 20
443.8639511501556
 10
-395.0731466239879
 20
442.4262363754752
210
0.0
220
0.0
230
-1.0
  0
LINE
  5
117B
330
1E
100
AcDbEntity
  8
STEMPEL
100
AcDbLine
 10
409.7652667787108
 20
430.9262363754753
 30
0.0
 11
396.2906580567164
 21
430.9262363754754
 31
0.0
  0
LINE
  5
117C
330
1E
100
AcDbEntity
  8
STEMPEL
100
AcDbLine
 10
420.8628013273253
 20
442.4262363754734
 30
0.0
 11
420.8628013273253
 21
435.9262363754768
 31
0.0
  0
LINE
  5
117D
330
1E
100
AcDbEntity
  8
STEMPEL
100
AcDbLine
 10
420.252606879463
 20
442.4262363754734
 30
0.0
 11
420.252606879463
 21
435.9262363754768
 31
0.0
  0
LINE
  5
117E
330
1E
100
AcDbEntity
  8
STEMPEL
100
AcDbLine
 10
408.5477553459818
 20
442.4262363754735
 30
0.0
 11
408.5477553459815
 21
435.9262363754769
 31
0.0
  0
LWPOLYLINE
  5
117F
330
1E
100
AcDbEntity
  8
STEMPEL
100
AcDbPolyline
 90
       10
 70
   128
 43
0.0
 10
411.2700986731908
 20
429.9262363754754
 10
410.7973687154371
 20
430.0173898574021
 10
410.3390024182369
 20
430.28808065076
 10
409.9089270095862
 20
430.7300839527687
 10
409.5202101131478
 20
431.3299697167616
 10
409.1846626951203
 20
432.0695107173563
 10
408.9124801940047
 20
432.9262363754756
 10
408.7119327373666
 20
433.8741155155215
 10
408.5891138581941
 20
434.8843473094741
 10
408.5477553459815
 20
435.9262363754758
  0
LWPOLYLINE
  5
1180
330
1E
100
AcDbEntity
  8
STEMPEL
100
AcDbPolyline
 90
       10
 70
   128
 43
0.0
 10
397.4119056855199
 20
429.9262363754754
 10
396.9391757277663
 20
430.0173898574022
 10
396.4808094305661
 20
430.28808065076
 10
396.0507340219153
 20
430.7300839527688
 10
395.6620171254769
 20
431.3299697167616
 10
395.3264697074494
 20
432.0695107173563
 10
395.0542872063338
 20
432.9262363754756
 10
394.8537397496957
 20
433.8741155155217
 10
394.7309208705233
 20
434.8843473094742
 10
394.6895623583107
 20
435.9262363754758
  0
LINE
  5
1181
330
1E
100
AcDbEntity
  8
STEMPEL
100
AcDbLine
 10
395.0731466239879
 20
442.4262363754736
 30
0.0
 11
395.0731466239879
 21
435.926236375477
 31
0.0
  0
LINE
  5
1182
330
1E
100
AcDbEntity
  8
STEMPEL
100
AcDbLine
 10
394.6895623583109
 20
442.426236375472
 30
0.0
 11
394.6895623583107
 21
435.926236375477
 31
0.0
  0
LWPOLYLINE
  5
1183
330
1E
100
AcDbEntity
  8
STEMPEL
100
AcDbPolyline
 90
        7
 70
   128
 43
0.0
 10
396.2906580567169
 20
430.9262363754754
 10
395.9400928423049
 20
431.5355742773162
 10
395.6394308633662
 20
432.2630045506055
 10
395.3967588014316
 20
433.0889620445492
 10
395.2186036263831
 20
433.9912315950114
 10
395.1097570454026
 20
434.9455455292546
 10
395.0731466239879
 20
435.9262363754758
  0
LINE
  5
1184
330
1E
100
AcDbEntity
  8
STEMPEL
100
AcDbLine
 10
407.8806673785404
 20
487.4262363754755
 30
0.0
 11
407.8806673785404
 21
462.4262363754755
 31
0.0
  0
LINE
  5
1185
330
1E
100
AcDbEntity
  8
STEMPEL
100
AcDbLine
 10
420.8710484353064
 20
487.4262363754755
 30
0.0
 11
420.8710484353061
 21
462.4262363754771
 31
0.0
  0
LINE
  5
1186
330
1E
100
AcDbEntity
  8
STEMPEL
100
AcDbLine
 10
408.3818443739826
 20
487.4262363754755
 30
0.0
 11
408.3818443739826
 21
462.4262363754755
 31
0.0
  0
ELLIPSE
  5
1187
330
1E
100
AcDbEntity
  8
STEMPEL
100
AcDbEllipse
 10
414.3758579069233
 20
462.4262363754755
 30
0.0
 11
-0.0000000000000334
 21
-7.5
 31
0.0
210
0.0
220
0.0
230
1.0
 40
0.8660254037843856
 41
4.712388980384689
 42
7.853981633974482
  0
ELLIPSE
  5
1188
330
1E
100
AcDbEntity
  8
STEMPEL
100
AcDbEllipse
 10
414.8770349023655
 20
462.4262363754755
 30
0.0
 11
-0.0000000000000334
 21
-7.5
 31
0.0
210
0.0
220
0.0
230
1.0
 40
0.8660254037843856
 41
4.712388980384689
 42
6.24459510668465
  0
ELLIPSE
  5
1189
330
1E
100
AcDbEntity
  8
STEMPEL
100
AcDbEllipse
 10
414.3758579069235
 20
487.4262363754755
 30
0.0
 11
0.0000000000000334
 21
7.5
 31
0.0
210
0.0
220
0.0
230
-1.0
 40
0.8660254037843856
 41
4.712388980384689
 42
7.853981633974482
  0
ELLIPSE
  5
118A
330
1E
100
AcDbEntity
  8
STEMPEL
100
AcDbEllipse
 10
414.8770349023655
 20
487.4262363754755
 30
0.0
 11
0.0000000000000334
 21
7.5
 31
0.0
210
0.0
220
0.0
230
-1.0
 40
0.8660254037843856
 41
4.712388980384689
 42
6.24459510668465
  0
LINE
  5
118B
330
1E
100
AcDbEntity
  8
STEMPEL
100
AcDbLine
 10
466.5243783013713
 20
504.2450738223557
 30
0.0
 11
442.5455244084202
 21
518.2327269885413
 31
0.0
  0
LINE
  5
118C
330
1E
100
AcDbEntity
  8
STEMPEL
100
AcDbLine
 10
467.0377193549523
 20
505.1033169355183
 30
0.0
 11
443.0514164794856
 21
519.0953269462069
 31
0.0
  0
ARC
  5
118D
330
1E
100
AcDbEntity
  8
STEMPEL
100
AcDbCircle
 10
464.0050247332444
 20
499.9261784081595
 30
0.0
 40
6.0
100
AcDbArc
 50
0.0
 51
59.74358352518112
  0
ARC
  5
118E
330
1E
100
AcDbEntity
  8
STEMPEL
100
AcDbCircle
 10
469.5161683375561
 20
509.4460733579368
 30
0.0
 40
5.0
100
AcDbArc
 50
239.7435628364712
 51
239.9329541615156
  0
ARC
  5
118F
330
1E
100
AcDbEntity
  8
STEMPEL
100
AcDbCircle
 10
464.0050247332444
 20
499.9261784081595
 30
0.0
 40
5.0
100
AcDbArc
 50
0.0
 51
59.74358352518112
  0
ARC
  5
1190
330
1E
100
AcDbEntity
  8
STEMPEL
100
AcDbCircle
 10
440.0050247332444
 20
513.9262363754747
 30
0.0
 40
5.0
100
AcDbArc
 50
59.46264995170093
 51
90.0
  0
ARC
  5
1191
330
1E
100
AcDbEntity
  8
STEMPEL
100
AcDbCircle
 10
440.0050247332444
 20
513.9262363754747
 30
0.0
 40
6.0
100
AcDbArc
 50
59.48712567237889
 51
90.0
  0
ARC
  5
1192
330
1E
100
AcDbEntity
  8
STEMPEL
100
AcDbCircle
 10
440.0050247332444
 20
513.9262363754747
 30
0.0
 40
6.0
100
AcDbArc
 50
90.0
 51
90.0
  0
LWPOLYLINE
  5
1193
330
1E
100
AcDbEntity
  8
STEMPEL
100
AcDbPolyline
 90
       18
 70
   128
 43
0.0
 10
256.6706991210132
 20
442.4262363754742
 10
256.7195684659294
 20
443.8043577590986
 10
256.8645123137495
 20
445.1355488718784
 10
257.1005947755767
 20
446.3744775970552
 10
257.4197763463234
 20
447.4789537028244
 10
257.8111876804138
 20
448.4113655800773
 10
258.2614997343118
 20
449.1399610606386
 10
258.7553776711112
 20
449.6399286992718
 10
259.2760030700162
 20
449.8942426976886
 10
259.805646657488
 20
449.8942426976886
 10
260.3262720563929
 20
449.6399286992718
 10
260.8201499931923
 20
449.1399610606385
 10
261.2704620470903
 20
448.4113655800772
 10
261.6618733811807
 20
447.4789537028244
 10
261.9810549519274
 20
446.3744775970551
 10
262.2171374137546
 20
445.1355488718783
 10
262.3620812615746
 20
443.8043577590986
 10
262.4109506064909
 20
442.4262363754741
  0
LINE
  5
1194
330
1E
100
AcDbEntity
  8
STEMPEL
100
AcDbLine
 10
254.5171274883445
 20
430.926236375476
 30
0.0
 11
259.3313246373159
 21
430.926236375476
 31
0.0
  0
LINE
  5
1195
330
1E
100
AcDbEntity
  8
STEMPEL
100
AcDbLine
 10
252.9723301115364
 20
505.1033169355194
 30
0.0
 11
276.9586329870034
 21
519.0953269462077
 31
0.0
  0
LINE
  5
1196
330
1E
100
AcDbEntity
  8
STEMPEL
100
AcDbLine
 10
253.4856711651172
 20
504.2450738223567
 30
0.0
 11
277.4645250580685
 21
518.2327269885421
 31
0.0
  0
LWPOLYLINE
  5
1197
330
1E
100
AcDbEntity
  8
STEMPEL
100
AcDbPolyline
 90
       18
 70
   128
 43
0.0
 10
311.4622941205064
 20
442.4262363754739
 10
311.5802751557875
 20
443.8043577590985
 10
311.9302005589771
 20
445.1355488718781
 10
312.5001540401589
 20
446.3744775970549
 10
313.270726517115
 20
447.4789537028242
 10
314.2156770683425
 20
448.4113655800769
 10
315.3028265361626
 20
449.1399610606382
 10
316.4951533493408
 20
449.6399286992715
 10
317.7520542482926
 20
449.8942426976883
 10
319.0307269803909
 20
449.8942426976883
 10
320.2876278793429
 20
449.6399286992715
 10
321.479954692521
 20
449.1399610606382
 10
322.5671041603412
 20
448.4113655800769
 10
323.5120547115687
 20
447.4789537028242
 10
324.2826271885247
 20
446.3744775970549
 10
324.8525806697064
 20
445.1355488718781
 10
325.2025060728961
 20
443.8043577590985
 10
325.3204871081773
 20
442.4262363754738
  0
LWPOLYLINE
  5
1198
330
1E
100
AcDbEntity
  8
STEMPEL
100
AcDbPolyline
 90
        9
 70
   128
 43
0.0
 10
318.1995984815298
 20
449.9233627985141
 10
319.5238079318597
 20
449.7445298914661
 10
320.7917873290457
 20
449.2942539741421
 10
321.9565060171315
 20
448.5892362420029
 10
322.974763385738
 20
447.6556265256193
 10
323.8087912250003
 20
446.5280533666433
 10
324.4276545871942
 20
445.2483396096915
 10
324.8083991956685
 20
443.863951150156
 10
324.9369028425003
 20
442.4262363754754
  0
LINE
  5
1199
330
1E
100
AcDbEntity
  8
STEMPEL
100
AcDbLine
 10
310.2447826877772
 20
430.9262363754758
 30
0.0
 11
323.7193914097716
 21
430.9262363754757
 31
0.0
  0
LWPOLYLINE
  5
119A
330
1E
100
AcDbEntity
  8
STEMPEL
100
AcDbPolyline
 90
       10
 70
   128
 43
0.0
 10
-322.5981437809683
 20
429.9262363754756
 10
-323.0708737387217
 20
430.0173898574024
 10
-323.5292400359219
 20
430.2880806507602
 10
-323.9593154445727
 20
430.7300839527691
 10
-324.3480323410111
 20
431.3299697167618
 10
-324.6835797590386
 20
432.0695107173565
 10
-324.9557622601542
 20
432.9262363754759
 10
-325.1563097167923
 20
433.8741155155219
 10
-325.2791285959647
 20
434.8843473094745
 10
-325.3204871081773
 20
435.9262363754761
210
0.0
220
0.0
230
-1.0
  0
ARC
  5
119B
330
1E
100
AcDbEntity
  8
STEMPEL
100
AcDbCircle
 10
360.0050247332442
 20
462.4262363754756
 30
0.0
 40
7.5
100
AcDbArc
 50
180.000000000026
 51
0.0000000000130276
  0
ARC
  5
119C
330
1E
100
AcDbEntity
  8
STEMPEL
100
AcDbCircle
 10
360.0050247332442
 20
487.4262363754756
 30
0.0
 40
7.5
100
AcDbArc
 50
359.999999999987
 51
179.9999999999739
  0
LWPOLYLINE
  5
119D
330
1E
100
AcDbEntity
  8
STEMPEL
100
AcDbPolyline
 90
       18
 70
   128
 43
0.0
 10
-381.6344968375311
 20
442.4262363754736
 10
-381.5078875913546
 20
443.8043577590982
 10
-381.1323713788529
 20
445.1355488718778
 10
-380.5207359542606
 20
446.3744775970545
 10
-379.6938098283863
 20
447.4789537028239
 10
-378.6797529786579
 20
448.4113655800767
 10
-377.5130978948662
 20
449.139961060638
 10
-376.233573616641
 20
449.6399286992713
 10
-374.8847528086569
 20
449.894242697688
 10
-373.5125679457976
 20
449.894242697688
 10
-372.1637471378135
 20
449.6399286992713
 10
-370.8842228595881
 20
449.139961060638
 10
-369.7175677757964
 20
448.4113655800768
 10
-368.7035109260683
 20
447.478953702824
 10
-367.8765848001938
 20
446.3744775970546
 10
-367.2649493756014
 20
445.1355488718778
 10
-366.8894331630998
 20
443.8043577590982
 10
-366.7628239169235
 20
442.4262363754736
210
0.0
220
0.0
230
-1.0
  0
LWPOLYLINE
  5
119E
330
1E
100
AcDbEntity
  8
STEMPEL
100
AcDbPolyline
 90
        9
 70
   128
 43
0.0
 10
-374.2640771019708
 20
449.9259461352484
 10
-372.8227371180929
 20
449.7706447413247
 10
-371.4386562146433
 20
449.3362444943104
 10
-370.1644316021113
 20
448.6392532740352
 10
-369.0484857823815
 20
447.7061578225894
 10
-368.1332264189284
 20
446.572417207246
 10
-367.4534347801534
 20
445.2811153211767
 10
-367.0349439975039
 20
443.8813236290171
 10
-366.8936573666101
 20
442.4262363754752
210
0.0
220
0.0
230
-1.0
  0
LINE
  5
119F
330
1E
100
AcDbEntity
  8
STEMPEL
100
AcDbLine
 10
382.2210713597881
 20
430.9262363754754
 30
0.0
 11
367.4802318888667
 21
430.9262363754754
 31
0.0
  0
LINE
  5
11A0
330
1E
100
AcDbEntity
  8
STEMPEL
100
AcDbLine
 10
381.6344968375313
 20
442.4262363754752
 30
0.0
 11
381.6344968375313
 21
435.926236375477
 31
0.0
  0
LWPOLYLINE
  5
11A1
330
1E
100
AcDbEntity
  8
STEMPEL
100
AcDbPolyline
 90
       10
 70
   128
 43
0.0
 10
382.9460715740388
 20
429.9262363754754
 10
382.7183190111703
 20
430.0173898574022
 10
382.497486594676
 20
430.28808065076
 10
382.2902842057849
 20
430.7300839527689
 10
382.1030075842339
 20
431.3299697167616
 10
381.9413470354018
 20
432.0695107173563
 10
381.8102145332612
 20
432.9262363754756
 10
381.7135944725333
 20
433.8741155155218
 10
381.6544226048711
 20
434.8843473094742
 10
381.6344968375311
 20
435.9262363754758
  0
LINE
  5
11A2
330
1E
100
AcDbEntity
  8
STEMPEL
100
AcDbLine
 10
366.8936573666101
 20
442.4262363754736
 30
0.0
 11
366.8936573666101
 21
435.926236375477
 31
0.0
  0
LINE
  5
11A3
330
1E
100
AcDbEntity
  8
STEMPEL
100
AcDbLine
 10
366.7628239169235
 20
442.426236375472
 30
0.0
 11
366.7628239169235
 21
435.926236375477
 31
0.0
  0
LWPOLYLINE
  5
11A4
330
1E
100
AcDbEntity
  8
STEMPEL
100
AcDbPolyline
 90
       10
 70
   128
 43
0.0
 10
368.0743986534314
 20
429.9262363754754
 10
367.8466460905627
 20
430.0173898574022
 10
367.6258136740687
 20
430.2880806507601
 10
367.4186112851773
 20
430.7300839527689
 10
367.2313346636263
 20
431.3299697167617
 10
367.0696741147942
 20
432.0695107173564
 10
366.9385416126536
 20
432.9262363754756
 10
366.8419215519257
 20
433.8741155155218
 10
366.7827496842635
 20
434.8843473094742
 10
366.7628239169235
 20
435.9262363754758
  0
LWPOLYLINE
  5
11A5
330
1E
100
AcDbEntity
  8
STEMPEL
100
AcDbPolyline
 90
        7
 70
   128
 43
0.0
 10
367.4802318888672
 20
430.9262363754754
 10
367.3113360430987
 20
431.5355742773164
 10
367.1664826545259
 20
432.2630045506056
 10
367.0495677369588
 20
433.0889620445492
 10
366.9637358639411
 20
433.9912315950114
 10
366.9112955914954
 20
434.9455455292549
 10
366.8936573666101
 20
435.9262363754758
  0
LINE
  5
11A6
330
1E
100
AcDbEntity
  8
STEMPEL
100
AcDbLine
 10
367.5050247332442
 20
487.426236375474
 30
0.0
 11
367.5050247332442
 21
462.426236375474
 31
0.0
  0
LWPOLYLINE
  5
11A7
330
1E
100
AcDbEntity
  8
STEMPEL
100
AcDbPolyline
 90
        9
 70
   128
 43
0.0
 10
345.7459723645174
 20
449.9259461352486
 10
347.1873123483951
 20
449.7706447413248
 10
348.5713932518447
 20
449.3362444943105
 10
349.8456178643767
 20
448.6392532740352
 10
350.9615636841065
 20
447.7061578225896
 10
351.8768230475596
 20
446.572417207246
 10
352.5566146863348
 20
445.2811153211768
 10
352.9751054689841
 20
443.8813236290171
 10
353.1163920998781
 20
442.4262363754754
  0
LWPOLYLINE
  5
11A8
330
1E
100
AcDbEntity
  8
STEMPEL
100
AcDbPolyline
 90
       18
 70
   128
 43
0.0
 10
338.3755526289572
 20
442.4262363754738
 10
338.5021618751334
 20
443.8043577590983
 10
338.8776780876351
 20
445.1355488718781
 10
339.4893135122274
 20
446.3744775970548
 10
340.316239638102
 20
447.478953702824
 10
341.3302964878301
 20
448.4113655800769
 10
342.4969515716218
 20
449.1399610606382
 10
343.7764758498472
 20
449.6399286992715
 10
345.1252966578313
 20
449.894242697688
 10
346.4974815206906
 20
449.894242697688
 10
347.8463023286747
 20
449.6399286992715
 10
349.1258266068999
 20
449.1399610606382
 10
350.2924816906916
 20
448.4113655800769
 10
351.30653854042
 20
447.478953702824
 10
352.1334646662942
 20
446.3744775970548
 10
352.7451000908866
 20
445.1355488718779
 10
353.1206163033882
 20
443.8043577590982
 10
353.2472255495648
 20
442.4262363754738
  0
LINE
  5
11A9
330
1E
100
AcDbEntity
  8
STEMPEL
100
AcDbLine
 10
337.7889781066999
 20
430.9262363754757
 30
0.0
 11
352.5298175776213
 21
430.9262363754755
 31
0.0
  0
LINE
  5
11AA
330
1E
100
AcDbEntity
  8
STEMPEL
100
AcDbLine
 10
353.2472255495645
 20
442.4262363754722
 30
0.0
 11
353.2472255495645
 21
435.9262363754772
 31
0.0
  0
LINE
  5
11AB
330
1E
100
AcDbEntity
  8
STEMPEL
100
AcDbLine
 10
353.1163920998781
 20
442.4262363754738
 30
0.0
 11
353.1163920998781
 21
435.9262363754772
 31
0.0
  0
LWPOLYLINE
  5
11AC
330
1E
100
AcDbEntity
  8
STEMPEL
100
AcDbPolyline
 90
        7
 70
   128
 43
0.0
 10
-352.5298175776211
 20
430.9262363754755
 10
-352.6987134233896
 20
431.5355742773164
 10
-352.8435668119621
 20
432.2630045506057
 10
-352.9604817295292
 20
433.0889620445494
 10
-353.0463136025469
 20
433.9912315950116
 10
-353.0987538749926
 20
434.9455455292549
 10
-353.1163920998779
 20
435.926236375476
210
0.0
220
0.0
230
-1.0
  0
LWPOLYLINE
  5
11AD
330
1E
100
AcDbEntity
  8
STEMPEL
100
AcDbPolyline
 90
       10
 70
   128
 43
0.0
 10
-351.9356508130566
 20
429.9262363754755
 10
-352.1634033759253
 20
430.0173898574023
 10
-352.3842357924193
 20
430.2880806507602
 10
-352.5914381813107
 20
430.7300839527689
 10
-352.778714802862
 20
431.3299697167618
 10
-352.9403753516938
 20
432.0695107173565
 10
-353.0715078538344
 20
432.9262363754757
 10
-353.1681279145623
 20
433.8741155155218
 10
-353.2272997822247
 20
434.8843473094744
 10
-353.2472255495645
 20
435.926236375476
210
0.0
220
0.0
230
-1.0
  0
LINE
  5
11AE
330
1E
100
AcDbEntity
  8
STEMPEL
100
AcDbLine
 10
338.3755526289569
 20
442.4262363754754
 30
0.0
 11
338.3755526289569
 21
435.9262363754773
 31
0.0
  0
LWPOLYLINE
  5
11AF
330
1E
100
AcDbEntity
  8
STEMPEL
100
AcDbPolyline
 90
       10
 70
   128
 43
0.0
 10
-337.0639778924492
 20
429.9262363754756
 10
-337.2917304553177
 20
430.0173898574024
 10
-337.5125628718119
 20
430.2880806507602
 10
-337.7197652607031
 20
430.730083952769
 10
-337.9070418822544
 20
431.3299697167618
 10
-338.0687024310862
 20
432.0695107173565
 10
-338.1998349332268
 20
432.9262363754759
 10
-338.2964549939547
 20
433.8741155155219
 10
-338.3556268616169
 20
434.8843473094745
 10
-338.3755526289569
 20
435.9262363754761
210
0.0
220
0.0
230
-1.0
  0
LINE
  5
11B0
330
1E
100
AcDbEntity
  8
STEMPEL
100
AcDbLine
 10
325.3204871081773
 20
442.4262363754722
 30
0.0
 11
325.3204871081773
 21
435.9262363754773
 31
0.0
  0
LINE
  5
11B1
330
1E
100
AcDbEntity
  8
STEMPEL
100
AcDbLine
 10
324.9369028425003
 20
442.4262363754738
 30
0.0
 11
324.9369028425003
 21
435.9262363754773
 31
0.0
  0
LWPOLYLINE
  5
11B2
330
1E
100
AcDbEntity
  8
STEMPEL
100
AcDbPolyline
 90
        7
 70
   128
 43
0.0
 10
-323.7193914097711
 20
430.9262363754757
 10
-324.0699566241831
 20
431.5355742773166
 10
-324.3706186031218
 20
432.2630045506058
 10
-324.6132906650564
 20
433.0889620445494
 10
-324.7914458401049
 20
433.9912315950117
 10
-324.9002924210854
 20
434.9455455292549
 10
-324.9369028425003
 20
435.9262363754761
210
0.0
220
0.0
230
-1.0
  0
LINE
  5
11B3
330
1E
100
AcDbEntity
  8
STEMPEL
100
AcDbLine
 10
352.5050247332442
 20
487.4262363754756
 30
0.0
 11
352.5050247332442
 21
462.4262363754756
 31
0.0
  0
LWPOLYLINE
  5
11B4
330
1E
100
AcDbEntity
  8
STEMPEL
100
AcDbPolyline
 90
       18
 70
   128
 43
0.0
 10
287.8571424826562
 20
442.4262363754741
 10
287.9584550944605
 20
443.8043577590986
 10
288.2589428503898
 20
445.1355488718783
 10
288.7483730003109
 20
446.374477597055
 10
289.4100785874753
 20
447.4789537028242
 10
290.2215260217405
 20
448.4113655800771
 10
291.1550824339562
 20
449.1399610606385
 10
292.1789566801823
 20
449.6399286992717
 10
293.2582819509651
 20
449.8942426976883
 10
294.3563031187161
 20
449.8942426976883
 10
295.4356283894989
 20
449.6399286992717
 10
296.459502635725
 20
449.1399610606385
 10
297.3930590479407
 20
448.4113655800771
 10
298.2045064822058
 20
447.4789537028242
 10
298.8662120693703
 20
446.374477597055
 10
299.3556422192914
 20
445.1355488718782
 10
299.6561299752207
 20
443.8043577590985
 10
299.757442587025
 20
442.4262363754739
  0
LINE
  5
11B5
330
1E
100
AcDbEntity
  8
STEMPEL
100
AcDbLine
 10
286.2191194065508
 20
430.9262363754759
 30
0.0
 11
297.5092250630579
 21
430.9262363754759
 31
0.0
  0
LWPOLYLINE
  5
11B6
330
1E
100
AcDbEntity
  8
STEMPEL
100
AcDbPolyline
 90
        9
 70
   128
 43
0.0
 10
293.5021953109211
 20
449.9163704532977
 10
294.6186030322923
 20
449.7090633168905
 10
295.6838822840346
 20
449.2398085894368
 10
296.6597172670729
 20
448.5254843522683
 10
297.5110092999308
 20
447.5917833088718
 10
298.2071392426673
 20
446.4722886737114
 10
298.7230688013586
 20
445.2072662563728
 10
299.0402411015745
 20
443.8422161871634
 10
299.1472481391627
 20
442.4262363754755
  0
LINE
  5
11B7
330
1E
100
AcDbEntity
  8
STEMPEL
100
AcDbLine
 10
311.4622941205064
 20
442.4262363754739
 30
0.0
 11
311.4622941205063
 21
435.9262363754774
 31
0.0
  0
LWPOLYLINE
  5
11B8
330
1E
100
AcDbEntity
  8
STEMPEL
100
AcDbPolyline
 90
       10
 70
   128
 43
0.0
 10
-308.7399507932972
 20
429.9262363754758
 10
-309.2126807510508
 20
430.0173898574025
 10
-309.671047048251
 20
430.2880806507604
 10
-310.1011224569017
 20
430.7300839527691
 10
-310.48983935334
 20
431.3299697167621
 10
-310.8253867713677
 20
432.0695107173568
 10
-311.0975692724833
 20
432.926236375476
 10
-311.2981167291214
 20
433.8741155155219
 10
-311.4209356082938
 20
434.8843473094746
 10
-311.4622941205063
 20
435.9262363754762
210
0.0
220
0.0
230
-1.0
  0
LWPOLYLINE
  5
11B9
330
1E
100
AcDbEntity
  8
STEMPEL
100
AcDbPolyline
 90
       10
 70
   128
 43
0.0
 10
-296.0948394515009
 20
429.9262363754759
 10
-296.7308438115018
 20
430.0173898574026
 10
-297.347523500858
 20
430.2880806507604
 10
-297.926141019263
 20
430.7300839527693
 10
-298.4491153662149
 20
431.3299697167621
 10
-298.9005562308193
 20
432.0695107173568
 10
-299.2667468108454
 20
432.926236375476
 10
-299.5365605908203
 20
433.8741155155219
 10
-299.701799415572
 20
434.8843473094746
 10
-299.757442587025
 20
435.9262363754762
210
0.0
220
0.0
230
-1.0
  0
LWPOLYLINE
  5
11BA
330
1E
100
AcDbEntity
  8
STEMPEL
100
AcDbPolyline
 90
        7
 70
   128
 43
0.0
 10
-297.5092250630573
 20
430.9262363754759
 10
-297.9808706636242
 20
431.5355742773167
 10
-298.385377140007
 20
432.263004550606
 10
-298.711864782496
 20
433.0889620445496
 10
-298.9515522959043
 20
433.9912315950118
 10
-299.0979929835303
 20
434.9455455292551
 10
-299.1472481391627
 20
435.9262363754762
210
0.0
220
0.0
230
-1.0
  0
LINE
  5
11BB
330
1E
100
AcDbEntity
  8
STEMPEL
100
AcDbLine
 10
299.7574425870251
 20
442.4262363754739
 30
0.0
 11
299.757442587025
 21
435.9262363754774
 31
0.0
  0
LINE
  5
11BC
330
1E
100
AcDbEntity
  8
STEMPEL
100
AcDbLine
 10
299.1472481391628
 20
442.4262363754739
 30
0.0
 11
299.1472481391627
 21
435.9262363754774
 31
0.0
  0
ELLIPSE
  5
11BD
330
1E
100
AcDbEntity
  8
STEMPEL
100
AcDbEllipse
 10
305.1330145641231
 20
462.4262363754759
 30
0.0
 11
-0.0000000000000334
 21
-7.5
 31
0.0
210
0.0
220
0.0
230
-1.0
 40
0.8660254037843856
 41
4.712388980384689
 42
6.24459510668465
  0
ELLIPSE
  5
11BE
330
1E
100
AcDbEntity
  8
STEMPEL
100
AcDbEllipse
 10
305.634191559565
 20
462.4262363754759
 30
0.0
 11
-0.0000000000000334
 21
-7.5
 31
0.0
210
0.0
220
0.0
230
-1.0
 40
0.8660254037843856
 41
4.712388980384689
 42
7.853981633974482
  0
ELLIPSE
  5
11BF
330
1E
100
AcDbEntity
  8
STEMPEL
100
AcDbEllipse
 10
305.1330145641232
 20
487.4262363754759
 30
0.0
 11
0.0000000000000334
 21
7.5
 31
0.0
210
0.0
220
0.0
230
1.0
 40
0.8660254037843856
 41
4.712388980384689
 42
6.24459510668465
  0
ELLIPSE
  5
11C0
330
1E
100
AcDbEntity
  8
STEMPEL
100
AcDbEllipse
 10
305.6341915595651
 20
487.4262363754759
 30
0.0
 11
0.0000000000000334
 21
7.5
 31
0.0
210
0.0
220
0.0
230
1.0
 40
0.8660254037843856
 41
4.712388980384689
 42
7.853981633974482
  0
LINE
  5
11C1
330
1E
100
AcDbEntity
  8
STEMPEL
100
AcDbLine
 10
311.6282050925061
 20
487.4262363754759
 30
0.0
 11
311.6282050925059
 21
462.4262363754759
 31
0.0
  0
LINE
  5
11C2
330
1E
100
AcDbEntity
  8
STEMPEL
100
AcDbLine
 10
312.129382087948
 20
487.4262363754759
 30
0.0
 11
312.1293820879479
 21
462.4262363754759
 31
0.0
  0
LINE
  5
11C3
330
1E
100
AcDbEntity
  8
STEMPEL
100
AcDbLine
 10
299.1390010311823
 20
487.4262363754759
 30
0.0
 11
299.1390010311821
 21
462.4262363754775
 31
0.0
  0
LWPOLYLINE
  5
11C4
330
1E
100
AcDbEntity
  8
STEMPEL
100
AcDbPolyline
 90
       10
 70
   128
 43
0.0
 10
272.9392396209178
 20
449.9262363754772
 10
273.7320669667774
 20
449.8122945230687
 10
274.5008046549232
 20
449.4739310313715
 10
275.2220949797007
 20
448.9214269038604
 10
275.8740218995822
 20
448.1715696988692
 10
276.4367769449979
 20
447.2471434481256
 10
276.8932610886608
 20
446.1762363754765
 10
277.2296042908575
 20
444.9913874504187
 10
277.4355869335876
 20
443.7285977079779
 10
277.5049503384837
 20
442.4262363754756
  0
LWPOLYLINE
  5
11C5
330
1E
100
AcDbEntity
  8
STEMPEL
100
AcDbPolyline
 90
       18
 70
   128
 43
0.0
 10
269.1687497901728
 20
442.4262363754741
 10
269.2464896914329
 20
443.8043577590986
 10
269.4770620561147
 20
445.1355488718783
 10
269.8526150188799
 20
446.3744775970551
 10
270.3603595740076
 20
447.4789537028244
 10
270.9830050896455
 20
448.4113655800772
 10
271.6993481195396
 20
449.1399610606385
 10
272.4849944609655
 20
449.6399286992717
 10
273.3131898700449
 20
449.8942426976886
 10
274.1557311454326
 20
449.8942426976884
 10
274.983926554512
 20
449.6399286992717
 10
275.7695728959378
 20
449.1399610606385
 10
276.4859159258319
 20
448.4113655800771
 10
277.1085614414699
 20
447.4789537028243
 10
277.6163059965976
 20
446.374477597055
 10
277.9918589593627
 20
445.1355488718783
 10
278.2224313240446
 20
443.8043577590986
 10
278.3001712253047
 20
442.4262363754741
  0
LWPOLYLINE
  5
11C6
330
1E
100
AcDbEntity
  8
STEMPEL
100
AcDbPolyline
 90
        9
 70
   128
 43
0.0
 10
259.0777976955
 20
449.8279946201392
 10
259.5668582387688
 20
449.5015617223819
 10
260.0264712066697
 20
448.9562927091246
 10
260.442421010294
 20
448.2090524659967
 10
260.8018425395855
 20
447.2829527432191
 10
261.093619074473
 20
446.2066373212488
 10
261.3087261192112
 20
445.0133960736179
 10
261.4405105253187
 20
443.7401353285421
 10
261.4848962699836
 20
442.4262363754756
  0
LINE
  5
11C7
330
1E
100
AcDbEntity
  8
STEMPEL
100
AcDbLine
 10
267.2171729616541
 20
430.9262363754759
 30
0.0
 11
275.553373509966
 21
430.9262363754759
 31
0.0
  0
LINE
  5
11C8
330
1E
100
AcDbEntity
  8
STEMPEL
100
AcDbLine
 10
287.8571424826563
 20
442.4262363754741
 30
0.0
 11
287.8571424826562
 21
435.9262363754774
 31
0.0
  0
LWPOLYLINE
  5
11C9
330
1E
100
AcDbEntity
  8
STEMPEL
100
AcDbPolyline
 90
       10
 70
   128
 43
0.0
 10
-284.194539347132
 20
429.9262363754759
 10
-284.830543707133
 20
430.0173898574026
 10
-285.4472233964891
 20
430.2880806507604
 10
-286.0258409148942
 20
430.7300839527694
 10
-286.548815261846
 20
431.3299697167621
 10
-287.0002561264505
 20
432.0695107173568
 10
-287.3664467064765
 20
432.9262363754761
 10
-287.6362604864514
 20
433.8741155155221
 10
-287.8014993112031
 20
434.8843473094746
 10
-287.8571424826562
 20
435.9262363754764
210
0.0
220
0.0
230
-1.0
  0
LINE
  5
11CA
330
1E
100
AcDbEntity
  8
STEMPEL
100
AcDbLine
 10
278.3001712253045
 20
442.4262363754741
 30
0.0
 11
278.3001712253045
 21
435.9262363754774
 31
0.0
  0
LINE
  5
11CB
330
1E
100
AcDbEntity
  8
STEMPEL
100
AcDbLine
 10
277.5049503384838
 20
442.4262363754741
 30
0.0
 11
277.5049503384837
 21
435.9262363754774
 31
0.0
  0
LWPOLYLINE
  5
11CC
330
1E
100
AcDbEntity
  8
STEMPEL
100
AcDbPolyline
 90
       10
 70
   128
 43
0.0
 10
-273.9364650506985
 20
429.9262363754759
 10
-274.6942146757927
 20
430.0173898574026
 10
-275.4289404619683
 20
430.2880806507604
 10
-276.1183181380014
 20
430.7300839527694
 10
-276.7414013120478
 20
431.3299697167621
 10
-277.2792579171593
 20
432.0695107173568
 10
-277.7155454525582
 20
432.9262363754761
 10
-278.0370075422535
 20
433.8741155155222
 10
-278.2338767233175
 20
434.8843473094746
 10
-278.3001712253043
 20
435.9262363754764
210
0.0
220
0.0
230
-1.0
  0
LWPOLYLINE
  5
11CD
330
1E
100
AcDbEntity
  8
STEMPEL
100
AcDbPolyline
 90
        7
 70
   128
 43
0.0
 10
-275.5533735099653
 20
430.9262363754759
 10
-276.1153024832295
 20
431.5355742773167
 10
-276.5972404228167
 20
432.263004550606
 10
-276.9862250025665
 20
433.0889620445496
 10
-277.2717939936729
 20
433.991231595012
 10
-277.4462666594688
 20
434.9455455292552
 10
-277.5049503384838
 20
435.9262363754764
210
0.0
220
0.0
230
-1.0
  0
LWPOLYLINE
  5
11CE
330
1E
100
AcDbEntity
  8
STEMPEL
100
AcDbPolyline
 90
       10
 70
   128
 43
0.0
 10
-264.8050436155667
 20
429.9262363754759
 10
-265.5627932406609
 20
430.0173898574026
 10
-266.2975190268364
 20
430.2880806507605
 10
-266.9868967028695
 20
430.7300839527694
 10
-267.609979876916
 20
431.3299697167622
 10
-268.1478364820274
 20
432.0695107173569
 10
-268.5841240174263
 20
432.9262363754761
 10
-268.9055861071216
 20
433.8741155155222
 10
-269.1024552881856
 20
434.8843473094746
 10
-269.1687497901725
 20
435.9262363754764
210
0.0
220
0.0
230
-1.0
  0
LINE
  5
11CF
330
1E
100
AcDbEntity
  8
STEMPEL
100
AcDbLine
 10
269.1687497901727
 20
442.4262363754741
 30
0.0
 11
269.1687497901726
 21
435.9262363754774
 31
0.0
  0
LINE
  5
11D0
330
1E
100
AcDbEntity
  8
STEMPEL
100
AcDbLine
 10
262.4109506064909
 20
442.4262363754741
 30
0.0
 11
262.4109506064908
 21
435.9262363754774
 31
0.0
  0
LINE
  5
11D1
330
1E
100
AcDbEntity
  8
STEMPEL
100
AcDbLine
 10
261.4848962699837
 20
442.4262363754741
 30
0.0
 11
261.4848962699836
 21
435.9262363754774
 31
0.0
  0
LWPOLYLINE
  5
11D2
330
1E
100
AcDbEntity
  8
STEMPEL
100
AcDbPolyline
 90
       10
 70
   128
 43
0.0
 10
-257.5955860799169
 20
429.926236375476
 10
-258.4317653547584
 20
430.0173898574028
 10
-259.2425377454611
 20
430.2880806507606
 10
-260.0032683432039
 20
430.7300839527694
 10
-260.6908427337227
 20
431.3299697167622
 10
-261.2843693170911
 20
432.0695107173569
 10
-261.7658140884123
 20
432.9262363754761
 10
-262.1205485919327
 20
433.8741155155222
 10
-262.3377943992668
 20
434.8843473094746
 10
-262.4109506064908
 20
435.9262363754764
210
0.0
220
0.0
230
-1.0
  0
LWPOLYLINE
  5
11D3
330
1E
100
AcDbEntity
  8
STEMPEL
100
AcDbPolyline
 90
        7
 70
   128
 43
0.0
 10
-259.3313246373149
 20
430.926236375476
 10
-259.9514151603791
 20
431.5355742773168
 10
-260.4832353071627
 20
432.263004550606
 10
-260.9124811068939
 20
433.0889620445496
 10
-261.2276074546912
 20
433.991231595012
 10
-261.4201386316571
 20
434.9455455292552
 10
-261.4848962699834
 20
435.9262363754764
210
0.0
220
0.0
230
-1.0
  0
LINE
  5
11D4
330
1E
100
AcDbEntity
  8
STEMPEL
100
AcDbLine
 10
268.713915206892
 20
462.4262363754761
 30
0.0
 11
268.7139152068921
 21
487.4262363754777
 31
0.0
  0
LINE
  5
11D5
330
1E
100
AcDbEntity
  8
STEMPEL
100
AcDbLine
 10
269.5819792265811
 20
487.4262363754761
 30
0.0
 11
269.581979226581
 21
462.4262363754777
 31
0.0
  0
LINE
  5
11D6
330
1E
100
AcDbEntity
  8
STEMPEL
100
AcDbLine
 10
262.0819792265812
 20
487.4262363754761
 30
0.0
 11
262.0819792265811
 21
462.4262363754793
 31
0.0
  0
ELLIPSE
  5
11D7
330
1E
100
AcDbEntity
  8
STEMPEL
100
AcDbEllipse
 10
265.831979226581
 20
462.4262363754777
 30
0.0
 11
-0.0000000000000334
 21
-7.499999999999999
 31
0.0
210
0.0
220
0.0
230
-1.0
 40
0.4999999999999926
 41
4.712388980384689
 42
7.853981633974482
  0
ELLIPSE
  5
11D8
330
1E
100
AcDbEntity
  8
STEMPEL
100
AcDbEllipse
 10
264.9639152068922
 20
462.4262363754777
 30
0.0
 11
-0.0000000000000334
 21
-7.499999999999999
 31
0.0
210
0.0
220
0.0
230
-1.0
 40
0.4999999999999926
 41
4.712388980384689
 42
6.167183451052224
  0
ELLIPSE
  5
11D9
330
1E
100
AcDbEntity
  8
STEMPEL
100
AcDbEllipse
 10
265.8319792265811
 20
487.4262363754761
 30
0.0
 11
0.0000000000000334
 21
7.499999999999999
 31
0.0
210
0.0
220
0.0
230
1.0
 40
0.4999999999999926
 41
4.712388980384689
 42
7.853981633974482
  0
ELLIPSE
  5
11DA
330
1E
100
AcDbEntity
  8
STEMPEL
100
AcDbEllipse
 10
264.9639152068924
 20
487.4262363754761
 30
0.0
 11
0.0000000000000334
 21
7.499999999999999
 31
0.0
210
0.0
220
0.0
230
1.0
 40
0.4999999999999926
 41
4.712388980384689
 42
6.167183451052224
  0
LINE
  5
11DB
330
1E
100
AcDbEntity
  8
STEMPEL
100
AcDbLine
 10
334.5655101381876
 20
519.9262363754754
 30
0.0
 11
280.0050247332444
 21
519.9262363754759
 31
0.0
  0
LINE
  5
11DC
330
1E
100
AcDbEntity
  8
STEMPEL
100
AcDbLine
 10
382.6685863495415
 20
521.4262363754751
 30
0.0
 11
337.1635863495417
 21
521.4262363754752
 31
0.0
  0
LINE
  5
11DD
330
1E
100
AcDbEntity
  8
STEMPEL
100
AcDbLine
 10
363.3635863495417
 20
520.4262363754752
 30
0.0
 11
353.2753188883483
 21
520.4262363754752
 31
0.0
  0
LINE
  5
11DE
330
1E
100
AcDbEntity
  8
STEMPEL
100
AcDbLine
 10
372.4155101381886
 20
519.9262363754751
 30
0.0
 11
365.9616625608944
 21
519.9262363754751
 31
0.0
  0
LINE
  5
11DF
330
1E
100
AcDbEntity
  8
STEMPEL
100
AcDbLine
 10
372.4155101381886
 20
519.9262363754751
 30
0.0
 11
365.9616625608944
 21
519.9262363754751
 31
0.0
  0
ARC
  5
11E0
330
1E
100
AcDbEntity
  8
STEMPEL
100
AcDbCircle
 10
372.4155101381886
 20
521.4262363754751
 30
0.0
 40
2.5
100
AcDbArc
 50
270.0
 51
329.9999999999995
  0
ARC
  5
11E1
330
1E
100
AcDbEntity
  8
STEMPEL
100
AcDbCircle
 10
377.8116625608955
 20
521.426236375475
 30
0.0
 40
2.5
100
AcDbArc
 50
209.9999999999917
 51
270.0
  0
ARC
  5
11E2
330
1E
100
AcDbEntity
  8
STEMPEL
100
AcDbCircle
 10
379.8705101381877
 20
521.426236375475
 30
0.0
 40
2.5
100
AcDbArc
 50
270.0
 51
330.0000000000084
  0
ARC
  5
11E3
330
1E
100
AcDbEntity
  8
STEMPEL
100
AcDbCircle
 10
385.2666625608951
 20
521.4262363754751
 30
0.0
 40
2.5
100
AcDbArc
 50
210.0000000000005
 51
270.0
  0
ARC
  5
11E4
330
1E
100
AcDbEntity
  8
STEMPEL
100
AcDbCircle
 10
379.8705101381877
 20
521.426236375475
 30
0.0
 40
1.5
100
AcDbArc
 50
270.0
 51
330.0000000000084
  0
ARC
  5
11E5
330
1E
100
AcDbEntity
  8
STEMPEL
100
AcDbCircle
 10
385.2666625608951
 20
521.4262363754751
 30
0.0
 40
1.5
100
AcDbArc
 50
209.9999999999917
 51
270.0
  0
ARC
  5
11E6
330
1E
100
AcDbEntity
  8
STEMPEL
100
AcDbCircle
 10
382.6685863495415
 20
519.9262363754751
 30
0.0
 40
1.5
100
AcDbArc
 50
30.00000000000055
 51
90.0
  0
ARC
  5
11E7
330
1E
100
AcDbEntity
  8
STEMPEL
100
AcDbCircle
 10
382.4685863495415
 20
519.9262363754751
 30
0.0
 40
1.5
100
AcDbArc
 50
90.0
 51
150.0000000000083
  0
ARC
  5
11E8
330
1E
100
AcDbEntity
  8
STEMPEL
100
AcDbCircle
 10
382.4685863495415
 20
519.9262363754751
 30
0.0
 40
0.5
100
AcDbArc
 50
90.0
 51
149.9999999999994
  0
LINE
  5
11E9
330
1E
100
AcDbEntity
  8
STEMPEL
100
AcDbLine
 10
382.6685863495415
 20
520.4262363754751
 30
0.0
 11
382.4685863495415
 21
520.4262363754751
 31
0.0
  0
ARC
  5
11EA
330
1E
100
AcDbEntity
  8
STEMPEL
100
AcDbCircle
 10
382.6685863495415
 20
519.9262363754751
 30
0.0
 40
0.5
100
AcDbArc
 50
30.00000000000055
 51
90.0
  0
ARC
  5
11EB
330
1E
100
AcDbEntity
  8
STEMPEL
100
AcDbCircle
 10
375.2135863495416
 20
519.9262363754752
 30
0.0
 40
1.5
100
AcDbArc
 50
29.99999999999165
 51
90.0
  0
LINE
  5
11EC
330
1E
100
AcDbEntity
  8
STEMPEL
100
AcDbLine
 10
379.8705101381877
 20
519.9262363754749
 30
0.0
 11
377.8116625608955
 21
519.9262363754749
 31
0.0
  0
LINE
  5
11ED
330
1E
100
AcDbEntity
  8
STEMPEL
100
AcDbLine
 10
379.8705101381877
 20
519.9262363754749
 30
0.0
 11
377.8116625608955
 21
519.9262363754749
 31
0.0
  0
ARC
  5
11EE
330
1E
100
AcDbEntity
  8
STEMPEL
100
AcDbCircle
 10
377.8116625608955
 20
521.426236375475
 30
0.0
 40
1.5
100
AcDbArc
 50
209.9999999999917
 51
270.0
  0
ARC
  5
11EF
330
1E
100
AcDbEntity
  8
STEMPEL
100
AcDbCircle
 10
375.0135863495416
 20
519.9262363754752
 30
0.0
 40
1.5
100
AcDbArc
 50
90.0
 51
149.9999999999994
  0
ARC
  5
11F0
330
1E
100
AcDbEntity
  8
STEMPEL
100
AcDbCircle
 10
375.0135863495416
 20
519.9262363754752
 30
0.0
 40
0.5
100
AcDbArc
 50
90.0
 51
149.9999999999994
  0
LINE
  5
11F1
330
1E
100
AcDbEntity
  8
STEMPEL
100
AcDbLine
 10
375.2135863495416
 20
520.4262363754752
 30
0.0
 11
375.0135863495416
 21
520.4262363754752
 31
0.0
  0
ARC
  5
11F2
330
1E
100
AcDbEntity
  8
STEMPEL
100
AcDbCircle
 10
375.2135863495416
 20
519.9262363754752
 30
0.0
 40
0.5
100
AcDbArc
 50
29.99999999999165
 51
90.0
  0
ARC
  5
11F3
330
1E
100
AcDbEntity
  8
STEMPEL
100
AcDbCircle
 10
372.4155101381886
 20
521.4262363754751
 30
0.0
 40
1.5
100
AcDbArc
 50
270.0
 51
329.9999999999995
  0
ARC
  5
11F4
330
1E
100
AcDbEntity
  8
STEMPEL
100
AcDbCircle
 10
365.9616625608944
 20
521.4262363754751
 30
0.0
 40
2.5
100
AcDbArc
 50
210.0000000000062
 51
270.0
  0
ARC
  5
11F5
330
1E
100
AcDbEntity
  8
STEMPEL
100
AcDbCircle
 10
363.3635863495417
 20
519.9262363754752
 30
0.0
 40
1.5
100
AcDbArc
 50
30.00000000000055
 51
90.0
  0
ARC
  5
11F6
330
1E
100
AcDbEntity
  8
STEMPEL
100
AcDbCircle
 10
365.9616625608944
 20
521.4262363754751
 30
0.0
 40
1.5
100
AcDbArc
 50
210.0000000000062
 51
270.0
  0
ARC
  5
11F7
330
1E
100
AcDbEntity
  8
STEMPEL
100
AcDbCircle
 10
363.3635863495417
 20
519.9262363754752
 30
0.0
 40
0.5
100
AcDbArc
 50
30.00000000000055
 51
90.0
  0
ARC
  5
11F8
330
1E
100
AcDbEntity
  8
STEMPEL
100
AcDbCircle
 10
339.9616625608942
 20
521.4262363754752
 30
0.0
 40
2.5
100
AcDbArc
 50
210.0000000000062
 51
270.0
  0
ARC
  5
11F9
330
1E
100
AcDbEntity
  8
STEMPEL
100
AcDbCircle
 10
339.9616625608942
 20
521.4262363754752
 30
0.0
 40
1.5
100
AcDbArc
 50
210.0000000000062
 51
270.0
  0
ARC
  5
11FA
330
1E
100
AcDbEntity
  8
STEMPEL
100
AcDbCircle
 10
346.4155101381882
 20
521.4262363754752
 30
0.0
 40
2.5
100
AcDbArc
 50
270.0
 51
329.9999999999995
  0
ARC
  5
11FB
330
1E
100
AcDbEntity
  8
STEMPEL
100
AcDbCircle
 10
351.1500780226456
 20
520.4262363754752
 30
0.0
 40
1.5
100
AcDbArc
 50
194.4775121859295
 51
270.0
  0
ARC
  5
11FC
330
1E
100
AcDbEntity
  8
STEMPEL
100
AcDbCircle
 10
351.3388272152449
 20
520.4262363754752
 30
0.0
 40
1.5
100
AcDbArc
 50
270.0
 51
345.5224878140705
  0
ARC
  5
11FD
330
1E
100
AcDbEntity
  8
STEMPEL
100
AcDbCircle
 10
346.4155101381882
 20
521.4262363754752
 30
0.0
 40
1.5
100
AcDbArc
 50
270.0
 51
329.9999999999995
  0
ARC
  5
11FE
330
1E
100
AcDbEntity
  8
STEMPEL
100
AcDbCircle
 10
351.3388272152449
 20
520.4262363754752
 30
0.0
 40
0.5
100
AcDbArc
 50
270.0
 51
345.5224878140705
  0
ARC
  5
11FF
330
1E
100
AcDbEntity
  8
STEMPEL
100
AcDbCircle
 10
353.2753188883483
 20
519.9262363754752
 30
0.0
 40
1.5
100
AcDbArc
 50
90.0
 51
165.5224878140705
  0
ARC
  5
1200
330
1E
100
AcDbEntity
  8
STEMPEL
100
AcDbCircle
 10
353.2753188883483
 20
519.9262363754752
 30
0.0
 40
0.5
100
AcDbArc
 50
90.0
 51
165.5224878140705
  0
ARC
  5
1201
330
1E
100
AcDbEntity
  8
STEMPEL
100
AcDbCircle
 10
349.0135863495416
 20
519.9262363754752
 30
0.0
 40
0.5
100
AcDbArc
 50
90.0
 51
149.9999999999994
  0
LINE
  5
1202
330
1E
100
AcDbEntity
  8
STEMPEL
100
AcDbLine
 10
349.2135863495416
 20
520.4262363754753
 30
0.0
 11
349.0135863495416
 21
520.4262363754753
 31
0.0
  0
ARC
  5
1203
330
1E
100
AcDbEntity
  8
STEMPEL
100
AcDbCircle
 10
349.2135863495416
 20
519.9262363754752
 30
0.0
 40
0.5
100
AcDbArc
 50
14.47751218592945
 51
90.0
  0
LINE
  5
1204
330
1E
100
AcDbEntity
  8
STEMPEL
100
AcDbLine
 10
351.3388272152449
 20
519.9262363754752
 30
0.0
 11
351.1500780226456
 21
519.9262363754752
 31
0.0
  0
ARC
  5
1205
330
1E
100
AcDbEntity
  8
STEMPEL
100
AcDbCircle
 10
351.1500780226456
 20
520.4262363754752
 30
0.0
 40
0.5
100
AcDbArc
 50
194.4775121859295
 51
270.0
  0
ARC
  5
1206
330
1E
100
AcDbEntity
  8
STEMPEL
100
AcDbCircle
 10
349.2135863495416
 20
519.9262363754752
 30
0.0
 40
1.5
100
AcDbArc
 50
14.47751218592945
 51
90.0
  0
ARC
  5
1207
330
1E
100
AcDbEntity
  8
STEMPEL
100
AcDbCircle
 10
349.0135863495416
 20
519.9262363754752
 30
0.0
 40
1.5
100
AcDbArc
 50
90.0
 51
149.9999999999994
  0
LINE
  5
1208
330
1E
100
AcDbEntity
  8
STEMPEL
100
AcDbLine
 10
346.4155101381882
 20
519.9262363754752
 30
0.0
 11
339.9616625608942
 21
519.9262363754752
 31
0.0
  0
LINE
  5
1209
330
1E
100
AcDbEntity
  8
STEMPEL
100
AcDbLine
 10
346.4155101381882
 20
519.9262363754753
 30
0.0
 11
339.9616625608942
 21
519.9262363754753
 31
0.0
  0
ARC
  5
120A
330
1E
100
AcDbEntity
  8
STEMPEL
100
AcDbCircle
 10
334.5655101381876
 20
521.4262363754752
 30
0.0
 40
2.5
100
AcDbArc
 50
270.0
 51
330.0000000000084
  0
ARC
  5
120B
330
1E
100
AcDbEntity
  8
STEMPEL
100
AcDbCircle
 10
334.5655101381876
 20
521.4262363754752
 30
0.0
 40
1.5
100
AcDbArc
 50
270.0
 51
330.0000000000084
  0
ARC
  5
120C
330
1E
100
AcDbEntity
  8
STEMPEL
100
AcDbCircle
 10
337.1635863495417
 20
519.9262363754752
 30
0.0
 40
1.5
100
AcDbArc
 50
90.0
 51
150.0000000000083
  0
ARC
  5
120D
330
1E
100
AcDbEntity
  8
STEMPEL
100
AcDbCircle
 10
337.1635863495417
 20
519.9262363754752
 30
0.0
 40
0.5
100
AcDbArc
 50
90.0
 51
150.0000000000083
  0
LINE
  5
120E
330
1E
100
AcDbEntity
  8
STEMPEL
100
AcDbLine
 10
337.3635863495417
 20
520.4262363754752
 30
0.0
 11
337.1635863495417
 21
520.4262363754752
 31
0.0
  0
ARC
  5
120F
330
1E
100
AcDbEntity
  8
STEMPEL
100
AcDbCircle
 10
337.3635863495417
 20
519.9262363754752
 30
0.0
 40
0.5
100
AcDbArc
 50
30.00000000000618
 51
90.0
  0
ARC
  5
1210
330
1E
100
AcDbEntity
  8
STEMPEL
100
AcDbCircle
 10
337.3635863495417
 20
519.9262363754752
 30
0.0
 40
1.5
100
AcDbArc
 50
30.00000000000618
 51
90.0
  0
ARC
  5
1211
330
1E
100
AcDbEntity
  8
STEMPEL
100
AcDbCircle
 10
280.0050247332464
 20
513.9262363754709
 30
0.0
 40
5.000000000004884
100
AcDbArc
 50
90.00000000002605
 51
120.5373500482991
  0
ARC
  5
1212
330
1E
100
AcDbEntity
  8
STEMPEL
100
AcDbCircle
 10
280.0050247332444
 20
513.9262363754761
 30
0.0
 40
5.999999999999263
100
AcDbArc
 50
90.0
 51
120.5128743276211
  0
ARC
  5
1213
330
1E
100
AcDbEntity
  8
STEMPEL
100
AcDbCircle
 10
280.0050247332442
 20
513.9262363754754
 30
0.0
 40
6.0
100
AcDbArc
 50
90.0
 51
90.0
  0
LINE
  5
1214
330
1E
100
AcDbEntity
  8
STEMPEL
100
AcDbLine
 10
250.0050247332442
 20
499.9261784081604
 30
0.0
 11
250.0050247332439
 21
435.9262363754765
 31
0.0
  0
LINE
  5
1215
330
1E
100
AcDbEntity
  8
STEMPEL
100
AcDbLine
 10
251.0050247332443
 20
499.9261784081604
 30
0.0
 11
251.005024733244
 21
435.9262363754765
 31
0.0
  0
LWPOLYLINE
  5
1216
330
1E
100
AcDbEntity
  8
STEMPEL
100
AcDbPolyline
 90
       18
 70
   128
 43
0.0
 10
251.2147119742794
 20
442.4262363754742
 10
251.2313803977562
 20
443.8043577590986
 10
251.2808180450165
 20
445.1355488718784
 10
251.361341376277
 20
446.3744775970552
 10
251.4702082660686
 20
447.4789537028244
 10
251.6037113830309
 20
448.4113655800773
 10
251.7573044386351
 20
449.1399610606386
 10
251.9257570055871
 20
449.6399286992718
 10
252.1033326337561
 20
449.8942426976886
 10
252.2839841981031
 20
449.8942426976886
 10
252.461559826272
 20
449.6399286992718
 10
252.6300123932241
 20
449.1399610606386
 10
252.7836054488282
 20
448.4113655800773
 10
252.9171085657905
 20
447.4789537028244
 10
253.0259754555822
 20
446.3744775970552
 10
253.1064987868426
 20
445.1355488718784
 10
253.1559364341029
 20
443.8043577590986
 10
253.1726048575798
 20
442.4262363754742
  0
LINE
  5
1217
330
1E
100
AcDbEntity
  8
STEMPEL
100
AcDbLine
 10
230.0050247332444
 20
430.9262363754761
 30
0.0
 11
245.0050247332442
 21
430.9262363754765
 31
0.0
  0
LWPOLYLINE
  5
1218
330
1E
100
AcDbEntity
  8
STEMPEL
100
AcDbPolyline
 90
       10
 70
   128
 43
0.0
 10
-247.6666161265489
 20
429.9262363754762
 10
-248.5246891228217
 20
429.9923635900487
 10
-249.3775013224439
 20
430.2449173397788
 10
-250.1982596293609
 20
430.6759630560965
 10
-250.9611779957599
 20
431.2719584265363
 10
-251.6422875512591
 20
432.0141788582569
 10
-252.2201896412048
 20
432.8793057550544
 10
-252.676728115611
 20
433.8401591257706
 10
-252.9975597472086
 20
434.8665515074827
 10
-253.1726048575797
 20
435.9262363754753
210
0.0
220
0.0
230
-1.0
  0
ARC
  5
1219
330
1E
100
AcDbEntity
  8
STEMPEL
100
AcDbCircle
 10
245.005024733244
 20
435.9262363754766
 30
0.0
 40
6.0
100
AcDbArc
 50
270.0
 51
0.0
  0
LWPOLYLINE
  5
121A
330
1E
100
AcDbEntity
  8
STEMPEL
100
AcDbPolyline
 90
       10
 70
   128
 43
0.0
 10
-245.7087232432484
 20
429.9262363754772
 10
-246.5667962395212
 20
429.9923635900499
 10
-247.4196084391434
 20
430.24491733978
 10
-248.2403667460604
 20
430.6759630560976
 10
-249.0032851124595
 20
431.2719584265375
 10
-249.6843946679586
 20
432.0141788582581
 10
-250.2622967579043
 20
432.8793057550556
 10
-250.7188352323105
 20
433.8401591257717
 10
-251.0396668639081
 20
434.8665515074839
 10
-251.2147119742792
 20
435.9262363754765
210
0.0
220
0.0
230
-1.0
  0
ARC
  5
121B
330
1E
100
AcDbEntity
  8
STEMPEL
100
AcDbCircle
 10
245.005024733244
 20
435.9262363754766
 30
0.0
 40
5.0
100
AcDbArc
 50
270.0
 51
0.0
  0
LINE
  5
121C
330
1E
100
AcDbEntity
  8
STEMPEL
100
AcDbLine
 10
248.5942527906086
 20
430.926236375476
 30
0.0
 11
249.5583669603712
 21
430.926236375476
 31
0.0
  0
LINE
  5
121D
330
1E
100
AcDbEntity
  8
STEMPEL
100
AcDbLine
 10
252.178826144042
 20
442.4262363754742
 30
0.0
 11
252.1788261440419
 21
435.9262363754765
 31
0.0
  0
LINE
  5
121E
330
1E
100
AcDbEntity
  8
STEMPEL
100
AcDbLine
 10
253.1726048575798
 20
442.4262363754742
 30
0.0
 11
253.1726048575797
 21
435.9262363754753
 31
0.0
  0
LINE
  5
121F
330
1E
100
AcDbEntity
  8
STEMPEL
100
AcDbLine
 10
256.6706991210132
 20
442.4262363754742
 30
0.0
 11
256.6706991210131
 21
435.9262363754776
 31
0.0
  0
LINE
  5
1220
330
1E
100
AcDbEntity
  8
STEMPEL
100
AcDbLine
 10
251.2147119742794
 20
442.4262363754742
 30
0.0
 11
251.2147119742792
 21
435.9262363754765
 31
0.0
  0
LWPOLYLINE
  5
1221
330
1E
100
AcDbEntity
  8
STEMPEL
100
AcDbPolyline
 90
       10
 70
   128
 43
0.0
 10
-251.8553345944391
 20
429.926236375476
 10
-252.6915138692807
 20
430.0173898574028
 10
-253.5022862599833
 20
430.2880806507606
 10
-254.2630168577261
 20
430.7300839527694
 10
-254.9505912482449
 20
431.3299697167622
 10
-255.5441178316133
 20
432.069510717357
 10
-256.0255626029345
 20
432.9262363754763
 10
-256.3802971064549
 20
433.8741155155222
 10
-256.5975429137891
 20
434.8843473094748
 10
-256.6706991210131
 20
435.9262363754765
210
0.0
220
0.0
230
-1.0
  0
LWPOLYLINE
  5
1222
330
1E
100
AcDbEntity
  8
STEMPEL
100
AcDbPolyline
 90
        7
 70
   128
 43
0.0
 10
-249.558366960371
 20
430.9262363754765
 10
-250.2350688354484
 20
431.5358371033355
 10
-250.8346182590824
 20
432.2633961872472
 10
-251.340906932232
 20
433.0893660489274
 10
-251.7403322242776
 20
433.9915550741304
 10
-252.0221626395405
 20
434.9457238423241
 10
-252.178826144042
 20
435.9262363754765
210
0.0
220
0.0
230
-1.0
  0
LWPOLYLINE
  5
1223
330
1E
100
AcDbEntity
  8
STEMPEL
100
AcDbPolyline
 90
        7
 70
   128
 43
0.0
 10
251.6967690591605
 20
448.888290431314
 10
251.8345980687308
 20
448.1361841943754
 10
251.9534623456969
 20
447.2134705836607
 10
252.0498103475982
 20
446.1477193337564
 10
252.1207632951363
 20
444.9707739969353
 10
252.1642011871443
 20
443.7178004905335
 10
252.1788261440419
 20
442.4262363754742
  0
LINE
  5
1224
330
1E
100
AcDbEntity
  8
STEMPEL
100
AcDbLine
 10
242.0050247332441
 20
430.9262363754766
 30
0.0
 11
242.0050247332441
 21
429.9262363754762
 31
0.0
  0
LINE
  5
1225
330
1E
100
AcDbEntity
  8
STEMPEL
100
AcDbLine
 10
234.0050247332441
 20
430.9262363754761
 30
0.0
 11
234.0050247332441
 21
429.9262363754762
 31
0.0
  0
LINE
  5
1226
330
1E
100
AcDbEntity
  8
STEMPEL
100
AcDbLine
 10
230.0050247332442
 20
430.9262363754763
 30
0.0
 11
230.0050247332441
 21
429.9262363754762
 31
0.0
  0
LINE
  5
1227
330
1E
100
AcDbEntity
  8
STEMPEL
100
AcDbLine
 10
250.0050247332443
 20
454.9262363754759
 30
0.0
 11
251.0050247332443
 21
454.9262363754759
 31
0.0
  0
LINE
  5
1228
330
1E
100
AcDbEntity
  8
STEMPEL
100
AcDbLine
 10
250.0050247332445
 20
494.9262363754759
 30
0.0
 11
251.0050247332446
 21
494.9262363754759
 31
0.0
  0
ARC
  5
1229
330
1E
100
AcDbEntity
  8
STEMPEL
100
AcDbCircle
 10
256.0050247332448
 20
499.9261784081601
 30
0.0
 40
5.000000000000511
100
AcDbArc
 50
120.2564164748189
 51
179.9999999999935
  0
ARC
  5
122A
330
1E
100
AcDbEntity
  8
STEMPEL
100
AcDbCircle
 10
256.0050247332447
 20
499.9261784081601
 30
0.0
 40
6.000000000000454
100
AcDbArc
 50
120.2564164748189
 51
179.9999999999935
  0
ARC
  5
122B
330
1E
100
AcDbEntity
  8
STEMPEL
100
AcDbCircle
 10
250.4938811289327
 20
509.4460733579378
 30
0.0
 40
5.0
100
AcDbArc
 50
300.0670458384844
 51
300.2564371635288
  0
HATCH
  5
122C
330
1E
100
AcDbEntity
  8
SCHRAFF
100
AcDbHatch
 10
0.0
 20
0.0
 30
0.0
210
0.0
220
0.0
230
1.0
  2
_USER
 70
     0
 71
     0
 91
        4
 92
        7
 72
     0
 73
     1
 93
        9
 10
241.0050247332441
 20
419.5397363754759
 10
241.0050247332442
 20
416.926236375475
 10
240.0050247332442
 20
416.926236375475
 10
240.0050247332442
 20
415.9262363754752
 10
238.0050247332442
 20
415.3903379906129
 10
238.0050247332441
 20
414.9262363754752
 10
243.0050247332442
 20
414.9262363754752
 10
243.0050247332442
 20
429.9262363754756
 10
241.0050247332442
 20
429.9262363754755
 97
        0
 92
       23
 72
     0
 73
     1
 93
        5
 10
240.0050247332442
 20
416.926236375475
 10
241.0050247332442
 20
416.926236375475
 10
241.0050247332442
 20
419.5397363754759
 10
240.3915247332442
 20
418.9262363754759
 10
240.0050247332442
 20
418.9262363754759
 97
        0
 92
       22
 72
     0
 73
     1
 93
        5
 10
235.0050247332442
 20
416.9262363754752
 10
236.0050247332442
 20
416.9262363754752
 10
236.0050247332442
 20
418.926236375476
 10
235.618524733244
 20
418.9262363754759
 10
235.0050247332441
 20
419.5397363754758
 97
        0
 92
        7
 72
     0
 73
     1
 93
        9
 10
235.0050247332442
 20
419.5397363754759
 10
235.0050247332441
 20
429.9262363754758
 10
233.0050247332442
 20
429.9262363754758
 10
233.0050247332441
 20
414.9262363754753
 10
238.0050247332442
 20
414.9262363754754
 10
238.0050247332442
 20
415.3903379906129
 10
236.0050247332442
 20
415.9262363754753
 10
236.0050247332442
 20
416.9262363754751
 10
235.0050247332442
 20
416.9262363754752
 97
        0
 75
     0
 76
     0
 52
45.0
 41
1.0
 77
     0
 78
     1
 53
45.0
 43
87.75265240229987
 44
-176.2299685428508
 45
-0.7071067811865475
 46
0.7071067811865476
 79
     0
 47
0.0321819604051909
 98
        4
 10
241.9693359779274
 20
424.6316170910464
 10
240.3596518210718
 20
417.3584937495962
 10
235.4984079792332
 20
418.3561343628554
 10
234.7901467351596
 20
418.1952246496208
  0
ARC
  5
122D
330
1E
100
AcDbEntity
  8
HILF
100
AcDbCircle
 10
238.0050247332442
 20
417.6849443482496
 30
0.0
 40
14.94074366520046
100
AcDbArc
 50
78.85962783889434
 51
101.1403721611056
  0
ARC
  5
122E
330
1E
100
AcDbEntity
  8
HILF
100
AcDbCircle
 10
233.674897714322
 20
428.7849276136595
 30
0.0
 40
3.840760399790701
100
AcDbArc
 50
67.92594526323878
 51
112.0740547367612
  0
ARC
  5
122F
330
1E
100
AcDbEntity
  8
HILF
100
AcDbCircle
 10
242.3351517521663
 20
428.7837630517713
 30
0.0
 40
3.841839622940954
100
AcDbArc
 50
67.9324721810082
 51
112.0675278189905
  0
ARC
  5
1230
330
1E
100
AcDbEntity
  8
STEMPEL
100
AcDbCircle
 10
238.0050247332442
 20
417.3189769538391
 30
0.0
 40
20.20725942163691
100
AcDbArc
 50
81.7867892982638
 51
98.21321070173619
  0
ARC
  5
1231
330
1E
100
AcDbEntity
  8
STEMPEL
100
AcDbCircle
 10
233.674897714322
 20
432.3966992369528
 30
0.0
 40
5.129537138523076
100
AcDbArc
 50
73.65710669401345
 51
106.3428933059865
  0
LINE
  5
1232
330
1E
100
AcDbEntity
  8
STEMPEL
100
AcDbLine
 10
233.0050247332442
 20
437.5262363754759
 30
0.0
 11
232.231522041348
 21
437.3189769538391
 31
0.0
  0
LINE
  5
1233
330
1E
100
AcDbEntity
  8
STEMPEL
100
AcDbLine
 10
243.0050247332442
 20
437.5262363754759
 30
0.0
 11
243.7785274251404
 21
437.3189769538391
 31
0.0
  0
ARC
  5
1234
330
1E
100
AcDbEntity
  8
STEMPEL
100
AcDbCircle
 10
242.3351517521663
 20
432.3966992369528
 30
0.0
 40
5.129537138523076
100
AcDbArc
 50
73.65710669401345
 51
106.3428933059865
  0
POINT
  5
1235
330
1E
100
AcDbEntity
  8
0
100
AcDbPoint
 10
238.0050247332441
 20
418.9262363754759
 30
0.0
210
-0.0000000000000002
220
-1.0
230
0.0
  0
LINE
  5
1236
330
1E
100
AcDbEntity
  8
HILF
100
AcDbLine
 10
235.6185247332442
 20
427.9262363754759
 30
0.0
 11
235.0050247332442
 21
430.9262363754759
 31
0.0
  0
LINE
  5
1237
330
1E
100
AcDbEntity
  8
HILF
100
AcDbLine
 10
235.6185247332442
 20
427.9262363754759
 30
0.0
 11
235.6185247332442
 21
418.9262363754759
 31
0.0
  0
LINE
  5
1238
330
1E
100
AcDbEntity
  8
HILF
100
AcDbLine
 10
235.0050247332442
 20
427.9262363754759
 30
0.0
 11
241.0050247332441
 21
427.9262363754759
 31
0.0
  0
LINE
  5
1239
330
1E
100
AcDbEntity
  8
HILF
100
AcDbLine
 10
240.3915247332442
 20
427.9262363754759
 30
0.0
 11
241.0050247332442
 21
430.9262363754759
 31
0.0
  0
LINE
  5
123A
330
1E
100
AcDbEntity
  8
HILF
100
AcDbLine
 10
240.3915247332442
 20
427.9262363754759
 30
0.0
 11
240.3915247332442
 21
418.9262363754759
 31
0.0
  0
LINE
  5
123B
330
1E
100
AcDbEntity
  8
STEMPEL
100
AcDbLine
 10
244.7431358120732
 20
431.9930673169081
 30
0.0
 11
231.266913654415
 21
431.9930673169081
 31
0.0
  0
LINE
  5
123C
330
1E
100
AcDbEntity
  8
STEMPEL
100
AcDbLine
 10
244.5550247332442
 20
430.9262363754759
 30
0.0
 11
231.4550247332442
 21
430.9262363754759
 31
0.0
  0
LINE
  5
123D
330
1E
100
AcDbEntity
  8
STEMPEL
100
AcDbLine
 10
232.231522041348
 20
437.3189769538391
 30
0.0
 11
232.231522041348
 21
432.3441560574752
 31
0.0
  0
LINE
  5
123E
330
1E
100
AcDbEntity
  8
STEMPEL
100
AcDbLine
 10
235.1182733872961
 20
437.3189769538391
 30
0.0
 11
235.1182733872961
 21
432.3441560574752
 31
0.0
  0
LINE
  5
123F
330
1E
100
AcDbEntity
  8
STEMPEL
100
AcDbLine
 10
240.8917760791922
 20
437.3189769538391
 30
0.0
 11
240.8917760791922
 21
432.3441560574752
 31
0.0
  0
LINE
  5
1240
330
1E
100
AcDbEntity
  8
STEMPEL
100
AcDbLine
 10
243.7785274251404
 20
437.3189769538391
 30
0.0
 11
243.7785274251404
 21
432.3441560574752
 31
0.0
  0
LINE
  5
1241
330
1E
100
AcDbEntity
  8
STEMPEL
100
AcDbLine
 10
243.0050247332442
 20
437.5262363754759
 30
0.0
 11
233.0050247332442
 21
437.5262363754759
 31
0.0
  0
LINE
  5
1242
330
1E
100
AcDbEntity
  8
STEMPEL
100
AcDbLine
 10
240.3915247332442
 20
418.9262363754759
 30
0.0
 11
235.6185247332442
 21
418.9262363754759
 31
0.0
  0
LINE
  5
1243
330
1E
100
AcDbEntity
  8
STEMPEL
100
AcDbLine
 10
241.0050247332442
 20
419.5397363754759
 30
0.0
 11
235.0050247332442
 21
419.5397363754759
 31
0.0
  0
LINE
  5
1244
330
1E
100
AcDbEntity
  8
STEMPEL
100
AcDbLine
 10
232.231522041348
 20
432.3441560574752
 30
0.0
 11
231.266913654415
 21
431.9930673169081
 31
0.0
  0
LINE
  5
1245
330
1E
100
AcDbEntity
  8
STEMPEL
100
AcDbLine
 10
244.7431358120732
 20
431.9930673169081
 30
0.0
 11
243.7785274251404
 21
432.3441560574752
 31
0.0
  0
ARC
  5
1246
330
1E
100
AcDbEntity
  8
STEMPEL
100
AcDbCircle
 10
244.5550247332442
 20
431.4762363754758
 30
0.0
 40
0.5500000000000009
100
AcDbArc
 50
270.0
 51
69.99999999999629
  0
ARC
  5
1247
330
1E
100
AcDbEntity
  8
STEMPEL
100
AcDbCircle
 10
231.4550247332442
 20
431.4762363754758
 30
0.0
 40
0.5500000000000003
100
AcDbArc
 50
110.0000000000037
 51
270.0
  0
LINE
  5
1248
330
1E
100
AcDbEntity
  8
STEMPEL
100
AcDbLine
 10
235.0050247332442
 20
419.5397363754759
 30
0.0
 11
235.6185247332442
 21
418.9262363754759
 31
0.0
  0
LINE
  5
1249
330
1E
100
AcDbEntity
  8
STEMPEL
100
AcDbLine
 10
240.3915247332442
 20
418.9262363754759
 30
0.0
 11
241.0050247332441
 21
419.5397363754759
 31
0.0
  0
LINE
  5
124A
330
1E
100
AcDbEntity
  8
STEMPEL
100
AcDbLine
 10
235.0050247332442
 20
430.9262363754759
 30
0.0
 11
235.0050247332442
 21
419.5397363754759
 31
0.0
  0
LINE
  5
124B
330
1E
100
AcDbEntity
  8
STEMPEL
100
AcDbLine
 10
241.0050247332441
 20
419.5397363754759
 30
0.0
 11
241.0050247332442
 21
430.9262363754759
 31
0.0
  0
DIMENSION
  5
124C
330
1E
100
AcDbEntity
  8
BEM
100
AcDbDimension
  2
*D7
 10
187.821950399014
 20
414.9262363754753
 30
0.0
 11
181.3219503990139
 21
422.4262363754753
 31
0.0
 70
    32
 71
     5
 42
14.99999999999988
  3
Standard
100
AcDbAlignedDimension
 13
230.0050247332441
 23
429.9262363754752
 33
0.0
 14
225.0050247332442
 24
414.9262363754753
 34
0.0
 50
90.0
100
AcDbRotatedDimension
1001
ACAD
1000
DSTYLE
1002
{
1070
    40
1040
2.0
1070
    41
1040
3.5
1070
    42
1040
1.0
1070
    43
1040
7.0
1070
    44
1040
1.0
1070
    73
1070
     0
1070
    74
1070
     0
1070
    77
1070
     1
1070
    78
1070
     8
1070
    79
1070
     2
1070
   140
1040
3.5
1070
   141
1040
1.5
1070
   146
1040
0.5142857142857144
1070
   147
1040
1.5
1070
   172
1070
     1
1070
   178
1070
     1
1070
   179
1070
     2
1070
   271
1070
     2
1070
   272
1070
     2
1070
   284
1070
     8
1070
   285
1070
     8
1070
   286
1070
     8
1002
}
  0
DIMENSION
  5
124E
330
1E
100
AcDbEntity
  8
BEM
100
AcDbDimension
  2
*D8
 10
470.0050247332444
 20
530.73711034134
 30
0.0
 11
360.0050247332444
 21
537.2371103413399
 31
0.0
 70
    32
  1
%%c<>
 71
     5
 42
220.0000000000001
  3
Standard
100
AcDbAlignedDimension
 13
250.0050247332443
 23
499.9261784081596
 33
0.0
 14
470.0050247332444
 24
499.9261784081596
 34
0.0
100
AcDbRotatedDimension
1001
ACAD
1000
DSTYLE
1002
{
1070
    40
1040
2.0
1070
    41
1040
3.5
1070
    42
1040
1.0
1070
    43
1040
7.0
1070
    44
1040
1.0
1070
    73
1070
     0
1070
    74
1070
     0
1070
    77
1070
     1
1070
    78
1070
     8
1070
    79
1070
     2
1070
   140
1040
3.5
1070
   141
1040
1.5
1070
   146
1040
0.5142857142857144
1070
   147
1040
1.5
1070
   172
1070
     1
1070
   178
1070
     1
1070
   179
1070
     2
1070
   271
1070
     2
1070
   272
1070
     2
1070
   284
1070
     8
1070
   285
1070
     8
1070
   286
1070
     8
1002
}
  0
DIMENSION
  5
124F
330
1E
100
AcDbEntity
  8
BEM
100
AcDbDimension
  2
*D9
 10
187.821950399014
 20
519.9262363754745
 30
0.0
 11
181.3219503990139
 21
474.9262363754748
 31
0.0
 70
    32
 71
     5
 42
89.99999999999927
  3
Standard
100
AcDbAlignedDimension
 13
230.0050247332444
 23
429.9262363754752
 33
0.0
 14
280.0050247332444
 24
519.9262363754744
 34
0.0
 50
90.0
100
AcDbRotatedDimension
1001
ACAD
1000
DSTYLE
1002
{
1070
    40
1040
2.0
1070
    41
1040
3.5
1070
    42
1040
1.0
1070
    43
1040
7.0
1070
    44
1040
1.0
1070
    73
1070
     0
1070
    74
1070
     0
1070
    77
1070
     1
1070
    78
1070
     8
1070
    79
1070
     2
1070
   140
1040
3.5
1070
   141
1040
1.5
1070
   146
1040
0.5142857142857144
1070
   147
1040
1.5
1070
   172
1070
     1
1070
   178
1070
     1
1070
   179
1070
     2
1070
   271
1070
     2
1070
   272
1070
     2
1070
   284
1070
     8
1070
   285
1070
     8
1070
   286
1070
     8
1002
}
  0
LINE
  5
1250
330
1E
100
AcDbEntity
  8
STEMPEL
100
AcDbLine
 10
495.0050247332439
 20
414.926236375476
 30
0.0
 11
225.0050247332442
 21
414.9262363754754
 31
0.0
  0
LINE
  5
1251
330
1E
100
AcDbEntity
  8
STEMPEL
100
AcDbLine
 10
243.0050247332442
 20
429.9262363754752
 30
0.0
 11
233.0050247332442
 21
429.9262363754752
 31
0.0
  0
LINE
  5
1252
330
1E
100
AcDbEntity
  8
STEMPEL
100
AcDbLine
 10
233.0050247332442
 20
414.9262363754752
 30
0.0
 11
233.0050247332442
 21
429.9262363754752
 31
0.0
  0
LINE
  5
1253
330
1E
100
AcDbEntity
  8
STEMPEL
100
AcDbLine
 10
243.0050247332442
 20
414.9262363754752
 30
0.0
 11
243.0050247332442
 21
429.9262363754752
 31
0.0
  0
LINE
  5
1254
330
1E
100
AcDbEntity
  8
HILF
100
AcDbLine
 10
235.0050247332442
 20
416.9262363754752
 30
0.0
 11
235.0050247332442
 21
419.5397363754759
 31
0.0
  0
LINE
  5
1255
330
1E
100
AcDbEntity
  8
HILF
100
AcDbLine
 10
241.0050247332442
 20
416.9262363754752
 30
0.0
 11
241.0050247332442
 21
419.5397363754759
 31
0.0
  0
LINE
  5
1256
330
1E
100
AcDbEntity
  8
STEMPEL
100
AcDbLine
 10
241.0050247332442
 20
416.926236375475
 30
0.0
 11
235.0050247332442
 21
416.9262363754752
 31
0.0
  0
LINE
  5
1257
330
1E
100
AcDbEntity
  8
STEMPEL
100
AcDbLine
 10
240.0050247332442
 20
415.9262363754748
 30
0.0
 11
240.0050247332442
 21
418.926236375476
 31
0.0
  0
LINE
  5
1258
330
1E
100
AcDbEntity
  8
STEMPEL
100
AcDbLine
 10
236.0050247332442
 20
415.9262363754749
 30
0.0
 11
236.0050247332442
 21
418.926236375476
 31
0.0
  0
LINE
  5
1259
330
1E
100
AcDbEntity
  8
STEMPEL
100
AcDbLine
 10
240.0050247332442
 20
415.9262363754752
 30
0.0
 11
236.0050247332442
 21
415.9262363754752
 31
0.0
  0
LINE
  5
125A
330
1E
100
AcDbEntity
  8
STEMPEL
100
AcDbLine
 10
236.0050247332442
 20
415.9262363754752
 30
0.0
 11
238.0050247332442
 21
415.3903379906129
 31
0.0
  0
LINE
  5
125B
330
1E
100
AcDbEntity
  8
STEMPEL
100
AcDbLine
 10
240.0050247332442
 20
415.9262363754752
 30
0.0
 11
238.0050247332442
 21
415.3903379906129
 31
0.0
  0
LINE
  5
125C
330
1E
100
AcDbEntity
  8
MITTEL
100
AcDbLine
 10
238.0050247332442
 20
408.4262363754755
 30
0.0
 11
238.0050247332442
 21
442.5262363754759
 31
0.0
  0
LINE
  5
125D
330
1E
100
AcDbEntity
  8
STEMPEL
100
AcDbLine
 10
426.0050247332442
 20
414.9262363754753
 30
0.0
 11
426.0050247332442
 21
429.9262363754754
 31
0.0
  0
LINE
  5
125E
330
1E
100
AcDbEntity
  8
STEMPEL
100
AcDbLine
 10
416.0050247332442
 20
414.9262363754753
 30
0.0
 11
416.0050247332442
 21
429.9262363754754
 31
0.0
  0
LINE
  5
125F
330
1E
100
AcDbEntity
  8
STEMPEL
100
AcDbLine
 10
426.0050247332442
 20
429.9262363754754
 30
0.0
 11
416.0050247332442
 21
429.9262363754754
 31
0.0
  0
TEXT
  5
134F
330
1E
100
AcDbEntity
  8
TEXT
 62
     1
100
AcDbText
 10
628.8610269018911
 20
429.546774563895
 30
0.0
 40
7.0
  1
EDV-Art.Nr. 17014.100X
 41
0.8
  7
GREEKS
100
AcDbText
  0
TEXT
  5
1350
330
1E
100
AcDbEntity
  8
TEXT
 62
     1
100
AcDbText
 10
628.8610269018911
 20
442.823300114261
 30
0.0
 40
7.0
  1
Losflansch DN100
 41
0.8
  7
GREEKS
100
AcDbText
  0
LINE
  5
1351
330
1E
100
AcDbEntity
  8
TEXT
 62
     2
100
AcDbLine
 10
628.5956497642671
 20
439.4874518333769
 30
0.0
 11
731.8690593002257
 21
439.4874518333769
 31
0.0
  0
LINE
  5
1352
330
1E
100
AcDbEntity
  8
TEXT
 62
     2
100
AcDbLine
 10
628.5956497642671
 20
470.8948748694329
 30
0.0
 11
731.8690593002257
 21
470.8948748694329
 31
0.0
  0
TEXT
  5
1353
330
1E
100
AcDbEntity
  8
TEXT
 62
     1
100
AcDbText
 10
628.8610269018911
 20
474.230723150317
 30
0.0
 40
7.0
  1
Siebkorb
 41
0.8
  7
GREEKS
100
AcDbText
  0
TEXT
  5
1354
330
1E
100
AcDbEntity
  8
TEXT
 62
     1
100
AcDbText
 10
628.8610269018911
 20
460.9541975999511
 30
0.0
 40
7.0
  1
EDV-Art.Nr. 21004.000X
 41
0.8
  7
GREEKS
100
AcDbText
  0
LINE
  5
1384
102
{ACAD_REACTORS
330
13D7
102
}
330
1E
100
AcDbEntity
  8
STEMPEL
100
AcDbLine
 10
410.8050247332441
 20
411.5076520884373
 30
0.0
 11
419.9973850581577
 21
411.5076520884372
 31
0.0
  0
LINE
  5
1385
330
1E
100
AcDbEntity
  8
STEMPEL
100
AcDbLine
 10
399.4645751687114
 20
411.5076520884374
 30
0.0
 11
406.3022405973318
 21
411.5076520884374
 31
0.0
  0
LINE
  5
1386
330
1E
100
AcDbEntity
  8
STEMPEL
100
AcDbLine
 10
352.0480558152503
 20
411.5076520884381
 30
0.0
 11
367.9619936512381
 21
411.5076520884379
 31
0.0
  0
HATCH
  5
13D7
330
1E
100
AcDbEntity
  8
SCHRAFF
100
AcDbHatch
 10
0.0
 20
0.0
 30
0.0
210
0.0
220
0.0
230
1.0
  2
NET
 70
     0
 71
     1
 91
        4
 92
        7
 72
     1
 73
     1
 93
       19
 10
428.4458232850401
 20
395.2493561825972
 42
0.0
 10
428.266225302091
 20
396.1733077070387
 42
0.4420454759427238
 10
424.8448490552844
 20
397.5763261129442
 42
-0.2419833741269512
 10
423.9309139451193
 20
397.6051806094323
 42
-0.2492603645242969
 10
422.9085893292399
 20
399.1798614972806
 42
0.0
 10
421.9897744543418
 20
409.6819635739291
 42
0.3888787318535223
 10
419.9973850581577
 20
411.5076520884372
 42
0.0
 10
418.0126644083315
 20
411.5076520884372
 42
0.3888787318530303
 10
416.0202750121477
 20
409.6819635739325
 42
0.0
 10
415.3051154250373
 20
401.5076520884336
 42
0.0
 10
415.1003324832313
 20
401.5076520884336
 42
0.3639702342661566
 10
412.638313100701
 20
399.4417725326012
 42
0.0
 10
410.8050247332442
 20
389.0446775441267
 42
0.0
 10
410.8050247332442
 20
382.5076520884337
 42
0.0
 10
414.5050247332451
 20
382.5076520884338
 42
0.0
 10
416.2370755408138
 20
381.5076520884336
 42
0.0
 10
422.0050247332443
 20
381.5076520884336
 42
0.0
 10
428.5462823014459
 20
392.8374425419531
 42
0.1638766063560636
 10
428.6723127429955
 20
393.4632407920915
 42
0.0
 97
       19
330
BF1
330
BF2
330
BF5
330
BF4
330
C09
330
A63
330
1384
330
B56
330
B51
330
B52
330
B53
330
B4F
330
1130
330
B48
330
B4C
330
A69
330
BFA
330
BFC
330
BFF
 92
       22
 72
     0
 73
     1
 93
        4
 10
418.0050247332442
 20
409.5076520884338
 10
420.0050247332442
 20
409.5076520884338
 10
420.0050247332442
 20
386.5076520884338
 10
418.0050247332442
 20
386.5076520884338
 97
        4
330
A64
330
BF6
330
A65
330
B41
 92
        7
 72
     1
 73
     1
 93
       19
 10
307.3717363657884
 20
399.441772532601
 42
0.3639702342662778
 10
304.9097169832571
 20
401.5076520884336
 42
0.0
 10
304.7049340414519
 20
401.5076520884335
 42
0.0
 10
303.9897744543409
 20
409.6819635739291
 42
0.3888787318530207
 10
301.9973850581573
 20
411.5076520884339
 42
0.0
 10
300.0126644083307
 20
411.5076520884338
 42
0.3888787318529449
 10
298.0202750121475
 20
409.6819635739291
 42
0.0
 10
297.1014601372485
 20
399.1798614972806
 42
-0.2492603645242455
 10
296.0791355213694
 20
397.6051806094325
 42
-0.2419833741270075
 10
295.1652004112041
 20
397.5763261129442
 42
0.4420454759427463
 10
291.7438241643976
 20
396.1733077070381
 42
0.0
 10
291.5642261814486
 20
395.2493561825977
 42
0.0
 10
291.337736723493
 20
393.4632407920917
 42
0.1638766063561942
 10
291.4637671650431
 20
392.837442541953
 42
0.0
 10
298.0050247332442
 20
381.5076520884336
 42
0.0
 10
303.7729739256747
 20
381.5076520884336
 42
0.0
 10
305.5050247332443
 20
382.5076520884339
 42
0.0
 10
309.2050247332442
 20
382.5076520884337
 42
0.0
 10
309.2050247332441
 20
389.044677544129
 42
0.0
 97
       19
330
B33
330
B38
330
B35
330
B39
330
B34
330
B3A
330
B36
330
B14
330
B13
330
B16
330
B15
330
B2B
330
B2A
330
B26
330
B22
330
B21
330
B2D
330
110C
330
B2F
 92
       22
 72
     0
 73
     1
 93
        4
 10
302.0050247332442
 20
386.5076520884338
 10
300.0050247332442
 20
386.5076520884338
 10
300.0050247332442
 20
409.5076520884336
 10
302.0050247332442
 20
409.5076520884336
 97
        4
330
B2C
330
B17
330
B3B
330
B18
 75
     0
 76
     1
 52
45.0
 41
20.0
 77
     0
 78
     2
 53
45.0
 43
0.0
 44
0.0
 45
-1.767766952966368
 46
1.767766952966368
 79
     0
 53
135.0
 43
0.0
 44
0.0
 45
-1.767766952966368
 46
-1.767766952966368
 79
     0
 47
0.1778644695351521
 98
        4
 10
416.2874830060117
 20
393.8180400570477
 10
416.2874830060117
 20
393.8180400570477
 10
307.0389676257951
 20
393.6401745816538
 10
307.0389676257951
 20
393.6401745816538
  0
DIMENSION
  5
1414
330
1E
100
AcDbEntity
  8
BEM
100
AcDbDimension
  2
*D10
 10
440.005024733244
 20
16.75700117569407
 30
0.0
 11
360.0050247332441
 21
23.25700117569407
 31
0.0
 70
    32
  1
%%c<>
 71
     5
 42
159.9999999999999
  3
Standard
100
AcDbAlignedDimension
 13
280.0050247332442
 23
156.4737999737928
 33
0.0
 14
440.005024733244
 24
156.4737999737922
 34
0.0
100
AcDbRotatedDimension
1001
ACAD
1000
DSTYLE
1002
{
1070
    40
1040
2.0
1070
    41
1040
3.5
1070
    42
1040
1.0
1070
    43
1040
7.0
1070
    44
1040
1.0
1070
    73
1070
     0
1070
    74
1070
     0
1070
    77
1070
     1
1070
    78
1070
     8
1070
    79
1070
     2
1070
   140
1040
3.5
1070
   141
1040
1.5
1070
   146
1040
0.5142857142857144
1070
   147
1040
1.5
1070
   172
1070
     1
1070
   178
1070
     1
1070
   179
1070
     2
1070
   271
1070
     2
1070
   272
1070
     2
1070
   284
1070
     8
1070
   285
1070
     8
1070
   286
1070
     8
1002
}
  0
TEXT
  5
1415
330
1E
100
AcDbEntity
  8
TEXT
 62
     1
100
AcDbText
 10
503.1097215068566
 20
181.8665615956565
 30
0.0
 40
7.0
  1
EDV-Art.Nr. 19842.100X
 41
0.8
  7
GREEKS
100
AcDbText
  0
TEXT
  5
1416
330
1E
100
AcDbEntity
  8
TEXT
 62
     1
100
AcDbText
 10
503.1097215068567
 20
196.0794713265867
 30
0.0
 40
7.0
  1
Wärmedämmung DN100
 41
0.8
  7
GREEKS
100
AcDbText
  0
LINE
  5
1417
330
1E
100
AcDbEntity
  8
TEXT
 62
     2
100
AcDbLine
 10
501.0890874028363
 20
192.3565180267802
 30
0.0
 11
608.5937538164605
 21
192.3565180267802
 31
0.0
  0
LINE
  5
1418
330
1E
100
AcDbEntity
  8
TEXT
 62
     2
100
AcDbLine
 10
438.3170912452024
 20
209.8002283298539
 30
0.0
 11
501.0890874028363
 21
192.3565180267802
 31
0.0
  0
LINE
  5
141A
330
1E
100
AcDbEntity
  8
STEMPEL
100
AcDbLine
 10
421.0050247332441
 20
156.473799973792
 30
0.0
 11
437.2731199807462
 21
156.473799973792
 31
0.0
  0
LINE
  5
141B
330
1E
100
AcDbEntity
  8
STEMPEL
100
AcDbLine
 10
422.5050247332441
 20
246.4737999737916
 30
0.0
 11
422.505024733244
 21
176.473799973792
 31
0.0
  0
LINE
  5
141C
330
1E
100
AcDbEntity
  8
STEMPEL
100
AcDbLine
 10
421.1620776660234
 20
174.8622634931273
 30
0.0
 11
422.505024733244
 21
176.473799973792
 31
0.0
  0
LINE
  5
141D
330
1E
100
AcDbEntity
  8
STEMPEL
100
AcDbLine
 10
421.5924391698009
 20
176.473799973792
 30
0.0
 11
422.505024733244
 21
176.473799973792
 31
0.0
  0
LINE
  5
141E
330
1E
100
AcDbEntity
  8
STEMPEL
100
AcDbLine
 10
455.005024733244
 20
316.4737999737927
 30
0.0
 11
440.2600226589241
 21
159.1937778477133
 31
0.0
  0
ARC
  5
141F
330
1E
100
AcDbEntity
  8
STEMPEL
100
AcDbCircle
 10
437.2731199807462
 20
159.4737999737925
 30
0.0
 40
3.0
100
AcDbArc
 50
270.0
 51
354.6441749571445
  0
LINE
  5
1420
330
1E
100
AcDbEntity
  8
STEMPEL
100
AcDbLine
 10
422.5050247332441
 20
266.4737999737925
 30
0.0
 11
433.5050247332438
 21
266.4737999737925
 31
0.0
  0
LINE
  5
1421
330
1E
100
AcDbEntity
  8
STEMPEL
100
AcDbLine
 10
433.5050247332438
 20
266.4737999737925
 30
0.0
 11
422.5050247332441
 21
246.4737999737916
 31
0.0
  0
LINE
  5
1423
330
1E
100
AcDbEntity
  8
STEMPEL
100
AcDbLine
 10
433.5050247332438
 20
266.4737999737925
 30
0.0
 11
433.5050247332441
 21
311.4737999737927
 31
0.0
  0
LINE
  5
1424
330
1E
100
AcDbEntity
  8
STEMPEL
100
AcDbLine
 10
432.340582955912
 20
311.4737999737927
 30
0.0
 11
433.5050247332441
 21
311.4737999737927
 31
0.0
  0
LINE
  5
1425
330
1E
100
AcDbEntity
  8
STEMPEL
100
AcDbLine
 10
440.005024733244
 20
316.4737999737927
 30
0.0
 11
433.5050247332441
 21
311.4737999737927
 31
0.0
  0
LINE
  5
1426
330
1E
100
AcDbEntity
  8
STEMPEL
100
AcDbLine
 10
265.0050247332441
 20
316.4737999737927
 30
0.0
 11
279.7500268075641
 21
159.1937778477133
 31
0.0
  0
DIMENSION
  5
1427
330
1E
100
AcDbEntity
  8
BEM
100
AcDbDimension
  2
*D11
 10
189.5548370370694
 20
156.4737999737928
 30
0.0
 11
183.0548370370694
 21
236.4737999737924
 31
0.0
 70
    32
 71
     5
 42
159.9999999999992
  3
Standard
100
AcDbAlignedDimension
 13
195.0050247332439
 23
316.473799973792
 33
0.0
 14
280.0050247332442
 24
156.4737999737928
 34
0.0
 50
270.0
100
AcDbRotatedDimension
1001
ACAD
1000
DSTYLE
1002
{
1070
    40
1040
2.0
1070
    41
1040
3.5
1070
    42
1040
1.0
1070
    43
1040
7.0
1070
    44
1040
1.0
1070
    73
1070
     0
1070
    74
1070
     0
1070
    77
1070
     1
1070
    78
1070
     8
1070
    79
1070
     2
1070
   140
1040
3.5
1070
   141
1040
1.5
1070
   146
1040
0.5142857142857144
1070
   147
1040
1.5
1070
   172
1070
     1
1070
   178
1070
     1
1070
   179
1070
     2
1070
   271
1070
     2
1070
   272
1070
     2
1070
   284
1070
     8
1070
   285
1070
     8
1070
   286
1070
     8
1002
}
  0
LINE
  5
1428
330
1E
100
AcDbEntity
  8
STEMPEL
100
AcDbLine
 10
282.7369294857419
 20
156.4737999737925
 30
0.0
 11
309.0050247332442
 21
156.4737999737925
 31
0.0
  0
ARC
  5
1429
330
1E
100
AcDbEntity
  8
STEMPEL
100
AcDbCircle
 10
282.7369294857419
 20
159.4737999737925
 30
0.0
 40
3.0
100
AcDbArc
 50
185.3558250428554
 51
270.0
  0
LINE
  5
142A
330
1E
100
AcDbEntity
  8
STEMPEL
100
AcDbLine
 10
297.5050247332441
 20
246.4737999737924
 30
0.0
 11
297.5050247332441
 21
176.4737999737926
 31
0.0
  0
LINE
  5
142B
330
1E
100
AcDbEntity
  8
STEMPEL
100
AcDbLine
 10
309.0050247332442
 20
162.6737999737921
 30
0.0
 11
297.5050247332442
 21
176.473799973792
 31
0.0
  0
LINE
  5
142C
330
1E
100
AcDbEntity
  8
STEMPEL
100
AcDbLine
 10
297.5050247332441
 20
176.4737999737926
 30
0.0
 11
308.942060074637
 21
176.4737999737925
 31
0.0
  0
LINE
  5
142D
330
1E
100
AcDbEntity
  8
STEMPEL
100
AcDbLine
 10
286.5050247332444
 20
266.4737999737925
 30
0.0
 11
286.5050247332441
 21
311.4737999737927
 31
0.0
  0
LINE
  5
142E
330
1E
100
AcDbEntity
  8
STEMPEL
100
AcDbLine
 10
286.5050247332444
 20
266.4737999737925
 30
0.0
 11
298.5050247332442
 21
266.4737999737925
 31
0.0
  0
LINE
  5
142F
330
1E
100
AcDbEntity
  8
STEMPEL
100
AcDbLine
 10
286.5050247332444
 20
266.4737999737925
 30
0.0
 11
297.5050247332441
 21
246.4737999737924
 31
0.0
  0
LINE
  5
1430
330
1E
100
AcDbEntity
  8
STEMPEL
100
AcDbLine
 10
297.5050247332441
 20
246.4737999737924
 30
0.0
 11
303.5050247332442
 21
246.4737999737923
 31
0.0
  0
LINE
  5
1431
330
1E
100
AcDbEntity
  8
STEMPEL
100
AcDbLine
 10
280.0050247332441
 20
316.4737999737927
 30
0.0
 11
286.5050247332441
 21
311.4737999737927
 31
0.0
  0
LINE
  5
1432
330
1E
100
AcDbEntity
  8
STEMPEL
100
AcDbLine
 10
286.5050247332441
 20
311.4737999737927
 30
0.0
 11
287.6694665105769
 21
311.4737999737927
 31
0.0
  0
TEXT
  5
1466
330
1E
100
AcDbEntity
  8
TEXT
100
AcDbText
 10
654.8629872542569
 20
61.99999999999988
 30
0.0
 40
5.0
  1
mit Wärmedämmung und Heizung
 41
0.7
100
AcDbText
  0
POLYLINE
  5
14AF
330
1E
100
AcDbEntity
  8
STEMPEL
100
AcDb2dPolyline
 66
     1
 10
0.0
 20
0.0
 30
0.0
  0
VERTEX
  5
14B0
330
14AF
100
AcDbEntity
  8
STEMPEL
100
AcDbVertex
100
AcDb2dVertex
 10
421.0050247332441
 20
154.4737999737906
 30
0.0
  0
VERTEX
  5
14B1
330
14AF
100
AcDbEntity
  8
STEMPEL
100
AcDbVertex
100
AcDb2dVertex
 10
420.999568941883
 20
147.6067089310347
 30
0.0
  0
VERTEX
  5
14B2
330
14AF
100
AcDbEntity
  8
STEMPEL
100
AcDbVertex
100
AcDb2dVertex
 10
421.0670206164463
 20
142.352962817813
 30
0.0
  0
VERTEX
  5
14B3
330
14AF
100
AcDbEntity
  8
STEMPEL
100
AcDbVertex
100
AcDb2dVertex
 10
421.264444303058
 20
138.2741834179253
 30
0.0
  0
VERTEX
  5
14B4
330
14AF
100
AcDbEntity
  8
STEMPEL
100
AcDbVertex
100
AcDb2dVertex
 10
421.6394274919108
 20
134.8430718345633
 30
0.0
  0
VERTEX
  5
14B5
330
14AF
100
AcDbEntity
  8
STEMPEL
100
AcDbVertex
100
AcDb2dVertex
 10
422.2646033490746
 20
131.423215740509
 30
0.0
  0
VERTEX
  5
14B6
330
14AF
100
AcDbEntity
  8
STEMPEL
100
AcDbVertex
100
AcDb2dVertex
 10
423.2526853634478
 20
127.3886848650999
 30
0.0
  0
VERTEX
  5
14B7
330
14AF
100
AcDbEntity
  8
STEMPEL
100
AcDbVertex
100
AcDb2dVertex
 10
424.7066702180066
 20
122.2272032468743
 30
0.0
  0
VERTEX
  5
14B8
330
14AF
100
AcDbEntity
  8
STEMPEL
100
AcDbVertex
100
AcDb2dVertex
 10
426.6960575399744
 20
115.5041887652609
 30
0.0
  0
SEQEND
  5
14B9
330
14AF
100
AcDbEntity
  8
STEMPEL
  0
LINE
  5
14BA
330
1E
100
AcDbEntity
  8
MITTEL
100
AcDbLine
 10
429.5727567007004
 20
116.355424301807
 30
0.0
 11
416.1481606173129
 21
112.3829917979251
 31
0.0
  0
POLYLINE
  5
14BB
330
1E
100
AcDbEntity
  8
STEMPEL
100
AcDb2dPolyline
 66
     1
 10
0.0
 20
0.0
 30
0.0
 70
     4
 75
     6
  0
VERTEX
  5
14BC
330
14BB
100
AcDbEntity
  8
STEMPEL
100
AcDbVertex
100
AcDb2dVertex
 10
411.0050334110859
 20
154.480155840757
 30
0.0
 70
    16
  0
VERTEX
  5
14BD
330
14BB
100
AcDbEntity
  8
STEMPEL
100
AcDbVertex
100
AcDb2dVertex
 10
411.0050334110859
 20
154.480155840757
 30
0.0
 70
     8
  0
VERTEX
  5
14BE
330
14BB
100
AcDbEntity
  8
STEMPEL
100
AcDbVertex
100
AcDb2dVertex
 10
411.6596885147213
 20
147.5585337504223
 30
0.0
 70
     8
  0
VERTEX
  5
14BF
330
14BB
100
AcDbEntity
  8
STEMPEL
100
AcDbVertex
100
AcDb2dVertex
 10
412.2257569928053
 20
142.1081505457534
 30
0.0
 70
     8
  0
VERTEX
  5
14C0
330
14BB
100
AcDbEntity
  8
STEMPEL
100
AcDbVertex
100
AcDb2dVertex
 10
412.7972211855754
 20
137.6456555020673
 30
0.0
 70
     8
  0
VERTEX
  5
14C1
330
14BB
100
AcDbEntity
  8
STEMPEL
100
AcDbVertex
100
AcDb2dVertex
 10
413.4680634332694
 20
133.6876978946808
 30
0.0
 70
     8
  0
VERTEX
  5
14C2
330
14BB
100
AcDbEntity
  8
STEMPEL
100
AcDbVertex
100
AcDb2dVertex
 10
414.3322660761249
 20
129.750926998911
 30
0.0
 70
     8
  0
VERTEX
  5
14C3
330
14BB
100
AcDbEntity
  8
STEMPEL
100
AcDbVertex
100
AcDb2dVertex
 10
415.4838114543798
 20
125.3519920900748
 30
0.0
 70
     8
  0
VERTEX
  5
14C4
330
14BB
100
AcDbEntity
  8
STEMPEL
100
AcDbVertex
100
AcDb2dVertex
 10
417.0166819082718
 20
120.0075424434893
 30
0.0
 70
     8
  0
VERTEX
  5
14C5
330
14BB
100
AcDbEntity
  8
STEMPEL
100
AcDbVertex
100
AcDb2dVertex
 10
419.0248597780385
 20
113.2342273344712
 30
0.0
 70
     8
  0
VERTEX
  5
14C6
330
14BB
100
AcDbEntity
  8
STEMPEL
100
AcDbVertex
100
AcDb2dVertex
 10
412.9524357128383
 20
133.6311999970364
 30
0.0
 70
    16
  0
VERTEX
  5
14C7
330
14BB
100
AcDbEntity
  8
STEMPEL
100
AcDbVertex
100
AcDb2dVertex
 10
419.0248597780386
 20
113.2342273344713
 30
0.0
 70
    16
  0
SEQEND
  5
14C8
330
14BB
100
AcDbEntity
  8
STEMPEL
  0
LINE
  5
14C9
330
1E
100
AcDbEntity
  8
STEMPEL
100
AcDbLine
 10
421.0050247332441
 20
154.4737999737906
 30
0.0
 11
421.0050247332441
 21
173.0969326369161
 31
0.0
  0
ARC
  5
14CA
330
1E
100
AcDbEntity
  8
STEMPEL
100
AcDbCircle
 10
416.505024733244
 20
179.8608072661501
 30
0.0
 40
6.0
100
AcDbArc
 50
334.9921667653156
 51
0.0
  0
ARC
  5
14CB
330
1E
100
AcDbEntity
  8
STEMPEL
100
AcDbCircle
 10
431.0050247332442
 20
173.096932636916
 30
0.0
 40
10.0
100
AcDbArc
 50
154.9921667653156
 51
180.0
  0
HATCH
  5
14CC
330
1E
100
AcDbEntity
  8
SCHRAFF
100
AcDbHatch
 10
0.0
 20
0.0
 30
0.0
210
0.0
220
0.0
230
1.0
  2
_USER
 70
     0
 71
     1
 91
        1
 92
        7
 72
     1
 73
     1
 93
        8
 10
299.5050247332441
 20
264.4710541408145
 42
0.4142135623730951
 10
300.5050247332442
 20
263.4710541408145
 42
0.0
 10
301.5050247332442
 20
263.4710541408145
 42
0.4142135623730951
 10
302.5050247332442
 20
264.4710541408145
 42
0.0
 10
302.5050247332442
 20
270.4710541408147
 42
0.4142135623731283
 10
301.5050247332441
 20
271.4710541408146
 42
0.0
 10
300.5050247332442
 20
271.4710541408146
 42
0.4142135623730951
 10
299.5050247332441
 20
270.4710541408145
 42
0.0
 97
        8
330
14CD
330
14DC
330
14CE
330
14DA
330
14D3
330
14D6
330
14D7
330
14D5
 75
     0
 76
     0
 52
135.0
 41
1.0
 77
     0
 78
     1
 53
135.0
 43
121.0432618815627
 44
-176.6829025384641
 45
-0.7071067811865476
 46
-0.7071067811865475
 79
     0
 47
0.1071053300341939
 98
        1
 10
300.9398747214518
 20
267.2471295743912
  0
ARC
  5
14CD
102
{ACAD_REACTORS
330
14CC
330
14D1
102
}
330
1E
100
AcDbEntity
  8
STEMPEL
100
AcDbCircle
 10
300.5050247332442
 20
270.4710541408145
 30
0.0
 40
1.0
100
AcDbArc
 50
90.0
 51
180.0
  0
ARC
  5
14CE
102
{ACAD_REACTORS
330
14CC
330
14D1
102
}
330
1E
100
AcDbEntity
  8
STEMPEL
100
AcDbCircle
 10
301.5050247332442
 20
270.4710541408147
 30
0.0
 40
1.0
100
AcDbArc
 50
0.0
 51
90.0
  0
ARC
  5
14CF
102
{ACAD_REACTORS
330
14D1
102
}
330
1E
100
AcDbEntity
  8
STEMPEL
100
AcDbCircle
 10
300.5050247332442
 20
270.4710541408145
 30
0.0
 40
2.0
100
AcDbArc
 50
90.0
 51
180.0
  0
ARC
  5
14D0
102
{ACAD_REACTORS
330
14D1
102
}
330
1E
100
AcDbEntity
  8
STEMPEL
100
AcDbCircle
 10
301.5050247332442
 20
270.4710541408147
 30
0.0
 40
2.0
100
AcDbArc
 50
0.0
 51
90.0
  0
HATCH
  5
14D1
330
1E
100
AcDbEntity
  8
SCHRAFF
100
AcDbHatch
 10
0.0
 20
0.0
 30
0.0
210
0.0
220
0.0
230
1.0
  2
NET
 70
     0
 71
     1
 91
        2
 92
        7
 72
     1
 73
     1
 93
        8
 10
298.5050247332442
 20
264.4710541408145
 42
0.4142135623730951
 10
300.5050247332442
 20
262.4710541408145
 42
0.0
 10
301.5050247332442
 20
262.4710541408145
 42
0.4142135623730951
 10
303.5050247332442
 20
264.4710541408145
 42
0.0
 10
303.5050247332442
 20
270.4710541408147
 42
0.4142135623730951
 10
301.5050247332442
 20
272.4710541408147
 42
0.0
 10
300.5050247332442
 20
272.4710541408145
 42
0.4142135623730951
 10
298.5050247332442
 20
270.4710541408145
 42
0.0
 97
        8
330
14CF
330
14DD
330
14D0
330
14DB
330
14D2
330
14D8
330
14D9
330
14D4
 92
       22
 72
     1
 73
     1
 93
        8
 10
299.5050247332441
 20
270.4710541408145
 42
-0.4142135623730951
 10
300.5050247332442
 20
271.4710541408146
 42
0.0
 10
301.5050247332442
 20
271.4710541408146
 42
-0.4142135623730951
 10
302.5050247332442
 20
270.4710541408147
 42
0.0
 10
302.5050247332442
 20
264.4710541408145
 42
-0.4142135623730951
 10
301.5050247332442
 20
263.4710541408145
 42
0.0
 10
300.5050247332442
 20
263.4710541408145
 42
-0.4142135623730951
 10
299.5050247332441
 20
264.4710541408145
 42
0.0
 97
        8
330
14D7
330
14D6
330
14D3
330
14DA
330
14CE
330
14DC
330
14CD
330
14D5
 75
     0
 76
     1
 52
45.0
 41
10.0
 77
     0
 78
     2
 53
135.0
 43
593.7807968867632
 44
-80.63309539474017
 45
0.883883476483184
 46
0.8838834764831844
 79
     0
 53
45.0
 43
593.7807968867632
 44
-80.63309539474017
 45
0.8838834764831842
 46
-0.8838834764831842
 79
     0
 47
0.2432155912222071
 98
        2
 10
298.7925943260911
 20
264.7902295334588
 10
298.7925943260911
 20
264.7902295334588
  0
ARC
  5
14D2
102
{ACAD_REACTORS
330
14D1
102
}
330
1E
100
AcDbEntity
  8
STEMPEL
100
AcDbCircle
 10
301.5050247332442
 20
264.4710541408145
 30
0.0
 40
2.0
100
AcDbArc
 50
270.0
 51
0.0
  0
ARC
  5
14D3
102
{ACAD_REACTORS
330
14CC
330
14D1
102
}
330
1E
100
AcDbEntity
  8
STEMPEL
100
AcDbCircle
 10
301.5050247332442
 20
264.4710541408145
 30
0.0
 40
1.0
100
AcDbArc
 50
270.0
 51
0.0
  0
LINE
  5
14D4
102
{ACAD_REACTORS
330
14D1
102
}
330
1E
100
AcDbEntity
  8
STEMPEL
  6
Continuous
100
AcDbLine
 10
298.5050247332442
 20
270.4710541408145
 30
0.0
 11
298.5050247332442
 21
264.4710541408145
 31
0.0
  0
LINE
  5
14D5
102
{ACAD_REACTORS
330
14CC
330
14D1
102
}
330
1E
100
AcDbEntity
  8
STEMPEL
  6
Continuous
100
AcDbLine
 10
299.5050247332441
 20
270.4710541408145
 30
0.0
 11
299.5050247332441
 21
264.4710541408145
 31
0.0
  0
LINE
  5
14D6
102
{ACAD_REACTORS
330
14CC
330
14D1
102
}
330
1E
100
AcDbEntity
  8
STEMPEL
100
AcDbLine
 10
301.5050247332442
 20
263.4710541408145
 30
0.0
 11
300.5050247332442
 21
263.4710541408145
 31
0.0
  0
ARC
  5
14D7
102
{ACAD_REACTORS
330
14CC
330
14D1
102
}
330
1E
100
AcDbEntity
  8
STEMPEL
100
AcDbCircle
 10
300.5050247332442
 20
264.4710541408145
 30
0.0
 40
1.0
100
AcDbArc
 50
180.0
 51
270.0
  0
LINE
  5
14D8
102
{ACAD_REACTORS
330
14D1
102
}
330
1E
100
AcDbEntity
  8
STEMPEL
100
AcDbLine
 10
301.5050247332442
 20
262.4710541408145
 30
0.0
 11
300.5050247332442
 21
262.4710541408145
 31
0.0
  0
ARC
  5
14D9
102
{ACAD_REACTORS
330
14D1
102
}
330
1E
100
AcDbEntity
  8
STEMPEL
100
AcDbCircle
 10
300.5050247332442
 20
264.4710541408145
 30
0.0
 40
2.0
100
AcDbArc
 50
180.0
 51
270.0
  0
LINE
  5
14DA
102
{ACAD_REACTORS
330
14CC
330
14D1
102
}
330
1E
100
AcDbEntity
  8
STEMPEL
  6
Continuous
100
AcDbLine
 10
302.5050247332442
 20
270.4710541408147
 30
0.0
 11
302.5050247332442
 21
264.4710541408145
 31
0.0
  0
LINE
  5
14DB
102
{ACAD_REACTORS
330
14D1
102
}
330
1E
100
AcDbEntity
  8
STEMPEL
  6
Continuous
100
AcDbLine
 10
303.5050247332442
 20
270.4710541408147
 30
0.0
 11
303.5050247332442
 21
264.4710541408145
 31
0.0
  0
LINE
  5
14DC
102
{ACAD_REACTORS
330
14CC
330
14D1
102
}
330
1E
100
AcDbEntity
  8
STEMPEL
100
AcDbLine
 10
301.5050247332442
 20
271.4710541408146
 30
0.0
 11
300.5050247332442
 21
271.4710541408146
 31
0.0
  0
LINE
  5
14DD
102
{ACAD_REACTORS
330
14D1
102
}
330
1E
100
AcDbEntity
  8
STEMPEL
100
AcDbLine
 10
300.5050247332442
 20
272.4710541408145
 30
0.0
 11
301.5050247332442
 21
272.4710541408147
 31
0.0
  0
LINE
  5
14DE
330
1E
100
AcDbEntity
  8
STEMPEL
100
AcDbLine
 10
422.5050247332441
 20
269.4710541408146
 30
0.0
 11
422.505024733244
 21
176.473799973792
 31
0.0
  0
HATCH
  5
14DF
330
1E
100
AcDbEntity
  8
SCHRAFF
100
AcDbHatch
 10
0.0
 20
0.0
 30
0.0
210
0.0
220
0.0
230
1.0
  2
NET
 70
     0
 71
     0
 91
        2
 92
        7
 72
     1
 73
     1
 93
        8
 10
421.5050247332441
 20
270.4710541408145
 42
0.4142135623730618
 10
419.5050247332444
 20
272.4710541408145
 42
0.0
 10
418.5050247332442
 20
272.4710541408147
 42
0.4142135623730951
 10
416.5050247332441
 20
270.4710541408147
 42
0.0
 10
416.5050247332441
 20
264.4710541408145
 42
0.4142135623730951
 10
418.5050247332442
 20
262.4710541408145
 42
0.0
 10
419.5050247332441
 20
262.4710541408145
 42
0.4142135623730951
 10
421.5050247332441
 20
264.4710541408145
 42
0.0
 97
        0
 92
       22
 72
     1
 73
     1
 93
        8
 10
420.5050247332441
 20
264.4710541408145
 42
-0.4142135623730951
 10
419.5050247332441
 20
263.4710541408145
 42
0.0
 10
418.5050247332442
 20
263.4710541408145
 42
-0.4142135623730951
 10
417.5050247332441
 20
264.4710541408145
 42
0.0
 10
417.5050247332441
 20
270.4710541408147
 42
-0.4142135623731284
 10
418.5050247332442
 20
271.4710541408146
 42
0.0
 10
419.5050247332441
 20
271.4710541408146
 42
-0.4142135623730951
 10
420.5050247332441
 20
270.4710541408145
 42
0.0
 97
        0
 75
     0
 76
     1
 52
45.0
 41
10.0
 77
     0
 78
     2
 53
45.0
 43
126.2292525797251
 44
-80.63309539474017
 45
-0.8838834764831842
 46
0.8838834764831844
 79
     0
 53
135.0
 43
126.2292525797251
 44
-80.63309539474017
 45
-0.8838834764831844
 46
-0.8838834764831842
 79
     0
 47
0.2432155912222071
 98
        2
 10
421.2174551403972
 20
264.7902295334588
 10
421.2174551403972
 20
264.7902295334588
  0
ARC
  5
14E0
330
1E
100
AcDbEntity
  8
STEMPEL
100
AcDbCircle
 10
418.5050247332442
 20
270.4710541408147
 30
0.0
 40
2.0
100
AcDbArc
 50
90.0
 51
180.0
  0
ARC
  5
14E1
330
1E
100
AcDbEntity
  8
STEMPEL
100
AcDbCircle
 10
419.5050247332441
 20
270.4710541408145
 30
0.0
 40
2.0
100
AcDbArc
 50
0.0
 51
90.0
  0
ARC
  5
14E2
102
{ACAD_REACTORS
330
14E4
102
}
330
1E
100
AcDbEntity
  8
STEMPEL
100
AcDbCircle
 10
418.5050247332442
 20
270.4710541408147
 30
0.0
 40
1.0
100
AcDbArc
 50
90.0
 51
180.0
  0
ARC
  5
14E3
102
{ACAD_REACTORS
330
14E4
102
}
330
1E
100
AcDbEntity
  8
STEMPEL
100
AcDbCircle
 10
419.5050247332441
 20
270.4710541408145
 30
0.0
 40
1.0
100
AcDbArc
 50
0.0
 51
90.0
  0
HATCH
  5
14E4
330
1E
100
AcDbEntity
  8
SCHRAFF
100
AcDbHatch
 10
0.0
 20
0.0
 30
0.0
210
0.0
220
0.0
230
1.0
  2
_USER
 70
     0
 71
     1
 91
        1
 92
        7
 72
     1
 73
     1
 93
        8
 10
420.5050247332441
 20
270.4710541408145
 42
0.4142135623730951
 10
419.5050247332441
 20
271.4710541408146
 42
0.0
 10
418.5050247332442
 20
271.4710541408146
 42
0.4142135623730951
 10
417.5050247332441
 20
270.4710541408147
 42
0.0
 10
417.5050247332441
 20
264.4710541408145
 42
0.4142135623730951
 10
418.5050247332442
 20
263.4710541408145
 42
0.0
 10
419.5050247332441
 20
263.4710541408145
 42
0.4142135623730951
 10
420.5050247332441
 20
264.4710541408145
 42
0.0
 97
        8
330
14E3
330
14EF
330
14E2
330
14ED
330
14E7
330
14EB
330
14EA
330
14EC
 75
     0
 76
     0
 52
135.0
 41
1.0
 77
     0
 78
     1
 53
135.0
 43
158.5751059814024
 44
-111.9360598295216
 45
-0.7071067811865476
 46
-0.7071067811865475
 79
     0
 47
0.1071053300341939
 98
        1
 10
419.0701747450366
 20
267.2471295743912
  0
ARC
  5
14E5
330
1E
100
AcDbEntity
  8
STEMPEL
100
AcDbCircle
 10
419.505024733244
 20
269.4710541408146
 30
0.0
 40
3.0
100
AcDbArc
 50
0.0
 51
89.99999999999349
  0
ARC
  5
14E6
330
1E
100
AcDbEntity
  8
STEMPEL
100
AcDbCircle
 10
418.5050247332442
 20
264.4710541408145
 30
0.0
 40
2.0
100
AcDbArc
 50
180.0
 51
270.0
  0
ARC
  5
14E7
102
{ACAD_REACTORS
330
14E4
102
}
330
1E
100
AcDbEntity
  8
STEMPEL
100
AcDbCircle
 10
418.5050247332442
 20
264.4710541408145
 30
0.0
 40
1.0
100
AcDbArc
 50
180.0
 51
270.0
  0
ARC
  5
14E8
330
1E
100
AcDbEntity
  8
STEMPEL
100
AcDbCircle
 10
419.5050247332441
 20
264.4710541408145
 30
0.0
 40
2.0
100
AcDbArc
 50
270.0
 51
0.0
  0
LINE
  5
14E9
330
1E
100
AcDbEntity
  8
STEMPEL
100
AcDbLine
 10
418.5050247332442
 20
262.4710541408145
 30
0.0
 11
419.5050247332441
 21
262.4710541408145
 31
0.0
  0
ARC
  5
14EA
102
{ACAD_REACTORS
330
14E4
102
}
330
1E
100
AcDbEntity
  8
STEMPEL
100
AcDbCircle
 10
419.5050247332441
 20
264.4710541408145
 30
0.0
 40
1.0
100
AcDbArc
 50
270.0
 51
0.0
  0
LINE
  5
14EB
102
{ACAD_REACTORS
330
14E4
102
}
330
1E
100
AcDbEntity
  8
STEMPEL
100
AcDbLine
 10
418.5050247332442
 20
263.4710541408145
 30
0.0
 11
419.5050247332441
 21
263.4710541408145
 31
0.0
  0
LINE
  5
14EC
102
{ACAD_REACTORS
330
14E4
102
}
330
1E
100
AcDbEntity
  8
STEMPEL
  6
Continuous
100
AcDbLine
 10
420.5050247332441
 20
270.4710541408145
 30
0.0
 11
420.5050247332441
 21
264.4710541408145
 31
0.0
  0
LINE
  5
14ED
102
{ACAD_REACTORS
330
14E4
102
}
330
1E
100
AcDbEntity
  8
STEMPEL
  6
Continuous
100
AcDbLine
 10
417.5050247332441
 20
270.4710541408147
 30
0.0
 11
417.5050247332441
 21
264.4710541408145
 31
0.0
  0
LINE
  5
14EE
330
1E
100
AcDbEntity
  8
STEMPEL
100
AcDbLine
 10
419.5050247332444
 20
272.4710541408145
 30
0.0
 11
418.5050247332442
 21
272.4710541408147
 31
0.0
  0
LINE
  5
14EF
102
{ACAD_REACTORS
330
14E4
102
}
330
1E
100
AcDbEntity
  8
STEMPEL
100
AcDbLine
 10
418.5050247332442
 20
271.4710541408146
 30
0.0
 11
419.5050247332441
 21
271.4710541408146
 31
0.0
  0
LINE
  5
14F0
330
1E
100
AcDbEntity
  8
STEMPEL
  6
Continuous
100
AcDbLine
 10
416.5050247332441
 20
270.4710541408147
 30
0.0
 11
416.5050247332441
 21
264.4710541408145
 31
0.0
  0
LINE
  5
14F1
330
1E
100
AcDbEntity
  8
STEMPEL
100
AcDbLine
 10
421.5050247332441
 20
270.4710541408145
 30
0.0
 11
421.5050247332441
 21
264.4710541408145
 31
0.0
  0
HATCH
  5
14F7
330
1E
100
AcDbEntity
  8
SCHRAFF
100
AcDbHatch
 10
0.0
 20
0.0
 30
0.0
210
0.0
220
0.0
230
1.0
  2
HONEY
 70
     0
 71
     0
 91
        3
 92
        7
 72
     0
 73
     1
 93
        5
 10
455.0050247332438
 20
316.4737999737921
 10
440.0050247332434
 20
316.4737999737921
 10
433.5050247332439
 20
311.4737999737926
 10
433.5050247332438
 20
297.8391013210546
 10
452.578590765608
 20
290.5918376523398
 97
        0
 92
        7
 72
     1
 73
     1
 93
       10
 10
452.5785907656079
 20
290.5918376523396
 42
0.0
 10
433.5050247332437
 20
297.8391013210545
 42
0.0
 10
433.5050247332435
 20
266.4737999737925
 42
0.0
 10
422.5050247332441
 20
246.4737999737924
 42
0.0
 10
422.505024733244
 20
176.473799973792
 42
0.0
 10
421.1620776660235
 20
174.8622634931274
 42
0.0443949063123996
 10
421.0050247332441
 20
173.0969326369161
 42
0.0
 10
421.0050247332441
 20
156.473799973792
 42
0.0
 10
437.2731199807462
 20
156.473799973792
 42
0.3870924378343482
 10
440.2600226589241
 20
159.1937778477133
 42
0.0
 97
        0
 92
        7
 72
     1
 73
     1
 93
       10
 10
297.5050247332441
 20
246.4737999737925
 42
0.0
 10
286.5050247332446
 20
266.4737999737921
 42
0.0
 10
286.5050247332442
 20
311.4737999737928
 42
0.0
 10
280.0050247332448
 20
316.4737999737922
 42
0.0
 10
265.0050247332442
 20
316.4737999737921
 42
0.0
 10
279.7500268075641
 20
159.1937778477133
 42
0.3870924378342932
 10
282.7369294857419
 20
156.4737999737925
 42
0.0
 10
309.0050247332442
 20
156.4737999737924
 42
0.0
 10
309.0050247332442
 20
162.6737999737919
 42
0.0
 10
297.5050247332441
 20
176.473799973792
 42
0.0
 97
        0
 75
     0
 76
     1
 52
0.0
 41
35.0
 77
     0
 78
     3
 53
0.0
 43
5.068740863579421
 44
-2.528600081930008
 45
6.5625
 46
3.788861124999999
 79
     2
 49
4.375
 49
-8.75
 53
120.0
 43
5.068740863579421
 44
-2.528600081930008
 45
-6.562499985661285
 46
3.788861149835379
 79
     2
 49
4.374999999999998
 49
-8.749999999999996
 53
60.0
 43
5.068740863579421
 44
-2.528600081930008
 45
0.000000014338714
 46
7.577722274835378
 79
     2
 49
-8.75
 49
4.375
 47
0.4040982327708084
 98
        3
 10
448.3988503208319
 20
302.9701923711565
 10
443.5480262048572
 20
275.8956121421787
 10
283.8750644805181
 20
232.2530028913817
  0
ENDSEC
  0
SECTION
  2
OBJECTS
  0
DICTIONARY
  5
C
330
0
100
AcDbDictionary
281
     1
  3
ACAD_COLOR
350
11A
  3
ACAD_GROUP
350
D
  3
ACAD_LAYOUT
350
19
  3
ACAD_MATERIAL
350
119
  3
ACAD_MLINESTYLE
350
16
  3
ACAD_PLOTSETTINGS
350
18
  3
ACAD_PLOTSTYLENAME
350
E
  3
AcDbVariableDictionary
350
125
  0
DICTIONARY
  5
DB
330
1E
100
AcDbDictionary
280
     1
281
     1
  3
ACAD_LAYOUTSELFREF
360
10F
  0
DICTIONARY
  5
DD
330
1A
100
AcDbDictionary
280
     1
281
     1
  3
ACAD_LAYOUTSELFREF
360
10E
  0
DICTIONARY
  5
11A
102
{ACAD_REACTORS
330
C
102
}
330
C
100
AcDbDictionary
281
     1
  0
DICTIONARY
  5
D
102
{ACAD_REACTORS
330
C
102
}
330
C
100
AcDbDictionary
281
     1
  0
DICTIONARY
  5
19
102
{ACAD_REACTORS
330
C
102
}
330
C
100
AcDbDictionary
281
     1
  3
Layout1
350
1D
  3
Model
350
21
  0
DICTIONARY
  5
119
102
{ACAD_REACTORS
330
C
102
}
330
C
100
AcDbDictionary
281
     1
  0
DICTIONARY
  5
16
102
{ACAD_REACTORS
330
C
102
}
330
C
100
AcDbDictionary
281
     1
  3
Standard
350
17
  0
DICTIONARY
  5
18
102
{ACAD_REACTORS
330
C
102
}
330
C
100
AcDbDictionary
281
     1
  0
ACDBDICTIONARYWDFLT
  5
E
102
{ACAD_REACTORS
330
C
102
}
330
C
100
AcDbDictionary
281
     1
  3
Normal
350
F
100
AcDbDictionaryWithDefault
340
F
  0
DICTIONARY
  5
125
102
{ACAD_REACTORS
330
C
102
}
330
C
100
AcDbDictionary
281
     1
  3
DIMASSOC
350
126
  3
PROJECTNAME
350
127
  0
XRECORD
  5
10F
102
{ACAD_REACTORS
330
DB
102
}
330
DB
100
AcDbXrecord
280
     1
340
1E
  0
XRECORD
  5
10E
102
{ACAD_REACTORS
330
DD
102
}
330
DD
100
AcDbXrecord
280
     1
340
1A
  0
LAYOUT
  5
1D
102
{ACAD_REACTORS
330
19
102
}
330
19
100
AcDbPlotSettings
  1

  2
\\NT_WORK01\HP LaserJet 5000 PCL 6
  4

  6

 40
0.0
 41
0.0
 42
0.0
 43
0.0
 44
0.0
 45
0.0
 46
0.0
 47
0.0
 48
0.0
 49
0.0
140
0.0
141
0.0
142
1.0
143
1.0
 70
   688
 72
     0
 73
     0
 74
     5
  7

 75
    16
147
1.0
 76
     0
 77
     2
 78
   300
148
0.0
149
0.0
100
AcDbLayout
  1
Layout1
 70
     0
 71
     1
 10
0.0
 20
0.0
 11
12.0
 21
9.0
 12
0.0
 22
0.0
 32
0.0
 14
1.000000000000000E+20
 24
1.000000000000000E+20
 34
1.000000000000000E+20
 15
-1.000000000000000E+20
 25
-1.000000000000000E+20
 35
-1.000000000000000E+20
146
0.0
 13
0.0
 23
0.0
 33
0.0
 16
1.0
 26
0.0
 36
0.0
 17
0.0
 27
1.0
 37
0.0
 76
     0
330
1A
  0
LAYOUT
  5
21
102
{ACAD_REACTORS
330
19
102
}
330
19
100
AcDbPlotSettings
  1

  2
none_device
  4
Letter_(8.50_x_11.00_Inches)
  6

 40
6.349999904632568
 41
6.349999904632568
 42
6.350006103515625
 43
6.350006103515625
 44
215.8999938964844
 45
279.3999938964844
 46
0.0
 47
0.0
 48
0.0
 49
0.0
140
0.0
141
0.0
142
1.0
143
1.0
 70
 11952
 72
     0
 73
     1
 74
     0
  7

 75
     0
147
1.0
 76
     0
 77
     2
 78
   300
148
-2905.680933852141
149
218.5190661478637
100
AcDbLayout
  1
Model
 70
     1
 71
     0
 10
0.0
 20
0.0
 11
12.0
 21
9.0
 12
0.0
 22
0.0
 32
0.0
 14
0.0
 24
0.0
 34
0.0
 15
0.0
 25
0.0
 35
0.0
146
0.0
 13
0.0
 23
0.0
 33
0.0
 16
1.0
 26
0.0
 36
0.0
 17
0.0
 27
1.0
 37
0.0
 76
     0
330
1E
  0
MLINESTYLE
  5
17
102
{ACAD_REACTORS
330
16
102
}
330
16
100
AcDbMlineStyle
  2
STANDARD
 70
     0
  3

 62
   256
 51
90.0
 52
90.0
 71
     2
 49
0.5
 62
   256
  6
BYLAYER
 49
-0.5
 62
   256
  6
BYLAYER
  0
ACDBPLACEHOLDER
  5
F
102
{ACAD_REACTORS
330
E
102
}
330
E
  0
DICTIONARYVAR
  5
126
102
{ACAD_REACTORS
330
125
102
}
330
125
100
DictionaryVariables
280
     0
  1
1
  0
DICTIONARYVAR
  5
127
102
{ACAD_REACTORS
330
125
102
}
330
125
100
DictionaryVariables
280
     0
  1

  0
ENDSEC
  0
EOF
