  0
SECTION
  2
HEADER
  9
$ACADVER
  1
AC1018
  9
$ACADMAINTVER
 70
     2
  9
$DWGCODEPAGE
  3
ANSI_1252
  9
$INSBASE
 10
0.0
 20
0.0
 30
0.0
  9
$EXTMIN
 10
0.0
 20
0.0
 30
0.0
  9
$EXTMAX
 10
840.0
 20
594.0
 30
0.0
  9
$LIMMIN
 10
0.0
 20
0.0
  9
$LIMMAX
 10
839.9999999999998
 20
594.0000000000002
  9
$ORTHOMODE
 70
     1
  9
$REGENMODE
 70
     1
  9
$FILLMODE
 70
     1
  9
$QTEXTMODE
 70
     0
  9
$MIRRTEXT
 70
     1
  9
$LTSCALE
 40
20.0
  9
$ATTMODE
 70
     1
  9
$TEXTSIZE
 40
3.5
  9
$TRACEWID
 40
0.5
  9
$TEXTSTYLE
  7
STANDARD
  9
$CLAYER
  8
VOLL
  9
$CELTYPE
  6
BYLAYER
  9
$CECOLOR
 62
   256
  9
$CELTSCALE
 40
1.0
  9
$DISPSILH
 70
     0
  9
$DIMSCALE
 40
2.0
  9
$DIMASZ
 40
3.5
  9
$DIMEXO
 40
1.0
  9
$DIMDLI
 40
7.0
  9
$DIMRND
 40
0.0
  9
$DIMDLE
 40
0.0
  9
$DIMEXE
 40
1.0
  9
$DIMTP
 40
0.0
  9
$DIMTM
 40
0.0
  9
$DIMTXT
 40
3.5
  9
$DIMCEN
 40
1.5
  9
$DIMTSZ
 40
0.0
  9
$DIMTOL
 70
     0
  9
$DIMLIM
 70
     0
  9
$DIMTIH
 70
     0
  9
$DIMTOH
 70
     0
  9
$DIMSE1
 70
     0
  9
$DIMSE2
 70
     0
  9
$DIMTAD
 70
     1
  9
$DIMZIN
 70
     8
  9
$DIMBLK
  1

  9
$DIMASO
 70
     1
  9
$DIMSHO
 70
     0
  9
$DIMPOST
  1

  9
$DIMAPOST
  1

  9
$DIMALT
 70
     0
  9
$DIMALTD
 70
     2
  9
$DIMALTF
 40
25.4
  9
$DIMLFAC
 40
1.0
  9
$DIMTOFL
 70
     1
  9
$DIMTVP
 40
0.0
  9
$DIMTIX
 70
     0
  9
$DIMSOXD
 70
     0
  9
$DIMSAH
 70
     0
  9
$DIMBLK1
  1

  9
$DIMBLK2
  1

  9
$DIMSTYLE
  2
STANDARD
  9
$DIMCLRD
 70
     0
  9
$DIMCLRE
 70
     0
  9
$DIMCLRT
 70
     1
  9
$DIMTFAC
 40
0.5
  9
$DIMGAP
 40
1.0
  9
$DIMJUST
 70
     0
  9
$DIMSD1
 70
     0
  9
$DIMSD2
 70
     0
  9
$DIMTOLJ
 70
     1
  9
$DIMTZIN
 70
     8
  9
$DIMALTZ
 70
     8
  9
$DIMALTTZ
 70
     8
  9
$DIMUPT
 70
     0
  9
$DIMDEC
 70
     2
  9
$DIMTDEC
 70
     2
  9
$DIMALTU
 70
     2
  9
$DIMALTTD
 70
     2
  9
$DIMTXSTY
  7
STANDARD
  9
$DIMAUNIT
 70
     0
  9
$DIMADEC
 70
     2
  9
$DIMALTRND
 40
0.0
  9
$DIMAZIN
 70
     2
  9
$DIMDSEP
 70
    46
  9
$DIMATFIT
 70
     3
  9
$DIMFRAC
 70
     0
  9
$DIMLDRBLK
  1

  9
$DIMLUNIT
 70
     2
  9
$DIMLWD
 70
    -2
  9
$DIMLWE
 70
    -2
  9
$DIMTMOVE
 70
     0
  9
$LUNITS
 70
     2
  9
$LUPREC
 70
     2
  9
$SKETCHINC
 40
1.0
  9
$FILLETRAD
 40
0.0
  9
$AUNITS
 70
     0
  9
$AUPREC
 70
     0
  9
$MENU
  1
ACAD
  9
$ELEVATION
 40
0.0
  9
$PELEVATION
 40
0.0
  9
$THICKNESS
 40
0.0
  9
$LIMCHECK
 70
     0
  9
$CHAMFERA
 40
0.0
  9
$CHAMFERB
 40
0.0
  9
$CHAMFERC
 40
0.0
  9
$CHAMFERD
 40
0.0
  9
$SKPOLY
 70
     0
  9
$TDCREATE
 40
2451478.637534491
  9
$TDUCREATE
 40
2451478.554201158
  9
$TDUPDATE
 40
2456111.320537778
  9
$TDUUPDATE
 40
2456111.237204445
  9
$TDINDWG
 40
0.1802502083
  9
$TDUSRTIMER
 40
0.1802502083
  9
$USRTIMER
 70
     1
  9
$ANGBASE
 50
0.0
  9
$ANGDIR
 70
     0
  9
$PDMODE
 70
     0
  9
$PDSIZE
 40
0.0
  9
$PLINEWID
 40
0.0
  9
$SPLFRAME
 70
     0
  9
$SPLINETYPE
 70
     6
  9
$SPLINESEGS
 70
     8
  9
$HANDSEED
  5
14C9
  9
$SURFTAB1
 70
     6
  9
$SURFTAB2
 70
     6
  9
$SURFTYPE
 70
     6
  9
$SURFU
 70
     6
  9
$SURFV
 70
     6
  9
$UCSBASE
  2

  9
$UCSNAME
  2

  9
$UCSORG
 10
0.0
 20
0.0
 30
0.0
  9
$UCSXDIR
 10
1.0
 20
0.0
 30
0.0
  9
$UCSYDIR
 10
0.0
 20
1.0
 30
0.0
  9
$UCSORTHOREF
  2

  9
$UCSORTHOVIEW
 70
     0
  9
$UCSORGTOP
 10
0.0
 20
0.0
 30
0.0
  9
$UCSORGBOTTOM
 10
0.0
 20
0.0
 30
0.0
  9
$UCSORGLEFT
 10
0.0
 20
0.0
 30
0.0
  9
$UCSORGRIGHT
 10
0.0
 20
0.0
 30
0.0
  9
$UCSORGFRONT
 10
0.0
 20
0.0
 30
0.0
  9
$UCSORGBACK
 10
0.0
 20
0.0
 30
0.0
  9
$PUCSBASE
  2

  9
$PUCSNAME
  2

  9
$PUCSORG
 10
0.0
 20
0.0
 30
0.0
  9
$PUCSXDIR
 10
1.0
 20
0.0
 30
0.0
  9
$PUCSYDIR
 10
0.0
 20
1.0
 30
0.0
  9
$PUCSORTHOREF
  2

  9
$PUCSORTHOVIEW
 70
     0
  9
$PUCSORGTOP
 10
0.0
 20
0.0
 30
0.0
  9
$PUCSORGBOTTOM
 10
0.0
 20
0.0
 30
0.0
  9
$PUCSORGLEFT
 10
0.0
 20
0.0
 30
0.0
  9
$PUCSORGRIGHT
 10
0.0
 20
0.0
 30
0.0
  9
$PUCSORGFRONT
 10
0.0
 20
0.0
 30
0.0
  9
$PUCSORGBACK
 10
0.0
 20
0.0
 30
0.0
  9
$USERI1
 70
     0
  9
$USERI2
 70
     0
  9
$USERI3
 70
     0
  9
$USERI4
 70
     0
  9
$USERI5
 70
     0
  9
$USERR1
 40
0.0
  9
$USERR2
 40
0.0
  9
$USERR3
 40
0.0
  9
$USERR4
 40
0.0
  9
$USERR5
 40
0.0
  9
$WORLDVIEW
 70
     1
  9
$SHADEDGE
 70
     3
  9
$SHADEDIF
 70
    70
  9
$TILEMODE
 70
     1
  9
$MAXACTVP
 70
    16
  9
$PINSBASE
 10
0.0
 20
0.0
 30
0.0
  9
$PLIMCHECK
 70
     0
  9
$PEXTMIN
 10
1.000000000000000E+20
 20
1.000000000000000E+20
 30
1.000000000000000E+20
  9
$PEXTMAX
 10
-1.000000000000000E+20
 20
-1.000000000000000E+20
 30
-1.000000000000000E+20
  9
$PLIMMIN
 10
0.0
 20
0.0
  9
$PLIMMAX
 10
12.0
 20
9.0
  9
$UNITMODE
 70
     0
  9
$VISRETAIN
 70
     0
  9
$PLINEGEN
 70
     0
  9
$PSLTSCALE
 70
     0
  9
$TREEDEPTH
 70
  3020
  9
$CMLSTYLE
  2
STANDARD
  9
$CMLJUST
 70
     0
  9
$CMLSCALE
 40
1.0
  9
$PROXYGRAPHICS
 70
     1
  9
$MEASUREMENT
 70
     0
  9
$CELWEIGHT
370
    -1
  9
$ENDCAPS
280
     0
  9
$JOINSTYLE
280
     0
  9
$LWDISPLAY
290
     0
  9
$INSUNITS
 70
     0
  9
$HYPERLINKBASE
  1

  9
$STYLESHEET
  1
monochrome 1.ctb
  9
$XEDIT
290
     1
  9
$CEPSNTYPE
380
     0
  9
$PSTYLEMODE
290
     1
  9
$FINGERPRINTGUID
  2
{3E2EB04A-409F-47A5-982F-E310D4A5BDC7}
  9
$VERSIONGUID
  2
{BFC18C1E-B92B-4C85-9F26-C71D2BD0D1F9}
  9
$EXTNAMES
290
     1
  9
$PSVPSCALE
 40
0.0
  9
$OLESTARTUP
290
     0
  9
$SORTENTS
280
   127
  9
$INDEXCTL
280
     0
  9
$HIDETEXT
280
     0
  9
$XCLIPFRAME
290
     0
  9
$HALOGAP
280
     0
  9
$OBSCOLOR
 70
   257
  9
$OBSLTYPE
280
     0
  9
$INTERSECTIONDISPLAY
280
     0
  9
$INTERSECTIONCOLOR
 70
   257
  9
$DIMASSOC
280
     1
  9
$PROJECTNAME
  1

  0
ENDSEC
  0
SECTION
  2
CLASSES
  0
CLASS
  1
DICTIONARYVAR
  2
AcDbDictionaryVar
  3
ObjectDBX Classes
 90
        0
 91
        2
280
     0
281
     0
  0
CLASS
  1
ACDBDICTIONARYWDFLT
  2
AcDbDictionaryWithDefault
  3
ObjectDBX Classes
 90
        0
 91
        1
280
     0
281
     0
  0
ENDSEC
  0
SECTION
  2
TABLES
  0
TABLE
  2
VPORT
  5
12
330
0
100
AcDbSymbolTable
 70
     2
  0
VPORT
  5
14C8
330
12
100
AcDbSymbolTableRecord
100
AcDbViewportTableRecord
  2
*Active
 70
     0
 10
0.0
 20
0.0
 11
1.0
 21
1.0
 12
420.0000000000001
 22
297.0
 13
0.0
 23
0.0
 14
1.0
 24
1.0
 15
20.0
 25
20.0
 16
0.0
 26
0.0
 36
1.0
 17
0.0
 27
0.0
 37
0.0
 40
611.5308936026647
 41
1.374331550802138
 42
50.0
 43
0.0
 44
0.0
 50
0.0
 51
0.0
 71
     0
 72
  1500
 73
     1
 74
     0
 75
     0
 76
     0
 77
     0
 78
     0
281
     0
 65
     1
110
0.0
120
0.0
130
0.0
111
1.0
121
0.0
131
0.0
112
0.0
122
1.0
132
0.0
 79
     0
146
0.0
  0
ENDTAB
  0
TABLE
  2
LTYPE
  5
D
330
0
100
AcDbSymbolTable
 70
     3
  0
LTYPE
  5
E
330
D
100
AcDbSymbolTableRecord
100
AcDbLinetypeTableRecord
  2
BYBLOCK
 70
     0
  3

 72
    65
 73
     0
 40
0.0
  0
LTYPE
  5
F
330
D
100
AcDbSymbolTableRecord
100
AcDbLinetypeTableRecord
  2
BYLAYER
 70
     0
  3

 72
    65
 73
     0
 40
0.0
  0
LTYPE
  5
5
330
D
100
AcDbSymbolTableRecord
100
AcDbLinetypeTableRecord
  2
AUSGEZOGEN
 70
     0
  3
Ausgezogene Linie
 72
    65
 73
     0
 40
0.0
  0
LTYPE
  5
480
330
D
100
AcDbSymbolTableRecord
100
AcDbLinetypeTableRecord
  2
STRICHPUNKT
 70
     0
  3
__ . __ . __ . __ . __ . __ . __ . __ . __ . __
 72
    65
 73
     4
 40
1.0
 49
0.5
 74
     0
 49
-0.25
 74
     0
 49
0.0
 74
     0
 49
-0.25
 74
     0
  0
LTYPE
  5
D3B
330
D
100
AcDbSymbolTableRecord
100
AcDbLinetypeTableRecord
  2
Continuous
 70
     0
  3
Solid line
 72
    65
 73
     0
 40
0.0
  0
ENDTAB
  0
TABLE
  2
LAYER
  5
A
330
0
100
AcDbSymbolTable
 70
     9
  0
LAYER
  5
4
330
A
100
AcDbSymbolTableRecord
100
AcDbLayerTableRecord
  2
0
 70
     0
 62
     7
  6
AUSGEZOGEN
370
    -3
390
B52
  0
LAYER
  5
1B
330
A
100
AcDbSymbolTableRecord
100
AcDbLayerTableRecord
  2
VOLL
 70
     0
 62
     1
  6
AUSGEZOGEN
370
    -3
390
B52
  0
LAYER
  5
18E
330
A
100
AcDbSymbolTableRecord
100
AcDbLayerTableRecord
  2
HILF
 70
     0
 62
     2
  6
AUSGEZOGEN
370
    -3
390
B52
  0
LAYER
  5
47F
330
A
100
AcDbSymbolTableRecord
100
AcDbLayerTableRecord
  2
MITTEL
 70
     0
 62
     2
  6
STRICHPUNKT
370
    -3
390
B52
  0
LAYER
  5
C0
330
A
100
AcDbSymbolTableRecord
100
AcDbLayerTableRecord
  2
BEM
 70
     0
 62
     7
  6
AUSGEZOGEN
370
    -3
390
B52
  0
LAYER
  5
20
330
A
100
AcDbSymbolTableRecord
100
AcDbLayerTableRecord
  2
STEMPEL
 70
     0
 62
     3
  6
AUSGEZOGEN
370
    -3
390
B52
  0
LAYER
  5
587
330
A
100
AcDbSymbolTableRecord
100
AcDbLayerTableRecord
  2
TEXT
 70
     0
 62
     7
  6
AUSGEZOGEN
370
    -3
390
B52
  0
LAYER
  5
CA
330
A
100
AcDbSymbolTableRecord
100
AcDbLayerTableRecord
  2
DEFPOINTS
 70
     0
 62
     7
  6
AUSGEZOGEN
290
     0
370
    -3
390
B52
  0
LAYER
  5
29
330
A
100
AcDbSymbolTableRecord
100
AcDbLayerTableRecord
  2
SCHRAFF
 70
     0
 62
     7
  6
AUSGEZOGEN
370
    -3
390
B52
  0
ENDTAB
  0
TABLE
  2
STYLE
  5
B
330
0
100
AcDbSymbolTable
 70
     2
  0
STYLE
  5
C
330
B
100
AcDbSymbolTableRecord
100
AcDbTextStyleTableRecord
  2
STANDARD
 70
     0
 40
0.0
 41
0.8
 50
0.0
 71
     0
 42
3.5
  3
simplex.shx
  4

  0
STYLE
  5
1C
330
B
100
AcDbSymbolTableRecord
100
AcDbTextStyleTableRecord
  2
GREEKS
 70
     0
 40
0.0
 41
0.8
 50
0.0
 71
     0
 42
2.5
  3
SIMPLEX.shx
  4

  0
ENDTAB
  0
TABLE
  2
VIEW
  5
10
330
0
100
AcDbSymbolTable
 70
     0
  0
ENDTAB
  0
TABLE
  2
UCS
  5
11
330
0
100
AcDbSymbolTable
 70
     0
  0
ENDTAB
  0
TABLE
  2
APPID
  5
14
330
0
100
AcDbSymbolTable
 70
     1
  0
APPID
  5
15
330
14
100
AcDbSymbolTableRecord
100
AcDbRegAppTableRecord
  2
ACAD
 70
     0
  0
ENDTAB
  0
TABLE
  2
DIMSTYLE
  5
16
330
0
100
AcDbSymbolTable
 70
     1
100
AcDbDimStyleTable
 71
     1
340
1E
  0
DIMSTYLE
105
1E
102
{ACAD_REACTORS
330
481
330
853
330
110
330
DF8
330
1004
330
1151
330
1153
330
1154
330
136B
330
137B
102
}
330
16
100
AcDbSymbolTableRecord
100
AcDbDimStyleTableRecord
  2
STANDARD
 70
     0
 40
2.0
 41
3.5
 42
1.0
 43
7.0
 44
1.0
 73
     0
 74
     0
 77
     1
 78
     8
 79
     2
140
3.5
141
1.5
146
0.5
147
1.0
172
     1
178
     1
179
     2
271
     2
272
     2
284
     8
285
     8
286
     8
340
C
  0
ENDTAB
  0
TABLE
  2
BLOCK_RECORD
  5
1
330
0
100
AcDbSymbolTable
 70
    11
  0
BLOCK_RECORD
  5
2
330
1
100
AcDbSymbolTableRecord
100
AcDbBlockTableRecord
  2
*MODEL_SPACE
340
B57
  0
BLOCK_RECORD
  5
7
330
1
100
AcDbSymbolTableRecord
100
AcDbBlockTableRecord
  2
*PAPER_SPACE
340
B58
  0
BLOCK_RECORD
  5
5B2
330
1
100
AcDbSymbolTableRecord
100
AcDbBlockTableRecord
  2
LOGO
340
0
102
{BLKREFS
331
8A0
102
}
  0
BLOCK_RECORD
  5
8FA
330
1
100
AcDbSymbolTableRecord
100
AcDbBlockTableRecord
  2
*D1
340
0
  0
BLOCK_RECORD
  5
AD7
330
1
100
AcDbSymbolTableRecord
100
AcDbBlockTableRecord
  2
*D2
340
0
  0
BLOCK_RECORD
  5
DC2
330
1
100
AcDbSymbolTableRecord
100
AcDbBlockTableRecord
  2
*D3
340
0
  0
BLOCK_RECORD
  5
DF9
330
1
100
AcDbSymbolTableRecord
100
AcDbBlockTableRecord
  2
*D4
340
0
  0
BLOCK_RECORD
  5
1174
330
1
100
AcDbSymbolTableRecord
100
AcDbBlockTableRecord
  2
*D5
340
0
  0
BLOCK_RECORD
  5
11A6
330
1
100
AcDbSymbolTableRecord
100
AcDbBlockTableRecord
  2
*D6
340
0
  0
BLOCK_RECORD
  5
11B4
330
1
100
AcDbSymbolTableRecord
100
AcDbBlockTableRecord
  2
*D7
340
0
  0
BLOCK_RECORD
  5
11C0
330
1
100
AcDbSymbolTableRecord
100
AcDbBlockTableRecord
  2
*D8
340
0
  0
BLOCK_RECORD
  5
1385
330
1
100
AcDbSymbolTableRecord
100
AcDbBlockTableRecord
  2
*D9
340
0
  0
BLOCK_RECORD
  5
1391
330
1
100
AcDbSymbolTableRecord
100
AcDbBlockTableRecord
  2
*D10
340
0
  0
ENDTAB
  0
ENDSEC
  0
SECTION
  2
BLOCKS
  0
BLOCK
  5
3
330
2
100
AcDbEntity
  8
0
100
AcDbBlockBegin
  2
*MODEL_SPACE
 70
     0
 10
0.0
 20
0.0
 30
0.0
  3
*MODEL_SPACE
  1

  0
ENDBLK
  5
6
330
2
100
AcDbEntity
  8
0
100
AcDbBlockEnd
  0
BLOCK
  5
8
330
7
100
AcDbEntity
 67
     1
  8
0
100
AcDbBlockBegin
  2
*PAPER_SPACE
 70
     0
 10
0.0
 20
0.0
 30
0.0
  3
*PAPER_SPACE
  1

  0
ENDBLK
  5
9
330
7
100
AcDbEntity
 67
     1
  8
0
100
AcDbBlockEnd
  0
BLOCK
  5
5CD
330
5B2
100
AcDbEntity
  8
0
100
AcDbBlockBegin
  2
LOGO
 70
     0
 10
0.0
 20
0.0
 30
0.0
  3
LOGO
  1

  0
ARC
  5
5B3
330
5B2
100
AcDbEntity
  8
0
100
AcDbCircle
 10
11.59973089678112
 20
-9.271599258481501
 30
0.0
 40
4.5
100
AcDbArc
 50
270.0
 51
231.0575587310159
  0
LINE
  5
5B4
330
5B2
100
AcDbEntity
  8
0
100
AcDbLine
 10
3.599730896781125
 20
-4.771599258481529
 30
0.0
 11
3.599730896781153
 21
-11.77159925848133
 31
0.0
  0
LINE
  5
5B5
330
5B2
100
AcDbEntity
  8
0
100
AcDbLine
 10
2.599730896781125
 20
-4.771599258481529
 30
0.0
 11
2.599730896781153
 21
-11.77159925848133
 31
0.0
  0
CIRCLE
  5
5B6
330
5B2
100
AcDbEntity
  8
0
100
AcDbCircle
 10
11.59973089678112
 20
-9.271599258481501
 30
0.0
 40
3.5
  0
ARC
  5
5B7
330
5B2
100
AcDbEntity
  8
0
100
AcDbCircle
 10
31.59973089678115
 20
-9.271599258481472
 30
0.0
 40
4.5
100
AcDbArc
 50
270.0
 51
231.0575587310182
  0
LINE
  5
5B8
330
5B2
100
AcDbEntity
  8
0
100
AcDbLine
 10
17.59973089678112
 20
-4.771599258481472
 30
0.0
 11
17.59973089678115
 21
-13.77159925848147
 31
0.0
  0
ARC
  5
5B9
330
5B2
100
AcDbEntity
  8
0
100
AcDbCircle
 10
22.59973089678116
 20
-7.271599258481472
 30
0.0
 40
2.5
100
AcDbArc
 50
293.1161887722295
 51
90.0
  0
CIRCLE
  5
5BA
330
5B2
100
AcDbEntity
  8
0
100
AcDbCircle
 10
31.59973089678115
 20
-9.271599258481472
 30
0.0
 40
3.5
  0
ARC
  5
5BB
330
5B2
100
AcDbEntity
  8
0
100
AcDbCircle
 10
4.599730896781153
 20
-11.77159925848133
 30
0.0
 40
1.0
100
AcDbArc
 50
180.0
 51
270.0
  0
ARC
  5
5BC
330
5B2
100
AcDbEntity
  8
0
100
AcDbCircle
 10
4.599730896781153
 20
-11.77159925848133
 30
0.0
 40
2.0
100
AcDbArc
 50
179.9999999999992
 51
270.0
  0
LINE
  5
5BD
330
5B2
100
AcDbEntity
  8
0
100
AcDbLine
 10
11.59973089678115
 20
-13.77159925848144
 30
0.0
 11
4.599730896781153
 21
-13.77159925848147
 31
0.0
  0
LINE
  5
5BE
330
5B2
100
AcDbEntity
  8
0
100
AcDbLine
 10
8.771303772034769
 20
-12.77159925848136
 30
0.0
 11
4.599730896781153
 21
-12.77159925848133
 31
0.0
  0
LINE
  5
5BF
330
5B2
100
AcDbEntity
  8
0
100
AcDbLine
 10
31.59973089678115
 20
-13.77159925848147
 30
0.0
 11
23.6715276665056
 21
-13.77159925848144
 31
0.0
  0
LINE
  5
5C0
330
5B2
100
AcDbEntity
  8
0
100
AcDbLine
 10
23.56565672307022
 20
-9.51278021337896
 30
0.0
 11
24.4388546544846
 21
-12.77159925848144
 31
0.0
  0
LINE
  5
5C1
330
5B2
100
AcDbEntity
  8
0
100
AcDbLine
 10
22.59973089678116
 20
-9.771599258481472
 30
0.0
 11
18.59973089678112
 21
-9.771599258481472
 31
0.0
  0
LINE
  5
5C2
330
5B2
100
AcDbEntity
  8
0
100
AcDbLine
 10
18.59973089678115
 20
-13.77159925848144
 30
0.0
 11
17.59973089678115
 21
-13.77159925848144
 31
0.0
  0
LINE
  5
5C3
330
5B2
100
AcDbEntity
  8
0
100
AcDbLine
 10
18.59973089678115
 20
-9.771599258481472
 30
0.0
 11
18.59973089678115
 21
-13.77159925848144
 31
0.0
  0
LINE
  5
5C4
330
5B2
100
AcDbEntity
  8
0
100
AcDbLine
 10
22.59973089678116
 20
-9.771599258481472
 30
0.0
 11
23.67152766650562
 21
-13.77159925848147
 31
0.0
  0
ARC
  5
5C5
330
5B2
100
AcDbEntity
  8
0
100
AcDbCircle
 10
22.59973089678116
 20
-7.271599258481472
 30
0.0
 40
2.5
100
AcDbArc
 50
270.0
 51
270.0000000000007
  0
LINE
  5
5C6
330
5B2
100
AcDbEntity
  8
0
100
AcDbLine
 10
28.77130377203494
 20
-12.77159925848147
 30
0.0
 11
24.43885465448463
 21
-12.77159925848144
 31
0.0
  0
LINE
  5
5C7
330
5B2
100
AcDbEntity
  8
0
100
AcDbLine
 10
3.599730896781125
 20
-4.771599258481472
 30
0.0
 11
2.599730896781125
 21
-4.771599258481472
 31
0.0
  0
LINE
  5
5C8
330
5B2
100
AcDbEntity
  8
0
100
AcDbLine
 10
22.59973089678116
 20
-8.771599258481472
 30
0.0
 11
18.59973089678115
 21
-8.771599258481472
 31
0.0
  0
LINE
  5
5C9
330
5B2
100
AcDbEntity
  8
0
100
AcDbLine
 10
22.59973089678116
 20
-5.771599258481472
 30
0.0
 11
18.59973089678115
 21
-5.771599258481472
 31
0.0
  0
LINE
  5
5CA
330
5B2
100
AcDbEntity
  8
0
100
AcDbLine
 10
22.59973089678116
 20
-4.771599258481472
 30
0.0
 11
17.59973089678115
 21
-4.771599258481472
 31
0.0
  0
LINE
  5
5CB
330
5B2
100
AcDbEntity
  8
0
100
AcDbLine
 10
18.59973089678115
 20
-5.771599258481472
 30
0.0
 11
18.59973089678115
 21
-8.771599258481472
 31
0.0
  0
ARC
  5
5CC
330
5B2
100
AcDbEntity
  8
0
100
AcDbCircle
 10
22.59973089678116
 20
-7.271599258481472
 30
0.0
 40
1.5
100
AcDbArc
 50
270.0
 51
90.0
  0
ENDBLK
  5
5CE
330
5B2
100
AcDbEntity
  8
0
100
AcDbBlockEnd
  0
BLOCK
  5
A68
330
8FA
100
AcDbEntity
  8
0
100
AcDbBlockBegin
  2
*D1
 70
     1
 10
0.0
 20
0.0
 30
0.0
  3
*D1
  1

  0
LINE
  5
140B
330
8FA
100
AcDbEntity
  8
BEM
 62
     0
370
    -2
100
AcDbLine
 10
321.1338742453565
 20
116.144898207943
 30
0.0
 11
321.1338742453565
 21
88.07185888409232
 31
0.0
  0
LINE
  5
140C
330
8FA
100
AcDbEntity
  8
BEM
 62
     0
370
    -2
100
AcDbLine
 10
423.1338742453566
 20
116.144898207943
 30
0.0
 11
423.1338742453566
 21
88.07185888409232
 31
0.0
  0
LINE
  5
140D
330
8FA
100
AcDbEntity
  8
BEM
 62
     0
370
    -2
100
AcDbLine
 10
328.1338742453565
 20
90.07185888409232
 30
0.0
 11
416.1338742453565
 21
90.07185888409232
 31
0.0
  0
SOLID
  5
140E
330
8FA
100
AcDbEntity
  8
BEM
 62
     0
100
AcDbTrace
 10
328.1338742453565
 20
91.23852555075899
 30
0.0
 11
328.1338742453565
 21
88.90519221742565
 31
0.0
 12
321.1338742453565
 22
90.07185888409232
 32
0.0
 13
321.1338742453565
 23
90.07185888409232
 33
0.0
  0
SOLID
  5
140F
330
8FA
100
AcDbEntity
  8
BEM
 62
     0
100
AcDbTrace
 10
416.1338742453565
 20
91.23852555075899
 30
0.0
 11
416.1338742453565
 21
88.90519221742565
 31
0.0
 12
423.1338742453566
 22
90.07185888409232
 32
0.0
 13
423.1338742453566
 23
90.07185888409232
 33
0.0
  0
MTEXT
  5
1410
330
8FA
100
AcDbEntity
  8
BEM
 62
     1
100
AcDbMText
 10
372.1338742453565
 20
95.57185888409232
 30
0.0
 40
7.0
 41
0.0
 71
     5
 72
     1
  1
\A1;%%c102
 73
     1
 44
1.0
  0
POINT
  5
1411
330
8FA
100
AcDbEntity
  8
DEFPOINTS
 62
     0
100
AcDbPoint
 10
321.1338742453565
 20
118.144898207943
 30
0.0
  0
POINT
  5
1412
330
8FA
100
AcDbEntity
  8
DEFPOINTS
 62
     0
100
AcDbPoint
 10
423.1338742453566
 20
118.144898207943
 30
0.0
  0
POINT
  5
1413
330
8FA
100
AcDbEntity
  8
DEFPOINTS
 62
     0
100
AcDbPoint
 10
423.1338742453566
 20
90.07185888409232
 30
0.0
  0
ENDBLK
  5
A72
330
8FA
100
AcDbEntity
  8
0
100
AcDbBlockEnd
  0
BLOCK
  5
AD8
330
AD7
100
AcDbEntity
  8
0
100
AcDbBlockBegin
  2
*D2
 70
     1
 10
0.0
 20
0.0
 30
0.0
  3
*D2
  1

  0
LINE
  5
1414
330
AD7
100
AcDbEntity
  8
BEM
 62
     0
370
    -2
100
AcDbLine
 10
320.4462041982453
 20
110.144898207943
 30
0.0
 11
177.64691277634
 21
110.144898207943
 31
0.0
  0
LINE
  5
1415
330
AD7
100
AcDbEntity
  8
BEM
 62
     0
370
    -2
100
AcDbLine
 10
205.1338742453565
 20
380.144898207943
 30
0.0
 11
177.64691277634
 21
380.144898207943
 31
0.0
  0
LINE
  5
1416
330
AD7
100
AcDbEntity
  8
BEM
 62
     0
370
    -2
100
AcDbLine
 10
179.64691277634
 20
117.144898207943
 30
0.0
 11
179.64691277634
 21
373.144898207943
 31
0.0
  0
SOLID
  5
1417
330
AD7
100
AcDbEntity
  8
BEM
 62
     0
100
AcDbTrace
 10
178.4802461096733
 20
117.144898207943
 30
0.0
 11
180.8135794430066
 21
117.144898207943
 31
0.0
 12
179.64691277634
 22
110.144898207943
 32
0.0
 13
179.64691277634
 23
110.144898207943
 33
0.0
  0
SOLID
  5
1418
330
AD7
100
AcDbEntity
  8
BEM
 62
     0
100
AcDbTrace
 10
178.4802461096734
 20
373.144898207943
 30
0.0
 11
180.8135794430067
 21
373.144898207943
 31
0.0
 12
179.64691277634
 22
380.144898207943
 32
0.0
 13
179.64691277634
 23
380.144898207943
 33
0.0
  0
MTEXT
  5
1419
330
AD7
100
AcDbEntity
  8
BEM
 62
     1
100
AcDbMText
 10
174.14691277634
 20
245.1448982079431
 30
0.0
 40
7.0
 41
0.0
 71
     5
 72
     1
  1
\A1;270
 11
0.0000000000000001
 21
1.0
 31
0.0
 73
     1
 44
1.0
  0
POINT
  5
141A
330
AD7
100
AcDbEntity
  8
DEFPOINTS
 62
     0
100
AcDbPoint
 10
322.4462041982453
 20
110.144898207943
 30
0.0
  0
POINT
  5
141B
330
AD7
100
AcDbEntity
  8
DEFPOINTS
 62
     0
100
AcDbPoint
 10
207.1338742453565
 20
380.144898207943
 30
0.0
  0
POINT
  5
141C
330
AD7
100
AcDbEntity
  8
DEFPOINTS
 62
     0
100
AcDbPoint
 10
179.64691277634
 20
380.144898207943
 30
0.0
  0
ENDBLK
  5
AE2
330
AD7
100
AcDbEntity
  8
0
100
AcDbBlockEnd
  0
BLOCK
  5
DCC
330
DC2
100
AcDbEntity
  8
0
100
AcDbBlockBegin
  2
*D3
 70
     1
 10
0.0
 20
0.0
 30
0.0
  3
*D3
  1

  0
LINE
  5
1402
330
DC2
100
AcDbEntity
  8
BEM
 62
     0
370
    -2
100
AcDbLine
 10
207.1338742453565
 20
382.144898207943
 30
0.0
 11
207.1338742453565
 21
535.077629784238
 31
0.0
  0
LINE
  5
1403
330
DC2
100
AcDbEntity
  8
BEM
 62
     0
370
    -2
100
AcDbLine
 10
537.1338742453565
 20
382.144898207943
 30
0.0
 11
537.1338742453565
 21
535.077629784238
 31
0.0
  0
LINE
  5
1404
330
DC2
100
AcDbEntity
  8
BEM
 62
     0
370
    -2
100
AcDbLine
 10
214.1338742453565
 20
533.0776297842381
 30
0.0
 11
530.1338742453565
 21
533.0776297842381
 31
0.0
  0
SOLID
  5
1405
330
DC2
100
AcDbEntity
  8
BEM
 62
     0
100
AcDbTrace
 10
214.1338742453565
 20
534.2442964509046
 30
0.0
 11
214.1338742453565
 21
531.9109631175714
 31
0.0
 12
207.1338742453565
 22
533.0776297842381
 32
0.0
 13
207.1338742453565
 23
533.0776297842381
 33
0.0
  0
SOLID
  5
1406
330
DC2
100
AcDbEntity
  8
BEM
 62
     0
100
AcDbTrace
 10
530.1338742453565
 20
534.2442964509046
 30
0.0
 11
530.1338742453565
 21
531.9109631175714
 31
0.0
 12
537.1338742453565
 22
533.0776297842381
 32
0.0
 13
537.1338742453565
 23
533.0776297842381
 33
0.0
  0
MTEXT
  5
1407
330
DC2
100
AcDbEntity
  8
BEM
 62
     1
100
AcDbMText
 10
372.1338742453565
 20
538.577629784238
 30
0.0
 40
7.0
 41
0.0
 71
     5
 72
     1
  1
\A1;%%c330
 73
     1
 44
1.0
  0
POINT
  5
1408
330
DC2
100
AcDbEntity
  8
DEFPOINTS
 62
     0
100
AcDbPoint
 10
207.1338742453565
 20
380.144898207943
 30
0.0
  0
POINT
  5
1409
330
DC2
100
AcDbEntity
  8
DEFPOINTS
 62
     0
100
AcDbPoint
 10
537.1338742453565
 20
380.144898207943
 30
0.0
  0
POINT
  5
140A
330
DC2
100
AcDbEntity
  8
DEFPOINTS
 62
     0
100
AcDbPoint
 10
537.1338742453565
 20
533.0776297842381
 30
0.0
  0
ENDBLK
  5
DCD
330
DC2
100
AcDbEntity
  8
0
100
AcDbBlockEnd
  0
BLOCK
  5
E03
330
DF9
100
AcDbEntity
  8
0
100
AcDbBlockBegin
  2
*D4
 70
     1
 10
0.0
 20
0.0
 30
0.0
  3
*D4
  1

  0
LINE
  5
13E7
330
DF9
100
AcDbEntity
  8
BEM
 62
     0
370
    -2
100
AcDbLine
 10
122.1338742453565
 20
385.144898207943
 30
0.0
 11
122.1338742453565
 21
549.0815610647539
 31
0.0
  0
LINE
  5
13E8
330
DF9
100
AcDbEntity
  8
BEM
 62
     0
370
    -2
100
AcDbLine
 10
622.1338742453565
 20
385.144898207943
 30
0.0
 11
622.1338742453565
 21
549.0815610647539
 31
0.0
  0
LINE
  5
13E9
330
DF9
100
AcDbEntity
  8
BEM
 62
     0
370
    -2
100
AcDbLine
 10
129.1338742453564
 20
547.0815610647539
 30
0.0
 11
615.1338742453565
 21
547.0815610647539
 31
0.0
  0
SOLID
  5
13EA
330
DF9
100
AcDbEntity
  8
BEM
 62
     0
100
AcDbTrace
 10
129.1338742453564
 20
548.2482277314205
 30
0.0
 11
129.1338742453564
 21
545.9148943980872
 31
0.0
 12
122.1338742453565
 22
547.0815610647539
 32
0.0
 13
122.1338742453565
 23
547.0815610647539
 33
0.0
  0
SOLID
  5
13EB
330
DF9
100
AcDbEntity
  8
BEM
 62
     0
100
AcDbTrace
 10
615.1338742453565
 20
548.2482277314205
 30
0.0
 11
615.1338742453565
 21
545.9148943980872
 31
0.0
 12
622.1338742453565
 22
547.0815610647539
 32
0.0
 13
622.1338742453565
 23
547.0815610647539
 33
0.0
  0
MTEXT
  5
13EC
330
DF9
100
AcDbEntity
  8
BEM
 62
     1
100
AcDbMText
 10
372.6647918000422
 20
552.5815610647539
 30
0.0
 40
7.0
 41
0.0
 71
     5
 72
     1
  1
\A1;500
 73
     1
 44
1.0
  0
POINT
  5
13ED
330
DF9
100
AcDbEntity
  8
DEFPOINTS
 62
     0
100
AcDbPoint
 10
122.1338742453565
 20
383.144898207943
 30
0.0
  0
POINT
  5
13EE
330
DF9
100
AcDbEntity
  8
DEFPOINTS
 62
     0
100
AcDbPoint
 10
622.1338742453565
 20
383.144898207943
 30
0.0
  0
POINT
  5
13EF
330
DF9
100
AcDbEntity
  8
DEFPOINTS
 62
     0
100
AcDbPoint
 10
622.1338742453565
 20
547.0815610647539
 30
0.0
  0
ENDBLK
  5
E04
330
DF9
100
AcDbEntity
  8
0
100
AcDbBlockEnd
  0
BLOCK
  5
117E
330
1174
100
AcDbEntity
  8
0
100
AcDbBlockBegin
  2
*D5
 70
     1
 10
0.0
 20
0.0
 30
0.0
  3
*D5
  1

  0
LINE
  5
13DE
330
1174
100
AcDbEntity
  8
BEM
 62
     0
370
    -2
100
AcDbLine
 10
242.1338742453565
 20
402.6448982079434
 30
0.0
 11
242.1338742453565
 21
521.753087341616
 31
0.0
  0
LINE
  5
13DF
330
1174
100
AcDbEntity
  8
BEM
 62
     0
370
    -2
100
AcDbLine
 10
502.1338742453565
 20
402.6448982079424
 30
0.0
 11
502.1338742453565
 21
521.753087341616
 31
0.0
  0
LINE
  5
13E0
330
1174
100
AcDbEntity
  8
BEM
 62
     0
370
    -2
100
AcDbLine
 10
249.1338742453566
 20
519.753087341616
 30
0.0
 11
495.1338742453565
 21
519.753087341616
 31
0.0
  0
SOLID
  5
13E1
330
1174
100
AcDbEntity
  8
BEM
 62
     0
100
AcDbTrace
 10
249.1338742453566
 20
520.9197540082826
 30
0.0
 11
249.1338742453566
 21
518.5864206749494
 31
0.0
 12
242.1338742453565
 22
519.753087341616
 32
0.0
 13
242.1338742453565
 23
519.753087341616
 33
0.0
  0
SOLID
  5
13E2
330
1174
100
AcDbEntity
  8
BEM
 62
     0
100
AcDbTrace
 10
495.1338742453565
 20
520.9197540082826
 30
0.0
 11
495.1338742453565
 21
518.5864206749494
 31
0.0
 12
502.1338742453565
 22
519.753087341616
 32
0.0
 13
502.1338742453565
 23
519.753087341616
 33
0.0
  0
MTEXT
  5
13E3
330
1174
100
AcDbEntity
  8
BEM
 62
     1
100
AcDbMText
 10
372.1338742453565
 20
526.253087341616
 30
0.0
 40
7.0
 41
0.0
 71
     5
 72
     1
  1
\A1;%%c260
 73
     1
 44
1.0
  0
POINT
  5
13E4
330
1174
100
AcDbEntity
  8
DEFPOINTS
 62
     0
100
AcDbPoint
 10
242.1338742453565
 20
400.6448982079435
 30
0.0
  0
POINT
  5
13E5
330
1174
100
AcDbEntity
  8
DEFPOINTS
 62
     0
100
AcDbPoint
 10
502.1338742453565
 20
400.6448982079423
 30
0.0
  0
POINT
  5
13E6
330
1174
100
AcDbEntity
  8
DEFPOINTS
 62
     0
100
AcDbPoint
 10
502.1338742453565
 20
519.753087341616
 30
0.0
  0
ENDBLK
  5
117F
330
1174
100
AcDbEntity
  8
0
100
AcDbBlockEnd
  0
BLOCK
  5
11B2
330
11A6
100
AcDbEntity
  8
0
100
AcDbBlockBegin
  2
*D6
 70
     1
 10
0.0
 20
0.0
 30
0.0
  3
*D6
  1

  0
LINE
  5
13D3
330
11A6
100
AcDbEntity
  8
BEM
 62
     0
370
    -2
100
AcDbLine
 10
240.1338742453564
 20
399.6448982079426
 30
0.0
 11
197.8685873352894
 21
399.6448982079426
 31
0.0
  0
LINE
  5
13D4
330
11A6
100
AcDbEntity
  8
BEM
 62
     0
370
    -2
100
AcDbLine
 10
235.1338742453565
 20
384.6448982079427
 30
0.0
 11
197.8685873352894
 21
384.6448982079427
 31
0.0
  0
LINE
  5
13D5
330
11A6
100
AcDbEntity
  8
BEM
 62
     0
370
    -2
100
AcDbLine
 10
199.8685873352894
 20
406.6448982079426
 30
0.0
 11
199.8685873352894
 21
413.6448982079426
 31
0.0
  0
LINE
  5
13D6
330
11A6
100
AcDbEntity
  8
BEM
 62
     0
370
    -2
100
AcDbLine
 10
199.8685873352894
 20
377.6448982079427
 30
0.0
 11
199.8685873352894
 21
370.6448982079427
 31
0.0
  0
LINE
  5
13D7
330
11A6
100
AcDbEntity
  8
BEM
 62
     0
370
    -2
100
AcDbLine
 10
199.8685873352894
 20
399.6448982079426
 30
0.0
 11
199.8685873352894
 21
384.6448982079427
 31
0.0
  0
SOLID
  5
13D8
330
11A6
100
AcDbEntity
  8
BEM
 62
     0
100
AcDbTrace
 10
198.7019206686227
 20
406.6448982079426
 30
0.0
 11
201.0352540019561
 21
406.6448982079426
 31
0.0
 12
199.8685873352894
 22
399.6448982079426
 32
0.0
 13
199.8685873352894
 23
399.6448982079426
 33
0.0
  0
SOLID
  5
13D9
330
11A6
100
AcDbEntity
  8
BEM
 62
     0
100
AcDbTrace
 10
198.7019206686227
 20
377.6448982079427
 30
0.0
 11
201.0352540019561
 21
377.6448982079427
 31
0.0
 12
199.8685873352894
 22
384.6448982079427
 32
0.0
 13
199.8685873352894
 23
384.6448982079427
 33
0.0
  0
MTEXT
  5
13DA
330
11A6
100
AcDbEntity
  8
BEM
 62
     1
100
AcDbMText
 10
193.3685873352893
 20
392.1448982079427
 30
0.0
 40
7.0
 41
0.0
 71
     5
 72
     1
  1
\A1;15
 11
0.0000000000000001
 21
1.0
 31
0.0
 73
     1
 44
1.0
  0
POINT
  5
13DB
330
11A6
100
AcDbEntity
  8
DEFPOINTS
 62
     0
100
AcDbPoint
 10
242.1338742453564
 20
399.6448982079426
 30
0.0
  0
POINT
  5
13DC
330
11A6
100
AcDbEntity
  8
DEFPOINTS
 62
     0
100
AcDbPoint
 10
237.1338742453565
 20
384.6448982079427
 30
0.0
  0
POINT
  5
13DD
330
11A6
100
AcDbEntity
  8
DEFPOINTS
 62
     0
100
AcDbPoint
 10
199.8685873352894
 20
384.6448982079427
 30
0.0
  0
ENDBLK
  5
11B3
330
11A6
100
AcDbEntity
  8
0
100
AcDbBlockEnd
  0
BLOCK
  5
11BE
330
11B4
100
AcDbEntity
  8
0
100
AcDbBlockBegin
  2
*D7
 70
     1
 10
0.0
 20
0.0
 30
0.0
  3
*D7
  1

  0
LINE
  5
13CA
330
11B4
100
AcDbEntity
  8
BEM
 62
     0
370
    -2
100
AcDbLine
 10
262.1338742453566
 20
471.644840240627
 30
0.0
 11
262.1338742453566
 21
507.383866623892
 31
0.0
  0
LINE
  5
13CB
330
11B4
100
AcDbEntity
  8
BEM
 62
     0
370
    -2
100
AcDbLine
 10
482.1338742453568
 20
471.644840240627
 30
0.0
 11
482.1338742453568
 21
507.383866623892
 31
0.0
  0
LINE
  5
13CC
330
11B4
100
AcDbEntity
  8
BEM
 62
     0
370
    -2
100
AcDbLine
 10
269.1338742453567
 20
505.383866623892
 30
0.0
 11
475.1338742453568
 21
505.383866623892
 31
0.0
  0
SOLID
  5
13CD
330
11B4
100
AcDbEntity
  8
BEM
 62
     0
100
AcDbTrace
 10
269.1338742453567
 20
506.5505332905587
 30
0.0
 11
269.1338742453567
 21
504.2171999572254
 31
0.0
 12
262.1338742453566
 22
505.383866623892
 32
0.0
 13
262.1338742453566
 23
505.383866623892
 33
0.0
  0
SOLID
  5
13CE
330
11B4
100
AcDbEntity
  8
BEM
 62
     0
100
AcDbTrace
 10
475.1338742453568
 20
506.5505332905587
 30
0.0
 11
475.1338742453568
 21
504.2171999572254
 31
0.0
 12
482.1338742453568
 22
505.383866623892
 32
0.0
 13
482.1338742453568
 23
505.383866623892
 33
0.0
  0
MTEXT
  5
13CF
330
11B4
100
AcDbEntity
  8
BEM
 62
     1
100
AcDbMText
 10
372.1338742453568
 20
511.8838666238921
 30
0.0
 40
7.0
 41
0.0
 71
     5
 72
     1
  1
\A1;%%c220
 73
     1
 44
1.0
  0
POINT
  5
13D0
330
11B4
100
AcDbEntity
  8
DEFPOINTS
 62
     0
100
AcDbPoint
 10
262.1338742453566
 20
469.644840240627
 30
0.0
  0
POINT
  5
13D1
330
11B4
100
AcDbEntity
  8
DEFPOINTS
 62
     0
100
AcDbPoint
 10
482.1338742453568
 20
469.644840240627
 30
0.0
  0
POINT
  5
13D2
330
11B4
100
AcDbEntity
  8
DEFPOINTS
 62
     0
100
AcDbPoint
 10
482.1338742453568
 20
505.383866623892
 30
0.0
  0
ENDBLK
  5
11BF
330
11B4
100
AcDbEntity
  8
0
100
AcDbBlockEnd
  0
BLOCK
  5
11CA
330
11C0
100
AcDbEntity
  8
0
100
AcDbBlockBegin
  2
*D8
 70
     1
 10
0.0
 20
0.0
 30
0.0
  3
*D8
  1

  0
LINE
  5
13C1
330
11C0
100
AcDbEntity
  8
BEM
 62
     0
370
    -2
100
AcDbLine
 10
240.1338742453567
 20
399.6448982079426
 30
0.0
 11
197.8685873352894
 21
399.6448982079426
 31
0.0
  0
LINE
  5
13C2
330
11C0
100
AcDbEntity
  8
BEM
 62
     0
370
    -2
100
AcDbLine
 10
290.1338742453567
 20
489.6448982079418
 30
0.0
 11
197.8685873352894
 21
489.6448982079418
 31
0.0
  0
LINE
  5
13C3
330
11C0
100
AcDbEntity
  8
BEM
 62
     0
370
    -2
100
AcDbLine
 10
199.8685873352894
 20
406.6448982079426
 30
0.0
 11
199.8685873352894
 21
482.6448982079418
 31
0.0
  0
SOLID
  5
13C4
330
11C0
100
AcDbEntity
  8
BEM
 62
     0
100
AcDbTrace
 10
198.7019206686227
 20
406.6448982079426
 30
0.0
 11
201.0352540019561
 21
406.6448982079426
 31
0.0
 12
199.8685873352894
 22
399.6448982079426
 32
0.0
 13
199.8685873352894
 23
399.6448982079426
 33
0.0
  0
SOLID
  5
13C5
330
11C0
100
AcDbEntity
  8
BEM
 62
     0
100
AcDbTrace
 10
198.7019206686228
 20
482.6448982079418
 30
0.0
 11
201.0352540019561
 21
482.6448982079418
 31
0.0
 12
199.8685873352894
 22
489.6448982079418
 32
0.0
 13
199.8685873352894
 23
489.6448982079418
 33
0.0
  0
MTEXT
  5
13C6
330
11C0
100
AcDbEntity
  8
BEM
 62
     1
100
AcDbMText
 10
193.3685873352893
 20
444.6448982079423
 30
0.0
 40
7.0
 41
0.0
 71
     5
 72
     1
  1
\A1;90
 11
0.0000000000000001
 21
1.0
 31
0.0
 73
     1
 44
1.0
  0
POINT
  5
13C7
330
11C0
100
AcDbEntity
  8
DEFPOINTS
 62
     0
100
AcDbPoint
 10
242.1338742453567
 20
399.6448982079426
 30
0.0
  0
POINT
  5
13C8
330
11C0
100
AcDbEntity
  8
DEFPOINTS
 62
     0
100
AcDbPoint
 10
292.1338742453567
 20
489.6448982079418
 30
0.0
  0
POINT
  5
13C9
330
11C0
100
AcDbEntity
  8
DEFPOINTS
 62
     0
100
AcDbPoint
 10
199.8685873352894
 20
489.6448982079418
 30
0.0
  0
ENDBLK
  5
11CB
330
11C0
100
AcDbEntity
  8
0
100
AcDbBlockEnd
  0
BLOCK
  5
138F
330
1385
100
AcDbEntity
  8
0
100
AcDbBlockBegin
  2
*D9
 70
     1
 10
0.0
 20
0.0
 30
0.0
  3
*D9
  1

  0
LINE
  5
13B8
330
1385
100
AcDbEntity
  8
BEM
 62
     0
370
    -2
100
AcDbLine
 10
292.1338742453565
 20
216.1448982079438
 30
0.0
 11
292.1338742453565
 21
72.07185888409225
 31
0.0
  0
LINE
  5
13B9
330
1385
100
AcDbEntity
  8
BEM
 62
     0
370
    -2
100
AcDbLine
 10
452.1338742453563
 20
216.1448982079432
 30
0.0
 11
452.1338742453563
 21
72.07185888409225
 31
0.0
  0
LINE
  5
13BA
330
1385
100
AcDbEntity
  8
BEM
 62
     0
370
    -2
100
AcDbLine
 10
299.1338742453565
 20
74.07185888409223
 30
0.0
 11
445.1338742453564
 21
74.07185888409223
 31
0.0
  0
SOLID
  5
13BB
330
1385
100
AcDbEntity
  8
BEM
 62
     0
100
AcDbTrace
 10
299.1338742453565
 20
75.2385255507589
 30
0.0
 11
299.1338742453565
 21
72.90519221742556
 31
0.0
 12
292.1338742453565
 22
74.07185888409223
 32
0.0
 13
292.1338742453565
 23
74.07185888409223
 33
0.0
  0
SOLID
  5
13BC
330
1385
100
AcDbEntity
  8
BEM
 62
     0
100
AcDbTrace
 10
445.1338742453564
 20
75.2385255507589
 30
0.0
 11
445.1338742453564
 21
72.90519221742556
 31
0.0
 12
452.1338742453563
 22
74.07185888409223
 32
0.0
 13
452.1338742453563
 23
74.07185888409223
 33
0.0
  0
MTEXT
  5
13BD
330
1385
100
AcDbEntity
  8
BEM
 62
     1
100
AcDbMText
 10
372.1338742453564
 20
80.57185888409224
 30
0.0
 40
7.0
 41
0.0
 71
     5
 72
     1
  1
\A1;%%c160
 73
     1
 44
1.0
  0
POINT
  5
13BE
330
1385
100
AcDbEntity
  8
DEFPOINTS
 62
     0
100
AcDbPoint
 10
292.1338742453565
 20
218.1448982079437
 30
0.0
  0
POINT
  5
13BF
330
1385
100
AcDbEntity
  8
DEFPOINTS
 62
     0
100
AcDbPoint
 10
452.1338742453563
 20
218.1448982079432
 30
0.0
  0
POINT
  5
13C0
330
1385
100
AcDbEntity
  8
DEFPOINTS
 62
     0
100
AcDbPoint
 10
452.1338742453563
 20
74.07185888409223
 30
0.0
  0
ENDBLK
  5
1390
330
1385
100
AcDbEntity
  8
0
100
AcDbBlockEnd
  0
BLOCK
  5
139B
330
1391
100
AcDbEntity
  8
0
100
AcDbBlockBegin
  2
*D10
 70
     1
 10
0.0
 20
0.0
 30
0.0
  3
*D10
  1

  0
LINE
  5
141D
330
1391
100
AcDbEntity
  8
BEM
 62
     0
370
    -2
100
AcDbLine
 10
205.1338742453562
 20
378.1448982079429
 30
0.0
 11
191.6755981155479
 21
378.1448982079429
 31
0.0
  0
LINE
  5
141E
330
1391
100
AcDbEntity
  8
BEM
 62
     0
370
    -2
100
AcDbLine
 10
290.1338742453565
 20
218.1448982079437
 30
0.0
 11
191.6755981155478
 21
218.1448982079438
 31
0.0
  0
LINE
  5
141F
330
1391
100
AcDbEntity
  8
BEM
 62
     0
370
    -2
100
AcDbLine
 10
193.6755981155478
 20
371.144898207943
 30
0.0
 11
193.6755981155478
 21
225.1448982079438
 31
0.0
  0
SOLID
  5
1420
330
1391
100
AcDbEntity
  8
BEM
 62
     0
100
AcDbTrace
 10
192.5089314488812
 20
371.144898207943
 30
0.0
 11
194.8422647822145
 21
371.144898207943
 31
0.0
 12
193.6755981155478
 22
378.1448982079429
 32
0.0
 13
193.6755981155478
 23
378.1448982079429
 33
0.0
  0
SOLID
  5
1421
330
1391
100
AcDbEntity
  8
BEM
 62
     0
100
AcDbTrace
 10
192.5089314488812
 20
225.1448982079438
 30
0.0
 11
194.8422647822145
 21
225.1448982079438
 31
0.0
 12
193.6755981155478
 22
218.1448982079437
 32
0.0
 13
193.6755981155478
 23
218.1448982079437
 33
0.0
  0
MTEXT
  5
1422
330
1391
100
AcDbEntity
  8
BEM
 62
     1
100
AcDbMText
 10
187.1755981155478
 20
298.1448982079434
 30
0.0
 40
7.0
 41
0.0
 71
     5
 72
     1
  1
\A1;160
 11
0.0000000000000001
 21
1.0
 31
0.0
 73
     1
 44
1.0
  0
POINT
  5
1423
330
1391
100
AcDbEntity
  8
DEFPOINTS
 62
     0
100
AcDbPoint
 10
207.1338742453562
 20
378.1448982079429
 30
0.0
  0
POINT
  5
1424
330
1391
100
AcDbEntity
  8
DEFPOINTS
 62
     0
100
AcDbPoint
 10
292.1338742453565
 20
218.1448982079437
 30
0.0
  0
POINT
  5
1425
330
1391
100
AcDbEntity
  8
DEFPOINTS
 62
     0
100
AcDbPoint
 10
193.6755981155478
 20
218.1448982079437
 30
0.0
  0
ENDBLK
  5
139C
330
1391
100
AcDbEntity
  8
0
100
AcDbBlockEnd
  0
ENDSEC
  0
SECTION
  2
ENTITIES
  0
DIMENSION
  5
110
330
2
100
AcDbEntity
  8
BEM
100
AcDbDimension
  2
*D3
 10
537.1338742453565
 20
533.0776297842381
 30
0.0
 11
372.1338742453565
 21
538.577629784238
 31
0.0
 70
    32
  1
%%c<>
 71
     5
 42
330.0000000000001
  3
STANDARD
100
AcDbAlignedDimension
 13
207.1338742453565
 23
380.144898207943
 33
0.0
 14
537.1338742453565
 24
380.144898207943
 34
0.0
100
AcDbRotatedDimension
  0
LINE
  5
47E
330
2
100
AcDbEntity
  8
MITTEL
100
AcDbLine
 10
372.1338742453565
 20
496.1448982079425
 30
0.0
 11
372.1338742453565
 21
105.144898207943
 31
0.0
  0
DIMENSION
  5
481
330
2
100
AcDbEntity
  8
BEM
100
AcDbDimension
  2
*D2
 10
179.64691277634
 20
380.144898207943
 30
0.0
 11
174.14691277634
 21
245.1448982079431
 31
0.0
 70
    32
 71
     5
 42
270.0
  3
STANDARD
100
AcDbAlignedDimension
 13
322.4462041982453
 23
110.144898207943
 33
0.0
 14
207.1338742453565
 24
380.144898207943
 34
0.0
 50
90.0
100
AcDbRotatedDimension
  0
LINE
  5
49D
102
{ACAD_REACTORS
330
C8A
102
}
330
2
100
AcDbEntity
  8
STEMPEL
100
AcDbLine
 10
122.1338742453565
 20
380.144898207943
 30
0.0
 11
293.8822362395892
 21
380.144898207943
 31
0.0
  0
LINE
  5
49E
330
2
100
AcDbEntity
  8
STEMPEL
100
AcDbLine
 10
122.1338742453565
 20
383.144898207943
 30
0.0
 11
315.1338742453565
 21
383.144898207943
 31
0.0
  0
LINE
  5
49F
330
2
100
AcDbEntity
  8
STEMPEL
100
AcDbLine
 10
122.1338742453565
 20
383.144898207943
 30
0.0
 11
122.1338742453565
 21
380.144898207943
 31
0.0
  0
LINE
  5
4A4
102
{ACAD_REACTORS
330
C8A
102
}
330
2
100
AcDbEntity
  8
STEMPEL
100
AcDbLine
 10
207.1338742453565
 20
378.144898207943
 30
0.0
 11
293.8822362395892
 21
378.1448982079431
 31
0.0
  0
LINE
  5
4DF
102
{ACAD_REACTORS
330
C8A
102
}
330
2
100
AcDbEntity
  8
STEMPEL
100
AcDbLine
 10
207.1338742453565
 20
380.144898207943
 30
0.0
 11
207.1338742453565
 21
378.144898207943
 31
0.0
  0
LINE
  5
4E2
330
2
100
AcDbEntity
  8
STEMPEL
100
AcDbLine
 10
310.1491245242595
 20
379.4006254063963
 30
0.0
 11
309.2303096493608
 21
368.8985233297479
 31
0.0
  0
LINE
  5
4E3
330
2
100
AcDbEntity
  8
STEMPEL
100
AcDbLine
 10
316.1186239664534
 20
379.4006254063963
 30
0.0
 11
316.8337835535642
 21
371.226313920901
 31
0.0
  0
ARC
  5
4E5
102
{ACAD_REACTORS
330
C8A
102
}
330
2
100
AcDbEntity
  8
STEMPEL
100
AcDbCircle
 10
293.8822362395892
 20
372.1448982079431
 30
0.0
 40
8.0
100
AcDbArc
 50
348.9999999999997
 51
90.0
  0
ARC
  5
4E6
102
{ACAD_REACTORS
330
C8A
102
}
330
2
100
AcDbEntity
  8
STEMPEL
100
AcDbCircle
 10
293.8822362395892
 20
372.1448982079431
 30
0.0
 40
6.0
100
AcDbArc
 50
348.9999999999999
 51
90.0
  0
ARC
  5
4E7
330
2
100
AcDbEntity
  8
STEMPEL
100
AcDbCircle
 10
293.8822362395892
 20
372.1448982079431
 30
0.0
 40
11.0
100
AcDbArc
 50
348.9999999999998
 51
90.0
  0
LINE
  5
4E8
102
{ACAD_REACTORS
330
C99
102
}
330
2
100
AcDbEntity
  8
STEMPEL
100
AcDbLine
 10
314.1338742453565
 20
356.226313920901
 30
0.0
 11
314.1338742453565
 21
379.2263139209008
 31
0.0
  0
LINE
  5
4E9
102
{ACAD_REACTORS
330
C99
102
}
330
2
100
AcDbEntity
  8
STEMPEL
100
AcDbLine
 10
312.1338742453565
 20
356.226313920901
 30
0.0
 11
312.1338742453565
 21
379.2263139209008
 31
0.0
  0
ARC
  5
522
330
2
100
AcDbEntity
  8
STEMPEL
100
AcDbCircle
 10
306.2217931232833
 20
365.036611237512
 30
0.0
 40
2.499999999999928
100
AcDbArc
 50
64.60205586413088
 51
159.9924893337503
  0
LINE
  5
523
102
{ACAD_REACTORS
330
C8A
102
}
330
2
100
AcDbEntity
  8
STEMPEL
100
AcDbLine
 10
300.6338742453565
 20
361.6807965928053
 30
0.0
 11
307.8714785523904
 21
349.144898207943
 31
0.0
  0
LINE
  5
524
102
{ACAD_REACTORS
330
C8A
102
}
330
2
100
AcDbEntity
  8
STEMPEL
100
AcDbLine
 10
298.6338742453565
 20
361.144898207943
 30
0.0
 11
306.1394277448216
 21
348.144898207943
 31
0.0
  0
LINE
  5
525
330
2
100
AcDbEntity
  8
STEMPEL
100
AcDbLine
 10
303.592616677155
 20
362.5561043744204
 30
0.0
 11
310.1338742453565
 21
351.2263139209008
 31
0.0
  0
LINE
  5
526
102
{ACAD_REACTORS
330
C8A
102
}
330
2
100
AcDbEntity
  8
STEMPEL
100
AcDbLine
 10
300.6338742453565
 20
364.9523201115479
 30
0.0
 11
300.6338742453565
 21
361.6807965928053
 31
0.0
  0
LINE
  5
527
102
{ACAD_REACTORS
330
C8A
102
}
330
2
100
AcDbEntity
  8
STEMPEL
100
AcDbLine
 10
298.6338742453565
 20
365.144898207943
 30
0.0
 11
298.6338742453565
 21
361.144898207943
 31
0.0
  0
LINE
  5
528
102
{ACAD_REACTORS
330
C8A
102
}
330
2
100
AcDbEntity
  8
STEMPEL
100
AcDbLine
 10
300.6338742453565
 20
364.9523201115479
 30
0.0
 11
301.7352537071706
 21
370.6184262449307
 31
0.0
  0
LINE
  5
529
102
{ACAD_REACTORS
330
C8A
102
}
330
2
100
AcDbEntity
  8
STEMPEL
100
AcDbLine
 10
298.6338742453565
 20
365.144898207943
 30
0.0
 11
299.7719993402752
 21
371.0000442356838
 31
0.0
  0
ARC
  5
52A
330
2
100
AcDbEntity
  8
STEMPEL
100
AcDbCircle
 10
304.4586420809395
 20
363.0561043744204
 30
0.0
 40
1.0
100
AcDbArc
 50
172.7731439551196
 51
209.9999999999999
  0
LINE
  5
52B
330
2
100
AcDbEntity
  8
STEMPEL
100
AcDbLine
 10
303.466586235605
 20
363.181902624559
 30
0.0
 11
303.6930756935606
 21
364.968018015065
 31
0.0
  0
LINE
  5
52C
330
2
100
AcDbEntity
  8
STEMPEL
100
AcDbLine
 10
303.6930756935606
 20
364.968018015065
 30
0.0
 11
304.6801352575136
 21
370.045999258801
 31
0.0
  0
LINE
  5
52D
330
2
100
AcDbEntity
  8
STEMPEL
100
AcDbLine
 10
314.6338742453565
 20
351.2263139209008
 30
0.0
 11
314.6338742453565
 21
348.2263139209008
 31
0.0
  0
LINE
  5
534
102
{ACAD_REACTORS
330
C8A
102
}
330
2
100
AcDbEntity
  8
STEMPEL
100
AcDbLine
 10
313.0676309750971
 20
346.144898207943
 30
0.0
 11
321.3338742453565
 21
346.144898207943
 31
0.0
  0
LINE
  5
535
102
{ACAD_REACTORS
330
C8A
102
}
330
2
100
AcDbEntity
  8
STEMPEL
100
AcDbLine
 10
313.0676309750971
 20
344.144898207943
 30
0.0
 11
321.3338742453565
 21
344.144898207943
 31
0.0
  0
LINE
  5
536
330
2
100
AcDbEntity
  8
STEMPEL
100
AcDbLine
 10
308.5239873727284
 20
348.2263139209008
 30
0.0
 11
321.3338742453565
 21
348.2263139209008
 31
0.0
  0
ARC
  5
537
102
{ACAD_REACTORS
330
C8A
102
}
330
2
100
AcDbEntity
  8
STEMPEL
100
AcDbCircle
 10
313.0676309750971
 20
352.144898207943
 30
0.0
 40
6.0
100
AcDbArc
 50
210.0
 51
270.0
  0
ARC
  5
53A
102
{ACAD_REACTORS
330
C8A
330
CB1
102
}
330
2
100
AcDbEntity
  8
STEMPEL
100
AcDbCircle
 10
313.0676309750971
 20
352.144898207943
 30
0.0
 40
8.0
100
AcDbArc
 50
210.0
 51
270.0
  0
LINE
  5
53B
102
{ACAD_REACTORS
330
C8A
102
}
330
2
100
AcDbEntity
  8
STEMPEL
100
AcDbLine
 10
314.6338742453565
 20
346.144898207943
 30
0.0
 11
314.6338742453565
 21
344.144898207943
 31
0.0
  0
LINE
  5
53C
330
2
100
AcDbEntity
  8
STEMPEL
100
AcDbLine
 10
321.3338742453564
 20
358.7633393765953
 30
0.0
 11
319.5005858779001
 21
369.1604343650681
 31
0.0
  0
LINE
  5
53D
102
{ACAD_REACTORS
330
C99
102
}
330
2
100
AcDbEntity
  8
STEMPEL
100
AcDbLine
 10
312.1338742453565
 20
356.226313920901
 30
0.0
 11
314.1338742453565
 21
356.226313920901
 31
0.0
  0
LINE
  5
53E
330
2
100
AcDbEntity
  8
STEMPEL
100
AcDbLine
 10
310.1338742453565
 20
351.2263139209008
 30
0.0
 11
321.3338742453565
 21
351.2263139209007
 31
0.0
  0
LINE
  5
53F
330
2
100
AcDbEntity
  8
STEMPEL
100
AcDbLine
 10
317.6338742453565
 20
352.226313920901
 30
0.0
 11
321.3338742453565
 21
352.226313920901
 31
0.0
  0
LINE
  5
540
330
2
100
AcDbEntity
  8
STEMPEL
100
AcDbLine
 10
317.6338742453565
 20
352.226313920901
 30
0.0
 11
315.9018234377876
 21
351.226313920901
 31
0.0
  0
LINE
  5
541
330
2
100
AcDbEntity
  8
STEMPEL
100
AcDbLine
 10
306.2217931232833
 20
367.536611237512
 30
0.0
 11
308.51855178458
 21
367.536611237512
 31
0.0
  0
ARC
  5
542
330
2
100
AcDbEntity
  8
STEMPEL
100
AcDbCircle
 10
307.7229526433293
 20
368.1983386285714
 30
0.0
 40
1.0
100
AcDbArc
 50
244.6020558641299
 51
299.0145945450109
  0
ARC
  5
543
330
2
100
AcDbEntity
  8
STEMPEL
100
AcDbCircle
 10
307.2379202531774
 20
369.0728348152432
 30
0.0
 40
2.0
100
AcDbArc
 50
299.0145945450109
 51
354.9999999999999
  0
LINE
  5
545
330
2
100
AcDbEntity
  8
STEMPEL
100
AcDbLine
 10
316.8337835535642
 20
371.2263139209008
 30
0.0
 11
321.3338742453565
 21
371.2263139209009
 31
0.0
  0
ARC
  5
546
330
2
100
AcDbEntity
  8
STEMPEL
100
AcDbCircle
 10
317.0385664953696
 20
368.7263139209008
 30
0.0
 40
2.5
100
AcDbArc
 50
9.999999999999891
 51
90.0
  0
LINE
  5
54E
330
2
100
AcDbEntity
  8
STEMPEL
100
AcDbLine
 10
274.6338742453565
 20
383.144898207943
 30
0.0
 11
372.1338742453565
 21
383.144898207943
 31
0.0
  0
LINE
  5
55F
102
{ACAD_REACTORS
330
C99
102
}
330
2
100
AcDbEntity
  8
STEMPEL
100
AcDbLine
 10
312.1338742453565
 20
379.2263139209008
 30
0.0
 11
314.1338742453565
 21
379.2263139209008
 31
0.0
  0
LINE
  5
560
330
2
100
AcDbEntity
  8
STEMPEL
100
AcDbLine
 10
312.1415139204432
 20
381.226313920901
 30
0.0
 11
321.3338742453565
 21
381.2263139209012
 31
0.0
  0
ARC
  5
561
330
2
100
AcDbEntity
  8
STEMPEL
100
AcDbCircle
 10
312.1415139204432
 20
379.226313920901
 30
0.0
 40
2.0
100
AcDbArc
 50
90.0
 51
174.9999999999993
  0
ARC
  5
563
330
2
100
AcDbEntity
  8
STEMPEL
100
AcDbCircle
 10
314.12623457027
 20
379.226313920901
 30
0.0
 40
2.0
100
AcDbArc
 50
5.000000000000045
 51
90.0
  0
LINE
  5
582
330
2
100
AcDbEntity
  8
BEM
 62
     1
100
AcDbLine
 10
362.9408595224658
 20
555.6028569215092
 30
0.0
 11
357.3408595224658
 21
555.6028569215092
 31
0.0
  0
LINE
  5
583
330
2
100
AcDbEntity
  8
BEM
 62
     1
100
AcDbLine
 10
357.3408595224658
 20
550.0028569215092
 30
0.0
 11
362.9408595224658
 21
550.0028569215092
 31
0.0
  0
LINE
  5
584
330
2
100
AcDbEntity
  8
BEM
 62
     1
100
AcDbLine
 10
357.3408595224658
 20
555.6028569215092
 30
0.0
 11
357.3408595224658
 21
550.0028569215092
 31
0.0
  0
LINE
  5
585
330
2
100
AcDbEntity
  8
BEM
 62
     1
100
AcDbLine
 10
362.9408595224658
 20
550.0028569215092
 30
0.0
 11
362.9408595224658
 21
555.6028569215092
 31
0.0
  0
TEXT
  5
5D2
330
2
100
AcDbEntity
  8
TEXT
100
AcDbText
 10
613.3021760923266
 20
86.03758247564133
 30
0.0
 40
4.0
  1
DIN EN1123-2
 41
0.8
  7
GREEKS
100
AcDbText
  0
TEXT
  5
5D6
330
2
100
AcDbEntity
  8
TEXT
100
AcDbText
 10
590.3989971082361
 20
63.10765040825737
 30
0.0
 40
4.0
  1
29.06.
 41
0.8
  7
GREEKS
 72
     1
 11
597.4085209177599
 21
63.10765040825737
 31
0.0
100
AcDbText
  0
TEXT
  5
5DE
330
2
100
AcDbEntity
  8
TEXT
100
AcDbText
 10
569.6666666666667
 20
73.0
 30
0.0
 40
4.0
  1
2012
 41
0.8
  7
GREEKS
 72
     4
 11
575.0
 21
75.0
 31
0.0
100
AcDbText
  0
TEXT
  5
5E0
330
2
100
AcDbEntity
  8
TEXT
100
AcDbText
 10
624.4216048581257
 20
63.08963919723516
 30
0.0
 40
4.0
  1
Koeh
 41
0.8
  7
GREEKS
 72
     1
 11
629.6787477152686
 21
63.08963919723516
 31
0.0
100
AcDbText
  0
LINE
  5
609
102
{ACAD_REACTORS
330
C8A
102
}
330
2
100
AcDbEntity
  8
STEMPEL
100
AcDbLine
 10
450.3855122511236
 20
380.144898207943
 30
0.0
 11
622.1338742453562
 21
380.144898207943
 31
0.0
  0
LINE
  5
60A
102
{ACAD_REACTORS
330
C8A
102
}
330
2
100
AcDbEntity
  8
STEMPEL
100
AcDbLine
 10
537.1338742453565
 20
378.144898207943
 30
0.0
 11
450.3855122511236
 21
378.1448982079431
 31
0.0
  0
LINE
  5
60B
330
2
100
AcDbEntity
  8
STEMPEL
100
AcDbLine
 10
372.1338742453565
 20
383.1448982079431
 30
0.0
 11
622.1338742453565
 21
383.144898207943
 31
0.0
  0
ARC
  5
643
102
{ACAD_REACTORS
330
C8A
102
}
330
2
100
AcDbEntity
  8
STEMPEL
100
AcDbCircle
 10
450.3855122511236
 20
372.1448982079431
 30
0.0
 40
8.0
100
AcDbArc
 50
90.0
 51
191.0000000000002
  0
ARC
  5
644
102
{ACAD_REACTORS
330
C8A
102
}
330
2
100
AcDbEntity
  8
STEMPEL
100
AcDbCircle
 10
450.3855122511236
 20
372.1448982079431
 30
0.0
 40
6.0
100
AcDbArc
 50
90.0
 51
191.0
  0
ARC
  5
645
330
2
100
AcDbEntity
  8
STEMPEL
100
AcDbCircle
 10
450.3855122511236
 20
372.1448982079431
 30
0.0
 40
11.0
100
AcDbArc
 50
90.0
 51
191.0000000000005
  0
LINE
  5
646
330
2
100
AcDbEntity
  8
STEMPEL
100
AcDbLine
 10
434.1186239664536
 20
379.4006254063963
 30
0.0
 11
435.0374388413523
 21
368.8985233297479
 31
0.0
  0
LINE
  5
647
330
2
100
AcDbEntity
  8
STEMPEL
100
AcDbLine
 10
428.1491245242597
 20
379.4006254063963
 30
0.0
 11
427.4339649371492
 21
371.2263139209008
 31
0.0
  0
LINE
  5
649
102
{ACAD_REACTORS
330
C99
102
}
330
2
100
AcDbEntity
  8
STEMPEL
100
AcDbLine
 10
430.1338742453567
 20
356.2263139209011
 30
0.0
 11
430.1338742453567
 21
379.226313920901
 31
0.0
  0
LINE
  5
64A
102
{ACAD_REACTORS
330
C99
102
}
330
2
100
AcDbEntity
  8
STEMPEL
100
AcDbLine
 10
432.1338742453566
 20
356.2263139209011
 30
0.0
 11
432.1338742453566
 21
379.226313920901
 31
0.0
  0
ARC
  5
64D
330
2
100
AcDbEntity
  8
STEMPEL
100
AcDbCircle
 10
436.5447958473836
 20
368.1983386285714
 30
0.0
 40
1.0
100
AcDbArc
 50
240.9854054549876
 51
295.3979441358715
  0
LINE
  5
64E
330
2
100
AcDbEntity
  8
STEMPEL
100
AcDbLine
 10
438.0459553674295
 20
367.536611237512
 30
0.0
 11
435.7491967061328
 21
367.536611237512
 31
0.0
  0
ARC
  5
650
102
{ACAD_REACTORS
330
C8A
330
CB1
102
}
330
2
100
AcDbEntity
  8
STEMPEL
100
AcDbCircle
 10
431.2001175156157
 20
352.144898207943
 30
0.0
 40
8.0
100
AcDbArc
 50
270.0
 51
330.0000000000001
  0
ARC
  5
651
102
{ACAD_REACTORS
330
C8A
102
}
330
2
100
AcDbEntity
  8
STEMPEL
100
AcDbCircle
 10
431.2001175156157
 20
352.144898207943
 30
0.0
 40
6.0
100
AcDbArc
 50
270.0
 51
330.0000000000001
  0
LINE
  5
652
102
{ACAD_REACTORS
330
C8A
102
}
330
2
100
AcDbEntity
  8
STEMPEL
100
AcDbLine
 10
443.6338742453564
 20
361.6807965928053
 30
0.0
 11
436.3962699383224
 21
349.144898207943
 31
0.0
  0
LINE
  5
653
330
2
100
AcDbEntity
  8
STEMPEL
100
AcDbLine
 10
440.675131813558
 20
362.5561043744203
 30
0.0
 11
434.1338742453564
 21
351.2263139209009
 31
0.0
  0
LINE
  5
654
330
2
100
AcDbEntity
  8
STEMPEL
100
AcDbLine
 10
429.6338742453564
 20
351.2263139209009
 30
0.0
 11
429.6338742453564
 21
348.2263139209008
 31
0.0
  0
LINE
  5
65B
102
{ACAD_REACTORS
330
C8A
102
}
330
2
100
AcDbEntity
  8
STEMPEL
100
AcDbLine
 10
422.9338742453564
 20
344.1448982079431
 30
0.0
 11
431.2001175156157
 21
344.1448982079431
 31
0.0
  0
LINE
  5
65C
102
{ACAD_REACTORS
330
C8A
102
}
330
2
100
AcDbEntity
  8
STEMPEL
100
AcDbLine
 10
422.9338742453564
 20
346.1448982079431
 30
0.0
 11
431.2001175156157
 21
346.1448982079431
 31
0.0
  0
LINE
  5
65D
330
2
100
AcDbEntity
  8
STEMPEL
100
AcDbLine
 10
422.9338742453564
 20
348.2263139209008
 30
0.0
 11
435.7437611179845
 21
348.2263139209008
 31
0.0
  0
LINE
  5
65E
102
{ACAD_REACTORS
330
C8A
102
}
330
2
100
AcDbEntity
  8
STEMPEL
100
AcDbLine
 10
429.6338742453563
 20
346.144898207943
 30
0.0
 11
429.6338742453563
 21
344.144898207943
 31
0.0
  0
LINE
  5
660
330
2
100
AcDbEntity
  8
STEMPEL
100
AcDbLine
 10
422.9338742453564
 20
358.7633393765938
 30
0.0
 11
424.7671626128132
 21
369.1604343650683
 31
0.0
  0
LINE
  5
661
330
2
100
AcDbEntity
  8
STEMPEL
100
AcDbLine
 10
426.6338742453569
 20
352.226313920901
 30
0.0
 11
428.3659250529258
 21
351.2263139209009
 31
0.0
  0
LINE
  5
662
330
2
100
AcDbEntity
  8
STEMPEL
100
AcDbLine
 10
422.9338742453564
 20
351.2263139209009
 30
0.0
 11
434.1338742453564
 21
351.2263139209009
 31
0.0
  0
LINE
  5
663
330
2
100
AcDbEntity
  8
STEMPEL
100
AcDbLine
 10
422.9338742453564
 20
352.226313920901
 30
0.0
 11
426.6338742453569
 21
352.226313920901
 31
0.0
  0
LINE
  5
664
102
{ACAD_REACTORS
330
C99
102
}
330
2
100
AcDbEntity
  8
STEMPEL
100
AcDbLine
 10
432.1338742453566
 20
356.2263139209011
 30
0.0
 11
430.1338742453567
 21
356.2263139209011
 31
0.0
  0
LINE
  5
666
330
2
100
AcDbEntity
  8
STEMPEL
100
AcDbLine
 10
372.1338742453565
 20
371.2263139209008
 30
0.0
 11
376.6775178477251
 21
371.2263139209008
 31
0.0
  0
ARC
  5
667
330
2
100
AcDbEntity
  8
STEMPEL
100
AcDbCircle
 10
427.2291819953438
 20
368.726313920901
 30
0.0
 40
2.5
100
AcDbArc
 50
90.0
 51
170.0000000000001
  0
ARC
  5
668
330
2
100
AcDbEntity
  8
STEMPEL
100
AcDbCircle
 10
437.0298282375356
 20
369.0728348152432
 30
0.0
 40
2.0
100
AcDbArc
 50
184.9999999999997
 51
240.9854054549876
  0
LINE
  5
669
102
{ACAD_REACTORS
330
C8A
102
}
330
2
100
AcDbEntity
  8
STEMPEL
100
AcDbLine
 10
445.6338742453564
 20
361.144898207943
 30
0.0
 11
438.1283207458912
 21
348.144898207943
 31
0.0
  0
LINE
  5
66A
102
{ACAD_REACTORS
330
C8A
102
}
330
2
100
AcDbEntity
  8
STEMPEL
100
AcDbLine
 10
443.6338742453564
 20
364.9523201115479
 30
0.0
 11
443.6338742453564
 21
361.6807965928053
 31
0.0
  0
LINE
  5
66B
102
{ACAD_REACTORS
330
C8A
102
}
330
2
100
AcDbEntity
  8
STEMPEL
100
AcDbLine
 10
445.6338742453564
 20
365.144898207943
 30
0.0
 11
445.6338742453564
 21
361.144898207943
 31
0.0
  0
LINE
  5
66C
102
{ACAD_REACTORS
330
C8A
102
}
330
2
100
AcDbEntity
  8
STEMPEL
100
AcDbLine
 10
445.6338742453564
 20
365.144898207943
 30
0.0
 11
444.4957491504377
 21
371.0000442356838
 31
0.0
  0
ARC
  5
66D
330
2
100
AcDbEntity
  8
STEMPEL
100
AcDbCircle
 10
438.0459553674296
 20
365.036611237512
 30
0.0
 40
2.499999999999928
100
AcDbArc
 50
20.00751066586306
 51
115.3979441358685
  0
LINE
  5
66E
330
2
100
AcDbEntity
  8
STEMPEL
100
AcDbLine
 10
440.5746727971523
 20
364.9680180150651
 30
0.0
 11
439.5876132331994
 21
370.045999258801
 31
0.0
  0
LINE
  5
66F
102
{ACAD_REACTORS
330
C8A
102
}
330
2
100
AcDbEntity
  8
STEMPEL
100
AcDbLine
 10
443.6338742453564
 20
364.9523201115479
 30
0.0
 11
442.5324947835423
 21
370.6184262449307
 31
0.0
  0
LINE
  5
670
330
2
100
AcDbEntity
  8
STEMPEL
100
AcDbLine
 10
440.8011622551079
 20
363.1819026245591
 30
0.0
 11
440.5746727971523
 21
364.9680180150651
 31
0.0
  0
ARC
  5
671
330
2
100
AcDbEntity
  8
STEMPEL
100
AcDbCircle
 10
439.8091064097735
 20
363.0561043744204
 30
0.0
 40
1.0
100
AcDbArc
 50
329.9999999999995
 51
7.226856044883641
  0
ARC
  5
682
330
2
100
AcDbEntity
  8
STEMPEL
100
AcDbCircle
 10
430.1415139204434
 20
379.226313920901
 30
0.0
 40
2.0
100
AcDbArc
 50
90.00000000000161
 51
175.0
  0
LINE
  5
684
330
2
100
AcDbEntity
  8
STEMPEL
100
AcDbLine
 10
372.1338742453565
 20
381.2263139209032
 30
0.0
 11
380.0908431633498
 21
381.2263139209034
 31
0.0
  0
LINE
  5
685
102
{ACAD_REACTORS
330
C99
102
}
330
2
100
AcDbEntity
  8
STEMPEL
100
AcDbLine
 10
432.1338742453566
 20
379.226313920901
 30
0.0
 11
430.1338742453567
 21
379.226313920901
 31
0.0
  0
ARC
  5
686
330
2
100
AcDbEntity
  8
STEMPEL
100
AcDbCircle
 10
432.1262345702702
 20
379.226313920901
 30
0.0
 40
2.0
100
AcDbArc
 50
4.999999999999742
 51
90.00000000000161
  0
LINE
  5
6A9
102
{ACAD_REACTORS
330
C8A
102
}
330
2
100
AcDbEntity
  8
STEMPEL
100
AcDbLine
 10
537.1338742453565
 20
380.144898207943
 30
0.0
 11
537.1338742453565
 21
378.144898207943
 31
0.0
  0
LINE
  5
6AA
330
2
100
AcDbEntity
  8
STEMPEL
100
AcDbLine
 10
622.1338742453565
 20
383.144898207943
 30
0.0
 11
622.1338742453562
 21
380.144898207943
 31
0.0
  0
TEXT
  5
846
330
2
100
AcDbEntity
  8
TEXT
100
AcDbText
 10
471.4434393361986
 20
112.8933999925838
 30
0.0
 40
5.0
  1
Erstellt mit AUTOCAD 2004
 41
0.8
100
AcDbText
  0
LINE
  5
847
330
2
100
AcDbEntity
  8
STEMPEL
100
AcDbLine
 10
40.0
 20
10.0
 30
0.0
 11
830.0
 21
10.0
 31
0.0
  0
LINE
  5
848
330
2
100
AcDbEntity
  8
STEMPEL
100
AcDbLine
 10
830.0
 20
584.0
 30
0.0
 11
40.0
 21
584.0
 31
0.0
  0
LINE
  5
849
330
2
100
AcDbEntity
  8
HILF
100
AcDbLine
 10
840.0
 20
594.0
 30
0.0
 11
0.0
 21
594.0
 31
0.0
  0
LINE
  5
84A
330
2
100
AcDbEntity
  8
HILF
100
AcDbLine
 10
0.0
 20
0.0
 30
0.0
 11
840.0
 21
0.0
 31
0.0
  0
DIMENSION
  5
853
330
2
100
AcDbEntity
  8
BEM
100
AcDbDimension
  2
*D1
 10
423.1338742453566
 20
90.07185888409232
 30
0.0
 11
372.1338742453565
 21
95.57185888409232
 31
0.0
 70
    32
  1
%%c<>
 71
     5
 42
102.0000000000001
  3
STANDARD
100
AcDbAlignedDimension
 13
321.1338742453565
 23
118.144898207943
 33
0.0
 14
423.1338742453566
 24
118.144898207943
 34
0.0
100
AcDbRotatedDimension
  0
LINE
  5
856
330
2
100
AcDbEntity
  8
STEMPEL
100
AcDbLine
 10
40.0
 20
584.0
 30
0.0
 11
40.0
 21
10.0
 31
0.0
  0
LINE
  5
857
330
2
100
AcDbEntity
  8
HILF
100
AcDbLine
 10
0.0
 20
594.0
 30
0.0
 11
0.0
 21
0.0
 31
0.0
  0
LINE
  5
86D
102
{ACAD_REACTORS
330
CB1
330
D95
102
}
330
2
100
AcDbEntity
  8
STEMPEL
100
AcDbLine
 10
312.1338742453565
 20
344.1995789336997
 30
0.0
 11
310.6032897578625
 21
343.3511620982685
 31
0.0
  0
ARC
  5
86E
102
{ACAD_REACTORS
330
CB1
102
}
330
2
100
AcDbEntity
  8
SCHRAFF
100
AcDbCircle
 10
312.1338742453565
 20
344.1995789336997
 30
0.0
 40
3.0
100
AcDbArc
 50
162.4902587344859
 51
263.3146652873463
  0
TEXT
  5
874
330
2
100
AcDbEntity
  8
TEXT
100
AcDbText
 10
836.4132055378062
 20
10.5537806176784
 30
0.0
 40
4.0
  1
Diese Zeichnung ist urheberrechtlich geschützt und bleibt unser Eigentum. Sie darf weder ganz noch teilweise vervielfältigt und nicht an Dritte weitergegeben werden.
 50
90.0
 41
0.8
100
AcDbText
  0
LINE
  5
875
330
2
100
AcDbEntity
  8
STEMPEL
100
AcDbLine
 10
830.0
 20
10.0
 30
0.0
 11
830.0
 21
584.0
 31
0.0
  0
LINE
  5
876
330
2
100
AcDbEntity
  8
HILF
100
AcDbLine
 10
840.0
 20
0.0
 30
0.0
 11
840.0
 21
594.0
 31
0.0
  0
TEXT
  5
87A
330
2
100
AcDbEntity
  8
TEXT
100
AcDbText
 10
654.9713400534564
 20
42.0
 30
0.0
 40
4.0
  1
17143.100A.DWG
 41
0.8
100
AcDbText
  0
TEXT
  5
87B
330
2
100
AcDbEntity
  8
TEXT
100
AcDbText
 10
655.162303158329
 20
52.0
 30
0.0
 40
5.0
  1
EDV-Art.Nr. 17143.100A
 41
0.8
100
AcDbText
  0
TEXT
  5
87C
330
2
100
AcDbEntity
  8
TEXT
100
AcDbText
 10
654.862987254257
 20
72.0
 30
0.0
 40
5.0
  1
Kompletteinheit, einteilig
 41
0.8
100
AcDbText
  0
TEXT
  5
87D
330
2
100
AcDbEntity
  8
TEXT
100
AcDbText
 10
654.7422383911358
 20
30.84560570193048
 30
0.0
 40
5.0
  1
Bauvorhaben
 41
0.8
100
AcDbText
  0
TEXT
  5
87E
330
2
100
AcDbEntity
  8
TEXT
100
AcDbText
 10
654.8779403809009
 20
102.5489328011779
 30
0.0
 40
5.0
  1
Benennung
 41
0.8
100
AcDbText
  0
LINE
  5
87F
330
2
100
AcDbEntity
  8
HILF
100
AcDbLine
 10
654.7736801096947
 20
14.89398258028302
 30
0.0
 11
824.858883932673
 21
14.89398258028302
 31
0.0
  0
LINE
  5
880
330
2
100
AcDbEntity
  8
HILF
100
AcDbLine
 10
654.7736801096947
 20
50.0
 30
0.0
 11
746.6297842514809
 21
50.0
 31
0.0
  0
LINE
  5
881
330
2
100
AcDbEntity
  8
HILF
100
AcDbLine
 10
654.7736801096947
 20
60.0
 30
0.0
 11
746.6297842514809
 21
60.0
 31
0.0
  0
LINE
  5
882
330
2
100
AcDbEntity
  8
HILF
100
AcDbLine
 10
654.7736801096947
 20
70.0
 30
0.0
 11
746.6297842514809
 21
70.0
 31
0.0
  0
LINE
  5
883
330
2
100
AcDbEntity
  8
HILF
100
AcDbLine
 10
654.7736801096947
 20
84.03758247564132
 30
0.0
 11
746.6297842514809
 21
84.03758247564132
 31
0.0
  0
LINE
  5
884
330
2
100
AcDbEntity
  8
STEMPEL
100
AcDbLine
 10
830.0
 20
80.0
 30
0.0
 11
566.0000000000001
 21
80.0
 31
0.0
  0
LINE
  5
885
330
2
100
AcDbEntity
  8
STEMPEL
100
AcDbLine
 10
830.0
 20
40.0
 30
0.0
 11
565.9999999999999
 21
40.0
 31
0.0
  0
LINE
  5
886
330
2
100
AcDbEntity
  8
STEMPEL
100
AcDbLine
 10
830.0
 20
110.0
 30
0.0
 11
470.0
 21
110.0
 31
0.0
  0
TEXT
  5
887
330
2
100
AcDbEntity
  8
TEXT
 62
     1
100
AcDbText
 10
654.979117340995
 20
86.03758247564133
 30
0.0
 40
7.0
  1
Flachdachablauf DN100
 41
0.75
100
AcDbText
  0
TEXT
  5
88C
330
2
100
AcDbEntity
  8
TEXT
100
AcDbText
 10
548.6761904761904
 20
20.0
 30
0.0
 40
4.0
  1
Name
 41
0.8
 72
     1
 11
554.9999999999998
 21
20.0
 31
0.0
100
AcDbText
  0
LINE
  5
88D
330
2
100
AcDbEntity
  8
HILF
100
AcDbLine
 10
470.0
 20
40.0
 30
0.0
 11
566.0000000000001
 21
40.0
 31
0.0
  0
LINE
  5
88E
330
2
100
AcDbEntity
  8
HILF
100
AcDbLine
 10
470.0
 20
50.0
 30
0.0
 11
566.0000000000001
 21
50.0
 31
0.0
  0
LINE
  5
88F
330
2
100
AcDbEntity
  8
HILF
100
AcDbLine
 10
470.0
 20
60.0
 30
0.0
 11
566.0000000000001
 21
60.0
 31
0.0
  0
LINE
  5
890
330
2
100
AcDbEntity
  8
HILF
100
AcDbLine
 10
470.0
 20
70.0
 30
0.0
 11
566.0000000000001
 21
70.0
 31
0.0
  0
LINE
  5
891
330
2
100
AcDbEntity
  8
HILF
100
AcDbLine
 10
470.0
 20
80.0
 30
0.0
 11
566.0000000000001
 21
80.0
 31
0.0
  0
LINE
  5
892
330
2
100
AcDbEntity
  8
HILF
100
AcDbLine
 10
470.0
 20
90.0
 30
0.0
 11
566.0000000000001
 21
90.0
 31
0.0
  0
LINE
  5
893
330
2
100
AcDbEntity
  8
HILF
100
AcDbLine
 10
470.0
 20
100.0
 30
0.0
 11
566.0000000000001
 21
100.0
 31
0.0
  0
LINE
  5
894
330
2
100
AcDbEntity
  8
STEMPEL
100
AcDbLine
 10
565.9999999999999
 20
30.0
 30
0.0
 11
469.9999999999999
 21
30.0
 31
0.0
  0
TEXT
  5
895
330
2
100
AcDbEntity
  8
TEXT
100
AcDbText
 10
530.2666666666666
 20
20.0
 30
0.0
 40
4.0
  1
Tag
 41
0.8
 72
     1
 11
534.0
 21
20.0
 31
0.0
100
AcDbText
  0
TEXT
  5
896
330
2
100
AcDbEntity
  8
TEXT
100
AcDbText
 10
478.2664110704574
 20
13.65465846027189
 30
0.0
 40
4.0
  1
Index
 50
90.0
 41
0.8
100
AcDbText
  0
TEXT
  5
897
330
2
100
AcDbEntity
  8
TEXT
100
AcDbText
 10
493.2571428571428
 20
20.0
 30
0.0
 40
4.0
  1
Änderung
 41
0.8
 72
     1
 11
504.0
 21
20.0
 31
0.0
100
AcDbText
  0
LINE
  5
898
330
2
100
AcDbEntity
  8
VOLL
100
AcDbLine
 10
544.0000000000001
 20
109.9999999999999
 30
0.0
 11
543.9999999999998
 21
9.999999999999886
 31
0.0
  0
LINE
  5
899
330
2
100
AcDbEntity
  8
VOLL
100
AcDbLine
 10
524.0000000000001
 20
110.0
 30
0.0
 11
523.9999999999999
 21
10.0
 31
0.0
  0
LINE
  5
89A
330
2
100
AcDbEntity
  8
VOLL
100
AcDbLine
 10
484.0
 20
110.0
 30
0.0
 11
483.9999999999998
 21
10.0
 31
0.0
  0
LINE
  5
89B
330
2
100
AcDbEntity
  8
STEMPEL
100
AcDbLine
 10
470.0
 20
110.0
 30
0.0
 11
469.9999999999999
 21
10.0
 31
0.0
  0
LINE
  5
89C
330
2
100
AcDbEntity
  8
HILF
100
AcDbLine
 10
460.0000000000001
 20
0.0
 30
0.0
 11
460.0000000000001
 21
10.0
 31
0.0
  0
INSERT
  5
8A0
330
2
100
AcDbEntity
  8
STEMPEL
100
AcDbBlockReference
  2
LOGO
 10
568.9705276546529
 20
44.3239197186715
 30
0.0
 41
2.0
 42
2.0
 43
2.0
  0
LINE
  5
8A1
330
2
100
AcDbEntity
  8
STEMPEL
100
AcDbLine
 10
649.9999999999999
 20
110.0
 30
0.0
 11
649.9999999999999
 21
10.0
 31
0.0
  0
LINE
  5
8A2
330
2
100
AcDbEntity
  8
STEMPEL
100
AcDbLine
 10
566.0000000000001
 20
109.9999999999999
 30
0.0
 11
565.9999999999999
 21
9.999999999999886
 31
0.0
  0
TEXT
  5
8A3
330
2
100
AcDbEntity
  8
TEXT
100
AcDbText
 10
616.5714285714285
 20
102.5489328011779
 30
0.0
 40
5.0
  1
Zul. Abw.
 41
0.8
 72
     1
 11
630.0
 21
102.5489328011779
 31
0.0
100
AcDbText
  0
LINE
  5
8A4
330
2
100
AcDbEntity
  8
HILF
100
AcDbLine
 10
566.0000000000001
 20
50.0
 30
0.0
 11
649.9999999999999
 21
50.0
 31
0.0
  0
LINE
  5
8A5
330
2
100
AcDbEntity
  8
HILF
100
AcDbLine
 10
566.0000000000001
 20
60.0
 30
0.0
 11
649.9999999999999
 21
60.0
 31
0.0
  0
LINE
  5
8A6
330
2
100
AcDbEntity
  8
HILF
100
AcDbLine
 10
566.0000000000001
 20
70.0
 30
0.0
 11
649.9999999999999
 21
70.0
 31
0.0
  0
TEXT
  5
8A8
330
2
100
AcDbEntity
  8
TEXT
100
AcDbText
 10
567.5836127167614
 20
63.62990369617955
 30
0.0
 40
4.0
  1
Gez.
 41
0.8
100
AcDbText
  0
LINE
  5
8A9
330
2
100
AcDbEntity
  8
VOLL
100
AcDbLine
 10
610.0000000000001
 20
109.9999999999997
 30
0.0
 11
609.9999999999998
 21
40.0
 31
0.0
  0
LINE
  5
8AA
330
2
100
AcDbEntity
  8
VOLL
100
AcDbLine
 10
584.0000000000001
 20
80.0
 30
0.0
 11
584.0000000000001
 21
40.0
 31
0.0
  0
TEXT
  5
8AC
330
2
100
AcDbEntity
  8
TEXT
100
AcDbText
 10
567.6006777387303
 20
43.5294638964981
 30
0.0
 40
4.0
  1
Norm.
 41
0.8
100
AcDbText
  0
TEXT
  5
8AD
330
2
100
AcDbEntity
  8
TEXT
100
AcDbText
 10
567.5515086571671
 20
53.68926291428374
 30
0.0
 40
4.0
  1
Gepr.
 41
0.8
100
AcDbText
  0
TEXT
  5
8AE
330
2
100
AcDbEntity
  8
TEXT
 62
     1
100
AcDbText
 10
582.0000000000001
 20
86.03758247564133
 30
0.0
 40
7.0
  1
1:2
 41
0.8
 72
     1
 11
588.0000000000001
 21
86.03758247564133
 31
0.0
100
AcDbText
  0
TEXT
  5
8AF
330
2
100
AcDbEntity
  8
TEXT
100
AcDbText
 10
576.1904761904762
 20
102.548932801178
 30
0.0
 40
5.0
  1
Maßstab
 41
0.8
 72
     1
 11
588.0000000000001
 21
102.548932801178
 31
0.0
100
AcDbText
  0
TEXT
  5
8B1
330
2
100
AcDbEntity
  8
TEXT
100
AcDbText
 10
593.2666666666666
 20
73.66666666666667
 30
0.0
 40
4.0
  1
Tag
 41
0.8
 72
     4
 11
597.0
 21
75.0
 31
0.0
100
AcDbText
  0
TEXT
  5
8B3
330
2
100
AcDbEntity
  8
TEXT
100
AcDbText
 10
623.6761904761905
 20
73.0
 30
0.0
 40
4.0
  1
Name
 41
0.8
 72
     4
 11
630.0
 21
75.0
 31
0.0
100
AcDbText
  0
TEXT
  5
8B6
330
2
100
AcDbEntity
  8
TEXT
 62
     1
100
AcDbText
 10
767.971106150903
 20
85.77983636955821
 30
0.0
 40
7.0
  1
17143100W
 41
0.8
 72
     1
 11
790.3711061509029
 21
85.77983636955821
 31
0.0
100
AcDbText
  0
LINE
  5
8B7
330
2
100
AcDbEntity
  8
HILF
100
AcDbLine
 10
756.7238616296995
 20
83.77983636955821
 30
0.0
 11
824.858883932673
 21
83.77983636955821
 31
0.0
  0
LINE
  5
8B8
330
2
100
AcDbEntity
  8
VOLL
100
AcDbLine
 10
752.0
 20
60.0
 30
0.0
 11
830.0
 21
60.0
 31
0.0
  0
LINE
  5
8B9
330
2
100
AcDbEntity
  8
STEMPEL
100
AcDbLine
 10
752.0
 20
109.9999999999996
 30
0.0
 11
752.0
 21
40.0
 31
0.0
  0
TEXT
  5
8BA
330
2
100
AcDbEntity
  8
TEXT
100
AcDbText
 10
757.2400861497007
 20
52.07416177878599
 30
0.0
 40
5.0
  1
ersetzt durch:
 41
0.8
100
AcDbText
  0
TEXT
  5
8BB
330
2
100
AcDbEntity
  8
TEXT
100
AcDbText
 10
756.7238616296995
 20
73.18118237099963
 30
0.0
 40
5.0
  1
Ersatz für:
 41
0.8
100
AcDbText
  0
TEXT
  5
8BC
330
2
100
AcDbEntity
  8
TEXT
100
AcDbText
 10
756.1787549576343
 20
102.3132034537136
 30
0.0
 40
5.0
  1
Zeichnungs Nr.
 41
0.8
100
AcDbText
  0
ARC
  5
8CD
102
{ACAD_REACTORS
330
CB1
102
}
330
2
100
AcDbEntity
  8
SCHRAFF
100
AcDbCircle
 10
432.1338742453565
 20
344.1995789336997
 30
0.0
 40
3.0
100
AcDbArc
 50
276.6853347126515
 51
17.50974126551402
  0
LINE
  5
8CE
102
{ACAD_REACTORS
330
CB1
330
D95
102
}
330
2
100
AcDbEntity
  8
STEMPEL
100
AcDbLine
 10
432.1338742453565
 20
344.1995789336997
 30
0.0
 11
433.6644587328505
 21
343.3511620982685
 31
0.0
  0
LINE
  5
8D4
330
2
100
AcDbEntity
  8
HILF
100
AcDbLine
 10
460.0000000000001
 20
584.0
 30
0.0
 11
460.0000000000001
 21
594.0
 31
0.0
  0
LINE
  5
B10
330
2
100
AcDbEntity
  8
HILF
100
AcDbLine
 10
324.268670860121
 20
241.5347320777887
 30
0.0
 11
419.9990776305917
 21
241.5347320777887
 31
0.0
  0
LINE
  5
B11
330
2
100
AcDbEntity
  8
HILF
100
AcDbLine
 10
321.3179741139679
 20
249.4688150203308
 30
0.0
 11
422.9497743767451
 21
249.4688150203309
 31
0.0
  0
ARC
  5
B12
102
{ACAD_REACTORS
330
D95
102
}
330
2
100
AcDbEntity
  8
STEMPEL
100
AcDbCircle
 10
307.8838742453565
 20
236.8547048484601
 30
0.0
 40
13.25
100
AcDbArc
 50
0.0
 51
36.35982132484403
  0
ARC
  5
B13
102
{ACAD_REACTORS
330
D95
102
}
330
2
100
AcDbEntity
  8
STEMPEL
100
AcDbCircle
 10
307.8838742453565
 20
236.8547048484601
 30
0.0
 40
15.0
100
AcDbArc
 50
0.0
 51
36.35982132484399
  0
ARC
  5
B14
102
{ACAD_REACTORS
330
D95
102
}
330
2
100
AcDbEntity
  8
STEMPEL
100
AcDbCircle
 10
330.6338742453565
 20
253.6028390729044
 30
0.0
 40
13.25
100
AcDbArc
 50
180.0
 51
216.3598213248441
  0
ARC
  5
B15
102
{ACAD_REACTORS
330
D95
102
}
330
2
100
AcDbEntity
  8
STEMPEL
100
AcDbCircle
 10
330.6338742453565
 20
253.6028390729044
 30
0.0
 40
15.0
100
AcDbArc
 50
180.0
 51
216.359821324844
  0
ARC
  5
B16
102
{ACAD_REACTORS
330
D95
102
}
330
2
100
AcDbEntity
  8
STEMPEL
100
AcDbCircle
 10
413.6338742453564
 20
253.6028390729044
 30
0.0
 40
13.25
100
AcDbArc
 50
323.640178675156
 51
0.000000000000007
  0
ARC
  5
B17
102
{ACAD_REACTORS
330
D95
102
}
330
2
100
AcDbEntity
  8
STEMPEL
100
AcDbCircle
 10
413.6338742453564
 20
253.6028390729044
 30
0.0
 40
15.0
100
AcDbArc
 50
323.640178675156
 51
0.000000000000007
  0
ARC
  5
B18
102
{ACAD_REACTORS
330
D95
102
}
330
2
100
AcDbEntity
  8
STEMPEL
100
AcDbCircle
 10
436.3838742453564
 20
236.8547048484601
 30
0.0
 40
15.0
100
AcDbArc
 50
143.640178675156
 51
180.0
  0
ARC
  5
B19
102
{ACAD_REACTORS
330
D95
102
}
330
2
100
AcDbEntity
  8
STEMPEL
100
AcDbCircle
 10
436.3838742453564
 20
236.8547048484601
 30
0.0
 40
13.25
100
AcDbArc
 50
143.6401786751559
 51
180.0
  0
LINE
  5
B1A
330
2
100
AcDbEntity
  8
HILF
100
AcDbLine
 10
324.6474931277969
 20
118.2538492674641
 30
0.0
 11
419.6338742453565
 21
118.2538492674641
 31
0.0
  0
LINE
  5
B1B
102
{ACAD_REACTORS
330
D95
102
}
330
2
100
AcDbEntity
  8
STEMPEL
100
AcDbLine
 10
322.1338742453565
 20
110.1448982079428
 30
0.0
 11
422.1338742453564
 21
110.1448982079428
 31
0.0
  0
LINE
  5
B1C
102
{ACAD_REACTORS
330
D95
102
}
330
2
100
AcDbEntity
  8
STEMPEL
100
AcDbLine
 10
322.8838742453565
 20
118.253849267464
 30
0.0
 11
323.8974931277969
 21
110.1448982079427
 31
0.0
  0
LINE
  5
B1D
102
{ACAD_REACTORS
330
D95
102
}
330
2
100
AcDbEntity
  8
STEMPEL
100
AcDbLine
 10
321.1338742453565
 20
118.1448982079418
 30
0.0
 11
322.1338742453565
 21
110.1448982079428
 31
0.0
  0
LINE
  5
B1E
102
{ACAD_REACTORS
330
D95
102
}
330
2
100
AcDbEntity
  8
STEMPEL
100
AcDbLine
 10
421.3838742453566
 20
118.253849267466
 30
0.0
 11
420.3702553629161
 21
110.1448982079428
 31
0.0
  0
LINE
  5
B1F
102
{ACAD_REACTORS
330
D95
102
}
330
2
100
AcDbEntity
  8
STEMPEL
100
AcDbLine
 10
423.1338742453566
 20
118.1448982079429
 30
0.0
 11
422.1338742453564
 21
110.1448982079428
 31
0.0
  0
LINE
  5
B21
102
{ACAD_REACTORS
330
D95
102
}
330
2
100
AcDbEntity
  8
STEMPEL
100
AcDbLine
 10
421.3838742453565
 20
236.8547048484601
 30
0.0
 11
421.3838742453566
 21
118.253849267466
 31
0.0
  0
LINE
  5
B22
102
{ACAD_REACTORS
330
D95
102
}
330
2
100
AcDbEntity
  8
STEMPEL
100
AcDbLine
 10
423.1338742453564
 20
236.8547048484601
 30
0.0
 11
423.1338742453566
 21
118.1448982079429
 31
0.0
  0
LINE
  5
B23
102
{ACAD_REACTORS
330
D95
102
}
330
2
100
AcDbEntity
  8
STEMPEL
100
AcDbLine
 10
322.8838742453565
 20
236.8547048484601
 30
0.0
 11
322.8838742453565
 21
118.253849267464
 31
0.0
  0
LINE
  5
B24
102
{ACAD_REACTORS
330
D95
102
}
330
2
100
AcDbEntity
  8
STEMPEL
100
AcDbLine
 10
321.1338742453565
 20
236.8547048484601
 30
0.0
 11
321.1338742453565
 21
118.1448982079418
 31
0.0
  0
LINE
  5
B25
330
2
100
AcDbEntity
  8
HILF
100
AcDbLine
 10
320.4259039365942
 20
334.64595241551
 30
0.0
 11
322.0728518490636
 21
334.6459524155101
 31
0.0
  0
LINE
  5
B26
102
{ACAD_REACTORS
330
D95
102
}
330
2
100
AcDbEntity
  8
STEMPEL
100
AcDbLine
 10
317.3838742453565
 20
332.1421523749656
 30
0.0
 11
317.3838742453565
 21
253.6028390729044
 31
0.0
  0
LINE
  5
B27
102
{ACAD_REACTORS
330
D95
102
}
330
2
100
AcDbEntity
  8
STEMPEL
100
AcDbLine
 10
315.6338742453565
 20
332.1421523749656
 30
0.0
 11
315.6338742453565
 21
253.6028390729044
 31
0.0
  0
LINE
  5
B28
102
{ACAD_REACTORS
330
CB1
330
D95
102
}
330
2
100
AcDbEntity
  8
STEMPEL
100
AcDbLine
 10
310.6032897578625
 20
343.3511620982685
 30
0.0
 11
314.5994868292564
 21
336.1418317419978
 31
0.0
  0
LINE
  5
B29
102
{ACAD_REACTORS
330
D95
102
}
330
2
100
AcDbEntity
  8
STEMPEL
100
AcDbLine
 10
312.1338742453565
 20
344.1995789336995
 30
0.0
 11
316.1300713167505
 21
336.9902485774289
 31
0.0
  0
ARC
  5
B2A
102
{ACAD_REACTORS
330
D95
102
}
330
2
100
AcDbEntity
  8
STEMPEL
100
AcDbCircle
 10
307.3838742453565
 20
332.1421523749656
 30
0.0
 40
8.25
100
AcDbArc
 50
0.0
 51
28.99999999999947
  0
ARC
  5
B2B
102
{ACAD_REACTORS
330
D95
102
}
330
2
100
AcDbEntity
  8
STEMPEL
100
AcDbCircle
 10
307.3838742453565
 20
332.1421523749656
 30
0.0
 40
10.0
100
AcDbArc
 50
0.0
 51
28.99999999999947
  0
LINE
  5
B2C
102
{ACAD_REACTORS
330
D95
102
}
330
2
100
AcDbEntity
  8
STEMPEL
100
AcDbLine
 10
426.8838742453564
 20
332.1421523749656
 30
0.0
 11
426.8838742453566
 21
253.6028390729044
 31
0.0
  0
LINE
  5
B2D
102
{ACAD_REACTORS
330
D95
102
}
330
2
100
AcDbEntity
  8
STEMPEL
100
AcDbLine
 10
428.6338742453565
 20
332.1421523749656
 30
0.0
 11
428.6338742453565
 21
253.6028390729044
 31
0.0
  0
LINE
  5
B2E
102
{ACAD_REACTORS
330
CB1
330
D95
102
}
330
2
100
AcDbEntity
  8
STEMPEL
100
AcDbLine
 10
433.6644587328505
 20
343.3511620982685
 30
0.0
 11
429.6682616614565
 21
336.1418317419979
 31
0.0
  0
LINE
  5
B2F
102
{ACAD_REACTORS
330
D95
102
}
330
2
100
AcDbEntity
  8
STEMPEL
100
AcDbLine
 10
432.1338742453565
 20
344.1995789336995
 30
0.0
 11
428.1376771739625
 21
336.9902485774289
 31
0.0
  0
ARC
  5
B30
102
{ACAD_REACTORS
330
D95
102
}
330
2
100
AcDbEntity
  8
STEMPEL
100
AcDbCircle
 10
436.8838742453564
 20
332.1421523749656
 30
0.0
 40
10.0
100
AcDbArc
 50
151.0000000000005
 51
180.0
  0
ARC
  5
B31
102
{ACAD_REACTORS
330
D95
102
}
330
2
100
AcDbEntity
  8
STEMPEL
100
AcDbCircle
 10
436.8838742453564
 20
332.1421523749656
 30
0.0
 40
8.25
100
AcDbArc
 50
151.0000000000005
 51
180.0
  0
TEXT
  5
BAF
330
2
100
AcDbEntity
  8
TEXT
 62
     1
100
AcDbText
 10
360.4393481269156
 20
171.8149112728006
 30
0.0
 40
7.0
  1
DN100
 50
90.0
 41
0.8
  7
GREEKS
100
AcDbText
  0
HATCH
  5
C8A
330
2
100
AcDbEntity
  8
SCHRAFF
100
AcDbHatch
 10
0.0
 20
0.0
 30
0.0
210
0.0
220
0.0
230
1.0
  2
_USER
 70
     0
 71
     1
 91
        2
 92
        7
 72
     1
 73
     1
 93
       16
 10
450.3855122511236
 20
380.144898207943
 42
0.4716306187712197
 10
442.5324947835423
 20
370.6184262449307
 42
0.0
 10
443.6338742453564
 20
364.9523201115475
 42
0.0
 10
443.6338742453563
 20
361.6807965928051
 42
0.0
 10
436.3962699383224
 20
349.144898207943
 42
-0.2679491924311214
 10
431.2001175156157
 20
346.1448982079431
 42
0.0
 10
429.6338742453563
 20
346.1448982079431
 42
0.0
 10
429.6338742453564
 20
344.1448982079431
 42
0.0
 10
431.2001175156157
 20
344.1448982079431
 42
0.2679491924311218
 10
438.1283207458912
 20
348.144898207943
 42
0.0
 10
445.6338742453564
 20
361.144898207943
 42
0.0
 10
445.6338742453564
 20
365.1448982079431
 42
0.0
 10
444.4957491504377
 20
371.0000442356838
 42
-0.4716306187712213
 10
450.3855122511236
 20
378.1448982079431
 42
0.0
 10
537.1338742453566
 20
378.1448982079431
 42
0.0
 10
537.1338742453564
 20
380.1448982079429
 42
0.0
 97
       16
330
609
330
643
330
66F
330
66A
330
652
330
651
330
65C
330
65E
330
65B
330
650
330
669
330
66B
330
66C
330
644
330
60A
330
6A9
 92
        7
 72
     1
 73
     1
 93
       16
 10
293.8822362395892
 20
380.144898207943
 42
0.0
 10
207.1338742453565
 20
380.144898207943
 42
0.0
 10
207.1338742453565
 20
378.144898207943
 42
0.0
 10
293.8822362395892
 20
378.1448982079431
 42
-0.4716306187712241
 10
299.7719993402752
 20
371.0000442356838
 42
0.0
 10
298.6338742453565
 20
365.1448982079431
 42
0.0
 10
298.6338742453565
 20
361.1448982079429
 42
0.0
 10
306.1394277448216
 20
348.144898207943
 42
0.267949192431121
 10
313.0676309750971
 20
344.144898207943
 42
0.0
 10
314.6338742453565
 20
344.144898207943
 42
0.0
 10
314.6338742453565
 20
346.144898207943
 42
0.0
 10
313.0676309750971
 20
346.144898207943
 42
-0.2679491924311228
 10
307.8714785523904
 20
349.144898207943
 42
0.0
 10
300.6338742453565
 20
361.6807965928054
 42
0.0
 10
300.6338742453565
 20
364.9523201115479
 42
0.0
 10
301.7352537071706
 20
370.6184262449307
 42
0.4716306187712197
 97
       16
330
49D
330
4DF
330
4A4
330
4E6
330
529
330
527
330
524
330
53A
330
535
330
53B
330
534
330
537
330
523
330
526
330
528
330
4E5
 75
     0
 76
     0
 52
135.0
 41
2.0
 77
     0
 78
     1
 53
135.0
 43
-16.31659144842297
 44
-16.41772589418156
 45
-1.414213562373095
 46
-1.414213562373094
 79
     0
 47
0.392649109279785
 98
        2
 10
477.0906511474472
 20
379.4098631314219
 10
276.7187041097877
 20
379.8025117731629
  0
HATCH
  5
C99
330
2
100
AcDbEntity
  8
SCHRAFF
100
AcDbHatch
 10
0.0
 20
0.0
 30
0.0
210
0.0
220
0.0
230
1.0
  2
_USER
 70
     0
 71
     1
 91
        2
 92
        7
 72
     0
 73
     1
 93
        4
 10
432.1338742453566
 20
379.226313920901
 10
430.1338742453567
 20
379.226313920901
 10
430.1338742453567
 20
356.2263139209011
 10
432.1338742453566
 20
356.2263139209011
 97
        4
330
685
330
649
330
664
330
64A
 92
        7
 72
     0
 73
     1
 93
        4
 10
314.1338742453565
 20
379.2263139209008
 10
312.1338742453565
 20
379.2263139209008
 10
312.1338742453565
 20
356.226313920901
 10
314.1338742453565
 20
356.226313920901
 97
        4
330
55F
330
4E9
330
53D
330
4E8
 75
     0
 76
     0
 52
45.0
 41
2.0
 77
     0
 78
     1
 53
45.0
 43
-16.31659144842297
 44
-16.41772589418156
 45
-1.414213562373094
 46
1.414213562373095
 79
     0
 47
0.392649109279785
 98
        2
 10
431.5158541797782
 20
368.8083372073659
 10
312.4713443459191
 20
369.9862845322611
  0
HATCH
  5
CB1
330
2
100
AcDbEntity
  8
SCHRAFF
100
AcDbHatch
 10
0.0
 20
0.0
 30
0.0
210
0.0
220
0.0
230
1.0
  2
_USER
 70
     0
 71
     1
 91
        2
 92
        7
 72
     1
 73
     1
 93
        4
 10
434.994871680815
 20
345.1021827639042
 42
-0.0945887848327562
 10
432.1338742453566
 20
344.1995789336996
 42
0.0
 10
433.6644587328506
 20
343.3511620982686
 42
0.0
 10
432.4831238166191
 20
341.2199774944175
 42
0.4706943623818862
 97
        4
330
650
330
8CE
330
B2E
330
8CD
 92
        7
 72
     1
 73
     1
 93
        4
 10
311.7846246740938
 20
341.2199774944175
 42
0.0
 10
310.6032897578625
 20
343.3511620982686
 42
0.0
 10
312.1338742453563
 20
344.1995789336996
 42
-0.0945887848327568
 10
309.2728768098979
 20
345.1021827639041
 42
0.4706943623818768
 97
        4
330
53A
330
86E
330
B28
330
86D
 75
     0
 76
     0
 52
0.0
 41
0.1
 77
     0
 78
     1
 53
0.0
 43
-16.31659144842297
 44
-16.41772589418156
 45
0.0
 46
0.1
 79
     0
 47
0.1933309016243008
 98
        2
 10
434.5815018190728
 20
343.7396580886404
 10
309.6143352794306
 20
343.9329892105177
  0
HATCH
  5
CDB
330
2
100
AcDbEntity
  8
SCHRAFF
100
AcDbHatch
 10
0.0
 20
0.0
 30
0.0
210
0.0
220
0.0
230
1.0
  2
NET
 70
     0
 71
     0
 91
        2
 92
        7
 72
     1
 73
     1
 93
       16
 10
622.1338742453564
 20
383.144898207943
 42
0.0
 10
450.3855122511236
 20
383.144898207943
 42
0.471630618771217
 10
439.5876132331994
 20
370.045999258801
 42
0.0
 10
440.5746727971525
 20
364.968018015064
 42
0.0
 10
440.8011622551079
 20
363.1819026245591
 42
-0.1638766063561663
 10
440.675131813558
 20
362.5561043744204
 42
0.0
 10
434.1338742453563
 20
351.2263139209009
 42
0.0
 10
429.6338742453565
 20
351.2263139209009
 42
0.0
 10
429.6338742453564
 20
348.2263139209008
 42
0.0
 10
435.7437611179845
 20
348.2263139209008
 42
0.0470518403705428
 10
436.3962699383224
 20
349.144898207943
 42
0.0
 10
443.6338742453564
 20
361.6807965928052
 42
0.0
 10
443.6338742453563
 20
364.9523201115479
 42
0.0
 10
442.5324947835423
 20
370.6184262449307
 42
-0.4716306187712175
 10
450.3855122511236
 20
380.144898207943
 42
0.0
 10
622.1338742453562
 20
380.144898207943
 42
0.0
 97
        0
 92
        7
 72
     1
 73
     1
 93
       17
 10
293.8822362395892
 20
383.144898207943
 42
0.0
 10
274.6338742453565
 20
383.144898207943
 42
0.0
 10
122.1338742453565
 20
383.144898207943
 42
0.0
 10
122.1338742453565
 20
380.144898207943
 42
0.0
 10
293.8822362395892
 20
380.144898207943
 42
-0.4716306187712197
 10
301.7352537071706
 20
370.6184262449307
 42
0.0
 10
300.6338742453565
 20
364.9523201115479
 42
0.0
 10
300.6338742453565
 20
361.6807965928053
 42
0.0
 10
307.8714785523904
 20
349.144898207943
 42
0.0470518403705461
 10
308.5239873727284
 20
348.2263139209008
 42
0.0
 10
314.6338742453565
 20
348.2263139209008
 42
0.0
 10
314.6338742453564
 20
351.2263139209008
 42
0.0
 10
310.1338742453566
 20
351.2263139209009
 42
0.0
 10
303.592616677155
 20
362.5561043744204
 42
-0.1638766063561519
 10
303.466586235605
 20
363.181902624559
 42
0.0
 10
303.6930756935604
 20
364.9680180150645
 42
0.0
 10
304.6801352575136
 20
370.045999258801
 42
0.471630618771222
 97
        0
 75
     0
 76
     1
 52
45.0
 41
10.0
 77
     0
 78
     2
 53
45.0
 43
-16.31659144842297
 44
-16.41772589418156
 45
-0.8838834764831842
 46
0.8838834764831844
 79
     0
 53
135.0
 43
-16.31659144842297
 44
-16.41772589418156
 45
-0.8838834764831844
 46
-0.8838834764831842
 79
     0
 47
0.5641522053074684
 98
        2
 10
512.1849701887545
 20
382.5863911889785
 10
264.3726235520567
 20
382.5863911889785
  0
TEXT
  5
D2F
330
2
100
AcDbEntity
  8
TEXT
 62
     1
100
AcDbText
 10
491.4710410413891
 20
145.7197332066588
 30
0.0
 40
7.0
  1
EDV-Art.Nr. 17115.100A
 41
0.8
  7
GREEKS
100
AcDbText
  0
LINE
  5
D30
330
2
100
AcDbEntity
  8
TEXT
 62
     2
100
AcDbLine
 10
485.1046506888827
 20
155.6598980745958
 30
0.0
 11
593.0229244976583
 21
155.6598980745958
 31
0.0
  0
LINE
  5
D31
330
2
100
AcDbEntity
  8
TEXT
 62
     2
100
AcDbLine
 10
422.3442504172856
 20
151.082802157691
 30
0.0
 11
485.1046506888827
 21
155.6598980745958
 31
0.0
  0
TEXT
  5
D32
330
2
100
AcDbEntity
  8
TEXT
 62
     1
100
AcDbText
 10
491.6641252390902
 20
159.3828513744022
 30
0.0
 40
7.0
  1
Ablauftopf DN100
 41
0.8
  7
GREEKS
100
AcDbText
  0
TEXT
  5
D33
330
2
100
AcDbEntity
  8
TEXT
 62
     1
100
AcDbText
 10
608.1994248073836
 20
327.6227748142443
 30
0.0
 40
7.0
  1
EDV-Art.Nr. 17000.100A
 41
0.8
  7
GREEKS
100
AcDbText
  0
TEXT
  5
D34
330
2
100
AcDbEntity
  8
TEXT
 62
     1
100
AcDbText
 10
506.7439603005751
 20
287.3187411298358
 30
0.0
 40
7.0
  1
EDV-Art.Nr. 17201.100A
 41
0.8
  7
GREEKS
100
AcDbText
  0
TEXT
  5
D35
330
2
100
AcDbEntity
  8
TEXT
 62
     1
100
AcDbText
 10
608.9424698250099
 20
341.9793897815857
 30
0.0
 40
7.0
  1
Anschlußmanschette DN100
 41
0.8
  7
GREEKS
100
AcDbText
  0
LINE
  5
D36
330
2
100
AcDbEntity
  8
TEXT
 62
     2
100
AcDbLine
 10
604.2726664523755
 20
338.2564364817794
 30
0.0
 11
732.1151043458328
 21
338.2564364817794
 31
0.0
  0
LINE
  5
D37
330
2
100
AcDbEntity
  8
TEXT
 62
     2
100
AcDbLine
 10
500.3775699480686
 20
297.3823831369115
 30
0.0
 11
610.2522564386461
 21
297.3823831369115
 31
0.0
  0
LINE
  5
D38
330
2
100
AcDbEntity
  8
TEXT
 62
     2
100
AcDbLine
 10
500.3775699480686
 20
297.3823831369115
 30
0.0
 11
434.4387955315226
 21
357.6805784214988
 31
0.0
  0
TEXT
  5
D39
330
2
100
AcDbEntity
  8
TEXT
 62
     1
100
AcDbText
 10
507.4286292609285
 20
301.1053364367179
 30
0.0
 40
7.0
  1
Klemmring DN100
 41
0.8
  7
GREEKS
100
AcDbText
  0
LINE
  5
D3A
330
2
100
AcDbEntity
  8
TEXT
 62
     2
100
AcDbLine
 10
573.0945100341439
 20
381.7170352991287
 30
0.0
 11
604.2726664523755
 21
338.2564364817794
 31
0.0
  0
HATCH
  5
D95
330
2
100
AcDbEntity
  8
SCHRAFF
100
AcDbHatch
 10
0.0
 20
0.0
 30
0.0
210
0.0
220
0.0
230
1.0
  2
_USER
 70
     0
 71
     1
 91
        2
 92
        7
 72
     1
 73
     1
 93
       16
 10
428.6338742453565
 20
332.1421523749656
 42
-0.1272160680010468
 10
429.6682616614565
 20
336.1418317419979
 42
0.0
 10
433.6644587328505
 20
343.3511620982685
 42
0.0
 10
432.1338742453565
 20
344.1995789336997
 42
0.0
 10
428.1376771739625
 20
336.9902485774289
 42
0.1272160680010511
 10
426.8838742453564
 20
332.1421523749653
 42
0.0
 10
426.8838742453566
 20
253.6028390729044
 42
-0.1599942435199957
 10
424.3042282276573
 20
245.7475194809084
 42
0.1599942435199938
 10
421.3838742453565
 20
236.8547048484602
 42
0.0
 10
421.3838742453565
 20
118.2538492674662
 42
0.0
 10
420.3702553629161
 20
110.1448982079428
 42
0.0
 10
422.1338742453564
 20
110.1448982079428
 42
0.0
 10
423.1338742453565
 20
118.1448982079434
 42
0.0
 10
423.1338742453564
 20
236.8547048484601
 42
-0.1599942435199944
 10
425.7135202630555
 20
244.7100244404561
 42
0.1599942435199943
 10
428.6338742453565
 20
253.6028390729044
 42
0.0
 97
       16
330
B31
330
B2E
330
8CE
330
B2F
330
B30
330
B2C
330
B16
330
B18
330
B21
330
B1E
330
B1B
330
B1F
330
B22
330
B19
330
B17
330
B2D
 92
        7
 72
     1
 73
     1
 93
       16
 10
317.3838742453565
 20
332.1421523749656
 42
0.1272160680010446
 10
316.1300713167505
 20
336.9902485774289
 42
0.0
 10
312.1338742453564
 20
344.1995789336996
 42
0.0
 10
310.6032897578625
 20
343.3511620982685
 42
0.0
 10
314.5994868292564
 20
336.1418317419978
 42
-0.1272160680010547
 10
315.6338742453565
 20
332.1421523749653
 42
0.0
 10
315.6338742453565
 20
253.6028390729044
 42
0.1599942435199948
 10
318.5542282276573
 20
244.7100244404561
 42
-0.159994243519995
 10
321.1338742453565
 20
236.8547048484601
 42
0.0
 10
321.1338742453565
 20
118.1448982079419
 42
0.0
 10
322.1338742453565
 20
110.1448982079428
 42
0.0
 10
323.8974931277968
 20
110.1448982079428
 42
0.0
 10
322.8838742453564
 20
118.2538492674636
 42
0.0
 10
322.8838742453565
 20
236.8547048484601
 42
0.1599942435199952
 10
319.9635202630556
 20
245.7475194809084
 42
-0.1599942435199934
 10
317.3838742453565
 20
253.6028390729044
 42
0.0
 97
       16
330
B2B
330
B29
330
86D
330
B28
330
B2A
330
B27
330
B15
330
B12
330
B24
330
B1D
330
B1B
330
B1C
330
B23
330
B13
330
B14
330
B26
 75
     0
 76
     0
 52
45.0
 41
2.0
 77
     0
 78
     1
 53
45.0
 43
-16.31659144842297
 44
-16.41772589418156
 45
-1.414213562373094
 46
1.414213562373095
 79
     0
 47
0.3457703908046834
 98
        2
 10
427.8643126582883
 20
284.3304802973046
 10
316.8373670685323
 20
300.5816880724647
  0
DIMENSION
  5
DF8
330
2
100
AcDbEntity
  8
BEM
100
AcDbDimension
  2
*D4
 10
622.1338742453565
 20
547.0815610647539
 30
0.0
 11
372.6647918000422
 21
547.0815610647539
 31
0.0
 70
   160
 71
     5
 42
500.0
  3
STANDARD
100
AcDbAlignedDimension
 13
122.1338742453565
 23
383.144898207943
 33
0.0
 14
622.1338742453565
 24
383.144898207943
 34
0.0
100
AcDbRotatedDimension
  0
DIMENSION
  5
1004
330
2
100
AcDbEntity
  8
BEM
100
AcDbDimension
  2
*D5
 10
502.1338742453565
 20
519.753087341616
 30
0.0
 11
372.1338742453565
 21
526.253087341616
 31
0.0
 70
    32
  1
%%c<>
 71
     5
 42
260.0
  3
STANDARD
100
AcDbAlignedDimension
 13
242.1338742453565
 23
400.6448982079435
 33
0.0
 14
502.1338742453565
 24
400.6448982079423
 34
0.0
100
AcDbRotatedDimension
1001
ACAD
1000
DSTYLE
1002
{
1070
    40
1040
2.0
1070
    41
1040
3.5
1070
    42
1040
1.0
1070
    43
1040
7.0
1070
    44
1040
1.0
1070
    73
1070
     0
1070
    74
1070
     0
1070
    77
1070
     1
1070
    78
1070
     8
1070
    79
1070
     2
1070
   140
1040
3.5
1070
   141
1040
1.5
1070
   146
1040
0.5142857142857144
1070
   147
1040
1.5
1070
   172
1070
     1
1070
   178
1070
     1
1070
   179
1070
     2
1070
   271
1070
     2
1070
   272
1070
     2
1070
   284
1070
     8
1070
   285
1070
     8
1070
   286
1070
     8
1002
}
  0
LINE
  5
1006
330
2
100
AcDbEntity
  8
STEMPEL
100
AcDbLine
 10
507.1338742453563
 20
383.1448982079434
 30
0.0
 11
237.1338742453565
 21
383.1448982079428
 31
0.0
  0
LINE
  5
1007
330
2
100
AcDbEntity
  8
STEMPEL
100
AcDbLine
 10
237.1338742453565
 20
384.6448982079431
 30
0.0
 11
237.1338742453565
 21
383.1448982079428
 31
0.0
  0
ARC
  5
1008
330
2
100
AcDbEntity
  8
SCHRAFF
100
AcDbCircle
 10
321.4889302099036
 20
383.1448982079432
 30
0.0
 40
1.828088629478462
100
AcDbArc
 50
304.8622016819284
 51
55.13779831807161
  0
HATCH
  5
1009
330
2
100
AcDbEntity
  8
SCHRAFF
100
AcDbHatch
 10
0.0
 20
0.0
 30
0.0
210
0.0
220
0.0
230
1.0
  2
_USER
 70
     0
 71
     0
 91
        2
 92
        7
 72
     1
 73
     1
 93
        3
 10
322.5338742453564
 20
384.6448982079427
 42
-0.2453357974240878
 10
323.3170188393817
 20
383.1448982079432
 42
0.0
 10
322.5338742453565
 20
383.1448982079432
 42
0.0
 97
        0
 92
        7
 72
     1
 73
     1
 93
        3
 10
322.5338742453564
 20
383.1448982079432
 42
0.0
 10
323.3170188393821
 20
383.1448982079432
 42
-0.2453357974242125
 10
322.5338742453564
 20
381.6448982079432
 42
0.0
 97
        0
 75
     0
 76
     0
 52
0.0
 41
0.1
 77
     0
 78
     1
 53
179.9999999999998
 43
582.8338742453548
 44
-130.2816144196974
 45
0.0000000000000003
 46
0.1
 79
     0
 47
0.0937308931428171
 98
        2
 10
322.8851214322992
 20
383.5897545493967
 10
322.7913564165244
 20
382.74617601991
  0
LINE
  5
100A
330
2
100
AcDbEntity
  8
STEMPEL
100
AcDbLine
 10
321.3338742453565
 20
383.1448982079433
 30
0.0
 11
321.3338742453565
 21
343.0925050764529
 31
0.0
  0
LINE
  5
100B
330
2
100
AcDbEntity
  8
STEMPEL
100
AcDbLine
 10
322.5338742453565
 20
384.644898207943
 30
0.0
 11
322.5338742453564
 21
343.1448982079431
 31
0.0
  0
LINE
  5
100C
330
2
100
AcDbEntity
  8
STEMPEL
100
AcDbLine
 10
322.5338742453564
 20
343.1448982079431
 30
0.0
 11
323.4087608806157
 21
333.1448982079431
 31
0.0
  0
LINE
  5
100D
330
2
100
AcDbEntity
  8
STEMPEL
100
AcDbLine
 10
321.3338742453565
 20
343.0925050764529
 30
0.0
 11
322.2041770755636
 21
333.144898207943
 31
0.0
  0
LINE
  5
100E
330
2
100
AcDbEntity
  8
STEMPEL
100
AcDbLine
 10
333.0100053840248
 20
383.1448982079432
 30
0.0
 11
331.2927577417944
 21
373.3299884923271
 31
0.0
  0
ELLIPSE
  5
100F
330
2
100
AcDbEntity
  8
STEMPEL
100
AcDbEllipse
 10
328.139783733107
 20
375.1448982079432
 30
0.0
 11
0.0000000000000166
 21
6.0
 31
0.0
210
0.0
220
0.0
230
-1.0
 40
0.5513228499210167
 41
1.878094989772523
 42
2.965625447397827
  0
LINE
  5
1010
330
2
100
AcDbEntity
  8
STEMPEL
100
AcDbLine
 10
333.9341912626389
 20
383.1448982079432
 30
0.0
 11
332.2575085253431
 21
373.3299884923271
 31
0.0
  0
ELLIPSE
  5
1011
330
2
100
AcDbEntity
  8
STEMPEL
100
AcDbEllipse
 10
329.1790142176483
 20
375.1448982079432
 30
0.0
 11
0.0000000000000166
 21
6.0
 31
0.0
210
0.0
220
0.0
230
-1.0
 40
0.5382994755134405
 41
1.878094989772521
 42
3.141592653589793
  0
LINE
  5
1012
330
2
100
AcDbEntity
  8
STEMPEL
100
AcDbLine
 10
325.6349786642137
 20
383.1448982079432
 30
0.0
 11
326.6230963062207
 21
373.7449099028208
 31
0.0
  0
ELLIPSE
  5
1013
330
2
100
AcDbEntity
  8
STEMPEL
100
AcDbEllipse
 10
329.1790142176483
 20
375.1448982079432
 30
0.0
 11
0.0000000000000166
 21
6.0
 31
0.0
210
0.0
220
0.0
230
-1.0
 40
0.4380784772424609
 41
3.141592653589793
 42
4.476886748139611
  0
ARC
  5
1014
330
2
100
AcDbEntity
  8
SCHRAFF
100
AcDbCircle
 10
350.6080429277058
 20
383.1448982079431
 30
0.0
 40
5.0
100
AcDbArc
 50
342.5423968762808
 51
17.45760312371915
  0
ARC
  5
1015
330
2
100
AcDbEntity
  8
SCHRAFF
100
AcDbCircle
 10
345.6080429277057
 20
383.1448982079431
 30
0.0
 40
5.0
100
AcDbArc
 50
342.5423968762808
 51
17.45760312371915
  0
ARC
  5
1016
330
2
100
AcDbEntity
  8
SCHRAFF
100
AcDbCircle
 10
330.6080429277058
 20
383.1448982079431
 30
0.0
 40
5.0
100
AcDbArc
 50
342.5423968762808
 51
17.45760312371915
  0
ARC
  5
1017
330
2
100
AcDbEntity
  8
SCHRAFF
100
AcDbCircle
 10
335.6080429277057
 20
383.1448982079431
 30
0.0
 40
5.0
100
AcDbArc
 50
342.5423968762808
 51
17.45760312371915
  0
ARC
  5
1018
330
2
100
AcDbEntity
  8
SCHRAFF
100
AcDbCircle
 10
340.6080429277058
 20
383.1448982079431
 30
0.0
 40
5.0
100
AcDbArc
 50
342.5423968762808
 51
17.45760312371915
  0
LINE
  5
1019
330
2
100
AcDbEntity
  8
STEMPEL
100
AcDbLine
 10
363.6338742453566
 20
383.1448982079432
 30
0.0
 11
366.3606659850408
 21
373.5108644313577
 31
0.0
  0
LINE
  5
101A
330
2
100
AcDbEntity
  8
STEMPEL
100
AcDbLine
 10
380.6338742453565
 20
383.1448982079432
 30
0.0
 11
377.9070825056723
 21
373.5108644313577
 31
0.0
  0
ARC
  5
101B
330
2
100
AcDbEntity
  8
STEMPEL
100
AcDbCircle
 10
372.1338742453565
 20
375.1448982079432
 30
0.0
 40
6.0
100
AcDbArc
 50
195.8034962890195
 51
344.1965037109804
  0
ARC
  5
101C
330
2
100
AcDbEntity
  8
SCHRAFF
100
AcDbCircle
 10
355.6080429277058
 20
383.1448982079431
 30
0.0
 40
5.0
100
AcDbArc
 50
342.5423968762808
 51
17.45760312371915
  0
ARC
  5
101D
330
2
100
AcDbEntity
  8
SCHRAFF
100
AcDbCircle
 10
379.3369530950155
 20
383.1448982079431
 30
0.0
 40
5.0
100
AcDbArc
 50
342.5423968762808
 51
17.45760312371915
  0
ARC
  5
101E
330
2
100
AcDbEntity
  8
SCHRAFF
100
AcDbCircle
 10
384.3369530950155
 20
383.1448982079431
 30
0.0
 40
5.0
100
AcDbArc
 50
342.5423968762808
 51
17.45760312371915
  0
ARC
  5
101F
330
2
100
AcDbEntity
  8
SCHRAFF
100
AcDbCircle
 10
389.3369530950155
 20
383.1448982079431
 30
0.0
 40
5.0
100
AcDbArc
 50
342.5423968762808
 51
17.45760312371915
  0
ARC
  5
1020
330
2
100
AcDbEntity
  8
SCHRAFF
100
AcDbCircle
 10
399.3369530950155
 20
383.1448982079431
 30
0.0
 40
5.0
100
AcDbArc
 50
342.5423968762808
 51
17.45760312371915
  0
ARC
  5
1021
330
2
100
AcDbEntity
  8
SCHRAFF
100
AcDbCircle
 10
394.3369530950155
 20
383.1448982079431
 30
0.0
 40
5.0
100
AcDbArc
 50
342.5423968762808
 51
17.45760312371915
  0
ELLIPSE
  5
1022
330
2
100
AcDbEntity
  8
STEMPEL
100
AcDbEllipse
 10
415.0887342730646
 20
375.1448982079431
 30
0.0
 11
0.0
 21
6.0
 31
0.0
210
0.0
220
0.0
230
1.0
 40
0.4380784772424609
 41
3.141592653589793
 42
4.476886748139611
  0
LINE
  5
1023
330
2
100
AcDbEntity
  8
STEMPEL
100
AcDbLine
 10
418.6327698264992
 20
383.1448982079431
 30
0.0
 11
417.6446521844922
 21
373.7449099028207
 31
0.0
  0
ELLIPSE
  5
1024
330
2
100
AcDbEntity
  8
STEMPEL
100
AcDbEllipse
 10
415.0887342730646
 20
375.1448982079431
 30
0.0
 11
0.0
 21
6.0
 31
0.0
210
0.0
220
0.0
230
1.0
 40
0.5382994755134405
 41
1.878094989772521
 42
3.141592653589793
  0
LINE
  5
1025
330
2
100
AcDbEntity
  8
STEMPEL
100
AcDbLine
 10
410.333557228074
 20
383.1448982079432
 30
0.0
 11
412.0102399653697
 21
373.3299884923271
 31
0.0
  0
ELLIPSE
  5
1026
330
2
100
AcDbEntity
  8
STEMPEL
100
AcDbEllipse
 10
416.1279647576058
 20
375.1448982079431
 30
0.0
 11
0.0
 21
6.0
 31
0.0
210
0.0
220
0.0
230
1.0
 40
0.5513228499210167
 41
1.878094989772523
 42
2.965625447397827
  0
LINE
  5
1027
330
2
100
AcDbEntity
  8
STEMPEL
100
AcDbLine
 10
411.2577431066881
 20
383.1448982079432
 30
0.0
 11
412.9749907489185
 21
373.329988492327
 31
0.0
  0
ARC
  5
1028
330
2
100
AcDbEntity
  8
SCHRAFF
100
AcDbCircle
 10
404.3369530950155
 20
383.1448982079431
 30
0.0
 40
5.0
100
AcDbArc
 50
342.5423968762808
 51
17.45760312371915
  0
HATCH
  5
1029
330
2
100
AcDbEntity
  8
SCHRAFF
100
AcDbHatch
 10
0.0
 20
0.0
 30
0.0
210
0.0
220
0.0
230
1.0
  2
_USER
 70
     0
 71
     0
 91
        2
 92
        7
 72
     1
 73
     1
 93
        3
 10
421.7338742453565
 20
384.6448982079425
 42
0.2453357974240878
 10
420.9507296513312
 20
383.1448982079431
 42
0.0
 10
421.7338742453565
 20
383.1448982079431
 42
0.0
 97
        0
 92
        7
 72
     1
 73
     1
 93
        3
 10
421.7338742453565
 20
383.1448982079431
 42
0.0
 10
420.9507296513309
 20
383.1448982079431
 42
0.2453357974242125
 10
421.7338742453565
 20
381.644898207943
 42
0.0
 97
        0
 75
     0
 76
     0
 52
0.0
 41
0.1
 77
     0
 78
     1
 53
0.0
 43
161.4338742453566
 44
-130.2816144196968
 45
0.0
 46
0.1
 79
     0
 47
0.0937308931428171
 98
        2
 10
421.3826270584137
 20
383.5897545493964
 10
421.4763920741885
 20
382.7461760199098
  0
ARC
  5
102A
330
2
100
AcDbEntity
  8
SCHRAFF
100
AcDbCircle
 10
422.7788182808094
 20
383.144898207943
 30
0.0
 40
1.828088629478462
100
AcDbArc
 50
124.8622016819284
 51
235.1377983180716
  0
LINE
  5
102B
330
2
100
AcDbEntity
  8
STEMPEL
100
AcDbLine
 10
422.0635714151492
 20
333.144898207943
 30
0.0
 11
322.2041770755636
 21
333.144898207943
 31
0.0
  0
LINE
  5
102E
330
2
100
AcDbEntity
  8
HILF
100
AcDbLine
 10
420.5292904403044
 20
343.1448982079431
 30
0.0
 11
323.7384580504084
 21
343.1448982079431
 31
0.0
  0
LINE
  5
102F
330
2
100
AcDbEntity
  8
STEMPEL
100
AcDbLine
 10
421.7338742453565
 20
384.6448982079427
 30
0.0
 11
421.7338742453564
 21
343.1448982079428
 31
0.0
  0
LINE
  5
1030
330
2
100
AcDbEntity
  8
STEMPEL
100
AcDbLine
 10
422.9338742453564
 20
383.1448982079431
 30
0.0
 11
422.9338742453563
 21
343.0925050764527
 31
0.0
  0
LINE
  5
1031
330
2
100
AcDbEntity
  8
STEMPEL
100
AcDbLine
 10
422.9338742453563
 20
343.0925050764527
 30
0.0
 11
422.0635714151492
 21
333.144898207943
 31
0.0
  0
LINE
  5
1032
330
2
100
AcDbEntity
  8
STEMPEL
100
AcDbLine
 10
421.7338742453564
 20
343.1448982079428
 30
0.0
 11
420.8589876100972
 21
333.1448982079428
 31
0.0
  0
HATCH
  5
1033
330
2
100
AcDbEntity
  8
SCHRAFF
100
AcDbHatch
 10
0.0
 20
0.0
 30
0.0
210
0.0
220
0.0
230
1.0
  2
_USER
 70
     0
 71
     0
 91
        2
 92
        7
 72
     0
 73
     1
 93
        6
 10
422.9338742453564
 20
383.1448982079432
 10
421.7338742453565
 20
383.1448982079431
 10
421.7338742453564
 20
343.1448982079425
 10
420.8589876100971
 20
333.144898207943
 10
422.0635714151492
 20
333.1448982079431
 10
422.9338742453563
 20
343.0925050764528
 97
        0
 92
        7
 72
     0
 73
     1
 93
        6
 10
321.3338742453565
 20
343.0925050764529
 10
322.2041770755636
 20
333.1448982079431
 10
323.4087608806157
 20
333.1448982079428
 10
322.5338742453565
 20
343.1448982079425
 10
322.5338742453564
 20
383.1448982079433
 10
321.3338742453565
 20
383.1448982079433
 97
        0
 75
     0
 76
     0
 52
45.0
 41
2.0
 77
     0
 78
     1
 53
45.0
 43
147.1338742453565
 44
-145.2816144196964
 45
-1.414213562373094
 46
1.414213562373095
 79
     0
 47
0.2802701113960166
 98
        2
 10
422.6586226705176
 20
373.3897923188426
 10
321.7269434593193
 20
371.9884426367968
  0
HATCH
  5
1034
330
2
100
AcDbEntity
  8
SCHRAFF
100
AcDbHatch
 10
0.0
 20
0.0
 30
0.0
210
0.0
220
0.0
230
1.0
  2
_USER
 70
     0
 71
     0
 91
        4
 92
        7
 72
     0
 73
     1
 93
        4
 10
433.1338742453565
 20
384.6448982079432
 10
433.1338742453565
 20
383.1448982079432
 10
507.1338742453564
 20
383.144898207943
 10
507.1338742453564
 20
384.6448982079432
 97
        0
 92
        7
 72
     0
 73
     1
 93
        4
 10
433.1338742453565
 20
383.1448982079433
 10
433.1338742453565
 20
384.6448982079432
 10
421.7338742453565
 20
384.6448982079432
 10
421.7338742453565
 20
383.1448982079432
 97
        0
 92
        7
 72
     0
 73
     1
 93
        4
 10
322.5338742453564
 20
383.1448982079433
 10
322.5338742453564
 20
384.644898207943
 10
250.1338742453565
 20
384.644898207943
 10
250.1338742453565
 20
383.1448982079436
 97
        0
 92
        7
 72
     0
 73
     1
 93
        4
 10
250.1338742453565
 20
383.1448982079436
 10
250.1338742453565
 20
384.644898207943
 10
237.1338742453565
 20
384.6448982079428
 10
237.1338742453565
 20
383.1448982079436
 97
        0
 75
     0
 76
     0
 52
135.0
 41
2.0
 77
     0
 78
     1
 53
135.0
 43
147.1338742453565
 44
-140.2816144196964
 45
-1.414213562373095
 46
-1.414213562373094
 79
     0
 47
0.2802701113960166
 98
        4
 10
467.2367819770029
 20
383.995195196448
 10
425.7426466548986
 20
383.714925260039
 10
313.8767005899856
 20
383.714925260039
 10
244.906720783873
 20
383.714925260039
  0
LINE
  5
1035
330
2
100
AcDbEntity
  8
STEMPEL
100
AcDbLine
 10
507.1338742453564
 20
384.6448982079431
 30
0.0
 11
507.1338742453564
 21
383.1448982079428
 31
0.0
  0
LINE
  5
1036
330
2
100
AcDbEntity
  8
MITTEL
100
AcDbLine
 10
433.1338742453564
 20
378.1448982079432
 30
0.0
 11
433.1338742453564
 21
412.2448982079436
 31
0.0
  0
LINE
  5
1037
330
2
100
AcDbEntity
  8
STEMPEL
100
AcDbLine
 10
439.8719853241855
 20
401.7117291493759
 30
0.0
 11
433.9036274408162
 21
401.7117291493759
 31
0.0
  0
ARC
  5
1038
330
2
100
AcDbEntity
  8
STEMPEL
100
AcDbCircle
 10
439.6838742453564
 20
401.1948982079435
 30
0.0
 40
0.5500000000000009
100
AcDbArc
 50
270.0
 51
69.99999999999783
  0
LINE
  5
1039
330
2
100
AcDbEntity
  8
STEMPEL
100
AcDbLine
 10
439.8719853241855
 20
401.7117291493759
 30
0.0
 11
438.9073769372526
 21
402.0628178899429
 31
0.0
  0
LINE
  5
103A
330
2
100
AcDbEntity
  8
STEMPEL
100
AcDbLine
 10
438.1338742453563
 20
407.2448982079436
 30
0.0
 11
432.9916508394377
 21
407.2448982079436
 31
0.0
  0
LINE
  5
103B
330
2
100
AcDbEntity
  8
STEMPEL
100
AcDbLine
 10
438.9073769372527
 20
407.0376387863068
 30
0.0
 11
438.9073769372526
 21
402.0628178899429
 31
0.0
  0
LINE
  5
103C
330
2
100
AcDbEntity
  8
STEMPEL
100
AcDbLine
 10
436.0206255913046
 20
407.0376387863068
 30
0.0
 11
436.0206255913046
 21
402.0628178899429
 31
0.0
  0
LINE
  5
103D
330
2
100
AcDbEntity
  8
STEMPEL
100
AcDbLine
 10
439.6838742453564
 20
400.6448982079436
 30
0.0
 11
434.6296739155421
 21
400.6448982079436
 31
0.0
  0
ARC
  5
103E
330
2
100
AcDbEntity
  8
STEMPEL
100
AcDbCircle
 10
437.4640012642786
 20
402.1153610694205
 30
0.0
 40
5.129537138523076
100
AcDbArc
 50
73.65710669401501
 51
106.342893305985
  0
LINE
  5
103F
330
2
100
AcDbEntity
  8
STEMPEL
100
AcDbLine
 10
438.1338742453563
 20
407.2448982079436
 30
0.0
 11
438.9073769372527
 21
407.0376387863068
 31
0.0
  0
ARC
  5
1040
330
2
100
AcDbEntity
  8
STEMPEL
100
AcDbCircle
 10
433.1338742453564
 20
387.0376387863068
 30
0.0
 40
20.20725942163691
100
AcDbArc
 50
81.78678929826174
 51
90.40326439207246
  0
ARC
  5
1041
330
2
100
AcDbEntity
  8
HILF
100
AcDbCircle
 10
437.4640012642786
 20
398.502424884239
 30
0.0
 40
3.841839622940954
100
AcDbArc
 50
67.9324721810082
 51
112.0675278189903
  0
ARC
  5
1042
330
2
100
AcDbEntity
  8
HILF
100
AcDbCircle
 10
433.1338742453564
 20
387.4036061807174
 30
0.0
 40
14.94074366520046
100
AcDbArc
 50
78.85962783889434
 51
88.1615375270559
  0
HATCH
  5
1043
330
2
100
AcDbEntity
  8
SCHRAFF
100
AcDbHatch
 10
0.0
 20
0.0
 30
0.0
210
0.0
220
0.0
230
1.0
  2
ANSI31
 70
     0
 71
     0
 91
        5
 92
        7
 72
     1
 73
     1
 93
       39
 10
292.1338742453567
 20
489.6448982079433
 42
0.1316524975847141
 10
289.1338742454119
 20
488.8410506306811
 42
0.0
 10
265.1011796236468
 20
474.8219787679856
 42
0.2662608607102479
 10
262.1338742453565
 20
469.6448402406274
 42
0.0
 10
262.1338742453565
 20
464.6448982079433
 42
0.0
 10
263.1338742453567
 20
464.6448982079433
 42
0.0
 10
263.1338742453567
 20
469.6448402406278
 42
-0.2667503951500742
 10
265.6145206772297
 20
473.9637356548242
 42
0.0
 10
289.5933745701808
 20
487.9513888210095
 42
-0.1340385084111775
 10
292.1338742453567
 20
488.6448982079433
 42
0.0
 10
346.6943596503
 20
488.6448982079428
 42
0.2679491924311568
 10
348.8594231597614
 20
489.8948982079428
 42
-0.2679491924313146
 10
349.2924358616541
 20
490.1448982079426
 42
0.0
 10
349.4924358616541
 20
490.1448982079426
 42
-0.2679491924310819
 10
349.9254485635463
 20
489.8948982079427
 42
0.2679491924311186
 10
352.0905120730074
 20
488.6448982079428
 42
0.0
 10
358.5443596503004
 20
488.6448982079428
 42
0.2679491924311333
 10
360.7094231597616
 20
489.8948982079427
 42
-0.2679491924311795
 10
361.142435861654
 20
490.1448982079427
 42
0.0
 10
361.3424358616541
 20
490.1448982079427
 42
-0.3419987131196873
 10
361.82655877993
 20
489.7698982079425
 42
0.359675761990544
 10
363.3733021310575
 20
488.6478700066139
 42
0.3596757619904921
 10
364.9200454821848
 20
489.7698982079425
 42
-0.3419987131195469
 10
365.4041684004606
 20
490.1448982079426
 42
0.0
 10
372.1338742453568
 20
490.1448982079426
 42
0.0
 10
372.1338742453568
 20
491.1448982079426
 42
0.0
 10
365.4041684004605
 20
491.1448982079426
 42
0.3419987131196276
 10
363.9517996456328
 20
490.0198982079426
 42
-0.3419987131196876
 10
363.4676767273569
 20
489.6448982079426
 42
0.0
 10
363.2789275347581
 20
489.6448982079426
 42
-0.3419987131196593
 10
362.7948046164821
 20
490.0198982079426
 42
0.3607372083888518
 10
361.242435861654
 20
491.1415611626521
 42
0.2859076546238796
 10
359.8433977559772
 20
490.3948982079426
 42
-0.2679491924311347
 10
358.5443596503005
 20
489.6448982079426
 42
0.0
 10
352.0905120730065
 20
489.6448982079426
 42
-0.2679491924310867
 10
350.7914739673299
 20
490.3948982079423
 42
0.2859076546238621
 10
349.3924358616533
 20
491.1415611626522
 42
0.2859076546237983
 10
347.9933977559771
 20
490.3948982079426
 42
-0.267949192431112
 10
346.6943596503004
 20
489.6448982079428
 42
0.0
 97
        0
 92
        7
 72
     1
 73
     1
 93
        8
 10
262.1338742453562
 20
405.6448982079438
 42
-0.4142135623730736
 10
257.1338742453566
 20
400.6448982079438
 42
0.0
 10
254.1338742453564
 20
400.6448982079438
 42
0.0
 10
254.1338742453565
 20
399.6448982079435
 42
0.0
 10
257.1338742453563
 20
399.6448982079435
 42
0.414213562373112
 10
263.1338742453563
 20
405.6448982079438
 42
0.0
 10
263.1338742453564
 20
424.6448982079432
 42
0.0
 10
262.1338742453563
 20
424.6448982079432
 42
0.0
 97
        0
 92
        7
 72
     0
 73
     1
 93
        4
 10
242.1338742453565
 20
400.6448982079435
 10
242.1338742453564
 20
399.6448982079435
 10
246.1338742453565
 20
399.6448982079435
 10
246.1338742453564
 20
400.6448982079436
 97
        0
 92
        7
 72
     1
 73
     1
 93
        8
 10
502.1338742453568
 20
399.6448982079424
 42
0.0
 10
502.1338742453565
 20
400.6448982079423
 42
0.0
 10
487.1338742453562
 20
400.6448982079428
 42
-0.4142135623730833
 10
482.1338742453564
 20
405.6448982079428
 42
0.0
 10
482.1338742453566
 20
424.6448982079423
 42
0.0
 10
481.1338742453564
 20
424.6448982079424
 42
0.0
 10
481.1338742453563
 20
405.6448982079428
 42
0.4142135623731169
 10
487.1338742453563
 20
399.6448982079424
 42
0.0
 97
        0
 92
        7
 72
     1
 73
     1
 93
       40
 10
397.3955120730075
 20
489.6448982079424
 42
-0.2679491924311478
 10
396.0964739673308
 20
490.3948982079426
 42
0.2859076546238744
 10
394.697435861654
 20
491.141561162652
 42
0.2859076546239183
 10
393.298397755977
 20
490.3948982079423
 42
-0.2679491924311158
 10
391.9993596503005
 20
489.6448982079424
 42
0.0
 10
389.9405120730078
 20
489.6448982079424
 42
-0.2679491924311457
 10
388.641473967331
 20
490.3948982079426
 42
0.2859076546238805
 10
387.2424358616543
 20
491.1415611626521
 42
0.2859076546238791
 10
385.8433977559776
 20
490.3948982079425
 42
-0.2679491924311259
 10
384.5443596503009
 20
489.6448982079425
 42
0.0
 10
378.0905120730068
 20
489.6448982079425
 42
-0.2679491924311028
 10
376.7914739673302
 20
490.3948982079423
 42
0.2679491924311533
 10
375.4924358616535
 20
491.1448982079426
 42
0.0
 10
372.1338742453568
 20
491.1448982079426
 42
0.0
 10
372.1338742453567
 20
490.1448982079425
 42
0.0
 10
375.4924358616542
 20
490.1448982079426
 42
-0.267949192431122
 10
375.9254485635463
 20
489.8948982079426
 42
0.267949192431119
 10
378.0905120730074
 20
488.6448982079426
 42
0.0
 10
384.544359650301
 20
488.6448982079426
 42
0.2679491924311053
 10
386.709423159762
 20
489.8948982079423
 42
-0.2679491924310267
 10
387.142435861654
 20
490.1448982079426
 42
0.0
 10
387.342435861654
 20
490.1448982079426
 42
-0.2679491924311632
 10
387.7754485635463
 20
489.8948982079424
 42
0.2679491924311225
 10
389.9405120730074
 20
488.6448982079426
 42
0.0
 10
391.9993596503001
 20
488.6448982079426
 42
0.2679491924311512
 10
394.1644231597613
 20
489.8948982079426
 42
-0.2679491924312574
 10
394.5974358616539
 20
490.1448982079425
 42
0.0
 10
394.797435861654
 20
490.1448982079425
 42
-0.2679491924311204
 10
395.2304485635461
 20
489.8948982079424
 42
0.2679491924311204
 10
397.3955120730072
 20
488.6448982079425
 42
0.0
 10
452.1338742453568
 20
488.6448982079421
 42
-0.1340385084113062
 10
454.6743739205327
 20
487.9513888210087
 42
0.0
 10
478.6532278134838
 20
473.9637356548231
 42
-0.2667503951500889
 10
481.1338742453566
 20
469.644840240627
 42
0.0
 10
481.1338742453566
 20
464.6448982079424
 42
0.0
 10
482.1338742453567
 20
464.6448982079424
 42
0.0
 10
482.1338742453567
 20
469.6448402406268
 42
0.2662608607100668
 10
479.1665688670702
 20
474.8219787679824
 42
0.0
 10
455.133874245279
 20
488.8410506306937
 42
0.1316524975835771
 10
452.1338742453568
 20
489.6448982079418
 42
0.0
 97
        0
 75
     0
 76
     1
 52
0.0
 41
20.0
 77
     0
 78
     1
 53
134.9999999999997
 43
610.5773458000296
 44
-17.18145214057171
 45
1.767766952966376
 46
1.767766952966361
 79
     0
 47
0.2376111440341236
 98
        5
 10
310.0237965836307
 20
489.439720990861
 10
262.343082271639
 20
415.775426112456
 10
243.8132063719697
 20
400.427505080869
 10
495.2608833478364
 20
400.0037647497425
 10
444.842572750427
 20
489.3455572705934
  0
LINE
  5
1044
330
2
100
AcDbEntity
  8
STEMPEL
100
AcDbLine
 10
452.1338742453568
 20
488.6448982079421
 30
0.0
 11
292.1338742453567
 21
488.6448982079433
 31
0.0
  0
LINE
  5
1045
330
2
100
AcDbEntity
  8
STEMPEL
100
AcDbLine
 10
502.1338742453564
 20
399.6448982079424
 30
0.0
 11
242.1338742453563
 21
399.6448982079435
 31
0.0
  0
LINE
  5
1046
330
2
100
AcDbEntity
  8
HILF
100
AcDbLine
 10
269.8075411878261
 20
472.6448982079461
 30
0.0
 11
474.9602073028874
 21
472.644898207945
 31
0.0
  0
LINE
  5
1047
330
2
100
AcDbEntity
  8
STEMPEL
100
AcDbLine
 10
452.1338742453568
 20
489.6448982079418
 30
0.0
 11
397.3955120730075
 21
489.6448982079424
 31
0.0
  0
LINE
  5
1048
330
2
100
AcDbEntity
  8
STEMPEL
100
AcDbLine
 10
481.1338742453566
 20
469.6448402406268
 30
0.0
 11
481.1338742453563
 21
405.6448982079428
 31
0.0
  0
LINE
  5
1049
330
2
100
AcDbEntity
  8
STEMPEL
100
AcDbLine
 10
482.1338742453567
 20
469.6448402406268
 30
0.0
 11
482.1338742453564
 21
405.6448982079428
 31
0.0
  0
ELLIPSE
  5
104A
330
2
100
AcDbEntity
  8
STEMPEL
100
AcDbEllipse
 10
466.3069197520195
 20
432.1448982079441
 30
0.0
 11
-0.0000000000000334
 21
-7.499999999999999
 31
0.0
210
0.0
220
0.0
230
1.0
 40
0.4999999999999926
 41
4.712388980384689
 42
7.853981633974482
  0
ELLIPSE
  5
104B
330
2
100
AcDbEntity
  8
STEMPEL
100
AcDbEllipse
 10
467.1749837717085
 20
432.1448982079441
 30
0.0
 11
-0.0000000000000334
 21
-7.499999999999999
 31
0.0
210
0.0
220
0.0
230
1.0
 40
0.4999999999999926
 41
4.712388980384689
 42
6.167183451052224
  0
ELLIPSE
  5
104C
330
2
100
AcDbEntity
  8
STEMPEL
100
AcDbEllipse
 10
467.1749837717086
 20
457.1448982079425
 30
0.0
 11
0.0000000000000334
 21
7.499999999999999
 31
0.0
210
0.0
220
0.0
230
-1.0
 40
0.4999999999999926
 41
4.712388980384689
 42
6.167183451052224
  0
ELLIPSE
  5
104D
330
2
100
AcDbEntity
  8
STEMPEL
100
AcDbEllipse
 10
466.3069197520196
 20
457.1448982079425
 30
0.0
 11
0.0000000000000334
 21
7.499999999999999
 31
0.0
210
0.0
220
0.0
230
-1.0
 40
0.4999999999999926
 41
4.712388980384689
 42
7.853981633974482
  0
LWPOLYLINE
  5
104E
330
2
100
AcDbEntity
  8
STEMPEL
100
AcDbPolyline
 90
       10
 70
   128
 43
0.0
 10
467.3338553630336
 20
399.6448982079425
 10
466.5761057379394
 20
399.7360516898693
 10
465.8413799517639
 20
400.0067424832271
 10
465.1520022757307
 20
400.4487457852358
 10
464.5289191016844
 20
401.0486315492287
 10
463.9910624965729
 20
401.7881725498234
 10
463.5547749611739
 20
402.6448982079428
 10
463.2333128714787
 20
403.5927773479888
 10
463.0364436904146
 20
404.6030091419414
 10
462.9701491884278
 20
405.644898207943
  0
LINE
  5
104F
330
2
100
AcDbEntity
  8
STEMPEL
100
AcDbLine
 10
502.1338742453564
 20
400.6448982079423
 30
0.0
 11
487.1338742453562
 21
400.6448982079428
 31
0.0
  0
LINE
  5
1050
330
2
100
AcDbEntity
  8
STEMPEL
100
AcDbLine
 10
502.1338742453565
 20
400.6448982079426
 30
0.0
 11
502.1338742453566
 21
399.6448982079424
 31
0.0
  0
LWPOLYLINE
  5
1051
330
2
100
AcDbEntity
  8
STEMPEL
100
AcDbPolyline
 90
       18
 70
   128
 43
0.0
 10
-480.9241870043211
 20
412.1448982079405
 10
-480.9075185808445
 20
413.5230195915651
 10
-480.858080933584
 20
414.8542107043447
 10
-480.7775576023235
 20
416.0931394295216
 10
-480.6686907125318
 20
417.1976155352909
 10
-480.5351875955696
 20
418.1300274125437
 10
-480.3815945399654
 20
418.8586228931049
 10
-480.2131419730134
 20
419.3585905317382
 10
-480.0355663448445
 20
419.612904530155
 10
-479.8549147804974
 20
419.612904530155
 10
-479.6773391523284
 20
419.3585905317382
 10
-479.5088865853764
 20
418.8586228931049
 10
-479.3552935297723
 20
418.1300274125437
 10
-479.22179041281
 20
417.1976155352909
 10
-479.1129235230183
 20
416.0931394295216
 10
-479.0324001917579
 20
414.8542107043447
 10
-478.9829625444975
 20
413.5230195915651
 10
-478.9662941210207
 20
412.1448982079405
210
0.0
220
0.0
230
-1.0
  0
LWPOLYLINE
  5
1052
330
2
100
AcDbEntity
  8
STEMPEL
100
AcDbPolyline
 90
        9
 70
   128
 43
0.0
 10
-473.0611012831004
 20
419.5466564526057
 10
-472.5720407398317
 20
419.2202235548483
 10
-472.1124277719308
 20
418.6749545415911
 10
-471.6964779683065
 20
417.9277142984632
 10
-471.337056439015
 20
417.0016145756856
 10
-471.0452799041275
 20
415.9252991537153
 10
-470.8301728593893
 20
414.7320579060845
 10
-470.6983884532818
 20
413.4587971610086
 10
-470.654002708617
 20
412.1448982079423
210
0.0
220
0.0
230
-1.0
  0
LWPOLYLINE
  5
1053
330
2
100
AcDbEntity
  8
STEMPEL
100
AcDbPolyline
 90
       18
 70
   128
 43
0.0
 10
-475.4681998575874
 20
412.1448982079407
 10
-475.4193305126711
 20
413.5230195915651
 10
-475.274386664851
 20
414.8542107043448
 10
-475.0383042030238
 20
416.0931394295217
 10
-474.719122632277
 20
417.1976155352909
 10
-474.3277112981867
 20
418.1300274125438
 10
-473.8773992442887
 20
418.858622893105
 10
-473.3835213074893
 20
419.3585905317383
 10
-472.8628959085844
 20
419.612904530155
 10
-472.3332523211126
 20
419.612904530155
 10
-471.8126269222076
 20
419.3585905317383
 10
-471.3187489854082
 20
418.858622893105
 10
-470.8684369315102
 20
418.1300274125438
 10
-470.4770255974199
 20
417.1976155352909
 10
-470.1578440266731
 20
416.0931394295217
 10
-469.9217615648459
 20
414.8542107043448
 10
-469.7768177170258
 20
413.5230195915651
 10
-469.7279483721096
 20
412.1448982079407
210
0.0
220
0.0
230
-1.0
  0
ARC
  5
1054
330
2
100
AcDbEntity
  8
STEMPEL
100
AcDbCircle
 10
487.1338742453563
 20
405.6448982079428
 30
0.0
 40
6.0
100
AcDbArc
 50
180.0
 51
269.9999999999984
  0
ARC
  5
1055
330
2
100
AcDbEntity
  8
STEMPEL
100
AcDbCircle
 10
487.1338742453563
 20
405.6448982079428
 30
0.0
 40
5.0
100
AcDbArc
 50
180.0
 51
269.9999999999984
  0
LWPOLYLINE
  5
1056
330
2
100
AcDbEntity
  8
STEMPEL
100
AcDbPolyline
 90
       10
 70
   128
 43
0.0
 10
486.4301757353518
 20
399.6448982079435
 10
485.5721027390791
 20
399.7110254225162
 10
484.7192905394568
 20
399.9635791722465
 10
483.8985322325398
 20
400.394624888564
 10
483.1356138661409
 20
400.9906202590039
 10
482.4545043106417
 20
401.7328406907245
 10
481.8766022206959
 20
402.5979675875219
 10
481.4200637462898
 20
403.558820958238
 10
481.0992321146922
 20
404.5852133399503
 10
480.924187004321
 20
405.6448982079428
  0
LWPOLYLINE
  5
1057
330
2
100
AcDbEntity
  8
STEMPEL
100
AcDbPolyline
 90
       10
 70
   128
 43
0.0
 10
484.4722828520514
 20
399.6448982079424
 10
483.6142098557786
 20
399.7110254225151
 10
482.7613976561564
 20
399.9635791722454
 10
481.9406393492394
 20
400.3946248885628
 10
481.1777209828404
 20
400.9906202590028
 10
480.4966114273412
 20
401.7328406907234
 10
479.9187093373955
 20
402.5979675875208
 10
479.4621708629892
 20
403.5588209582369
 10
479.1413392313917
 20
404.5852133399491
 10
478.9662941210206
 20
405.6448982079417
  0
LINE
  5
1058
330
2
100
AcDbEntity
  8
STEMPEL
100
AcDbLine
 10
483.5446461879917
 20
400.6448982079423
 30
0.0
 11
482.580532018229
 21
400.6448982079423
 31
0.0
  0
LINE
  5
1059
330
2
100
AcDbEntity
  8
STEMPEL
100
AcDbLine
 10
477.6217714902558
 20
400.6448982079423
 30
0.0
 11
472.8075743412843
 21
400.6448982079424
 31
0.0
  0
LWPOLYLINE
  5
105A
330
2
100
AcDbEntity
  8
STEMPEL
100
AcDbPolyline
 90
       10
 70
   128
 43
0.0
 10
474.5433128986834
 20
399.6448982079425
 10
473.7071336238418
 20
399.7360516898693
 10
472.8963612331392
 20
400.0067424832271
 10
472.1356306353964
 20
400.4487457852358
 10
471.4480562448776
 20
401.0486315492287
 10
470.8545296615092
 20
401.7881725498234
 10
470.373084890188
 20
402.6448982079427
 10
470.0183503866676
 20
403.5927773479887
 10
469.8011045793334
 20
404.6030091419413
 10
469.7279483721095
 20
405.6448982079429
  0
LINE
  5
105B
330
2
100
AcDbEntity
  8
STEMPEL
100
AcDbLine
 10
478.9662941210207
 20
412.1448982079405
 30
0.0
 11
478.9662941210206
 21
405.6448982079417
 31
0.0
  0
LINE
  5
105C
330
2
100
AcDbEntity
  8
STEMPEL
100
AcDbLine
 10
479.9600728345585
 20
412.1448982079405
 30
0.0
 11
479.9600728345584
 21
405.6448982079428
 31
0.0
  0
LINE
  5
105D
330
2
100
AcDbEntity
  8
STEMPEL
100
AcDbLine
 10
480.9241870043211
 20
412.1448982079405
 30
0.0
 11
480.924187004321
 21
405.6448982079428
 31
0.0
  0
LINE
  5
105E
330
2
100
AcDbEntity
  8
STEMPEL
100
AcDbLine
 10
475.4681998575874
 20
412.1448982079407
 30
0.0
 11
475.4681998575872
 21
405.6448982079441
 31
0.0
  0
LWPOLYLINE
  5
105F
330
2
100
AcDbEntity
  8
STEMPEL
100
AcDbPolyline
 90
       10
 70
   128
 43
0.0
 10
480.2835643841611
 20
399.6448982079424
 10
479.4473851093195
 20
399.7360516898692
 10
478.636612718617
 20
400.006742483227
 10
477.8758821208741
 20
400.4487457852358
 10
477.1883077303554
 20
401.0486315492286
 10
476.5947811469869
 20
401.7881725498234
 10
476.1133363756657
 20
402.6448982079427
 10
475.7586018721453
 20
403.5927773479887
 10
475.5413560648112
 20
404.6030091419413
 10
475.4681998575872
 20
405.6448982079429
  0
LWPOLYLINE
  5
1060
330
2
100
AcDbEntity
  8
STEMPEL
100
AcDbPolyline
 90
        7
 70
   128
 43
0.0
 10
482.5805320182293
 20
400.6448982079428
 10
481.9038301431517
 20
401.2544989358018
 10
481.3042807195179
 20
401.9820580197136
 10
480.7979920463682
 20
402.8080278813938
 10
480.3985667543226
 20
403.7102169065968
 10
480.1167363390598
 20
404.6643856747905
 10
479.9600728345583
 20
405.6448982079428
  0
LWPOLYLINE
  5
1061
330
2
100
AcDbEntity
  8
STEMPEL
100
AcDbPolyline
 90
        7
 70
   128
 43
0.0
 10
-480.44212991944
 20
418.6069522637804
 10
-480.3043009098697
 20
417.8548460268419
 10
-480.1854366329036
 20
416.9321324161271
 10
-480.0890886310023
 20
415.8663811662228
 10
-480.0181356834641
 20
414.6894358294017
 10
-479.9746977914562
 20
413.4364623229999
 10
-479.9600728345587
 20
412.1448982079405
210
0.0
220
0.0
230
-1.0
  0
LINE
  5
1062
330
2
100
AcDbEntity
  8
STEMPEL
100
AcDbLine
 10
470.6540027086169
 20
412.1448982079407
 30
0.0
 11
470.6540027086167
 21
405.6448982079441
 31
0.0
  0
LINE
  5
1063
330
2
100
AcDbEntity
  8
STEMPEL
100
AcDbLine
 10
469.7279483721096
 20
412.1448982079407
 30
0.0
 11
469.7279483721095
 21
405.6448982079441
 31
0.0
  0
LWPOLYLINE
  5
1064
330
2
100
AcDbEntity
  8
STEMPEL
100
AcDbPolyline
 90
        7
 70
   128
 43
0.0
 10
472.8075743412854
 20
400.6448982079424
 10
472.187483818221
 20
401.2542361097833
 10
471.6556636714376
 20
401.9816663830725
 10
471.2264178717064
 20
402.8076238770163
 10
470.911291523909
 20
403.7098934274785
 10
470.7187603469431
 20
404.6642073617218
 10
470.6540027086169
 20
405.6448982079429
  0
LINE
  5
1065
330
2
100
AcDbEntity
  8
STEMPEL
100
AcDbLine
 10
470.0569197520196
 20
457.1448982079425
 30
0.0
 11
470.0569197520195
 21
432.1448982079457
 31
0.0
  0
LINE
  5
1066
330
2
100
AcDbEntity
  8
STEMPEL
100
AcDbLine
 10
482.1338742453568
 20
424.6448982079423
 30
0.0
 11
481.1338742453566
 21
424.6448982079423
 31
0.0
  0
LINE
  5
1067
330
2
100
AcDbEntity
  8
STEMPEL
100
AcDbLine
 10
482.1338742453568
 20
464.6448982079422
 30
0.0
 11
481.1338742453568
 21
464.6448982079422
 31
0.0
  0
LWPOLYLINE
  5
1068
330
2
100
AcDbEntity
  8
STEMPEL
100
AcDbPolyline
 90
       18
 70
   128
 43
0.0
 10
-444.2817564959443
 20
412.1448982079408
 10
-444.1804438841399
 20
413.5230195915654
 10
-443.8799561282108
 20
414.854210704345
 10
-443.3905259782895
 20
416.0931394295217
 10
-442.7288203911252
 20
417.197615535291
 10
-441.91737295686
 20
418.1300274125438
 10
-440.9838165446443
 20
418.8586228931051
 10
-439.9599422984182
 20
419.3585905317384
 10
-438.8806170276354
 20
419.6129045301551
 10
-437.7825958598844
 20
419.6129045301552
 10
-436.7032705891016
 20
419.3585905317384
 10
-435.6793963428755
 20
418.8586228931051
 10
-434.7458399306598
 20
418.1300274125439
 10
-433.9343924963947
 20
417.1976155352911
 10
-433.2726869092303
 20
416.0931394295218
 10
-432.783256759309
 20
414.854210704345
 10
-432.4827690033798
 20
413.5230195915654
 10
-432.3814563915755
 20
412.1448982079408
210
0.0
220
0.0
230
-1.0
  0
LWPOLYLINE
  5
1069
330
2
100
AcDbEntity
  8
STEMPEL
100
AcDbPolyline
 90
        9
 70
   128
 43
0.0
 10
-438.6367036676793
 20
419.6350322857645
 10
-437.5202959463082
 20
419.4277251493574
 10
-436.455016694566
 20
418.9584704219036
 10
-435.4791817115276
 20
418.244146184735
 10
-434.6278896786697
 20
417.3104451413387
 10
-433.9317597359332
 20
416.1909505061784
 10
-433.4158301772419
 20
414.9259280888395
 10
-433.0986578770259
 20
413.5608780196303
 10
-432.9916508394378
 20
412.1448982079424
210
0.0
220
0.0
230
-1.0
  0
LWPOLYLINE
  5
106A
330
2
100
AcDbEntity
  8
STEMPEL
100
AcDbPolyline
 90
       10
 70
   128
 43
0.0
 10
436.0440595270993
 20
399.6448982079426
 10
435.4080551670985
 20
399.7360516898694
 10
434.7913754777423
 20
400.0067424832272
 10
434.2127579593372
 20
400.4487457852361
 10
433.6897836123854
 20
401.0486315492289
 10
433.2383427477809
 20
401.7881725498236
 10
432.8721521677549
 20
402.6448982079428
 10
432.60233838778
 20
403.5927773479889
 10
432.4370995630284
 20
404.6030091419414
 10
432.3814563915752
 20
405.644898207943
  0
LWPOLYLINE
  5
106B
330
2
100
AcDbEntity
  8
STEMPEL
100
AcDbPolyline
 90
        7
 70
   128
 43
0.0
 10
434.6296739155429
 20
400.6448982079426
 10
434.1580283149761
 20
401.2542361097835
 10
433.7535218385933
 20
401.9816663830727
 10
433.4270341961042
 20
402.8076238770164
 10
433.187346682696
 20
403.7098934274786
 10
433.04090599507
 20
404.664207361722
 10
432.9916508394376
 20
405.644898207943
  0
LWPOLYLINE
  5
106C
330
2
100
AcDbEntity
  8
STEMPEL
100
AcDbPolyline
 90
       18
 70
   128
 43
0.0
 10
-462.9701491884277
 20
412.1448982079408
 10
-462.8924092871677
 20
413.5230195915652
 10
-462.6618369224858
 20
414.854210704345
 10
-462.2862839597206
 20
416.0931394295217
 10
-461.7785394045929
 20
417.1976155352909
 10
-461.155893888955
 20
418.1300274125438
 10
-460.4395508590609
 20
418.8586228931051
 10
-459.653904517635
 20
419.3585905317384
 10
-458.8257091085556
 20
419.612904530155
 10
-457.9831678331679
 20
419.612904530155
 10
-457.1549724240886
 20
419.3585905317384
 10
-456.3693260826625
 20
418.8586228931051
 10
-455.6529830527686
 20
418.1300274125438
 10
-455.0303375371306
 20
417.1976155352909
 10
-454.5225929820029
 20
416.0931394295217
 10
-454.1470400192378
 20
414.854210704345
 10
-453.9164676545559
 20
413.5230195915652
 10
-453.8387277532958
 20
412.1448982079408
210
0.0
220
0.0
230
-1.0
  0
LWPOLYLINE
  5
106D
330
2
100
AcDbEntity
  8
STEMPEL
100
AcDbPolyline
 90
       10
 70
   128
 43
0.0
 10
-459.1996593576827
 20
419.644898207944
 10
-458.406832011823
 20
419.5309563555354
 10
-457.6380943236773
 20
419.1925928638381
 10
-456.9168039988998
 20
418.640088736327
 10
-456.2648770790183
 20
417.8902315313358
 10
-455.7021220336026
 20
416.9658052805924
 10
-455.2456378899397
 20
415.894898207943
 10
-454.9092946877429
 20
414.7100492828854
 10
-454.7033120450129
 20
413.4472595404445
 10
-454.6339486401168
 20
412.1448982079424
210
0.0
220
0.0
230
-1.0
  0
LWPOLYLINE
  5
106E
330
2
100
AcDbEntity
  8
STEMPEL
100
AcDbPolyline
 90
       10
 70
   128
 43
0.0
 10
458.2024339279017
 20
399.6448982079426
 10
457.4446843028075
 20
399.7360516898694
 10
456.709958516632
 20
400.0067424832271
 10
456.0205808405989
 20
400.4487457852359
 10
455.3974976665525
 20
401.0486315492287
 10
454.859641061441
 20
401.7881725498234
 10
454.4233535260421
 20
402.6448982079428
 10
454.1018914363468
 20
403.5927773479888
 10
453.9050222552828
 20
404.6030091419414
 10
453.838727753296
 20
405.644898207943
  0
LINE
  5
106F
330
2
100
AcDbEntity
  8
STEMPEL
100
AcDbLine
 10
464.9217260169462
 20
400.6448982079424
 30
0.0
 11
456.5855254686343
 21
400.6448982079426
 31
0.0
  0
LINE
  5
1070
330
2
100
AcDbEntity
  8
STEMPEL
100
AcDbLine
 10
462.9701491884278
 20
412.1448982079408
 30
0.0
 11
462.9701491884277
 21
405.6448982079442
 31
0.0
  0
LINE
  5
1071
330
2
100
AcDbEntity
  8
STEMPEL
100
AcDbLine
 10
454.6339486401167
 20
412.1448982079408
 30
0.0
 11
454.6339486401166
 21
405.6448982079442
 31
0.0
  0
LINE
  5
1072
330
2
100
AcDbEntity
  8
STEMPEL
100
AcDbLine
 10
453.838727753296
 20
412.1448982079408
 30
0.0
 11
453.8387277532958
 21
405.6448982079442
 31
0.0
  0
LWPOLYLINE
  5
1073
330
2
100
AcDbEntity
  8
STEMPEL
100
AcDbPolyline
 90
        7
 70
   128
 43
0.0
 10
456.5855254686349
 20
400.6448982079426
 10
456.0235964953708
 20
401.2542361097833
 10
455.5416585557837
 20
401.9816663830727
 10
455.1526739760338
 20
402.8076238770164
 10
454.8671049849273
 20
403.7098934274786
 10
454.6926323191314
 20
404.6642073617218
 10
454.6339486401165
 20
405.644898207943
  0
LINE
  5
1074
330
2
100
AcDbEntity
  8
STEMPEL
100
AcDbLine
 10
445.9197795720495
 20
400.6448982079426
 30
0.0
 11
434.6296739155424
 21
400.6448982079426
 31
0.0
  0
LINE
  5
1075
330
2
100
AcDbEntity
  8
STEMPEL
100
AcDbLine
 10
444.2817564959442
 20
412.1448982079408
 30
0.0
 11
444.2817564959441
 21
405.6448982079442
 31
0.0
  0
LWPOLYLINE
  5
1076
330
2
100
AcDbEntity
  8
STEMPEL
100
AcDbPolyline
 90
       10
 70
   128
 43
0.0
 10
447.9443596314682
 20
399.6448982079426
 10
447.3083552714673
 20
399.7360516898694
 10
446.6916755821111
 20
400.0067424832271
 10
446.1130580637061
 20
400.4487457852361
 10
445.5900837167543
 20
401.0486315492287
 10
445.1386428521498
 20
401.7881725498234
 10
444.7724522721237
 20
402.6448982079428
 10
444.5026384921488
 20
403.5927773479889
 10
444.3373996673972
 20
404.6030091419414
 10
444.2817564959441
 20
405.644898207943
  0
LINE
  5
1077
330
2
100
AcDbEntity
  8
STEMPEL
100
AcDbLine
 10
462.5569197520198
 20
457.1448982079427
 30
0.0
 11
462.5569197520197
 21
432.1448982079443
 31
0.0
  0
LINE
  5
1078
330
2
100
AcDbEntity
  8
STEMPEL
100
AcDbLine
 10
463.4249837717085
 20
432.1448982079427
 30
0.0
 11
463.4249837717086
 21
457.1448982079443
 31
0.0
  0
LWPOLYLINE
  5
1079
330
2
100
AcDbEntity
  8
STEMPEL
100
AcDbPolyline
 90
       18
 70
   128
 43
0.0
 10
-420.6766048580941
 20
412.1448982079408
 10
-420.558623822813
 20
413.5230195915654
 10
-420.2086984196233
 20
414.8542107043451
 10
-419.6387449384416
 20
416.0931394295219
 10
-418.8681724614855
 20
417.1976155352911
 10
-417.923221910258
 20
418.130027412544
 10
-416.8360724424378
 20
418.8586228931052
 10
-415.6437456292596
 20
419.3585905317386
 10
-414.3868447303078
 20
419.6129045301552
 10
-413.1081719982095
 20
419.6129045301552
 10
-411.8512710992576
 20
419.3585905317386
 10
-410.6589442860795
 20
418.8586228931054
 10
-409.5717948182594
 20
418.130027412544
 10
-408.6268442670318
 20
417.1976155352911
 10
-407.8562717900757
 20
416.0931394295219
 10
-407.286318308894
 20
414.8542107043452
 10
-406.9363929057043
 20
413.5230195915655
 10
-406.8184118704232
 20
412.144898207941
210
0.0
220
0.0
230
-1.0
  0
LWPOLYLINE
  5
107A
330
2
100
AcDbEntity
  8
STEMPEL
100
AcDbPolyline
 90
        9
 70
   128
 43
0.0
 10
-413.9393004970705
 20
419.6420246309811
 10
-412.6150910467407
 20
419.4631917239333
 10
-411.3471116495547
 20
419.012915806609
 10
-410.182392961469
 20
418.3078980744699
 10
-409.1641355928624
 20
417.3742883580865
 10
-408.3301077536001
 20
416.2467151991103
 10
-407.7112443914062
 20
414.9670014421586
 10
-407.330499782932
 20
413.582612982623
 10
-407.2019961361002
 20
412.1448982079426
210
0.0
220
0.0
230
-1.0
  0
LINE
  5
107B
330
2
100
AcDbEntity
  8
STEMPEL
100
AcDbLine
 10
421.8941162908231
 20
400.6448982079427
 30
0.0
 11
408.4195075688287
 21
400.6448982079428
 31
0.0
  0
LINE
  5
107C
330
2
100
AcDbEntity
  8
STEMPEL
100
AcDbLine
 10
432.9916508394377
 20
412.1448982079408
 30
0.0
 11
432.9916508394376
 21
405.6448982079442
 31
0.0
  0
LINE
  5
107D
330
2
100
AcDbEntity
  8
STEMPEL
100
AcDbLine
 10
432.3814563915753
 20
412.1448982079408
 30
0.0
 11
432.3814563915752
 21
405.6448982079442
 31
0.0
  0
LINE
  5
107E
330
2
100
AcDbEntity
  8
STEMPEL
100
AcDbLine
 10
420.6766048580941
 20
412.1448982079408
 30
0.0
 11
420.676604858094
 21
405.6448982079443
 31
0.0
  0
LWPOLYLINE
  5
107F
330
2
100
AcDbEntity
  8
STEMPEL
100
AcDbPolyline
 90
       10
 70
   128
 43
0.0
 10
423.398948185303
 20
399.6448982079428
 10
422.9262182275495
 20
399.7360516898695
 10
422.4678519303493
 20
400.0067424832273
 10
422.0377765216985
 20
400.4487457852361
 10
421.6490596252603
 20
401.048631549229
 10
421.3135122072326
 20
401.7881725498237
 10
421.041329706117
 20
402.6448982079429
 10
420.8407822494789
 20
403.5927773479889
 10
420.7179633703065
 20
404.6030091419415
 10
420.676604858094
 20
405.6448982079431
  0
LWPOLYLINE
  5
1080
330
2
100
AcDbEntity
  8
STEMPEL
100
AcDbPolyline
 90
       10
 70
   128
 43
0.0
 10
409.5407551976321
 20
399.6448982079428
 10
409.0680252398786
 20
399.7360516898696
 10
408.6096589426784
 20
400.0067424832273
 10
408.1795835340276
 20
400.4487457852362
 10
407.7908666375893
 20
401.048631549229
 10
407.4553192195617
 20
401.7881725498237
 10
407.1831367184461
 20
402.644898207943
 10
406.982589261808
 20
403.592777347989
 10
406.8597703826355
 20
404.6030091419416
 10
406.818411870423
 20
405.6448982079433
  0
LINE
  5
1081
330
2
100
AcDbEntity
  8
STEMPEL
100
AcDbLine
 10
407.2019961361002
 20
412.144898207941
 30
0.0
 11
407.2019961361
 21
405.6448982079444
 31
0.0
  0
LINE
  5
1082
330
2
100
AcDbEntity
  8
STEMPEL
100
AcDbLine
 10
406.8184118704232
 20
412.1448982079394
 30
0.0
 11
406.818411870423
 21
405.6448982079444
 31
0.0
  0
LWPOLYLINE
  5
1083
330
2
100
AcDbEntity
  8
STEMPEL
100
AcDbPolyline
 90
        7
 70
   128
 43
0.0
 10
408.4195075688292
 20
400.6448982079428
 10
408.0689423544172
 20
401.2542361097835
 10
407.7682803754785
 20
401.9816663830728
 10
407.5256083135439
 20
402.8076238770166
 10
407.3474531384954
 20
403.7098934274789
 10
407.2386065575149
 20
404.664207361722
 10
407.2019961361
 20
405.6448982079433
  0
LINE
  5
1084
330
2
100
AcDbEntity
  8
STEMPEL
100
AcDbLine
 10
420.0095168906528
 20
457.1448982079428
 30
0.0
 11
420.0095168906528
 21
432.1448982079428
 31
0.0
  0
LINE
  5
1085
330
2
100
AcDbEntity
  8
STEMPEL
100
AcDbLine
 10
432.9998979474187
 20
457.1448982079428
 30
0.0
 11
432.9998979474185
 21
432.1448982079444
 31
0.0
  0
LINE
  5
1086
330
2
100
AcDbEntity
  8
STEMPEL
100
AcDbLine
 10
420.5106938860949
 20
457.1448982079428
 30
0.0
 11
420.5106938860948
 21
432.1448982079428
 31
0.0
  0
ELLIPSE
  5
1087
330
2
100
AcDbEntity
  8
STEMPEL
100
AcDbEllipse
 10
426.5047074190357
 20
432.1448982079428
 30
0.0
 11
-0.0000000000000334
 21
-7.5
 31
0.0
210
0.0
220
0.0
230
1.0
 40
0.8660254037843856
 41
4.712388980384689
 42
7.853981633974482
  0
ELLIPSE
  5
1088
330
2
100
AcDbEntity
  8
STEMPEL
100
AcDbEllipse
 10
427.0058844144776
 20
432.1448982079428
 30
0.0
 11
-0.0000000000000334
 21
-7.5
 31
0.0
210
0.0
220
0.0
230
1.0
 40
0.8660254037843856
 41
4.712388980384689
 42
6.24459510668465
  0
ELLIPSE
  5
1089
330
2
100
AcDbEntity
  8
STEMPEL
100
AcDbEllipse
 10
426.5047074190358
 20
457.1448982079428
 30
0.0
 11
0.0000000000000334
 21
7.5
 31
0.0
210
0.0
220
0.0
230
-1.0
 40
0.8660254037843856
 41
4.712388980384689
 42
7.853981633974482
  0
ELLIPSE
  5
108A
330
2
100
AcDbEntity
  8
STEMPEL
100
AcDbEllipse
 10
427.0058844144777
 20
457.1448982079428
 30
0.0
 11
0.0000000000000334
 21
7.5
 31
0.0
210
0.0
220
0.0
230
-1.0
 40
0.8660254037843856
 41
4.712388980384689
 42
6.24459510668465
  0
LINE
  5
108B
330
2
100
AcDbEntity
  8
STEMPEL
100
AcDbLine
 10
478.6532278134838
 20
473.9637356548231
 30
0.0
 11
454.6743739205327
 21
487.9513888210087
 31
0.0
  0
LINE
  5
108C
330
2
100
AcDbEntity
  8
STEMPEL
100
AcDbLine
 10
479.1665688670645
 20
474.8219787679857
 30
0.0
 11
455.1802659915978
 21
488.8139887786744
 31
0.0
  0
ARC
  5
108D
330
2
100
AcDbEntity
  8
STEMPEL
100
AcDbCircle
 10
476.1338742453566
 20
469.6448402406269
 30
0.0
 40
6.0
100
AcDbArc
 50
0.0
 51
59.74358352518254
  0
ARC
  5
108E
330
2
100
AcDbEntity
  8
STEMPEL
100
AcDbCircle
 10
481.6450178496682
 20
479.1647351904042
 30
0.0
 40
5.0
100
AcDbArc
 50
239.7435628364684
 51
239.9329541615142
  0
ARC
  5
108F
330
2
100
AcDbEntity
  8
STEMPEL
100
AcDbCircle
 10
476.1338742453566
 20
469.6448402406269
 30
0.0
 40
5.0
100
AcDbArc
 50
0.0
 51
59.74358352518254
  0
ARC
  5
1090
330
2
100
AcDbEntity
  8
STEMPEL
100
AcDbCircle
 10
452.1338742453568
 20
483.6448982079422
 30
0.0
 40
5.0
100
AcDbArc
 50
59.46264995169811
 51
90.0
  0
ARC
  5
1091
330
2
100
AcDbEntity
  8
STEMPEL
100
AcDbCircle
 10
452.1338742453568
 20
483.6448982079422
 30
0.0
 40
6.0
100
AcDbArc
 50
59.48712567237889
 51
90.0
  0
ARC
  5
1092
330
2
100
AcDbEntity
  8
STEMPEL
100
AcDbCircle
 10
452.1338742453568
 20
483.6448982079422
 30
0.0
 40
6.0
100
AcDbArc
 50
90.0
 51
90.0
  0
LWPOLYLINE
  5
1093
330
2
100
AcDbEntity
  8
STEMPEL
100
AcDbPolyline
 90
       18
 70
   128
 43
0.0
 10
268.7995486331255
 20
412.1448982079416
 10
268.8484179780417
 20
413.523019591566
 10
268.9933618258618
 20
414.8542107043458
 10
269.229444287689
 20
416.0931394295226
 10
269.5486258584357
 20
417.1976155352918
 10
269.9400371925261
 20
418.1300274125447
 10
270.3903492464241
 20
418.8586228931059
 10
270.8842271832235
 20
419.3585905317392
 10
271.4048525821285
 20
419.6129045301559
 10
271.9344961696003
 20
419.6129045301559
 10
272.4551215685052
 20
419.3585905317392
 10
272.9489995053047
 20
418.8586228931058
 10
273.3993115592026
 20
418.1300274125446
 10
273.790722893293
 20
417.1976155352918
 10
274.1099044640397
 20
416.0931394295225
 10
274.3459869258669
 20
414.8542107043456
 10
274.490930773687
 20
413.523019591566
 10
274.5398001186032
 20
412.1448982079415
  0
LINE
  5
1094
330
2
100
AcDbEntity
  8
STEMPEL
100
AcDbLine
 10
266.6459770004568
 20
400.6448982079434
 30
0.0
 11
271.4601741494282
 21
400.6448982079434
 31
0.0
  0
LINE
  5
1095
330
2
100
AcDbEntity
  8
STEMPEL
100
AcDbLine
 10
265.1011796236487
 20
474.8219787679867
 30
0.0
 11
289.0874824991157
 21
488.8139887786752
 31
0.0
  0
LINE
  5
1096
330
2
100
AcDbEntity
  8
STEMPEL
100
AcDbLine
 10
265.6145206772295
 20
473.9637356548241
 30
0.0
 11
289.5933745701808
 21
487.9513888210095
 31
0.0
  0
LWPOLYLINE
  5
1097
330
2
100
AcDbEntity
  8
STEMPEL
100
AcDbPolyline
 90
       18
 70
   128
 43
0.0
 10
323.5911436326187
 20
412.1448982079413
 10
323.7091246678998
 20
413.5230195915658
 10
324.0590500710895
 20
414.8542107043454
 10
324.6290035522712
 20
416.0931394295222
 10
325.3995760292273
 20
417.1976155352916
 10
326.3445265804548
 20
418.1300274125444
 10
327.4316760482749
 20
418.8586228931056
 10
328.6240028614532
 20
419.3585905317389
 10
329.880903760405
 20
419.6129045301557
 10
331.1595764925034
 20
419.6129045301557
 10
332.4164773914552
 20
419.3585905317389
 10
333.6088042046335
 20
418.8586228931056
 10
334.6959536724535
 20
418.1300274125444
 10
335.640904223681
 20
417.1976155352916
 10
336.4114767006371
 20
416.0931394295222
 10
336.9814301818188
 20
414.8542107043454
 10
337.3313555850085
 20
413.5230195915658
 10
337.4493366202896
 20
412.1448982079412
  0
LWPOLYLINE
  5
1098
330
2
100
AcDbEntity
  8
STEMPEL
100
AcDbPolyline
 90
        9
 70
   128
 43
0.0
 10
330.3284479936423
 20
419.6420246309815
 10
331.6526574439721
 20
419.4631917239335
 10
332.9206368411582
 20
419.0129158066095
 10
334.0853555292438
 20
418.3078980744703
 10
335.1036128978504
 20
417.3742883580867
 10
335.9376407371127
 20
416.2467151991107
 10
336.5565040993066
 20
414.9670014421588
 10
336.9372487077808
 20
413.5826129826233
 10
337.0657523546126
 20
412.1448982079428
  0
LINE
  5
1099
330
2
100
AcDbEntity
  8
STEMPEL
100
AcDbLine
 10
322.3736321998895
 20
400.6448982079431
 30
0.0
 11
335.8482409218839
 21
400.644898207943
 31
0.0
  0
LWPOLYLINE
  5
109A
330
2
100
AcDbEntity
  8
STEMPEL
100
AcDbPolyline
 90
       10
 70
   128
 43
0.0
 10
-334.7269932930804
 20
399.6448982079431
 10
-335.199723250834
 20
399.7360516898698
 10
-335.6580895480342
 20
400.0067424832277
 10
-336.088164956685
 20
400.4487457852365
 10
-336.4768818531232
 20
401.0486315492292
 10
-336.8124292711509
 20
401.788172549824
 10
-337.0846117722665
 20
402.6448982079433
 10
-337.2851592289046
 20
403.5927773479894
 10
-337.407978108077
 20
404.6030091419418
 10
-337.4493366202895
 20
405.6448982079435
210
0.0
220
0.0
230
-1.0
  0
ARC
  5
109B
330
2
100
AcDbEntity
  8
STEMPEL
100
AcDbCircle
 10
372.1338742453565
 20
432.144898207943
 30
0.0
 40
7.5
100
AcDbArc
 50
180.000000000026
 51
0.0000000000130276
  0
ARC
  5
109C
330
2
100
AcDbEntity
  8
STEMPEL
100
AcDbCircle
 10
372.1338742453565
 20
457.144898207943
 30
0.0
 40
7.5
100
AcDbArc
 50
359.999999999987
 51
179.9999999999739
  0
LWPOLYLINE
  5
109D
330
2
100
AcDbEntity
  8
STEMPEL
100
AcDbPolyline
 90
       18
 70
   128
 43
0.0
 10
-393.7633463496434
 20
412.144898207941
 10
-393.636737103467
 20
413.5230195915656
 10
-393.2612208909653
 20
414.8542107043452
 10
-392.649585466373
 20
416.0931394295219
 10
-391.8226593404986
 20
417.1976155352912
 10
-390.8086024907703
 20
418.130027412544
 10
-389.6419474069786
 20
418.8586228931054
 10
-388.3624231287533
 20
419.3585905317386
 10
-387.0136023207692
 20
419.6129045301555
 10
-385.64141745791
 20
419.6129045301555
 10
-384.2925966499258
 20
419.3585905317386
 10
-383.0130723717005
 20
418.8586228931054
 10
-381.8464172879088
 20
418.1300274125441
 10
-380.8323604381806
 20
417.1976155352913
 10
-380.0054343123062
 20
416.0931394295221
 10
-379.3937988877138
 20
414.8542107043452
 10
-379.0182826752122
 20
413.5230195915656
 10
-378.8916734290357
 20
412.144898207941
210
0.0
220
0.0
230
-1.0
  0
LWPOLYLINE
  5
109E
330
2
100
AcDbEntity
  8
STEMPEL
100
AcDbPolyline
 90
        9
 70
   128
 43
0.0
 10
-386.3929266140831
 20
419.6446079677158
 10
-384.9515866302053
 20
419.4893065737921
 10
-383.5675057267557
 20
419.0549063267778
 10
-382.2932811142237
 20
418.3579151065026
 10
-381.1773352944939
 20
417.4248196550569
 10
-380.2620759310408
 20
416.2910790397134
 10
-379.5822842922657
 20
414.999777153644
 10
-379.1637935096163
 20
413.5999854614845
 10
-379.0225068787224
 20
412.1448982079426
210
0.0
220
0.0
230
-1.0
  0
LINE
  5
109F
330
2
100
AcDbEntity
  8
STEMPEL
100
AcDbLine
 10
394.3499208719004
 20
400.6448982079428
 30
0.0
 11
379.609081400979
 21
400.6448982079428
 31
0.0
  0
LINE
  5
10A0
330
2
100
AcDbEntity
  8
STEMPEL
100
AcDbLine
 10
393.7633463496436
 20
412.1448982079426
 30
0.0
 11
393.7633463496435
 21
405.6448982079444
 31
0.0
  0
LWPOLYLINE
  5
10A1
330
2
100
AcDbEntity
  8
STEMPEL
100
AcDbPolyline
 90
       10
 70
   128
 43
0.0
 10
395.0749210861512
 20
399.6448982079428
 10
394.8471685232827
 20
399.7360516898696
 10
394.6263361067885
 20
400.0067424832273
 10
394.4191337178972
 20
400.4487457852363
 10
394.2318570963461
 20
401.048631549229
 10
394.0701965475141
 20
401.7881725498237
 10
393.9390640453735
 20
402.644898207943
 10
393.8424439846455
 20
403.5927773479891
 10
393.7832721169833
 20
404.6030091419416
 10
393.7633463496434
 20
405.6448982079433
  0
LINE
  5
10A2
330
2
100
AcDbEntity
  8
STEMPEL
100
AcDbLine
 10
379.0225068787224
 20
412.144898207941
 30
0.0
 11
379.0225068787223
 21
405.6448982079444
 31
0.0
  0
LINE
  5
10A3
330
2
100
AcDbEntity
  8
STEMPEL
100
AcDbLine
 10
378.8916734290359
 20
412.1448982079394
 30
0.0
 11
378.8916734290358
 21
405.6448982079444
 31
0.0
  0
LWPOLYLINE
  5
10A4
330
2
100
AcDbEntity
  8
STEMPEL
100
AcDbPolyline
 90
       10
 70
   128
 43
0.0
 10
380.2032481655436
 20
399.6448982079428
 10
379.9754956026751
 20
399.7360516898696
 10
379.7546631861809
 20
400.0067424832274
 10
379.5474607972896
 20
400.4487457852363
 10
379.3601841757385
 20
401.0486315492291
 10
379.1985236269066
 20
401.7881725498238
 10
379.0673911247659
 20
402.644898207943
 10
378.970771064038
 20
403.5927773479891
 10
378.9115991963758
 20
404.6030091419416
 10
378.8916734290358
 20
405.6448982079433
  0
LWPOLYLINE
  5
10A5
330
2
100
AcDbEntity
  8
STEMPEL
100
AcDbPolyline
 90
        7
 70
   128
 43
0.0
 10
379.6090814009793
 20
400.6448982079428
 10
379.4401855552109
 20
401.2542361097837
 10
379.2953321666382
 20
401.9816663830729
 10
379.1784172490711
 20
402.8076238770166
 10
379.0925853760534
 20
403.7098934274789
 10
379.0401451036077
 20
404.6642073617222
 10
379.0225068787224
 20
405.6448982079433
  0
LINE
  5
10A6
330
2
100
AcDbEntity
  8
STEMPEL
100
AcDbLine
 10
379.6338742453565
 20
457.1448982079415
 30
0.0
 11
379.6338742453564
 21
432.1448982079415
 31
0.0
  0
LWPOLYLINE
  5
10A7
330
2
100
AcDbEntity
  8
STEMPEL
100
AcDbPolyline
 90
        9
 70
   128
 43
0.0
 10
357.8748218766298
 20
419.6446079677159
 10
359.3161618605076
 20
419.4893065737922
 10
360.7002427639571
 20
419.0549063267779
 10
361.9744673764891
 20
418.3579151065026
 10
363.090413196219
 20
417.424819655057
 10
364.005672559672
 20
416.2910790397134
 10
364.6854641984471
 20
414.9997771536441
 10
365.1039549810966
 20
413.5999854614845
 10
365.2452416119904
 20
412.1448982079427
  0
LWPOLYLINE
  5
10A8
330
2
100
AcDbEntity
  8
STEMPEL
100
AcDbPolyline
 90
       18
 70
   128
 43
0.0
 10
350.5044021410695
 20
412.1448982079412
 10
350.6310113872459
 20
413.5230195915657
 10
351.0065275997475
 20
414.8542107043454
 10
351.6181630243399
 20
416.0931394295221
 10
352.4450891502143
 20
417.1976155352913
 10
353.4591459999425
 20
418.1300274125442
 10
354.6258010837342
 20
418.8586228931056
 10
355.9053253619595
 20
419.3585905317389
 10
357.2541461699436
 20
419.6129045301555
 10
358.6263310328029
 20
419.6129045301555
 10
359.975151840787
 20
419.3585905317389
 10
361.2546761190123
 20
418.8586228931056
 10
362.421331202804
 20
418.1300274125442
 10
363.4353880525323
 20
417.1976155352913
 10
364.2623141784067
 20
416.0931394295221
 10
364.873949602999
 20
414.8542107043453
 10
365.2494658155007
 20
413.5230195915656
 10
365.376075061677
 20
412.1448982079411
  0
LINE
  5
10A9
330
2
100
AcDbEntity
  8
STEMPEL
100
AcDbLine
 10
349.9178276188122
 20
400.644898207943
 30
0.0
 11
364.6586670897336
 21
400.644898207943
 31
0.0
  0
LINE
  5
10AA
330
2
100
AcDbEntity
  8
STEMPEL
100
AcDbLine
 10
365.3760750616769
 20
412.1448982079395
 30
0.0
 11
365.3760750616768
 21
405.6448982079445
 31
0.0
  0
LINE
  5
10AB
330
2
100
AcDbEntity
  8
STEMPEL
100
AcDbLine
 10
365.2452416119904
 20
412.1448982079411
 30
0.0
 11
365.2452416119903
 21
405.6448982079445
 31
0.0
  0
LWPOLYLINE
  5
10AC
330
2
100
AcDbEntity
  8
STEMPEL
100
AcDbPolyline
 90
        7
 70
   128
 43
0.0
 10
-364.6586670897333
 20
400.644898207943
 10
-364.8275629355018
 20
401.2542361097837
 10
-364.9724163240744
 20
401.9816663830731
 10
-365.0893312416415
 20
402.8076238770167
 10
-365.1751631146592
 20
403.709893427479
 10
-365.2276033871049
 20
404.6642073617222
 10
-365.2452416119902
 20
405.6448982079434
210
0.0
220
0.0
230
-1.0
  0
LWPOLYLINE
  5
10AD
330
2
100
AcDbEntity
  8
STEMPEL
100
AcDbPolyline
 90
       10
 70
   128
 43
0.0
 10
-364.064500325169
 20
399.644898207943
 10
-364.2922528880375
 20
399.7360516898697
 10
-364.5130853045317
 20
400.0067424832275
 10
-364.720287693423
 20
400.4487457852363
 10
-364.9075643149741
 20
401.0486315492292
 10
-365.0692248638061
 20
401.788172549824
 10
-365.2003573659467
 20
402.6448982079432
 10
-365.2969774266746
 20
403.5927773479891
 10
-365.3561492943369
 20
404.6030091419417
 10
-365.3760750616768
 20
405.6448982079434
210
0.0
220
0.0
230
-1.0
  0
LINE
  5
10AE
330
2
100
AcDbEntity
  8
STEMPEL
100
AcDbLine
 10
350.5044021410693
 20
412.1448982079428
 30
0.0
 11
350.5044021410691
 21
405.6448982079446
 31
0.0
  0
LWPOLYLINE
  5
10AF
330
2
100
AcDbEntity
  8
STEMPEL
100
AcDbPolyline
 90
       10
 70
   128
 43
0.0
 10
-349.1928274045614
 20
399.6448982079431
 10
-349.42057996743
 20
399.7360516898698
 10
-349.6414123839242
 20
400.0067424832275
 10
-349.8486147728154
 20
400.4487457852364
 10
-350.0358913943665
 20
401.0486315492292
 10
-350.1975519431985
 20
401.788172549824
 10
-350.3286844453392
 20
402.6448982079433
 10
-350.4253045060671
 20
403.5927773479892
 10
-350.4844763737292
 20
404.6030091419418
 10
-350.5044021410693
 20
405.6448982079435
210
0.0
220
0.0
230
-1.0
  0
LINE
  5
10B0
330
2
100
AcDbEntity
  8
STEMPEL
100
AcDbLine
 10
337.4493366202896
 20
412.1448982079396
 30
0.0
 11
337.4493366202895
 21
405.6448982079446
 31
0.0
  0
LINE
  5
10B1
330
2
100
AcDbEntity
  8
STEMPEL
100
AcDbLine
 10
337.0657523546126
 20
412.1448982079412
 30
0.0
 11
337.0657523546125
 21
405.6448982079446
 31
0.0
  0
LWPOLYLINE
  5
10B2
330
2
100
AcDbEntity
  8
STEMPEL
100
AcDbPolyline
 90
        7
 70
   128
 43
0.0
 10
-335.8482409218834
 20
400.644898207943
 10
-336.1988061362954
 20
401.254236109784
 10
-336.4994681152341
 20
401.9816663830732
 10
-336.7421401771687
 20
402.8076238770168
 10
-336.9202953522172
 20
403.7098934274791
 10
-337.0291419331977
 20
404.6642073617222
 10
-337.0657523546125
 20
405.6448982079435
210
0.0
220
0.0
230
-1.0
  0
LINE
  5
10B3
330
2
100
AcDbEntity
  8
STEMPEL
100
AcDbLine
 10
364.6338742453565
 20
457.144898207943
 30
0.0
 11
364.6338742453564
 21
432.144898207943
 31
0.0
  0
LWPOLYLINE
  5
10B4
330
2
100
AcDbEntity
  8
STEMPEL
100
AcDbPolyline
 90
       18
 70
   128
 43
0.0
 10
299.9859919947685
 20
412.1448982079415
 10
300.0873046065728
 20
413.5230195915659
 10
300.3877923625021
 20
414.8542107043456
 10
300.8772225124233
 20
416.0931394295223
 10
301.5389280995877
 20
417.1976155352916
 10
302.3503755338528
 20
418.1300274125445
 10
303.2839319460685
 20
418.8586228931058
 10
304.3078061922946
 20
419.3585905317391
 10
305.3871314630774
 20
419.6129045301557
 10
306.4851526308284
 20
419.6129045301557
 10
307.5644779016112
 20
419.3585905317391
 10
308.5883521478373
 20
418.8586228931058
 10
309.521908560053
 20
418.1300274125445
 10
310.3333559943181
 20
417.1976155352916
 10
310.9950615814826
 20
416.0931394295223
 10
311.4844917314038
 20
414.8542107043455
 10
311.784979487333
 20
413.5230195915658
 10
311.8862920991373
 20
412.1448982079413
  0
LINE
  5
10B5
330
2
100
AcDbEntity
  8
STEMPEL
100
AcDbLine
 10
298.3479689186631
 20
400.6448982079432
 30
0.0
 11
309.6380745751702
 21
400.6448982079432
 31
0.0
  0
LWPOLYLINE
  5
10B6
330
2
100
AcDbEntity
  8
STEMPEL
100
AcDbPolyline
 90
        9
 70
   128
 43
0.0
 10
305.6310448230334
 20
419.6350322857651
 10
306.7474525444046
 20
419.4277251493579
 10
307.8127317961468
 20
418.9584704219042
 10
308.7885667791852
 20
418.2441461847357
 10
309.6398588120432
 20
417.3104451413392
 10
310.3359887547796
 20
416.1909505061788
 10
310.8519183134709
 20
414.9259280888402
 10
311.1690906136868
 20
413.5608780196307
 10
311.276097651275
 20
412.1448982079429
  0
LINE
  5
10B7
330
2
100
AcDbEntity
  8
STEMPEL
100
AcDbLine
 10
323.5911436326187
 20
412.1448982079413
 30
0.0
 11
323.5911436326186
 21
405.6448982079447
 31
0.0
  0
LWPOLYLINE
  5
10B8
330
2
100
AcDbEntity
  8
STEMPEL
100
AcDbPolyline
 90
       10
 70
   128
 43
0.0
 10
-320.8688003054096
 20
399.6448982079432
 10
-321.3415302631631
 20
399.7360516898699
 10
-321.7998965603633
 20
400.0067424832278
 10
-322.2299719690141
 20
400.4487457852365
 10
-322.6186888654523
 20
401.0486315492294
 10
-322.95423628348
 20
401.7881725498241
 10
-323.2264187845956
 20
402.6448982079434
 10
-323.4269662412337
 20
403.5927773479894
 10
-323.5497851204061
 20
404.6030091419419
 10
-323.5911436326186
 20
405.6448982079436
210
0.0
220
0.0
230
-1.0
  0
LWPOLYLINE
  5
10B9
330
2
100
AcDbEntity
  8
STEMPEL
100
AcDbPolyline
 90
       10
 70
   128
 43
0.0
 10
-308.2236889636132
 20
399.6448982079433
 10
-308.8596933236141
 20
399.7360516898701
 10
-309.4763730129703
 20
400.0067424832278
 10
-310.0549905313753
 20
400.4487457852366
 10
-310.5779648783272
 20
401.0486315492294
 10
-311.0294057429316
 20
401.7881725498241
 10
-311.3955963229577
 20
402.6448982079434
 10
-311.6654101029326
 20
403.5927773479894
 10
-311.8306489276843
 20
404.6030091419419
 10
-311.8862920991373
 20
405.6448982079436
210
0.0
220
0.0
230
-1.0
  0
LWPOLYLINE
  5
10BA
330
2
100
AcDbEntity
  8
STEMPEL
100
AcDbPolyline
 90
        7
 70
   128
 43
0.0
 10
-309.6380745751696
 20
400.6448982079432
 10
-310.1097201757365
 20
401.2542361097841
 10
-310.5142266521193
 20
401.9816663830734
 10
-310.8407142946084
 20
402.8076238770171
 10
-311.0804018080167
 20
403.7098934274792
 10
-311.2268424956426
 20
404.6642073617225
 10
-311.276097651275
 20
405.6448982079436
210
0.0
220
0.0
230
-1.0
  0
LINE
  5
10BB
330
2
100
AcDbEntity
  8
STEMPEL
100
AcDbLine
 10
311.8862920991375
 20
412.1448982079413
 30
0.0
 11
311.8862920991373
 21
405.6448982079447
 31
0.0
  0
LINE
  5
10BC
330
2
100
AcDbEntity
  8
STEMPEL
100
AcDbLine
 10
311.2760976512751
 20
412.1448982079413
 30
0.0
 11
311.276097651275
 21
405.6448982079447
 31
0.0
  0
ELLIPSE
  5
10BD
330
2
100
AcDbEntity
  8
STEMPEL
100
AcDbEllipse
 10
317.2618640762354
 20
432.1448982079433
 30
0.0
 11
-0.0000000000000334
 21
-7.5
 31
0.0
210
0.0
220
0.0
230
-1.0
 40
0.8660254037843856
 41
4.712388980384689
 42
6.24459510668465
  0
ELLIPSE
  5
10BE
330
2
100
AcDbEntity
  8
STEMPEL
100
AcDbEllipse
 10
317.7630410716773
 20
432.1448982079433
 30
0.0
 11
-0.0000000000000334
 21
-7.5
 31
0.0
210
0.0
220
0.0
230
-1.0
 40
0.8660254037843856
 41
4.712388980384689
 42
7.853981633974482
  0
ELLIPSE
  5
10BF
330
2
100
AcDbEntity
  8
STEMPEL
100
AcDbEllipse
 10
317.2618640762355
 20
457.1448982079433
 30
0.0
 11
0.0000000000000334
 21
7.5
 31
0.0
210
0.0
220
0.0
230
1.0
 40
0.8660254037843856
 41
4.712388980384689
 42
6.24459510668465
  0
ELLIPSE
  5
10C0
330
2
100
AcDbEntity
  8
STEMPEL
100
AcDbEllipse
 10
317.7630410716774
 20
457.1448982079433
 30
0.0
 11
0.0000000000000334
 21
7.5
 31
0.0
210
0.0
220
0.0
230
1.0
 40
0.8660254037843856
 41
4.712388980384689
 42
7.853981633974482
  0
LINE
  5
10C1
330
2
100
AcDbEntity
  8
STEMPEL
100
AcDbLine
 10
323.7570546046184
 20
457.1448982079433
 30
0.0
 11
323.7570546046182
 21
432.1448982079433
 31
0.0
  0
LINE
  5
10C2
330
2
100
AcDbEntity
  8
STEMPEL
100
AcDbLine
 10
324.2582316000603
 20
457.1448982079433
 30
0.0
 11
324.2582316000602
 21
432.1448982079433
 31
0.0
  0
LINE
  5
10C3
330
2
100
AcDbEntity
  8
STEMPEL
100
AcDbLine
 10
311.2678505432946
 20
457.1448982079433
 30
0.0
 11
311.2678505432945
 21
432.1448982079449
 31
0.0
  0
LWPOLYLINE
  5
10C4
330
2
100
AcDbEntity
  8
STEMPEL
100
AcDbPolyline
 90
       10
 70
   128
 43
0.0
 10
285.0680891330301
 20
419.6448982079446
 10
285.8609164788898
 20
419.5309563555361
 10
286.6296541670355
 20
419.1925928638388
 10
287.3509444918131
 20
418.6400887363277
 10
288.0028714116945
 20
417.8902315313366
 10
288.5656264571102
 20
416.9658052805931
 10
289.0221106007731
 20
415.8948982079438
 10
289.3584538029699
 20
414.7100492828861
 10
289.5644364456999
 20
413.4472595404452
 10
289.633799850596
 20
412.1448982079431
  0
LWPOLYLINE
  5
10C5
330
2
100
AcDbEntity
  8
STEMPEL
100
AcDbPolyline
 90
       18
 70
   128
 43
0.0
 10
281.2975993022851
 20
412.1448982079415
 10
281.3753392035452
 20
413.523019591566
 10
281.605911568227
 20
414.8542107043456
 10
281.9814645309922
 20
416.0931394295225
 10
282.4892090861199
 20
417.1976155352918
 10
283.1118546017578
 20
418.1300274125446
 10
283.8281976316519
 20
418.8586228931058
 10
284.6138439730778
 20
419.3585905317391
 10
285.4420393821572
 20
419.6129045301559
 10
286.2845806575449
 20
419.6129045301558
 10
287.1127760666243
 20
419.3585905317391
 10
287.8984224080501
 20
418.8586228931058
 10
288.6147654379442
 20
418.1300274125445
 10
289.2374109535822
 20
417.1976155352917
 10
289.7451555087099
 20
416.0931394295223
 10
290.1207084714751
 20
414.8542107043456
 10
290.3512808361569
 20
413.523019591566
 10
290.429020737417
 20
412.1448982079415
  0
LWPOLYLINE
  5
10C6
330
2
100
AcDbEntity
  8
STEMPEL
100
AcDbPolyline
 90
        9
 70
   128
 43
0.0
 10
271.2066472076123
 20
419.5466564526066
 10
271.6957077508811
 20
419.2202235548492
 10
272.155320718782
 20
418.674954541592
 10
272.5712705224063
 20
417.927714298464
 10
272.9306920516979
 20
417.0016145756864
 10
273.2224685865854
 20
415.9252991537162
 10
273.4375756313235
 20
414.7320579060853
 10
273.569360037431
 20
413.4587971610095
 10
273.6137457820959
 20
412.1448982079431
  0
LINE
  5
10C7
330
2
100
AcDbEntity
  8
STEMPEL
100
AcDbLine
 10
279.3460224737664
 20
400.6448982079432
 30
0.0
 11
287.6822230220783
 21
400.6448982079432
 31
0.0
  0
LINE
  5
10C8
330
2
100
AcDbEntity
  8
STEMPEL
100
AcDbLine
 10
299.9859919947686
 20
412.1448982079415
 30
0.0
 11
299.9859919947685
 21
405.6448982079449
 31
0.0
  0
LWPOLYLINE
  5
10C9
330
2
100
AcDbEntity
  8
STEMPEL
100
AcDbPolyline
 90
       10
 70
   128
 43
0.0
 10
-296.3233888592443
 20
399.6448982079433
 10
-296.9593932192453
 20
399.7360516898701
 10
-297.5760729086014
 20
400.0067424832278
 10
-298.1546904270065
 20
400.4487457852367
 10
-298.6776647739583
 20
401.0486315492294
 10
-299.1291056385628
 20
401.7881725498241
 10
-299.4952962185888
 20
402.6448982079434
 10
-299.7651099985637
 20
403.5927773479895
 10
-299.9303488233154
 20
404.6030091419421
 10
-299.9859919947685
 20
405.6448982079437
210
0.0
220
0.0
230
-1.0
  0
LINE
  5
10CA
330
2
100
AcDbEntity
  8
STEMPEL
100
AcDbLine
 10
290.4290207374168
 20
412.1448982079415
 30
0.0
 11
290.4290207374168
 21
405.6448982079449
 31
0.0
  0
LINE
  5
10CB
330
2
100
AcDbEntity
  8
STEMPEL
100
AcDbLine
 10
289.6337998505961
 20
412.1448982079415
 30
0.0
 11
289.633799850596
 21
405.6448982079449
 31
0.0
  0
LWPOLYLINE
  5
10CC
330
2
100
AcDbEntity
  8
STEMPEL
100
AcDbPolyline
 90
       10
 70
   128
 43
0.0
 10
-286.0653145628108
 20
399.6448982079433
 10
-286.8230641879051
 20
399.7360516898701
 10
-287.5577899740806
 20
400.0067424832278
 10
-288.2471676501138
 20
400.4487457852367
 10
-288.8702508241602
 20
401.0486315492294
 10
-289.4081074292716
 20
401.7881725498241
 10
-289.8443949646705
 20
402.6448982079434
 10
-290.1658570543658
 20
403.5927773479896
 10
-290.3627262354298
 20
404.6030091419421
 10
-290.4290207374166
 20
405.6448982079437
210
0.0
220
0.0
230
-1.0
  0
LWPOLYLINE
  5
10CD
330
2
100
AcDbEntity
  8
STEMPEL
100
AcDbPolyline
 90
        7
 70
   128
 43
0.0
 10
-287.6822230220777
 20
400.6448982079432
 10
-288.2441519953418
 20
401.2542361097841
 10
-288.7260899349289
 20
401.9816663830734
 10
-289.1150745146788
 20
402.8076238770171
 10
-289.4006435057852
 20
403.7098934274793
 10
-289.5751161715812
 20
404.6642073617226
 10
-289.6337998505961
 20
405.6448982079437
210
0.0
220
0.0
230
-1.0
  0
LWPOLYLINE
  5
10CE
330
2
100
AcDbEntity
  8
STEMPEL
100
AcDbPolyline
 90
       10
 70
   128
 43
0.0
 10
-276.933893127679
 20
399.6448982079433
 10
-277.6916427527732
 20
399.7360516898701
 10
-278.4263685389487
 20
400.0067424832279
 10
-279.1157462149818
 20
400.4487457852367
 10
-279.7388293890283
 20
401.0486315492295
 10
-280.2766859941397
 20
401.7881725498242
 10
-280.7129735295387
 20
402.6448982079434
 10
-281.0344356192339
 20
403.5927773479896
 10
-281.2313048002979
 20
404.6030091419421
 10
-281.2975993022848
 20
405.6448982079437
210
0.0
220
0.0
230
-1.0
  0
LINE
  5
10CF
330
2
100
AcDbEntity
  8
STEMPEL
100
AcDbLine
 10
281.297599302285
 20
412.1448982079415
 30
0.0
 11
281.2975993022849
 21
405.6448982079449
 31
0.0
  0
LINE
  5
10D0
330
2
100
AcDbEntity
  8
STEMPEL
100
AcDbLine
 10
274.5398001186032
 20
412.1448982079415
 30
0.0
 11
274.5398001186031
 21
405.6448982079449
 31
0.0
  0
LINE
  5
10D1
330
2
100
AcDbEntity
  8
STEMPEL
100
AcDbLine
 10
273.613745782096
 20
412.1448982079415
 30
0.0
 11
273.6137457820959
 21
405.6448982079449
 31
0.0
  0
LWPOLYLINE
  5
10D2
330
2
100
AcDbEntity
  8
STEMPEL
100
AcDbPolyline
 90
       10
 70
   128
 43
0.0
 10
-269.7244355920292
 20
399.6448982079434
 10
-270.5606148668707
 20
399.7360516898702
 10
-271.3713872575734
 20
400.006742483228
 10
-272.1321178553162
 20
400.4487457852367
 10
-272.819692245835
 20
401.0486315492295
 10
-273.4132188292034
 20
401.7881725498242
 10
-273.8946636005246
 20
402.6448982079434
 10
-274.249398104045
 20
403.5927773479896
 10
-274.4666439113792
 20
404.6030091419421
 10
-274.5398001186031
 20
405.6448982079437
210
0.0
220
0.0
230
-1.0
  0
LWPOLYLINE
  5
10D3
330
2
100
AcDbEntity
  8
STEMPEL
100
AcDbPolyline
 90
        7
 70
   128
 43
0.0
 10
-271.4601741494272
 20
400.6448982079434
 10
-272.0802646724915
 20
401.2542361097842
 10
-272.612084819275
 20
401.9816663830734
 10
-273.0413306190062
 20
402.8076238770171
 10
-273.3564569668035
 20
403.7098934274793
 10
-273.5489881437694
 20
404.6642073617226
 10
-273.6137457820957
 20
405.6448982079437
210
0.0
220
0.0
230
-1.0
  0
LINE
  5
10D4
330
2
100
AcDbEntity
  8
STEMPEL
100
AcDbLine
 10
280.8427647190043
 20
432.1448982079435
 30
0.0
 11
280.8427647190044
 21
457.1448982079451
 31
0.0
  0
LINE
  5
10D5
330
2
100
AcDbEntity
  8
STEMPEL
100
AcDbLine
 10
281.7108287386934
 20
457.1448982079435
 30
0.0
 11
281.7108287386933
 21
432.1448982079451
 31
0.0
  0
LINE
  5
10D6
330
2
100
AcDbEntity
  8
STEMPEL
100
AcDbLine
 10
274.2108287386935
 20
457.1448982079435
 30
0.0
 11
274.2108287386934
 21
432.1448982079466
 31
0.0
  0
ELLIPSE
  5
10D7
330
2
100
AcDbEntity
  8
STEMPEL
100
AcDbEllipse
 10
277.9608287386933
 20
432.1448982079451
 30
0.0
 11
-0.0000000000000334
 21
-7.499999999999999
 31
0.0
210
0.0
220
0.0
230
-1.0
 40
0.4999999999999926
 41
4.712388980384689
 42
7.853981633974482
  0
ELLIPSE
  5
10D8
330
2
100
AcDbEntity
  8
STEMPEL
100
AcDbEllipse
 10
277.0927647190045
 20
432.1448982079451
 30
0.0
 11
-0.0000000000000334
 21
-7.499999999999999
 31
0.0
210
0.0
220
0.0
230
-1.0
 40
0.4999999999999926
 41
4.712388980384689
 42
6.167183451052224
  0
ELLIPSE
  5
10D9
330
2
100
AcDbEntity
  8
STEMPEL
100
AcDbEllipse
 10
277.9608287386934
 20
457.1448982079435
 30
0.0
 11
0.0000000000000334
 21
7.499999999999999
 31
0.0
210
0.0
220
0.0
230
1.0
 40
0.4999999999999926
 41
4.712388980384689
 42
7.853981633974482
  0
ELLIPSE
  5
10DA
330
2
100
AcDbEntity
  8
STEMPEL
100
AcDbEllipse
 10
277.0927647190047
 20
457.1448982079435
 30
0.0
 11
0.0000000000000334
 21
7.499999999999999
 31
0.0
210
0.0
220
0.0
230
1.0
 40
0.4999999999999926
 41
4.712388980384689
 42
6.167183451052224
  0
LINE
  5
10DB
330
2
100
AcDbEntity
  8
STEMPEL
100
AcDbLine
 10
346.6943596503
 20
489.6448982079428
 30
0.0
 11
292.1338742453567
 21
489.6448982079433
 31
0.0
  0
LINE
  5
10DC
330
2
100
AcDbEntity
  8
STEMPEL
100
AcDbLine
 10
394.797435861654
 20
491.1448982079424
 30
0.0
 11
349.2924358616541
 21
491.1448982079426
 31
0.0
  0
LINE
  5
10DD
330
2
100
AcDbEntity
  8
STEMPEL
100
AcDbLine
 10
375.4924358616542
 20
490.1448982079426
 30
0.0
 11
365.4041684004606
 21
490.1448982079426
 31
0.0
  0
LINE
  5
10DE
330
2
100
AcDbEntity
  8
STEMPEL
100
AcDbLine
 10
384.5443596503011
 20
489.6448982079425
 30
0.0
 11
378.0905120730068
 21
489.6448982079425
 31
0.0
  0
LINE
  5
10DF
330
2
100
AcDbEntity
  8
STEMPEL
100
AcDbLine
 10
384.5443596503011
 20
489.6448982079425
 30
0.0
 11
378.0905120730068
 21
489.6448982079425
 31
0.0
  0
ARC
  5
10E0
330
2
100
AcDbEntity
  8
STEMPEL
100
AcDbCircle
 10
384.5443596503011
 20
491.1448982079424
 30
0.0
 40
2.5
100
AcDbArc
 50
270.0
 51
330.0000000000003
  0
ARC
  5
10E1
330
2
100
AcDbEntity
  8
STEMPEL
100
AcDbCircle
 10
389.9405120730078
 20
491.1448982079424
 30
0.0
 40
2.5
100
AcDbArc
 50
209.9999999999925
 51
270.0
  0
ARC
  5
10E2
330
2
100
AcDbEntity
  8
STEMPEL
100
AcDbCircle
 10
391.9993596503001
 20
491.1448982079424
 30
0.0
 40
2.5
100
AcDbArc
 50
270.0
 51
330.0000000000076
  0
ARC
  5
10E3
330
2
100
AcDbEntity
  8
STEMPEL
100
AcDbCircle
 10
397.3955120730075
 20
491.1448982079424
 30
0.0
 40
2.5
100
AcDbArc
 50
209.9999999999997
 51
270.0
  0
ARC
  5
10E4
330
2
100
AcDbEntity
  8
STEMPEL
100
AcDbCircle
 10
391.9993596503001
 20
491.1448982079424
 30
0.0
 40
1.5
100
AcDbArc
 50
270.0
 51
330.0000000000076
  0
ARC
  5
10E5
330
2
100
AcDbEntity
  8
STEMPEL
100
AcDbCircle
 10
397.3955120730075
 20
491.1448982079424
 30
0.0
 40
1.5
100
AcDbArc
 50
209.9999999999925
 51
270.0
  0
ARC
  5
10E6
330
2
100
AcDbEntity
  8
STEMPEL
100
AcDbCircle
 10
394.797435861654
 20
489.6448982079425
 30
0.0
 40
1.5
100
AcDbArc
 50
29.99999999999973
 51
90.0
  0
ARC
  5
10E7
330
2
100
AcDbEntity
  8
STEMPEL
100
AcDbCircle
 10
394.5974358616539
 20
489.6448982079425
 30
0.0
 40
1.5
100
AcDbArc
 50
90.0
 51
150.0000000000075
  0
ARC
  5
10E8
330
2
100
AcDbEntity
  8
STEMPEL
100
AcDbCircle
 10
394.5974358616539
 20
489.6448982079425
 30
0.0
 40
0.5
100
AcDbArc
 50
90.0
 51
150.0000000000002
  0
LINE
  5
10E9
330
2
100
AcDbEntity
  8
STEMPEL
100
AcDbLine
 10
394.797435861654
 20
490.1448982079425
 30
0.0
 11
394.5974358616539
 21
490.1448982079425
 31
0.0
  0
ARC
  5
10EA
330
2
100
AcDbEntity
  8
STEMPEL
100
AcDbCircle
 10
394.797435861654
 20
489.6448982079425
 30
0.0
 40
0.5
100
AcDbArc
 50
29.99999999999973
 51
90.0
  0
ARC
  5
10EB
330
2
100
AcDbEntity
  8
STEMPEL
100
AcDbCircle
 10
387.342435861654
 20
489.6448982079426
 30
0.0
 40
1.5
100
AcDbArc
 50
29.99999999999246
 51
90.0
  0
LINE
  5
10EC
330
2
100
AcDbEntity
  8
STEMPEL
100
AcDbLine
 10
391.9993596503001
 20
489.6448982079424
 30
0.0
 11
389.9405120730078
 21
489.6448982079424
 31
0.0
  0
LINE
  5
10ED
330
2
100
AcDbEntity
  8
STEMPEL
100
AcDbLine
 10
391.9993596503001
 20
489.6448982079424
 30
0.0
 11
389.9405120730078
 21
489.6448982079424
 31
0.0
  0
ARC
  5
10EE
330
2
100
AcDbEntity
  8
STEMPEL
100
AcDbCircle
 10
389.9405120730078
 20
491.1448982079424
 30
0.0
 40
1.5
100
AcDbArc
 50
209.9999999999925
 51
270.0
  0
ARC
  5
10EF
330
2
100
AcDbEntity
  8
STEMPEL
100
AcDbCircle
 10
387.142435861654
 20
489.6448982079426
 30
0.0
 40
1.5
100
AcDbArc
 50
90.0
 51
150.0000000000002
  0
ARC
  5
10F0
330
2
100
AcDbEntity
  8
STEMPEL
100
AcDbCircle
 10
387.142435861654
 20
489.6448982079426
 30
0.0
 40
0.5
100
AcDbArc
 50
90.0
 51
150.0000000000002
  0
LINE
  5
10F1
330
2
100
AcDbEntity
  8
STEMPEL
100
AcDbLine
 10
387.342435861654
 20
490.1448982079426
 30
0.0
 11
387.142435861654
 21
490.1448982079426
 31
0.0
  0
ARC
  5
10F2
330
2
100
AcDbEntity
  8
STEMPEL
100
AcDbCircle
 10
387.342435861654
 20
489.6448982079426
 30
0.0
 40
0.5
100
AcDbArc
 50
29.99999999999246
 51
90.0
  0
ARC
  5
10F3
330
2
100
AcDbEntity
  8
STEMPEL
100
AcDbCircle
 10
384.5443596503011
 20
491.1448982079424
 30
0.0
 40
1.5
100
AcDbArc
 50
270.0
 51
330.0000000000003
  0
ARC
  5
10F4
330
2
100
AcDbEntity
  8
STEMPEL
100
AcDbCircle
 10
378.0905120730068
 20
491.1448982079424
 30
0.0
 40
2.5
100
AcDbArc
 50
210.0000000000078
 51
270.0
  0
ARC
  5
10F5
330
2
100
AcDbEntity
  8
STEMPEL
100
AcDbCircle
 10
375.4924358616542
 20
489.6448982079426
 30
0.0
 40
1.5
100
AcDbArc
 50
29.99999999999973
 51
90.0
  0
ARC
  5
10F6
330
2
100
AcDbEntity
  8
STEMPEL
100
AcDbCircle
 10
378.0905120730068
 20
491.1448982079424
 30
0.0
 40
1.5
100
AcDbArc
 50
210.0000000000078
 51
270.0
  0
ARC
  5
10F7
330
2
100
AcDbEntity
  8
STEMPEL
100
AcDbCircle
 10
375.4924358616542
 20
489.6448982079426
 30
0.0
 40
0.5
100
AcDbArc
 50
29.99999999999973
 51
90.0
  0
ARC
  5
10F8
330
2
100
AcDbEntity
  8
STEMPEL
100
AcDbCircle
 10
352.0905120730065
 20
491.1448982079426
 30
0.0
 40
2.5
100
AcDbArc
 50
210.0000000000078
 51
270.0
  0
ARC
  5
10F9
330
2
100
AcDbEntity
  8
STEMPEL
100
AcDbCircle
 10
352.0905120730065
 20
491.1448982079426
 30
0.0
 40
1.5
100
AcDbArc
 50
210.0000000000078
 51
270.0
  0
ARC
  5
10FA
330
2
100
AcDbEntity
  8
STEMPEL
100
AcDbCircle
 10
358.5443596503005
 20
491.1448982079426
 30
0.0
 40
2.5
100
AcDbArc
 50
270.0
 51
330.0000000000003
  0
ARC
  5
10FB
330
2
100
AcDbEntity
  8
STEMPEL
100
AcDbCircle
 10
363.2789275347581
 20
490.1448982079426
 30
0.0
 40
1.5
100
AcDbArc
 50
194.4775121859299
 51
270.0
  0
ARC
  5
10FC
330
2
100
AcDbEntity
  8
STEMPEL
100
AcDbCircle
 10
363.4676767273572
 20
490.1448982079426
 30
0.0
 40
1.5
100
AcDbArc
 50
270.0
 51
345.5224878140701
  0
ARC
  5
10FD
330
2
100
AcDbEntity
  8
STEMPEL
100
AcDbCircle
 10
358.5443596503005
 20
491.1448982079426
 30
0.0
 40
1.5
100
AcDbArc
 50
270.0
 51
330.0000000000003
  0
ARC
  5
10FE
330
2
100
AcDbEntity
  8
STEMPEL
100
AcDbCircle
 10
363.4676767273572
 20
490.1448982079426
 30
0.0
 40
0.5
100
AcDbArc
 50
270.0
 51
345.5224878140701
  0
ARC
  5
10FF
330
2
100
AcDbEntity
  8
STEMPEL
100
AcDbCircle
 10
365.4041684004606
 20
489.6448982079426
 30
0.0
 40
1.5
100
AcDbArc
 50
90.0
 51
165.5224878140701
  0
ARC
  5
1100
330
2
100
AcDbEntity
  8
STEMPEL
100
AcDbCircle
 10
365.4041684004606
 20
489.6448982079426
 30
0.0
 40
0.5
100
AcDbArc
 50
90.0
 51
165.5224878140701
  0
ARC
  5
1101
330
2
100
AcDbEntity
  8
STEMPEL
100
AcDbCircle
 10
361.142435861654
 20
489.6448982079426
 30
0.0
 40
0.5
100
AcDbArc
 50
90.0
 51
150.0000000000002
  0
LINE
  5
1102
330
2
100
AcDbEntity
  8
STEMPEL
100
AcDbLine
 10
361.3424358616541
 20
490.1448982079427
 30
0.0
 11
361.142435861654
 21
490.1448982079427
 31
0.0
  0
ARC
  5
1103
330
2
100
AcDbEntity
  8
STEMPEL
100
AcDbCircle
 10
361.3424358616541
 20
489.6448982079426
 30
0.0
 40
0.5
100
AcDbArc
 50
14.47751218592986
 51
90.0
  0
LINE
  5
1104
330
2
100
AcDbEntity
  8
STEMPEL
100
AcDbLine
 10
363.4676767273572
 20
489.6448982079426
 30
0.0
 11
363.2789275347581
 21
489.6448982079426
 31
0.0
  0
ARC
  5
1105
330
2
100
AcDbEntity
  8
STEMPEL
100
AcDbCircle
 10
363.2789275347581
 20
490.1448982079426
 30
0.0
 40
0.5
100
AcDbArc
 50
194.4775121859299
 51
270.0
  0
ARC
  5
1106
330
2
100
AcDbEntity
  8
STEMPEL
100
AcDbCircle
 10
361.3424358616541
 20
489.6448982079426
 30
0.0
 40
1.5
100
AcDbArc
 50
14.47751218592986
 51
90.0
  0
ARC
  5
1107
330
2
100
AcDbEntity
  8
STEMPEL
100
AcDbCircle
 10
361.142435861654
 20
489.6448982079426
 30
0.0
 40
1.5
100
AcDbArc
 50
90.0
 51
150.0000000000002
  0
LINE
  5
1108
330
2
100
AcDbEntity
  8
STEMPEL
100
AcDbLine
 10
358.5443596503005
 20
489.6448982079426
 30
0.0
 11
352.0905120730065
 21
489.6448982079426
 31
0.0
  0
LINE
  5
1109
330
2
100
AcDbEntity
  8
STEMPEL
100
AcDbLine
 10
358.5443596503005
 20
489.6448982079427
 30
0.0
 11
352.0905120730065
 21
489.6448982079427
 31
0.0
  0
ARC
  5
110A
330
2
100
AcDbEntity
  8
STEMPEL
100
AcDbCircle
 10
346.6943596503
 20
491.1448982079426
 30
0.0
 40
2.5
100
AcDbArc
 50
270.0
 51
330.0000000000076
  0
ARC
  5
110B
330
2
100
AcDbEntity
  8
STEMPEL
100
AcDbCircle
 10
346.6943596503
 20
491.1448982079426
 30
0.0
 40
1.5
100
AcDbArc
 50
270.0
 51
330.0000000000076
  0
ARC
  5
110C
330
2
100
AcDbEntity
  8
STEMPEL
100
AcDbCircle
 10
349.2924358616541
 20
489.6448982079426
 30
0.0
 40
1.5
100
AcDbArc
 50
90.0
 51
150.0000000000075
  0
ARC
  5
110D
330
2
100
AcDbEntity
  8
STEMPEL
100
AcDbCircle
 10
349.2924358616541
 20
489.6448982079426
 30
0.0
 40
0.5
100
AcDbArc
 50
90.0
 51
150.0000000000075
  0
LINE
  5
110E
330
2
100
AcDbEntity
  8
STEMPEL
100
AcDbLine
 10
349.4924358616541
 20
490.1448982079426
 30
0.0
 11
349.2924358616541
 21
490.1448982079426
 31
0.0
  0
ARC
  5
110F
330
2
100
AcDbEntity
  8
STEMPEL
100
AcDbCircle
 10
349.4924358616541
 20
489.6448982079426
 30
0.0
 40
0.5
100
AcDbArc
 50
30.00000000000782
 51
90.0
  0
ARC
  5
1110
330
2
100
AcDbEntity
  8
STEMPEL
100
AcDbCircle
 10
349.4924358616541
 20
489.6448982079426
 30
0.0
 40
1.5
100
AcDbArc
 50
30.00000000000782
 51
90.0
  0
ARC
  5
1111
330
2
100
AcDbEntity
  8
STEMPEL
100
AcDbCircle
 10
292.1338742453587
 20
483.6448982079383
 30
0.0
 40
5.000000000004884
100
AcDbArc
 50
90.00000000002442
 51
120.5373500482963
  0
ARC
  5
1112
330
2
100
AcDbEntity
  8
STEMPEL
100
AcDbCircle
 10
292.1338742453567
 20
483.6448982079435
 30
0.0
 40
5.999999999999263
100
AcDbArc
 50
90.0
 51
120.5128743276239
  0
ARC
  5
1113
330
2
100
AcDbEntity
  8
STEMPEL
100
AcDbCircle
 10
292.1338742453565
 20
483.6448982079428
 30
0.0
 40
6.0
100
AcDbArc
 50
90.0
 51
90.0
  0
LINE
  5
1114
330
2
100
AcDbEntity
  8
STEMPEL
100
AcDbLine
 10
262.1338742453565
 20
469.6448402406278
 30
0.0
 11
262.1338742453562
 21
405.6448982079438
 31
0.0
  0
LINE
  5
1115
330
2
100
AcDbEntity
  8
STEMPEL
100
AcDbLine
 10
263.1338742453567
 20
469.6448402406278
 30
0.0
 11
263.1338742453563
 21
405.6448982079438
 31
0.0
  0
LWPOLYLINE
  5
1116
330
2
100
AcDbEntity
  8
STEMPEL
100
AcDbPolyline
 90
       18
 70
   128
 43
0.0
 10
263.3435614863917
 20
412.1448982079416
 10
263.3602299098685
 20
413.523019591566
 10
263.4096675571289
 20
414.8542107043458
 10
263.4901908883893
 20
416.0931394295226
 10
263.599057778181
 20
417.1976155352918
 10
263.7325608951432
 20
418.1300274125447
 10
263.8861539507474
 20
418.8586228931059
 10
264.0546065176994
 20
419.3585905317392
 10
264.2321821458684
 20
419.6129045301559
 10
264.4128337102154
 20
419.6129045301559
 10
264.5904093383844
 20
419.3585905317392
 10
264.7588619053364
 20
418.8586228931059
 10
264.9124549609405
 20
418.1300274125447
 10
265.0459580779028
 20
417.1976155352918
 10
265.1548249676945
 20
416.0931394295226
 10
265.2353482989549
 20
414.8542107043458
 10
265.2847859462152
 20
413.523019591566
 10
265.3014543696921
 20
412.1448982079416
  0
LINE
  5
1117
330
2
100
AcDbEntity
  8
STEMPEL
100
AcDbLine
 10
242.1338742453567
 20
400.6448982079435
 30
0.0
 11
257.1338742453566
 21
400.6448982079438
 31
0.0
  0
LWPOLYLINE
  5
1118
330
2
100
AcDbEntity
  8
STEMPEL
100
AcDbPolyline
 90
       10
 70
   128
 43
0.0
 10
-259.7954656386612
 20
399.6448982079435
 10
-260.653538634934
 20
399.7110254225161
 10
-261.5063508345562
 20
399.9635791722463
 10
-262.3271091414732
 20
400.3946248885639
 10
-263.0900275078722
 20
400.9906202590037
 10
-263.7711370633714
 20
401.7328406907243
 10
-264.3490391533171
 20
402.5979675875218
 10
-264.8055776277233
 20
403.5588209582379
 10
-265.1264092593209
 20
404.5852133399501
 10
-265.301454369692
 20
405.6448982079427
210
0.0
220
0.0
230
-1.0
  0
ARC
  5
1119
330
2
100
AcDbEntity
  8
STEMPEL
100
AcDbCircle
 10
257.1338742453563
 20
405.6448982079439
 30
0.0
 40
6.0
100
AcDbArc
 50
270.0000000000017
 51
0.0
  0
LWPOLYLINE
  5
111A
330
2
100
AcDbEntity
  8
STEMPEL
100
AcDbPolyline
 90
       10
 70
   128
 43
0.0
 10
-257.8375727553607
 20
399.6448982079447
 10
-258.6956457516335
 20
399.7110254225173
 10
-259.5484579512557
 20
399.9635791722474
 10
-260.3692162581727
 20
400.394624888565
 10
-261.1321346245718
 20
400.9906202590048
 10
-261.8132441800709
 20
401.7328406907254
 10
-262.3911462700166
 20
402.5979675875229
 10
-262.8476847444229
 20
403.5588209582391
 10
-263.1685163760204
 20
404.5852133399512
 10
-263.3435614863915
 20
405.6448982079438
210
0.0
220
0.0
230
-1.0
  0
ARC
  5
111B
330
2
100
AcDbEntity
  8
STEMPEL
100
AcDbCircle
 10
257.1338742453563
 20
405.6448982079439
 30
0.0
 40
5.0
100
AcDbArc
 50
270.0000000000017
 51
0.0
  0
LINE
  5
111C
330
2
100
AcDbEntity
  8
STEMPEL
100
AcDbLine
 10
260.7231023027209
 20
400.6448982079434
 30
0.0
 11
261.6872164724835
 21
400.6448982079434
 31
0.0
  0
LINE
  5
111D
330
2
100
AcDbEntity
  8
STEMPEL
100
AcDbLine
 10
264.3076756561543
 20
412.1448982079416
 30
0.0
 11
264.3076756561542
 21
405.6448982079438
 31
0.0
  0
LINE
  5
111E
330
2
100
AcDbEntity
  8
STEMPEL
100
AcDbLine
 10
265.3014543696921
 20
412.1448982079416
 30
0.0
 11
265.301454369692
 21
405.6448982079427
 31
0.0
  0
LINE
  5
111F
330
2
100
AcDbEntity
  8
STEMPEL
100
AcDbLine
 10
268.7995486331255
 20
412.1448982079416
 30
0.0
 11
268.7995486331254
 21
405.644898207945
 31
0.0
  0
LINE
  5
1120
330
2
100
AcDbEntity
  8
STEMPEL
100
AcDbLine
 10
263.3435614863917
 20
412.1448982079416
 30
0.0
 11
263.3435614863915
 21
405.6448982079438
 31
0.0
  0
LWPOLYLINE
  5
1121
330
2
100
AcDbEntity
  8
STEMPEL
100
AcDbPolyline
 90
       10
 70
   128
 43
0.0
 10
-263.9841841065514
 20
399.6448982079434
 10
-264.820363381393
 20
399.7360516898702
 10
-265.6311357720956
 20
400.006742483228
 10
-266.3918663698384
 20
400.4487457852367
 10
-267.0794407603572
 20
401.0486315492297
 10
-267.6729673437256
 20
401.7881725498244
 10
-268.1544121150468
 20
402.6448982079436
 10
-268.5091466185672
 20
403.5927773479896
 10
-268.7263924259014
 20
404.6030091419422
 10
-268.7995486331254
 20
405.6448982079438
210
0.0
220
0.0
230
-1.0
  0
LWPOLYLINE
  5
1122
330
2
100
AcDbEntity
  8
STEMPEL
100
AcDbPolyline
 90
        7
 70
   128
 43
0.0
 10
-261.6872164724833
 20
400.6448982079438
 10
-262.3639183475607
 20
401.2544989358029
 10
-262.9634677711947
 20
401.9820580197145
 10
-263.4697564443443
 20
402.8080278813948
 10
-263.8691817363899
 20
403.7102169065978
 10
-264.1510121516528
 20
404.6643856747914
 10
-264.3076756561543
 20
405.6448982079438
210
0.0
220
0.0
230
-1.0
  0
LWPOLYLINE
  5
1123
330
2
100
AcDbEntity
  8
STEMPEL
100
AcDbPolyline
 90
        7
 70
   128
 43
0.0
 10
263.8256185712728
 20
418.6069522637813
 10
263.9634475808431
 20
417.8548460268428
 10
264.0823118578093
 20
416.932132416128
 10
264.1786598597105
 20
415.8663811662239
 10
264.2496128072486
 20
414.6894358294026
 10
264.2930506992566
 20
413.4364623230008
 10
264.3076756561542
 20
412.1448982079416
  0
LINE
  5
1124
330
2
100
AcDbEntity
  8
STEMPEL
100
AcDbLine
 10
254.1338742453564
 20
400.6448982079439
 30
0.0
 11
254.1338742453564
 21
399.6448982079435
 31
0.0
  0
LINE
  5
1125
330
2
100
AcDbEntity
  8
STEMPEL
100
AcDbLine
 10
246.1338742453564
 20
400.6448982079435
 30
0.0
 11
246.1338742453564
 21
399.6448982079435
 31
0.0
  0
LINE
  5
1126
330
2
100
AcDbEntity
  8
STEMPEL
100
AcDbLine
 10
242.1338742453565
 20
400.6448982079438
 30
0.0
 11
242.1338742453564
 21
399.6448982079435
 31
0.0
  0
LINE
  5
1127
330
2
100
AcDbEntity
  8
STEMPEL
100
AcDbLine
 10
262.1338742453566
 20
424.6448982079432
 30
0.0
 11
263.1338742453567
 21
424.6448982079432
 31
0.0
  0
LINE
  5
1128
330
2
100
AcDbEntity
  8
STEMPEL
100
AcDbLine
 10
262.1338742453569
 20
464.6448982079433
 30
0.0
 11
263.1338742453569
 21
464.6448982079433
 31
0.0
  0
ARC
  5
1129
330
2
100
AcDbEntity
  8
STEMPEL
100
AcDbCircle
 10
268.1338742453571
 20
469.6448402406274
 30
0.0
 40
5.000000000000511
100
AcDbArc
 50
120.2564164748203
 51
179.9999999999935
  0
ARC
  5
112A
330
2
100
AcDbEntity
  8
STEMPEL
100
AcDbCircle
 10
268.133874245357
 20
469.6448402406274
 30
0.0
 40
6.000000000000454
100
AcDbArc
 50
120.2564164748174
 51
179.9999999999935
  0
ARC
  5
112B
330
2
100
AcDbEntity
  8
STEMPEL
100
AcDbCircle
 10
262.622730641045
 20
479.1647351904052
 30
0.0
 40
5.0
100
AcDbArc
 50
300.0670458384858
 51
300.2564371635316
  0
LINE
  5
112C
330
2
100
AcDbEntity
  8
TEXT
 62
     2
100
AcDbLine
 10
436.2159120984665
 20
389.2395393077816
 30
0.0
 11
657.5181459973284
 21
407.283473334488
 31
0.0
  0
LINE
  5
112D
330
2
100
AcDbEntity
  8
TEXT
 62
     2
100
AcDbLine
 10
662.1522991128052
 20
509.1880347672472
 30
0.0
 11
481.7808146353018
 21
467.8622096148285
 31
0.0
  0
HATCH
  5
112E
330
2
100
AcDbEntity
  8
SCHRAFF
100
AcDbHatch
 10
0.0
 20
0.0
 30
0.0
210
0.0
220
0.0
230
1.0
  2
_USER
 70
     0
 71
     0
 91
        4
 92
        7
 72
     0
 73
     1
 93
        9
 10
253.1338742453564
 20
389.2583982079433
 10
253.1338742453566
 20
386.6448982079424
 10
252.1338742453565
 20
386.6448982079424
 10
252.1338742453565
 20
385.6448982079426
 10
250.1338742453565
 20
385.1089998230803
 10
250.1338742453564
 20
384.6448982079426
 10
255.1338742453565
 20
384.6448982079426
 10
255.1338742453566
 20
399.6448982079431
 10
253.1338742453566
 20
399.644898207943
 97
        0
 92
       23
 72
     0
 73
     1
 93
        5
 10
252.1338742453565
 20
386.6448982079424
 10
253.1338742453565
 20
386.6448982079424
 10
253.1338742453565
 20
389.2583982079433
 10
252.5203742453565
 20
388.6448982079433
 10
252.1338742453565
 20
388.6448982079433
 97
        0
 92
       22
 72
     0
 73
     1
 93
        5
 10
247.1338742453565
 20
386.6448982079426
 10
248.1338742453565
 20
386.6448982079426
 10
248.1338742453565
 20
388.6448982079434
 10
247.7473742453564
 20
388.6448982079433
 10
247.1338742453564
 20
389.2583982079433
 97
        0
 92
        7
 72
     0
 73
     1
 93
        9
 10
247.1338742453565
 20
389.2583982079433
 10
247.1338742453564
 20
399.6448982079432
 10
245.1338742453565
 20
399.6448982079432
 10
245.1338742453564
 20
384.6448982079427
 10
250.1338742453565
 20
384.6448982079428
 10
250.1338742453565
 20
385.1089998230803
 10
248.1338742453565
 20
385.6448982079427
 10
248.1338742453565
 20
386.6448982079425
 10
247.1338742453565
 20
386.6448982079426
 97
        0
 75
     0
 76
     0
 52
45.0
 41
1.0
 77
     0
 78
     1
 53
45.0
 43
99.88150191441219
 44
-206.5113067103834
 45
-0.7071067811865475
 46
0.7071067811865476
 79
     0
 47
0.0321819604051909
 98
        4
 10
254.0981854900397
 20
394.3502789235138
 10
252.4885013331841
 20
387.0771555820637
 10
247.6272574913455
 20
388.0747961953228
 10
246.9189962472719
 20
387.9138864820882
  0
ARC
  5
112F
330
2
100
AcDbEntity
  8
HILF
100
AcDbCircle
 10
250.1338742453565
 20
387.4036061807171
 30
0.0
 40
14.94074366520046
100
AcDbArc
 50
78.85962783889434
 51
101.1403721611056
  0
ARC
  5
1130
330
2
100
AcDbEntity
  8
HILF
100
AcDbCircle
 10
245.8037472264343
 20
398.5035894461269
 30
0.0
 40
3.840760399790701
100
AcDbArc
 50
67.9259452632415
 51
112.0740547367585
  0
ARC
  5
1131
330
2
100
AcDbEntity
  8
HILF
100
AcDbCircle
 10
254.4640012642787
 20
398.5024248842387
 30
0.0
 40
3.841839622940954
100
AcDbArc
 50
67.9324721810082
 51
112.0675278189903
  0
ARC
  5
1132
330
2
100
AcDbEntity
  8
STEMPEL
100
AcDbCircle
 10
250.1338742453565
 20
387.0376387863064
 30
0.0
 40
20.20725942163691
100
AcDbArc
 50
81.78678929826174
 51
98.21321070173826
  0
ARC
  5
1133
330
2
100
AcDbEntity
  8
STEMPEL
100
AcDbCircle
 10
245.8037472264343
 20
402.1153610694201
 30
0.0
 40
5.129537138523076
100
AcDbArc
 50
73.65710669401501
 51
106.342893305985
  0
LINE
  5
1134
330
2
100
AcDbEntity
  8
STEMPEL
100
AcDbLine
 10
245.1338742453565
 20
407.2448982079433
 30
0.0
 11
244.3603715534602
 21
407.0376387863064
 31
0.0
  0
LINE
  5
1135
330
2
100
AcDbEntity
  8
STEMPEL
100
AcDbLine
 10
255.1338742453565
 20
407.2448982079433
 30
0.0
 11
255.9073769372527
 21
407.0376387863064
 31
0.0
  0
ARC
  5
1136
330
2
100
AcDbEntity
  8
STEMPEL
100
AcDbCircle
 10
254.4640012642787
 20
402.1153610694201
 30
0.0
 40
5.129537138523076
100
AcDbArc
 50
73.65710669401501
 51
106.342893305985
  0
POINT
  5
1137
330
2
100
AcDbEntity
  8
0
100
AcDbPoint
 10
250.1338742453564
 20
388.6448982079433
 30
0.0
210
-0.0000000000000002
220
-1.0
230
0.0
  0
LINE
  5
1138
330
2
100
AcDbEntity
  8
HILF
100
AcDbLine
 10
247.7473742453565
 20
397.6448982079433
 30
0.0
 11
247.1338742453565
 21
400.6448982079432
 31
0.0
  0
LINE
  5
1139
330
2
100
AcDbEntity
  8
HILF
100
AcDbLine
 10
247.7473742453565
 20
397.6448982079433
 30
0.0
 11
247.7473742453565
 21
388.6448982079433
 31
0.0
  0
LINE
  5
113A
330
2
100
AcDbEntity
  8
HILF
100
AcDbLine
 10
247.1338742453565
 20
397.6448982079433
 30
0.0
 11
253.1338742453564
 21
397.6448982079433
 31
0.0
  0
LINE
  5
113B
330
2
100
AcDbEntity
  8
HILF
100
AcDbLine
 10
252.5203742453565
 20
397.6448982079433
 30
0.0
 11
253.1338742453565
 21
400.6448982079432
 31
0.0
  0
LINE
  5
113C
330
2
100
AcDbEntity
  8
HILF
100
AcDbLine
 10
252.5203742453565
 20
397.6448982079433
 30
0.0
 11
252.5203742453565
 21
388.6448982079433
 31
0.0
  0
LINE
  5
113D
330
2
100
AcDbEntity
  8
STEMPEL
100
AcDbLine
 10
256.8719853241856
 20
401.7117291493756
 30
0.0
 11
243.3957631665273
 21
401.7117291493756
 31
0.0
  0
LINE
  5
113E
330
2
100
AcDbEntity
  8
STEMPEL
100
AcDbLine
 10
256.6838742453565
 20
400.6448982079432
 30
0.0
 11
243.5838742453565
 21
400.6448982079432
 31
0.0
  0
LINE
  5
113F
330
2
100
AcDbEntity
  8
STEMPEL
100
AcDbLine
 10
244.3603715534602
 20
407.0376387863064
 30
0.0
 11
244.3603715534602
 21
402.0628178899427
 31
0.0
  0
LINE
  5
1140
330
2
100
AcDbEntity
  8
STEMPEL
100
AcDbLine
 10
247.2471228994083
 20
407.0376387863064
 30
0.0
 11
247.2471228994083
 21
402.0628178899427
 31
0.0
  0
LINE
  5
1141
330
2
100
AcDbEntity
  8
STEMPEL
100
AcDbLine
 10
253.0206255913046
 20
407.0376387863064
 30
0.0
 11
253.0206255913046
 21
402.0628178899427
 31
0.0
  0
LINE
  5
1142
330
2
100
AcDbEntity
  8
STEMPEL
100
AcDbLine
 10
255.9073769372527
 20
407.0376387863064
 30
0.0
 11
255.9073769372527
 21
402.0628178899427
 31
0.0
  0
LINE
  5
1143
330
2
100
AcDbEntity
  8
STEMPEL
100
AcDbLine
 10
255.1338742453565
 20
407.2448982079433
 30
0.0
 11
245.1338742453565
 21
407.2448982079433
 31
0.0
  0
LINE
  5
1144
330
2
100
AcDbEntity
  8
STEMPEL
100
AcDbLine
 10
252.5203742453565
 20
388.6448982079433
 30
0.0
 11
247.7473742453565
 21
388.6448982079433
 31
0.0
  0
LINE
  5
1145
330
2
100
AcDbEntity
  8
STEMPEL
100
AcDbLine
 10
253.1338742453565
 20
389.2583982079433
 30
0.0
 11
247.1338742453565
 21
389.2583982079433
 31
0.0
  0
LINE
  5
1146
330
2
100
AcDbEntity
  8
STEMPEL
100
AcDbLine
 10
244.3603715534602
 20
402.0628178899427
 30
0.0
 11
243.3957631665273
 21
401.7117291493756
 31
0.0
  0
LINE
  5
1147
330
2
100
AcDbEntity
  8
STEMPEL
100
AcDbLine
 10
256.8719853241856
 20
401.7117291493756
 30
0.0
 11
255.9073769372527
 21
402.0628178899427
 31
0.0
  0
ARC
  5
1148
330
2
100
AcDbEntity
  8
STEMPEL
100
AcDbCircle
 10
256.6838742453565
 20
401.1948982079432
 30
0.0
 40
0.5500000000000009
100
AcDbArc
 50
270.0
 51
69.99999999999783
  0
ARC
  5
1149
330
2
100
AcDbEntity
  8
STEMPEL
100
AcDbCircle
 10
243.5838742453565
 20
401.1948982079432
 30
0.0
 40
0.5500000000000003
100
AcDbArc
 50
110.0000000000022
 51
270.0
  0
LINE
  5
114A
330
2
100
AcDbEntity
  8
STEMPEL
100
AcDbLine
 10
247.1338742453565
 20
389.2583982079433
 30
0.0
 11
247.7473742453565
 21
388.6448982079433
 31
0.0
  0
LINE
  5
114B
330
2
100
AcDbEntity
  8
STEMPEL
100
AcDbLine
 10
252.5203742453565
 20
388.6448982079433
 30
0.0
 11
253.1338742453564
 21
389.2583982079433
 31
0.0
  0
LINE
  5
114C
330
2
100
AcDbEntity
  8
STEMPEL
100
AcDbLine
 10
247.1338742453565
 20
400.6448982079432
 30
0.0
 11
247.1338742453565
 21
389.2583982079433
 31
0.0
  0
LINE
  5
114D
330
2
100
AcDbEntity
  8
STEMPEL
100
AcDbLine
 10
253.1338742453564
 20
389.2583982079433
 30
0.0
 11
253.1338742453565
 21
400.6448982079432
 31
0.0
  0
LINE
  5
114E
330
2
100
AcDbEntity
  8
TEXT
 62
     2
100
AcDbLine
 10
662.1522991128052
 20
509.1880347672472
 30
0.0
 11
765.4257086487636
 21
509.1880347672472
 31
0.0
  0
TEXT
  5
114F
330
2
100
AcDbEntity
  8
TEXT
 62
     1
100
AcDbText
 10
662.4176762504291
 20
512.5238830481313
 30
0.0
 40
7.0
  1
Siebkorb
 41
0.8
  7
GREEKS
100
AcDbText
  0
TEXT
  5
1150
330
2
100
AcDbEntity
  8
TEXT
 62
     1
100
AcDbText
 10
662.4176762504291
 20
499.2473574977654
 30
0.0
 40
7.0
  1
EDV-Art.Nr. 21004.000X
 41
0.8
  7
GREEKS
100
AcDbText
  0
DIMENSION
  5
1151
330
2
100
AcDbEntity
  8
BEM
100
AcDbDimension
  2
*D6
 10
199.8685873352894
 20
384.6448982079427
 30
0.0
 11
193.3685873352893
 21
392.1448982079427
 31
0.0
 70
    32
 71
     5
 42
14.99999999999988
  3
STANDARD
100
AcDbAlignedDimension
 13
242.1338742453564
 23
399.6448982079426
 33
0.0
 14
237.1338742453565
 24
384.6448982079427
 34
0.0
 50
90.0
100
AcDbRotatedDimension
1001
ACAD
1000
DSTYLE
1002
{
1070
    40
1040
2.0
1070
    41
1040
3.5
1070
    42
1040
1.0
1070
    43
1040
7.0
1070
    44
1040
1.0
1070
    73
1070
     0
1070
    74
1070
     0
1070
    77
1070
     1
1070
    78
1070
     8
1070
    79
1070
     2
1070
   140
1040
3.5
1070
   141
1040
1.5
1070
   146
1040
0.5142857142857144
1070
   147
1040
1.5
1070
   172
1070
     1
1070
   178
1070
     1
1070
   179
1070
     2
1070
   271
1070
     2
1070
   272
1070
     2
1070
   284
1070
     8
1070
   285
1070
     8
1070
   286
1070
     8
1002
}
  0
DIMENSION
  5
1153
330
2
100
AcDbEntity
  8
BEM
100
AcDbDimension
  2
*D7
 10
482.1338742453568
 20
505.383866623892
 30
0.0
 11
372.1338742453568
 21
511.8838666238921
 31
0.0
 70
    32
  1
%%c<>
 71
     5
 42
220.0000000000002
  3
STANDARD
100
AcDbAlignedDimension
 13
262.1338742453566
 23
469.644840240627
 33
0.0
 14
482.1338742453568
 24
469.644840240627
 34
0.0
100
AcDbRotatedDimension
1001
ACAD
1000
DSTYLE
1002
{
1070
    40
1040
2.0
1070
    41
1040
3.5
1070
    42
1040
1.0
1070
    43
1040
7.0
1070
    44
1040
1.0
1070
    73
1070
     0
1070
    74
1070
     0
1070
    77
1070
     1
1070
    78
1070
     8
1070
    79
1070
     2
1070
   140
1040
3.5
1070
   141
1040
1.5
1070
   146
1040
0.5142857142857144
1070
   147
1040
1.5
1070
   172
1070
     1
1070
   178
1070
     1
1070
   179
1070
     2
1070
   271
1070
     2
1070
   272
1070
     2
1070
   284
1070
     8
1070
   285
1070
     8
1070
   286
1070
     8
1002
}
  0
DIMENSION
  5
1154
330
2
100
AcDbEntity
  8
BEM
100
AcDbDimension
  2
*D8
 10
199.8685873352894
 20
489.6448982079418
 30
0.0
 11
193.3685873352893
 21
444.6448982079423
 31
0.0
 70
    32
 71
     5
 42
89.9999999999992
  3
STANDARD
100
AcDbAlignedDimension
 13
242.1338742453567
 23
399.6448982079426
 33
0.0
 14
292.1338742453567
 24
489.6448982079418
 34
0.0
 50
90.0
100
AcDbRotatedDimension
1001
ACAD
1000
DSTYLE
1002
{
1070
    40
1040
2.0
1070
    41
1040
3.5
1070
    42
1040
1.0
1070
    43
1040
7.0
1070
    44
1040
1.0
1070
    73
1070
     0
1070
    74
1070
     0
1070
    77
1070
     1
1070
    78
1070
     8
1070
    79
1070
     2
1070
   140
1040
3.5
1070
   141
1040
1.5
1070
   146
1040
0.5142857142857144
1070
   147
1040
1.5
1070
   172
1070
     1
1070
   178
1070
     1
1070
   179
1070
     2
1070
   271
1070
     2
1070
   272
1070
     2
1070
   284
1070
     8
1070
   285
1070
     8
1070
   286
1070
     8
1002
}
  0
TEXT
  5
1155
330
2
100
AcDbEntity
  8
TEXT
 62
     1
100
AcDbText
 10
657.7835231349524
 20
397.3427960650062
 30
0.0
 40
7.0
  1
EDV-Art.Nr. 17014.100X
 41
0.8
  7
GREEKS
100
AcDbText
  0
TEXT
  5
1156
330
2
100
AcDbEntity
  8
TEXT
 62
     1
100
AcDbText
 10
657.7835231349524
 20
410.619321615372
 30
0.0
 40
7.0
  1
Losflansch DN100
 41
0.8
  7
GREEKS
100
AcDbText
  0
LINE
  5
1157
330
2
100
AcDbEntity
  8
TEXT
 62
     2
100
AcDbLine
 10
657.5181459973284
 20
407.283473334488
 30
0.0
 11
760.791555533287
 21
407.283473334488
 31
0.0
  0
LINE
  5
1158
330
2
100
AcDbEntity
  8
STEMPEL
100
AcDbLine
 10
507.1338742453563
 20
384.6448982079434
 30
0.0
 11
237.1338742453565
 21
384.6448982079428
 31
0.0
  0
LINE
  5
1159
330
2
100
AcDbEntity
  8
STEMPEL
100
AcDbLine
 10
255.1338742453565
 20
399.6448982079426
 30
0.0
 11
245.1338742453565
 21
399.6448982079426
 31
0.0
  0
LINE
  5
115A
330
2
100
AcDbEntity
  8
STEMPEL
100
AcDbLine
 10
245.1338742453565
 20
384.6448982079426
 30
0.0
 11
245.1338742453565
 21
399.6448982079426
 31
0.0
  0
LINE
  5
115B
330
2
100
AcDbEntity
  8
STEMPEL
100
AcDbLine
 10
255.1338742453565
 20
384.6448982079426
 30
0.0
 11
255.1338742453565
 21
399.6448982079426
 31
0.0
  0
LINE
  5
115C
330
2
100
AcDbEntity
  8
HILF
100
AcDbLine
 10
247.1338742453565
 20
386.6448982079426
 30
0.0
 11
247.1338742453565
 21
389.2583982079433
 31
0.0
  0
LINE
  5
115D
330
2
100
AcDbEntity
  8
HILF
100
AcDbLine
 10
253.1338742453565
 20
386.6448982079426
 30
0.0
 11
253.1338742453565
 21
389.2583982079433
 31
0.0
  0
LINE
  5
115E
330
2
100
AcDbEntity
  8
STEMPEL
100
AcDbLine
 10
253.1338742453565
 20
386.6448982079424
 30
0.0
 11
247.1338742453565
 21
386.6448982079426
 31
0.0
  0
LINE
  5
115F
330
2
100
AcDbEntity
  8
STEMPEL
100
AcDbLine
 10
252.1338742453565
 20
385.6448982079422
 30
0.0
 11
252.1338742453565
 21
388.6448982079434
 31
0.0
  0
LINE
  5
1160
330
2
100
AcDbEntity
  8
STEMPEL
100
AcDbLine
 10
248.1338742453565
 20
385.6448982079424
 30
0.0
 11
248.1338742453565
 21
388.6448982079434
 31
0.0
  0
LINE
  5
1161
330
2
100
AcDbEntity
  8
STEMPEL
100
AcDbLine
 10
252.1338742453565
 20
385.6448982079426
 30
0.0
 11
248.1338742453565
 21
385.6448982079426
 31
0.0
  0
LINE
  5
1162
330
2
100
AcDbEntity
  8
STEMPEL
100
AcDbLine
 10
248.1338742453565
 20
385.6448982079426
 30
0.0
 11
250.1338742453565
 21
385.1089998230803
 31
0.0
  0
LINE
  5
1163
330
2
100
AcDbEntity
  8
STEMPEL
100
AcDbLine
 10
252.1338742453565
 20
385.6448982079426
 30
0.0
 11
250.1338742453565
 21
385.1089998230803
 31
0.0
  0
LINE
  5
1164
330
2
100
AcDbEntity
  8
MITTEL
100
AcDbLine
 10
250.1338742453565
 20
378.1448982079429
 30
0.0
 11
250.1338742453565
 21
412.2448982079433
 31
0.0
  0
LINE
  5
1165
330
2
100
AcDbEntity
  8
STEMPEL
100
AcDbLine
 10
438.1338742453564
 20
384.6448982079427
 30
0.0
 11
438.1338742453564
 21
399.6448982079428
 31
0.0
  0
LINE
  5
1166
330
2
100
AcDbEntity
  8
STEMPEL
100
AcDbLine
 10
428.1338742453565
 20
384.6448982079427
 30
0.0
 11
428.1338742453565
 21
399.6448982079428
 31
0.0
  0
LINE
  5
1167
330
2
100
AcDbEntity
  8
STEMPEL
100
AcDbLine
 10
438.1338742453564
 20
399.6448982079428
 30
0.0
 11
428.1338742453565
 21
399.6448982079428
 31
0.0
  0
LINE
  5
123F
330
2
100
AcDbEntity
  8
HILF
100
AcDbLine
 10
422.1948966416491
 20
334.64595241551
 30
0.0
 11
423.8418445541187
 21
334.6459524155101
 31
0.0
  0
LINE
  5
1240
330
2
100
AcDbEntity
  8
STEMPEL
100
AcDbLine
 10
422.9338742453564
 20
381.2263139209043
 30
0.0
 11
432.1262345702701
 21
381.2263139209044
 31
0.0
  0
LINE
  5
1241
330
2
100
AcDbEntity
  8
STEMPEL
100
AcDbLine
 10
411.593424680824
 20
381.2263139209041
 30
0.0
 11
418.4310901094439
 21
381.2263139209041
 31
0.0
  0
LINE
  5
1242
330
2
100
AcDbEntity
  8
STEMPEL
100
AcDbLine
 10
364.1769053273634
 20
381.2263139209026
 30
0.0
 11
372.1338742453565
 21
381.2263139209028
 31
0.0
  0
LINE
  5
1243
330
2
100
AcDbEntity
  8
STEMPEL
100
AcDbLine
 10
325.8366583812693
 20
381.2263139209014
 30
0.0
 11
332.6743238098887
 21
381.2263139209017
 31
0.0
  0
LINE
  5
1244
330
2
100
AcDbEntity
  8
STEMPEL
100
AcDbLine
 10
327.1885417471902
 20
371.2263139209008
 30
0.0
 11
330.6447982729903
 21
371.2263139209008
 31
0.0
  0
LINE
  5
1245
330
2
100
AcDbEntity
  8
STEMPEL
100
AcDbLine
 10
367.5902306429879
 20
371.2263139209008
 30
0.0
 11
372.1338742453565
 21
371.2263139209008
 31
0.0
  0
LINE
  5
1246
330
2
100
AcDbEntity
  8
STEMPEL
100
AcDbLine
 10
413.6229502177226
 20
371.2263139209008
 30
0.0
 11
417.0792067435228
 21
371.2263139209008
 31
0.0
  0
LINE
  5
1247
330
2
100
AcDbEntity
  8
STEMPEL
100
AcDbLine
 10
422.9338742453565
 20
371.2263139209009
 30
0.0
 11
427.4339649371492
 21
371.2263139209008
 31
0.0
  0
HATCH
  5
129A
330
2
100
AcDbEntity
  8
SCHRAFF
100
AcDbHatch
 10
0.0
 20
0.0
 30
0.0
210
0.0
220
0.0
230
1.0
  2
NET
 70
     0
 71
     0
 91
        4
 92
        7
 72
     1
 73
     1
 93
       19
 10
422.9338742453564
 20
352.226313920901
 42
0.0
 10
426.6338742453568
 20
352.226313920901
 42
0.0
 10
428.3659250529259
 20
351.2263139209009
 42
0.0
 10
434.1338742453562
 20
351.2263139209008
 42
0.0
 10
440.675131813558
 20
362.5561043744203
 42
0.1638766063561361
 10
440.8011622551079
 20
363.1819026245589
 42
0.0
 10
440.5746727971524
 20
364.9680180150643
 42
0.0
 10
440.3950748142032
 20
365.8919695395058
 42
0.4420454759427205
 10
436.9736985673967
 20
367.2949879454116
 42
-0.2419833741269512
 10
436.0597634572317
 20
367.3238424418996
 42
-0.2492603645242805
 10
435.0374388413523
 20
368.8985233297479
 42
0.0
 10
434.1186239664536
 20
379.4006254063963
 42
0.3888787318534325
 10
432.1262345702701
 20
381.2263139209044
 42
0.0
 10
430.1415139204433
 20
381.2263139209044
 42
0.3888787318529573
 10
428.14912452426
 20
379.4006254063997
 42
0.0
 10
427.4339649371492
 20
371.2263139209008
 42
0.0
 10
427.2291819953439
 20
371.2263139209008
 42
0.3639702342662061
 10
424.7671626128132
 20
369.1604343650683
 42
0.0
 10
422.9338742453564
 20
358.7633393765937
 42
0.0
 97
        0
 92
       22
 72
     0
 73
     1
 93
        4
 10
430.1338742453567
 20
379.2263139209011
 10
432.1338742453567
 20
379.2263139209011
 10
432.1338742453566
 20
356.2263139209011
 10
430.1338742453567
 20
356.2263139209012
 97
        0
 92
        7
 72
     1
 73
     1
 93
       19
 10
319.5005858779001
 20
369.1604343650681
 42
0.3639702342662212
 10
317.0385664953695
 20
371.2263139209008
 42
0.0
 10
316.8337835535642
 20
371.2263139209008
 42
0.0
 10
316.1186239664534
 20
379.4006254063963
 42
0.3888787318530051
 10
314.1262345702699
 20
381.2263139209011
 42
0.0
 10
312.1415139204432
 20
381.226313920901
 42
0.3888787318530103
 10
310.1491245242595
 20
379.4006254063963
 42
0.0
 10
309.2303096493608
 20
368.8985233297479
 42
-0.249260364524276
 10
308.2079850334813
 20
367.3238424418997
 42
-0.2419833741269896
 10
307.2940499233161
 20
367.2949879454116
 42
0.4420454759427363
 10
303.8726736765096
 20
365.8919695395057
 42
0.0
 10
303.6930756935605
 20
364.9680180150649
 42
0.0
 10
303.466586235605
 20
363.181902624559
 42
0.1638766063561368
 10
303.592616677155
 20
362.5561043744204
 42
0.0
 10
310.1338742453564
 20
351.2263139209008
 42
0.0
 10
315.9018234377874
 20
351.2263139209008
 42
0.0
 10
317.6338742453566
 20
352.226313920901
 42
0.0
 10
321.3338742453565
 20
352.226313920901
 42
0.0
 10
321.3338742453565
 20
358.7633393765952
 42
0.0
 97
        0
 92
       22
 72
     0
 73
     1
 93
        4
 10
314.1338742453564
 20
356.226313920901
 10
312.1338742453565
 20
356.226313920901
 10
312.1338742453565
 20
379.2263139209008
 10
314.1338742453565
 20
379.2263139209008
 97
        0
 75
     0
 76
     1
 52
45.0
 41
20.0
 77
     0
 78
     2
 53
45.0
 43
-16.31659144842297
 44
26.26836233206996
 45
-1.767766952966368
 46
1.767766952966368
 79
     0
 53
135.0
 43
-16.31659144842297
 44
26.26836233206996
 45
-1.767766952966368
 46
-1.767766952966368
 79
     0
 47
0.1637201261872327
 98
        4
 10
427.5184664743947
 20
357.4408071435239
 10
427.5184664743947
 20
357.4408071435239
 10
318.604975560972
 20
361.6975300747454
 10
318.604975560972
 20
361.6975300747454
  0
LINE
  5
1367
330
2
100
AcDbEntity
  8
TEXT
 62
     2
100
AcDbLine
 10
447.9638990148107
 20
237.2355882572327
 30
0.0
 11
510.7358951724448
 21
219.791877954159
 31
0.0
  0
LINE
  5
1368
330
2
100
AcDbEntity
  8
TEXT
 62
     2
100
AcDbLine
 10
510.7358951724448
 20
219.791877954159
 30
0.0
 11
618.2405615860688
 21
219.7918779541589
 31
0.0
  0
TEXT
  5
1369
330
2
100
AcDbEntity
  8
TEXT
 62
     1
100
AcDbText
 10
512.756529276465
 20
223.5148312539655
 30
0.0
 40
7.0
  1
Wärmedämmung DN100
 41
0.8
  7
GREEKS
100
AcDbText
  0
TEXT
  5
136A
330
2
100
AcDbEntity
  8
TEXT
 62
     1
100
AcDbText
 10
512.756529276465
 20
209.3019215230353
 30
0.0
 40
7.0
  1
EDV-Art.Nr. 19842.100X
 41
0.8
  7
GREEKS
100
AcDbText
  0
DIMENSION
  5
136B
330
2
100
AcDbEntity
  8
BEM
100
AcDbDimension
  2
*D9
 10
452.1338742453563
 20
74.07185888409223
 30
0.0
 11
372.1338742453564
 21
80.57185888409224
 31
0.0
 70
    32
  1
%%c<>
 71
     5
 42
159.9999999999999
  3
STANDARD
100
AcDbAlignedDimension
 13
292.1338742453565
 23
218.1448982079437
 33
0.0
 14
452.1338742453563
 24
218.1448982079432
 34
0.0
100
AcDbRotatedDimension
1001
ACAD
1000
DSTYLE
1002
{
1070
    40
1040
2.0
1070
    41
1040
3.5
1070
    42
1040
1.0
1070
    43
1040
7.0
1070
    44
1040
1.0
1070
    73
1070
     0
1070
    74
1070
     0
1070
    77
1070
     1
1070
    78
1070
     8
1070
    79
1070
     2
1070
   140
1040
3.5
1070
   141
1040
1.5
1070
   146
1040
0.5142857142857144
1070
   147
1040
1.5
1070
   172
1070
     1
1070
   178
1070
     1
1070
   179
1070
     2
1070
   271
1070
     2
1070
   272
1070
     2
1070
   284
1070
     8
1070
   285
1070
     8
1070
   286
1070
     8
1002
}
  0
LINE
  5
136C
330
2
100
AcDbEntity
  8
STEMPEL
100
AcDbLine
 10
467.1338742453563
 20
378.1448982079437
 30
0.0
 11
452.3888721710364
 21
220.8648760818643
 31
0.0
  0
ARC
  5
136D
330
2
100
AcDbEntity
  8
STEMPEL
100
AcDbCircle
 10
449.4019694928585
 20
221.1448982079435
 30
0.0
 40
3.0
100
AcDbArc
 50
270.0
 51
354.6441749571445
  0
LINE
  5
136E
330
2
100
AcDbEntity
  8
STEMPEL
100
AcDbLine
 10
433.1338742453564
 20
218.144898207943
 30
0.0
 11
449.4019694928585
 21
218.144898207943
 31
0.0
  0
LINE
  5
1370
330
2
100
AcDbEntity
  8
STEMPEL
100
AcDbLine
 10
433.1338742453564
 20
236.344898207943
 30
0.0
 11
434.6338742453563
 21
238.144898207943
 31
0.0
  0
LINE
  5
1371
330
2
100
AcDbEntity
  8
STEMPEL
100
AcDbLine
 10
434.6338742453564
 20
308.1448982079426
 30
0.0
 11
434.6338742453563
 21
238.144898207943
 31
0.0
  0
LINE
  5
1373
330
2
100
AcDbEntity
  8
STEMPEL
100
AcDbLine
 10
434.6338742453563
 20
328.1448982079435
 30
0.0
 11
445.6338742453562
 21
328.1448982079435
 31
0.0
  0
LINE
  5
1374
330
2
100
AcDbEntity
  8
STEMPEL
100
AcDbLine
 10
445.6338742453562
 20
328.1448982079435
 30
0.0
 11
445.6338742453564
 21
373.1448982079437
 31
0.0
  0
LINE
  5
1375
330
2
100
AcDbEntity
  8
STEMPEL
100
AcDbLine
 10
445.6338742453562
 20
328.1448982079435
 30
0.0
 11
434.6338742453564
 21
308.1448982079426
 31
0.0
  0
LINE
  5
1376
330
2
100
AcDbEntity
  8
STEMPEL
100
AcDbLine
 10
444.4694324680241
 20
373.1448982079436
 30
0.0
 11
445.6338742453564
 21
373.1448982079437
 31
0.0
  0
LINE
  5
1377
330
2
100
AcDbEntity
  8
STEMPEL
100
AcDbLine
 10
452.1338742453564
 20
378.1448982079437
 30
0.0
 11
445.6338742453564
 21
373.1448982079437
 31
0.0
  0
LINE
  5
1378
330
2
100
AcDbEntity
  8
STEMPEL
100
AcDbLine
 10
309.6338742453564
 20
238.1448982079436
 30
0.0
 11
321.0709095867493
 21
238.1448982079435
 31
0.0
  0
LINE
  5
1379
330
2
100
AcDbEntity
  8
STEMPEL
100
AcDbLine
 10
309.6338742453564
 20
308.1448982079434
 30
0.0
 11
309.6338742453564
 21
238.1448982079436
 31
0.0
  0
LINE
  5
137A
330
2
100
AcDbEntity
  8
STEMPEL
100
AcDbLine
 10
321.1338742453565
 20
224.3448982079432
 30
0.0
 11
309.6338742453565
 21
238.144898207943
 31
0.0
  0
DIMENSION
  5
137B
330
2
100
AcDbEntity
  8
BEM
100
AcDbDimension
  2
*D10
 10
193.6755981155478
 20
218.1448982079437
 30
0.0
 11
187.1755981155478
 21
298.1448982079434
 31
0.0
 70
    32
 71
     5
 42
159.9999999999992
  3
STANDARD
100
AcDbAlignedDimension
 13
207.1338742453562
 23
378.1448982079429
 33
0.0
 14
292.1338742453565
 24
218.1448982079437
 34
0.0
 50
270.0
100
AcDbRotatedDimension
1001
ACAD
1000
DSTYLE
1002
{
1070
    40
1040
2.0
1070
    41
1040
3.5
1070
    42
1040
1.0
1070
    43
1040
7.0
1070
    44
1040
1.0
1070
    73
1070
     0
1070
    74
1070
     0
1070
    77
1070
     1
1070
    78
1070
     8
1070
    79
1070
     2
1070
   140
1040
3.5
1070
   141
1040
1.5
1070
   146
1040
0.5142857142857144
1070
   147
1040
1.5
1070
   172
1070
     1
1070
   178
1070
     1
1070
   179
1070
     2
1070
   271
1070
     2
1070
   272
1070
     2
1070
   284
1070
     8
1070
   285
1070
     8
1070
   286
1070
     8
1002
}
  0
LINE
  5
137C
330
2
100
AcDbEntity
  8
STEMPEL
100
AcDbLine
 10
294.8657789978542
 20
218.1448982079435
 30
0.0
 11
321.1338742453565
 21
218.1448982079435
 31
0.0
  0
ARC
  5
137D
330
2
100
AcDbEntity
  8
STEMPEL
100
AcDbCircle
 10
294.8657789978542
 20
221.1448982079435
 30
0.0
 40
3.0
100
AcDbArc
 50
185.3558250428554
 51
270.0
  0
LINE
  5
137E
330
2
100
AcDbEntity
  8
STEMPEL
100
AcDbLine
 10
277.1338742453564
 20
378.1448982079437
 30
0.0
 11
291.8788763196764
 21
220.8648760818643
 31
0.0
  0
LINE
  5
137F
330
2
100
AcDbEntity
  8
STEMPEL
100
AcDbLine
 10
298.6338742453567
 20
328.1448982079435
 30
0.0
 11
310.6338742453565
 21
328.1448982079435
 31
0.0
  0
LINE
  5
1380
330
2
100
AcDbEntity
  8
STEMPEL
100
AcDbLine
 10
309.6338742453564
 20
308.1448982079434
 30
0.0
 11
315.6338742453566
 21
308.1448982079434
 31
0.0
  0
LINE
  5
1381
330
2
100
AcDbEntity
  8
STEMPEL
100
AcDbLine
 10
298.6338742453567
 20
328.1448982079435
 30
0.0
 11
298.6338742453564
 21
373.1448982079437
 31
0.0
  0
LINE
  5
1382
330
2
100
AcDbEntity
  8
STEMPEL
100
AcDbLine
 10
298.6338742453567
 20
328.1448982079435
 30
0.0
 11
309.6338742453564
 21
308.1448982079434
 31
0.0
  0
LINE
  5
1383
330
2
100
AcDbEntity
  8
STEMPEL
100
AcDbLine
 10
298.6338742453564
 20
373.1448982079437
 30
0.0
 11
299.7983160226887
 21
373.1448982079437
 31
0.0
  0
LINE
  5
1384
330
2
100
AcDbEntity
  8
STEMPEL
100
AcDbLine
 10
292.1338742453564
 20
378.1448982079437
 30
0.0
 11
298.6338742453564
 21
373.1448982079437
 31
0.0
  0
TEXT
  5
1427
330
2
100
AcDbEntity
  8
TEXT
100
AcDbText
 10
654.862987254257
 20
62.0
 30
0.0
 40
5.0
  1
mit Wärmedämmung und Heizung
 41
0.7
100
AcDbText
  0
HATCH
  5
1475
330
2
100
AcDbEntity
  8
SCHRAFF
100
AcDbHatch
 10
0.0
 20
0.0
 30
0.0
210
0.0
220
0.0
230
1.0
  2
NET
 70
     0
 71
     0
 91
        2
 92
        7
 72
     1
 73
     1
 93
        8
 10
433.6338742453564
 20
332.1421523749655
 42
0.4142135623730618
 10
431.6338742453567
 20
334.1421523749655
 42
0.0
 10
430.6338742453564
 20
334.1421523749656
 42
0.4142135623730951
 10
428.6338742453565
 20
332.1421523749656
 42
0.0
 10
428.6338742453565
 20
326.1421523749655
 42
0.4142135623730951
 10
430.6338742453564
 20
324.1421523749655
 42
0.0
 10
431.6338742453565
 20
324.1421523749655
 42
0.4142135623730951
 10
433.6338742453564
 20
326.1421523749655
 42
0.0
 97
        0
 92
       22
 72
     1
 73
     1
 93
        8
 10
432.6338742453565
 20
326.1421523749655
 42
-0.4142135623730951
 10
431.6338742453565
 20
325.1421523749655
 42
0.0
 10
430.6338742453564
 20
325.1421523749655
 42
-0.4142135623730951
 10
429.6338742453564
 20
326.1421523749655
 42
0.0
 10
429.6338742453564
 20
332.1421523749656
 42
-0.4142135623731284
 10
430.6338742453566
 20
333.1421523749656
 42
0.0
 10
431.6338742453565
 20
333.1421523749655
 42
-0.4142135623730951
 10
432.6338742453565
 20
332.1421523749655
 42
0.0
 97
        0
 75
     0
 76
     1
 52
45.0
 41
10.0
 77
     0
 78
     2
 53
45.0
 43
138.3581020918374
 44
-18.9619971605892
 45
-0.8838834764831842
 46
0.8838834764831844
 79
     0
 53
135.0
 43
138.3581020918374
 44
-18.9619971605892
 45
-0.8838834764831844
 46
-0.8838834764831842
 79
     0
 47
0.2432155912222071
 98
        2
 10
433.3463046525095
 20
326.4613277676098
 10
433.3463046525095
 20
326.4613277676098
  0
ARC
  5
1476
330
2
100
AcDbEntity
  8
STEMPEL
100
AcDbCircle
 10
430.6338742453564
 20
332.1421523749656
 30
0.0
 40
2.0
100
AcDbArc
 50
90.0
 51
180.0
  0
ARC
  5
1477
330
2
100
AcDbEntity
  8
STEMPEL
100
AcDbCircle
 10
431.6338742453565
 20
332.1421523749655
 30
0.0
 40
2.0
100
AcDbArc
 50
0.0
 51
90.0
  0
LINE
  5
1478
330
2
100
AcDbEntity
  8
STEMPEL
100
AcDbLine
 10
431.6338742453567
 20
334.1421523749655
 30
0.0
 11
430.6338742453564
 21
334.1421523749656
 31
0.0
  0
ARC
  5
1479
102
{ACAD_REACTORS
330
1484
102
}
330
2
100
AcDbEntity
  8
STEMPEL
100
AcDbCircle
 10
430.6338742453564
 20
326.1421523749655
 30
0.0
 40
1.0
100
AcDbArc
 50
180.0
 51
270.0
  0
ARC
  5
147A
102
{ACAD_REACTORS
330
1484
102
}
330
2
100
AcDbEntity
  8
STEMPEL
100
AcDbCircle
 10
430.6338742453564
 20
332.1421523749656
 30
0.0
 40
1.0
100
AcDbArc
 50
90.0
 51
180.0
  0
ARC
  5
147B
330
2
100
AcDbEntity
  8
STEMPEL
100
AcDbCircle
 10
430.6338742453564
 20
326.1421523749655
 30
0.0
 40
2.0
100
AcDbArc
 50
180.0
 51
270.0
  0
ARC
  5
147C
102
{ACAD_REACTORS
330
1484
102
}
330
2
100
AcDbEntity
  8
STEMPEL
100
AcDbCircle
 10
431.6338742453565
 20
332.1421523749655
 30
0.0
 40
1.0
100
AcDbArc
 50
0.0
 51
90.0
  0
ARC
  5
147D
330
2
100
AcDbEntity
  8
STEMPEL
100
AcDbCircle
 10
431.6338742453565
 20
326.1421523749655
 30
0.0
 40
2.0
100
AcDbArc
 50
270.0
 51
0.0
  0
LINE
  5
147E
330
2
100
AcDbEntity
  8
STEMPEL
100
AcDbLine
 10
430.6338742453564
 20
324.1421523749655
 30
0.0
 11
431.6338742453565
 21
324.1421523749655
 31
0.0
  0
ARC
  5
147F
102
{ACAD_REACTORS
330
1484
102
}
330
2
100
AcDbEntity
  8
STEMPEL
100
AcDbCircle
 10
431.6338742453565
 20
326.1421523749655
 30
0.0
 40
1.0
100
AcDbArc
 50
270.0
 51
0.0
  0
LINE
  5
1480
102
{ACAD_REACTORS
330
1484
102
}
330
2
100
AcDbEntity
  8
STEMPEL
100
AcDbLine
 10
430.6338742453564
 20
325.1421523749655
 30
0.0
 11
431.6338742453565
 21
325.1421523749655
 31
0.0
  0
LINE
  5
1481
102
{ACAD_REACTORS
330
1484
102
}
330
2
100
AcDbEntity
  8
STEMPEL
100
AcDbLine
 10
430.6338742453564
 20
333.1421523749656
 30
0.0
 11
431.6338742453565
 21
333.1421523749655
 31
0.0
  0
LINE
  5
1482
102
{ACAD_REACTORS
330
1484
102
}
330
2
100
AcDbEntity
  8
STEMPEL
  6
Continuous
100
AcDbLine
 10
432.6338742453565
 20
332.1421523749655
 30
0.0
 11
432.6338742453565
 21
326.1421523749655
 31
0.0
  0
LINE
  5
1483
102
{ACAD_REACTORS
330
1484
102
}
330
2
100
AcDbEntity
  8
STEMPEL
  6
Continuous
100
AcDbLine
 10
429.6338742453564
 20
332.1421523749656
 30
0.0
 11
429.6338742453564
 21
326.1421523749655
 31
0.0
  0
HATCH
  5
1484
330
2
100
AcDbEntity
  8
SCHRAFF
100
AcDbHatch
 10
0.0
 20
0.0
 30
0.0
210
0.0
220
0.0
230
1.0
  2
_USER
 70
     0
 71
     1
 91
        1
 92
        7
 72
     1
 73
     1
 93
        8
 10
432.6338742453565
 20
332.1421523749655
 42
0.4142135623730951
 10
431.6338742453565
 20
333.1421523749655
 42
0.0
 10
430.6338742453564
 20
333.1421523749656
 42
0.4142135623730951
 10
429.6338742453564
 20
332.1421523749656
 42
0.0
 10
429.6338742453564
 20
326.1421523749655
 42
0.4142135623730951
 10
430.6338742453564
 20
325.1421523749655
 42
0.0
 10
431.6338742453565
 20
325.1421523749655
 42
0.4142135623730951
 10
432.6338742453565
 20
326.1421523749655
 42
0.0
 97
        8
330
147C
330
1481
330
147A
330
1483
330
1479
330
1480
330
147F
330
1482
 75
     0
 76
     0
 52
135.0
 41
1.0
 77
     0
 78
     1
 53
135.0
 43
170.7039554935147
 44
-50.26496159537062
 45
-0.7071067811865476
 46
-0.7071067811865475
 79
     0
 47
0.1071053300341939
 98
        1
 10
431.1990242571488
 20
328.9182278085422
  0
LINE
  5
1485
330
2
100
AcDbEntity
  8
STEMPEL
  6
Continuous
100
AcDbLine
 10
433.6338742453564
 20
332.1421523749655
 30
0.0
 11
433.6338742453564
 21
326.1421523749655
 31
0.0
  0
ARC
  5
1486
330
2
100
AcDbEntity
  8
STEMPEL
100
AcDbCircle
 10
431.6338742453564
 20
331.1421523749655
 30
0.0
 40
3.0
100
AcDbArc
 50
0.0
 51
89.99999999999349
  0
LINE
  5
1487
330
2
100
AcDbEntity
  8
STEMPEL
100
AcDbLine
 10
434.6338742453564
 20
331.1421523749655
 30
0.0
 11
434.6338742453563
 21
238.144898207943
 31
0.0
  0
LINE
  5
1488
102
{ACAD_REACTORS
330
1499
102
}
330
2
100
AcDbEntity
  8
STEMPEL
  6
Continuous
100
AcDbLine
 10
310.6338742453565
 20
332.1421523749655
 30
0.0
 11
310.6338742453565
 21
326.1421523749655
 31
0.0
  0
HATCH
  5
1489
330
2
100
AcDbEntity
  8
SCHRAFF
100
AcDbHatch
 10
0.0
 20
0.0
 30
0.0
210
0.0
220
0.0
230
1.0
  2
_USER
 70
     0
 71
     1
 91
        1
 92
        7
 72
     1
 73
     1
 93
        8
 10
311.6338742453565
 20
326.1421523749655
 42
0.4142135623730951
 10
312.6338742453565
 20
325.1421523749655
 42
0.0
 10
313.6338742453565
 20
325.1421523749655
 42
0.4142135623730951
 10
314.6338742453565
 20
326.1421523749655
 42
0.0
 10
314.6338742453565
 20
332.1421523749656
 42
0.4142135623731283
 10
313.6338742453564
 20
333.1421523749656
 42
0.0
 10
312.6338742453565
 20
333.1421523749655
 42
0.4142135623730951
 10
311.6338742453565
 20
332.1421523749655
 42
0.0
 97
        8
330
1491
330
148C
330
1494
330
148A
330
1495
330
148D
330
148E
330
148B
 75
     0
 76
     0
 52
135.0
 41
1.0
 77
     0
 78
     1
 53
135.0
 43
133.172111393675
 44
-115.0118043043131
 45
-0.7071067811865476
 46
-0.7071067811865475
 79
     0
 47
0.1071053300341939
 98
        1
 10
313.0687242335641
 20
328.9182278085422
  0
LINE
  5
148A
102
{ACAD_REACTORS
330
1489
330
1499
102
}
330
2
100
AcDbEntity
  8
STEMPEL
  6
Continuous
100
AcDbLine
 10
314.6338742453565
 20
332.1421523749656
 30
0.0
 11
314.6338742453565
 21
326.1421523749655
 31
0.0
  0
LINE
  5
148B
102
{ACAD_REACTORS
330
1489
330
1499
102
}
330
2
100
AcDbEntity
  8
STEMPEL
  6
Continuous
100
AcDbLine
 10
311.6338742453565
 20
332.1421523749655
 30
0.0
 11
311.6338742453565
 21
326.1421523749655
 31
0.0
  0
LINE
  5
148C
102
{ACAD_REACTORS
330
1489
330
1499
102
}
330
2
100
AcDbEntity
  8
STEMPEL
100
AcDbLine
 10
313.6338742453565
 20
333.1421523749656
 30
0.0
 11
312.6338742453565
 21
333.1421523749655
 31
0.0
  0
LINE
  5
148D
102
{ACAD_REACTORS
330
1489
330
1499
102
}
330
2
100
AcDbEntity
  8
STEMPEL
100
AcDbLine
 10
313.6338742453565
 20
325.1421523749655
 30
0.0
 11
312.6338742453565
 21
325.1421523749655
 31
0.0
  0
ARC
  5
148E
102
{ACAD_REACTORS
330
1489
330
1499
102
}
330
2
100
AcDbEntity
  8
STEMPEL
100
AcDbCircle
 10
312.6338742453565
 20
326.1421523749655
 30
0.0
 40
1.0
100
AcDbArc
 50
180.0
 51
270.0
  0
LINE
  5
148F
102
{ACAD_REACTORS
330
1499
102
}
330
2
100
AcDbEntity
  8
STEMPEL
100
AcDbLine
 10
313.6338742453565
 20
324.1421523749655
 30
0.0
 11
312.6338742453565
 21
324.1421523749655
 31
0.0
  0
ARC
  5
1490
102
{ACAD_REACTORS
330
1499
102
}
330
2
100
AcDbEntity
  8
STEMPEL
100
AcDbCircle
 10
312.6338742453565
 20
326.1421523749655
 30
0.0
 40
2.0
100
AcDbArc
 50
180.0
 51
270.0
  0
ARC
  5
1491
102
{ACAD_REACTORS
330
1489
330
1499
102
}
330
2
100
AcDbEntity
  8
STEMPEL
100
AcDbCircle
 10
312.6338742453565
 20
332.1421523749655
 30
0.0
 40
1.0
100
AcDbArc
 50
90.0
 51
180.0
  0
LINE
  5
1492
102
{ACAD_REACTORS
330
1499
102
}
330
2
100
AcDbEntity
  8
STEMPEL
  6
Continuous
100
AcDbLine
 10
315.6338742453565
 20
332.1421523749656
 30
0.0
 11
315.6338742453565
 21
326.1421523749655
 31
0.0
  0
ARC
  5
1493
102
{ACAD_REACTORS
330
1499
102
}
330
2
100
AcDbEntity
  8
STEMPEL
100
AcDbCircle
 10
313.6338742453565
 20
326.1421523749655
 30
0.0
 40
2.0
100
AcDbArc
 50
270.0
 51
0.0
  0
ARC
  5
1494
102
{ACAD_REACTORS
330
1489
330
1499
102
}
330
2
100
AcDbEntity
  8
STEMPEL
100
AcDbCircle
 10
313.6338742453565
 20
332.1421523749656
 30
0.0
 40
1.0
100
AcDbArc
 50
0.0
 51
90.0
  0
ARC
  5
1495
102
{ACAD_REACTORS
330
1489
330
1499
102
}
330
2
100
AcDbEntity
  8
STEMPEL
100
AcDbCircle
 10
313.6338742453565
 20
326.1421523749655
 30
0.0
 40
1.0
100
AcDbArc
 50
270.0
 51
0.0
  0
LINE
  5
1496
102
{ACAD_REACTORS
330
1499
102
}
330
2
100
AcDbEntity
  8
STEMPEL
100
AcDbLine
 10
312.6338742453565
 20
334.1421523749655
 30
0.0
 11
313.6338742453565
 21
334.1421523749656
 31
0.0
  0
ARC
  5
1497
102
{ACAD_REACTORS
330
1499
102
}
330
2
100
AcDbEntity
  8
STEMPEL
100
AcDbCircle
 10
312.6338742453565
 20
332.1421523749655
 30
0.0
 40
2.0
100
AcDbArc
 50
90.0
 51
180.0
  0
ARC
  5
1498
102
{ACAD_REACTORS
330
1499
102
}
330
2
100
AcDbEntity
  8
STEMPEL
100
AcDbCircle
 10
313.6338742453565
 20
332.1421523749656
 30
0.0
 40
2.0
100
AcDbArc
 50
0.0
 51
90.0
  0
HATCH
  5
1499
330
2
100
AcDbEntity
  8
SCHRAFF
100
AcDbHatch
 10
0.0
 20
0.0
 30
0.0
210
0.0
220
0.0
230
1.0
  2
NET
 70
     0
 71
     1
 91
        2
 92
        7
 72
     1
 73
     1
 93
        8
 10
310.6338742453565
 20
326.1421523749655
 42
0.4142135623730951
 10
312.6338742453565
 20
324.1421523749655
 42
0.0
 10
313.6338742453565
 20
324.1421523749655
 42
0.4142135623730951
 10
315.6338742453565
 20
326.1421523749655
 42
0.0
 10
315.6338742453565
 20
332.1421523749656
 42
0.4142135623730951
 10
313.6338742453565
 20
334.1421523749656
 42
0.0
 10
312.6338742453565
 20
334.1421523749655
 42
0.4142135623730951
 10
310.6338742453565
 20
332.1421523749655
 42
0.0
 97
        8
330
1497
330
1496
330
1498
330
1492
330
1493
330
148F
330
1490
330
1488
 92
       22
 72
     1
 73
     1
 93
        8
 10
311.6338742453565
 20
332.1421523749655
 42
-0.4142135623730951
 10
312.6338742453565
 20
333.1421523749655
 42
0.0
 10
313.6338742453565
 20
333.1421523749656
 42
-0.4142135623730951
 10
314.6338742453565
 20
332.1421523749656
 42
0.0
 10
314.6338742453565
 20
326.1421523749655
 42
-0.4142135623730951
 10
313.6338742453565
 20
325.1421523749655
 42
0.0
 10
312.6338742453565
 20
325.1421523749655
 42
-0.4142135623730951
 10
311.6338742453565
 20
326.1421523749655
 42
0.0
 97
        8
330
148E
330
148D
330
1495
330
148A
330
1494
330
148C
330
1491
330
148B
 75
     0
 76
     1
 52
45.0
 41
10.0
 77
     0
 78
     2
 53
135.0
 43
605.9096463988754
 44
-18.9619971605892
 45
0.883883476483184
 46
0.8838834764831844
 79
     0
 53
45.0
 43
605.9096463988754
 44
-18.9619971605892
 45
0.8838834764831842
 46
-0.8838834764831842
 79
     0
 47
0.2432155912222071
 98
        2
 10
310.9214438382034
 20
326.4613277676098
 10
310.9214438382034
 20
326.4613277676098
  0
POLYLINE
  5
149A
330
2
100
AcDbEntity
  8
STEMPEL
100
AcDb2dPolyline
 66
     1
 10
0.0
 20
0.0
 30
0.0
 70
     4
 75
     6
  0
VERTEX
  5
149B
330
149A
100
AcDbEntity
  8
STEMPEL
100
AcDbVertex
100
AcDb2dVertex
 10
423.1338829231981
 20
216.151254074908
 30
0.0
 70
    16
  0
VERTEX
  5
149C
330
149A
100
AcDbEntity
  8
STEMPEL
100
AcDbVertex
100
AcDb2dVertex
 10
423.1338829231981
 20
216.151254074908
 30
0.0
 70
     8
  0
VERTEX
  5
149D
330
149A
100
AcDbEntity
  8
STEMPEL
100
AcDbVertex
100
AcDb2dVertex
 10
423.7885380268337
 20
209.2296319845733
 30
0.0
 70
     8
  0
VERTEX
  5
149E
330
149A
100
AcDbEntity
  8
STEMPEL
100
AcDbVertex
100
AcDb2dVertex
 10
424.3546065049176
 20
203.7792487799044
 30
0.0
 70
     8
  0
VERTEX
  5
149F
330
149A
100
AcDbEntity
  8
STEMPEL
100
AcDbVertex
100
AcDb2dVertex
 10
424.9260706976877
 20
199.3167537362183
 30
0.0
 70
     8
  0
VERTEX
  5
14A0
330
149A
100
AcDbEntity
  8
STEMPEL
100
AcDbVertex
100
AcDb2dVertex
 10
425.5969129453816
 20
195.3587961288318
 30
0.0
 70
     8
  0
VERTEX
  5
14A1
330
149A
100
AcDbEntity
  8
STEMPEL
100
AcDbVertex
100
AcDb2dVertex
 10
426.4611155882372
 20
191.422025233062
 30
0.0
 70
     8
  0
VERTEX
  5
14A2
330
149A
100
AcDbEntity
  8
STEMPEL
100
AcDbVertex
100
AcDb2dVertex
 10
427.6126609664921
 20
187.0230903242258
 30
0.0
 70
     8
  0
VERTEX
  5
14A3
330
149A
100
AcDbEntity
  8
STEMPEL
100
AcDbVertex
100
AcDb2dVertex
 10
429.145531420384
 20
181.6786406776402
 30
0.0
 70
     8
  0
VERTEX
  5
14A4
330
149A
100
AcDbEntity
  8
STEMPEL
100
AcDbVertex
100
AcDb2dVertex
 10
431.1537092901509
 20
174.9053255686222
 30
0.0
 70
     8
  0
VERTEX
  5
14A5
330
149A
100
AcDbEntity
  8
STEMPEL
100
AcDbVertex
100
AcDb2dVertex
 10
425.0812852249507
 20
195.3022982311873
 30
0.0
 70
    16
  0
VERTEX
  5
14A6
330
149A
100
AcDbEntity
  8
STEMPEL
100
AcDbVertex
100
AcDb2dVertex
 10
431.1537092901509
 20
174.9053255686223
 30
0.0
 70
    16
  0
SEQEND
  5
14A7
330
149A
100
AcDbEntity
  8
STEMPEL
  0
LINE
  5
14A8
330
2
100
AcDbEntity
  8
TEXT
 62
     2
100
AcDbLine
 10
512.0480655091271
 20
189.9874648064058
 30
0.0
 11
433.1072680544159
 21
192.0496360093318
 31
0.0
  0
POLYLINE
  5
14A9
330
2
100
AcDbEntity
  8
STEMPEL
100
AcDb2dPolyline
 66
     1
 10
0.0
 20
0.0
 30
0.0
  0
VERTEX
  5
14AA
330
14A9
100
AcDbEntity
  8
STEMPEL
100
AcDbVertex
100
AcDb2dVertex
 10
433.1338742453564
 20
216.1448982079416
 30
0.0
  0
VERTEX
  5
14AB
330
14A9
100
AcDbEntity
  8
STEMPEL
100
AcDbVertex
100
AcDb2dVertex
 10
433.1284184539954
 20
209.2778071651857
 30
0.0
  0
VERTEX
  5
14AC
330
14A9
100
AcDbEntity
  8
STEMPEL
100
AcDbVertex
100
AcDb2dVertex
 10
433.1958701285586
 20
204.024061051964
 30
0.0
  0
VERTEX
  5
14AD
330
14A9
100
AcDbEntity
  8
STEMPEL
100
AcDbVertex
100
AcDb2dVertex
 10
433.3932938151703
 20
199.9452816520763
 30
0.0
  0
VERTEX
  5
14AE
330
14A9
100
AcDbEntity
  8
STEMPEL
100
AcDbVertex
100
AcDb2dVertex
 10
433.768277004023
 20
196.5141700687143
 30
0.0
  0
VERTEX
  5
14AF
330
14A9
100
AcDbEntity
  8
STEMPEL
100
AcDbVertex
100
AcDb2dVertex
 10
434.3934528611869
 20
193.09431397466
 30
0.0
  0
VERTEX
  5
14B0
330
14A9
100
AcDbEntity
  8
STEMPEL
100
AcDbVertex
100
AcDb2dVertex
 10
435.3815348755601
 20
189.0597830992508
 30
0.0
  0
VERTEX
  5
14B1
330
14A9
100
AcDbEntity
  8
STEMPEL
100
AcDbVertex
100
AcDb2dVertex
 10
436.8355197301189
 20
183.8983014810253
 30
0.0
  0
VERTEX
  5
14B2
330
14A9
100
AcDbEntity
  8
STEMPEL
100
AcDbVertex
100
AcDb2dVertex
 10
438.8249070520867
 20
177.1752869994119
 30
0.0
  0
SEQEND
  5
14B3
330
14A9
100
AcDbEntity
  8
STEMPEL
  0
LINE
  5
14B4
330
2
100
AcDbEntity
  8
MITTEL
100
AcDbLine
 10
441.7016062128126
 20
178.026522535958
 30
0.0
 11
428.2770101294253
 21
174.0540900320761
 31
0.0
  0
LINE
  5
14B5
330
2
100
AcDbEntity
  8
TEXT
 62
     2
100
AcDbLine
 10
512.0480655091271
 20
189.9874648064058
 30
0.0
 11
607.4234026767385
 21
189.9874648064058
 31
0.0
  0
TEXT
  5
14B6
330
2
100
AcDbEntity
  8
TEXT
 62
     1
100
AcDbText
 10
513.8471575035935
 20
194.1326154161176
 30
0.0
 40
7.0
  1
Heizbandkabel
 41
0.8
  7
GREEKS
100
AcDbText
  0
TEXT
  5
14B7
330
2
100
AcDbEntity
  8
TEXT
 62
     1
100
AcDbText
 10
513.8471575035935
 20
179.1699096217511
 30
0.0
 40
7.0
  1
EDV-Art.Nr. 19853.000X
 41
0.7
  7
GREEKS
100
AcDbText
  0
HATCH
  5
14B8
330
2
100
AcDbEntity
  8
SCHRAFF
100
AcDbHatch
 10
0.0
 20
0.0
 30
0.0
210
0.0
220
0.0
230
1.0
  2
HONEY
 70
     0
 71
     0
 91
        2
 92
        7
 72
     1
 73
     1
 93
       11
 10
467.1338742453563
 20
378.144898207943
 42
0.0
 10
452.1338742453556
 20
378.1448982079431
 42
0.0
 10
445.6338742453564
 20
373.1448982079438
 42
0.0
 10
445.6338742453562
 20
328.1448982079435
 42
0.0
 10
434.6338742453563
 20
308.1448982079425
 42
0.0
 10
434.6338742453563
 20
238.1448982079431
 42
0.0
 10
433.2909271781358
 20
236.5333617272784
 42
0.0443949063123995
 10
433.1338742453564
 20
234.7680308710671
 42
0.0
 10
433.1338742453564
 20
218.144898207943
 42
0.0
 10
449.4019694928586
 20
218.144898207943
 42
0.3870924378343482
 10
452.3888721710364
 20
220.8648760818644
 42
0.0
 97
        0
 92
        7
 72
     1
 73
     1
 93
       10
 10
291.8788763196764
 20
220.8648760818644
 42
0.387092437834293
 10
294.8657789978542
 20
218.1448982079436
 42
0.0
 10
321.1338742453565
 20
218.1448982079434
 42
0.0
 10
321.1338742453565
 20
224.3448982079434
 42
0.0
 10
309.6338742453564
 20
238.1448982079431
 42
0.0
 10
309.6338742453564
 20
308.1448982079435
 42
0.0
 10
298.6338742453567
 20
328.1448982079435
 42
0.0
 10
298.6338742453564
 20
373.1448982079436
 42
0.0
 10
292.1338742453573
 20
378.144898207943
 42
0.0
 10
277.1338742453564
 20
378.1448982079429
 42
0.0
 97
        0
 75
     0
 76
     1
 52
0.0
 41
35.0
 77
     0
 78
     3
 53
0.0
 43
133.172111393675
 44
-115.0118043043131
 45
6.5625
 46
3.788861124999999
 79
     2
 49
4.375
 49
-8.75
 53
120.0
 43
133.172111393675
 44
-115.0118043043131
 45
-6.562499985661285
 46
3.788861149835379
 79
     2
 49
4.374999999999996
 49
-8.749999999999992
 53
60.0
 43
133.172111393675
 44
-115.0118043043131
 45
0.000000014338714
 46
7.577722274835378
 79
     2
 49
-8.75
 49
4.375
 47
0.8059790716514736
 98
        2
 10
450.3876825925075
 20
288.3547790689632
 10
296.3934444589808
 20
294.8026114134806
  0
LINE
  5
14B9
330
2
100
AcDbEntity
  8
STEMPEL
100
AcDbLine
 10
433.1338742453564
 20
216.1448982079416
 30
0.0
 11
433.1338742453564
 21
236.3448982079431
 31
0.0
  0
ENDSEC
  0
SECTION
  2
OBJECTS
  0
DICTIONARY
  5
1A
330
0
100
AcDbDictionary
281
     1
  3
ACAD_COLOR
350
B54
  3
ACAD_GROUP
350
18
  3
ACAD_LAYOUT
350
B55
  3
ACAD_MATERIAL
350
B53
  3
ACAD_MLINESTYLE
350
19
  3
ACAD_PLOTSETTINGS
350
B56
  3
ACAD_PLOTSTYLENAME
350
B51
  3
AcDbVariableDictionary
350
C4B
  0
DICTIONARY
  5
B54
102
{ACAD_REACTORS
330
1A
102
}
330
1A
100
AcDbDictionary
281
     1
  0
DICTIONARY
  5
18
102
{ACAD_REACTORS
330
1A
102
}
330
1A
100
AcDbDictionary
281
     1
  0
DICTIONARY
  5
B55
102
{ACAD_REACTORS
330
1A
102
}
330
1A
100
AcDbDictionary
281
     1
  3
Layout1
350
B58
  3
Model
350
B57
  0
DICTIONARY
  5
B53
102
{ACAD_REACTORS
330
1A
102
}
330
1A
100
AcDbDictionary
281
     1
  0
DICTIONARY
  5
19
102
{ACAD_REACTORS
330
1A
102
}
330
1A
100
AcDbDictionary
281
     1
  3
STANDARD
350
1D
  0
DICTIONARY
  5
B56
102
{ACAD_REACTORS
330
1A
102
}
330
1A
100
AcDbDictionary
281
     1
  0
ACDBDICTIONARYWDFLT
  5
B51
102
{ACAD_REACTORS
330
1A
102
}
330
1A
100
AcDbDictionary
281
     1
  3
Normal
350
B52
100
AcDbDictionaryWithDefault
340
B52
  0
DICTIONARY
  5
C4B
102
{ACAD_REACTORS
330
1A
102
}
330
1A
100
AcDbDictionary
281
     1
  3
DIMASSOC
350
C4C
  3
PROJECTNAME
350
C4D
  0
LAYOUT
  5
B58
102
{ACAD_REACTORS
330
B55
102
}
330
B55
100
AcDbPlotSettings
  1

  2
RICOH Aficio 2027 PCL 6
  4

  6

 40
0.0
 41
0.0
 42
0.0
 43
0.0
 44
0.0
 45
0.0
 46
0.0
 47
0.0
 48
0.0
 49
0.0
140
0.0
141
0.0
142
1.0
143
1.0
 70
   688
 72
     0
 73
     0
 74
     5
  7
monochrome1.ctb
 75
    16
147
1.0
 76
     0
 77
     2
 78
   300
148
0.0
149
0.0
100
AcDbLayout
  1
Layout1
 70
     0
 71
     1
 10
0.0
 20
0.0
 11
12.0
 21
9.0
 12
0.0
 22
0.0
 32
0.0
 14
1.000000000000000E+20
 24
1.000000000000000E+20
 34
1.000000000000000E+20
 15
-1.000000000000000E+20
 25
-1.000000000000000E+20
 35
-1.000000000000000E+20
146
0.0
 13
0.0
 23
0.0
 33
0.0
 16
1.0
 26
0.0
 36
0.0
 17
0.0
 27
1.0
 37
0.0
 76
     0
330
7
  0
LAYOUT
  5
B57
102
{ACAD_REACTORS
330
B55
102
}
330
B55
100
AcDbPlotSettings
  1

  2
RICOH Aficio 2027 PCL 6
  4
A4
  6

 40
5.027083396911621
 41
5.027085304260253
 42
5.027084350585937
 43
5.027069091796875
 44
209.9733276367187
 45
296.9259948730469
 46
0.0
 47
0.0
 48
0.0
 49
0.0
140
0.0
141
0.0
142
1.0
143
1.0
 70
 11952
 72
     0
 73
     1
 74
     0
  7
monochrome1.ctb
 75
     0
147
1.0
 76
     0
 77
     2
 78
   300
148
-3033.802295558639
149
90.39774808860057
100
AcDbLayout
  1
Model
 70
     1
 71
     0
 10
0.0
 20
0.0
 11
12.0
 21
9.0
 12
0.0
 22
0.0
 32
0.0
 14
0.0
 24
0.0
 34
0.0
 15
0.0
 25
0.0
 35
0.0
146
0.0
 13
0.0
 23
0.0
 33
0.0
 16
1.0
 26
0.0
 36
0.0
 17
0.0
 27
1.0
 37
0.0
 76
     0
330
2
  0
MLINESTYLE
  5
1D
102
{ACAD_REACTORS
330
19
102
}
330
19
100
AcDbMlineStyle
  2
STANDARD
 70
     0
  3

 62
   256
 51
90.0
 52
90.0
 71
     2
 49
0.5
 62
   256
  6
BYLAYER
 49
-0.5
 62
   256
  6
BYLAYER
  0
ACDBPLACEHOLDER
  5
B52
102
{ACAD_REACTORS
330
B51
102
}
330
B51
  0
DICTIONARYVAR
  5
C4C
102
{ACAD_REACTORS
330
C4B
102
}
330
C4B
100
DictionaryVariables
280
     0
  1
1
  0
DICTIONARYVAR
  5
C4D
102
{ACAD_REACTORS
330
C4B
102
}
330
C4B
100
DictionaryVariables
280
     0
  1

  0
ENDSEC
  0
EOF
