  0
SECTION
  2
HEADER
  9
$ACADVER
  1
AC1018
  9
$ACADMAINTVER
 70
     2
  9
$DWGCODEPAGE
  3
ANSI_1252
  9
$INSBASE
 10
0.0
 20
0.0
 30
0.0
  9
$EXTMIN
 10
-0.0000000000001705
 20
-0.0000000000002824
 30
0.0
  9
$EXTMAX
 10
840.0
 20
594.0000000000002
 30
0.0
  9
$LIMMIN
 10
0.0
 20
0.0
  9
$LIMMAX
 10
839.9999999999998
 20
594.0000000000002
  9
$ORTHOMODE
 70
     0
  9
$REGENMODE
 70
     1
  9
$FILLMODE
 70
     1
  9
$QTEXTMODE
 70
     0
  9
$MIRRTEXT
 70
     1
  9
$LTSCALE
 40
20.0
  9
$ATTMODE
 70
     1
  9
$TEXTSIZE
 40
3.5
  9
$TRACEWID
 40
0.5
  9
$TEXTSTYLE
  7
STANDARD
  9
$CLAYER
  8
SCHRAFF
  9
$CELTYPE
  6
BYLAYER
  9
$CECOLOR
 62
   256
  9
$CELTSCALE
 40
1.0
  9
$DISPSILH
 70
     0
  9
$DIMSCALE
 40
2.0
  9
$DIMASZ
 40
3.5
  9
$DIMEXO
 40
1.0
  9
$DIMDLI
 40
7.0
  9
$DIMRND
 40
0.0
  9
$DIMDLE
 40
0.0
  9
$DIMEXE
 40
1.0
  9
$DIMTP
 40
0.0
  9
$DIMTM
 40
0.0
  9
$DIMTXT
 40
3.5
  9
$DIMCEN
 40
1.5
  9
$DIMTSZ
 40
0.0
  9
$DIMTOL
 70
     0
  9
$DIMLIM
 70
     0
  9
$DIMTIH
 70
     0
  9
$DIMTOH
 70
     0
  9
$DIMSE1
 70
     0
  9
$DIMSE2
 70
     0
  9
$DIMTAD
 70
     1
  9
$DIMZIN
 70
     8
  9
$DIMBLK
  1

  9
$DIMASO
 70
     1
  9
$DIMSHO
 70
     0
  9
$DIMPOST
  1

  9
$DIMAPOST
  1

  9
$DIMALT
 70
     0
  9
$DIMALTD
 70
     2
  9
$DIMALTF
 40
25.4
  9
$DIMLFAC
 40
1.0
  9
$DIMTOFL
 70
     1
  9
$DIMTVP
 40
0.0
  9
$DIMTIX
 70
     0
  9
$DIMSOXD
 70
     0
  9
$DIMSAH
 70
     0
  9
$DIMBLK1
  1

  9
$DIMBLK2
  1

  9
$DIMSTYLE
  2
STANDARD
  9
$DIMCLRD
 70
     0
  9
$DIMCLRE
 70
     0
  9
$DIMCLRT
 70
     1
  9
$DIMTFAC
 40
1.0
  9
$DIMGAP
 40
1.5
  9
$DIMJUST
 70
     0
  9
$DIMSD1
 70
     0
  9
$DIMSD2
 70
     0
  9
$DIMTOLJ
 70
     1
  9
$DIMTZIN
 70
     8
  9
$DIMALTZ
 70
     8
  9
$DIMALTTZ
 70
     8
  9
$DIMUPT
 70
     0
  9
$DIMDEC
 70
     2
  9
$DIMTDEC
 70
     2
  9
$DIMALTU
 70
     2
  9
$DIMALTTD
 70
     2
  9
$DIMTXSTY
  7
GREEKS
  9
$DIMAUNIT
 70
     0
  9
$DIMADEC
 70
     2
  9
$DIMALTRND
 40
0.0
  9
$DIMAZIN
 70
     2
  9
$DIMDSEP
 70
    46
  9
$DIMATFIT
 70
     3
  9
$DIMFRAC
 70
     0
  9
$DIMLDRBLK
  1

  9
$DIMLUNIT
 70
     2
  9
$DIMLWD
 70
    -2
  9
$DIMLWE
 70
    -2
  9
$DIMTMOVE
 70
     0
  9
$LUNITS
 70
     2
  9
$LUPREC
 70
     2
  9
$SKETCHINC
 40
1.0
  9
$FILLETRAD
 40
0.0
  9
$AUNITS
 70
     0
  9
$AUPREC
 70
     0
  9
$MENU
  1
ACAD
  9
$ELEVATION
 40
0.0
  9
$PELEVATION
 40
0.0
  9
$THICKNESS
 40
0.0
  9
$LIMCHECK
 70
     0
  9
$CHAMFERA
 40
0.0
  9
$CHAMFERB
 40
0.0
  9
$CHAMFERC
 40
0.0
  9
$CHAMFERD
 40
0.0
  9
$SKPOLY
 70
     0
  9
$TDCREATE
 40
2451478.643090625
  9
$TDUCREATE
 40
2451478.559757292
  9
$TDUPDATE
 40
2456111.320654248
  9
$TDUUPDATE
 40
2456111.237320914
  9
$TDINDWG
 40
0.0587016435
  9
$TDUSRTIMER
 40
0.0587016435
  9
$USRTIMER
 70
     1
  9
$ANGBASE
 50
0.0
  9
$ANGDIR
 70
     0
  9
$PDMODE
 70
     0
  9
$PDSIZE
 40
0.0
  9
$PLINEWID
 40
0.0
  9
$SPLFRAME
 70
     0
  9
$SPLINETYPE
 70
     6
  9
$SPLINESEGS
 70
     8
  9
$HANDSEED
  5
F9D
  9
$SURFTAB1
 70
     6
  9
$SURFTAB2
 70
     6
  9
$SURFTYPE
 70
     6
  9
$SURFU
 70
     6
  9
$SURFV
 70
     6
  9
$UCSBASE
  2

  9
$UCSNAME
  2

  9
$UCSORG
 10
0.0
 20
0.0
 30
0.0
  9
$UCSXDIR
 10
1.0
 20
0.0
 30
0.0
  9
$UCSYDIR
 10
0.0
 20
1.0
 30
0.0
  9
$UCSORTHOREF
  2

  9
$UCSORTHOVIEW
 70
     0
  9
$UCSORGTOP
 10
0.0
 20
0.0
 30
0.0
  9
$UCSORGBOTTOM
 10
0.0
 20
0.0
 30
0.0
  9
$UCSORGLEFT
 10
0.0
 20
0.0
 30
0.0
  9
$UCSORGRIGHT
 10
0.0
 20
0.0
 30
0.0
  9
$UCSORGFRONT
 10
0.0
 20
0.0
 30
0.0
  9
$UCSORGBACK
 10
0.0
 20
0.0
 30
0.0
  9
$PUCSBASE
  2

  9
$PUCSNAME
  2

  9
$PUCSORG
 10
0.0
 20
0.0
 30
0.0
  9
$PUCSXDIR
 10
1.0
 20
0.0
 30
0.0
  9
$PUCSYDIR
 10
0.0
 20
1.0
 30
0.0
  9
$PUCSORTHOREF
  2

  9
$PUCSORTHOVIEW
 70
     0
  9
$PUCSORGTOP
 10
0.0
 20
0.0
 30
0.0
  9
$PUCSORGBOTTOM
 10
0.0
 20
0.0
 30
0.0
  9
$PUCSORGLEFT
 10
0.0
 20
0.0
 30
0.0
  9
$PUCSORGRIGHT
 10
0.0
 20
0.0
 30
0.0
  9
$PUCSORGFRONT
 10
0.0
 20
0.0
 30
0.0
  9
$PUCSORGBACK
 10
0.0
 20
0.0
 30
0.0
  9
$USERI1
 70
     0
  9
$USERI2
 70
     0
  9
$USERI3
 70
     0
  9
$USERI4
 70
     0
  9
$USERI5
 70
     0
  9
$USERR1
 40
0.0
  9
$USERR2
 40
0.0
  9
$USERR3
 40
0.0
  9
$USERR4
 40
0.0
  9
$USERR5
 40
0.0
  9
$WORLDVIEW
 70
     1
  9
$SHADEDGE
 70
     3
  9
$SHADEDIF
 70
    70
  9
$TILEMODE
 70
     1
  9
$MAXACTVP
 70
    16
  9
$PINSBASE
 10
236.4266606927941
 20
50.00000000000001
 30
115.8148567796232
  9
$PLIMCHECK
 70
     0
  9
$PEXTMIN
 10
1.000000000000000E+20
 20
1.000000000000000E+20
 30
1.000000000000000E+20
  9
$PEXTMAX
 10
-1.000000000000000E+20
 20
-1.000000000000000E+20
 30
-1.000000000000000E+20
  9
$PLIMMIN
 10
0.0
 20
0.0
  9
$PLIMMAX
 10
12.0
 20
9.0
  9
$UNITMODE
 70
     0
  9
$VISRETAIN
 70
     0
  9
$PLINEGEN
 70
     0
  9
$PSLTSCALE
 70
     0
  9
$TREEDEPTH
 70
  3020
  9
$CMLSTYLE
  2
STANDARD
  9
$CMLJUST
 70
     0
  9
$CMLSCALE
 40
1.0
  9
$PROXYGRAPHICS
 70
     1
  9
$MEASUREMENT
 70
     0
  9
$CELWEIGHT
370
    -1
  9
$ENDCAPS
280
     0
  9
$JOINSTYLE
280
     0
  9
$LWDISPLAY
290
     0
  9
$INSUNITS
 70
     0
  9
$HYPERLINKBASE
  1

  9
$STYLESHEET
  1
monochrome1.ctb
  9
$XEDIT
290
     1
  9
$CEPSNTYPE
380
     0
  9
$PSTYLEMODE
290
     1
  9
$FINGERPRINTGUID
  2
{F555D61D-7438-4A49-8AD3-9D268796E9AF}
  9
$VERSIONGUID
  2
{8A5AB2F6-70CF-4A2B-B2FF-F7C2990289AA}
  9
$EXTNAMES
290
     1
  9
$PSVPSCALE
 40
0.0
  9
$OLESTARTUP
290
     0
  9
$SORTENTS
280
   127
  9
$INDEXCTL
280
     0
  9
$HIDETEXT
280
     0
  9
$XCLIPFRAME
290
     0
  9
$HALOGAP
280
     0
  9
$OBSCOLOR
 70
   257
  9
$OBSLTYPE
280
     0
  9
$INTERSECTIONDISPLAY
280
     0
  9
$INTERSECTIONCOLOR
 70
   257
  9
$DIMASSOC
280
     1
  9
$PROJECTNAME
  1

  0
ENDSEC
  0
SECTION
  2
CLASSES
  0
CLASS
  1
DICTIONARYVAR
  2
AcDbDictionaryVar
  3
ObjectDBX Classes
 90
        0
 91
        3
280
     0
281
     0
  0
CLASS
  1
ACDBDICTIONARYWDFLT
  2
AcDbDictionaryWithDefault
  3
ObjectDBX Classes
 90
        0
 91
        1
280
     0
281
     0
  0
ENDSEC
  0
SECTION
  2
TABLES
  0
TABLE
  2
VPORT
  5
8
330
0
100
AcDbSymbolTable
 70
     2
  0
VPORT
  5
F9C
330
8
100
AcDbSymbolTableRecord
100
AcDbViewportTableRecord
  2
*Active
 70
     0
 10
0.0
 20
0.0
 11
1.0
 21
1.0
 12
419.9999999999999
 22
297.0000000000001
 13
0.0
 23
0.0
 14
1.0
 24
1.0
 15
20.0
 25
20.0
 16
0.0
 26
0.0
 36
1.0
 17
0.0
 27
0.0
 37
0.0
 40
611.4962786740731
 41
1.374331550802138
 42
50.0
 43
0.0
 44
0.0
 50
0.0
 51
0.0
 71
     0
 72
  1500
 73
     1
 74
     0
 75
     0
 76
     0
 77
     0
 78
     0
281
     0
 65
     1
110
0.0
120
0.0
130
0.0
111
1.0
121
0.0
131
0.0
112
0.0
122
1.0
132
0.0
 79
     0
146
0.0
  0
ENDTAB
  0
TABLE
  2
LTYPE
  5
5
330
0
100
AcDbSymbolTable
 70
     3
  0
LTYPE
  5
11
330
5
100
AcDbSymbolTableRecord
100
AcDbLinetypeTableRecord
  2
BYBLOCK
 70
     0
  3

 72
    65
 73
     0
 40
0.0
  0
LTYPE
  5
12
330
5
100
AcDbSymbolTableRecord
100
AcDbLinetypeTableRecord
  2
BYLAYER
 70
     0
  3

 72
    65
 73
     0
 40
0.0
  0
LTYPE
  5
13
330
5
100
AcDbSymbolTableRecord
100
AcDbLinetypeTableRecord
  2
AUSGEZOGEN
 70
     0
  3
Ausgezogene Linie
 72
    65
 73
     0
 40
0.0
  0
LTYPE
  5
31
330
5
100
AcDbSymbolTableRecord
100
AcDbLinetypeTableRecord
  2
STRICHPUNKT
 70
     0
  3
__ . __ . __ . __ . __ . __ . __ . __ . __ . __
 72
    65
 73
     4
 40
1.0
 49
0.5
 74
     0
 49
-0.25
 74
     0
 49
0.0
 74
     0
 49
-0.25
 74
     0
  0
LTYPE
  5
3B
330
5
100
AcDbSymbolTableRecord
100
AcDbLinetypeTableRecord
  2
CONTINUOUS
 70
     0
  3
Solid line
 72
    65
 73
     0
 40
0.0
  0
ENDTAB
  0
TABLE
  2
LAYER
  5
2
330
0
100
AcDbSymbolTable
 70
     9
  0
LAYER
  5
E
330
2
100
AcDbSymbolTableRecord
100
AcDbLayerTableRecord
  2
0
 70
     0
 62
     7
  6
AUSGEZOGEN
370
    -3
390
8FF
  0
LAYER
  5
33
330
2
100
AcDbSymbolTableRecord
100
AcDbLayerTableRecord
  2
VOLL
 70
     0
 62
     1
  6
AUSGEZOGEN
370
    -3
390
8FF
  0
LAYER
  5
34
330
2
100
AcDbSymbolTableRecord
100
AcDbLayerTableRecord
  2
HILF
 70
     0
 62
     2
  6
AUSGEZOGEN
370
    -3
390
8FF
  0
LAYER
  5
35
330
2
100
AcDbSymbolTableRecord
100
AcDbLayerTableRecord
  2
MITTEL
 70
     0
 62
     2
  6
STRICHPUNKT
370
    -3
390
8FF
  0
LAYER
  5
36
330
2
100
AcDbSymbolTableRecord
100
AcDbLayerTableRecord
  2
BEM
 70
     0
 62
     7
  6
AUSGEZOGEN
370
    -3
390
8FF
  0
LAYER
  5
37
330
2
100
AcDbSymbolTableRecord
100
AcDbLayerTableRecord
  2
STEMPEL
 70
     0
 62
     3
  6
AUSGEZOGEN
370
    -3
390
8FF
  0
LAYER
  5
38
330
2
100
AcDbSymbolTableRecord
100
AcDbLayerTableRecord
  2
TEXT
 70
     0
 62
     7
  6
AUSGEZOGEN
370
    -3
390
8FF
  0
LAYER
  5
39
330
2
100
AcDbSymbolTableRecord
100
AcDbLayerTableRecord
  2
DEFPOINTS
 70
     0
 62
    -7
  6
AUSGEZOGEN
290
     0
370
    -3
390
8FF
  0
LAYER
  5
3A
330
2
100
AcDbSymbolTableRecord
100
AcDbLayerTableRecord
  2
SCHRAFF
 70
     0
 62
     7
  6
AUSGEZOGEN
370
    -3
390
8FF
  0
ENDTAB
  0
TABLE
  2
STYLE
  5
3
330
0
100
AcDbSymbolTable
 70
     2
  0
STYLE
  5
F
330
3
100
AcDbSymbolTableRecord
100
AcDbTextStyleTableRecord
  2
STANDARD
 70
     0
 40
0.0
 41
0.8
 50
0.0
 71
     0
 42
3.5
  3
simplex.shx
  4

  0
STYLE
  5
30
330
3
100
AcDbSymbolTableRecord
100
AcDbTextStyleTableRecord
  2
GREEKS
 70
     0
 40
0.0
 41
0.8
 50
0.0
 71
     0
 42
2.5
  3
SIMPLEX.shx
  4

  0
ENDTAB
  0
TABLE
  2
VIEW
  5
6
330
0
100
AcDbSymbolTable
 70
     0
  0
ENDTAB
  0
TABLE
  2
UCS
  5
7
330
0
100
AcDbSymbolTable
 70
     0
  0
ENDTAB
  0
TABLE
  2
APPID
  5
9
330
0
100
AcDbSymbolTable
 70
     1
  0
APPID
  5
10
330
9
100
AcDbSymbolTableRecord
100
AcDbRegAppTableRecord
  2
ACAD
 70
     0
  0
ENDTAB
  0
TABLE
  2
DIMSTYLE
  5
A
330
0
100
AcDbSymbolTable
 70
     1
100
AcDbDimStyleTable
 71
     1
340
56C
  0
DIMSTYLE
105
56C
102
{ACAD_REACTORS
330
5CC
330
486
330
419
330
426
330
DFF
330
E01
330
E02
330
CAF
330
F51
102
}
330
A
100
AcDbSymbolTableRecord
100
AcDbDimStyleTableRecord
  2
STANDARD
 70
     0
 40
2.0
 41
3.5
 42
1.0
 43
7.0
 44
1.0
 73
     0
 74
     0
 77
     1
 78
     8
 79
     2
140
3.5
141
1.5
147
1.5
172
     1
178
     1
179
     2
271
     2
272
     2
284
     8
285
     8
286
     8
340
30
  0
ENDTAB
  0
TABLE
  2
BLOCK_RECORD
  5
1
330
0
100
AcDbSymbolTable
 70
    10
  0
BLOCK_RECORD
  5
17
330
1
100
AcDbSymbolTableRecord
100
AcDbBlockTableRecord
  2
*MODEL_SPACE
340
904
  0
BLOCK_RECORD
  5
14
330
1
100
AcDbSymbolTableRecord
100
AcDbBlockTableRecord
  2
*PAPER_SPACE
340
905
  0
BLOCK_RECORD
  5
1C
330
1
100
AcDbSymbolTableRecord
100
AcDbBlockTableRecord
  2
LOGO
340
0
102
{BLKREFS
331
42C
102
}
  0
BLOCK_RECORD
  5
586
330
1
100
AcDbSymbolTableRecord
100
AcDbBlockTableRecord
  2
*D1
340
0
  0
BLOCK_RECORD
  5
5C0
330
1
100
AcDbSymbolTableRecord
100
AcDbBlockTableRecord
  2
*D2
340
0
  0
BLOCK_RECORD
  5
947
330
1
100
AcDbSymbolTableRecord
100
AcDbBlockTableRecord
  2
*D3
340
0
  0
BLOCK_RECORD
  5
95F
330
1
100
AcDbSymbolTableRecord
100
AcDbBlockTableRecord
  2
*D4
340
0
  0
BLOCK_RECORD
  5
E15
330
1
100
AcDbSymbolTableRecord
100
AcDbBlockTableRecord
  2
*D5
340
0
  0
BLOCK_RECORD
  5
E23
330
1
100
AcDbSymbolTableRecord
100
AcDbBlockTableRecord
  2
*D6
340
0
  0
BLOCK_RECORD
  5
E2F
330
1
100
AcDbSymbolTableRecord
100
AcDbBlockTableRecord
  2
*D7
340
0
  0
BLOCK_RECORD
  5
E47
330
1
100
AcDbSymbolTableRecord
100
AcDbBlockTableRecord
  2
*D8
340
0
  0
BLOCK_RECORD
  5
F69
330
1
100
AcDbSymbolTableRecord
100
AcDbBlockTableRecord
  2
*D9
340
0
  0
ENDTAB
  0
ENDSEC
  0
SECTION
  2
BLOCKS
  0
BLOCK
  5
3E
330
17
100
AcDbEntity
  8
0
100
AcDbBlockBegin
  2
*MODEL_SPACE
 70
     0
 10
0.0
 20
0.0
 30
0.0
  3
*MODEL_SPACE
  1

  0
ENDBLK
  5
3F
330
17
100
AcDbEntity
  8
0
100
AcDbBlockEnd
  0
BLOCK
  5
3C
330
14
100
AcDbEntity
 67
     1
  8
0
100
AcDbBlockBegin
  2
*PAPER_SPACE
 70
     0
 10
0.0
 20
0.0
 30
0.0
  3
*PAPER_SPACE
  1

  0
ENDBLK
  5
3D
330
14
100
AcDbEntity
 67
     1
  8
0
100
AcDbBlockEnd
  0
BLOCK
  5
42
330
1C
100
AcDbEntity
  8
0
100
AcDbBlockBegin
  2
LOGO
 70
     0
 10
0.0
 20
0.0
 30
0.0
  3
LOGO
  1

  0
ARC
  5
43
330
1C
100
AcDbEntity
  8
0
100
AcDbCircle
 10
11.59973089678112
 20
-9.271599258481501
 30
0.0
 40
4.5
100
AcDbArc
 50
270.0
 51
231.0575587310159
  0
LINE
  5
44
330
1C
100
AcDbEntity
  8
0
100
AcDbLine
 10
3.599730896781125
 20
-4.771599258481529
 30
0.0
 11
3.599730896781153
 21
-11.77159925848133
 31
0.0
  0
LINE
  5
45
330
1C
100
AcDbEntity
  8
0
100
AcDbLine
 10
2.599730896781125
 20
-4.771599258481529
 30
0.0
 11
2.599730896781153
 21
-11.77159925848133
 31
0.0
  0
CIRCLE
  5
46
330
1C
100
AcDbEntity
  8
0
100
AcDbCircle
 10
11.59973089678112
 20
-9.271599258481501
 30
0.0
 40
3.5
  0
ARC
  5
47
330
1C
100
AcDbEntity
  8
0
100
AcDbCircle
 10
31.59973089678115
 20
-9.271599258481472
 30
0.0
 40
4.5
100
AcDbArc
 50
270.0
 51
231.0575587310182
  0
LINE
  5
48
330
1C
100
AcDbEntity
  8
0
100
AcDbLine
 10
17.59973089678112
 20
-4.771599258481472
 30
0.0
 11
17.59973089678115
 21
-13.77159925848147
 31
0.0
  0
ARC
  5
49
330
1C
100
AcDbEntity
  8
0
100
AcDbCircle
 10
22.59973089678116
 20
-7.271599258481472
 30
0.0
 40
2.5
100
AcDbArc
 50
293.1161887722295
 51
90.0
  0
CIRCLE
  5
4A
330
1C
100
AcDbEntity
  8
0
100
AcDbCircle
 10
31.59973089678115
 20
-9.271599258481472
 30
0.0
 40
3.5
  0
ARC
  5
4B
330
1C
100
AcDbEntity
  8
0
100
AcDbCircle
 10
4.599730896781153
 20
-11.77159925848133
 30
0.0
 40
1.0
100
AcDbArc
 50
180.0
 51
270.0
  0
ARC
  5
4C
330
1C
100
AcDbEntity
  8
0
100
AcDbCircle
 10
4.599730896781153
 20
-11.77159925848133
 30
0.0
 40
2.0
100
AcDbArc
 50
179.9999999999992
 51
270.0
  0
LINE
  5
4D
330
1C
100
AcDbEntity
  8
0
100
AcDbLine
 10
11.59973089678115
 20
-13.77159925848144
 30
0.0
 11
4.599730896781153
 21
-13.77159925848147
 31
0.0
  0
LINE
  5
4E
330
1C
100
AcDbEntity
  8
0
100
AcDbLine
 10
8.771303772034769
 20
-12.77159925848136
 30
0.0
 11
4.599730896781153
 21
-12.77159925848133
 31
0.0
  0
LINE
  5
4F
330
1C
100
AcDbEntity
  8
0
100
AcDbLine
 10
31.59973089678115
 20
-13.77159925848147
 30
0.0
 11
23.6715276665056
 21
-13.77159925848144
 31
0.0
  0
LINE
  5
50
330
1C
100
AcDbEntity
  8
0
100
AcDbLine
 10
23.56565672307022
 20
-9.51278021337896
 30
0.0
 11
24.4388546544846
 21
-12.77159925848144
 31
0.0
  0
LINE
  5
51
330
1C
100
AcDbEntity
  8
0
100
AcDbLine
 10
22.59973089678116
 20
-9.771599258481472
 30
0.0
 11
18.59973089678112
 21
-9.771599258481472
 31
0.0
  0
LINE
  5
52
330
1C
100
AcDbEntity
  8
0
100
AcDbLine
 10
18.59973089678115
 20
-13.77159925848144
 30
0.0
 11
17.59973089678115
 21
-13.77159925848144
 31
0.0
  0
LINE
  5
53
330
1C
100
AcDbEntity
  8
0
100
AcDbLine
 10
18.59973089678115
 20
-9.771599258481472
 30
0.0
 11
18.59973089678115
 21
-13.77159925848144
 31
0.0
  0
LINE
  5
54
330
1C
100
AcDbEntity
  8
0
100
AcDbLine
 10
22.59973089678116
 20
-9.771599258481472
 30
0.0
 11
23.67152766650562
 21
-13.77159925848147
 31
0.0
  0
ARC
  5
55
330
1C
100
AcDbEntity
  8
0
100
AcDbCircle
 10
22.59973089678116
 20
-7.271599258481472
 30
0.0
 40
2.5
100
AcDbArc
 50
270.0
 51
270.0000000000007
  0
LINE
  5
56
330
1C
100
AcDbEntity
  8
0
100
AcDbLine
 10
28.77130377203494
 20
-12.77159925848147
 30
0.0
 11
24.43885465448463
 21
-12.77159925848144
 31
0.0
  0
LINE
  5
57
330
1C
100
AcDbEntity
  8
0
100
AcDbLine
 10
3.599730896781125
 20
-4.771599258481472
 30
0.0
 11
2.599730896781125
 21
-4.771599258481472
 31
0.0
  0
LINE
  5
58
330
1C
100
AcDbEntity
  8
0
100
AcDbLine
 10
22.59973089678116
 20
-8.771599258481472
 30
0.0
 11
18.59973089678115
 21
-8.771599258481472
 31
0.0
  0
LINE
  5
59
330
1C
100
AcDbEntity
  8
0
100
AcDbLine
 10
22.59973089678116
 20
-5.771599258481472
 30
0.0
 11
18.59973089678115
 21
-5.771599258481472
 31
0.0
  0
LINE
  5
5A
330
1C
100
AcDbEntity
  8
0
100
AcDbLine
 10
22.59973089678116
 20
-4.771599258481472
 30
0.0
 11
17.59973089678115
 21
-4.771599258481472
 31
0.0
  0
LINE
  5
5B
330
1C
100
AcDbEntity
  8
0
100
AcDbLine
 10
18.59973089678115
 20
-5.771599258481472
 30
0.0
 11
18.59973089678115
 21
-8.771599258481472
 31
0.0
  0
ARC
  5
5C
330
1C
100
AcDbEntity
  8
0
100
AcDbCircle
 10
22.59973089678116
 20
-7.271599258481472
 30
0.0
 40
1.5
100
AcDbArc
 50
270.0
 51
90.0
  0
ENDBLK
  5
5D
330
1C
100
AcDbEntity
  8
0
100
AcDbBlockEnd
  0
BLOCK
  5
5AA
330
586
100
AcDbEntity
  8
0
100
AcDbBlockBegin
  2
*D1
 70
     1
 10
0.0
 20
0.0
 30
0.0
  3
*D1
  1

  0
LINE
  5
F17
330
586
100
AcDbEntity
  8
BEM
 62
     0
370
    -2
100
AcDbLine
 10
200.8025827350393
 20
379.6464629549654
 30
0.0
 11
200.8025827350393
 21
531.8306352677534
 31
0.0
  0
LINE
  5
F18
330
586
100
AcDbEntity
  8
BEM
 62
     0
370
    -2
100
AcDbLine
 10
530.8025827350393
 20
379.6464629549654
 30
0.0
 11
530.8025827350393
 21
531.8306352677534
 31
0.0
  0
LINE
  5
F19
330
586
100
AcDbEntity
  8
BEM
 62
     0
370
    -2
100
AcDbLine
 10
207.8025827350393
 20
529.8306352677534
 30
0.0
 11
523.8025827350393
 21
529.8306352677534
 31
0.0
  0
SOLID
  5
F1A
330
586
100
AcDbEntity
  8
BEM
 62
     0
100
AcDbTrace
 10
207.8025827350393
 20
530.9973019344201
 30
0.0
 11
207.8025827350393
 21
528.6639686010868
 31
0.0
 12
200.8025827350393
 22
529.8306352677534
 32
0.0
 13
200.8025827350393
 23
529.8306352677534
 33
0.0
  0
SOLID
  5
F1B
330
586
100
AcDbEntity
  8
BEM
 62
     0
100
AcDbTrace
 10
523.8025827350393
 20
530.9973019344201
 30
0.0
 11
523.8025827350393
 21
528.6639686010868
 31
0.0
 12
530.8025827350393
 22
529.8306352677534
 32
0.0
 13
530.8025827350393
 23
529.8306352677534
 33
0.0
  0
MTEXT
  5
F1C
330
586
100
AcDbEntity
  8
BEM
 62
     1
100
AcDbMText
 10
365.8025827350393
 20
536.3306352677534
 30
0.0
 40
7.0
 41
0.0
 71
     5
 72
     1
  1
\A1;%%c330
  7
GREEKS
 73
     1
 44
1.0
  0
POINT
  5
F1D
330
586
100
AcDbEntity
  8
DEFPOINTS
 62
     0
100
AcDbPoint
 10
200.8025827350393
 20
377.6464629549654
 30
0.0
  0
POINT
  5
F1E
330
586
100
AcDbEntity
  8
DEFPOINTS
 62
     0
100
AcDbPoint
 10
530.8025827350393
 20
377.6464629549654
 30
0.0
  0
POINT
  5
F1F
330
586
100
AcDbEntity
  8
DEFPOINTS
 62
     0
100
AcDbPoint
 10
530.8025827350393
 20
529.8306352677534
 30
0.0
  0
ENDBLK
  5
5B4
330
586
100
AcDbEntity
  8
0
100
AcDbBlockEnd
  0
BLOCK
  5
5CD
330
5C0
100
AcDbEntity
  8
0
100
AcDbBlockBegin
  2
*D2
 70
     1
 10
0.0
 20
0.0
 30
0.0
  3
*D2
  1

  0
LINE
  5
F0E
330
5C0
100
AcDbEntity
  8
BEM
 62
     0
370
    -2
100
AcDbLine
 10
615.8025827350392
 20
382.6464629549653
 30
0.0
 11
615.8025827350392
 21
546.4674400223223
 31
0.0
  0
LINE
  5
F0F
330
5C0
100
AcDbEntity
  8
BEM
 62
     0
370
    -2
100
AcDbLine
 10
115.8025827350392
 20
382.6464629549653
 30
0.0
 11
115.8025827350392
 21
546.4674400223223
 31
0.0
  0
LINE
  5
F10
330
5C0
100
AcDbEntity
  8
BEM
 62
     0
370
    -2
100
AcDbLine
 10
608.8025827350393
 20
544.4674400223223
 30
0.0
 11
122.8025827350393
 21
544.4674400223223
 31
0.0
  0
SOLID
  5
F11
330
5C0
100
AcDbEntity
  8
BEM
 62
     0
100
AcDbTrace
 10
608.8025827350393
 20
545.6341066889889
 30
0.0
 11
608.8025827350393
 21
543.3007733556556
 31
0.0
 12
615.8025827350392
 22
544.4674400223223
 32
0.0
 13
615.8025827350392
 23
544.4674400223223
 33
0.0
  0
SOLID
  5
F12
330
5C0
100
AcDbEntity
  8
BEM
 62
     0
100
AcDbTrace
 10
122.8025827350393
 20
545.6341066889889
 30
0.0
 11
122.8025827350393
 21
543.3007733556556
 31
0.0
 12
115.8025827350392
 22
544.4674400223223
 32
0.0
 13
115.8025827350392
 23
544.4674400223223
 33
0.0
  0
MTEXT
  5
F13
330
5C0
100
AcDbEntity
  8
BEM
 62
     1
100
AcDbMText
 10
365.8025827350393
 20
550.9674400223222
 30
0.0
 40
7.0
 41
0.0
 71
     5
 72
     1
  1
\A1; 500
  7
GREEKS
 73
     1
 44
1.0
  0
POINT
  5
F14
330
5C0
100
AcDbEntity
  8
DEFPOINTS
 62
     0
100
AcDbPoint
 10
615.8025827350392
 20
380.6464629549653
 30
0.0
  0
POINT
  5
F15
330
5C0
100
AcDbEntity
  8
DEFPOINTS
 62
     0
100
AcDbPoint
 10
115.8025827350392
 20
380.6464629549653
 30
0.0
  0
POINT
  5
F16
330
5C0
100
AcDbEntity
  8
DEFPOINTS
 62
     0
100
AcDbPoint
 10
115.8025827350392
 20
544.4674400223223
 30
0.0
  0
ENDBLK
  5
5D7
330
5C0
100
AcDbEntity
  8
0
100
AcDbBlockEnd
  0
BLOCK
  5
951
330
947
100
AcDbEntity
  8
0
100
AcDbBlockBegin
  2
*D3
 70
     1
 10
0.0
 20
0.0
 30
0.0
  3
*D3
  1

  0
LINE
  5
EFB
330
947
100
AcDbEntity
  8
BEM
 62
     0
370
    -2
100
AcDbLine
 10
297.2949430599526
 20
97.64646295496527
 30
0.0
 11
186.2853397787741
 21
97.64646295496531
 31
0.0
  0
LINE
  5
EFC
330
947
100
AcDbEntity
  8
BEM
 62
     0
370
    -2
100
AcDbLine
 10
198.8025827350393
 20
377.6464629549654
 30
0.0
 11
186.2853397787741
 21
377.6464629549654
 31
0.0
  0
LINE
  5
EFD
330
947
100
AcDbEntity
  8
BEM
 62
     0
370
    -2
100
AcDbLine
 10
188.2853397787741
 20
104.6464629549653
 30
0.0
 11
188.2853397787741
 21
370.6464629549653
 31
0.0
  0
SOLID
  5
EFE
330
947
100
AcDbEntity
  8
BEM
 62
     0
100
AcDbTrace
 10
187.1186731121074
 20
104.6464629549653
 30
0.0
 11
189.4520064454407
 21
104.6464629549653
 31
0.0
 12
188.2853397787741
 22
97.64646295496531
 32
0.0
 13
188.2853397787741
 23
97.64646295496531
 33
0.0
  0
SOLID
  5
EFF
330
947
100
AcDbEntity
  8
BEM
 62
     0
100
AcDbTrace
 10
187.1186731121074
 20
370.6464629549653
 30
0.0
 11
189.4520064454408
 21
370.6464629549653
 31
0.0
 12
188.2853397787741
 22
377.6464629549654
 32
0.0
 13
188.2853397787741
 23
377.6464629549654
 33
0.0
  0
MTEXT
  5
F00
330
947
100
AcDbEntity
  8
BEM
 62
     1
100
AcDbMText
 10
181.785339778774
 20
237.6464629549654
 30
0.0
 40
7.0
 41
0.0
 71
     5
 72
     1
  1
\A1;280
  7
GREEKS
 11
0.0000000000000001
 21
1.0
 31
0.0
 73
     1
 44
1.0
  0
POINT
  5
F01
330
947
100
AcDbEntity
  8
DEFPOINTS
 62
     0
100
AcDbPoint
 10
299.2949430599526
 20
97.64646295496527
 30
0.0
  0
POINT
  5
F02
330
947
100
AcDbEntity
  8
DEFPOINTS
 62
     0
100
AcDbPoint
 10
200.8025827350393
 20
377.6464629549654
 30
0.0
  0
POINT
  5
F03
330
947
100
AcDbEntity
  8
DEFPOINTS
 62
     0
100
AcDbPoint
 10
188.2853397787741
 20
377.6464629549654
 30
0.0
  0
ENDBLK
  5
952
330
947
100
AcDbEntity
  8
0
100
AcDbBlockEnd
  0
BLOCK
  5
969
330
95F
100
AcDbEntity
  8
0
100
AcDbBlockBegin
  2
*D4
 70
     1
 10
0.0
 20
0.0
 30
0.0
  3
*D4
  1

  0
LINE
  5
F7F
330
95F
100
AcDbEntity
  8
BEM
 62
     0
370
    -2
100
AcDbLine
 10
299.3025827350393
 20
110.5591410691482
 30
0.0
 11
299.3025827350393
 21
77.67500972670183
 31
0.0
  0
LINE
  5
F80
330
95F
100
AcDbEntity
  8
BEM
 62
     0
370
    -2
100
AcDbLine
 10
432.3025827350388
 20
110.5591410691353
 30
0.0
 11
432.3025827350388
 21
77.67500972670183
 31
0.0
  0
LINE
  5
F81
330
95F
100
AcDbEntity
  8
BEM
 62
     0
370
    -2
100
AcDbLine
 10
306.3025827350393
 20
79.67500972670183
 30
0.0
 11
425.3025827350388
 21
79.67500972670183
 31
0.0
  0
SOLID
  5
F82
330
95F
100
AcDbEntity
  8
BEM
 62
     0
100
AcDbTrace
 10
306.3025827350393
 20
80.8416763933685
 30
0.0
 11
306.3025827350393
 21
78.50834306003516
 31
0.0
 12
299.3025827350393
 22
79.67500972670183
 32
0.0
 13
299.3025827350393
 23
79.67500972670183
 33
0.0
  0
SOLID
  5
F83
330
95F
100
AcDbEntity
  8
BEM
 62
     0
100
AcDbTrace
 10
425.3025827350388
 20
80.8416763933685
 30
0.0
 11
425.3025827350388
 21
78.50834306003516
 31
0.0
 12
432.3025827350388
 22
79.67500972670183
 32
0.0
 13
432.3025827350388
 23
79.67500972670183
 33
0.0
  0
MTEXT
  5
F84
330
95F
100
AcDbEntity
  8
BEM
 62
     1
100
AcDbMText
 10
365.802582735039
 20
86.17500972670184
 30
0.0
 40
7.0
 41
0.0
 71
     5
 72
     1
  1
\A1;%%c133
  7
GREEKS
 73
     1
 44
1.0
  0
POINT
  5
F85
330
95F
100
AcDbEntity
  8
DEFPOINTS
 62
     0
100
AcDbPoint
 10
299.3025827350393
 20
112.5591410691482
 30
0.0
  0
POINT
  5
F86
330
95F
100
AcDbEntity
  8
DEFPOINTS
 62
     0
100
AcDbPoint
 10
432.3025827350388
 20
112.5591410691353
 30
0.0
  0
POINT
  5
F87
330
95F
100
AcDbEntity
  8
DEFPOINTS
 62
     0
100
AcDbPoint
 10
432.3025827350388
 20
79.67500972670183
 30
0.0
  0
ENDBLK
  5
96A
330
95F
100
AcDbEntity
  8
0
100
AcDbBlockEnd
  0
BLOCK
  5
E21
330
E15
100
AcDbEntity
  8
0
100
AcDbBlockBegin
  2
*D5
 70
     1
 10
0.0
 20
0.0
 30
0.0
  3
*D5
  1

  0
LINE
  5
EBA
330
E15
100
AcDbEntity
  8
BEM
 62
     0
370
    -2
100
AcDbLine
 10
233.8025827350392
 20
397.1464629549651
 30
0.0
 11
172.0108391175824
 21
397.1464629549651
 31
0.0
  0
LINE
  5
EBB
330
E15
100
AcDbEntity
  8
BEM
 62
     0
370
    -2
100
AcDbLine
 10
228.8025827350393
 20
382.1464629549652
 30
0.0
 11
172.0108391175824
 21
382.1464629549652
 31
0.0
  0
LINE
  5
EBC
330
E15
100
AcDbEntity
  8
BEM
 62
     0
370
    -2
100
AcDbLine
 10
174.0108391175823
 20
404.146462954965
 30
0.0
 11
174.0108391175823
 21
411.146462954965
 31
0.0
  0
LINE
  5
EBD
330
E15
100
AcDbEntity
  8
BEM
 62
     0
370
    -2
100
AcDbLine
 10
174.0108391175823
 20
375.1464629549652
 30
0.0
 11
174.0108391175823
 21
368.1464629549652
 31
0.0
  0
LINE
  5
EBE
330
E15
100
AcDbEntity
  8
BEM
 62
     0
370
    -2
100
AcDbLine
 10
174.0108391175823
 20
397.1464629549651
 30
0.0
 11
174.0108391175823
 21
382.1464629549652
 31
0.0
  0
SOLID
  5
EBF
330
E15
100
AcDbEntity
  8
BEM
 62
     0
100
AcDbTrace
 10
172.8441724509157
 20
404.146462954965
 30
0.0
 11
175.177505784249
 21
404.146462954965
 31
0.0
 12
174.0108391175823
 22
397.1464629549651
 32
0.0
 13
174.0108391175823
 23
397.1464629549651
 33
0.0
  0
SOLID
  5
EC0
330
E15
100
AcDbEntity
  8
BEM
 62
     0
100
AcDbTrace
 10
172.8441724509157
 20
375.1464629549652
 30
0.0
 11
175.177505784249
 21
375.1464629549652
 31
0.0
 12
174.0108391175823
 22
382.1464629549652
 32
0.0
 13
174.0108391175823
 23
382.1464629549652
 33
0.0
  0
MTEXT
  5
EC1
330
E15
100
AcDbEntity
  8
BEM
 62
     1
100
AcDbMText
 10
167.5108391175823
 20
389.6464629549652
 30
0.0
 40
7.0
 41
0.0
 71
     5
 72
     1
  1
\A1;15
  7
GREEKS
 11
0.0000000000000001
 21
1.0
 31
0.0
 73
     1
 44
1.0
  0
POINT
  5
EC2
330
E15
100
AcDbEntity
  8
DEFPOINTS
 62
     0
100
AcDbPoint
 10
235.8025827350392
 20
397.1464629549651
 30
0.0
  0
POINT
  5
EC3
330
E15
100
AcDbEntity
  8
DEFPOINTS
 62
     0
100
AcDbPoint
 10
230.8025827350393
 20
382.1464629549652
 30
0.0
  0
POINT
  5
EC4
330
E15
100
AcDbEntity
  8
DEFPOINTS
 62
     0
100
AcDbPoint
 10
174.0108391175823
 20
382.1464629549652
 30
0.0
  0
ENDBLK
  5
E22
330
E15
100
AcDbEntity
  8
0
100
AcDbBlockEnd
  0
BLOCK
  5
E2D
330
E23
100
AcDbEntity
  8
0
100
AcDbBlockBegin
  2
*D6
 70
     1
 10
0.0
 20
0.0
 30
0.0
  3
*D6
  1

  0
LINE
  5
EB1
330
E23
100
AcDbEntity
  8
BEM
 62
     0
370
    -2
100
AcDbLine
 10
255.8025827350395
 20
469.1464049876494
 30
0.0
 11
255.8025827350395
 21
504.8854313709145
 31
0.0
  0
LINE
  5
EB2
330
E23
100
AcDbEntity
  8
BEM
 62
     0
370
    -2
100
AcDbLine
 10
475.8025827350397
 20
469.1464049876494
 30
0.0
 11
475.8025827350397
 21
504.8854313709145
 31
0.0
  0
LINE
  5
EB3
330
E23
100
AcDbEntity
  8
BEM
 62
     0
370
    -2
100
AcDbLine
 10
262.8025827350394
 20
502.8854313709144
 30
0.0
 11
468.8025827350396
 21
502.8854313709144
 31
0.0
  0
SOLID
  5
EB4
330
E23
100
AcDbEntity
  8
BEM
 62
     0
100
AcDbTrace
 10
262.8025827350394
 20
504.0520980375811
 30
0.0
 11
262.8025827350394
 21
501.7187647042478
 31
0.0
 12
255.8025827350395
 22
502.8854313709144
 32
0.0
 13
255.8025827350395
 23
502.8854313709144
 33
0.0
  0
SOLID
  5
EB5
330
E23
100
AcDbEntity
  8
BEM
 62
     0
100
AcDbTrace
 10
468.8025827350396
 20
504.0520980375811
 30
0.0
 11
468.8025827350396
 21
501.7187647042478
 31
0.0
 12
475.8025827350397
 22
502.8854313709144
 32
0.0
 13
475.8025827350397
 23
502.8854313709144
 33
0.0
  0
MTEXT
  5
EB6
330
E23
100
AcDbEntity
  8
BEM
 62
     1
100
AcDbMText
 10
365.8025827350396
 20
509.3854313709145
 30
0.0
 40
7.0
 41
0.0
 71
     5
 72
     1
  1
\A1;%%c220
  7
GREEKS
 73
     1
 44
1.0
  0
POINT
  5
EB7
330
E23
100
AcDbEntity
  8
DEFPOINTS
 62
     0
100
AcDbPoint
 10
255.8025827350395
 20
467.1464049876495
 30
0.0
  0
POINT
  5
EB8
330
E23
100
AcDbEntity
  8
DEFPOINTS
 62
     0
100
AcDbPoint
 10
475.8025827350397
 20
467.1464049876495
 30
0.0
  0
POINT
  5
EB9
330
E23
100
AcDbEntity
  8
DEFPOINTS
 62
     0
100
AcDbPoint
 10
475.8025827350397
 20
502.8854313709144
 30
0.0
  0
ENDBLK
  5
E2E
330
E23
100
AcDbEntity
  8
0
100
AcDbBlockEnd
  0
BLOCK
  5
E39
330
E2F
100
AcDbEntity
  8
0
100
AcDbBlockBegin
  2
*D7
 70
     1
 10
0.0
 20
0.0
 30
0.0
  3
*D7
  1

  0
LINE
  5
EA8
330
E2F
100
AcDbEntity
  8
BEM
 62
     0
370
    -2
100
AcDbLine
 10
233.8025827350394
 20
397.1464629549651
 30
0.0
 11
172.0108391175824
 21
397.1464629549651
 31
0.0
  0
LINE
  5
EA9
330
E2F
100
AcDbEntity
  8
BEM
 62
     0
370
    -2
100
AcDbLine
 10
283.8025827350394
 20
487.1464629549642
 30
0.0
 11
172.0108391175824
 21
487.1464629549642
 31
0.0
  0
LINE
  5
EAA
330
E2F
100
AcDbEntity
  8
BEM
 62
     0
370
    -2
100
AcDbLine
 10
174.0108391175823
 20
404.146462954965
 30
0.0
 11
174.0108391175824
 21
480.1464629549642
 31
0.0
  0
SOLID
  5
EAB
330
E2F
100
AcDbEntity
  8
BEM
 62
     0
100
AcDbTrace
 10
172.8441724509157
 20
404.146462954965
 30
0.0
 11
175.177505784249
 21
404.146462954965
 31
0.0
 12
174.0108391175823
 22
397.1464629549651
 32
0.0
 13
174.0108391175823
 23
397.1464629549651
 33
0.0
  0
SOLID
  5
EAC
330
E2F
100
AcDbEntity
  8
BEM
 62
     0
100
AcDbTrace
 10
172.8441724509157
 20
480.1464629549642
 30
0.0
 11
175.177505784249
 21
480.1464629549642
 31
0.0
 12
174.0108391175824
 22
487.1464629549642
 32
0.0
 13
174.0108391175824
 23
487.1464629549642
 33
0.0
  0
MTEXT
  5
EAD
330
E2F
100
AcDbEntity
  8
BEM
 62
     1
100
AcDbMText
 10
167.5108391175823
 20
442.1464629549647
 30
0.0
 40
7.0
 41
0.0
 71
     5
 72
     1
  1
\A1;90
  7
GREEKS
 11
0.0000000000000001
 21
1.0
 31
0.0
 73
     1
 44
1.0
  0
POINT
  5
EAE
330
E2F
100
AcDbEntity
  8
DEFPOINTS
 62
     0
100
AcDbPoint
 10
235.8025827350394
 20
397.1464629549651
 30
0.0
  0
POINT
  5
EAF
330
E2F
100
AcDbEntity
  8
DEFPOINTS
 62
     0
100
AcDbPoint
 10
285.8025827350394
 20
487.1464629549642
 30
0.0
  0
POINT
  5
EB0
330
E2F
100
AcDbEntity
  8
DEFPOINTS
 62
     0
100
AcDbPoint
 10
174.0108391175824
 20
487.1464629549642
 30
0.0
  0
ENDBLK
  5
E3A
330
E2F
100
AcDbEntity
  8
0
100
AcDbBlockEnd
  0
BLOCK
  5
E51
330
E47
100
AcDbEntity
  8
0
100
AcDbBlockBegin
  2
*D8
 70
     1
 10
0.0
 20
0.0
 30
0.0
  3
*D8
  1

  0
LINE
  5
EC5
330
E47
100
AcDbEntity
  8
BEM
 62
     0
370
    -2
100
AcDbLine
 10
235.8025827350393
 20
400.1464629549661
 30
0.0
 11
235.8025827350393
 21
518.4715738916702
 31
0.0
  0
LINE
  5
EC6
330
E47
100
AcDbEntity
  8
BEM
 62
     0
370
    -2
100
AcDbLine
 10
495.8025827350393
 20
400.146462954965
 30
0.0
 11
495.8025827350393
 21
518.4715738916702
 31
0.0
  0
LINE
  5
EC7
330
E47
100
AcDbEntity
  8
BEM
 62
     0
370
    -2
100
AcDbLine
 10
242.8025827350393
 20
516.4715738916702
 30
0.0
 11
488.8025827350393
 21
516.4715738916702
 31
0.0
  0
SOLID
  5
EC8
330
E47
100
AcDbEntity
  8
BEM
 62
     0
100
AcDbTrace
 10
242.8025827350393
 20
517.6382405583368
 30
0.0
 11
242.8025827350393
 21
515.3049072250036
 31
0.0
 12
235.8025827350393
 22
516.4715738916702
 32
0.0
 13
235.8025827350393
 23
516.4715738916702
 33
0.0
  0
SOLID
  5
EC9
330
E47
100
AcDbEntity
  8
BEM
 62
     0
100
AcDbTrace
 10
488.8025827350393
 20
517.6382405583368
 30
0.0
 11
488.8025827350393
 21
515.3049072250036
 31
0.0
 12
495.8025827350393
 22
516.4715738916702
 32
0.0
 13
495.8025827350393
 23
516.4715738916702
 33
0.0
  0
MTEXT
  5
ECA
330
E47
100
AcDbEntity
  8
BEM
 62
     1
100
AcDbMText
 10
365.8025827350393
 20
522.9715738916702
 30
0.0
 40
7.0
 41
0.0
 71
     5
 72
     1
  1
\A1;%%c260
  7
GREEKS
 73
     1
 44
1.0
  0
POINT
  5
ECB
330
E47
100
AcDbEntity
  8
DEFPOINTS
 62
     0
100
AcDbPoint
 10
235.8025827350393
 20
398.1464629549662
 30
0.0
  0
POINT
  5
ECC
330
E47
100
AcDbEntity
  8
DEFPOINTS
 62
     0
100
AcDbPoint
 10
495.8025827350393
 20
398.146462954965
 30
0.0
  0
POINT
  5
ECD
330
E47
100
AcDbEntity
  8
DEFPOINTS
 62
     0
100
AcDbPoint
 10
495.8025827350393
 20
516.4715738916702
 30
0.0
  0
ENDBLK
  5
E52
330
E47
100
AcDbEntity
  8
0
100
AcDbBlockEnd
  0
BLOCK
  5
F73
330
F69
100
AcDbEntity
  8
0
100
AcDbBlockBegin
  2
*D9
 70
     1
 10
0.0
 20
0.0
 30
0.0
  3
*D9
  1

  0
LINE
  5
F75
330
F69
100
AcDbEntity
  8
BEM
 62
     0
370
    -2
100
AcDbLine
 10
460.8025827350391
 20
213.6464629549637
 30
0.0
 11
460.8025827350391
 21
60.65526745249179
 31
0.0
  0
LINE
  5
F76
330
F69
100
AcDbEntity
  8
BEM
 62
     0
370
    -2
100
AcDbLine
 10
270.8025827350393
 20
213.6464629549646
 30
0.0
 11
270.8025827350393
 21
60.65526745249179
 31
0.0
  0
LINE
  5
F77
330
F69
100
AcDbEntity
  8
BEM
 62
     0
370
    -2
100
AcDbLine
 10
453.8025827350391
 20
62.65526745249179
 30
0.0
 11
277.8025827350393
 21
62.65526745249179
 31
0.0
  0
SOLID
  5
F78
330
F69
100
AcDbEntity
  8
BEM
 62
     0
100
AcDbTrace
 10
453.8025827350391
 20
63.82193411915845
 30
0.0
 11
453.8025827350391
 21
61.48860078582512
 31
0.0
 12
460.8025827350391
 22
62.65526745249179
 32
0.0
 13
460.8025827350391
 23
62.65526745249179
 33
0.0
  0
SOLID
  5
F79
330
F69
100
AcDbEntity
  8
BEM
 62
     0
100
AcDbTrace
 10
277.8025827350393
 20
63.82193411915845
 30
0.0
 11
277.8025827350393
 21
61.48860078582512
 31
0.0
 12
270.8025827350393
 22
62.65526745249179
 32
0.0
 13
270.8025827350393
 23
62.65526745249179
 33
0.0
  0
MTEXT
  5
F7A
330
F69
100
AcDbEntity
  8
BEM
 62
     1
100
AcDbMText
 10
365.8025827350392
 20
69.15526745249178
 30
0.0
 40
7.0
 41
0.0
 71
     5
 72
     1
  1
\A1;%%c190
  7
GREEKS
 73
     1
 44
1.0
  0
POINT
  5
F7B
330
F69
100
AcDbEntity
  8
DEFPOINTS
 62
     0
100
AcDbPoint
 10
460.8025827350391
 20
215.6464629549637
 30
0.0
  0
POINT
  5
F7C
330
F69
100
AcDbEntity
  8
DEFPOINTS
 62
     0
100
AcDbPoint
 10
270.8025827350393
 20
215.6464629549646
 30
0.0
  0
POINT
  5
F7D
330
F69
100
AcDbEntity
  8
DEFPOINTS
 62
     0
100
AcDbPoint
 10
270.8025827350393
 20
62.65526745249179
 30
0.0
  0
ENDBLK
  5
F74
330
F69
100
AcDbEntity
  8
0
100
AcDbBlockEnd
  0
ENDSEC
  0
SECTION
  2
ENTITIES
  0
LINE
  5
3F6
330
17
100
AcDbEntity
  8
HILF
100
AcDbLine
 10
654.7736801096947
 20
49.99999999999997
 30
0.0
 11
744.8353916556309
 21
49.99999999999997
 31
0.0
  0
LINE
  5
3F7
330
17
100
AcDbEntity
  8
HILF
100
AcDbLine
 10
654.7736801096947
 20
59.99999999999997
 30
0.0
 11
744.8353916556309
 21
59.99999999999997
 31
0.0
  0
TEXT
  5
3F8
330
17
100
AcDbEntity
  8
TEXT
100
AcDbText
 10
654.7422383911359
 20
30.84560570193057
 30
0.0
 40
5.0
  1
Bauvorhaben
 41
0.8
  7
GREEKS
100
AcDbText
  0
TEXT
  5
3F9
330
17
100
AcDbEntity
  8
TEXT
 62
     1
100
AcDbText
 10
655.33119410276
 20
87.41748789253779
 30
0.0
 40
7.0
  1
Flachdachablauf DN125
 41
0.7
  7
GREEKS
100
AcDbText
  0
LINE
  5
3FA
330
17
100
AcDbEntity
  8
HILF
100
AcDbLine
 10
654.7736801096947
 20
69.99999999999994
 30
0.0
 11
744.8353916556309
 21
69.99999999999994
 31
0.0
  0
LINE
  5
3FB
330
17
100
AcDbEntity
  8
HILF
100
AcDbLine
 10
654.7736801096947
 20
84.03758247564139
 30
0.0
 11
744.835391655631
 21
84.03758247564139
 31
0.0
  0
TEXT
  5
3FC
330
17
100
AcDbEntity
  8
TEXT
100
AcDbText
 10
654.8779403809009
 20
102.5489328011779
 30
0.0
 40
5.0
  1
Benennung
 41
0.8
  7
GREEKS
100
AcDbText
  0
TEXT
  5
3FD
330
17
100
AcDbEntity
  8
TEXT
100
AcDbText
 10
655.1296391125315
 20
71.50334417585288
 30
0.0
 40
5.0
  1
Kompletteinheit, einteilig
 41
0.8
  7
GREEKS
100
AcDbText
  0
TEXT
  5
3FE
330
17
100
AcDbEntity
  8
TEXT
100
AcDbText
 10
655.1296391125315
 20
51.64011943042158
 30
0.0
 40
5.0
  1
EDV-Art.Nr. 17141.125A
 41
0.8
  7
GREEKS
100
AcDbText
  0
TEXT
  5
3FF
330
17
100
AcDbEntity
  8
TEXT
100
AcDbText
 10
654.9837501577826
 20
42.62974153022632
 30
0.0
 40
4.0
  1
17141.125A.DWG
 41
0.8
  7
GREEKS
100
AcDbText
  0
LINE
  5
400
330
17
100
AcDbEntity
  8
STEMPEL
100
AcDbLine
 10
479.9999999999998
 20
10.0
 30
0.0
 11
830.0
 21
10.0
 31
0.0
  0
LINE
  5
401
330
17
100
AcDbEntity
  8
STEMPEL
100
AcDbLine
 10
830.0
 20
80.0
 30
0.0
 11
566.0000000000001
 21
79.99999999999994
 31
0.0
  0
LINE
  5
402
330
17
100
AcDbEntity
  8
STEMPEL
100
AcDbLine
 10
830.0
 20
40.0
 30
0.0
 11
566.0000000000001
 21
39.99999999999997
 31
0.0
  0
LINE
  5
403
330
17
100
AcDbEntity
  8
STEMPEL
100
AcDbLine
 10
830.0
 20
110.0
 30
0.0
 11
470.0
 21
110.0
 31
0.0
  0
LINE
  5
404
330
17
100
AcDbEntity
  8
HILF
100
AcDbLine
 10
653.4909699289885
 20
14.89398258028314
 30
0.0
 11
824.8588839326728
 21
14.89398258028314
 31
0.0
  0
LINE
  5
405
330
17
100
AcDbEntity
  8
HILF
100
AcDbLine
 10
840.0
 20
0.0
 30
0.0
 11
0.0
 21
0.0
 31
0.0
  0
LINE
  5
406
330
17
100
AcDbEntity
  8
STEMPEL
100
AcDbLine
 10
830.0
 20
10.0
 30
0.0
 11
40.0
 21
10.0
 31
0.0
  0
LINE
  5
407
330
17
100
AcDbEntity
  8
HILF
100
AcDbLine
 10
839.9999999999998
 20
594.0000000000002
 30
0.0
 11
-0.0000000000001705
 21
593.9999999999997
 31
0.0
  0
LINE
  5
408
330
17
100
AcDbEntity
  8
STEMPEL
100
AcDbLine
 10
830.0
 20
584.0
 30
0.0
 11
39.99999999999989
 21
584.0
 31
0.0
  0
LINE
  5
40A
102
{ACAD_REACTORS
330
A6E
102
}
330
17
100
AcDbEntity
  8
STEMPEL
100
AcDbLine
 10
454.8025827350392
 20
358.6464629549654
 30
0.0
 11
447.2970292355741
 21
345.6464629549655
 31
0.0
  0
LINE
  5
40B
102
{ACAD_REACTORS
330
A94
102
}
330
17
100
AcDbEntity
  8
STEMPEL
100
AcDbLine
 10
435.8025827350393
 20
347.8923739662191
 30
0.0
 11
435.8025827350393
 21
344.8923739662191
 31
0.0
  0
ARC
  5
40C
102
{ACAD_REACTORS
330
A6E
330
A94
102
}
330
17
100
AcDbEntity
  8
STEMPEL
100
AcDbCircle
 10
440.3688260052986
 20
349.6464629549655
 30
0.0
 40
6.0
100
AcDbArc
 50
270.0
 51
330.0000000000001
  0
LINE
  5
411
102
{ACAD_REACTORS
330
A94
102
}
330
17
100
AcDbEntity
  8
STEMPEL
100
AcDbLine
 10
295.8025827350393
 20
347.8923739662191
 30
0.0
 11
295.8025827350393
 21
344.8923739662191
 31
0.0
  0
ARC
  5
414
102
{ACAD_REACTORS
330
A6E
330
A94
102
}
330
17
100
AcDbEntity
  8
STEMPEL
100
AcDbCircle
 10
291.2363394647798
 20
349.6464629549655
 30
0.0
 40
6.0
100
AcDbArc
 50
210.0
 51
270.0
  0
LINE
  5
415
102
{ACAD_REACTORS
330
A6E
102
}
330
17
100
AcDbEntity
  8
STEMPEL
100
AcDbLine
 10
276.8025827350393
 20
358.6464629549654
 30
0.0
 11
284.3081362345044
 21
345.6464629549655
 31
0.0
  0
LINE
  5
417
330
17
100
AcDbEntity
  8
STEMPEL
100
AcDbLine
 10
40.0
 20
10.0
 30
0.0
 11
39.99999999999989
 21
584.0
 31
0.0
  0
LINE
  5
418
330
17
100
AcDbEntity
  8
HILF
100
AcDbLine
 10
0.0
 20
0.0
 30
0.0
 11
-0.0000000000001705
 21
593.9999999999997
 31
0.0
  0
DIMENSION
  5
419
330
17
100
AcDbEntity
  8
BEM
100
AcDbDimension
  2
*D3
 10
188.2853397787741
 20
377.6464629549654
 30
0.0
 11
181.785339778774
 21
237.6464629549654
 31
0.0
 70
    32
 71
     5
 42
280.0000000000001
  3
STANDARD
100
AcDbAlignedDimension
 13
299.2949430599526
 23
97.64646295496527
 33
0.0
 14
200.8025827350393
 24
377.6464629549654
 34
0.0
 50
90.0
100
AcDbRotatedDimension
  0
LINE
  5
41A
330
17
100
AcDbEntity
  8
MITTEL
100
AcDbLine
 10
365.8025827350393
 20
493.6464629549649
 30
0.0
 11
365.8025827350393
 21
92.64646295496538
 31
0.0
  0
LINE
  5
41D
330
17
100
AcDbEntity
  8
HILF
100
AcDbLine
 10
31.08767135713851
 20
296.9999999999999
 30
0.0
 11
0.0000000000000568
 21
296.9999999999999
 31
0.0
  0
LINE
  5
424
330
17
100
AcDbEntity
  8
HILF
 62
     7
100
AcDbLine
 10
460.0
 20
-0.0000000000002824
 30
0.0
 11
460.0
 21
10.0
 31
0.0
  0
DIMENSION
  5
426
330
17
100
AcDbEntity
  8
BEM
100
AcDbDimension
  2
*D4
 10
432.3025827350388
 20
79.67500972670183
 30
0.0
 11
365.802582735039
 21
86.17500972670184
 31
0.0
 70
    32
  1
%%c<>
 71
     5
 42
132.9999999999995
  3
STANDARD
100
AcDbAlignedDimension
 13
299.3025827350393
 23
112.5591410691482
 33
0.0
 14
432.3025827350388
 24
112.5591410691353
 34
0.0
100
AcDbRotatedDimension
  0
INSERT
  5
42C
330
17
100
AcDbEntity
  8
STEMPEL
100
AcDbBlockReference
  2
LOGO
 10
570.9955485457794
 20
45.02105276448322
 30
0.0
 41
2.0
 42
2.0
 43
2.0
  0
LINE
  5
42D
330
17
100
AcDbEntity
  8
STEMPEL
100
AcDbLine
 10
566.0000000000001
 20
109.9999999999999
 30
0.0
 11
566.0
 21
9.999999999999971
 31
0.0
  0
LINE
  5
42E
330
17
100
AcDbEntity
  8
STEMPEL
100
AcDbLine
 10
650.0
 20
110.0
 30
0.0
 11
650.0
 21
9.999999999999971
 31
0.0
  0
LINE
  5
42F
330
17
100
AcDbEntity
  8
VOLL
100
AcDbLine
 10
544.0000000000001
 20
109.9999999999999
 30
0.0
 11
544.0
 21
9.999999999999971
 31
0.0
  0
TEXT
  5
430
330
17
100
AcDbEntity
  8
TEXT
100
AcDbText
 10
491.7312000390761
 20
18.67381894984132
 30
0.0
 40
4.0
  1
Änderung
 41
0.8
 72
     1
 11
502.4740571819332
 21
18.67381894984132
 31
0.0
100
AcDbText
  0
TEXT
  5
431
330
17
100
AcDbEntity
  8
TEXT
100
AcDbText
 10
478.2664110704575
 20
13.65465846027192
 30
0.0
 40
4.0
  1
Index
 50
90.0
 41
0.8
  7
GREEKS
100
AcDbText
  0
LINE
  5
432
330
17
100
AcDbEntity
  8
STEMPEL
100
AcDbLine
 10
470.0
 20
10.0
 30
0.0
 11
470.0
 21
110.0
 31
0.0
  0
LINE
  5
433
330
17
100
AcDbEntity
  8
VOLL
100
AcDbLine
 10
524.0000000000001
 20
109.9999999999999
 30
0.0
 11
524.0
 21
9.999999999999971
 31
0.0
  0
LINE
  5
434
330
17
100
AcDbEntity
  8
VOLL
100
AcDbLine
 10
484.0000000000001
 20
110.0
 30
0.0
 11
484.0
 21
9.999999999999971
 31
0.0
  0
TEXT
  5
435
330
17
100
AcDbEntity
  8
TEXT
100
AcDbText
 10
529.7694628564952
 20
18.6715626933981
 30
0.0
 40
4.0
  1
Tag
 41
0.8
 72
     1
 11
533.5027961898285
 21
18.6715626933981
 31
0.0
100
AcDbText
  0
TEXT
  5
436
330
17
100
AcDbEntity
  8
TEXT
100
AcDbText
 10
548.8721041775773
 20
18.59324216966408
 30
0.0
 40
4.0
  1
Name
 41
0.8
 72
     1
 11
555.1959137013867
 21
18.59324216966408
 31
0.0
100
AcDbText
  0
TEXT
  5
437
330
17
100
AcDbEntity
  8
TEXT
100
AcDbText
 10
568.6221098221039
 20
73.14025471151666
 30
0.0
 40
4.0
  1
2012
 41
0.8
  7
GREEKS
100
AcDbText
  0
TEXT
  5
438
330
17
100
AcDbEntity
  8
TEXT
100
AcDbText
 10
567.6006777387303
 20
43.52946389649807
 30
0.0
 40
4.0
  1
Norm.
 41
0.8
  7
GREEKS
100
AcDbText
  0
TEXT
  5
439
330
17
100
AcDbEntity
  8
TEXT
100
AcDbText
 10
567.5515086571672
 20
53.68926291428377
 30
0.0
 40
4.0
  1
Gepr.
 41
0.8
  7
GREEKS
100
AcDbText
  0
TEXT
  5
43A
330
17
100
AcDbEntity
  8
TEXT
100
AcDbText
 10
567.5836127167615
 20
63.62990369617964
 30
0.0
 40
4.0
  1
Gez.
 41
0.8
  7
GREEKS
100
AcDbText
  0
LINE
  5
43B
330
17
100
AcDbEntity
  8
HILF
100
AcDbLine
 10
566.0000000000001
 20
49.99999999999997
 30
0.0
 11
650.0
 21
49.99999999999997
 31
0.0
  0
LINE
  5
43C
330
17
100
AcDbEntity
  8
HILF
100
AcDbLine
 10
566.0000000000001
 20
59.99999999999997
 30
0.0
 11
650.0
 21
59.99999999999997
 31
0.0
  0
LINE
  5
43D
330
17
100
AcDbEntity
  8
HILF
100
AcDbLine
 10
566.0000000000001
 20
69.99999999999994
 30
0.0
 11
650.0
 21
69.99999999999994
 31
0.0
  0
LINE
  5
43E
330
17
100
AcDbEntity
  8
HILF
100
AcDbLine
 10
470.0000000000001
 20
39.99999999999997
 30
0.0
 11
566.0000000000001
 21
39.99999999999997
 31
0.0
  0
LINE
  5
43F
330
17
100
AcDbEntity
  8
HILF
100
AcDbLine
 10
470.0000000000001
 20
49.99999999999997
 30
0.0
 11
566.0000000000001
 21
49.99999999999997
 31
0.0
  0
LINE
  5
440
330
17
100
AcDbEntity
  8
HILF
100
AcDbLine
 10
470.0000000000001
 20
59.99999999999997
 30
0.0
 11
566.0000000000001
 21
59.99999999999997
 31
0.0
  0
LINE
  5
441
330
17
100
AcDbEntity
  8
HILF
100
AcDbLine
 10
470.0000000000001
 20
69.99999999999994
 30
0.0
 11
566.0000000000001
 21
69.99999999999994
 31
0.0
  0
LINE
  5
442
330
17
100
AcDbEntity
  8
HILF
100
AcDbLine
 10
470.0000000000001
 20
79.99999999999994
 30
0.0
 11
566.0000000000001
 21
79.99999999999994
 31
0.0
  0
LINE
  5
443
330
17
100
AcDbEntity
  8
STEMPEL
100
AcDbLine
 10
565.9999999999999
 20
29.99999999999997
 30
0.0
 11
470.0
 21
29.99999999999997
 31
0.0
  0
TEXT
  5
444
330
17
100
AcDbEntity
  8
TEXT
100
AcDbText
 10
471.8550995097768
 20
111.6719999999999
 30
0.0
 40
5.0
  1
Erstellt mit AUTOCAD 2004
 41
0.8
  7
GREEKS
100
AcDbText
  0
LINE
  5
445
330
17
100
AcDbEntity
  8
HILF
100
AcDbLine
 10
470.0000000000001
 20
90.00000000000005
 30
0.0
 11
566.0000000000001
 21
90.00000000000005
 31
0.0
  0
LINE
  5
446
330
17
100
AcDbEntity
  8
HILF
100
AcDbLine
 10
470.0000000000001
 20
100.0
 30
0.0
 11
566.0000000000001
 21
100.0
 31
0.0
  0
LINE
  5
447
330
17
100
AcDbEntity
  8
VOLL
100
AcDbLine
 10
610.0000000000001
 20
109.9999999999998
 30
0.0
 11
610.0
 21
39.99999999999997
 31
0.0
  0
TEXT
  5
448
330
17
100
AcDbEntity
  8
TEXT
100
AcDbText
 10
622.4626584226294
 20
73.30961091915225
 30
0.0
 40
4.0
  1
Name
 41
0.8
  7
GREEKS
100
AcDbText
  0
TEXT
  5
449
330
17
100
AcDbEntity
  8
TEXT
100
AcDbText
 10
624.4216048581257
 20
63.0896391972351
 30
0.0
 40
4.0
  1
Koeh
 41
0.8
  7
GREEKS
 72
     1
 11
629.6787477152686
 21
63.0896391972351
 31
0.0
100
AcDbText
  0
LINE
  5
44A
330
17
100
AcDbEntity
  8
VOLL
100
AcDbLine
 10
584.0000000000001
 20
79.99999999999994
 30
0.0
 11
584.0000000000001
 21
39.99999999999997
 31
0.0
  0
TEXT
  5
44B
330
17
100
AcDbEntity
  8
TEXT
100
AcDbText
 10
592.3311673153651
 20
73.31880501229926
 30
0.0
 40
4.0
  1
Tag
 41
0.8
  7
GREEKS
100
AcDbText
  0
TEXT
  5
44C
330
17
100
AcDbEntity
  8
TEXT
100
AcDbText
 10
590.3989971082361
 20
63.10765040825732
 30
0.0
 40
4.0
  1
29.06.
 41
0.8
  7
GREEKS
 72
     1
 11
597.4085209177599
 21
63.10765040825732
 31
0.0
100
AcDbText
  0
TEXT
  5
44D
330
17
100
AcDbEntity
  8
TEXT
100
AcDbText
 10
614.2858954734052
 20
89.82358703430207
 30
0.0
 40
4.0
  1
DIN EN1123-2
 41
0.8
  7
GREEKS
100
AcDbText
  0
TEXT
  5
44E
330
17
100
AcDbEntity
  8
TEXT
100
AcDbText
 10
614.2858954734052
 20
102.4184168434819
 30
0.0
 40
5.0
  1
Zul. Abw.
 41
0.8
  7
GREEKS
100
AcDbText
  0
TEXT
  5
44F
330
17
100
AcDbEntity
  8
TEXT
 62
     1
100
AcDbText
 10
580.5006306481886
 20
88.14901428913959
 30
0.0
 40
7.0
  1
1:2
 41
0.8
  7
GREEKS
100
AcDbText
  0
TEXT
  5
450
330
17
100
AcDbEntity
  8
TEXT
100
AcDbText
 10
573.5163572150376
 20
102.4620895087088
 30
0.0
 40
5.0
  1
Maßstab
 41
0.8
  7
GREEKS
100
AcDbText
  0
ARC
  5
466
102
{ACAD_REACTORS
330
A6E
330
AA8
102
}
330
17
100
AcDbEntity
  8
STEMPEL
100
AcDbCircle
 10
291.2363394647798
 20
349.6464629549655
 30
0.0
 40
8.0
100
AcDbArc
 50
210.0
 51
270.0
  0
LINE
  5
467
102
{ACAD_REACTORS
330
A6E
102
}
330
17
100
AcDbEntity
  8
STEMPEL
100
AcDbLine
 10
295.3025827350393
 20
343.6464629549653
 30
0.0
 11
295.3025827350393
 21
341.6464629549653
 31
0.0
  0
POINT
  5
468
330
17
100
AcDbEntity
  8
DEFPOINTS
  6
ByBlock
 62
     0
100
AcDbPoint
 10
285.4883068062771
 20
367.0927752045662
 30
0.0
  0
LINE
  5
46C
102
{ACAD_REACTORS
330
A94
102
}
330
17
100
AcDbEntity
  8
STEMPEL
100
AcDbLine
 10
287.57592447641
 20
344.8923739662191
 30
0.0
 11
299.3025827350392
 21
344.8923739662191
 31
0.0
  0
LINE
  5
46D
102
{ACAD_REACTORS
330
A6E
102
}
330
17
100
AcDbEntity
  8
STEMPEL
100
AcDbLine
 10
291.23633946478
 20
341.6464629549653
 30
0.0
 11
299.3025827350392
 21
341.6464629549653
 31
0.0
  0
LINE
  5
46E
102
{ACAD_REACTORS
330
A6E
102
}
330
17
100
AcDbEntity
  8
STEMPEL
100
AcDbLine
 10
291.2363394647798
 20
343.6464629549653
 30
0.0
 11
299.3025827350392
 21
343.6464629549653
 31
0.0
  0
ARC
  5
472
102
{ACAD_REACTORS
330
A6E
330
AA8
102
}
330
17
100
AcDbEntity
  8
STEMPEL
100
AcDbCircle
 10
440.3688260052986
 20
349.6464629549655
 30
0.0
 40
8.0
100
AcDbArc
 50
270.0000000000001
 51
330.0000000000001
  0
LINE
  5
473
102
{ACAD_REACTORS
330
A6E
102
}
330
17
100
AcDbEntity
  8
STEMPEL
100
AcDbLine
 10
436.3025827350393
 20
343.6464629549655
 30
0.0
 11
436.3025827350393
 21
341.6464629549655
 31
0.0
  0
LINE
  5
474
102
{ACAD_REACTORS
330
A6E
102
}
330
17
100
AcDbEntity
  8
STEMPEL
100
AcDbLine
 10
432.3025827350393
 20
343.6464629549655
 30
0.0
 11
440.3688260052986
 21
343.6464629549655
 31
0.0
  0
LINE
  5
475
330
17
100
AcDbEntity
  8
STEMPEL
100
AcDbLine
 10
432.3025827350392
 20
341.6464629549655
 30
0.0
 11
440.3688260052986
 21
341.6464629549655
 31
0.0
  0
LINE
  5
476
102
{ACAD_REACTORS
330
A6E
102
}
330
17
100
AcDbEntity
  8
STEMPEL
100
AcDbLine
 10
432.3025827350392
 20
341.6464629549655
 30
0.0
 11
440.3688260052986
 21
341.6464629549655
 31
0.0
  0
LINE
  5
477
102
{ACAD_REACTORS
330
A94
102
}
330
17
100
AcDbEntity
  8
STEMPEL
100
AcDbLine
 10
432.3025827350393
 20
344.892373966219
 30
0.0
 11
444.0292409936672
 21
344.8923739662191
 31
0.0
  0
POINT
  5
47B
330
17
100
AcDbEntity
  8
DEFPOINTS
  6
ByBlock
 62
     0
100
AcDbPoint
 10
440.174081520097
 20
369.3342171850382
 30
0.0
  0
POINT
  5
47C
330
17
100
AcDbEntity
  8
DEFPOINTS
  6
ByBlock
 62
     0
100
AcDbPoint
 10
440.174081520097
 20
369.3342171850382
 30
0.0
  0
LINE
  5
482
102
{ACAD_REACTORS
330
A6E
102
}
330
17
100
AcDbEntity
  8
STEMPEL
100
AcDbLine
 10
200.8025827350393
 20
375.6464629549653
 30
0.0
 11
274.9236959101695
 21
375.6464629549654
 31
0.0
  0
LINE
  5
483
102
{ACAD_REACTORS
330
A94
102
}
330
17
100
AcDbEntity
  8
STEMPEL
100
AcDbLine
 10
115.8025827350392
 20
380.6464629549653
 30
0.0
 11
274.9236959101695
 21
380.6464629549653
 31
0.0
  0
LINE
  5
484
102
{ACAD_REACTORS
330
A6E
330
A94
102
}
330
17
100
AcDbEntity
  8
STEMPEL
100
AcDbLine
 10
115.8025827350392
 20
377.6464629549654
 30
0.0
 11
274.9236959101695
 21
377.6464629549654
 31
0.0
  0
DIMENSION
  5
486
330
17
100
AcDbEntity
  8
BEM
100
AcDbDimension
  2
*D1
 10
530.8025827350393
 20
529.8306352677534
 30
0.0
 11
365.8025827350393
 21
536.3306352677534
 31
0.0
 70
    32
  1
%%c<>
 71
     5
 42
330.0000000000001
  3
STANDARD
100
AcDbAlignedDimension
 13
200.8025827350393
 23
377.6464629549654
 33
0.0
 14
530.8025827350393
 24
377.6464629549654
 34
0.0
100
AcDbRotatedDimension
  0
LINE
  5
487
102
{ACAD_REACTORS
330
A94
102
}
330
17
100
AcDbEntity
  8
STEMPEL
100
AcDbLine
 10
115.8025827350392
 20
380.6464629549653
 30
0.0
 11
115.8025827350392
 21
377.6464629549654
 31
0.0
  0
LINE
  5
488
330
17
100
AcDbEntity
  8
STEMPEL
100
AcDbLine
 10
200.8025827350393
 20
377.6464629549654
 30
0.0
 11
200.8025827350393
 21
375.6464629549653
 31
0.0
  0
LINE
  5
489
102
{ACAD_REACTORS
330
A6E
102
}
330
17
100
AcDbEntity
  8
STEMPEL
100
AcDbLine
 10
200.8025827350393
 20
377.6464629549654
 30
0.0
 11
200.8025827350393
 21
375.6464629549653
 31
0.0
  0
LINE
  5
48A
102
{ACAD_REACTORS
330
A6E
102
}
330
17
100
AcDbEntity
  8
STEMPEL
100
AcDbLine
 10
530.8025827350393
 20
375.6464629549653
 30
0.0
 11
456.681469559909
 21
375.6464629549654
 31
0.0
  0
LINE
  5
48B
102
{ACAD_REACTORS
330
A94
102
}
330
17
100
AcDbEntity
  8
STEMPEL
100
AcDbLine
 10
456.681469559909
 20
380.6464629549653
 30
0.0
 11
615.8025827350392
 21
380.6464629549653
 31
0.0
  0
LINE
  5
48C
102
{ACAD_REACTORS
330
A6E
330
A94
102
}
330
17
100
AcDbEntity
  8
STEMPEL
100
AcDbLine
 10
456.681469559909
 20
377.6464629549654
 30
0.0
 11
615.8025827350392
 21
377.6464629549654
 31
0.0
  0
LINE
  5
4A7
330
17
100
AcDbEntity
  8
STEMPEL
100
AcDbLine
 10
295.5025827350393
 20
367.8923739662191
 30
0.0
 11
294.7874231479287
 21
376.0666854517144
 31
0.0
  0
LINE
  5
4A9
330
17
100
AcDbEntity
  8
STEMPEL
100
AcDbLine
 10
288.8178330139425
 20
376.0666854517144
 30
0.0
 11
287.8978095328957
 21
365.550768943581
 31
0.0
  0
ARC
  5
4AA
102
{ACAD_REACTORS
330
A6E
102
}
330
17
100
AcDbEntity
  8
STEMPEL
100
AcDbCircle
 10
274.9236959101695
 20
372.1464629549654
 30
0.0
 40
3.5
100
AcDbArc
 50
350.0
 51
90.0
  0
ARC
  5
4AB
102
{ACAD_REACTORS
330
A94
102
}
330
17
100
AcDbEntity
  8
STEMPEL
100
AcDbCircle
 10
274.9236959101695
 20
372.1464629549654
 30
0.0
 40
8.5
100
AcDbArc
 50
349.9999999999999
 51
90.00000000000003
  0
ARC
  5
4AC
102
{ACAD_REACTORS
330
A6E
330
A94
102
}
330
17
100
AcDbEntity
  8
STEMPEL
100
AcDbCircle
 10
274.9236959101695
 20
372.1464629549654
 30
0.0
 40
5.5
100
AcDbArc
 50
350.0000000000002
 51
90.00000000000003
  0
LINE
  5
4AD
330
17
100
AcDbEntity
  8
STEMPEL
100
AcDbLine
 10
290.8025827350395
 20
352.892373966219
 30
0.0
 11
290.8025827350394
 21
375.892373966219
 31
0.0
  0
LINE
  5
4AE
330
17
100
AcDbEntity
  8
STEMPEL
100
AcDbLine
 10
292.8025827350395
 20
352.892373966219
 30
0.0
 11
292.8025827350394
 21
375.892373966219
 31
0.0
  0
LINE
  5
4B0
330
17
100
AcDbEntity
  8
STEMPEL
100
AcDbLine
 10
284.446883252243
 20
365.1693227712872
 30
0.0
 11
287.8266524042448
 21
365.1693227712872
 31
0.0
  0
LINE
  5
4B1
102
{ACAD_REACTORS
330
A94
102
}
330
17
100
AcDbEntity
  8
STEMPEL
100
AcDbLine
 10
281.8025827350393
 20
359.9862089171211
 30
0.0
 11
288.6382632534266
 21
348.1464629549655
 31
0.0
  0
ARC
  5
4B2
330
17
100
AcDbEntity
  8
STEMPEL
100
AcDbCircle
 10
286.7937591866362
 20
365.2658923059938
 30
0.0
 40
1.0
100
AcDbArc
 50
227.8915544213075
 51
332.6652690310767
  0
LINE
  5
4B3
102
{ACAD_REACTORS
330
A6E
330
A94
102
}
330
17
100
AcDbEntity
  8
STEMPEL
100
AcDbLine
 10
278.8025827350392
 20
362.4714856279137
 30
0.0
 11
278.8025827350393
 21
359.1823613398278
 31
0.0
  0
LINE
  5
4B4
102
{ACAD_REACTORS
330
A94
102
}
330
17
100
AcDbEntity
  8
STEMPEL
100
AcDbLine
 10
281.8025827350392
 20
362.209019637336
 30
0.0
 11
281.8025827350393
 21
359.9862089171211
 31
0.0
  0
LINE
  5
4B5
102
{ACAD_REACTORS
330
A6E
102
}
330
17
100
AcDbEntity
  8
STEMPEL
100
AcDbLine
 10
276.8025827350392
 20
362.6464629549654
 30
0.0
 11
276.8025827350393
 21
358.6464629549654
 31
0.0
  0
LINE
  5
4B6
102
{ACAD_REACTORS
330
A6E
330
A94
102
}
330
17
100
AcDbEntity
  8
STEMPEL
100
AcDbLine
 10
278.8025827350393
 20
359.1823613398278
 30
0.0
 11
286.0401870420732
 21
346.6464629549655
 31
0.0
  0
LINE
  5
4B7
330
17
100
AcDbEntity
  8
STEMPEL
100
AcDbLine
 10
281.9993212744467
 20
363.3247793390948
 30
0.0
 11
282.1694918024726
 21
363.700578406187
 31
0.0
  0
LINE
  5
4B8
102
{ACAD_REACTORS
330
A6E
330
A94
102
}
330
17
100
AcDbEntity
  8
STEMPEL
100
AcDbLine
 10
278.8025827350392
 20
362.4714856279137
 30
0.0
 11
280.3401385517367
 21
371.1913979777973
 31
0.0
  0
LINE
  5
4B9
102
{ACAD_REACTORS
330
A6E
102
}
330
17
100
AcDbEntity
  8
STEMPEL
100
AcDbLine
 10
276.8025827350392
 20
362.6464629549654
 30
0.0
 11
278.3705230457122
 21
371.5386943331312
 31
0.0
  0
LINE
  5
4BA
102
{ACAD_REACTORS
330
A94
102
}
330
17
100
AcDbEntity
  8
STEMPEL
100
AcDbLine
 10
281.8025827350392
 20
362.209019637336
 30
0.0
 11
283.2945618107732
 21
370.6704534447966
 31
0.0
  0
ARC
  5
4BB
330
17
100
AcDbEntity
  8
STEMPEL
100
AcDbCircle
 10
284.446883252243
 20
362.6693227712872
 30
0.0
 40
2.499999999999997
100
AcDbArc
 50
47.89155442130723
 51
155.6378802944081
  0
LINE
  5
4BC
330
17
100
AcDbEntity
  8
STEMPEL
100
AcDbLine
 10
299.3025827350388
 20
359.3992966956489
 30
0.0
 11
298.1692943675828
 21
365.8264944103864
 31
0.0
  0
LINE
  5
4BD
330
17
100
AcDbEntity
  8
STEMPEL
100
AcDbLine
 10
295.8025827350393
 20
348.8923739662191
 30
0.0
 11
299.3025827350392
 21
348.8923739662191
 31
0.0
  0
LINE
  5
4BE
330
17
100
AcDbEntity
  8
STEMPEL
100
AcDbLine
 10
290.8025827350395
 20
352.892373966219
 30
0.0
 11
292.8025827350395
 21
352.892373966219
 31
0.0
  0
ARC
  5
4BF
330
17
100
AcDbEntity
  8
STEMPEL
100
AcDbCircle
 10
291.2363394647798
 20
349.6464629549655
 30
0.0
 40
3.0
100
AcDbArc
 50
210.0
 51
215.7815399860359
  0
LINE
  5
4C0
330
17
100
AcDbEntity
  8
STEMPEL
100
AcDbLine
 10
295.8025827350393
 20
348.8923739662191
 30
0.0
 11
294.0705319274704
 21
347.8923739662191
 31
0.0
  0
LINE
  5
4C1
102
{ACAD_REACTORS
330
A94
102
}
330
17
100
AcDbEntity
  8
STEMPEL
100
AcDbLine
 10
288.8025827350385
 20
347.8923739662191
 30
0.0
 11
299.3025827350392
 21
347.8923739662191
 31
0.0
  0
LINE
  5
4C3
330
17
100
AcDbEntity
  8
STEMPEL
100
AcDbLine
 10
295.5025827350393
 20
367.8923739662191
 30
0.0
 11
299.3025827350392
 21
367.892373966219
 31
0.0
  0
ARC
  5
4C4
330
17
100
AcDbEntity
  8
STEMPEL
100
AcDbCircle
 10
295.7072749850523
 20
365.392373966219
 30
0.0
 40
2.5
100
AcDbArc
 50
9.999999999999989
 51
90.0
  0
ARC
  5
4C5
330
17
100
AcDbEntity
  8
STEMPEL
100
AcDbCircle
 10
285.9054201367122
 20
365.7250804290763
 30
0.0
 40
2.0
100
AcDbArc
 50
332.6652690310767
 51
354.9999999999999
  0
LINE
  5
4C8
102
{ACAD_REACTORS
330
A94
102
}
330
17
100
AcDbEntity
  8
STEMPEL
100
AcDbLine
 10
268.3025827350394
 20
380.6464629549654
 30
0.0
 11
365.8025827350392
 21
380.6464629549654
 31
0.0
  0
LINE
  5
4D1
330
17
100
AcDbEntity
  8
STEMPEL
100
AcDbLine
 10
290.810222410126
 20
377.892373966219
 30
0.0
 11
299.3025827350393
 21
377.8923739662191
 31
0.0
  0
ARC
  5
4D2
330
17
100
AcDbEntity
  8
STEMPEL
100
AcDbCircle
 10
292.7950337517452
 20
375.892373966219
 30
0.0
 40
2.0
100
AcDbArc
 50
4.999999999999742
 51
90.0
  0
ARC
  5
4D3
330
17
100
AcDbEntity
  8
STEMPEL
100
AcDbCircle
 10
292.7950337517452
 20
375.892373966219
 30
0.0
 40
2.0
100
AcDbArc
 50
4.999999999999892
 51
5.279407259921094
  0
ARC
  5
4D4
330
17
100
AcDbEntity
  8
STEMPEL
100
AcDbCircle
 10
290.810222410126
 20
375.892373966219
 30
0.0
 40
2.0
100
AcDbArc
 50
90.0
 51
175.0
  0
LINE
  5
4D5
330
17
100
AcDbEntity
  8
STEMPEL
100
AcDbLine
 10
290.8025827350394
 20
375.892373966219
 30
0.0
 11
292.8025827350394
 21
375.892373966219
 31
0.0
  0
POINT
  5
4F0
330
17
100
AcDbEntity
  8
DEFPOINTS
  6
ByBlock
 62
     0
100
AcDbPoint
 10
261.218063574267
 20
474.5082383949069
 30
0.0
  0
LINE
  5
502
330
17
100
AcDbEntity
  8
STEMPEL
100
AcDbLine
 10
436.1018535973766
 20
367.8840398845976
 30
0.0
 11
436.81774232215
 21
376.0666854517144
 31
0.0
  0
ARC
  5
503
102
{ACAD_REACTORS
330
A6E
102
}
330
17
100
AcDbEntity
  8
STEMPEL
100
AcDbCircle
 10
456.681469559909
 20
372.1464629549654
 30
0.0
 40
3.5
100
AcDbArc
 50
89.99999999999998
 51
190.0
  0
LINE
  5
504
330
17
100
AcDbEntity
  8
STEMPEL
100
AcDbLine
 10
442.7873324561363
 20
376.0666854517144
 30
0.0
 11
443.7073559371831
 21
365.550768943581
 31
0.0
  0
ARC
  5
505
102
{ACAD_REACTORS
330
A94
102
}
330
17
100
AcDbEntity
  8
STEMPEL
100
AcDbCircle
 10
456.681469559909
 20
372.1464629549654
 30
0.0
 40
8.5
100
AcDbArc
 50
89.99999999999998
 51
190.0000000000004
  0
ARC
  5
506
102
{ACAD_REACTORS
330
A6E
330
A94
102
}
330
17
100
AcDbEntity
  8
STEMPEL
100
AcDbCircle
 10
456.681469559909
 20
372.1464629549654
 30
0.0
 40
5.5
100
AcDbArc
 50
89.99999999999998
 51
189.9999999999998
  0
LINE
  5
508
330
17
100
AcDbEntity
  8
STEMPEL
100
AcDbLine
 10
440.8025827350392
 20
352.892373966219
 30
0.0
 11
440.8025827350393
 21
375.892373966219
 31
0.0
  0
LINE
  5
509
330
17
100
AcDbEntity
  8
STEMPEL
100
AcDbLine
 10
438.8025827350392
 20
352.892373966219
 30
0.0
 11
438.8025827350394
 21
375.892373966219
 31
0.0
  0
LINE
  5
50B
330
17
100
AcDbEntity
  8
STEMPEL
100
AcDbLine
 10
447.1582822178355
 20
365.1693227712872
 30
0.0
 11
443.7785130658335
 21
365.1693227712872
 31
0.0
  0
LINE
  5
50C
102
{ACAD_REACTORS
330
A94
102
}
330
17
100
AcDbEntity
  8
STEMPEL
100
AcDbLine
 10
449.8025827350391
 20
359.9862089171212
 30
0.0
 11
442.9669022166519
 21
348.1464629549655
 31
0.0
  0
ARC
  5
50D
330
17
100
AcDbEntity
  8
STEMPEL
100
AcDbCircle
 10
444.8114062834425
 20
365.2658923059935
 30
0.0
 40
1.0
100
AcDbArc
 50
207.3347309689232
 51
312.1084455786924
  0
LINE
  5
50E
330
17
100
AcDbEntity
  8
STEMPEL
100
AcDbLine
 10
432.3025827350392
 20
359.3992966956452
 30
0.0
 11
433.4358711024959
 21
365.8264944103864
 31
0.0
  0
ARC
  5
50F
330
17
100
AcDbEntity
  8
STEMPEL
100
AcDbCircle
 10
440.3688260052986
 20
349.6464629549655
 30
0.0
 40
3.0
100
AcDbArc
 50
324.2184600139409
 51
330.0000000000001
  0
LINE
  5
510
330
17
100
AcDbEntity
  8
STEMPEL
100
AcDbLine
 10
440.8025827350392
 20
352.892373966219
 30
0.0
 11
438.8025827350392
 21
352.892373966219
 31
0.0
  0
LINE
  5
511
330
17
100
AcDbEntity
  8
STEMPEL
100
AcDbLine
 10
435.8025827350394
 20
348.8923739662191
 30
0.0
 11
437.5346335426083
 21
347.8923739662191
 31
0.0
  0
LINE
  5
512
330
17
100
AcDbEntity
  8
STEMPEL
100
AcDbLine
 10
432.3025827350393
 20
348.8923739662191
 30
0.0
 11
435.8025827350394
 21
348.8923739662191
 31
0.0
  0
LINE
  5
513
102
{ACAD_REACTORS
330
A94
102
}
330
17
100
AcDbEntity
  8
STEMPEL
100
AcDbLine
 10
432.3025827350393
 20
347.8923739662191
 30
0.0
 11
442.802582735038
 21
347.8923739662191
 31
0.0
  0
ARC
  5
514
330
17
100
AcDbEntity
  8
STEMPEL
100
AcDbCircle
 10
445.6997453333665
 20
365.7250804290762
 30
0.0
 40
2.0
100
AcDbArc
 50
184.9999999999999
 51
207.3347309689232
  0
ARC
  5
516
330
17
100
AcDbEntity
  8
STEMPEL
100
AcDbCircle
 10
435.8978904850265
 20
365.392373966219
 30
0.0
 40
2.5
100
AcDbArc
 50
85.32030851368308
 51
170.0
  0
LINE
  5
517
330
17
100
AcDbEntity
  8
STEMPEL
100
AcDbLine
 10
362.1421677466695
 20
367.8923739662192
 30
0.0
 11
369.4629977234092
 21
367.8923739662192
 31
0.0
  0
LINE
  5
518
102
{ACAD_REACTORS
330
A6E
330
A94
102
}
330
17
100
AcDbEntity
  8
STEMPEL
100
AcDbLine
 10
452.8025827350393
 20
362.4714856279137
 30
0.0
 11
452.8025827350393
 21
359.1823613398278
 31
0.0
  0
LINE
  5
519
102
{ACAD_REACTORS
330
A6E
102
}
330
17
100
AcDbEntity
  8
STEMPEL
100
AcDbLine
 10
454.8025827350392
 20
362.6464629549654
 30
0.0
 11
454.8025827350392
 21
358.6464629549654
 31
0.0
  0
LINE
  5
51A
102
{ACAD_REACTORS
330
A94
102
}
330
17
100
AcDbEntity
  8
STEMPEL
100
AcDbLine
 10
449.8025827350392
 20
362.2090196373359
 30
0.0
 11
449.8025827350391
 21
359.9862089171212
 31
0.0
  0
LINE
  5
51B
102
{ACAD_REACTORS
330
A6E
330
A94
102
}
330
17
100
AcDbEntity
  8
STEMPEL
100
AcDbLine
 10
452.8025827350393
 20
359.1823613398278
 30
0.0
 11
445.5649784280051
 21
346.6464629549655
 31
0.0
  0
LINE
  5
51C
330
17
100
AcDbEntity
  8
STEMPEL
100
AcDbLine
 10
449.6058441956318
 20
363.3247793390947
 30
0.0
 11
449.435673667606
 21
363.7005784061869
 31
0.0
  0
LINE
  5
51D
102
{ACAD_REACTORS
330
A6E
330
A94
102
}
330
17
100
AcDbEntity
  8
STEMPEL
100
AcDbLine
 10
452.8025827350393
 20
362.4714856279137
 30
0.0
 11
451.2650269183417
 21
371.1913979777973
 31
0.0
  0
LINE
  5
51E
102
{ACAD_REACTORS
330
A6E
102
}
330
17
100
AcDbEntity
  8
STEMPEL
100
AcDbLine
 10
454.8025827350392
 20
362.6464629549654
 30
0.0
 11
453.2346424243661
 21
371.5386943331312
 31
0.0
  0
ARC
  5
51F
330
17
100
AcDbEntity
  8
STEMPEL
100
AcDbCircle
 10
447.1582822178357
 20
362.6693227712871
 30
0.0
 40
2.499999999999997
100
AcDbArc
 50
24.36211970559212
 51
132.1084455786927
  0
LINE
  5
520
102
{ACAD_REACTORS
330
A94
102
}
330
17
100
AcDbEntity
  8
STEMPEL
100
AcDbLine
 10
449.8025827350392
 20
362.2090196373359
 30
0.0
 11
448.3106036593051
 21
370.6704534447963
 31
0.0
  0
LINE
  5
521
330
17
100
AcDbEntity
  8
STEMPEL
100
AcDbLine
 10
365.8025827350392
 20
380.6464629549655
 30
0.0
 11
463.3025827350391
 21
380.6464629549654
 31
0.0
  0
LINE
  5
528
330
17
100
AcDbEntity
  8
STEMPEL
100
AcDbLine
 10
358.0820928840613
 20
377.8923739662191
 30
0.0
 11
373.5230725860173
 21
377.892373966219
 31
0.0
  0
ARC
  5
529
330
17
100
AcDbEntity
  8
STEMPEL
100
AcDbCircle
 10
438.8101317183336
 20
375.892373966219
 30
0.0
 40
2.0
100
AcDbArc
 50
90.0
 51
175.0000000000002
  0
ARC
  5
52B
330
17
100
AcDbEntity
  8
STEMPEL
100
AcDbCircle
 10
438.8101317183336
 20
375.892373966219
 30
0.0
 40
2.0
100
AcDbArc
 50
174.7205927399431
 51
175.0000000000001
  0
LINE
  5
52C
330
17
100
AcDbEntity
  8
STEMPEL
100
AcDbLine
 10
440.8025827350393
 20
375.892373966219
 30
0.0
 11
438.8025827350394
 21
375.892373966219
 31
0.0
  0
ARC
  5
52D
330
17
100
AcDbEntity
  8
STEMPEL
100
AcDbCircle
 10
440.7949430599527
 20
375.892373966219
 30
0.0
 40
2.0
100
AcDbArc
 50
4.999999999999969
 51
90.0
  0
LINE
  5
559
330
17
100
AcDbEntity
  8
BEM
 62
     1
100
AcDbLine
 10
356.3124832680685
 20
547.9869212684654
 30
0.0
 11
356.3124832680685
 21
553.5869212684655
 31
0.0
  0
LINE
  5
55A
330
17
100
AcDbEntity
  8
BEM
 62
     1
100
AcDbLine
 10
361.9124832680685
 20
553.5869212684655
 30
0.0
 11
361.9124832680685
 21
547.9869212684654
 31
0.0
  0
LINE
  5
55B
330
17
100
AcDbEntity
  8
BEM
 62
     1
100
AcDbLine
 10
361.9124832680685
 20
547.9869212684654
 30
0.0
 11
356.3124832680685
 21
547.9869212684654
 31
0.0
  0
LINE
  5
55C
330
17
100
AcDbEntity
  8
BEM
 62
     1
100
AcDbLine
 10
356.3124832680685
 20
553.5869212684655
 30
0.0
 11
361.9124832680685
 21
553.5869212684655
 31
0.0
  0
LINE
  5
55D
330
17
100
AcDbEntity
  8
HILF
 62
     7
100
AcDbLine
 10
459.9999999999998
 20
584.0
 30
0.0
 11
459.9999999999998
 21
593.9999999999998
 31
0.0
  0
LINE
  5
55E
102
{ACAD_REACTORS
330
A6E
102
}
330
17
100
AcDbEntity
  8
STEMPEL
100
AcDbLine
 10
530.8025827350393
 20
377.6464629549654
 30
0.0
 11
530.8025827350393
 21
375.6464629549653
 31
0.0
  0
LINE
  5
55F
102
{ACAD_REACTORS
330
A94
102
}
330
17
100
AcDbEntity
  8
STEMPEL
100
AcDbLine
 10
615.8025827350392
 20
380.6464629549653
 30
0.0
 11
615.8025827350392
 21
377.6464629549654
 31
0.0
  0
LINE
  5
562
330
17
100
AcDbEntity
  8
HILF
100
AcDbLine
 10
840.0
 20
-0.0000000000001137
 30
0.0
 11
839.9999999999998
 21
594.0
 31
0.0
  0
LINE
  5
563
330
17
100
AcDbEntity
  8
STEMPEL
100
AcDbLine
 10
830.0
 20
110.0
 30
0.0
 11
830.0
 21
584.0
 31
0.0
  0
LINE
  5
564
330
17
100
AcDbEntity
  8
STEMPEL
100
AcDbLine
 10
830.0
 20
110.0
 30
0.0
 11
830.0
 21
10.0
 31
0.0
  0
TEXT
  5
565
330
17
100
AcDbEntity
  8
TEXT
100
AcDbText
 10
756.178754957634
 20
102.3132034537136
 30
0.0
 40
5.0
  1
Zeichnungs Nr.
 41
0.8
  7
GREEKS
100
AcDbText
  0
TEXT
  5
566
330
17
100
AcDbEntity
  8
TEXT
100
AcDbText
 10
756.7238616296992
 20
73.1811823709997
 30
0.0
 40
5.0
  1
Ersatz für:
 41
0.8
  7
GREEKS
100
AcDbText
  0
TEXT
  5
567
330
17
100
AcDbEntity
  8
TEXT
 62
     1
100
AcDbText
 10
766.9756445641917
 20
88.14901428913959
 30
0.0
 40
7.0
  1
17141125W
 41
0.8
  7
GREEKS
 72
     1
 11
788.8423112308584
 21
88.14901428913959
 31
0.0
100
AcDbText
  0
TEXT
  5
568
330
17
100
AcDbEntity
  8
TEXT
100
AcDbText
 10
757.2400861497006
 20
52.07416177878602
 30
0.0
 40
5.0
  1
ersetzt durch:
 41
0.8
  7
GREEKS
100
AcDbText
  0
LINE
  5
569
330
17
100
AcDbEntity
  8
HILF
100
AcDbLine
 10
756.7238616296992
 20
83.77983636955827
 30
0.0
 11
824.8588839326728
 21
83.77983636955827
 31
0.0
  0
LINE
  5
56A
330
17
100
AcDbEntity
  8
VOLL
100
AcDbLine
 10
752.0
 20
60.0
 30
0.0
 11
830.0
 21
60.0
 31
0.0
  0
LINE
  5
56B
330
17
100
AcDbEntity
  8
STEMPEL
100
AcDbLine
 10
752.0
 20
109.9999999999997
 30
0.0
 11
752.0
 21
40.0
 31
0.0
  0
DIMENSION
  5
5CC
330
17
100
AcDbEntity
  8
BEM
100
AcDbDimension
  2
*D2
 10
115.8025827350392
 20
544.4674400223223
 30
0.0
 11
365.8025827350393
 21
550.9674400223222
 31
0.0
 70
    32
  1
 <>
 71
     5
 42
500.0
  3
STANDARD
100
AcDbAlignedDimension
 13
615.8025827350392
 23
380.6464629549653
 33
0.0
 14
115.8025827350392
 24
380.6464629549653
 34
0.0
100
AcDbRotatedDimension
  0
LINE
  5
79C
102
{ACAD_REACTORS
330
7EB
102
}
330
17
100
AcDbEntity
  8
STEMPEL
100
AcDbLine
 10
432.3025827350392
 20
234.2759901839099
 30
0.0
 11
432.3025827350388
 21
112.5591410691352
 31
0.0
  0
LINE
  5
79D
102
{ACAD_REACTORS
330
7EB
102
}
330
17
100
AcDbEntity
  8
STEMPEL
100
AcDbLine
 10
430.3025827350388
 20
234.2759901839098
 30
0.0
 11
430.30258273504
 21
112.6464629549654
 31
0.0
  0
LINE
  5
7A0
102
{ACAD_REACTORS
330
7EB
102
}
330
17
100
AcDbEntity
  8
STEMPEL
100
AcDbLine
 10
301.3025827350393
 20
234.27599018391
 30
0.0
 11
301.3025827350393
 21
112.6464629549649
 31
0.0
  0
LINE
  5
7A1
102
{ACAD_REACTORS
330
7EB
102
}
330
17
100
AcDbEntity
  8
STEMPEL
100
AcDbLine
 10
299.3025827350393
 20
234.27599018391
 30
0.0
 11
299.3025827350393
 21
112.5591410691481
 31
0.0
  0
LINE
  5
7A2
102
{ACAD_REACTORS
330
7EB
102
}
330
17
100
AcDbEntity
  8
STEMPEL
100
AcDbLine
 10
300.6072730128415
 20
97.64646295496516
 30
0.0
 11
430.9978924572376
 21
97.6464629549654
 31
0.0
  0
LINE
  5
7A3
330
17
100
AcDbEntity
  8
HILF
100
AcDbLine
 10
303.310222410126
 20
112.6464629549651
 30
0.0
 11
428.294943059953
 21
112.6464629549652
 31
0.0
  0
LINE
  5
7A5
102
{ACAD_REACTORS
330
7EB
102
}
330
17
100
AcDbEntity
  8
STEMPEL
100
AcDbLine
 10
299.3025827350393
 20
112.5591410691481
 30
0.0
 11
300.6072730128415
 21
97.64646295496516
 31
0.0
  0
LINE
  5
7A6
102
{ACAD_REACTORS
330
7EB
102
}
330
17
100
AcDbEntity
  8
STEMPEL
100
AcDbLine
 10
301.3025827350393
 20
112.6464629549649
 30
0.0
 11
302.6149126879281
 21
97.64646295496516
 31
0.0
  0
LINE
  5
7A7
102
{ACAD_REACTORS
330
7EB
102
}
330
17
100
AcDbEntity
  8
STEMPEL
100
AcDbLine
 10
432.3025827350388
 20
112.5591410691352
 30
0.0
 11
430.9978924572376
 21
97.6464629549654
 31
0.0
  0
LINE
  5
7A8
102
{ACAD_REACTORS
330
7EB
102
}
330
17
100
AcDbEntity
  8
STEMPEL
100
AcDbLine
 10
430.30258273504
 20
112.6464629549654
 30
0.0
 11
428.9902527821509
 21
97.64646295496516
 31
0.0
  0
LINE
  5
7AA
330
17
100
AcDbEntity
  8
HILF
100
AcDbLine
 10
298.3025827350398
 20
332.140148974338
 30
0.0
 11
300.0391491016495
 21
332.140148974338
 31
0.0
  0
LINE
  5
7AB
330
17
100
AcDbEntity
  8
HILF
100
AcDbLine
 10
299.0908793193985
 20
246.3592688939348
 30
0.0
 11
432.5142861506804
 21
246.3592688939345
 31
0.0
  0
LINE
  5
7AC
330
17
100
AcDbEntity
  8
HILF
100
AcDbLine
 10
302.7951402073222
 20
238.01107958808
 30
0.0
 11
428.8100252627566
 21
238.0110795880798
 31
0.0
  0
LINE
  5
7B9
102
{ACAD_REACTORS
330
7EB
330
AA8
102
}
330
17
100
AcDbEntity
  8
STEMPEL
100
AcDbLine
 10
288.0705319274705
 20
340.7759901839099
 30
0.0
 11
291.9628367728837
 21
334.0343204331081
 31
0.0
  0
LINE
  5
7BA
102
{ACAD_REACTORS
330
7EB
102
}
330
17
100
AcDbEntity
  8
STEMPEL
100
AcDbLine
 10
289.8025827350393
 20
341.7759901839099
 30
0.0
 11
293.6948875804526
 21
335.0343204331077
 31
0.0
  0
ARC
  5
7BC
102
{ACAD_REACTORS
330
AA8
102
}
330
17
100
AcDbEntity
  8
SCHRAFF
100
AcDbCircle
 10
289.8025827350393
 20
341.7759901839099
 30
0.0
 40
3.0
100
AcDbArc
 50
158.8687706150007
 51
258.1896851042214
  0
LINE
  5
7BE
102
{ACAD_REACTORS
330
7EB
330
AA8
102
}
330
17
100
AcDbEntity
  8
STEMPEL
100
AcDbLine
 10
289.8025827350393
 20
341.7759901839099
 30
0.0
 11
288.0705319274705
 21
340.7759901839099
 31
0.0
  0
ARC
  5
7CB
102
{ACAD_REACTORS
330
7EB
102
}
330
17
100
AcDbEntity
  8
STEMPEL
100
AcDbCircle
 10
442.3025827350395
 20
234.2759901839099
 30
0.0
 40
12.0
100
AcDbArc
 50
141.7867892982626
 51
179.9999999999999
  0
ARC
  5
7CC
102
{ACAD_REACTORS
330
7EB
102
}
330
17
100
AcDbEntity
  8
STEMPEL
100
AcDbCircle
 10
442.3025827350395
 20
234.2759901839099
 30
0.0
 40
10.0
100
AcDbArc
 50
141.7867892982628
 51
179.9999999999999
  0
LINE
  5
7CD
102
{ACAD_REACTORS
330
7EB
102
}
330
17
100
AcDbEntity
  8
STEMPEL
100
AcDbLine
 10
441.8025827350393
 20
341.7759901839099
 30
0.0
 11
437.910277889626
 21
335.0343204331076
 31
0.0
  0
LINE
  5
7CE
102
{ACAD_REACTORS
330
7EB
330
AA8
102
}
330
17
100
AcDbEntity
  8
STEMPEL
100
AcDbLine
 10
443.5346335426081
 20
340.7759901839099
 30
0.0
 11
439.6423286971948
 21
334.0343204331079
 31
0.0
  0
ARC
  5
7D0
102
{ACAD_REACTORS
330
AA8
102
}
330
17
100
AcDbEntity
  8
SCHRAFF
100
AcDbCircle
 10
441.8025827350393
 20
341.7759901839099
 30
0.0
 40
3.0
100
AcDbArc
 50
281.8103148957785
 51
21.13122938499929
  0
LINE
  5
7D1
102
{ACAD_REACTORS
330
7EB
330
AA8
102
}
330
17
100
AcDbEntity
  8
STEMPEL
100
AcDbLine
 10
441.8025827350393
 20
341.7759901839099
 30
0.0
 11
443.5346335426081
 21
340.7759901839099
 31
0.0
  0
LINE
  5
7DD
102
{ACAD_REACTORS
330
7EB
102
}
330
17
100
AcDbEntity
  8
STEMPEL
100
AcDbLine
 10
295.3025827350393
 20
329.0343204331077
 30
0.0
 11
295.3025827350393
 21
251.5964982595984
 31
0.0
  0
LINE
  5
7DE
102
{ACAD_REACTORS
330
7EB
102
}
330
17
100
AcDbEntity
  8
STEMPEL
100
AcDbLine
 10
293.3025827350393
 20
329.034320433108
 30
0.0
 11
293.3025827350393
 21
251.5964982595983
 31
0.0
  0
ARC
  5
7DF
102
{ACAD_REACTORS
330
7EB
102
}
330
17
100
AcDbEntity
  8
STEMPEL
100
AcDbCircle
 10
289.3025827350391
 20
234.2759901839099
 30
0.0
 40
12.0
100
AcDbArc
 50
0.0000000000000579
 51
38.21321070173754
  0
ARC
  5
7E0
102
{ACAD_REACTORS
330
7EB
102
}
330
17
100
AcDbEntity
  8
STEMPEL
100
AcDbCircle
 10
289.3025827350391
 20
234.2759901839099
 30
0.0
 40
10.0
100
AcDbArc
 50
0.0000000000000579
 51
38.21321070173745
  0
ARC
  5
7E1
102
{ACAD_REACTORS
330
7EB
102
}
330
17
100
AcDbEntity
  8
STEMPEL
100
AcDbCircle
 10
311.3025827350393
 20
251.5964982595984
 30
0.0
 40
16.0
100
AcDbArc
 50
180.0
 51
218.2132107017374
  0
ARC
  5
7E2
102
{ACAD_REACTORS
330
7EB
102
}
330
17
100
AcDbEntity
  8
STEMPEL
100
AcDbCircle
 10
311.3025827350393
 20
251.5964982595983
 30
0.0
 40
18.0
100
AcDbArc
 50
180.0
 51
218.2132107017373
  0
ARC
  5
7E3
102
{ACAD_REACTORS
330
7EB
102
}
330
17
100
AcDbEntity
  8
STEMPEL
100
AcDbCircle
 10
283.3025827350393
 20
329.034320433108
 30
0.0
 40
10.0
100
AcDbArc
 50
0.0
 51
30.00000000000063
  0
ARC
  5
7E4
102
{ACAD_REACTORS
330
7EB
102
}
330
17
100
AcDbEntity
  8
STEMPEL
100
AcDbCircle
 10
283.3025827350393
 20
329.0343204331077
 30
0.0
 40
12.0
100
AcDbArc
 50
0.0
 51
30.00000000000027
  0
LINE
  5
7E5
102
{ACAD_REACTORS
330
7EB
102
}
330
17
100
AcDbEntity
  8
STEMPEL
100
AcDbLine
 10
436.3025827350393
 20
329.0343204331077
 30
0.0
 11
436.3025827350393
 21
251.5964982595984
 31
0.0
  0
LINE
  5
7E6
102
{ACAD_REACTORS
330
7EB
102
}
330
17
100
AcDbEntity
  8
STEMPEL
100
AcDbLine
 10
438.3025827350393
 20
329.034320433108
 30
0.0
 11
438.3025827350393
 21
251.5964982595983
 31
0.0
  0
ARC
  5
7E7
102
{ACAD_REACTORS
330
7EB
102
}
330
17
100
AcDbEntity
  8
STEMPEL
100
AcDbCircle
 10
420.3025827350392
 20
251.5964982595983
 30
0.0
 40
18.0
100
AcDbArc
 50
321.7867892982625
 51
0.000000000000007
  0
ARC
  5
7E8
102
{ACAD_REACTORS
330
7EB
102
}
330
17
100
AcDbEntity
  8
STEMPEL
100
AcDbCircle
 10
420.3025827350392
 20
251.5964982595984
 30
0.0
 40
16.0
100
AcDbArc
 50
321.7867892982624
 51
0.000000000000007
  0
ARC
  5
7E9
102
{ACAD_REACTORS
330
7EB
102
}
330
17
100
AcDbEntity
  8
STEMPEL
100
AcDbCircle
 10
448.3025827350393
 20
329.034320433108
 30
0.0
 40
10.0
100
AcDbArc
 50
149.9999999999993
 51
180.0
  0
ARC
  5
7EA
102
{ACAD_REACTORS
330
7EB
102
}
330
17
100
AcDbEntity
  8
STEMPEL
100
AcDbCircle
 10
448.3025827350393
 20
329.0343204331077
 30
0.0
 40
12.0
100
AcDbArc
 50
149.9999999999997
 51
180.0
  0
HATCH
  5
7EB
330
17
100
AcDbEntity
  8
SCHRAFF
100
AcDbHatch
 10
0.0
 20
0.0
 30
0.0
210
0.0
220
0.0
230
1.0
  2
_U
 70
     0
 71
     1
 91
        2
 92
        7
 72
     1
 73
     1
 93
       16
 10
293.3025827350393
 20
251.5964982595983
 42
0.1682991173557597
 10
297.159725592182
 20
240.4618859252272
 42
-0.1682991173557649
 10
299.3025827350393
 20
234.2759901839098
 42
0.0
 10
299.3025827350393
 20
112.5591410691483
 42
0.0
 10
300.6072730128415
 20
97.64646295496516
 42
0.0
 10
302.6149126879281
 20
97.64646295496515
 42
0.0
 10
301.3025827350393
 20
112.6464629549648
 42
0.0
 10
301.3025827350393
 20
234.27599018391
 42
0.1682991173557557
 10
298.7311541636108
 20
241.6990650734906
 42
-0.1682991173557651
 10
295.3025827350393
 20
251.5964982595984
 42
0.0
 10
295.3025827350393
 20
329.0343204331077
 42
0.1316524975873958
 10
293.6948875804526
 20
335.0343204331077
 42
0.0
 10
289.8025827350393
 20
341.7759901839099
 42
0.0
 10
288.0705319274705
 20
340.7759901839099
 42
0.0
 10
291.9628367728837
 20
334.0343204331081
 42
-0.1316524975873935
 10
293.3025827350393
 20
329.0343204331081
 42
0.0
 97
       16
330
7E4
330
7BA
330
7BE
330
7B9
330
7E3
330
7DE
330
7E2
330
7E0
330
7A1
330
7A5
330
7A2
330
7A6
330
7A0
330
7DF
330
7E1
330
7DD
 92
        7
 72
     1
 73
     1
 93
       16
 10
436.3025827350393
 20
251.5964982595984
 42
-0.1682991173557617
 10
432.874011306468
 20
241.6990650734907
 42
0.1682991173557674
 10
430.3025827350388
 20
234.2759901839098
 42
0.0
 10
430.30258273504
 20
112.6464629549651
 42
0.0
 10
428.990252782151
 20
97.64646295496538
 42
0.0
 10
430.9978924572375
 20
97.64646295496538
 42
0.0
 10
432.3025827350389
 20
112.559141069135
 42
0.0
 10
432.3025827350392
 20
234.2759901839099
 42
-0.1682991173557618
 10
434.4454398778966
 20
240.4618859252272
 42
0.1682991173557601
 10
438.3025827350393
 20
251.5964982595983
 42
0.0
 10
438.3025827350393
 20
329.034320433108
 42
-0.131652497587395
 10
439.6423286971948
 20
334.0343204331079
 42
0.0
 10
443.5346335426081
 20
340.7759901839099
 42
0.0
 10
441.8025827350392
 20
341.7759901839099
 42
0.0
 10
437.910277889626
 20
335.0343204331076
 42
0.1316524975873956
 10
436.3025827350393
 20
329.0343204331076
 42
0.0
 97
       16
330
7E9
330
7CE
330
7D1
330
7CD
330
7EA
330
7E5
330
7E8
330
7CB
330
79D
330
7A8
330
7A2
330
7A7
330
79C
330
7CC
330
7E7
330
7E6
 75
     0
 76
     0
 52
45.0
 41
2.0
 77
     0
 78
     1
 53
45.0
 43
5.748032658502779
 44
-15.44631224960085
 45
-1.414213562373094
 46
1.414213562373095
 79
     0
 47
0.484019859282586
 98
        2
 10
294.0501093818777
 20
297.3014116218403
 10
436.9310509177723
 20
306.4977900430024
  0
TEXT
  5
907
330
17
100
AcDbEntity
  8
TEXT
100
AcDbText
 10
836.5811541437437
 20
12.14804815338303
 30
0.0
 40
4.0
  1
Diese Zeichnung ist urheberrechtlich geschützt und bleibt unser Eigentum. Sie darf weder ganz noch teilweise vervielfältigt und nicht an Dritte weitergegeben werden.
 50
90.0
 41
0.8
  7
GREEKS
100
AcDbText
  0
TEXT
  5
974
330
17
100
AcDbEntity
  8
TEXT
 62
     1
100
AcDbText
 10
353.5868645589056
 20
266.5844328645792
 30
0.0
 40
7.0
  1
DN125
 50
90.0
 41
0.8
  7
GREEKS
100
AcDbText
  0
HATCH
  5
A02
330
17
100
AcDbEntity
  8
SCHRAFF
100
AcDbHatch
 10
0.0
 20
0.0
 30
0.0
210
0.0
220
0.0
230
1.0
  2
NET
 70
     0
 71
     0
 91
        2
 92
        7
 72
     1
 73
     1
 93
       21
 10
299.3025827350392
 20
359.3992966956469
 42
0.0
 10
298.2480678807521
 20
365.3797476172824
 42
-0.2909781181568305
 10
296.8025919995009
 20
367.6396569118801
 42
0.1138667675699321
 10
295.7072749850521
 20
367.8923739662191
 42
0.0
 10
295.5025827350393
 20
367.892373966219
 42
0.0
 10
294.7874231479287
 20
376.0666854517144
 42
0.3888787318529909
 10
292.7950337517452
 20
377.892373966219
 42
0.0
 10
290.810222410126
 20
377.892373966219
 42
0.3888787318529973
 10
288.8178330139425
 20
376.0666854517143
 42
0.0
 10
287.8978095328957
 20
365.550768943581
 42
-0.0977633374688408
 10
287.6820982365602
 20
364.8067041829112
 42
-0.4919185491806008
 10
286.123223205381
 20
364.5240152960776
 42
0.508132013265999
 10
282.1694918024726
 20
363.700578406187
 42
0.0
 10
281.9993212744464
 20
363.324779339094
 42
0.0
 10
281.8025827350392
 20
362.2090196373361
 42
0.0
 10
281.8025827350393
 20
359.986208917121
 42
0.0
 10
288.6382632534266
 20
348.1464629549655
 42
0.0252320798374132
 10
288.8025827350391
 20
347.8923739662191
 42
0.0
 10
294.0705319274705
 20
347.8923739662191
 42
0.0
 10
295.8025827350393
 20
348.892373966219
 42
0.0
 10
299.3025827350392
 20
348.892373966219
 42
0.0
 97
        0
 92
       22
 72
     0
 73
     1
 93
        4
 10
292.8025827350396
 20
352.892373966219
 10
290.8025827350395
 20
352.892373966219
 10
290.8025827350394
 20
375.892373966219
 10
292.8025827350394
 20
375.892373966219
 97
        0
 75
     0
 76
     1
 52
45.0
 41
20.0
 77
     0
 78
     2
 53
45.0
 43
5.748032658502779
 44
-25.44631224960085
 45
-1.767766952966368
 46
1.767766952966368
 79
     0
 53
135.0
 43
5.748032658502779
 44
-25.44631224960085
 45
-1.767766952966368
 46
-1.767766952966368
 79
     0
 47
0.2301538828351076
 98
        2
 10
296.8040465681506
 20
355.4179043729298
 10
296.8040465681506
 20
355.4179043729298
  0
HATCH
  5
A1B
330
17
100
AcDbEntity
  8
SCHRAFF
100
AcDbHatch
 10
0.0
 20
0.0
 30
0.0
210
0.0
220
0.0
230
1.0
  2
NET
 70
     0
 71
     0
 91
        2
 92
        7
 72
     1
 73
     1
 93
       20
 10
432.3025827350394
 20
348.8923739662191
 42
0.0
 10
435.8025827350393
 20
348.8923739662191
 42
0.0
 10
437.5346335426082
 20
347.8923739662191
 42
0.0
 10
442.802582735038
 20
347.8923739662191
 42
0.0252320798374752
 10
442.9669022166519
 20
348.1464629549655
 42
0.0
 10
449.8025827350391
 20
359.9862089171212
 42
0.0
 10
449.8025827350391
 20
362.2090196373362
 42
0.0
 10
449.6058441956318
 20
363.3247793390945
 42
0.0
 10
449.435673667606
 20
363.7005784061869
 42
0.5081320132659827
 10
445.4819422646976
 20
364.5240152960774
 42
-0.4919185491806141
 10
443.9230672335184
 20
364.8067041829109
 42
-0.0977633374688789
 10
443.7073559371831
 20
365.550768943581
 42
0.0
 10
442.7873324561363
 20
376.0666854517144
 42
0.3888787318529898
 10
440.7949430599527
 20
377.892373966219
 42
0.0
 10
438.8101317183336
 20
377.892373966219
 42
0.3888787318529909
 10
436.81774232215
 20
376.0666854517144
 42
0.0
 10
436.1018535973766
 20
367.8840398845976
 42
0.1346016104187917
 10
434.8025734705776
 20
367.6396569118817
 42
-0.2909781181569748
 10
433.3570975893267
 20
365.3797476172825
 42
0.0
 10
432.3025827350393
 20
359.3992966956461
 42
0.0
 97
        0
 92
       22
 72
     0
 73
     1
 93
        4
 10
438.8025827350395
 20
375.892373966219
 10
440.8025827350392
 20
375.892373966219
 10
440.8025827350392
 20
352.892373966219
 10
438.8025827350392
 20
352.892373966219
 97
        0
 75
     0
 76
     1
 52
45.0
 41
20.0
 77
     0
 78
     2
 53
45.0
 43
5.748032658502779
 44
-25.44631224960085
 45
-1.767766952966368
 46
1.767766952966368
 79
     0
 53
135.0
 43
5.748032658502779
 44
-25.44631224960085
 45
-1.767766952966368
 46
-1.767766952966368
 79
     0
 47
0.2301538828351076
 98
        2
 10
435.0009772203625
 20
356.5686745151243
 10
435.0009772203625
 20
356.5686745151243
  0
HATCH
  5
A6E
330
17
100
AcDbEntity
  8
SCHRAFF
100
AcDbHatch
 10
0.0
 20
0.0
 30
0.0
210
0.0
220
0.0
230
1.0
  2
_USER
 70
     0
 71
     1
 91
        2
 92
        7
 72
     1
 73
     1
 93
       16
 10
456.681469559909
 20
377.6464629549654
 42
0.4663076581549971
 10
451.2650269183417
 20
371.1913979777973
 42
0.0
 10
452.8025827350391
 20
362.4714856279137
 42
0.0
 10
452.8025827350393
 20
359.1823613398278
 42
0.0
 10
445.5649784280051
 20
346.6464629549655
 42
-0.2679491924311195
 10
440.3688260052986
 20
343.6464629549655
 42
0.0
 10
436.3025827350393
 20
343.6464629549654
 42
0.0
 10
436.3025827350393
 20
341.6464629549655
 42
0.0
 10
440.3688260052986
 20
341.6464629549655
 42
0.2679491924311248
 10
447.2970292355741
 20
345.6464629549655
 42
0.0
 10
454.8025827350392
 20
358.6464629549655
 42
0.0
 10
454.8025827350392
 20
362.6464629549657
 42
0.0
 10
453.2346424243661
 20
371.5386943331312
 42
-0.4663076581549979
 10
456.681469559909
 20
375.6464629549654
 42
0.0
 10
530.8025827350393
 20
375.6464629549653
 42
0.0
 10
530.8025827350393
 20
377.6464629549654
 42
0.0
 97
       16
330
48C
330
506
330
51D
330
518
330
51B
330
40C
330
474
330
473
330
476
330
472
330
40A
330
519
330
51E
330
503
330
48A
330
55E
 92
        7
 72
     1
 73
     1
 93
       16
 10
200.8025827350393
 20
377.6464629549654
 42
0.0
 10
200.8025827350393
 20
375.6464629549654
 42
0.0
 10
274.9236959101695
 20
375.6464629549654
 42
-0.4663076581549925
 10
278.3705230457122
 20
371.5386943331312
 42
0.0
 10
276.8025827350392
 20
362.6464629549653
 42
0.0
 10
276.8025827350392
 20
358.6464629549654
 42
0.0
 10
284.3081362345044
 20
345.6464629549655
 42
0.2679491924311263
 10
291.2363394647798
 20
341.6464629549653
 42
0.0
 10
295.3025827350393
 20
341.6464629549653
 42
0.0
 10
295.3025827350392
 20
343.6464629549653
 42
0.0
 10
291.2363394647798
 20
343.6464629549653
 42
-0.2679491924311273
 10
286.0401870420732
 20
346.6464629549655
 42
0.0
 10
278.8025827350393
 20
359.1823613398277
 42
0.0
 10
278.8025827350392
 20
362.4714856279139
 42
0.0
 10
280.3401385517367
 20
371.1913979777973
 42
0.4663076581549969
 10
274.9236959101695
 20
377.6464629549654
 42
0.0
 97
       16
330
484
330
489
330
482
330
4AA
330
4B9
330
4B5
330
415
330
466
330
46D
330
467
330
46E
330
414
330
4B6
330
4B3
330
4B8
330
4AC
 75
     0
 76
     0
 52
135.0
 41
2.0
 77
     0
 78
     1
 53
135.0
 43
5.748032658502779
 44
-25.44631224960085
 45
-1.414213562373095
 46
-1.414213562373094
 79
     0
 47
0.3993639326406184
 98
        2
 10
472.0093332454271
 20
376.6655779150383
 10
251.027742295681
 20
376.6655779150383
  0
HATCH
  5
A94
330
17
100
AcDbEntity
  8
SCHRAFF
100
AcDbHatch
 10
0.0
 20
0.0
 30
0.0
210
0.0
220
0.0
230
1.0
  2
NET
 70
     0
 71
     1
 91
        2
 92
        7
 72
     1
 73
     1
 93
       15
 10
456.681469559909
 20
380.6464629549653
 42
0.4663076581550034
 10
448.3106036593051
 20
370.6704534447963
 42
0.0
 10
449.8025827350393
 20
362.2090196373356
 42
0.0
 10
449.8025827350391
 20
359.9862089171213
 42
0.0
 10
442.820203870601
 20
347.8923739662191
 42
0.0
 10
435.8025827350392
 20
347.8923739662191
 42
0.0
 10
435.8025827350393
 20
344.8923739662191
 42
0.0
 10
444.0292409936681
 20
344.8923739662191
 42
0.0980750678644006
 10
445.5649784280051
 20
346.6464629549655
 42
0.0
 10
452.8025827350393
 20
359.1823613398277
 42
0.0
 10
452.8025827350393
 20
362.471485627914
 42
0.0
 10
451.2650269183417
 20
371.1913979777973
 42
-0.4663076581549939
 10
456.6814695599089
 20
377.6464629549654
 42
0.0
 10
615.8025827350392
 20
377.6464629549654
 42
0.0
 10
615.8025827350392
 20
380.6464629549654
 42
0.0
 97
       15
330
48B
330
505
330
520
330
51A
330
50C
330
513
330
40B
330
477
330
40C
330
51B
330
518
330
51D
330
506
330
48C
330
55F
 92
        7
 72
     1
 73
     1
 93
       16
 10
115.8025827350392
 20
380.6464629549654
 42
0.0
 10
115.8025827350392
 20
377.6464629549653
 42
0.0
 10
274.9236959101695
 20
377.6464629549654
 42
-0.4663076581549969
 10
280.3401385517367
 20
371.1913979777973
 42
0.0
 10
278.8025827350392
 20
362.4714856279137
 42
0.0
 10
278.8025827350393
 20
359.1823613398277
 42
0.0
 10
286.0401870420732
 20
346.6464629549655
 42
0.0980750678644038
 10
287.5759244764104
 20
344.8923739662191
 42
0.0
 10
295.8025827350392
 20
344.892373966219
 42
0.0
 10
295.8025827350394
 20
347.8923739662191
 42
0.0
 10
288.7849615994775
 20
347.8923739662191
 42
0.0
 10
281.8025827350393
 20
359.9862089171211
 42
0.0
 10
281.8025827350393
 20
362.209019637336
 42
0.0
 10
283.2945618107732
 20
370.6704534447966
 42
0.466307658154994
 10
274.9236959101695
 20
380.6464629549654
 42
0.0
 10
268.3025827350394
 20
380.6464629549654
 42
0.0
 97
       16
330
4C8
330
483
330
487
330
484
330
4AC
330
4B8
330
4B3
330
4B6
330
414
330
46C
330
411
330
4C1
330
4B1
330
4B4
330
4BA
330
4AB
 75
     0
 76
     1
 52
45.0
 41
10.0
 77
     0
 78
     2
 53
45.0
 43
5.748032658502779
 44
-25.44631224960085
 45
-0.8838834764831842
 46
0.8838834764831844
 79
     0
 53
135.0
 43
5.748032658502779
 44
-25.44631224960085
 45
-0.8838834764831844
 46
-0.8838834764831842
 79
     0
 47
0.6300794626670429
 98
        2
 10
500.6651589037105
 20
379.5497650212819
 10
251.0030506679104
 20
379.5497650212819
  0
HATCH
  5
AA8
330
17
100
AcDbEntity
  8
SCHRAFF
100
AcDbHatch
 10
0.0
 20
0.0
 30
0.0
210
0.0
220
0.0
230
1.0
  2
_USER
 70
     0
 71
     1
 91
        2
 92
        7
 72
     1
 73
     1
 93
        4
 10
288.0705319274705
 20
340.7759901839099
 42
0.0
 10
289.8025827350396
 20
341.7759901839101
 42
-0.09458878483277
 10
287.004311201104
 20
342.8575059823924
 42
0.4627052573130741
 10
289.1885659162205
 20
338.8394985108062
 42
0.0
 97
        4
330
466
330
7BC
330
7B9
330
7BE
 92
        7
 72
     1
 73
     1
 93
        4
 10
444.6008542689746
 20
342.8575059823925
 42
-0.0945887848327689
 10
441.802582735039
 20
341.7759901839101
 42
0.0
 10
443.5346335426081
 20
340.7759901839099
 42
0.0
 10
442.4165995538581
 20
338.8394985108062
 42
0.4627052573130776
 97
        4
330
472
330
7D1
330
7CE
330
7D0
 75
     0
 76
     0
 52
0.0
 41
0.1
 77
     0
 78
     1
 53
0.0
 43
5.748032658502779
 44
-25.44631224960085
 45
0.0
 46
0.1
 79
     0
 47
0.193967483464363
 98
        2
 10
287.8581765789345
 20
341.4126741603741
 10
444.0962757906631
 20
341.0247387418885
  0
LINE
  5
ABF
330
17
100
AcDbEntity
  8
TEXT
 62
     2
100
AcDbLine
 10
633.0614026102578
 20
461.0822534486809
 30
0.0
 11
475.2506683127994
 21
437.8124634737653
 31
0.0
  0
LINE
  5
AC6
330
17
100
AcDbEntity
  8
TEXT
 62
     2
100
AcDbLine
 10
633.0614026102578
 20
418.4208322968109
 30
0.0
 11
497.6814249760787
 21
381.3269281502717
 31
0.0
  0
TEXT
  5
AD7
330
17
100
AcDbEntity
  8
TEXT
 62
     1
100
AcDbText
 10
506.4537515389523
 20
143.26437580305
 30
0.0
 40
7.0
  1
EDV-Art.Nr. 17115.125A
 41
0.8
  7
GREEKS
100
AcDbText
  0
LINE
  5
AD8
330
17
100
AcDbEntity
  8
TEXT
 62
     2
100
AcDbLine
 10
506.4304034904594
 20
153.9077283619286
 30
0.0
 11
603.5311011229148
 21
153.9077283619286
 31
0.0
  0
LINE
  5
AD9
330
17
100
AcDbEntity
  8
TEXT
 62
     2
100
AcDbLine
 10
431.4839578171825
 20
142.1948491968568
 30
0.0
 11
506.4304034904594
 21
153.9077283619286
 31
0.0
  0
TEXT
  5
ADA
330
17
100
AcDbEntity
  8
TEXT
 62
     1
100
AcDbText
 10
506.6468357366534
 20
157.630681661735
 30
0.0
 40
7.0
  1
Ablauftopf DN125
 41
0.8
  7
GREEKS
100
AcDbText
  0
TEXT
  5
ADB
330
17
100
AcDbEntity
  8
TEXT
 62
     1
100
AcDbText
 10
511.607499595808
 20
302.8706541146115
 30
0.0
 40
7.0
  1
Klemmring DN125
 41
0.8
  7
GREEKS
100
AcDbText
  0
LINE
  5
ADC
330
17
100
AcDbEntity
  8
TEXT
 62
     2
100
AcDbLine
 10
510.8994825869618
 20
299.1477008148051
 30
0.0
 11
446.6003082226688
 21
357.1708040178772
 31
0.0
  0
TEXT
  5
ADD
330
17
100
AcDbEntity
  8
TEXT
 62
     1
100
AcDbText
 10
510.9228306354546
 20
289.0456001350796
 30
0.0
 40
7.0
  1
EDV-Art.Nr. 17201.125A
 41
0.8
  7
GREEKS
100
AcDbText
  0
LINE
  5
ADE
330
17
100
AcDbEntity
  8
TEXT
 62
     2
100
AcDbLine
 10
510.8994825869618
 20
299.1477008148051
 30
0.0
 11
609.7936969602917
 21
299.1477008148051
 31
0.0
  0
LINE
  5
ADF
330
17
100
AcDbEntity
  8
TEXT
 62
     2
100
AcDbLine
 10
588.8123305564029
 20
379.218605735428
 30
0.0
 11
619.9904869746344
 21
335.7580069180786
 31
0.0
  0
TEXT
  5
AE0
330
17
100
AcDbEntity
  8
TEXT
 62
     1
100
AcDbText
 10
620.0138350231275
 20
325.5098361247959
 30
0.0
 40
7.0
  1
EDV-Art.Nr. 17000.125A
 41
0.8
  7
GREEKS
100
AcDbText
  0
LINE
  5
AE1
330
17
100
AcDbEntity
  8
TEXT
 62
     2
100
AcDbLine
 10
619.9904869746344
 20
335.7580069180786
 30
0.0
 11
739.8638480245954
 21
335.7580069180786
 31
0.0
  0
TEXT
  5
AE2
330
17
100
AcDbEntity
  8
TEXT
 62
     1
100
AcDbText
 10
620.7568800407539
 20
339.4809602178849
 30
0.0
 40
7.0
  1
Anschlußmanschette DN125
 41
0.8
  7
GREEKS
100
AcDbText
  0
LINE
  5
CAD
330
17
100
AcDbEntity
  8
STEMPEL
100
AcDbLine
 10
430.3025827350393
 20
380.6464629549654
 30
0.0
 11
430.3025827350393
 21
340.6464629549655
 31
0.0
  0
DIMENSION
  5
CAF
330
17
100
AcDbEntity
  8
BEM
100
AcDbDimension
  2
*D8
 10
495.8025827350393
 20
516.4715738916702
 30
0.0
 11
365.8025827350393
 21
522.9715738916702
 31
0.0
 70
    32
  1
%%c<>
 71
     5
 42
260.0
  3
STANDARD
100
AcDbAlignedDimension
 13
235.8025827350393
 23
398.1464629549662
 33
0.0
 14
495.8025827350393
 24
398.146462954965
 34
0.0
100
AcDbRotatedDimension
1001
ACAD
1000
DSTYLE
1002
{
1070
    40
1040
2.0
1070
    41
1040
3.5
1070
    42
1040
1.0
1070
    43
1040
7.0
1070
    44
1040
1.0
1070
    73
1070
     0
1070
    74
1070
     0
1070
    77
1070
     1
1070
    78
1070
     8
1070
    79
1070
     2
1070
   140
1040
3.5
1070
   141
1040
1.5
1070
   146
1040
0.5142857142857144
1070
   147
1040
1.5
1070
   172
1070
     1
1070
   178
1070
     1
1070
   179
1070
     2
1070
   271
1070
     2
1070
   272
1070
     2
1070
   284
1070
     8
1070
   285
1070
     8
1070
   286
1070
     8
1002
}
  0
LINE
  5
CB0
330
17
100
AcDbEntity
  8
STEMPEL
100
AcDbLine
 10
500.8025827350392
 20
382.1464629549655
 30
0.0
 11
230.8025827350393
 21
382.1464629549654
 31
0.0
  0
LINE
  5
CB1
330
17
100
AcDbEntity
  8
STEMPEL
100
AcDbLine
 10
500.8025827350392
 20
380.6464629549654
 30
0.0
 11
230.8025827350393
 21
380.6464629549654
 31
0.0
  0
HATCH
  5
CB2
330
17
100
AcDbEntity
  8
SCHRAFF
100
AcDbHatch
 10
0.0
 20
0.0
 30
0.0
210
0.0
220
0.0
230
1.0
  2
_USER
 70
     0
 71
     0
 91
        3
 92
        7
 72
     0
 73
     1
 93
        4
 10
430.3025827350396
 20
382.1464629549655
 10
430.3025827350396
 20
380.6464629549654
 10
500.8025827350392
 20
380.6464629549654
 10
500.8025827350392
 20
382.1464629549656
 97
        0
 92
        7
 72
     0
 73
     1
 93
        4
 10
243.8025827350392
 20
382.1464629549653
 10
243.8025827350392
 20
380.6464629549654
 10
301.3025827350392
 20
380.6464629549653
 10
301.3025827350392
 20
382.1464629549655
 97
        0
 92
        7
 72
     0
 73
     1
 93
        4
 10
243.8025827350393
 20
380.6464629549655
 10
243.8025827350393
 20
382.1464629549655
 10
230.8025827350393
 20
382.1464629549653
 10
230.8025827350393
 20
380.6464629549655
 97
        0
 75
     0
 76
     0
 52
135.0
 41
2.0
 77
     0
 78
     1
 53
135.0
 43
140.8025827350393
 44
-142.7800496726739
 45
-1.414213562373095
 46
-1.414213562373094
 79
     0
 47
0.4145230693519903
 98
        3
 10
461.2853305148828
 20
381.5523203898814
 10
285.0652838344554
 20
381.5523203898814
 10
239.8700250628126
 20
381.1377970865225
  0
LINE
  5
CB3
330
17
100
AcDbEntity
  8
STEMPEL
100
AcDbLine
 10
230.8025827350393
 20
382.1464629549655
 30
0.0
 11
230.8025827350393
 21
380.6464629549653
 31
0.0
  0
LINE
  5
CB4
330
17
100
AcDbEntity
  8
STEMPEL
100
AcDbLine
 10
301.3025827350392
 20
382.1464629549654
 30
0.0
 11
301.3025827350392
 21
380.6464629549654
 31
0.0
  0
ARC
  5
CB5
330
17
100
AcDbEntity
  8
SCHRAFF
100
AcDbCircle
 10
300.2576386995861
 20
380.6464629549654
 30
0.0
 40
1.828088629478462
100
AcDbArc
 50
304.8622016819284
 51
55.13779831807161
  0
HATCH
  5
CB6
330
17
100
AcDbEntity
  8
SCHRAFF
100
AcDbHatch
 10
0.0
 20
0.0
 30
0.0
210
0.0
220
0.0
230
1.0
  2
_USER
 70
     0
 71
     0
 91
        2
 92
        7
 72
     1
 73
     1
 93
        3
 10
301.3025827350389
 20
382.146462954965
 42
-0.2453357974240878
 10
302.0857273290642
 20
380.6464629549656
 42
0.0
 10
301.3025827350389
 20
380.6464629549656
 42
0.0
 97
        0
 92
        7
 72
     1
 73
     1
 93
        3
 10
301.3025827350389
 20
380.6464629549656
 42
0.0
 10
302.0857273290645
 20
380.6464629549656
 42
-0.2453357974242125
 10
301.3025827350389
 20
379.1464629549654
 42
0.0
 97
        0
 75
     0
 76
     0
 52
0.0
 41
0.1
 77
     0
 78
     1
 53
179.9999999999998
 43
561.6025827350372
 44
-132.7800496726752
 45
0.0000000000000003
 46
0.1
 79
     0
 47
0.0937308931428171
 98
        2
 10
301.6538299219817
 20
381.0913192964189
 10
301.5600649062069
 20
380.2477407669322
  0
LINE
  5
CB7
330
17
100
AcDbEntity
  8
STEMPEL
100
AcDbLine
 10
312.9342844410599
 20
380.6464629549656
 30
0.0
 11
311.3019662511813
 21
370.8713198507172
 31
0.0
  0
ELLIPSE
  5
CB8
330
17
100
AcDbEntity
  8
STEMPEL
100
AcDbEllipse
 10
308.211893383374
 20
372.6464629549656
 30
0.0
 11
-0.0000000000000166
 21
-6.0
 31
0.0
210
0.0
220
0.0
230
-1.0
 40
0.5391486519126829
 41
5.01274173125013
 42
5.986102071232593
  0
LINE
  5
CB9
330
17
100
AcDbEntity
  8
STEMPEL
100
AcDbLine
 10
314.5243084499014
 20
380.6464629549656
 30
0.0
 11
312.9410825364101
 21
370.8713198507172
 31
0.0
  0
ELLIPSE
  5
CBA
330
17
100
AcDbEntity
  8
STEMPEL
100
AcDbEllipse
 10
309.9439441909429
 20
372.6464629549656
 30
0.0
 11
0.0000000000000166
 21
6.0
 31
0.0
210
0.0
220
0.0
230
-1.0
 40
0.5229336548626785
 41
1.871149077660318
 42
3.141592653589793
  0
LINE
  5
CBB
330
17
100
AcDbEntity
  8
STEMPEL
100
AcDbLine
 10
306.2799475476457
 20
380.6464629549656
 30
0.0
 11
307.3428754534215
 21
371.1840912628721
 31
0.0
  0
ELLIPSE
  5
CBC
330
17
100
AcDbEntity
  8
STEMPEL
100
AcDbEllipse
 10
309.9439441909429
 20
372.6464629549656
 30
0.0
 11
0.0000000000000166
 21
6.0
 31
0.0
210
0.0
220
0.0
230
-1.0
 40
0.4469911571673986
 41
3.141592653589793
 42
4.466180421600129
  0
ARC
  5
CBD
330
17
100
AcDbEntity
  8
STEMPEL
100
AcDbCircle
 10
365.8025827350393
 20
372.6464629549654
 30
0.0
 40
6.0
100
AcDbArc
 50
195.8034962890195
 51
344.1965037109804
  0
LINE
  5
CBE
330
17
100
AcDbEntity
  8
STEMPEL
100
AcDbLine
 10
374.3025827350393
 20
380.6464629549654
 30
0.0
 11
371.575790995355
 21
371.0124291783799
 31
0.0
  0
LINE
  5
CBF
330
17
100
AcDbEntity
  8
STEMPEL
100
AcDbLine
 10
357.3025827350392
 20
380.6464629549654
 30
0.0
 11
360.0293744747236
 21
371.0124291783799
 31
0.0
  0
ARC
  5
CC0
330
17
100
AcDbEntity
  8
SCHRAFF
100
AcDbCircle
 10
348.6071136965317
 20
380.6464629549653
 30
0.0
 40
5.0
100
AcDbArc
 50
342.5423968762808
 51
17.45760312371915
  0
ARC
  5
CC1
330
17
100
AcDbEntity
  8
SCHRAFF
100
AcDbCircle
 10
343.6071136965316
 20
380.6464629549653
 30
0.0
 40
5.0
100
AcDbArc
 50
342.5423968762808
 51
17.45760312371915
  0
ARC
  5
CC2
330
17
100
AcDbEntity
  8
SCHRAFF
100
AcDbCircle
 10
338.6071136965317
 20
380.6464629549653
 30
0.0
 40
5.0
100
AcDbArc
 50
342.5423968762808
 51
17.45760312371915
  0
ARC
  5
CC3
330
17
100
AcDbEntity
  8
SCHRAFF
100
AcDbCircle
 10
323.6071136965317
 20
380.6464629549653
 30
0.0
 40
5.0
100
AcDbArc
 50
342.5423968762808
 51
17.45760312371915
  0
ARC
  5
CC4
330
17
100
AcDbEntity
  8
SCHRAFF
100
AcDbCircle
 10
328.6071136965317
 20
380.6464629549653
 30
0.0
 40
5.0
100
AcDbArc
 50
342.5423968762808
 51
17.45760312371915
  0
ARC
  5
CC5
330
17
100
AcDbEntity
  8
SCHRAFF
100
AcDbCircle
 10
333.6071136965316
 20
380.6464629549653
 30
0.0
 40
5.0
100
AcDbArc
 50
342.5423968762808
 51
17.45760312371915
  0
ARC
  5
CC6
330
17
100
AcDbEntity
  8
SCHRAFF
100
AcDbCircle
 10
318.6071136965316
 20
380.6464629549653
 30
0.0
 40
5.0
100
AcDbArc
 50
342.5423968762808
 51
17.45760312371915
  0
ARC
  5
CC7
330
17
100
AcDbEntity
  8
SCHRAFF
100
AcDbCircle
 10
313.6071136965317
 20
380.6464629549653
 30
0.0
 40
5.0
100
AcDbArc
 50
342.5423968762808
 51
17.45760312371915
  0
ELLIPSE
  5
CC8
330
17
100
AcDbEntity
  8
STEMPEL
100
AcDbEllipse
 10
421.6612212791355
 20
372.6464629549654
 30
0.0
 11
0.0
 21
6.0
 31
0.0
210
0.0
220
0.0
230
1.0
 40
0.4469911571673986
 41
3.141592653589793
 42
4.466180421600129
  0
LINE
  5
CC9
330
17
100
AcDbEntity
  8
STEMPEL
100
AcDbLine
 10
425.3252179224327
 20
380.6464629549654
 30
0.0
 11
424.2622900166569
 21
371.184091262872
 31
0.0
  0
ELLIPSE
  5
CCA
330
17
100
AcDbEntity
  8
STEMPEL
100
AcDbEllipse
 10
421.6612212791355
 20
372.6464629549654
 30
0.0
 11
0.0
 21
6.0
 31
0.0
210
0.0
220
0.0
230
1.0
 40
0.5229336548626785
 41
1.871149077660318
 42
3.141592653589793
  0
LINE
  5
CCB
330
17
100
AcDbEntity
  8
STEMPEL
100
AcDbLine
 10
417.0808570201772
 20
380.6464629549654
 30
0.0
 11
418.6640829336684
 21
370.871319850717
 31
0.0
  0
ELLIPSE
  5
CCC
330
17
100
AcDbEntity
  8
STEMPEL
100
AcDbEllipse
 10
423.3932720867045
 20
372.6464629549654
 30
0.0
 11
0.0
 21
-6.0
 31
0.0
210
0.0
220
0.0
230
1.0
 40
0.5391486519126829
 41
5.01274173125013
 42
5.986102071232593
  0
LINE
  5
CCD
330
17
100
AcDbEntity
  8
STEMPEL
100
AcDbLine
 10
418.6708810290185
 20
380.6464629549654
 30
0.0
 11
420.3031992188972
 21
370.871319850717
 31
0.0
  0
ARC
  5
CCE
330
17
100
AcDbEntity
  8
SCHRAFF
100
AcDbCircle
 10
373.5413725217803
 20
380.6464629549653
 30
0.0
 40
5.0
100
AcDbArc
 50
342.5423968762808
 51
17.45760312371915
  0
ARC
  5
CCF
330
17
100
AcDbEntity
  8
SCHRAFF
100
AcDbCircle
 10
378.5413725217803
 20
380.6464629549653
 30
0.0
 40
5.0
100
AcDbArc
 50
342.5423968762808
 51
17.45760312371915
  0
ARC
  5
CD0
330
17
100
AcDbEntity
  8
SCHRAFF
100
AcDbCircle
 10
383.5413725217803
 20
380.6464629549653
 30
0.0
 40
5.0
100
AcDbArc
 50
342.5423968762808
 51
17.45760312371915
  0
ARC
  5
CD1
330
17
100
AcDbEntity
  8
SCHRAFF
100
AcDbCircle
 10
393.5413725217803
 20
380.6464629549653
 30
0.0
 40
5.0
100
AcDbArc
 50
342.5423968762808
 51
17.45760312371915
  0
ARC
  5
CD2
330
17
100
AcDbEntity
  8
SCHRAFF
100
AcDbCircle
 10
388.5413725217803
 20
380.6464629549653
 30
0.0
 40
5.0
100
AcDbArc
 50
342.5423968762808
 51
17.45760312371915
  0
ARC
  5
CD3
330
17
100
AcDbEntity
  8
SCHRAFF
100
AcDbCircle
 10
398.5413725217803
 20
380.6464629549653
 30
0.0
 40
5.0
100
AcDbArc
 50
342.5423968762808
 51
17.45760312371915
  0
ARC
  5
CD4
330
17
100
AcDbEntity
  8
SCHRAFF
100
AcDbCircle
 10
403.5413725217803
 20
380.6464629549653
 30
0.0
 40
5.0
100
AcDbArc
 50
342.5423968762808
 51
17.45760312371915
  0
ARC
  5
CD5
330
17
100
AcDbEntity
  8
SCHRAFF
100
AcDbCircle
 10
408.5413725217803
 20
380.6464629549653
 30
0.0
 40
5.0
100
AcDbArc
 50
342.5423968762808
 51
17.45760312371915
  0
LINE
  5
CD6
330
17
100
AcDbEntity
  8
STEMPEL
100
AcDbLine
 10
430.3025827350396
 20
382.1464629549647
 30
0.0
 11
430.3025827350396
 21
380.6464629549654
 31
0.0
  0
HATCH
  5
CD7
330
17
100
AcDbEntity
  8
SCHRAFF
100
AcDbHatch
 10
0.0
 20
0.0
 30
0.0
210
0.0
220
0.0
230
1.0
  2
_USER
 70
     0
 71
     0
 91
        2
 92
        7
 72
     1
 73
     1
 93
        3
 10
430.3025827350396
 20
382.1464629549648
 42
0.2453357974240878
 10
429.5194381410143
 20
380.6464629549654
 42
0.0
 10
430.3025827350396
 20
380.6464629549654
 42
0.0
 97
        0
 92
        7
 72
     1
 73
     1
 93
        3
 10
430.3025827350396
 20
380.6464629549654
 42
0.0
 10
429.519438141014
 20
380.6464629549654
 42
0.2453357974242125
 10
430.3025827350396
 20
379.1464629549653
 42
0.0
 97
        0
 75
     0
 76
     0
 52
0.0
 41
0.1
 77
     0
 78
     1
 53
0.0
 43
170.0025827350397
 44
-132.7800496726745
 45
0.0
 46
0.1
 79
     0
 47
0.0937308931428171
 98
        2
 10
429.9513355480968
 20
381.0913192964187
 10
430.0451005638716
 20
380.2477407669321
  0
ARC
  5
CD8
330
17
100
AcDbEntity
  8
SCHRAFF
100
AcDbCircle
 10
431.3475267704925
 20
380.6464629549653
 30
0.0
 40
1.828088629478462
100
AcDbArc
 50
124.8622016819284
 51
235.1377983180716
  0
LINE
  5
CD9
330
17
100
AcDbEntity
  8
STEMPEL
100
AcDbLine
 10
500.8025827350392
 20
382.1464629549655
 30
0.0
 11
500.8025827350392
 21
380.6464629549653
 31
0.0
  0
LINE
  5
CDA
330
17
100
AcDbEntity
  8
STEMPEL
100
AcDbLine
 10
299.3025827350393
 20
380.6464629549654
 30
0.0
 11
299.3025827350392
 21
340.5591410691484
 31
0.0
  0
LINE
  5
CDB
330
17
100
AcDbEntity
  8
HILF
100
AcDbLine
 10
428.2949430599527
 20
340.6464629549655
 30
0.0
 11
303.3102224101259
 21
340.6464629549655
 31
0.0
  0
LINE
  5
CDC
330
17
100
AcDbEntity
  8
STEMPEL
100
AcDbLine
 10
301.3025827350392
 20
340.6464629549655
 30
0.0
 11
302.1774693702985
 21
330.6464629549655
 31
0.0
  0
LINE
  5
CDD
330
17
100
AcDbEntity
  8
STEMPEL
100
AcDbLine
 10
299.3025827350392
 20
340.5591410691484
 30
0.0
 11
300.1698296952118
 21
330.6464629549655
 31
0.0
  0
LINE
  5
CDE
330
17
100
AcDbEntity
  8
STEMPEL
100
AcDbLine
 10
301.3025827350392
 20
380.6464629549654
 30
0.0
 11
301.3025827350392
 21
340.6464629549655
 31
0.0
  0
LINE
  5
CDF
330
17
100
AcDbEntity
  8
STEMPEL
100
AcDbLine
 10
431.4353357748667
 20
330.6464629549655
 30
0.0
 11
300.1698296952118
 21
330.6464629549655
 31
0.0
  0
LINE
  5
CE0
330
17
100
AcDbEntity
  8
STEMPEL
100
AcDbLine
 10
432.3025827350396
 20
380.6464629549647
 30
0.0
 11
432.3025827350392
 21
340.5591410691477
 31
0.0
  0
LINE
  5
CE1
330
17
100
AcDbEntity
  8
STEMPEL
100
AcDbLine
 10
432.3025827350392
 20
340.5591410691477
 30
0.0
 11
431.4353357748667
 21
330.6464629549655
 31
0.0
  0
LINE
  5
CE2
330
17
100
AcDbEntity
  8
STEMPEL
100
AcDbLine
 10
430.3025827350393
 20
340.6464629549648
 30
0.0
 11
429.4276960997799
 21
330.6464629549648
 31
0.0
  0
HATCH
  5
CE3
330
17
100
AcDbEntity
  8
SCHRAFF
100
AcDbHatch
 10
0.0
 20
0.0
 30
0.0
210
0.0
220
0.0
230
1.0
  2
_USER
 70
     0
 71
     0
 91
        2
 92
        7
 72
     0
 73
     1
 93
        6
 10
430.3025827350393
 20
340.6464629549647
 10
429.42769609978
 20
330.6464629549655
 10
431.4353357748667
 20
330.6464629549653
 10
432.3025827350392
 20
340.5591410691473
 10
432.3025827350396
 20
380.6464629549654
 10
430.3025827350396
 20
380.6464629549653
 97
        0
 92
        7
 72
     0
 73
     1
 93
        6
 10
301.3025827350392
 20
380.6464629549654
 10
299.3025827350393
 20
380.6464629549654
 10
299.3025827350392
 20
340.5591410691484
 10
300.1698296952118
 20
330.6464629549655
 10
302.1774693702985
 20
330.6464629549655
 10
301.3025827350392
 20
340.6464629549654
 97
        0
 75
     0
 76
     0
 52
45.0
 41
2.0
 77
     0
 78
     1
 53
45.0
 43
140.8025827350393
 44
-142.7800496726739
 45
-1.414213562373094
 46
1.414213562373095
 79
     0
 47
0.2291050733570159
 98
        2
 10
431.1666934061301
 20
352.58835304561
 10
300.5292960938825
 20
355.1085098220959
  0
LINE
  5
CE4
330
17
100
AcDbEntity
  8
MITTEL
100
AcDbLine
 10
426.8025827350392
 20
375.6464629549656
 30
0.0
 11
426.8025827350392
 21
409.746462954966
 31
0.0
  0
LINE
  5
CE5
330
17
100
AcDbEntity
  8
STEMPEL
100
AcDbLine
 10
433.5406938138683
 20
399.2132938963984
 30
0.0
 11
427.5723359304989
 21
399.2132938963984
 31
0.0
  0
ARC
  5
CE6
330
17
100
AcDbEntity
  8
STEMPEL
100
AcDbCircle
 10
433.3525827350391
 20
398.696462954966
 30
0.0
 40
0.5500000000000009
100
AcDbArc
 50
270.0
 51
69.99999999999935
  0
LINE
  5
CE7
330
17
100
AcDbEntity
  8
STEMPEL
100
AcDbLine
 10
433.5406938138683
 20
399.2132938963984
 30
0.0
 11
432.5760854269353
 21
399.5643826369654
 31
0.0
  0
LINE
  5
CE8
330
17
100
AcDbEntity
  8
STEMPEL
100
AcDbLine
 10
431.8025827350392
 20
404.7464629549661
 30
0.0
 11
426.6603593291204
 21
404.7464629549661
 31
0.0
  0
LINE
  5
CE9
330
17
100
AcDbEntity
  8
STEMPEL
100
AcDbLine
 10
432.5760854269354
 20
404.5392035333292
 30
0.0
 11
432.5760854269353
 21
399.5643826369654
 31
0.0
  0
LINE
  5
CEA
330
17
100
AcDbEntity
  8
STEMPEL
100
AcDbLine
 10
429.6893340809873
 20
404.5392035333292
 30
0.0
 11
429.6893340809873
 21
399.5643826369654
 31
0.0
  0
LINE
  5
CEB
330
17
100
AcDbEntity
  8
STEMPEL
100
AcDbLine
 10
433.3525827350391
 20
398.1464629549661
 30
0.0
 11
428.298382405225
 21
398.1464629549661
 31
0.0
  0
ARC
  5
CEC
330
17
100
AcDbEntity
  8
STEMPEL
100
AcDbCircle
 10
431.1327097539614
 20
399.616925816443
 30
0.0
 40
5.129537138523076
100
AcDbArc
 50
73.65710669401345
 51
106.3428933059865
  0
LINE
  5
CED
330
17
100
AcDbEntity
  8
STEMPEL
100
AcDbLine
 10
431.8025827350392
 20
404.7464629549661
 30
0.0
 11
432.5760854269354
 21
404.5392035333292
 31
0.0
  0
ARC
  5
CEE
330
17
100
AcDbEntity
  8
STEMPEL
100
AcDbCircle
 10
426.8025827350392
 20
384.5392035333292
 30
0.0
 40
20.20725942163691
100
AcDbArc
 50
81.78678929826059
 51
90.40326439207246
  0
ARC
  5
CEF
330
17
100
AcDbEntity
  8
HILF
100
AcDbCircle
 10
431.1327097539614
 20
396.0039896312614
 30
0.0
 40
3.841839622940954
100
AcDbArc
 50
67.9324721810082
 51
112.0675278189918
  0
ARC
  5
CF0
330
17
100
AcDbEntity
  8
HILF
100
AcDbCircle
 10
426.8025827350392
 20
384.9051709277398
 30
0.0
 40
14.94074366520046
100
AcDbArc
 50
78.85962783889434
 51
88.16153752705751
  0
HATCH
  5
CF1
330
17
100
AcDbEntity
  8
SCHRAFF
100
AcDbHatch
 10
0.0
 20
0.0
 30
0.0
210
0.0
220
0.0
230
1.0
  2
ANSI31
 70
     0
 71
     0
 91
        5
 92
        7
 72
     1
 73
     1
 93
       39
 10
285.8025827350394
 20
487.1464629549657
 42
0.1316524975847141
 10
282.8025827350946
 20
486.3426153777036
 42
0.0
 10
258.7698881133295
 20
472.323543515008
 42
0.2662608607102479
 10
255.8025827350393
 20
467.1464049876499
 42
0.0
 10
255.8025827350393
 20
462.1464629549657
 42
0.0
 10
256.8025827350394
 20
462.1464629549657
 42
0.0
 10
256.8025827350394
 20
467.1464049876503
 42
-0.2667503951500742
 10
259.2832291669125
 20
471.4653004018466
 42
0.0
 10
283.2620830598635
 20
485.4529535680319
 42
-0.1340385084111775
 10
285.8025827350394
 20
486.1464629549657
 42
0.0
 10
340.3630681399828
 20
486.1464629549653
 42
0.2679491924311568
 10
342.5281316494442
 20
487.3964629549653
 42
-0.2679491924313146
 10
342.9611443513368
 20
487.646462954965
 42
0.0
 10
343.1611443513369
 20
487.646462954965
 42
-0.2679491924310819
 10
343.5941570532291
 20
487.3964629549651
 42
0.2679491924311186
 10
345.7592205626902
 20
486.1464629549653
 42
0.0
 10
352.2130681399832
 20
486.1464629549653
 42
0.2679491924311333
 10
354.3781316494444
 20
487.3964629549651
 42
-0.2679491924311795
 10
354.8111443513367
 20
487.6464629549651
 42
0.0
 10
355.0111443513368
 20
487.6464629549651
 42
-0.3419987131196873
 10
355.4952672696127
 20
487.271462954965
 42
0.359675761990544
 10
357.0420106207403
 20
486.1494347536363
 42
0.3596757619904921
 10
358.5887539718676
 20
487.271462954965
 42
-0.3419987131195469
 10
359.0728768901433
 20
487.646462954965
 42
0.0
 10
365.8025827350395
 20
487.646462954965
 42
0.0
 10
365.8025827350396
 20
488.646462954965
 42
0.0
 10
359.0728768901432
 20
488.646462954965
 42
0.3419987131196276
 10
357.6205081353156
 20
487.521462954965
 42
-0.3419987131196876
 10
357.1363852170397
 20
487.146462954965
 42
0.0
 10
356.9476360244408
 20
487.146462954965
 42
-0.3419987131196593
 10
356.4635131061649
 20
487.521462954965
 42
0.3607372083888518
 10
354.9111443513368
 20
488.6431259096745
 42
0.2859076546238796
 10
353.51210624566
 20
487.896462954965
 42
-0.2679491924311347
 10
352.2130681399833
 20
487.146462954965
 42
0.0
 10
345.7592205626892
 20
487.146462954965
 42
-0.2679491924310867
 10
344.4601824570126
 20
487.8964629549648
 42
0.2859076546238621
 10
343.0611443513361
 20
488.6431259096747
 42
0.2859076546237983
 10
341.6621062456599
 20
487.896462954965
 42
-0.267949192431112
 10
340.3630681399832
 20
487.1464629549652
 42
0.0
 97
        0
 92
        7
 72
     1
 73
     1
 93
        8
 10
255.802582735039
 20
403.1464629549662
 42
-0.4142135623730736
 10
250.8025827350393
 20
398.1464629549663
 42
0.0
 10
247.8025827350392
 20
398.1464629549662
 42
0.0
 10
247.8025827350392
 20
397.1464629549659
 42
0.0
 10
250.8025827350391
 20
397.1464629549659
 42
0.414213562373112
 10
256.8025827350391
 20
403.1464629549662
 42
0.0
 10
256.8025827350392
 20
422.1464629549656
 42
0.0
 10
255.8025827350391
 20
422.1464629549656
 42
0.0
 97
        0
 92
        7
 72
     0
 73
     1
 93
        4
 10
235.8025827350393
 20
398.146462954966
 10
235.8025827350392
 20
397.1464629549659
 10
239.8025827350392
 20
397.1464629549659
 10
239.8025827350392
 20
398.1464629549661
 97
        0
 92
        7
 72
     1
 73
     1
 93
        8
 10
495.8025827350395
 20
397.1464629549648
 42
0.0
 10
495.8025827350393
 20
398.1464629549648
 42
0.0
 10
480.8025827350389
 20
398.1464629549653
 42
-0.4142135623730833
 10
475.8025827350392
 20
403.1464629549653
 42
0.0
 10
475.8025827350394
 20
422.1464629549647
 42
0.0
 10
474.8025827350391
 20
422.1464629549648
 42
0.0
 10
474.8025827350391
 20
403.1464629549653
 42
0.4142135623731169
 10
480.802582735039
 20
397.1464629549648
 42
0.0
 97
        0
 92
        7
 72
     1
 73
     1
 93
       40
 10
391.0642205626902
 20
487.1464629549648
 42
-0.2679491924311478
 10
389.7651824570135
 20
487.896462954965
 42
0.2859076546238744
 10
388.3661443513367
 20
488.6431259096744
 42
0.2859076546239183
 10
386.9671062456598
 20
487.8964629549648
 42
-0.2679491924311158
 10
385.6680681399832
 20
487.1464629549648
 42
0.0
 10
383.6092205626905
 20
487.1464629549648
 42
-0.2679491924311457
 10
382.3101824570138
 20
487.896462954965
 42
0.2859076546238805
 10
380.9111443513371
 20
488.6431259096745
 42
0.2859076546238791
 10
379.5121062456603
 20
487.8964629549649
 42
-0.2679491924311259
 10
378.2130681399836
 20
487.1464629549649
 42
0.0
 10
371.7592205626896
 20
487.1464629549649
 42
-0.2679491924311028
 10
370.4601824570129
 20
487.8964629549648
 42
0.2679491924311533
 10
369.1611443513362
 20
488.646462954965
 42
0.0
 10
365.8025827350395
 20
488.646462954965
 42
0.0
 10
365.8025827350394
 20
487.6464629549649
 42
0.0
 10
369.1611443513369
 20
487.646462954965
 42
-0.267949192431122
 10
369.5941570532291
 20
487.396462954965
 42
0.267949192431119
 10
371.7592205626902
 20
486.146462954965
 42
0.0
 10
378.2130681399838
 20
486.146462954965
 42
0.2679491924311053
 10
380.3781316494447
 20
487.3964629549647
 42
-0.2679491924310267
 10
380.8111443513368
 20
487.646462954965
 42
0.0
 10
381.0111443513368
 20
487.646462954965
 42
-0.2679491924311632
 10
381.444157053229
 20
487.3964629549649
 42
0.2679491924311225
 10
383.6092205626902
 20
486.146462954965
 42
0.0
 10
385.6680681399828
 20
486.146462954965
 42
0.2679491924311512
 10
387.8331316494441
 20
487.396462954965
 42
-0.2679491924312574
 10
388.2661443513367
 20
487.6464629549649
 42
0.0
 10
388.4661443513367
 20
487.6464629549649
 42
-0.2679491924311204
 10
388.8991570532289
 20
487.3964629549649
 42
0.2679491924311204
 10
391.06422056269
 20
486.1464629549649
 42
0.0
 10
445.8025827350396
 20
486.1464629549645
 42
-0.1340385084113062
 10
448.3430824102155
 20
485.4529535680311
 42
0.0
 10
472.3219363031666
 20
471.4653004018455
 42
-0.2667503951500889
 10
474.8025827350394
 20
467.1464049876495
 42
0.0
 10
474.8025827350394
 20
462.1464629549648
 42
0.0
 10
475.8025827350395
 20
462.1464629549648
 42
0.0
 10
475.8025827350395
 20
467.1464049876492
 42
0.2662608607100668
 10
472.8352773567531
 20
472.3235435150049
 42
0.0
 10
448.8025827349617
 20
486.3426153777161
 42
0.1316524975835771
 10
445.8025827350396
 20
487.1464629549642
 42
0.0
 97
        0
 75
     0
 76
     1
 52
0.0
 41
20.0
 77
     0
 78
     1
 53
134.9999999999997
 43
604.2460542897124
 44
-19.67988739354928
 45
1.767766952966376
 46
1.767766952966361
 79
     0
 47
0.2376111440341236
 98
        5
 10
303.6925050733134
 20
486.9412857378834
 10
256.0117907613217
 20
413.2769908594784
 10
237.4819148616525
 20
397.9290698278914
 10
488.9295918375191
 20
397.5053294967649
 10
438.5112812401098
 20
486.8471220176159
  0
LINE
  5
CF2
330
17
100
AcDbEntity
  8
STEMPEL
100
AcDbLine
 10
445.8025827350396
 20
486.1464629549645
 30
0.0
 11
285.8025827350394
 21
486.1464629549657
 31
0.0
  0
LINE
  5
CF3
330
17
100
AcDbEntity
  8
STEMPEL
100
AcDbLine
 10
495.8025827350391
 20
397.1464629549648
 30
0.0
 11
235.8025827350391
 21
397.1464629549659
 31
0.0
  0
LINE
  5
CF4
330
17
100
AcDbEntity
  8
HILF
100
AcDbLine
 10
263.4762496775088
 20
470.1464629549685
 30
0.0
 11
468.6289157925703
 21
470.1464629549674
 31
0.0
  0
LINE
  5
CF5
330
17
100
AcDbEntity
  8
STEMPEL
100
AcDbLine
 10
445.8025827350396
 20
487.1464629549642
 30
0.0
 11
391.0642205626902
 21
487.1464629549648
 31
0.0
  0
LINE
  5
CF6
330
17
100
AcDbEntity
  8
STEMPEL
100
AcDbLine
 10
474.8025827350394
 20
467.1464049876492
 30
0.0
 11
474.8025827350391
 21
403.1464629549653
 31
0.0
  0
LINE
  5
CF7
330
17
100
AcDbEntity
  8
STEMPEL
100
AcDbLine
 10
475.8025827350395
 20
467.1464049876492
 30
0.0
 11
475.8025827350392
 21
403.1464629549653
 31
0.0
  0
ELLIPSE
  5
CF8
330
17
100
AcDbEntity
  8
STEMPEL
100
AcDbEllipse
 10
459.9756282417023
 20
429.6464629549666
 30
0.0
 11
-0.0000000000000334
 21
-7.499999999999999
 31
0.0
210
0.0
220
0.0
230
1.0
 40
0.4999999999999926
 41
4.712388980384689
 42
7.853981633974482
  0
ELLIPSE
  5
CF9
330
17
100
AcDbEntity
  8
STEMPEL
100
AcDbEllipse
 10
460.8436922613913
 20
429.6464629549666
 30
0.0
 11
-0.0000000000000334
 21
-7.499999999999999
 31
0.0
210
0.0
220
0.0
230
1.0
 40
0.4999999999999926
 41
4.712388980384689
 42
6.167183451052224
  0
ELLIPSE
  5
CFA
330
17
100
AcDbEntity
  8
STEMPEL
100
AcDbEllipse
 10
460.8436922613914
 20
454.646462954965
 30
0.0
 11
0.0000000000000334
 21
7.499999999999999
 31
0.0
210
0.0
220
0.0
230
-1.0
 40
0.4999999999999926
 41
4.712388980384689
 42
6.167183451052224
  0
ELLIPSE
  5
CFB
330
17
100
AcDbEntity
  8
STEMPEL
100
AcDbEllipse
 10
459.9756282417025
 20
454.646462954965
 30
0.0
 11
0.0000000000000334
 21
7.499999999999999
 31
0.0
210
0.0
220
0.0
230
-1.0
 40
0.4999999999999926
 41
4.712388980384689
 42
7.853981633974482
  0
LWPOLYLINE
  5
CFC
330
17
100
AcDbEntity
  8
STEMPEL
100
AcDbPolyline
 90
       10
 70
   128
 43
0.0
 10
461.0025638527164
 20
397.1464629549649
 10
460.2448142276222
 20
397.2376164368917
 10
459.5100884414466
 20
397.5083072302496
 10
458.8207107654135
 20
397.9503105322583
 10
458.1976275913672
 20
398.5501962962512
 10
457.6597709862556
 20
399.2897372968459
 10
457.2234834508567
 20
400.1464629549652
 10
456.9020213611614
 20
401.0943420950112
 10
456.7051521800975
 20
402.1045738889638
 10
456.6388576781106
 20
403.1464629549654
  0
LINE
  5
CFD
330
17
100
AcDbEntity
  8
STEMPEL
100
AcDbLine
 10
495.8025827350391
 20
398.1464629549648
 30
0.0
 11
480.8025827350389
 21
398.1464629549653
 31
0.0
  0
LINE
  5
CFE
330
17
100
AcDbEntity
  8
STEMPEL
100
AcDbLine
 10
495.8025827350393
 20
398.146462954965
 30
0.0
 11
495.8025827350394
 21
397.1464629549648
 31
0.0
  0
LWPOLYLINE
  5
CFF
330
17
100
AcDbEntity
  8
STEMPEL
100
AcDbPolyline
 90
       18
 70
   128
 43
0.0
 10
-474.592895494004
 20
409.646462954963
 10
-474.5762270705272
 20
411.0245843385875
 10
-474.5267894232667
 20
412.3557754513671
 10
-474.4462660920063
 20
413.594704176544
 10
-474.3373992022147
 20
414.6991802823134
 10
-474.2038960852523
 20
415.6315921595661
 10
-474.0503030296483
 20
416.3601876401274
 10
-473.8818504626961
 20
416.8601552787606
 10
-473.7042748345272
 20
417.1144692771775
 10
-473.5236232701802
 20
417.1144692771775
 10
-473.3460476420113
 20
416.8601552787606
 10
-473.1775950750592
 20
416.3601876401274
 10
-473.0240020194551
 20
415.6315921595661
 10
-472.8904989024928
 20
414.6991802823134
 10
-472.7816320127011
 20
413.594704176544
 10
-472.7011086814407
 20
412.3557754513671
 10
-472.6516710341802
 20
411.0245843385875
 10
-472.6350026107034
 20
409.646462954963
210
0.0
220
0.0
230
-1.0
  0
LWPOLYLINE
  5
D00
330
17
100
AcDbEntity
  8
STEMPEL
100
AcDbPolyline
 90
        9
 70
   128
 43
0.0
 10
-466.7298097727832
 20
417.0482211996281
 10
-466.2407492295145
 20
416.7217883018707
 10
-465.7811362616135
 20
416.1765192886135
 10
-465.3651864579893
 20
415.4292790454856
 10
-465.0057649286977
 20
414.503179322708
 10
-464.7139883938102
 20
413.4268639007378
 10
-464.4988813490721
 20
412.233622653107
 10
-464.3670969429646
 20
410.960361908031
 10
-464.3227111982997
 20
409.6464629549647
210
0.0
220
0.0
230
-1.0
  0
LWPOLYLINE
  5
D01
330
17
100
AcDbEntity
  8
STEMPEL
100
AcDbPolyline
 90
       18
 70
   128
 43
0.0
 10
-469.1369083472701
 20
409.6464629549631
 10
-469.0880390023538
 20
411.0245843385875
 10
-468.9430951545338
 20
412.3557754513673
 10
-468.7070126927066
 20
413.5947041765441
 10
-468.3878311219598
 20
414.6991802823134
 10
-467.9964197878695
 20
415.6315921595662
 10
-467.5461077339715
 20
416.3601876401274
 10
-467.0522297971721
 20
416.8601552787607
 10
-466.5316043982671
 20
417.1144692771775
 10
-466.0019608107953
 20
417.1144692771775
 10
-465.4813354118904
 20
416.8601552787607
 10
-464.9874574750909
 20
416.3601876401274
 10
-464.537145421193
 20
415.6315921595662
 10
-464.1457340871027
 20
414.6991802823134
 10
-463.8265525163559
 20
413.5947041765441
 10
-463.5904700545287
 20
412.3557754513673
 10
-463.4455262067087
 20
411.0245843385875
 10
-463.3966568617924
 20
409.6464629549631
210
0.0
220
0.0
230
-1.0
  0
ARC
  5
D02
330
17
100
AcDbEntity
  8
STEMPEL
100
AcDbCircle
 10
480.802582735039
 20
403.1464629549653
 30
0.0
 40
6.0
100
AcDbArc
 50
180.0
 51
269.9999999999968
  0
ARC
  5
D03
330
17
100
AcDbEntity
  8
STEMPEL
100
AcDbCircle
 10
480.802582735039
 20
403.1464629549653
 30
0.0
 40
5.0
100
AcDbArc
 50
180.0
 51
269.9999999999968
  0
LWPOLYLINE
  5
D04
330
17
100
AcDbEntity
  8
STEMPEL
100
AcDbPolyline
 90
       10
 70
   128
 43
0.0
 10
480.0988842250347
 20
397.1464629549659
 10
479.2408112287619
 20
397.2125901695386
 10
478.3879990291397
 20
397.4651439192689
 10
477.5672407222226
 20
397.8961896355865
 10
476.8043223558237
 20
398.4921850060264
 10
476.1232128003245
 20
399.234405437747
 10
475.5453107103788
 20
400.0995323345444
 10
475.0887722359725
 20
401.0603857052605
 10
474.767940604375
 20
402.0867780869727
 10
474.5928954940039
 20
403.1464629549653
  0
LWPOLYLINE
  5
D05
330
17
100
AcDbEntity
  8
STEMPEL
100
AcDbPolyline
 90
       10
 70
   128
 43
0.0
 10
478.1409913417341
 20
397.1464629549648
 10
477.2829183454614
 20
397.2125901695375
 10
476.4301061458391
 20
397.4651439192678
 10
475.6093478389222
 20
397.8961896355853
 10
474.8464294725232
 20
398.4921850060252
 10
474.165319917024
 20
399.2344054377459
 10
473.5874178270782
 20
400.0995323345432
 10
473.1308793526721
 20
401.0603857052593
 10
472.8100477210745
 20
402.0867780869715
 10
472.6350026107033
 20
403.1464629549641
  0
LINE
  5
D06
330
17
100
AcDbEntity
  8
STEMPEL
100
AcDbLine
 10
477.2133546776744
 20
398.1464629549648
 30
0.0
 11
476.2492405079118
 21
398.1464629549648
 31
0.0
  0
LINE
  5
D07
330
17
100
AcDbEntity
  8
STEMPEL
100
AcDbLine
 10
471.2904799799385
 20
398.1464629549648
 30
0.0
 11
466.4762828309672
 21
398.1464629549649
 31
0.0
  0
LWPOLYLINE
  5
D08
330
17
100
AcDbEntity
  8
STEMPEL
100
AcDbPolyline
 90
       10
 70
   128
 43
0.0
 10
468.2120213883662
 20
397.1464629549649
 10
467.3758421135246
 20
397.2376164368917
 10
466.565069722822
 20
397.5083072302496
 10
465.8043391250791
 20
397.9503105322583
 10
465.1167647345604
 20
398.5501962962512
 10
464.5232381511919
 20
399.2897372968459
 10
464.0417933798707
 20
400.1464629549651
 10
463.6870588763504
 20
401.0943420950111
 10
463.4698130690162
 20
402.1045738889637
 10
463.3966568617922
 20
403.1464629549653
  0
LINE
  5
D09
330
17
100
AcDbEntity
  8
STEMPEL
100
AcDbLine
 10
472.6350026107034
 20
409.646462954963
 30
0.0
 11
472.6350026107033
 21
403.1464629549641
 31
0.0
  0
LINE
  5
D0A
330
17
100
AcDbEntity
  8
STEMPEL
100
AcDbLine
 10
473.6287813242413
 20
409.646462954963
 30
0.0
 11
473.6287813242411
 21
403.1464629549653
 31
0.0
  0
LINE
  5
D0B
330
17
100
AcDbEntity
  8
STEMPEL
100
AcDbLine
 10
474.592895494004
 20
409.646462954963
 30
0.0
 11
474.5928954940039
 21
403.1464629549653
 31
0.0
  0
LINE
  5
D0C
330
17
100
AcDbEntity
  8
STEMPEL
100
AcDbLine
 10
469.1369083472701
 20
409.6464629549631
 30
0.0
 11
469.13690834727
 21
403.1464629549665
 31
0.0
  0
LWPOLYLINE
  5
D0D
330
17
100
AcDbEntity
  8
STEMPEL
100
AcDbPolyline
 90
       10
 70
   128
 43
0.0
 10
473.952272873844
 20
397.1464629549648
 10
473.1160935990024
 20
397.2376164368916
 10
472.3053212082998
 20
397.5083072302494
 10
471.544590610557
 20
397.9503105322583
 10
470.8570162200381
 20
398.5501962962511
 10
470.2634896366697
 20
399.2897372968459
 10
469.7820448653486
 20
400.1464629549651
 10
469.4273103618281
 20
401.0943420950111
 10
469.210064554494
 20
402.1045738889637
 10
469.13690834727
 20
403.1464629549653
  0
LWPOLYLINE
  5
D0E
330
17
100
AcDbEntity
  8
STEMPEL
100
AcDbPolyline
 90
        7
 70
   128
 43
0.0
 10
476.2492405079121
 20
398.1464629549653
 10
475.5725386328346
 20
398.7560636828243
 10
474.9729892092006
 20
399.4836227667361
 10
474.466700536051
 20
400.3095926284162
 10
474.0672752440055
 20
401.2117816536192
 10
473.7854448287426
 20
402.165950421813
 10
473.6287813242411
 20
403.1464629549653
  0
LWPOLYLINE
  5
D0F
330
17
100
AcDbEntity
  8
STEMPEL
100
AcDbPolyline
 90
        7
 70
   128
 43
0.0
 10
-474.1108384091228
 20
416.1085170108028
 10
-473.9730093995525
 20
415.3564107738644
 10
-473.8541451225863
 20
414.4336971631495
 10
-473.7577971206851
 20
413.3679459132452
 10
-473.6868441731469
 20
412.1910005764241
 10
-473.643406281139
 20
410.9380270700223
 10
-473.6287813242414
 20
409.646462954963
210
0.0
220
0.0
230
-1.0
  0
LINE
  5
D10
330
17
100
AcDbEntity
  8
STEMPEL
100
AcDbLine
 10
464.3227111982996
 20
409.6464629549631
 30
0.0
 11
464.3227111982995
 21
403.1464629549665
 31
0.0
  0
LINE
  5
D11
330
17
100
AcDbEntity
  8
STEMPEL
100
AcDbLine
 10
463.3966568617924
 20
409.6464629549631
 30
0.0
 11
463.3966568617922
 21
403.1464629549665
 31
0.0
  0
LWPOLYLINE
  5
D12
330
17
100
AcDbEntity
  8
STEMPEL
100
AcDbPolyline
 90
        7
 70
   128
 43
0.0
 10
466.4762828309682
 20
398.1464629549649
 10
465.8561923079038
 20
398.7558008568058
 10
465.3243721611204
 20
399.483231130095
 10
464.8951263613891
 20
400.3091886240387
 10
464.5800000135919
 20
401.2114581745009
 10
464.387468836626
 20
402.1657721087442
 10
464.3227111982996
 20
403.1464629549653
  0
LINE
  5
D13
330
17
100
AcDbEntity
  8
STEMPEL
100
AcDbLine
 10
463.7256282417024
 20
454.646462954965
 30
0.0
 11
463.7256282417023
 21
429.6464629549682
 31
0.0
  0
LINE
  5
D14
330
17
100
AcDbEntity
  8
STEMPEL
100
AcDbLine
 10
475.8025827350397
 20
422.1464629549647
 30
0.0
 11
474.8025827350394
 21
422.1464629549647
 31
0.0
  0
LINE
  5
D15
330
17
100
AcDbEntity
  8
STEMPEL
100
AcDbLine
 10
475.8025827350397
 20
462.1464629549647
 30
0.0
 11
474.8025827350396
 21
462.1464629549647
 31
0.0
  0
LWPOLYLINE
  5
D16
330
17
100
AcDbEntity
  8
STEMPEL
100
AcDbPolyline
 90
       18
 70
   128
 43
0.0
 10
-437.9504649856271
 20
409.6464629549632
 10
-437.8491523738228
 20
411.0245843385878
 10
-437.5486646178935
 20
412.3557754513674
 10
-437.0592344679724
 20
413.5947041765441
 10
-436.3975288808079
 20
414.6991802823134
 10
-435.5860814465428
 20
415.6315921595662
 10
-434.6525250343271
 20
416.3601876401275
 10
-433.628650788101
 20
416.8601552787609
 10
-432.5493255173182
 20
417.1144692771775
 10
-431.4513043495671
 20
417.1144692771776
 10
-430.3719790787844
 20
416.8601552787609
 10
-429.3481048325583
 20
416.3601876401275
 10
-428.4145484203426
 20
415.6315921595663
 10
-427.6031009860775
 20
414.6991802823135
 10
-426.941395398913
 20
413.5947041765442
 10
-426.4519652489918
 20
412.3557754513674
 10
-426.1514774930626
 20
411.0245843385878
 10
-426.0501648812582
 20
409.6464629549632
210
0.0
220
0.0
230
-1.0
  0
LWPOLYLINE
  5
D17
330
17
100
AcDbEntity
  8
STEMPEL
100
AcDbPolyline
 90
        9
 70
   128
 43
0.0
 10
-432.3054121573622
 20
417.136597032787
 10
-431.189004435991
 20
416.9292898963799
 10
-430.1237251842487
 20
416.460035168926
 10
-429.1478902012104
 20
415.7457109317574
 10
-428.2965981683524
 20
414.8120098883611
 10
-427.600468225616
 20
413.6925152532008
 10
-427.0845386669247
 20
412.427492835862
 10
-426.7673663667087
 20
411.0624427666527
 10
-426.6603593291206
 20
409.6464629549648
210
0.0
220
0.0
230
-1.0
  0
LWPOLYLINE
  5
D18
330
17
100
AcDbEntity
  8
STEMPEL
100
AcDbPolyline
 90
       10
 70
   128
 43
0.0
 10
429.7127680167822
 20
397.1464629549651
 10
429.0767636567813
 20
397.2376164368918
 10
428.4600839674251
 20
397.5083072302497
 10
427.8814664490201
 20
397.9503105322585
 10
427.3584921020682
 20
398.5501962962513
 10
426.9070512374637
 20
399.2897372968461
 10
426.5408606574377
 20
400.1464629549652
 10
426.2710468774628
 20
401.0943420950114
 10
426.1058080527111
 20
402.1045738889638
 10
426.0501648812581
 20
403.1464629549654
  0
LWPOLYLINE
  5
D19
330
17
100
AcDbEntity
  8
STEMPEL
100
AcDbPolyline
 90
        7
 70
   128
 43
0.0
 10
428.2983824052258
 20
398.146462954965
 10
427.8267368046589
 20
398.755800856806
 10
427.4222303282761
 20
399.4832311300952
 10
427.095742685787
 20
400.3091886240388
 10
426.8560551723789
 20
401.211458174501
 10
426.7096144847528
 20
402.1657721087445
 10
426.6603593291204
 20
403.1464629549654
  0
LWPOLYLINE
  5
D1A
330
17
100
AcDbEntity
  8
STEMPEL
100
AcDbPolyline
 90
       18
 70
   128
 43
0.0
 10
-456.6388576781105
 20
409.6464629549632
 10
-456.5611177768504
 20
411.0245843385877
 10
-456.3305454121685
 20
412.3557754513674
 10
-455.9549924494034
 20
413.5947041765441
 10
-455.4472478942757
 20
414.6991802823134
 10
-454.8246023786377
 20
415.6315921595662
 10
-454.1082593487438
 20
416.3601876401275
 10
-453.3226130073178
 20
416.8601552787609
 10
-452.4944175982384
 20
417.1144692771775
 10
-451.6518763228507
 20
417.1144692771775
 10
-450.8236809137713
 20
416.8601552787609
 10
-450.0380345723454
 20
416.3601876401275
 10
-449.3216915424514
 20
415.6315921595662
 10
-448.6990460268134
 20
414.6991802823134
 10
-448.1913014716857
 20
413.5947041765441
 10
-447.8157485089205
 20
412.3557754513674
 10
-447.5851761442387
 20
411.0245843385877
 10
-447.5074362429786
 20
409.6464629549632
210
0.0
220
0.0
230
-1.0
  0
LWPOLYLINE
  5
D1B
330
17
100
AcDbEntity
  8
STEMPEL
100
AcDbPolyline
 90
       10
 70
   128
 43
0.0
 10
-452.8683678473655
 20
417.1464629549664
 10
-452.0755405015059
 20
417.0325211025579
 10
-451.3068028133601
 20
416.6941576108605
 10
-450.5855124885825
 20
416.1416534833494
 10
-449.9335855687011
 20
415.3917962783582
 10
-449.3708305232854
 20
414.4673700276148
 10
-448.9143463796225
 20
413.3964629549654
 10
-448.5780031774257
 20
412.2116140299079
 10
-448.3720205346957
 20
410.948824287467
 10
-448.3026571297996
 20
409.6464629549648
210
0.0
220
0.0
230
-1.0
  0
LWPOLYLINE
  5
D1C
330
17
100
AcDbEntity
  8
STEMPEL
100
AcDbPolyline
 90
       10
 70
   128
 43
0.0
 10
451.8711424175846
 20
397.1464629549651
 10
451.1133927924903
 20
397.2376164368918
 10
450.3786670063147
 20
397.5083072302496
 10
449.6892893302816
 20
397.9503105322584
 10
449.0662061562353
 20
398.5501962962512
 10
448.5283495511238
 20
399.2897372968459
 10
448.0920620157248
 20
400.1464629549652
 10
447.7705999260296
 20
401.0943420950112
 10
447.5737307449655
 20
402.1045738889638
 10
447.5074362429787
 20
403.1464629549654
  0
LINE
  5
D1D
330
17
100
AcDbEntity
  8
STEMPEL
100
AcDbLine
 10
458.5904345066289
 20
398.1464629549649
 30
0.0
 11
450.254233958317
 21
398.146462954965
 31
0.0
  0
LINE
  5
D1E
330
17
100
AcDbEntity
  8
STEMPEL
100
AcDbLine
 10
456.6388576781106
 20
409.6464629549632
 30
0.0
 11
456.6388576781105
 21
403.1464629549666
 31
0.0
  0
LINE
  5
D1F
330
17
100
AcDbEntity
  8
STEMPEL
100
AcDbLine
 10
448.3026571297995
 20
409.6464629549632
 30
0.0
 11
448.3026571297994
 21
403.1464629549666
 31
0.0
  0
LINE
  5
D20
330
17
100
AcDbEntity
  8
STEMPEL
100
AcDbLine
 10
447.5074362429787
 20
409.6464629549632
 30
0.0
 11
447.5074362429786
 21
403.1464629549666
 31
0.0
  0
LWPOLYLINE
  5
D21
330
17
100
AcDbEntity
  8
STEMPEL
100
AcDbPolyline
 90
        7
 70
   128
 43
0.0
 10
450.2542339583177
 20
398.146462954965
 10
449.6923049850535
 20
398.7558008568058
 10
449.2103670454664
 20
399.4832311300952
 10
448.8213824657166
 20
400.3091886240388
 10
448.5358134746101
 20
401.211458174501
 10
448.3613408088142
 20
402.1657721087442
 10
448.3026571297992
 20
403.1464629549654
  0
LINE
  5
D22
330
17
100
AcDbEntity
  8
STEMPEL
100
AcDbLine
 10
439.5884880617322
 20
398.146462954965
 30
0.0
 11
428.2983824052251
 21
398.146462954965
 31
0.0
  0
LINE
  5
D23
330
17
100
AcDbEntity
  8
STEMPEL
100
AcDbLine
 10
437.950464985627
 20
409.6464629549632
 30
0.0
 11
437.9504649856269
 21
403.1464629549666
 31
0.0
  0
LWPOLYLINE
  5
D24
330
17
100
AcDbEntity
  8
STEMPEL
100
AcDbPolyline
 90
       10
 70
   128
 43
0.0
 10
441.6130681211511
 20
397.1464629549651
 10
440.9770637611501
 20
397.2376164368918
 10
440.360384071794
 20
397.5083072302496
 10
439.7817665533889
 20
397.9503105322585
 10
439.2587922064371
 20
398.5501962962512
 10
438.8073513418325
 20
399.2897372968459
 10
438.4411607618066
 20
400.1464629549652
 10
438.1713469818317
 20
401.0943420950114
 10
438.00610815708
 20
402.1045738889638
 10
437.9504649856269
 20
403.1464629549654
  0
LINE
  5
D25
330
17
100
AcDbEntity
  8
STEMPEL
100
AcDbLine
 10
456.2256282417025
 20
454.6464629549651
 30
0.0
 11
456.2256282417024
 21
429.6464629549667
 31
0.0
  0
LINE
  5
D26
330
17
100
AcDbEntity
  8
STEMPEL
100
AcDbLine
 10
457.0936922613912
 20
429.6464629549651
 30
0.0
 11
457.0936922613914
 21
454.6464629549667
 31
0.0
  0
LWPOLYLINE
  5
D27
330
17
100
AcDbEntity
  8
STEMPEL
100
AcDbPolyline
 90
       18
 70
   128
 43
0.0
 10
-414.3453133477769
 20
409.6464629549633
 10
-414.2273323124958
 20
411.0245843385878
 10
-413.8774069093061
 20
412.3557754513675
 10
-413.3074534281243
 20
413.5947041765444
 10
-412.5368809511683
 20
414.6991802823135
 10
-411.5919303999407
 20
415.6315921595664
 10
-410.5047809321206
 20
416.3601876401277
 10
-409.3124541189424
 20
416.860155278761
 10
-408.0555532199906
 20
417.1144692771776
 10
-406.7768804878922
 20
417.1144692771776
 10
-405.5199795889405
 20
416.8601552787611
 10
-404.3276527757623
 20
416.3601876401278
 10
-403.2405033079421
 20
415.6315921595664
 10
-402.2955527567146
 20
414.6991802823135
 10
-401.5249802797585
 20
413.5947041765444
 10
-400.9550267985767
 20
412.3557754513676
 10
-400.6051013953871
 20
411.0245843385879
 10
-400.487120360106
 20
409.6464629549634
210
0.0
220
0.0
230
-1.0
  0
LWPOLYLINE
  5
D28
330
17
100
AcDbEntity
  8
STEMPEL
100
AcDbPolyline
 90
        9
 70
   128
 43
0.0
 10
-407.6080089867534
 20
417.1435893780035
 10
-406.2837995364235
 20
416.9647564709557
 10
-405.0158201392374
 20
416.5144805536315
 10
-403.8511014511518
 20
415.8094628214923
 10
-402.8328440825451
 20
414.8758531051089
 10
-401.9988162432829
 20
413.7482799461328
 10
-401.379952881089
 20
412.468566189181
 10
-400.9992082726148
 20
411.0841777296455
 10
-400.8707046257829
 20
409.646462954965
210
0.0
220
0.0
230
-1.0
  0
LINE
  5
D29
330
17
100
AcDbEntity
  8
STEMPEL
100
AcDbLine
 10
415.5628247805059
 20
398.1464629549652
 30
0.0
 11
402.0882160585115
 21
398.1464629549653
 31
0.0
  0
LINE
  5
D2A
330
17
100
AcDbEntity
  8
STEMPEL
100
AcDbLine
 10
426.6603593291205
 20
409.6464629549632
 30
0.0
 11
426.6603593291204
 21
403.1464629549666
 31
0.0
  0
LINE
  5
D2B
330
17
100
AcDbEntity
  8
STEMPEL
100
AcDbLine
 10
426.0501648812581
 20
409.6464629549632
 30
0.0
 11
426.0501648812581
 21
403.1464629549666
 31
0.0
  0
LINE
  5
D2C
330
17
100
AcDbEntity
  8
STEMPEL
100
AcDbLine
 10
414.3453133477769
 20
409.6464629549633
 30
0.0
 11
414.3453133477768
 21
403.1464629549667
 31
0.0
  0
LWPOLYLINE
  5
D2D
330
17
100
AcDbEntity
  8
STEMPEL
100
AcDbPolyline
 90
       10
 70
   128
 43
0.0
 10
417.0676566749858
 20
397.1464629549652
 10
416.5949267172322
 20
397.2376164368919
 10
416.136560420032
 20
397.5083072302498
 10
415.7064850113813
 20
397.9503105322585
 10
415.317768114943
 20
398.5501962962514
 10
414.9822206969154
 20
399.2897372968462
 10
414.7100381957998
 20
400.1464629549653
 10
414.5094907391617
 20
401.0943420950114
 10
414.3866718599893
 20
402.1045738889639
 10
414.3453133477768
 20
403.1464629549656
  0
LWPOLYLINE
  5
D2E
330
17
100
AcDbEntity
  8
STEMPEL
100
AcDbPolyline
 90
       10
 70
   128
 43
0.0
 10
403.2094636873149
 20
397.1464629549653
 10
402.7367337295613
 20
397.237616436892
 10
402.2783674323611
 20
397.5083072302498
 10
401.8482920237103
 20
397.9503105322586
 10
401.4595751272721
 20
398.5501962962514
 10
401.1240277092444
 20
399.2897372968462
 10
400.8518452081289
 20
400.1464629549655
 10
400.6512977514907
 20
401.0943420950114
 10
400.5284788723184
 20
402.1045738889641
 10
400.4871203601059
 20
403.1464629549657
  0
LINE
  5
D2F
330
17
100
AcDbEntity
  8
STEMPEL
100
AcDbLine
 10
400.8707046257829
 20
409.6464629549634
 30
0.0
 11
400.8707046257828
 21
403.1464629549668
 31
0.0
  0
LINE
  5
D30
330
17
100
AcDbEntity
  8
STEMPEL
100
AcDbLine
 10
400.487120360106
 20
409.6464629549618
 30
0.0
 11
400.4871203601059
 21
403.1464629549668
 31
0.0
  0
LWPOLYLINE
  5
D31
330
17
100
AcDbEntity
  8
STEMPEL
100
AcDbPolyline
 90
        7
 70
   128
 43
0.0
 10
402.0882160585119
 20
398.1464629549653
 10
401.7376508441
 20
398.755800856806
 10
401.4369888651613
 20
399.4832311300953
 10
401.1943168032266
 20
400.309188624039
 10
401.0161616281782
 20
401.2114581745013
 10
400.9073150471976
 20
402.1657721087445
 10
400.8707046257828
 20
403.1464629549657
  0
LINE
  5
D32
330
17
100
AcDbEntity
  8
STEMPEL
100
AcDbLine
 10
413.6782253803357
 20
454.6464629549652
 30
0.0
 11
413.6782253803355
 21
429.6464629549652
 31
0.0
  0
LINE
  5
D33
330
17
100
AcDbEntity
  8
STEMPEL
100
AcDbLine
 10
426.6686064371015
 20
454.6464629549652
 30
0.0
 11
426.6686064371014
 21
429.6464629549668
 31
0.0
  0
LINE
  5
D34
330
17
100
AcDbEntity
  8
STEMPEL
100
AcDbLine
 10
414.1794023757777
 20
454.6464629549652
 30
0.0
 11
414.1794023757776
 21
429.6464629549652
 31
0.0
  0
ELLIPSE
  5
D35
330
17
100
AcDbEntity
  8
STEMPEL
100
AcDbEllipse
 10
420.1734159087185
 20
429.6464629549652
 30
0.0
 11
-0.0000000000000334
 21
-7.5
 31
0.0
210
0.0
220
0.0
230
1.0
 40
0.8660254037843856
 41
4.712388980384689
 42
7.853981633974482
  0
ELLIPSE
  5
D36
330
17
100
AcDbEntity
  8
STEMPEL
100
AcDbEllipse
 10
420.6745929041605
 20
429.6464629549652
 30
0.0
 11
-0.0000000000000334
 21
-7.5
 31
0.0
210
0.0
220
0.0
230
1.0
 40
0.8660254037843856
 41
4.712388980384689
 42
6.24459510668465
  0
ELLIPSE
  5
D37
330
17
100
AcDbEntity
  8
STEMPEL
100
AcDbEllipse
 10
420.1734159087186
 20
454.6464629549652
 30
0.0
 11
0.0000000000000334
 21
7.5
 31
0.0
210
0.0
220
0.0
230
-1.0
 40
0.8660254037843856
 41
4.712388980384689
 42
7.853981633974482
  0
ELLIPSE
  5
D38
330
17
100
AcDbEntity
  8
STEMPEL
100
AcDbEllipse
 10
420.6745929041606
 20
454.6464629549652
 30
0.0
 11
0.0000000000000334
 21
7.5
 31
0.0
210
0.0
220
0.0
230
-1.0
 40
0.8660254037843856
 41
4.712388980384689
 42
6.24459510668465
  0
LINE
  5
D39
330
17
100
AcDbEntity
  8
STEMPEL
100
AcDbLine
 10
472.3219363031666
 20
471.4653004018455
 30
0.0
 11
448.3430824102155
 21
485.4529535680311
 31
0.0
  0
LINE
  5
D3A
330
17
100
AcDbEntity
  8
STEMPEL
100
AcDbLine
 10
472.8352773567474
 20
472.3235435150082
 30
0.0
 11
448.8489744812806
 21
486.3155535256968
 31
0.0
  0
ARC
  5
D3B
330
17
100
AcDbEntity
  8
STEMPEL
100
AcDbCircle
 10
469.8025827350394
 20
467.1464049876493
 30
0.0
 40
6.0
100
AcDbArc
 50
0.0
 51
59.74358352518112
  0
ARC
  5
D3C
330
17
100
AcDbEntity
  8
STEMPEL
100
AcDbCircle
 10
475.3137263393511
 20
476.6662999374266
 30
0.0
 40
5.0
100
AcDbArc
 50
239.7435628364684
 51
239.9329541615128
  0
ARC
  5
D3D
330
17
100
AcDbEntity
  8
STEMPEL
100
AcDbCircle
 10
469.8025827350394
 20
467.1464049876493
 30
0.0
 40
5.0
100
AcDbArc
 50
0.0
 51
59.74358352518112
  0
ARC
  5
D3E
330
17
100
AcDbEntity
  8
STEMPEL
100
AcDbCircle
 10
445.8025827350396
 20
481.1464629549646
 30
0.0
 40
5.0
100
AcDbArc
 50
59.46264995169811
 51
90.0
  0
ARC
  5
D3F
330
17
100
AcDbEntity
  8
STEMPEL
100
AcDbCircle
 10
445.8025827350396
 20
481.1464629549646
 30
0.0
 40
6.0
100
AcDbArc
 50
59.48712567237889
 51
90.0
  0
ARC
  5
D40
330
17
100
AcDbEntity
  8
STEMPEL
100
AcDbCircle
 10
445.8025827350396
 20
481.1464629549646
 30
0.0
 40
6.0
100
AcDbArc
 50
90.0
 51
90.0
  0
LWPOLYLINE
  5
D41
330
17
100
AcDbEntity
  8
STEMPEL
100
AcDbPolyline
 90
       18
 70
   128
 43
0.0
 10
262.4682571228082
 20
409.646462954964
 10
262.5171264677245
 20
411.0245843385885
 10
262.6620703155445
 20
412.3557754513682
 10
262.8981527773718
 20
413.594704176545
 10
263.2173343481184
 20
414.6991802823142
 10
263.6087456822088
 20
415.6315921595671
 10
264.0590577361068
 20
416.3601876401283
 10
264.5529356729062
 20
416.8601552787617
 10
265.0735610718112
 20
417.1144692771783
 10
265.603204659283
 20
417.1144692771783
 10
266.1238300581879
 20
416.8601552787617
 10
266.6177079949874
 20
416.3601876401282
 10
267.0680200488853
 20
415.631592159567
 10
267.4594313829758
 20
414.6991802823142
 10
267.7786129537224
 20
413.5947041765449
 10
268.0146954155496
 20
412.3557754513681
 10
268.1596392633697
 20
411.0245843385885
 10
268.208508608286
 20
409.6464629549639
  0
LINE
  5
D42
330
17
100
AcDbEntity
  8
STEMPEL
100
AcDbLine
 10
260.3146854901396
 20
398.1464629549659
 30
0.0
 11
265.128882639111
 21
398.1464629549659
 31
0.0
  0
LINE
  5
D43
330
17
100
AcDbEntity
  8
STEMPEL
100
AcDbLine
 10
258.7698881133315
 20
472.3235435150091
 30
0.0
 11
282.7561909887984
 21
486.3155535256976
 31
0.0
  0
LINE
  5
D44
330
17
100
AcDbEntity
  8
STEMPEL
100
AcDbLine
 10
259.2832291669123
 20
471.4653004018465
 30
0.0
 11
283.2620830598635
 21
485.4529535680319
 31
0.0
  0
LWPOLYLINE
  5
D45
330
17
100
AcDbEntity
  8
STEMPEL
100
AcDbPolyline
 90
       18
 70
   128
 43
0.0
 10
317.2598521223014
 20
409.6464629549638
 10
317.3778331575825
 20
411.0245843385882
 10
317.7277585607722
 20
412.3557754513679
 10
318.297712041954
 20
413.5947041765446
 10
319.0682845189101
 20
414.699180282314
 10
320.0132350701376
 20
415.6315921595668
 10
321.1003845379576
 20
416.360187640128
 10
322.2927113511359
 20
416.8601552787613
 10
323.5496122500877
 20
417.1144692771781
 10
324.828284982186
 20
417.1144692771781
 10
326.0851858811379
 20
416.8601552787613
 10
327.2775126943161
 20
416.360187640128
 10
328.3646621621362
 20
415.6315921595668
 10
329.3096127133637
 20
414.699180282314
 10
330.0801851903198
 20
413.5947041765446
 10
330.6501386715016
 20
412.3557754513679
 10
331.0000640746912
 20
411.0245843385882
 10
331.1180451099724
 20
409.6464629549636
  0
LWPOLYLINE
  5
D46
330
17
100
AcDbEntity
  8
STEMPEL
100
AcDbPolyline
 90
        9
 70
   128
 43
0.0
 10
323.997156483325
 20
417.1435893780039
 10
325.3213659336548
 20
416.964756470956
 10
326.5893453308409
 20
416.514480553632
 10
327.7540640189265
 20
415.8094628214927
 10
328.7723213875332
 20
414.8758531051091
 10
329.6063492267955
 20
413.7482799461331
 10
330.2252125889893
 20
412.4685661891812
 10
330.6059571974635
 20
411.0841777296458
 10
330.7344608442954
 20
409.6464629549652
  0
LINE
  5
D47
330
17
100
AcDbEntity
  8
STEMPEL
100
AcDbLine
 10
316.0423406895723
 20
398.1464629549656
 30
0.0
 11
329.5169494115667
 21
398.1464629549655
 31
0.0
  0
LWPOLYLINE
  5
D48
330
17
100
AcDbEntity
  8
STEMPEL
100
AcDbPolyline
 90
       10
 70
   128
 43
0.0
 10
-328.3957017827632
 20
397.1464629549655
 10
-328.8684317405168
 20
397.2376164368922
 10
-329.326798037717
 20
397.5083072302501
 10
-329.7568734463677
 20
397.950310532259
 10
-330.145590342806
 20
398.5501962962517
 10
-330.4811377608337
 20
399.2897372968464
 10
-330.7533202619493
 20
400.1464629549657
 10
-330.9538677185874
 20
401.0943420950118
 10
-331.0766865977598
 20
402.1045738889642
 10
-331.1180451099723
 20
403.1464629549659
210
0.0
220
0.0
230
-1.0
  0
ARC
  5
D49
330
17
100
AcDbEntity
  8
STEMPEL
100
AcDbCircle
 10
365.8025827350393
 20
429.6464629549655
 30
0.0
 40
7.5
100
AcDbArc
 50
180.000000000026
 51
0.0000000000130276
  0
ARC
  5
D4A
330
17
100
AcDbEntity
  8
STEMPEL
100
AcDbCircle
 10
365.8025827350393
 20
454.6464629549655
 30
0.0
 40
7.5
100
AcDbArc
 50
359.999999999987
 51
179.9999999999739
  0
LWPOLYLINE
  5
D4B
330
17
100
AcDbEntity
  8
STEMPEL
100
AcDbPolyline
 90
       18
 70
   128
 43
0.0
 10
-387.4320548393261
 20
409.6464629549634
 10
-387.3054455931497
 20
411.0245843385881
 10
-386.9299293806481
 20
412.3557754513676
 10
-386.3182939560557
 20
413.5947041765444
 10
-385.4913678301813
 20
414.6991802823136
 10
-384.4773109804531
 20
415.6315921595664
 10
-383.3106558966613
 20
416.3601876401278
 10
-382.0311316184361
 20
416.8601552787611
 10
-380.682310810452
 20
417.1144692771779
 10
-379.3101259475927
 20
417.1144692771779
 10
-377.9613051396085
 20
416.8601552787611
 10
-376.6817808613833
 20
416.3601876401278
 10
-375.5151257775915
 20
415.6315921595665
 10
-374.5010689278633
 20
414.6991802823138
 10
-373.6741428019889
 20
413.5947041765445
 10
-373.0625073773966
 20
412.3557754513676
 10
-372.6869911648949
 20
411.0245843385881
 10
-372.5603819187185
 20
409.6464629549634
210
0.0
220
0.0
230
-1.0
  0
LWPOLYLINE
  5
D4C
330
17
100
AcDbEntity
  8
STEMPEL
100
AcDbPolyline
 90
        9
 70
   128
 43
0.0
 10
-380.0616351037659
 20
417.1461727147382
 10
-378.620295119888
 20
416.9908713208145
 10
-377.2362142164384
 20
416.5564710738002
 10
-375.9619896039065
 20
415.859479853525
 10
-374.8460437841766
 20
414.9263844020793
 10
-373.9307844207236
 20
413.7926437867358
 10
-373.2509927819485
 20
412.5013419006664
 10
-372.832501999299
 20
411.1015502085069
 10
-372.6912153684051
 20
409.646462954965
210
0.0
220
0.0
230
-1.0
  0
LINE
  5
D4D
330
17
100
AcDbEntity
  8
STEMPEL
100
AcDbLine
 10
388.0186293615832
 20
398.1464629549653
 30
0.0
 11
373.2777898906618
 21
398.1464629549653
 31
0.0
  0
LINE
  5
D4E
330
17
100
AcDbEntity
  8
STEMPEL
100
AcDbLine
 10
387.4320548393263
 20
409.646462954965
 30
0.0
 11
387.4320548393263
 21
403.1464629549668
 31
0.0
  0
LWPOLYLINE
  5
D4F
330
17
100
AcDbEntity
  8
STEMPEL
100
AcDbPolyline
 90
       10
 70
   128
 43
0.0
 10
388.743629575834
 20
397.1464629549653
 10
388.5158770129654
 20
397.237616436892
 10
388.2950445964712
 20
397.5083072302498
 10
388.08784220758
 20
397.9503105322588
 10
387.9005655860289
 20
398.5501962962514
 10
387.7389050371969
 20
399.2897372968462
 10
387.6077725350563
 20
400.1464629549655
 10
387.5111524743283
 20
401.0943420950115
 10
387.4519806066661
 20
402.1045738889641
 10
387.4320548393261
 20
403.1464629549657
  0
LINE
  5
D50
330
17
100
AcDbEntity
  8
STEMPEL
100
AcDbLine
 10
372.6912153684051
 20
409.6464629549634
 30
0.0
 11
372.6912153684051
 21
403.1464629549668
 31
0.0
  0
LINE
  5
D51
330
17
100
AcDbEntity
  8
STEMPEL
100
AcDbLine
 10
372.5603819187186
 20
409.6464629549618
 30
0.0
 11
372.5603819187186
 21
403.1464629549668
 31
0.0
  0
LWPOLYLINE
  5
D52
330
17
100
AcDbEntity
  8
STEMPEL
100
AcDbPolyline
 90
       10
 70
   128
 43
0.0
 10
373.8719566552264
 20
397.1464629549653
 10
373.6442040923579
 20
397.237616436892
 10
373.4233716758637
 20
397.5083072302499
 10
373.2161692869724
 20
397.9503105322588
 10
373.0288926654213
 20
398.5501962962516
 10
372.8672321165893
 20
399.2897372968463
 10
372.7360996144487
 20
400.1464629549655
 10
372.6394795537208
 20
401.0943420950115
 10
372.5803076860585
 20
402.1045738889641
 10
372.5603819187186
 20
403.1464629549657
  0
LWPOLYLINE
  5
D53
330
17
100
AcDbEntity
  8
STEMPEL
100
AcDbPolyline
 90
        7
 70
   128
 43
0.0
 10
373.2777898906621
 20
398.1464629549653
 10
373.1088940448937
 20
398.7558008568062
 10
372.964040656321
 20
399.4832311300954
 10
372.8471257387539
 20
400.309188624039
 10
372.7612938657362
 20
401.2114581745013
 10
372.7088535932905
 20
402.1657721087446
 10
372.6912153684052
 20
403.1464629549657
  0
LINE
  5
D54
330
17
100
AcDbEntity
  8
STEMPEL
100
AcDbLine
 10
373.3025827350393
 20
454.6464629549639
 30
0.0
 11
373.3025827350392
 21
429.6464629549639
 31
0.0
  0
LWPOLYLINE
  5
D55
330
17
100
AcDbEntity
  8
STEMPEL
100
AcDbPolyline
 90
        9
 70
   128
 43
0.0
 10
351.5435303663125
 20
417.1461727147384
 10
352.9848703501903
 20
416.9908713208147
 10
354.3689512536399
 20
416.5564710738003
 10
355.6431758661718
 20
415.859479853525
 10
356.7591216859017
 20
414.9263844020794
 10
357.6743810493547
 20
413.7926437867358
 10
358.3541726881299
 20
412.5013419006665
 10
358.7726634707792
 20
411.1015502085069
 10
358.9139501016731
 20
409.6464629549651
  0
LWPOLYLINE
  5
D56
330
17
100
AcDbEntity
  8
STEMPEL
100
AcDbPolyline
 90
       18
 70
   128
 43
0.0
 10
344.1731106307522
 20
409.6464629549636
 10
344.2997198769286
 20
411.0245843385881
 10
344.6752360894302
 20
412.3557754513679
 10
345.2868715140226
 20
413.5947041765446
 10
346.113797639897
 20
414.6991802823138
 10
347.1278544896252
 20
415.6315921595667
 10
348.294509573417
 20
416.360187640128
 10
349.5740338516422
 20
416.8601552787613
 10
350.9228546596264
 20
417.1144692771779
 10
352.2950395224857
 20
417.1144692771779
 10
353.6438603304698
 20
416.8601552787613
 10
354.923384608695
 20
416.360187640128
 10
356.0900396924868
 20
415.6315921595667
 10
357.104096542215
 20
414.6991802823138
 10
357.9310226680894
 20
413.5947041765446
 10
358.5426580926817
 20
412.3557754513678
 10
358.9181743051834
 20
411.0245843385881
 10
359.0447835513597
 20
409.6464629549635
  0
LINE
  5
D57
330
17
100
AcDbEntity
  8
STEMPEL
100
AcDbLine
 10
343.586536108495
 20
398.1464629549655
 30
0.0
 11
358.3273755794164
 21
398.1464629549654
 31
0.0
  0
LINE
  5
D58
330
17
100
AcDbEntity
  8
STEMPEL
100
AcDbLine
 10
359.0447835513596
 20
409.6464629549619
 30
0.0
 11
359.0447835513596
 21
403.1464629549669
 31
0.0
  0
LINE
  5
D59
330
17
100
AcDbEntity
  8
STEMPEL
100
AcDbLine
 10
358.9139501016731
 20
409.6464629549635
 30
0.0
 11
358.9139501016731
 21
403.1464629549669
 31
0.0
  0
LWPOLYLINE
  5
D5A
330
17
100
AcDbEntity
  8
STEMPEL
100
AcDbPolyline
 90
        7
 70
   128
 43
0.0
 10
-358.3273755794161
 20
398.1464629549654
 10
-358.4962714251846
 20
398.7558008568062
 10
-358.6411248137572
 20
399.4832311300955
 10
-358.7580397313243
 20
400.3091886240391
 10
-358.843871604342
 20
401.2114581745014
 10
-358.8963118767876
 20
402.1657721087446
 10
-358.913950101673
 20
403.1464629549658
210
0.0
220
0.0
230
-1.0
  0
LWPOLYLINE
  5
D5B
330
17
100
AcDbEntity
  8
STEMPEL
100
AcDbPolyline
 90
       10
 70
   128
 43
0.0
 10
-357.7332088148517
 20
397.1464629549654
 10
-357.9609613777203
 20
397.2376164368922
 10
-358.1817937942145
 20
397.50830723025
 10
-358.3889961831058
 20
397.9503105322588
 10
-358.5762728046569
 20
398.5501962962517
 10
-358.7379333534889
 20
399.2897372968464
 10
-358.8690658556295
 20
400.1464629549656
 10
-358.9656859163574
 20
401.0943420950115
 10
-359.0248577840197
 20
402.1045738889641
 10
-359.0447835513596
 20
403.1464629549658
210
0.0
220
0.0
230
-1.0
  0
LINE
  5
D5C
330
17
100
AcDbEntity
  8
STEMPEL
100
AcDbLine
 10
344.173110630752
 20
409.6464629549652
 30
0.0
 11
344.1731106307519
 21
403.146462954967
 31
0.0
  0
LWPOLYLINE
  5
D5D
330
17
100
AcDbEntity
  8
STEMPEL
100
AcDbPolyline
 90
       10
 70
   128
 43
0.0
 10
-342.8615358942442
 20
397.1464629549655
 10
-343.0892884571127
 20
397.2376164368922
 10
-343.3101208736069
 20
397.50830723025
 10
-343.5173232624982
 20
397.9503105322589
 10
-343.7045998840493
 20
398.5501962962517
 10
-343.8662604328813
 20
399.2897372968464
 10
-343.997392935022
 20
400.1464629549657
 10
-344.0940129957498
 20
401.0943420950117
 10
-344.153184863412
 20
402.1045738889642
 10
-344.173110630752
 20
403.1464629549659
210
0.0
220
0.0
230
-1.0
  0
LINE
  5
D5E
330
17
100
AcDbEntity
  8
STEMPEL
100
AcDbLine
 10
331.1180451099724
 20
409.646462954962
 30
0.0
 11
331.1180451099723
 21
403.146462954967
 31
0.0
  0
LINE
  5
D5F
330
17
100
AcDbEntity
  8
STEMPEL
100
AcDbLine
 10
330.7344608442954
 20
409.6464629549636
 30
0.0
 11
330.7344608442953
 21
403.146462954967
 31
0.0
  0
LWPOLYLINE
  5
D60
330
17
100
AcDbEntity
  8
STEMPEL
100
AcDbPolyline
 90
        7
 70
   128
 43
0.0
 10
-329.5169494115662
 20
398.1464629549655
 10
-329.8675146259782
 20
398.7558008568064
 10
-330.1681766049169
 20
399.4832311300957
 10
-330.4108486668515
 20
400.3091886240392
 10
-330.5890038419
 20
401.2114581745015
 10
-330.6978504228805
 20
402.1657721087446
 10
-330.7344608442953
 20
403.1464629549659
210
0.0
220
0.0
230
-1.0
  0
LINE
  5
D61
330
17
100
AcDbEntity
  8
STEMPEL
100
AcDbLine
 10
358.3025827350393
 20
454.6464629549655
 30
0.0
 11
358.3025827350392
 21
429.6464629549655
 31
0.0
  0
LWPOLYLINE
  5
D62
330
17
100
AcDbEntity
  8
STEMPEL
100
AcDbPolyline
 90
       18
 70
   128
 43
0.0
 10
293.6547004844512
 20
409.6464629549639
 10
293.7560130962556
 20
411.0245843385883
 10
294.0565008521848
 20
412.3557754513681
 10
294.545931002106
 20
413.5947041765448
 10
295.2076365892704
 20
414.699180282314
 10
296.0190840235355
 20
415.6315921595669
 10
296.9526404357512
 20
416.3601876401282
 10
297.9765146819773
 20
416.8601552787615
 10
299.0558399527601
 20
417.1144692771781
 10
300.1538611205112
 20
417.1144692771781
 10
301.2331863912939
 20
416.8601552787615
 10
302.2570606375201
 20
416.3601876401282
 10
303.1906170497358
 20
415.6315921595669
 10
304.0020644840009
 20
414.699180282314
 10
304.6637700711653
 20
413.5947041765448
 10
305.1532002210865
 20
412.3557754513679
 10
305.4536879770157
 20
411.0245843385882
 10
305.5550005888201
 20
409.6464629549638
  0
LINE
  5
D63
330
17
100
AcDbEntity
  8
STEMPEL
100
AcDbLine
 10
292.0166774083459
 20
398.1464629549657
 30
0.0
 11
303.306783064853
 21
398.1464629549657
 31
0.0
  0
LWPOLYLINE
  5
D64
330
17
100
AcDbEntity
  8
STEMPEL
100
AcDbPolyline
 90
        9
 70
   128
 43
0.0
 10
299.2997533127162
 20
417.1365970327875
 10
300.4161610340873
 20
416.9292898963804
 10
301.4814402858296
 20
416.4600351689266
 10
302.4572752688679
 20
415.7457109317581
 10
303.3085673017259
 20
414.8120098883616
 10
304.0046972444623
 20
413.6925152532012
 10
304.5206268031537
 20
412.4274928358626
 10
304.8377991033695
 20
411.0624427666532
 10
304.9448061409577
 20
409.6464629549654
  0
LINE
  5
D65
330
17
100
AcDbEntity
  8
STEMPEL
100
AcDbLine
 10
317.2598521223014
 20
409.6464629549638
 30
0.0
 11
317.2598521223014
 21
403.1464629549672
 31
0.0
  0
LWPOLYLINE
  5
D66
330
17
100
AcDbEntity
  8
STEMPEL
100
AcDbPolyline
 90
       10
 70
   128
 43
0.0
 10
-314.5375087950923
 20
397.1464629549656
 10
-315.0102387528459
 20
397.2376164368924
 10
-315.4686050500461
 20
397.5083072302502
 10
-315.8986804586969
 20
397.950310532259
 10
-316.2873973551351
 20
398.5501962962519
 10
-316.6229447731628
 20
399.2897372968466
 10
-316.8951272742784
 20
400.1464629549658
 10
-317.0956747309165
 20
401.0943420950118
 10
-317.2184936100889
 20
402.1045738889644
 10
-317.2598521223014
 20
403.1464629549661
210
0.0
220
0.0
230
-1.0
  0
LWPOLYLINE
  5
D67
330
17
100
AcDbEntity
  8
STEMPEL
100
AcDbPolyline
 90
       10
 70
   128
 43
0.0
 10
-301.892397453296
 20
397.1464629549657
 10
-302.5284018132969
 20
397.2376164368925
 10
-303.1450815026531
 20
397.5083072302502
 10
-303.7236990210581
 20
397.9503105322591
 10
-304.24667336801
 20
398.5501962962519
 10
-304.6981142326144
 20
399.2897372968466
 10
-305.0643048126405
 20
400.1464629549658
 10
-305.3341185926154
 20
401.0943420950118
 10
-305.499357417367
 20
402.1045738889644
 10
-305.5550005888201
 20
403.1464629549661
210
0.0
220
0.0
230
-1.0
  0
LWPOLYLINE
  5
D68
330
17
100
AcDbEntity
  8
STEMPEL
100
AcDbPolyline
 90
        7
 70
   128
 43
0.0
 10
-303.3067830648524
 20
398.1464629549657
 10
-303.7784286654193
 20
398.7558008568066
 10
-304.1829351418021
 20
399.4832311300959
 10
-304.5094227842911
 20
400.3091886240395
 10
-304.7491102976994
 20
401.2114581745017
 10
-304.8955509853254
 20
402.1657721087449
 10
-304.9448061409578
 20
403.1464629549661
210
0.0
220
0.0
230
-1.0
  0
LINE
  5
D69
330
17
100
AcDbEntity
  8
STEMPEL
100
AcDbLine
 10
305.5550005888202
 20
409.6464629549638
 30
0.0
 11
305.5550005888201
 21
403.1464629549672
 31
0.0
  0
LINE
  5
D6A
330
17
100
AcDbEntity
  8
STEMPEL
100
AcDbLine
 10
304.9448061409578
 20
409.6464629549638
 30
0.0
 11
304.9448061409578
 21
403.1464629549672
 31
0.0
  0
ELLIPSE
  5
D6B
330
17
100
AcDbEntity
  8
STEMPEL
100
AcDbEllipse
 10
310.9305725659182
 20
429.6464629549657
 30
0.0
 11
-0.0000000000000334
 21
-7.5
 31
0.0
210
0.0
220
0.0
230
-1.0
 40
0.8660254037843856
 41
4.712388980384689
 42
6.24459510668465
  0
ELLIPSE
  5
D6C
330
17
100
AcDbEntity
  8
STEMPEL
100
AcDbEllipse
 10
311.4317495613601
 20
429.6464629549657
 30
0.0
 11
-0.0000000000000334
 21
-7.5
 31
0.0
210
0.0
220
0.0
230
-1.0
 40
0.8660254037843856
 41
4.712388980384689
 42
7.853981633974482
  0
ELLIPSE
  5
D6D
330
17
100
AcDbEntity
  8
STEMPEL
100
AcDbEllipse
 10
310.9305725659183
 20
454.6464629549657
 30
0.0
 11
0.0000000000000334
 21
7.5
 31
0.0
210
0.0
220
0.0
230
1.0
 40
0.8660254037843856
 41
4.712388980384689
 42
6.24459510668465
  0
ELLIPSE
  5
D6E
330
17
100
AcDbEntity
  8
STEMPEL
100
AcDbEllipse
 10
311.4317495613602
 20
454.6464629549657
 30
0.0
 11
0.0000000000000334
 21
7.5
 31
0.0
210
0.0
220
0.0
230
1.0
 40
0.8660254037843856
 41
4.712388980384689
 42
7.853981633974482
  0
LINE
  5
D6F
330
17
100
AcDbEntity
  8
STEMPEL
100
AcDbLine
 10
317.4257630943011
 20
454.6464629549657
 30
0.0
 11
317.4257630943011
 21
429.6464629549657
 31
0.0
  0
LINE
  5
D70
330
17
100
AcDbEntity
  8
STEMPEL
100
AcDbLine
 10
317.9269400897431
 20
454.6464629549657
 30
0.0
 11
317.926940089743
 21
429.6464629549657
 31
0.0
  0
LINE
  5
D71
330
17
100
AcDbEntity
  8
STEMPEL
100
AcDbLine
 10
304.9365590329774
 20
454.6464629549657
 30
0.0
 11
304.9365590329772
 21
429.6464629549673
 31
0.0
  0
LWPOLYLINE
  5
D72
330
17
100
AcDbEntity
  8
STEMPEL
100
AcDbPolyline
 90
       10
 70
   128
 43
0.0
 10
278.7367976227128
 20
417.1464629549671
 10
279.5296249685725
 20
417.0325211025585
 10
280.2983626567182
 20
416.6941576108613
 10
281.0196529814957
 20
416.1416534833501
 10
281.6715799013772
 20
415.391796278359
 10
282.2343349467929
 20
414.4673700276155
 10
282.6908190904558
 20
413.3964629549662
 10
283.0271622926526
 20
412.2116140299085
 10
283.2331449353826
 20
410.9488242874676
 10
283.3025083402787
 20
409.6464629549655
  0
LWPOLYLINE
  5
D73
330
17
100
AcDbEntity
  8
STEMPEL
100
AcDbPolyline
 90
       18
 70
   128
 43
0.0
 10
274.9663077919678
 20
409.6464629549639
 10
275.0440476932279
 20
411.0245843385885
 10
275.2746200579098
 20
412.3557754513681
 10
275.6501730206749
 20
413.5947041765449
 10
276.1579175758026
 20
414.6991802823142
 10
276.7805630914406
 20
415.631592159567
 10
277.4969061213347
 20
416.3601876401282
 10
278.2825524627605
 20
416.8601552787615
 10
279.1107478718399
 20
417.1144692771783
 10
279.9532891472276
 20
417.1144692771783
 10
280.781484556307
 20
416.8601552787615
 10
281.5671308977329
 20
416.3601876401282
 10
282.283473927627
 20
415.6315921595669
 10
282.9061194432649
 20
414.6991802823142
 10
283.4138639983926
 20
413.5947041765448
 10
283.7894169611578
 20
412.3557754513681
 10
284.0199893258396
 20
411.0245843385885
 10
284.0977292270997
 20
409.6464629549639
  0
LWPOLYLINE
  5
D74
330
17
100
AcDbEntity
  8
STEMPEL
100
AcDbPolyline
 90
        9
 70
   128
 43
0.0
 10
264.875355697295
 20
417.0482211996291
 10
265.3644162405638
 20
416.7217883018716
 10
265.8240292084648
 20
416.1765192886145
 10
266.239979012089
 20
415.4292790454864
 10
266.5994005413806
 20
414.5031793227088
 10
266.8911770762681
 20
413.4268639007387
 10
267.1062841210062
 20
412.2336226531078
 10
267.2380685271138
 20
410.9603619080319
 10
267.2824542717786
 20
409.6464629549655
  0
LINE
  5
D75
330
17
100
AcDbEntity
  8
STEMPEL
100
AcDbLine
 10
273.0147309634492
 20
398.1464629549657
 30
0.0
 11
281.3509315117611
 21
398.1464629549657
 31
0.0
  0
LINE
  5
D76
330
17
100
AcDbEntity
  8
STEMPEL
100
AcDbLine
 10
293.6547004844513
 20
409.6464629549639
 30
0.0
 11
293.6547004844513
 21
403.1464629549673
 31
0.0
  0
LWPOLYLINE
  5
D77
330
17
100
AcDbEntity
  8
STEMPEL
100
AcDbPolyline
 90
       10
 70
   128
 43
0.0
 10
-289.9920973489271
 20
397.1464629549657
 10
-290.628101708928
 20
397.2376164368925
 10
-291.2447813982842
 20
397.5083072302502
 10
-291.8233989166893
 20
397.9503105322592
 10
-292.3463732636411
 20
398.5501962962519
 10
-292.7978141282456
 20
399.2897372968466
 10
-293.1640047082716
 20
400.1464629549659
 10
-293.4338184882465
 20
401.0943420950119
 10
-293.5990573129982
 20
402.1045738889645
 10
-293.6547004844513
 20
403.1464629549661
210
0.0
220
0.0
230
-1.0
  0
LINE
  5
D78
330
17
100
AcDbEntity
  8
STEMPEL
100
AcDbLine
 10
284.0977292270996
 20
409.6464629549639
 30
0.0
 11
284.0977292270995
 21
403.1464629549673
 31
0.0
  0
LINE
  5
D79
330
17
100
AcDbEntity
  8
STEMPEL
100
AcDbLine
 10
283.3025083402788
 20
409.6464629549639
 30
0.0
 11
283.3025083402788
 21
403.1464629549673
 31
0.0
  0
LWPOLYLINE
  5
D7A
330
17
100
AcDbEntity
  8
STEMPEL
100
AcDbPolyline
 90
       10
 70
   128
 43
0.0
 10
-279.7340230524936
 20
397.1464629549657
 10
-280.4917726775879
 20
397.2376164368925
 10
-281.2264984637634
 20
397.5083072302502
 10
-281.9158761397965
 20
397.9503105322592
 10
-282.5389593138429
 20
398.5501962962519
 10
-283.0768159189544
 20
399.2897372968466
 10
-283.5131034543533
 20
400.1464629549659
 10
-283.8345655440486
 20
401.094342095012
 10
-284.0314347251126
 20
402.1045738889645
 10
-284.0977292270994
 20
403.1464629549661
210
0.0
220
0.0
230
-1.0
  0
LWPOLYLINE
  5
D7B
330
17
100
AcDbEntity
  8
STEMPEL
100
AcDbPolyline
 90
        7
 70
   128
 43
0.0
 10
-281.3509315117605
 20
398.1464629549657
 10
-281.9128604850245
 20
398.7558008568066
 10
-282.3947984246117
 20
399.4832311300959
 10
-282.7837830043616
 20
400.3091886240395
 10
-283.069351995468
 20
401.2114581745017
 10
-283.2438246612639
 20
402.165772108745
 10
-283.3025083402789
 20
403.1464629549661
210
0.0
220
0.0
230
-1.0
  0
LWPOLYLINE
  5
D7C
330
17
100
AcDbEntity
  8
STEMPEL
100
AcDbPolyline
 90
       10
 70
   128
 43
0.0
 10
-270.6026016173618
 20
397.1464629549657
 10
-271.360351242456
 20
397.2376164368925
 10
-272.0950770286315
 20
397.5083072302504
 10
-272.7844547046647
 20
397.9503105322592
 10
-273.4075378787111
 20
398.550196296252
 10
-273.9453944838225
 20
399.2897372968467
 10
-274.3816820192214
 20
400.1464629549659
 10
-274.7031441089167
 20
401.094342095012
 10
-274.9000132899807
 20
402.1045738889645
 10
-274.9663077919676
 20
403.1464629549661
210
0.0
220
0.0
230
-1.0
  0
LINE
  5
D7D
330
17
100
AcDbEntity
  8
STEMPEL
100
AcDbLine
 10
274.9663077919677
 20
409.6464629549639
 30
0.0
 11
274.9663077919677
 21
403.1464629549673
 31
0.0
  0
LINE
  5
D7E
330
17
100
AcDbEntity
  8
STEMPEL
100
AcDbLine
 10
268.208508608286
 20
409.6464629549639
 30
0.0
 11
268.2085086082859
 21
403.1464629549673
 31
0.0
  0
LINE
  5
D7F
330
17
100
AcDbEntity
  8
STEMPEL
100
AcDbLine
 10
267.2824542717787
 20
409.6464629549639
 30
0.0
 11
267.2824542717787
 21
403.1464629549673
 31
0.0
  0
LWPOLYLINE
  5
D80
330
17
100
AcDbEntity
  8
STEMPEL
100
AcDbPolyline
 90
       10
 70
   128
 43
0.0
 10
-263.393144081712
 20
397.1464629549658
 10
-264.2293233565535
 20
397.2376164368926
 10
-265.0400957472561
 20
397.5083072302505
 10
-265.800826344999
 20
397.9503105322592
 10
-266.4884007355178
 20
398.550196296252
 10
-267.0819273188862
 20
399.2897372968467
 10
-267.5633720902074
 20
400.1464629549659
 10
-267.9181065937278
 20
401.094342095012
 10
-268.1353524010619
 20
402.1045738889645
 10
-268.2085086082859
 20
403.1464629549661
210
0.0
220
0.0
230
-1.0
  0
LWPOLYLINE
  5
D81
330
17
100
AcDbEntity
  8
STEMPEL
100
AcDbPolyline
 90
        7
 70
   128
 43
0.0
 10
-265.12888263911
 20
398.1464629549659
 10
-265.7489731621743
 20
398.7558008568067
 10
-266.2807933089577
 20
399.4832311300959
 10
-266.710039108689
 20
400.3091886240395
 10
-267.0251654564863
 20
401.2114581745017
 10
-267.2176966334522
 20
402.165772108745
 10
-267.2824542717785
 20
403.1464629549661
210
0.0
220
0.0
230
-1.0
  0
LINE
  5
D82
330
17
100
AcDbEntity
  8
STEMPEL
100
AcDbLine
 10
274.5114732086871
 20
429.6464629549659
 30
0.0
 11
274.5114732086872
 21
454.6464629549675
 31
0.0
  0
LINE
  5
D83
330
17
100
AcDbEntity
  8
STEMPEL
100
AcDbLine
 10
275.3795372283762
 20
454.6464629549659
 30
0.0
 11
275.3795372283761
 21
429.6464629549675
 31
0.0
  0
LINE
  5
D84
330
17
100
AcDbEntity
  8
STEMPEL
100
AcDbLine
 10
267.8795372283763
 20
454.6464629549659
 30
0.0
 11
267.8795372283762
 21
429.6464629549691
 31
0.0
  0
ELLIPSE
  5
D85
330
17
100
AcDbEntity
  8
STEMPEL
100
AcDbEllipse
 10
271.6295372283761
 20
429.6464629549675
 30
0.0
 11
-0.0000000000000334
 21
-7.499999999999999
 31
0.0
210
0.0
220
0.0
230
-1.0
 40
0.4999999999999926
 41
4.712388980384689
 42
7.853981633974482
  0
ELLIPSE
  5
D86
330
17
100
AcDbEntity
  8
STEMPEL
100
AcDbEllipse
 10
270.7614732086873
 20
429.6464629549675
 30
0.0
 11
-0.0000000000000334
 21
-7.499999999999999
 31
0.0
210
0.0
220
0.0
230
-1.0
 40
0.4999999999999926
 41
4.712388980384689
 42
6.167183451052224
  0
ELLIPSE
  5
D87
330
17
100
AcDbEntity
  8
STEMPEL
100
AcDbEllipse
 10
271.6295372283762
 20
454.6464629549659
 30
0.0
 11
0.0000000000000334
 21
7.499999999999999
 31
0.0
210
0.0
220
0.0
230
1.0
 40
0.4999999999999926
 41
4.712388980384689
 42
7.853981633974482
  0
ELLIPSE
  5
D88
330
17
100
AcDbEntity
  8
STEMPEL
100
AcDbEllipse
 10
270.7614732086875
 20
454.6464629549659
 30
0.0
 11
0.0000000000000334
 21
7.499999999999999
 31
0.0
210
0.0
220
0.0
230
1.0
 40
0.4999999999999926
 41
4.712388980384689
 42
6.167183451052224
  0
LINE
  5
D89
330
17
100
AcDbEntity
  8
STEMPEL
100
AcDbLine
 10
340.3630681399828
 20
487.1464629549652
 30
0.0
 11
285.8025827350394
 21
487.1464629549657
 31
0.0
  0
LINE
  5
D8A
330
17
100
AcDbEntity
  8
STEMPEL
100
AcDbLine
 10
388.4661443513367
 20
488.6464629549648
 30
0.0
 11
342.9611443513368
 21
488.646462954965
 31
0.0
  0
LINE
  5
D8B
330
17
100
AcDbEntity
  8
STEMPEL
100
AcDbLine
 10
369.1611443513369
 20
487.646462954965
 30
0.0
 11
359.0728768901433
 21
487.646462954965
 31
0.0
  0
LINE
  5
D8C
330
17
100
AcDbEntity
  8
STEMPEL
100
AcDbLine
 10
378.2130681399838
 20
487.1464629549649
 30
0.0
 11
371.7592205626896
 21
487.1464629549649
 31
0.0
  0
LINE
  5
D8D
330
17
100
AcDbEntity
  8
STEMPEL
100
AcDbLine
 10
378.2130681399838
 20
487.1464629549649
 30
0.0
 11
371.7592205626896
 21
487.1464629549649
 31
0.0
  0
ARC
  5
D8E
330
17
100
AcDbEntity
  8
STEMPEL
100
AcDbCircle
 10
378.2130681399838
 20
488.6464629549648
 30
0.0
 40
2.5
100
AcDbArc
 50
270.0
 51
329.9999999999995
  0
ARC
  5
D8F
330
17
100
AcDbEntity
  8
STEMPEL
100
AcDbCircle
 10
383.6092205626905
 20
488.6464629549648
 30
0.0
 40
2.5
100
AcDbArc
 50
209.9999999999933
 51
270.0
  0
ARC
  5
D90
330
17
100
AcDbEntity
  8
STEMPEL
100
AcDbCircle
 10
385.6680681399828
 20
488.6464629549648
 30
0.0
 40
2.5
100
AcDbArc
 50
270.0
 51
330.0000000000068
  0
ARC
  5
D91
330
17
100
AcDbEntity
  8
STEMPEL
100
AcDbCircle
 10
391.0642205626902
 20
488.6464629549648
 30
0.0
 40
2.5
100
AcDbArc
 50
210.0000000000005
 51
270.0
  0
ARC
  5
D92
330
17
100
AcDbEntity
  8
STEMPEL
100
AcDbCircle
 10
385.6680681399828
 20
488.6464629549648
 30
0.0
 40
1.5
100
AcDbArc
 50
270.0
 51
330.0000000000068
  0
ARC
  5
D93
330
17
100
AcDbEntity
  8
STEMPEL
100
AcDbCircle
 10
391.0642205626902
 20
488.6464629549648
 30
0.0
 40
1.5
100
AcDbArc
 50
209.9999999999933
 51
270.0
  0
ARC
  5
D94
330
17
100
AcDbEntity
  8
STEMPEL
100
AcDbCircle
 10
388.4661443513367
 20
487.1464629549649
 30
0.0
 40
1.5
100
AcDbArc
 50
30.00000000000055
 51
90.0
  0
ARC
  5
D95
330
17
100
AcDbEntity
  8
STEMPEL
100
AcDbCircle
 10
388.2661443513367
 20
487.1464629549649
 30
0.0
 40
1.5
100
AcDbArc
 50
90.0
 51
150.0000000000067
  0
ARC
  5
D96
330
17
100
AcDbEntity
  8
STEMPEL
100
AcDbCircle
 10
388.2661443513367
 20
487.1464629549649
 30
0.0
 40
0.5
100
AcDbArc
 50
90.0
 51
149.9999999999994
  0
LINE
  5
D97
330
17
100
AcDbEntity
  8
STEMPEL
100
AcDbLine
 10
388.4661443513367
 20
487.6464629549649
 30
0.0
 11
388.2661443513367
 21
487.6464629549649
 31
0.0
  0
ARC
  5
D98
330
17
100
AcDbEntity
  8
STEMPEL
100
AcDbCircle
 10
388.4661443513367
 20
487.1464629549649
 30
0.0
 40
0.5
100
AcDbArc
 50
30.00000000000055
 51
90.0
  0
ARC
  5
D99
330
17
100
AcDbEntity
  8
STEMPEL
100
AcDbCircle
 10
381.0111443513368
 20
487.146462954965
 30
0.0
 40
1.5
100
AcDbArc
 50
29.99999999999328
 51
90.0
  0
LINE
  5
D9A
330
17
100
AcDbEntity
  8
STEMPEL
100
AcDbLine
 10
385.6680681399828
 20
487.1464629549648
 30
0.0
 11
383.6092205626905
 21
487.1464629549648
 31
0.0
  0
LINE
  5
D9B
330
17
100
AcDbEntity
  8
STEMPEL
100
AcDbLine
 10
385.6680681399828
 20
487.1464629549648
 30
0.0
 11
383.6092205626905
 21
487.1464629549648
 31
0.0
  0
ARC
  5
D9C
330
17
100
AcDbEntity
  8
STEMPEL
100
AcDbCircle
 10
383.6092205626905
 20
488.6464629549648
 30
0.0
 40
1.5
100
AcDbArc
 50
209.9999999999933
 51
270.0
  0
ARC
  5
D9D
330
17
100
AcDbEntity
  8
STEMPEL
100
AcDbCircle
 10
380.8111443513368
 20
487.146462954965
 30
0.0
 40
1.5
100
AcDbArc
 50
90.0
 51
149.9999999999994
  0
ARC
  5
D9E
330
17
100
AcDbEntity
  8
STEMPEL
100
AcDbCircle
 10
380.8111443513368
 20
487.146462954965
 30
0.0
 40
0.5
100
AcDbArc
 50
90.0
 51
149.9999999999994
  0
LINE
  5
D9F
330
17
100
AcDbEntity
  8
STEMPEL
100
AcDbLine
 10
381.0111443513368
 20
487.646462954965
 30
0.0
 11
380.8111443513368
 21
487.646462954965
 31
0.0
  0
ARC
  5
DA0
330
17
100
AcDbEntity
  8
STEMPEL
100
AcDbCircle
 10
381.0111443513368
 20
487.146462954965
 30
0.0
 40
0.5
100
AcDbArc
 50
29.99999999999328
 51
90.0
  0
ARC
  5
DA1
330
17
100
AcDbEntity
  8
STEMPEL
100
AcDbCircle
 10
378.2130681399838
 20
488.6464629549648
 30
0.0
 40
1.5
100
AcDbArc
 50
270.0
 51
329.9999999999995
  0
ARC
  5
DA2
330
17
100
AcDbEntity
  8
STEMPEL
100
AcDbCircle
 10
371.7592205626896
 20
488.6464629549648
 30
0.0
 40
2.5
100
AcDbArc
 50
210.0000000000078
 51
270.0
  0
ARC
  5
DA3
330
17
100
AcDbEntity
  8
STEMPEL
100
AcDbCircle
 10
369.1611443513369
 20
487.146462954965
 30
0.0
 40
1.5
100
AcDbArc
 50
30.00000000000055
 51
90.0
  0
ARC
  5
DA4
330
17
100
AcDbEntity
  8
STEMPEL
100
AcDbCircle
 10
371.7592205626896
 20
488.6464629549648
 30
0.0
 40
1.5
100
AcDbArc
 50
210.0000000000078
 51
270.0
  0
ARC
  5
DA5
330
17
100
AcDbEntity
  8
STEMPEL
100
AcDbCircle
 10
369.1611443513369
 20
487.146462954965
 30
0.0
 40
0.5
100
AcDbArc
 50
30.00000000000055
 51
90.0
  0
ARC
  5
DA6
330
17
100
AcDbEntity
  8
STEMPEL
100
AcDbCircle
 10
345.7592205626892
 20
488.646462954965
 30
0.0
 40
2.5
100
AcDbArc
 50
210.0000000000078
 51
270.0
  0
ARC
  5
DA7
330
17
100
AcDbEntity
  8
STEMPEL
100
AcDbCircle
 10
345.7592205626892
 20
488.646462954965
 30
0.0
 40
1.5
100
AcDbArc
 50
210.0000000000078
 51
270.0
  0
ARC
  5
DA8
330
17
100
AcDbEntity
  8
STEMPEL
100
AcDbCircle
 10
352.2130681399833
 20
488.646462954965
 30
0.0
 40
2.5
100
AcDbArc
 50
270.0
 51
329.9999999999995
  0
ARC
  5
DA9
330
17
100
AcDbEntity
  8
STEMPEL
100
AcDbCircle
 10
356.9476360244408
 20
487.646462954965
 30
0.0
 40
1.5
100
AcDbArc
 50
194.4775121859303
 51
270.0
  0
ARC
  5
DAA
330
17
100
AcDbEntity
  8
STEMPEL
100
AcDbCircle
 10
357.13638521704
 20
487.646462954965
 30
0.0
 40
1.5
100
AcDbArc
 50
270.0
 51
345.5224878140697
  0
ARC
  5
DAB
330
17
100
AcDbEntity
  8
STEMPEL
100
AcDbCircle
 10
352.2130681399833
 20
488.646462954965
 30
0.0
 40
1.5
100
AcDbArc
 50
270.0
 51
329.9999999999995
  0
ARC
  5
DAC
330
17
100
AcDbEntity
  8
STEMPEL
100
AcDbCircle
 10
357.13638521704
 20
487.646462954965
 30
0.0
 40
0.5
100
AcDbArc
 50
270.0
 51
345.5224878140697
  0
ARC
  5
DAD
330
17
100
AcDbEntity
  8
STEMPEL
100
AcDbCircle
 10
359.0728768901433
 20
487.146462954965
 30
0.0
 40
1.5
100
AcDbArc
 50
90.0
 51
165.5224878140697
  0
ARC
  5
DAE
330
17
100
AcDbEntity
  8
STEMPEL
100
AcDbCircle
 10
359.0728768901433
 20
487.146462954965
 30
0.0
 40
0.5
100
AcDbArc
 50
90.0
 51
165.5224878140697
  0
ARC
  5
DAF
330
17
100
AcDbEntity
  8
STEMPEL
100
AcDbCircle
 10
354.8111443513367
 20
487.146462954965
 30
0.0
 40
0.5
100
AcDbArc
 50
90.0
 51
149.9999999999994
  0
LINE
  5
DB0
330
17
100
AcDbEntity
  8
STEMPEL
100
AcDbLine
 10
355.0111443513368
 20
487.6464629549651
 30
0.0
 11
354.8111443513367
 21
487.6464629549651
 31
0.0
  0
ARC
  5
DB1
330
17
100
AcDbEntity
  8
STEMPEL
100
AcDbCircle
 10
355.0111443513368
 20
487.146462954965
 30
0.0
 40
0.5
100
AcDbArc
 50
14.47751218593027
 51
90.0
  0
LINE
  5
DB2
330
17
100
AcDbEntity
  8
STEMPEL
100
AcDbLine
 10
357.13638521704
 20
487.146462954965
 30
0.0
 11
356.9476360244408
 21
487.146462954965
 31
0.0
  0
ARC
  5
DB3
330
17
100
AcDbEntity
  8
STEMPEL
100
AcDbCircle
 10
356.9476360244408
 20
487.646462954965
 30
0.0
 40
0.5
100
AcDbArc
 50
194.4775121859303
 51
270.0
  0
ARC
  5
DB4
330
17
100
AcDbEntity
  8
STEMPEL
100
AcDbCircle
 10
355.0111443513368
 20
487.146462954965
 30
0.0
 40
1.5
100
AcDbArc
 50
14.47751218593027
 51
90.0
  0
ARC
  5
DB5
330
17
100
AcDbEntity
  8
STEMPEL
100
AcDbCircle
 10
354.8111443513367
 20
487.146462954965
 30
0.0
 40
1.5
100
AcDbArc
 50
90.0
 51
149.9999999999994
  0
LINE
  5
DB6
330
17
100
AcDbEntity
  8
STEMPEL
100
AcDbLine
 10
352.2130681399833
 20
487.146462954965
 30
0.0
 11
345.7592205626892
 21
487.146462954965
 31
0.0
  0
LINE
  5
DB7
330
17
100
AcDbEntity
  8
STEMPEL
100
AcDbLine
 10
352.2130681399833
 20
487.1464629549651
 30
0.0
 11
345.7592205626892
 21
487.1464629549651
 31
0.0
  0
ARC
  5
DB8
330
17
100
AcDbEntity
  8
STEMPEL
100
AcDbCircle
 10
340.3630681399828
 20
488.646462954965
 30
0.0
 40
2.5
100
AcDbArc
 50
270.0
 51
330.0000000000068
  0
ARC
  5
DB9
330
17
100
AcDbEntity
  8
STEMPEL
100
AcDbCircle
 10
340.3630681399828
 20
488.646462954965
 30
0.0
 40
1.5
100
AcDbArc
 50
270.0
 51
330.0000000000068
  0
ARC
  5
DBA
330
17
100
AcDbEntity
  8
STEMPEL
100
AcDbCircle
 10
342.9611443513368
 20
487.146462954965
 30
0.0
 40
1.5
100
AcDbArc
 50
90.0
 51
150.0000000000067
  0
ARC
  5
DBB
330
17
100
AcDbEntity
  8
STEMPEL
100
AcDbCircle
 10
342.9611443513368
 20
487.146462954965
 30
0.0
 40
0.5
100
AcDbArc
 50
90.0
 51
150.0000000000067
  0
LINE
  5
DBC
330
17
100
AcDbEntity
  8
STEMPEL
100
AcDbLine
 10
343.1611443513369
 20
487.646462954965
 30
0.0
 11
342.9611443513368
 21
487.646462954965
 31
0.0
  0
ARC
  5
DBD
330
17
100
AcDbEntity
  8
STEMPEL
100
AcDbCircle
 10
343.1611443513369
 20
487.146462954965
 30
0.0
 40
0.5
100
AcDbArc
 50
30.00000000000782
 51
90.0
  0
ARC
  5
DBE
330
17
100
AcDbEntity
  8
STEMPEL
100
AcDbCircle
 10
343.1611443513369
 20
487.146462954965
 30
0.0
 40
1.5
100
AcDbArc
 50
30.00000000000782
 51
90.0
  0
ARC
  5
DBF
330
17
100
AcDbEntity
  8
STEMPEL
100
AcDbCircle
 10
285.8025827350414
 20
481.1464629549607
 30
0.0
 40
5.000000000004884
100
AcDbArc
 50
90.00000000002279
 51
120.5373500482991
  0
ARC
  5
DC0
330
17
100
AcDbEntity
  8
STEMPEL
100
AcDbCircle
 10
285.8025827350394
 20
481.1464629549659
 30
0.0
 40
5.999999999999263
100
AcDbArc
 50
90.0
 51
120.5128743276239
  0
ARC
  5
DC1
330
17
100
AcDbEntity
  8
STEMPEL
100
AcDbCircle
 10
285.8025827350393
 20
481.1464629549653
 30
0.0
 40
6.0
100
AcDbArc
 50
90.0
 51
90.0
  0
LINE
  5
DC2
330
17
100
AcDbEntity
  8
STEMPEL
100
AcDbLine
 10
255.8025827350393
 20
467.1464049876503
 30
0.0
 11
255.802582735039
 21
403.1464629549662
 31
0.0
  0
LINE
  5
DC3
330
17
100
AcDbEntity
  8
STEMPEL
100
AcDbLine
 10
256.8025827350394
 20
467.1464049876503
 30
0.0
 11
256.8025827350391
 21
403.1464629549662
 31
0.0
  0
LWPOLYLINE
  5
DC4
330
17
100
AcDbEntity
  8
STEMPEL
100
AcDbPolyline
 90
       18
 70
   128
 43
0.0
 10
257.0122699760744
 20
409.646462954964
 10
257.0289383995512
 20
411.0245843385885
 10
257.0783760468116
 20
412.3557754513682
 10
257.158899378072
 20
413.594704176545
 10
257.2677662678637
 20
414.6991802823142
 10
257.401269384826
 20
415.6315921595671
 10
257.5548624404301
 20
416.3601876401283
 10
257.7233150073821
 20
416.8601552787617
 10
257.9008906355511
 20
417.1144692771783
 10
258.0815421998981
 20
417.1144692771783
 10
258.2591178280671
 20
416.8601552787617
 10
258.4275703950191
 20
416.3601876401283
 10
258.5811634506232
 20
415.6315921595671
 10
258.7146665675855
 20
414.6991802823142
 10
258.8235334573772
 20
413.594704176545
 10
258.9040567886377
 20
412.3557754513682
 10
258.953494435898
 20
411.0245843385885
 10
258.9701628593748
 20
409.646462954964
  0
LINE
  5
DC5
330
17
100
AcDbEntity
  8
STEMPEL
100
AcDbLine
 10
235.8025827350394
 20
398.146462954966
 30
0.0
 11
250.8025827350393
 21
398.1464629549663
 31
0.0
  0
LWPOLYLINE
  5
DC6
330
17
100
AcDbEntity
  8
STEMPEL
100
AcDbPolyline
 90
       10
 70
   128
 43
0.0
 10
-253.464174128344
 20
397.1464629549659
 10
-254.3222471246167
 20
397.2125901695386
 10
-255.175059324239
 20
397.4651439192687
 10
-255.995817631156
 20
397.8961896355863
 10
-256.7587359975551
 20
398.4921850060262
 10
-257.4398455530542
 20
399.2344054377468
 10
-258.0177476429999
 20
400.0995323345442
 10
-258.4742861174061
 20
401.0603857052603
 10
-258.7951177490037
 20
402.0867780869726
 10
-258.9701628593748
 20
403.1464629549651
210
0.0
220
0.0
230
-1.0
  0
ARC
  5
DC7
330
17
100
AcDbEntity
  8
STEMPEL
100
AcDbCircle
 10
250.8025827350391
 20
403.1464629549664
 30
0.0
 40
6.0
100
AcDbArc
 50
270.0
 51
0.0
  0
LWPOLYLINE
  5
DC8
330
17
100
AcDbEntity
  8
STEMPEL
100
AcDbPolyline
 90
       10
 70
   128
 43
0.0
 10
-251.5062812450435
 20
397.1464629549671
 10
-252.3643542413163
 20
397.2125901695397
 10
-253.2171664409385
 20
397.4651439192698
 10
-254.0379247478555
 20
397.8961896355875
 10
-254.8008431142546
 20
398.4921850060273
 10
-255.4819526697537
 20
399.2344054377479
 10
-256.0598547596994
 20
400.0995323345454
 10
-256.5163932341056
 20
401.0603857052615
 10
-256.8372248657032
 20
402.0867780869736
 10
-257.0122699760743
 20
403.1464629549662
210
0.0
220
0.0
230
-1.0
  0
ARC
  5
DC9
330
17
100
AcDbEntity
  8
STEMPEL
100
AcDbCircle
 10
250.8025827350391
 20
403.1464629549664
 30
0.0
 40
5.0
100
AcDbArc
 50
270.0
 51
0.0
  0
LINE
  5
DCA
330
17
100
AcDbEntity
  8
STEMPEL
100
AcDbLine
 10
254.3918107924037
 20
398.1464629549659
 30
0.0
 11
255.3559249621663
 21
398.1464629549659
 31
0.0
  0
LINE
  5
DCB
330
17
100
AcDbEntity
  8
STEMPEL
100
AcDbLine
 10
257.976384145837
 20
409.646462954964
 30
0.0
 11
257.9763841458369
 21
403.1464629549662
 31
0.0
  0
LINE
  5
DCC
330
17
100
AcDbEntity
  8
STEMPEL
100
AcDbLine
 10
258.9701628593748
 20
409.646462954964
 30
0.0
 11
258.9701628593748
 21
403.1464629549651
 31
0.0
  0
LINE
  5
DCD
330
17
100
AcDbEntity
  8
STEMPEL
100
AcDbLine
 10
262.4682571228082
 20
409.646462954964
 30
0.0
 11
262.4682571228082
 21
403.1464629549674
 31
0.0
  0
LINE
  5
DCE
330
17
100
AcDbEntity
  8
STEMPEL
100
AcDbLine
 10
257.0122699760744
 20
409.646462954964
 30
0.0
 11
257.0122699760743
 21
403.1464629549662
 31
0.0
  0
LWPOLYLINE
  5
DCF
330
17
100
AcDbEntity
  8
STEMPEL
100
AcDbPolyline
 90
       10
 70
   128
 43
0.0
 10
-257.6528925962342
 20
397.1464629549658
 10
-258.4890718710758
 20
397.2376164368926
 10
-259.2998442617784
 20
397.5083072302505
 10
-260.0605748595212
 20
397.9503105322592
 10
-260.74814925004
 20
398.5501962962521
 10
-261.3416758334084
 20
399.2897372968469
 10
-261.8231206047296
 20
400.146462954966
 10
-262.17785510825
 20
401.094342095012
 10
-262.3951009155842
 20
402.1045738889646
 10
-262.4682571228082
 20
403.1464629549662
210
0.0
220
0.0
230
-1.0
  0
LWPOLYLINE
  5
DD0
330
17
100
AcDbEntity
  8
STEMPEL
100
AcDbPolyline
 90
        7
 70
   128
 43
0.0
 10
-255.3559249621661
 20
398.1464629549663
 10
-256.0326268372435
 20
398.7560636828253
 10
-256.6321762608775
 20
399.483622766737
 10
-257.1384649340271
 20
400.3095926284172
 10
-257.5378902260727
 20
401.2117816536203
 10
-257.8197206413356
 20
402.1659504218139
 10
-257.9763841458371
 20
403.1464629549662
210
0.0
220
0.0
230
-1.0
  0
LWPOLYLINE
  5
DD1
330
17
100
AcDbEntity
  8
STEMPEL
100
AcDbPolyline
 90
        7
 70
   128
 43
0.0
 10
257.4943270609555
 20
416.1085170108037
 10
257.6321560705258
 20
415.3564107738652
 10
257.751020347492
 20
414.4336971631505
 10
257.8473683493932
 20
413.3679459132463
 10
257.9183212969313
 20
412.1910005764251
 10
257.9617591889393
 20
410.9380270700232
 10
257.9763841458369
 20
409.646462954964
  0
LINE
  5
DD2
330
17
100
AcDbEntity
  8
STEMPEL
100
AcDbLine
 10
247.8025827350392
 20
398.1464629549664
 30
0.0
 11
247.8025827350392
 21
397.1464629549659
 31
0.0
  0
LINE
  5
DD3
330
17
100
AcDbEntity
  8
STEMPEL
100
AcDbLine
 10
239.8025827350392
 20
398.146462954966
 30
0.0
 11
239.8025827350392
 21
397.1464629549659
 31
0.0
  0
LINE
  5
DD4
330
17
100
AcDbEntity
  8
STEMPEL
100
AcDbLine
 10
235.8025827350393
 20
398.1464629549662
 30
0.0
 11
235.8025827350392
 21
397.1464629549659
 31
0.0
  0
LINE
  5
DD5
330
17
100
AcDbEntity
  8
STEMPEL
100
AcDbLine
 10
255.8025827350395
 20
422.1464629549656
 30
0.0
 11
256.8025827350394
 21
422.1464629549656
 31
0.0
  0
LINE
  5
DD6
330
17
100
AcDbEntity
  8
STEMPEL
100
AcDbLine
 10
255.8025827350396
 20
462.1464629549657
 30
0.0
 11
256.8025827350396
 21
462.1464629549657
 31
0.0
  0
ARC
  5
DD7
330
17
100
AcDbEntity
  8
STEMPEL
100
AcDbCircle
 10
261.8025827350399
 20
467.1464049876499
 30
0.0
 40
5.000000000000511
100
AcDbArc
 50
120.2564164748189
 51
179.9999999999935
  0
ARC
  5
DD8
330
17
100
AcDbEntity
  8
STEMPEL
100
AcDbCircle
 10
261.8025827350397
 20
467.1464049876499
 30
0.0
 40
6.000000000000454
100
AcDbArc
 50
120.2564164748189
 51
179.9999999999935
  0
ARC
  5
DD9
330
17
100
AcDbEntity
  8
STEMPEL
100
AcDbCircle
 10
256.2914391307278
 20
476.6662999374276
 30
0.0
 40
5.0
100
AcDbArc
 50
300.0670458384872
 51
300.2564371635316
  0
HATCH
  5
DDC
330
17
100
AcDbEntity
  8
SCHRAFF
100
AcDbHatch
 10
0.0
 20
0.0
 30
0.0
210
0.0
220
0.0
230
1.0
  2
_USER
 70
     0
 71
     0
 91
        4
 92
        7
 72
     0
 73
     1
 93
        9
 10
246.8025827350392
 20
386.7599629549658
 10
246.8025827350392
 20
384.1464629549648
 10
245.8025827350392
 20
384.1464629549648
 10
245.8025827350392
 20
383.1464629549651
 10
243.8025827350392
 20
382.6105645701027
 10
243.8025827350392
 20
382.146462954965
 10
248.8025827350393
 20
382.146462954965
 10
248.8025827350393
 20
397.1464629549655
 10
246.8025827350392
 20
397.1464629549654
 97
        0
 92
       23
 72
     0
 73
     1
 93
        5
 10
245.8025827350393
 20
384.1464629549648
 10
246.8025827350392
 20
384.1464629549648
 10
246.8025827350392
 20
386.7599629549658
 10
246.1890827350393
 20
386.1464629549658
 10
245.8025827350393
 20
386.1464629549658
 97
        0
 92
       22
 72
     0
 73
     1
 93
        5
 10
240.8025827350392
 20
384.146462954965
 10
241.8025827350392
 20
384.146462954965
 10
241.8025827350393
 20
386.1464629549658
 10
241.4160827350391
 20
386.1464629549658
 10
240.8025827350392
 20
386.7599629549657
 97
        0
 92
        7
 72
     0
 73
     1
 93
        9
 10
240.8025827350392
 20
386.7599629549658
 10
240.8025827350392
 20
397.1464629549656
 10
238.8025827350393
 20
397.1464629549656
 10
238.8025827350392
 20
382.1464629549652
 10
243.8025827350392
 20
382.1464629549653
 10
243.8025827350393
 20
382.6105645701027
 10
241.8025827350392
 20
383.1464629549651
 10
241.8025827350392
 20
384.1464629549649
 10
240.8025827350392
 20
384.146462954965
 97
        0
 75
     0
 76
     0
 52
45.0
 41
1.0
 77
     0
 78
     1
 53
45.0
 43
93.55021040409491
 44
-209.009741963361
 45
-0.7071067811865475
 46
0.7071067811865476
 79
     0
 47
0.0321819604051909
 98
        4
 10
247.7668939797224
 20
391.8518436705363
 10
246.1572098228669
 20
384.5787203290861
 10
241.2959659810283
 20
385.5763609423452
 10
240.5877047369547
 20
385.4154512291107
  0
ARC
  5
DDD
330
17
100
AcDbEntity
  8
HILF
100
AcDbCircle
 10
243.8025827350392
 20
384.9051709277395
 30
0.0
 40
14.94074366520046
100
AcDbArc
 50
78.85962783889434
 51
101.1403721611056
  0
ARC
  5
DDE
330
17
100
AcDbEntity
  8
HILF
100
AcDbCircle
 10
239.472455716117
 20
396.0051541931493
 30
0.0
 40
3.840760399790701
100
AcDbArc
 50
67.92594526324179
 51
112.0740547367582
  0
ARC
  5
DDF
330
17
100
AcDbEntity
  8
HILF
100
AcDbCircle
 10
248.1327097539614
 20
396.0039896312611
 30
0.0
 40
3.841839622940954
100
AcDbArc
 50
67.9324721810082
 51
112.0675278189918
  0
ARC
  5
DE0
330
17
100
AcDbEntity
  8
STEMPEL
100
AcDbCircle
 10
243.8025827350392
 20
384.5392035333289
 30
0.0
 40
20.20725942163691
100
AcDbArc
 50
81.78678929826059
 51
98.2132107017394
  0
ARC
  5
DE1
330
17
100
AcDbEntity
  8
STEMPEL
100
AcDbCircle
 10
239.472455716117
 20
399.6169258164426
 30
0.0
 40
5.129537138523076
100
AcDbArc
 50
73.65710669401345
 51
106.3428933059865
  0
LINE
  5
DE2
330
17
100
AcDbEntity
  8
STEMPEL
100
AcDbLine
 10
238.8025827350392
 20
404.7464629549657
 30
0.0
 11
238.029080043143
 21
404.5392035333288
 31
0.0
  0
LINE
  5
DE3
330
17
100
AcDbEntity
  8
STEMPEL
100
AcDbLine
 10
248.8025827350393
 20
404.7464629549657
 30
0.0
 11
249.5760854269355
 21
404.5392035333288
 31
0.0
  0
ARC
  5
DE4
330
17
100
AcDbEntity
  8
STEMPEL
100
AcDbCircle
 10
248.1327097539614
 20
399.6169258164426
 30
0.0
 40
5.129537138523076
100
AcDbArc
 50
73.65710669401345
 51
106.3428933059865
  0
POINT
  5
DE5
330
17
100
AcDbEntity
  8
0
100
AcDbPoint
 10
243.8025827350392
 20
386.1464629549658
 30
0.0
210
-0.0000000000000002
220
-1.0
230
0.0
  0
LINE
  5
DE6
330
17
100
AcDbEntity
  8
HILF
100
AcDbLine
 10
241.4160827350392
 20
395.1464629549657
 30
0.0
 11
240.8025827350392
 21
398.1464629549657
 31
0.0
  0
LINE
  5
DE7
330
17
100
AcDbEntity
  8
HILF
100
AcDbLine
 10
241.4160827350392
 20
395.1464629549657
 30
0.0
 11
241.4160827350392
 21
386.1464629549658
 31
0.0
  0
LINE
  5
DE8
330
17
100
AcDbEntity
  8
HILF
100
AcDbLine
 10
240.8025827350392
 20
395.1464629549657
 30
0.0
 11
246.8025827350392
 21
395.1464629549657
 31
0.0
  0
LINE
  5
DE9
330
17
100
AcDbEntity
  8
HILF
100
AcDbLine
 10
246.1890827350392
 20
395.1464629549657
 30
0.0
 11
246.8025827350392
 21
398.1464629549657
 31
0.0
  0
LINE
  5
DEA
330
17
100
AcDbEntity
  8
HILF
100
AcDbLine
 10
246.1890827350392
 20
395.1464629549657
 30
0.0
 11
246.1890827350392
 21
386.1464629549658
 31
0.0
  0
LINE
  5
DEB
330
17
100
AcDbEntity
  8
STEMPEL
100
AcDbLine
 10
250.5406938138683
 20
399.213293896398
 30
0.0
 11
237.0644716562101
 21
399.213293896398
 31
0.0
  0
LINE
  5
DEC
330
17
100
AcDbEntity
  8
STEMPEL
100
AcDbLine
 10
250.3525827350392
 20
398.1464629549657
 30
0.0
 11
237.2525827350392
 21
398.1464629549657
 31
0.0
  0
LINE
  5
DED
330
17
100
AcDbEntity
  8
STEMPEL
100
AcDbLine
 10
238.029080043143
 20
404.5392035333288
 30
0.0
 11
238.029080043143
 21
399.5643826369651
 31
0.0
  0
LINE
  5
DEE
330
17
100
AcDbEntity
  8
STEMPEL
100
AcDbLine
 10
240.9158313890911
 20
404.5392035333288
 30
0.0
 11
240.9158313890911
 21
399.5643826369651
 31
0.0
  0
LINE
  5
DEF
330
17
100
AcDbEntity
  8
STEMPEL
100
AcDbLine
 10
246.6893340809873
 20
404.5392035333288
 30
0.0
 11
246.6893340809873
 21
399.5643826369651
 31
0.0
  0
LINE
  5
DF0
330
17
100
AcDbEntity
  8
STEMPEL
100
AcDbLine
 10
249.5760854269355
 20
404.5392035333288
 30
0.0
 11
249.5760854269355
 21
399.5643826369651
 31
0.0
  0
LINE
  5
DF1
330
17
100
AcDbEntity
  8
STEMPEL
100
AcDbLine
 10
248.8025827350393
 20
404.7464629549657
 30
0.0
 11
238.8025827350392
 21
404.7464629549657
 31
0.0
  0
LINE
  5
DF2
330
17
100
AcDbEntity
  8
STEMPEL
100
AcDbLine
 10
246.1890827350392
 20
386.1464629549658
 30
0.0
 11
241.4160827350392
 21
386.1464629549658
 31
0.0
  0
LINE
  5
DF3
330
17
100
AcDbEntity
  8
STEMPEL
100
AcDbLine
 10
246.8025827350392
 20
386.7599629549658
 30
0.0
 11
240.8025827350392
 21
386.7599629549658
 31
0.0
  0
LINE
  5
DF4
330
17
100
AcDbEntity
  8
STEMPEL
100
AcDbLine
 10
238.029080043143
 20
399.5643826369651
 30
0.0
 11
237.0644716562101
 21
399.213293896398
 31
0.0
  0
LINE
  5
DF5
330
17
100
AcDbEntity
  8
STEMPEL
100
AcDbLine
 10
250.5406938138683
 20
399.213293896398
 30
0.0
 11
249.5760854269355
 21
399.5643826369651
 31
0.0
  0
ARC
  5
DF6
330
17
100
AcDbEntity
  8
STEMPEL
100
AcDbCircle
 10
250.3525827350392
 20
398.6964629549657
 30
0.0
 40
0.5500000000000009
100
AcDbArc
 50
270.0
 51
69.99999999999935
  0
ARC
  5
DF7
330
17
100
AcDbEntity
  8
STEMPEL
100
AcDbCircle
 10
237.2525827350392
 20
398.6964629549657
 30
0.0
 40
0.5500000000000003
100
AcDbArc
 50
110.0000000000006
 51
270.0
  0
LINE
  5
DF8
330
17
100
AcDbEntity
  8
STEMPEL
100
AcDbLine
 10
240.8025827350392
 20
386.7599629549658
 30
0.0
 11
241.4160827350392
 21
386.1464629549658
 31
0.0
  0
LINE
  5
DF9
330
17
100
AcDbEntity
  8
STEMPEL
100
AcDbLine
 10
246.1890827350392
 20
386.1464629549658
 30
0.0
 11
246.8025827350392
 21
386.7599629549658
 31
0.0
  0
LINE
  5
DFA
330
17
100
AcDbEntity
  8
STEMPEL
100
AcDbLine
 10
240.8025827350392
 20
398.1464629549657
 30
0.0
 11
240.8025827350392
 21
386.7599629549658
 31
0.0
  0
LINE
  5
DFB
330
17
100
AcDbEntity
  8
STEMPEL
100
AcDbLine
 10
246.8025827350392
 20
386.7599629549658
 30
0.0
 11
246.8025827350392
 21
398.1464629549657
 31
0.0
  0
LINE
  5
DFC
330
17
100
AcDbEntity
  8
TEXT
 62
     2
100
AcDbLine
 10
633.0614026102578
 20
461.0822534486809
 30
0.0
 11
736.3348121462163
 21
461.0822534486809
 31
0.0
  0
TEXT
  5
DFD
330
17
100
AcDbEntity
  8
TEXT
 62
     1
100
AcDbText
 10
633.3267797478817
 20
464.4181017295649
 30
0.0
 40
7.0
  1
Siebkorb
 41
0.8
  7
GREEKS
100
AcDbText
  0
TEXT
  5
DFE
330
17
100
AcDbEntity
  8
TEXT
 62
     1
100
AcDbText
 10
633.3267797478817
 20
451.141576179199
 30
0.0
 40
7.0
  1
EDV-Art.Nr. 21004.000X
 41
0.8
  7
GREEKS
100
AcDbText
  0
DIMENSION
  5
DFF
330
17
100
AcDbEntity
  8
BEM
100
AcDbDimension
  2
*D5
 10
174.0108391175823
 20
382.1464629549652
 30
0.0
 11
167.5108391175823
 21
389.6464629549652
 31
0.0
 70
    32
 71
     5
 42
14.99999999999988
  3
STANDARD
100
AcDbAlignedDimension
 13
235.8025827350392
 23
397.1464629549651
 33
0.0
 14
230.8025827350393
 24
382.1464629549652
 34
0.0
 50
90.0
100
AcDbRotatedDimension
1001
ACAD
1000
DSTYLE
1002
{
1070
    40
1040
2.0
1070
    41
1040
3.5
1070
    42
1040
1.0
1070
    43
1040
7.0
1070
    44
1040
1.0
1070
    73
1070
     0
1070
    74
1070
     0
1070
    77
1070
     1
1070
    78
1070
     8
1070
    79
1070
     2
1070
   140
1040
3.5
1070
   141
1040
1.5
1070
   146
1040
0.5142857142857144
1070
   147
1040
1.5
1070
   172
1070
     1
1070
   178
1070
     1
1070
   179
1070
     2
1070
   271
1070
     2
1070
   272
1070
     2
1070
   284
1070
     8
1070
   285
1070
     8
1070
   286
1070
     8
1002
}
  0
DIMENSION
  5
E01
330
17
100
AcDbEntity
  8
BEM
100
AcDbDimension
  2
*D6
 10
475.8025827350397
 20
502.8854313709144
 30
0.0
 11
365.8025827350396
 21
509.3854313709145
 31
0.0
 70
    32
  1
%%c<>
 71
     5
 42
220.0000000000002
  3
STANDARD
100
AcDbAlignedDimension
 13
255.8025827350395
 23
467.1464049876495
 33
0.0
 14
475.8025827350397
 24
467.1464049876495
 34
0.0
100
AcDbRotatedDimension
1001
ACAD
1000
DSTYLE
1002
{
1070
    40
1040
2.0
1070
    41
1040
3.5
1070
    42
1040
1.0
1070
    43
1040
7.0
1070
    44
1040
1.0
1070
    73
1070
     0
1070
    74
1070
     0
1070
    77
1070
     1
1070
    78
1070
     8
1070
    79
1070
     2
1070
   140
1040
3.5
1070
   141
1040
1.5
1070
   146
1040
0.5142857142857144
1070
   147
1040
1.5
1070
   172
1070
     1
1070
   178
1070
     1
1070
   179
1070
     2
1070
   271
1070
     2
1070
   272
1070
     2
1070
   284
1070
     8
1070
   285
1070
     8
1070
   286
1070
     8
1002
}
  0
DIMENSION
  5
E02
330
17
100
AcDbEntity
  8
BEM
100
AcDbDimension
  2
*D7
 10
174.0108391175824
 20
487.1464629549642
 30
0.0
 11
167.5108391175823
 21
442.1464629549647
 31
0.0
 70
    32
 71
     5
 42
89.9999999999992
  3
STANDARD
100
AcDbAlignedDimension
 13
235.8025827350394
 23
397.1464629549651
 33
0.0
 14
285.8025827350394
 24
487.1464629549642
 34
0.0
 50
90.0
100
AcDbRotatedDimension
1001
ACAD
1000
DSTYLE
1002
{
1070
    40
1040
2.0
1070
    41
1040
3.5
1070
    42
1040
1.0
1070
    43
1040
7.0
1070
    44
1040
1.0
1070
    73
1070
     0
1070
    74
1070
     0
1070
    77
1070
     1
1070
    78
1070
     8
1070
    79
1070
     2
1070
   140
1040
3.5
1070
   141
1040
1.5
1070
   146
1040
0.5142857142857144
1070
   147
1040
1.5
1070
   172
1070
     1
1070
   178
1070
     1
1070
   179
1070
     2
1070
   271
1070
     2
1070
   272
1070
     2
1070
   284
1070
     8
1070
   285
1070
     8
1070
   286
1070
     8
1002
}
  0
TEXT
  5
E03
330
17
100
AcDbEntity
  8
TEXT
 62
     1
100
AcDbText
 10
633.3267797478817
 20
408.480155027329
 30
0.0
 40
7.0
  1
EDV-Art.Nr. 17014.125X
 41
0.8
  7
GREEKS
100
AcDbText
  0
TEXT
  5
E04
330
17
100
AcDbEntity
  8
TEXT
 62
     1
100
AcDbText
 10
633.3267797478817
 20
421.7566805776949
 30
0.0
 40
7.0
  1
Losflansch DN125
 41
0.8
  7
GREEKS
100
AcDbText
  0
LINE
  5
E05
330
17
100
AcDbEntity
  8
TEXT
 62
     2
100
AcDbLine
 10
633.0614026102578
 20
418.4208322968109
 30
0.0
 11
736.3348121462163
 21
418.4208322968109
 31
0.0
  0
LINE
  5
E06
330
17
100
AcDbEntity
  8
STEMPEL
100
AcDbLine
 10
248.8025827350393
 20
397.1464629549651
 30
0.0
 11
238.8025827350392
 21
397.1464629549651
 31
0.0
  0
LINE
  5
E07
330
17
100
AcDbEntity
  8
STEMPEL
100
AcDbLine
 10
238.8025827350392
 20
382.146462954965
 30
0.0
 11
238.8025827350392
 21
397.1464629549651
 31
0.0
  0
LINE
  5
E08
330
17
100
AcDbEntity
  8
STEMPEL
100
AcDbLine
 10
248.8025827350393
 20
382.146462954965
 30
0.0
 11
248.8025827350393
 21
397.1464629549651
 31
0.0
  0
LINE
  5
E09
330
17
100
AcDbEntity
  8
HILF
100
AcDbLine
 10
240.8025827350392
 20
384.146462954965
 30
0.0
 11
240.8025827350392
 21
386.7599629549658
 31
0.0
  0
LINE
  5
E0A
330
17
100
AcDbEntity
  8
HILF
100
AcDbLine
 10
246.8025827350392
 20
384.146462954965
 30
0.0
 11
246.8025827350392
 21
386.7599629549658
 31
0.0
  0
LINE
  5
E0B
330
17
100
AcDbEntity
  8
STEMPEL
100
AcDbLine
 10
246.8025827350392
 20
384.1464629549648
 30
0.0
 11
240.8025827350392
 21
384.146462954965
 31
0.0
  0
LINE
  5
E0C
330
17
100
AcDbEntity
  8
STEMPEL
100
AcDbLine
 10
245.8025827350392
 20
383.1464629549646
 30
0.0
 11
245.8025827350393
 21
386.1464629549658
 31
0.0
  0
LINE
  5
E0D
330
17
100
AcDbEntity
  8
STEMPEL
100
AcDbLine
 10
241.8025827350392
 20
383.1464629549648
 30
0.0
 11
241.8025827350393
 21
386.1464629549658
 31
0.0
  0
LINE
  5
E0E
330
17
100
AcDbEntity
  8
STEMPEL
100
AcDbLine
 10
245.8025827350392
 20
383.1464629549651
 30
0.0
 11
241.8025827350392
 21
383.1464629549651
 31
0.0
  0
LINE
  5
E0F
330
17
100
AcDbEntity
  8
STEMPEL
100
AcDbLine
 10
241.8025827350392
 20
383.1464629549651
 30
0.0
 11
243.8025827350392
 21
382.6105645701027
 31
0.0
  0
LINE
  5
E10
330
17
100
AcDbEntity
  8
STEMPEL
100
AcDbLine
 10
245.8025827350392
 20
383.1464629549651
 30
0.0
 11
243.8025827350392
 21
382.6105645701027
 31
0.0
  0
LINE
  5
E11
330
17
100
AcDbEntity
  8
MITTEL
100
AcDbLine
 10
243.8025827350392
 20
375.6464629549653
 30
0.0
 11
243.8025827350393
 21
409.7464629549657
 31
0.0
  0
LINE
  5
E12
330
17
100
AcDbEntity
  8
STEMPEL
100
AcDbLine
 10
431.8025827350392
 20
382.1464629549652
 30
0.0
 11
431.8025827350392
 21
397.1464629549652
 31
0.0
  0
LINE
  5
E13
330
17
100
AcDbEntity
  8
STEMPEL
100
AcDbLine
 10
421.8025827350392
 20
382.1464629549652
 30
0.0
 11
421.8025827350392
 21
397.1464629549652
 31
0.0
  0
LINE
  5
E14
330
17
100
AcDbEntity
  8
STEMPEL
100
AcDbLine
 10
431.8025827350392
 20
397.1464629549652
 30
0.0
 11
421.8025827350392
 21
397.1464629549652
 31
0.0
  0
LINE
  5
F05
330
17
100
AcDbEntity
  8
STEMPEL
100
AcDbLine
 10
308.3077710595788
 20
367.8923739662191
 30
0.0
 11
310.1854011897943
 21
367.8923739662191
 31
0.0
  0
LINE
  5
F06
330
17
100
AcDbEntity
  8
STEMPEL
100
AcDbLine
 10
421.419764280284
 20
367.8923739662191
 30
0.0
 11
423.2973944104998
 21
367.8923739662191
 31
0.0
  0
LINE
  5
F07
330
17
100
AcDbEntity
  8
STEMPEL
100
AcDbLine
 10
432.3025827350395
 20
367.8923739662191
 30
0.0
 11
435.8978904850265
 21
367.8923739662191
 31
0.0
  0
LINE
  5
F08
330
17
100
AcDbEntity
  8
STEMPEL
100
AcDbLine
 10
419.1307770637805
 20
377.892373966219
 30
0.0
 11
425.015845374367
 21
377.892373966219
 31
0.0
  0
LINE
  5
F09
330
17
100
AcDbEntity
  8
STEMPEL
100
AcDbLine
 10
432.3025827350397
 20
377.892373966219
 30
0.0
 11
440.7949430599527
 21
377.892373966219
 31
0.0
  0
LINE
  5
F0B
330
17
100
AcDbEntity
  8
STEMPEL
100
AcDbLine
 10
306.5893200957115
 20
377.8923739662192
 30
0.0
 11
312.4743884062979
 21
377.8923739662191
 31
0.0
  0
LINE
  5
F0C
330
17
100
AcDbEntity
  8
HILF
100
AcDbLine
 10
431.566016368429
 20
332.140148974338
 30
0.0
 11
433.6055607624362
 21
332.140148974338
 31
0.0
  0
ARC
  5
F4D
330
17
100
AcDbEntity
  8
STEMPEL
  6
Continuous
100
AcDbCircle
 10
458.0706779825415
 20
218.6464629549645
 30
0.0
 40
3.0
100
AcDbArc
 50
270.0
 51
354.6441749571445
  0
LINE
  5
F4E
330
17
100
AcDbEntity
  8
STEMPEL
  6
Continuous
100
AcDbLine
 10
475.8025827350392
 20
375.6464629549645
 30
0.0
 11
461.0575806607194
 21
218.3664408288854
 31
0.0
  0
LINE
  5
F4F
330
17
100
AcDbEntity
  8
STEMPEL
  6
Continuous
100
AcDbLine
 10
432.3025827350392
 20
215.6464629549638
 30
0.0
 11
458.0706779825415
 21
215.6464629549637
 31
0.0
  0
HATCH
  5
F50
330
17
100
AcDbEntity
  8
SCHRAFF
100
AcDbHatch
 10
0.0
 20
0.0
 30
0.0
210
0.0
220
0.0
230
1.0
  2
HONEY
 70
     0
 71
     0
 91
        3
 92
        7
 72
     0
 73
     1
 93
        6
 10
475.8025827350393
 20
375.6464629549653
 10
460.8025827350402
 20
375.6464629549653
 10
454.8025827350393
 20
370.6464629549647
 10
454.8025827350392
 20
350.6464629549642
 10
454.6203912878491
 20
349.9335399007414
 10
471.9278012225267
 20
334.3154601548317
 97
        0
 92
        7
 72
     1
 73
     1
 93
        8
 10
443.3025827350391
 20
305.6464629549636
 42
0.0
 10
443.3025827350391
 20
235.6464629549638
 42
0.0
 10
432.3025827350391
 20
222.4464629549642
 42
0.0
 10
432.3025827350391
 20
215.6464629549638
 42
0.0
 10
458.0706779825414
 20
215.6464629549637
 42
0.3870924378343681
 10
461.0575806607193
 20
218.3664408288854
 42
0.0
 10
471.9278012225268
 20
334.3154601548317
 42
0.0
 10
454.6203912878488
 20
349.9335399007413
 42
0.0
 97
        0
 92
        7
 72
     1
 73
     1
 93
       10
 10
276.8025827350393
 20
350.6464629549646
 42
0.0
 10
276.8025827350393
 20
370.6464629549645
 42
0.0
 10
270.8025827350383
 20
375.6464629549653
 42
0.0
 10
255.8025827350391
 20
375.6464629549652
 42
0.0
 10
270.5475848093592
 20
218.3664408288854
 42
0.3870924378342831
 10
273.534487487537
 20
215.6464629549646
 42
0.0
 10
299.3025827350393
 20
215.6464629549645
 42
0.0
 10
299.3025827350392
 20
222.4464629549643
 42
0.0
 10
288.3025827350391
 20
235.6464629549646
 42
0.0
 10
288.3025827350392
 20
305.6464629549641
 42
0.0
 97
        0
 75
     0
 76
     1
 52
0.0
 41
35.0
 77
     0
 78
     3
 53
0.0
 43
-37.6389275245113
 44
-96.37509064866629
 45
6.5625
 46
3.788861124999999
 79
     2
 49
4.375
 49
-8.75
 53
120.0
 43
-37.6389275245113
 44
-96.37509064866629
 45
-6.562499985661285
 46
3.788861149835379
 79
     2
 49
4.374999999999996
 49
-8.749999999999992
 53
60.0
 43
-37.6389275245113
 44
-96.37509064866629
 45
0.000000014338714
 46
7.577722274835378
 79
     2
 49
-8.75
 49
4.375
 47
0.4697954148495544
 98
        3
 10
464.600679741771
 20
353.6820268810176
 10
458.9612229261144
 20
330.1922558222937
 10
276.6187519341372
 20
314.2192114464748
  0
DIMENSION
  5
F51
330
17
100
AcDbEntity
  8
BEM
100
AcDbDimension
  2
*D9
 10
270.8025827350393
 20
62.65526745249179
 30
0.0
 11
365.8025827350392
 21
69.15526745249178
 31
0.0
 70
    32
  1
%%c<>
 71
     5
 42
189.9999999999998
  3
STANDARD
100
AcDbAlignedDimension
 13
460.8025827350391
 23
215.6464629549637
 33
0.0
 14
270.8025827350393
 24
215.6464629549646
 34
0.0
100
AcDbRotatedDimension
  0
TEXT
  5
F52
330
17
100
AcDbEntity
  8
TEXT
 62
     1
100
AcDbText
 10
522.6147050312008
 20
225.055066756363
 30
0.0
 40
7.0
  1
EDV-Art.Nr. 19842.125X
 41
0.8
  7
GREEKS
100
AcDbText
  0
TEXT
  5
F53
330
17
100
AcDbEntity
  8
TEXT
 62
     1
100
AcDbText
 10
522.614705031201
 20
239.2679764872933
 30
0.0
 40
7.0
  1
Wärmedämmung DN125
 41
0.8
  7
GREEKS
100
AcDbText
  0
LINE
  5
F54
330
17
100
AcDbEntity
  8
TEXT
 62
     2
100
AcDbLine
 10
520.5940709271806
 20
235.5450231874867
 30
0.0
 11
628.0987373408047
 21
235.5450231874867
 31
0.0
  0
LINE
  5
F55
330
17
100
AcDbEntity
  8
TEXT
 62
     2
100
AcDbLine
 10
457.8220747695467
 20
252.9887334905604
 30
0.0
 11
520.5940709271806
 21
235.5450231874867
 31
0.0
  0
LINE
  5
F56
330
17
100
AcDbEntity
  8
STEMPEL
100
AcDbLine
 10
432.3025827350392
 20
222.4464629549642
 30
0.0
 11
443.302582735039
 21
235.6464629549638
 31
0.0
  0
LINE
  5
F57
330
17
100
AcDbEntity
  8
STEMPEL
100
AcDbLine
 10
443.3025827350391
 20
305.6464629549641
 30
0.0
 11
443.302582735039
 21
235.6464629549638
 31
0.0
  0
LINE
  5
F58
330
17
100
AcDbEntity
  8
STEMPEL
  6
Continuous
100
AcDbLine
 10
432.3969376584276
 20
235.6464629549639
 30
0.0
 11
443.302582735039
 21
235.6464629549638
 31
0.0
  0
LINE
  5
F59
330
17
100
AcDbEntity
  8
STEMPEL
100
AcDbLine
 10
443.3025827350391
 20
305.646462954964
 30
0.0
 11
438.3025827350392
 21
305.6464629549641
 31
0.0
  0
LINE
  5
F5A
330
17
100
AcDbEntity
  8
STEMPEL
100
AcDbLine
 10
454.8025827350392
 20
350.6464629549645
 30
0.0
 11
443.3025827350392
 21
305.646462954964
 31
0.0
  0
LINE
  5
F5B
330
17
100
AcDbEntity
  8
STEMPEL
100
AcDbLine
 10
454.8025827350392
 20
370.6464629549643
 30
0.0
 11
454.8025827350392
 21
350.6464629549645
 31
0.0
  0
LINE
  5
F5C
330
17
100
AcDbEntity
  8
STEMPEL
100
AcDbLine
 10
450.1837805815218
 20
350.6464629549645
 30
0.0
 11
454.8025827350391
 21
350.6464629549645
 31
0.0
  0
LINE
  5
F5D
330
17
100
AcDbEntity
  8
STEMPEL
100
AcDbLine
 10
460.8025827350393
 20
375.6464629549645
 30
0.0
 11
454.8025827350392
 21
370.6464629549645
 31
0.0
  0
LINE
  5
F5E
330
17
100
AcDbEntity
  8
STEMPEL
100
AcDbLine
 10
453.3919668893717
 20
370.6464629549643
 30
0.0
 11
454.8025827350392
 21
370.6464629549643
 31
0.0
  0
LINE
  5
F5F
330
17
100
AcDbEntity
  8
STEMPEL
100
AcDbLine
 10
270.8025827350393
 20
375.6464629549645
 30
0.0
 11
276.8025827350393
 21
370.6464629549645
 31
0.0
  0
LINE
  5
F60
330
17
100
AcDbEntity
  8
STEMPEL
100
AcDbLine
 10
276.8025827350393
 20
370.6464629549643
 30
0.0
 11
278.2131985807067
 21
370.6464629549643
 31
0.0
  0
LINE
  5
F61
330
17
100
AcDbEntity
  8
STEMPEL
100
AcDbLine
 10
276.8025827350393
 20
370.6464629549643
 30
0.0
 11
276.8025827350393
 21
350.6464629549645
 31
0.0
  0
LINE
  5
F62
330
17
100
AcDbEntity
  8
STEMPEL
100
AcDbLine
 10
276.8025827350393
 20
350.6464629549645
 30
0.0
 11
281.4213848885566
 21
350.6464629549645
 31
0.0
  0
LINE
  5
F63
330
17
100
AcDbEntity
  8
STEMPEL
100
AcDbLine
 10
276.8025827350393
 20
350.6464629549645
 30
0.0
 11
288.3025827350392
 21
305.6464629549644
 31
0.0
  0
LINE
  5
F64
330
17
100
AcDbEntity
  8
STEMPEL
  6
Continuous
100
AcDbLine
 10
255.8025827350393
 20
375.6464629549645
 30
0.0
 11
270.5475848093591
 21
218.3664408288854
 31
0.0
  0
LINE
  5
F65
330
17
100
AcDbEntity
  8
STEMPEL
100
AcDbLine
 10
299.3025827350393
 20
222.4464629549642
 30
0.0
 11
288.302582735039
 21
235.6464629549646
 31
0.0
  0
LINE
  5
F66
330
17
100
AcDbEntity
  8
STEMPEL
  6
Continuous
100
AcDbLine
 10
288.302582735039
 20
235.6464629549646
 30
0.0
 11
299.2082278116508
 21
235.6464629549646
 31
0.0
  0
LINE
  5
F67
330
17
100
AcDbEntity
  8
STEMPEL
100
AcDbLine
 10
288.3025827350392
 20
305.6464629549644
 30
0.0
 11
288.302582735039
 21
235.6464629549646
 31
0.0
  0
LINE
  5
F68
330
17
100
AcDbEntity
  8
STEMPEL
100
AcDbLine
 10
293.3025827350393
 20
305.6464629549644
 30
0.0
 11
288.3025827350392
 21
305.6464629549644
 31
0.0
  0
LINE
  5
F88
330
17
100
AcDbEntity
  8
STEMPEL
  6
Continuous
100
AcDbLine
 10
299.3025827350393
 20
215.6464629549638
 30
0.0
 11
273.534487487537
 21
215.6464629549637
 31
0.0
  0
ARC
  5
F89
330
17
100
AcDbEntity
  8
STEMPEL
  6
Continuous
100
AcDbCircle
 10
273.534487487537
 20
218.6464629549645
 30
0.0
 40
3.0
100
AcDbArc
 50
185.3558250428555
 51
270.0
  0
TEXT
  5
F8F
330
17
100
AcDbEntity
  8
TEXT
100
AcDbText
 10
655.1296391125315
 20
62.40532801493515
 30
0.0
 40
5.0
  1
mit Wärmedämmung
 41
0.8
  7
GREEKS
100
AcDbText
  0
ENDSEC
  0
SECTION
  2
OBJECTS
  0
DICTIONARY
  5
C
330
0
100
AcDbDictionary
281
     1
  3
ACAD_COLOR
350
901
  3
ACAD_GROUP
350
D
  3
ACAD_LAYOUT
350
902
  3
ACAD_MATERIAL
350
900
  3
ACAD_MLINESTYLE
350
1A
  3
ACAD_PLOTSETTINGS
350
903
  3
ACAD_PLOTSTYLENAME
350
8FE
  3
ACDBVARIABLEDICTIONARY
350
40
  0
DICTIONARY
  5
901
102
{ACAD_REACTORS
330
C
102
}
330
C
100
AcDbDictionary
281
     1
  0
DICTIONARY
  5
D
102
{ACAD_REACTORS
330
C
102
}
330
C
100
AcDbDictionary
281
     1
  0
DICTIONARY
  5
902
102
{ACAD_REACTORS
330
C
102
}
330
C
100
AcDbDictionary
281
     1
  3
Layout1
350
905
  3
Model
350
904
  0
DICTIONARY
  5
900
102
{ACAD_REACTORS
330
C
102
}
330
C
100
AcDbDictionary
281
     1
  0
DICTIONARY
  5
1A
102
{ACAD_REACTORS
330
C
102
}
330
C
100
AcDbDictionary
281
     1
  3
STANDARD
350
1B
  0
DICTIONARY
  5
903
102
{ACAD_REACTORS
330
C
102
}
330
C
100
AcDbDictionary
281
     1
  0
ACDBDICTIONARYWDFLT
  5
8FE
102
{ACAD_REACTORS
330
C
102
}
330
C
100
AcDbDictionary
281
     1
  3
Normal
350
8FF
100
AcDbDictionaryWithDefault
340
8FF
  0
DICTIONARY
  5
40
102
{ACAD_REACTORS
330
C
102
}
330
C
100
AcDbDictionary
281
     1
  3
DIMADEC
350
41
  3
DIMASSOC
350
A46
  3
PROJECTNAME
350
A47
  0
LAYOUT
  5
905
102
{ACAD_REACTORS
330
902
102
}
330
902
100
AcDbPlotSettings
  1

  2
RICOH Aficio 2027 PCL 6
  4

  6

 40
0.0
 41
0.0
 42
0.0
 43
0.0
 44
0.0
 45
0.0
 46
0.0
 47
0.0
 48
0.0
 49
0.0
140
0.0
141
0.0
142
1.0
143
1.0
 70
   688
 72
     0
 73
     0
 74
     5
  7
monochrome1.ctb
 75
    16
147
1.0
 76
     0
 77
     2
 78
   300
148
0.0
149
0.0
100
AcDbLayout
  1
Layout1
 70
     0
 71
     1
 10
0.0
 20
0.0
 11
12.0
 21
9.0
 12
236.4266606927941
 22
50.00000000000001
 32
115.8148567796232
 14
1.000000000000000E+20
 24
1.000000000000000E+20
 34
1.000000000000000E+20
 15
-1.000000000000000E+20
 25
-1.000000000000000E+20
 35
-1.000000000000000E+20
146
0.0
 13
0.0
 23
0.0
 33
0.0
 16
1.0
 26
0.0
 36
0.0
 17
0.0
 27
1.0
 37
0.0
 76
     0
330
14
  0
LAYOUT
  5
904
102
{ACAD_REACTORS
330
902
102
}
330
902
100
AcDbPlotSettings
  1

  2
RICOH Aficio 2027 PCL 6
  4
A4
  6

 40
5.027083396911621
 41
5.027085304260253
 42
5.027084350585937
 43
5.027069091796875
 44
209.9733276367187
 45
296.9259948730469
 46
0.0
 47
0.0
 48
0.0
 49
0.0
140
0.0
141
0.0
142
1.0
143
1.0
 70
 11952
 72
     0
 73
     1
 74
     0
  7
monochrome1.ctb
 75
     0
147
1.0
 76
     0
 77
     2
 78
   300
148
-3033.569169194215
149
90.63084535397159
100
AcDbLayout
  1
Model
 70
     1
 71
     0
 10
0.0
 20
0.0
 11
12.0
 21
9.0
 12
0.0
 22
0.0
 32
0.0
 14
0.0
 24
0.0
 34
0.0
 15
0.0
 25
0.0
 35
0.0
146
0.0
 13
0.0
 23
0.0
 33
0.0
 16
1.0
 26
0.0
 36
0.0
 17
0.0
 27
1.0
 37
0.0
 76
     0
330
17
  0
MLINESTYLE
  5
1B
102
{ACAD_REACTORS
330
1A
102
}
330
1A
100
AcDbMlineStyle
  2
STANDARD
 70
     0
  3

 62
   256
 51
90.0
 52
90.0
 71
     2
 49
0.5
 62
   256
  6
BYLAYER
 49
-0.5
 62
   256
  6
BYLAYER
  0
ACDBPLACEHOLDER
  5
8FF
102
{ACAD_REACTORS
330
8FE
102
}
330
8FE
  0
DICTIONARYVAR
  5
41
102
{ACAD_REACTORS
330
40
102
}
330
40
100
DictionaryVariables
280
     0
  1
0
  0
DICTIONARYVAR
  5
A46
102
{ACAD_REACTORS
330
40
102
}
330
40
100
DictionaryVariables
280
     0
  1
1
  0
DICTIONARYVAR
  5
A47
102
{ACAD_REACTORS
330
40
102
}
330
40
100
DictionaryVariables
280
     0
  1

  0
ENDSEC
  0
EOF
