  0
SECTION
  2
HEADER
  9
$ACADVER
  1
AC1018
  9
$ACADMAINTVER
 70
     2
  9
$DWGCODEPAGE
  3
ANSI_1252
  9
$INSBASE
 10
0.0
 20
0.0
 30
0.0
  9
$EXTMIN
 10
-0.0181365906848896
 20
-0.0128327896613882
 30
-0.0000000000000129
  9
$EXTMAX
 10
840.0213772511767
 20
594.0053052994908
 30
0.0000000000000023
  9
$LIMMIN
 10
0.0
 20
0.0
  9
$LIMMAX
 10
840.0
 20
594.0
  9
$ORTHOMODE
 70
     0
  9
$REGENMODE
 70
     1
  9
$FILLMODE
 70
     1
  9
$QTEXTMODE
 70
     0
  9
$MIRRTEXT
 70
     1
  9
$LTSCALE
 40
20.0
  9
$ATTMODE
 70
     1
  9
$TEXTSIZE
 40
3.5
  9
$TRACEWID
 40
1.0
  9
$TEXTSTYLE
  7
STANDARD
  9
$CLAYER
  8
BEM
  9
$CELTYPE
  6
ByLayer
  9
$CECOLOR
 62
   256
  9
$CELTSCALE
 40
1.0
  9
$DISPSILH
 70
     0
  9
$DIMSCALE
 40
2.0
  9
$DIMASZ
 40
3.5
  9
$DIMEXO
 40
1.0
  9
$DIMDLI
 40
7.0
  9
$DIMRND
 40
0.0
  9
$DIMDLE
 40
0.0
  9
$DIMEXE
 40
1.0
  9
$DIMTP
 40
0.0
  9
$DIMTM
 40
0.0
  9
$DIMTXT
 40
3.5
  9
$DIMCEN
 40
1.5
  9
$DIMTSZ
 40
0.0
  9
$DIMTOL
 70
     0
  9
$DIMLIM
 70
     0
  9
$DIMTIH
 70
     0
  9
$DIMTOH
 70
     0
  9
$DIMSE1
 70
     0
  9
$DIMSE2
 70
     0
  9
$DIMTAD
 70
     1
  9
$DIMZIN
 70
     8
  9
$DIMBLK
  1

  9
$DIMASO
 70
     1
  9
$DIMSHO
 70
     0
  9
$DIMPOST
  1

  9
$DIMAPOST
  1

  9
$DIMALT
 70
     0
  9
$DIMALTD
 70
     2
  9
$DIMALTF
 40
25.4
  9
$DIMLFAC
 40
1.0
  9
$DIMTOFL
 70
     1
  9
$DIMTVP
 40
0.0
  9
$DIMTIX
 70
     0
  9
$DIMSOXD
 70
     0
  9
$DIMSAH
 70
     0
  9
$DIMBLK1
  1

  9
$DIMBLK2
  1

  9
$DIMSTYLE
  2
Standard
  9
$DIMCLRD
 70
     0
  9
$DIMCLRE
 70
     0
  9
$DIMCLRT
 70
     1
  9
$DIMTFAC
 40
0.5142857142857144
  9
$DIMGAP
 40
1.5
  9
$DIMJUST
 70
     0
  9
$DIMSD1
 70
     0
  9
$DIMSD2
 70
     0
  9
$DIMTOLJ
 70
     1
  9
$DIMTZIN
 70
     8
  9
$DIMALTZ
 70
     8
  9
$DIMALTTZ
 70
     8
  9
$DIMUPT
 70
     0
  9
$DIMDEC
 70
     2
  9
$DIMTDEC
 70
     2
  9
$DIMALTU
 70
     2
  9
$DIMALTTD
 70
     2
  9
$DIMTXSTY
  7
STANDARD
  9
$DIMAUNIT
 70
     0
  9
$DIMADEC
 70
     2
  9
$DIMALTRND
 40
0.0
  9
$DIMAZIN
 70
     2
  9
$DIMDSEP
 70
    46
  9
$DIMATFIT
 70
     3
  9
$DIMFRAC
 70
     0
  9
$DIMLDRBLK
  1

  9
$DIMLUNIT
 70
     2
  9
$DIMLWD
 70
    -2
  9
$DIMLWE
 70
    -2
  9
$DIMTMOVE
 70
     0
  9
$LUNITS
 70
     2
  9
$LUPREC
 70
     2
  9
$SKETCHINC
 40
1.0
  9
$FILLETRAD
 40
0.0
  9
$AUNITS
 70
     0
  9
$AUPREC
 70
     0
  9
$MENU
  1
ACAD
  9
$ELEVATION
 40
0.0
  9
$PELEVATION
 40
0.0
  9
$THICKNESS
 40
0.0
  9
$LIMCHECK
 70
     0
  9
$CHAMFERA
 40
0.0
  9
$CHAMFERB
 40
0.0
  9
$CHAMFERC
 40
0.0
  9
$CHAMFERD
 40
0.0
  9
$SKPOLY
 70
     0
  9
$TDCREATE
 40
2455397.867059838
  9
$TDUCREATE
 40
2455397.783726505
  9
$TDUPDATE
 40
2455463.434756007
  9
$TDUUPDATE
 40
2455463.351422674
  9
$TDINDWG
 40
0.0615152315
  9
$TDUSRTIMER
 40
0.0615152315
  9
$USRTIMER
 70
     1
  9
$ANGBASE
 50
0.0
  9
$ANGDIR
 70
     0
  9
$PDMODE
 70
     0
  9
$PDSIZE
 40
0.0
  9
$PLINEWID
 40
0.0
  9
$SPLFRAME
 70
     0
  9
$SPLINETYPE
 70
     6
  9
$SPLINESEGS
 70
     8
  9
$HANDSEED
  5
D54
  9
$SURFTAB1
 70
     6
  9
$SURFTAB2
 70
     6
  9
$SURFTYPE
 70
     6
  9
$SURFU
 70
     6
  9
$SURFV
 70
     6
  9
$UCSBASE
  2

  9
$UCSNAME
  2

  9
$UCSORG
 10
0.0
 20
0.0
 30
0.0
  9
$UCSXDIR
 10
1.0
 20
0.0
 30
0.0
  9
$UCSYDIR
 10
0.0
 20
1.0
 30
0.0
  9
$UCSORTHOREF
  2

  9
$UCSORTHOVIEW
 70
     0
  9
$UCSORGTOP
 10
0.0
 20
0.0
 30
0.0
  9
$UCSORGBOTTOM
 10
0.0
 20
0.0
 30
0.0
  9
$UCSORGLEFT
 10
0.0
 20
0.0
 30
0.0
  9
$UCSORGRIGHT
 10
0.0
 20
0.0
 30
0.0
  9
$UCSORGFRONT
 10
0.0
 20
0.0
 30
0.0
  9
$UCSORGBACK
 10
0.0
 20
0.0
 30
0.0
  9
$PUCSBASE
  2

  9
$PUCSNAME
  2

  9
$PUCSORG
 10
0.0
 20
0.0
 30
0.0
  9
$PUCSXDIR
 10
1.0
 20
0.0
 30
0.0
  9
$PUCSYDIR
 10
0.0
 20
1.0
 30
0.0
  9
$PUCSORTHOREF
  2

  9
$PUCSORTHOVIEW
 70
     0
  9
$PUCSORGTOP
 10
0.0
 20
0.0
 30
0.0
  9
$PUCSORGBOTTOM
 10
0.0
 20
0.0
 30
0.0
  9
$PUCSORGLEFT
 10
0.0
 20
0.0
 30
0.0
  9
$PUCSORGRIGHT
 10
0.0
 20
0.0
 30
0.0
  9
$PUCSORGFRONT
 10
0.0
 20
0.0
 30
0.0
  9
$PUCSORGBACK
 10
0.0
 20
0.0
 30
0.0
  9
$USERI1
 70
     0
  9
$USERI2
 70
     0
  9
$USERI3
 70
     0
  9
$USERI4
 70
     0
  9
$USERI5
 70
     0
  9
$USERR1
 40
0.0
  9
$USERR2
 40
0.0
  9
$USERR3
 40
0.0
  9
$USERR4
 40
0.0
  9
$USERR5
 40
0.0
  9
$WORLDVIEW
 70
     1
  9
$SHADEDGE
 70
     3
  9
$SHADEDIF
 70
    70
  9
$TILEMODE
 70
     1
  9
$MAXACTVP
 70
    16
  9
$PINSBASE
 10
0.0
 20
0.0
 30
0.0
  9
$PLIMCHECK
 70
     0
  9
$PEXTMIN
 10
1.000000000000000E+20
 20
1.000000000000000E+20
 30
1.000000000000000E+20
  9
$PEXTMAX
 10
-1.000000000000000E+20
 20
-1.000000000000000E+20
 30
-1.000000000000000E+20
  9
$PLIMMIN
 10
0.0
 20
0.0
  9
$PLIMMAX
 10
12.0
 20
9.0
  9
$UNITMODE
 70
     0
  9
$VISRETAIN
 70
     0
  9
$PLINEGEN
 70
     0
  9
$PSLTSCALE
 70
     0
  9
$TREEDEPTH
 70
  3020
  9
$CMLSTYLE
  2
Standard
  9
$CMLJUST
 70
     0
  9
$CMLSCALE
 40
1.0
  9
$PROXYGRAPHICS
 70
     1
  9
$MEASUREMENT
 70
     0
  9
$CELWEIGHT
370
    -1
  9
$ENDCAPS
280
     0
  9
$JOINSTYLE
280
     0
  9
$LWDISPLAY
290
     0
  9
$INSUNITS
 70
     0
  9
$HYPERLINKBASE
  1

  9
$STYLESHEET
  1
monochrome 1.ctb
  9
$XEDIT
290
     1
  9
$CEPSNTYPE
380
     0
  9
$PSTYLEMODE
290
     1
  9
$FINGERPRINTGUID
  2
{D68B0D0D-A558-11D7-B632-000102183313}
  9
$VERSIONGUID
  2
{2AB1FDBF-EF5B-47E7-974A-294E9923320B}
  9
$EXTNAMES
290
     1
  9
$PSVPSCALE
 40
0.0
  9
$OLESTARTUP
290
     0
  9
$SORTENTS
280
   127
  9
$INDEXCTL
280
     0
  9
$HIDETEXT
280
     0
  9
$XCLIPFRAME
290
     0
  9
$HALOGAP
280
     0
  9
$OBSCOLOR
 70
   257
  9
$OBSLTYPE
280
     0
  9
$INTERSECTIONDISPLAY
280
     0
  9
$INTERSECTIONCOLOR
 70
   257
  9
$DIMASSOC
280
     1
  9
$PROJECTNAME
  1

  0
ENDSEC
  0
SECTION
  2
CLASSES
  0
CLASS
  1
ACDBDICTIONARYWDFLT
  2
AcDbDictionaryWithDefault
  3
ObjectDBX Classes
 90
        0
 91
        1
280
     0
281
     0
  0
CLASS
  1
DICTIONARYVAR
  2
AcDbDictionaryVar
  3
ObjectDBX Classes
 90
        0
 91
        2
280
     0
281
     0
  0
CLASS
  1
DIMASSOC
  2
AcDbDimAssoc
  3
"AcDbDimAssoc|Product Desc:     AcDim ARX App For Dimension|Company:          Autodesk, Inc.|WEB Address:      www.autodesk.com"
 90
        0
 91
        1
280
     0
281
     0
  0
ENDSEC
  0
SECTION
  2
TABLES
  0
TABLE
  2
VPORT
  5
8
330
0
100
AcDbSymbolTable
 70
     2
  0
VPORT
  5
D53
330
8
100
AcDbSymbolTableRecord
100
AcDbViewportTableRecord
  2
*Active
 70
     0
 10
0.0
 20
0.0
 11
1.0
 21
1.0
 12
420.0016203302459
 22
296.9962362549146
 13
0.0
 23
0.0
 14
1.0
 24
1.0
 15
10.0
 25
10.0
 16
0.0
 26
0.0
 36
1.0
 17
0.0
 27
0.0
 37
0.0
 40
632.1313117629208
 41
1.336927223719676
 42
50.0
 43
0.0
 44
0.0
 50
0.0
 51
0.0
 71
     0
 72
  1500
 73
     1
 74
     0
 75
     0
 76
     0
 77
     0
 78
     0
281
     0
 65
     1
110
0.0
120
0.0
130
0.0
111
1.0
121
0.0
131
0.0
112
0.0
122
1.0
132
0.0
 79
     0
146
0.0
  0
ENDTAB
  0
TABLE
  2
LTYPE
  5
5
330
0
100
AcDbSymbolTable
 70
     2
  0
LTYPE
  5
13
330
5
100
AcDbSymbolTableRecord
100
AcDbLinetypeTableRecord
  2
ByBlock
 70
     0
  3

 72
    65
 73
     0
 40
0.0
  0
LTYPE
  5
14
330
5
100
AcDbSymbolTableRecord
100
AcDbLinetypeTableRecord
  2
ByLayer
 70
     0
  3

 72
    65
 73
     0
 40
0.0
  0
LTYPE
  5
15
330
5
100
AcDbSymbolTableRecord
100
AcDbLinetypeTableRecord
  2
Continuous
 70
     0
  3
Solid line
 72
    65
 73
     0
 40
0.0
  0
LTYPE
  5
25
330
5
100
AcDbSymbolTableRecord
100
AcDbLinetypeTableRecord
  2
STRICHPUNKT
 70
     0
  3
__ . __ . __ . __ . __ . __ . __ . __ . __ . __
 72
    65
 73
     4
 40
1.0
 49
0.5
 74
     0
 49
-0.25
 74
     0
 49
0.0
 74
     0
 49
-0.25
 74
     0
  0
ENDTAB
  0
TABLE
  2
LAYER
  5
2
330
0
100
AcDbSymbolTable
 70
     9
  0
LAYER
  5
10
330
2
100
AcDbSymbolTableRecord
100
AcDbLayerTableRecord
  2
0
 70
     0
 62
     7
  6
Continuous
370
    -3
390
F
  0
LAYER
  5
2B
330
2
100
AcDbSymbolTableRecord
100
AcDbLayerTableRecord
  2
VOLL
 70
     0
 62
     1
  6
Continuous
370
    -3
390
F
  0
LAYER
  5
2C
330
2
100
AcDbSymbolTableRecord
100
AcDbLayerTableRecord
  2
HILF
 70
     0
 62
     2
  6
Continuous
370
    -3
390
F
  0
LAYER
  5
2D
330
2
100
AcDbSymbolTableRecord
100
AcDbLayerTableRecord
  2
MITTEL
 70
     0
 62
     2
  6
STRICHPUNKT
370
    -3
390
F
  0
LAYER
  5
2F
330
2
100
AcDbSymbolTableRecord
100
AcDbLayerTableRecord
  2
BEM
 70
     0
 62
     7
  6
Continuous
370
    -3
390
F
  0
LAYER
  5
30
330
2
100
AcDbSymbolTableRecord
100
AcDbLayerTableRecord
  2
STEMPEL
 70
     0
 62
     3
  6
Continuous
370
    -3
390
F
  0
LAYER
  5
33
330
2
100
AcDbSymbolTableRecord
100
AcDbLayerTableRecord
  2
TEXT
 70
     0
 62
     7
  6
Continuous
370
    -3
390
F
  0
LAYER
  5
29F
330
2
100
AcDbSymbolTableRecord
100
AcDbLayerTableRecord
  2
SCHRAFF
 70
     0
 62
     7
  6
Continuous
370
    -3
390
F
  0
LAYER
  5
2A0
330
2
100
AcDbSymbolTableRecord
100
AcDbLayerTableRecord
  2
DEFPOINTS
 70
     0
 62
     7
  6
Continuous
290
     0
370
    -3
390
F
  0
ENDTAB
  0
TABLE
  2
STYLE
  5
3
330
0
100
AcDbSymbolTable
 70
     2
  0
STYLE
  5
11
330
3
100
AcDbSymbolTableRecord
100
AcDbTextStyleTableRecord
  2
STANDARD
 70
     0
 40
0.0
 41
0.8
 50
0.0
 71
     0
 42
3.5
  3
simplex.shx
  4

  0
STYLE
  5
24
330
3
100
AcDbSymbolTableRecord
100
AcDbTextStyleTableRecord
  2
GREEKS
 70
     0
 40
0.0
 41
0.8
 50
0.0
 71
     0
 42
2.5
  3
SIMPLEX.shx
  4

  0
ENDTAB
  0
TABLE
  2
VIEW
  5
6
330
0
100
AcDbSymbolTable
 70
     0
  0
ENDTAB
  0
TABLE
  2
UCS
  5
7
330
0
100
AcDbSymbolTable
 70
     0
  0
ENDTAB
  0
TABLE
  2
APPID
  5
9
330
0
100
AcDbSymbolTable
 70
     1
  0
APPID
  5
12
330
9
100
AcDbSymbolTableRecord
100
AcDbRegAppTableRecord
  2
ACAD
 70
     0
  0
ENDTAB
  0
TABLE
  2
DIMSTYLE
  5
A
330
0
100
AcDbSymbolTable
 70
     1
100
AcDbDimStyleTable
 71
     1
340
A2
  0
DIMSTYLE
105
A2
102
{ACAD_REACTORS
330
866
330
9D0
330
9D3
330
9D6
330
BA4
330
BF9
330
C7D
102
}
330
A
100
AcDbSymbolTableRecord
100
AcDbDimStyleTableRecord
  2
Standard
 70
     0
340
11
  0
ENDTAB
  0
TABLE
  2
BLOCK_RECORD
  5
1
330
0
100
AcDbSymbolTable
 70
     9
  0
BLOCK_RECORD
  5
1E
102
{ACAD_XDICTIONARY
360
DB
102
}
330
1
100
AcDbSymbolTableRecord
100
AcDbBlockTableRecord
  2
*Model_Space
340
21
  0
BLOCK_RECORD
  5
1A
102
{ACAD_XDICTIONARY
360
DD
102
}
330
1
100
AcDbSymbolTableRecord
100
AcDbBlockTableRecord
  2
*Paper_Space
340
1D
  0
BLOCK_RECORD
  5
22
330
1
100
AcDbSymbolTableRecord
100
AcDbBlockTableRecord
  2
LOGO
340
0
102
{BLKREFS
331
56
102
}
  0
BLOCK_RECORD
  5
23
330
1
100
AcDbSymbolTableRecord
100
AcDbBlockTableRecord
  2
LORO
340
0
102
{BLKREFS
331
9B
102
}
  0
BLOCK_RECORD
  5
867
330
1
100
AcDbSymbolTableRecord
100
AcDbBlockTableRecord
  2
*D2
340
0
  0
BLOCK_RECORD
  5
ACA
330
1
100
AcDbSymbolTableRecord
100
AcDbBlockTableRecord
  2
*D3
340
0
  0
BLOCK_RECORD
  5
AD6
330
1
100
AcDbSymbolTableRecord
100
AcDbBlockTableRecord
  2
*D4
340
0
  0
BLOCK_RECORD
  5
AE2
330
1
100
AcDbSymbolTableRecord
100
AcDbBlockTableRecord
  2
*D5
340
0
  0
BLOCK_RECORD
  5
BA5
330
1
100
AcDbSymbolTableRecord
100
AcDbBlockTableRecord
  2
*D6
340
0
  0
BLOCK_RECORD
  5
C1E
330
1
100
AcDbSymbolTableRecord
100
AcDbBlockTableRecord
  2
*D7
340
0
  0
BLOCK_RECORD
  5
C7E
330
1
100
AcDbSymbolTableRecord
100
AcDbBlockTableRecord
  2
*D8
340
0
  0
ENDTAB
  0
ENDSEC
  0
SECTION
  2
BLOCKS
  0
BLOCK
  5
37
330
1E
100
AcDbEntity
  8
0
100
AcDbBlockBegin
  2
*Model_Space
 70
     0
 10
0.0
 20
0.0
 30
0.0
  3
*Model_Space
  1

  0
ENDBLK
  5
38
330
1E
100
AcDbEntity
  8
0
100
AcDbBlockEnd
  0
BLOCK
  5
35
330
1A
100
AcDbEntity
 67
     1
  8
0
100
AcDbBlockBegin
  2
*Paper_Space
 70
     0
 10
0.0
 20
0.0
 30
0.0
  3
*Paper_Space
  1

  0
ENDBLK
  5
36
330
1A
100
AcDbEntity
 67
     1
  8
0
100
AcDbBlockEnd
  0
BLOCK
  5
39
330
22
100
AcDbEntity
  8
0
100
AcDbBlockBegin
  2
LOGO
 70
     0
 10
0.0
 20
0.0
 30
0.0
  3
LOGO
  1

  0
ARC
  5
3A
330
22
100
AcDbEntity
  8
0
100
AcDbCircle
 10
11.59973089678112
 20
-9.271599258481501
 30
0.0
 40
4.5
100
AcDbArc
 50
270.0
 51
231.0575587310159
  0
LINE
  5
3B
330
22
100
AcDbEntity
  8
0
100
AcDbLine
 10
3.599730896781125
 20
-4.771599258481529
 30
0.0
 11
3.599730896781153
 21
-11.77159925848133
 31
0.0
  0
LINE
  5
3C
330
22
100
AcDbEntity
  8
0
100
AcDbLine
 10
2.599730896781125
 20
-4.771599258481529
 30
0.0
 11
2.599730896781153
 21
-11.77159925848133
 31
0.0
  0
CIRCLE
  5
3D
330
22
100
AcDbEntity
  8
0
100
AcDbCircle
 10
11.59973089678112
 20
-9.271599258481501
 30
0.0
 40
3.5
  0
ARC
  5
3E
330
22
100
AcDbEntity
  8
0
100
AcDbCircle
 10
31.59973089678115
 20
-9.271599258481472
 30
0.0
 40
4.5
100
AcDbArc
 50
270.0
 51
231.0575587310182
  0
LINE
  5
3F
330
22
100
AcDbEntity
  8
0
100
AcDbLine
 10
17.59973089678112
 20
-4.771599258481472
 30
0.0
 11
17.59973089678115
 21
-13.77159925848147
 31
0.0
  0
ARC
  5
40
330
22
100
AcDbEntity
  8
0
100
AcDbCircle
 10
22.59973089678116
 20
-7.271599258481472
 30
0.0
 40
2.5
100
AcDbArc
 50
293.1161887722295
 51
90.0
  0
CIRCLE
  5
41
330
22
100
AcDbEntity
  8
0
100
AcDbCircle
 10
31.59973089678115
 20
-9.271599258481472
 30
0.0
 40
3.5
  0
ARC
  5
42
330
22
100
AcDbEntity
  8
0
100
AcDbCircle
 10
4.599730896781153
 20
-11.77159925848133
 30
0.0
 40
1.0
100
AcDbArc
 50
180.0
 51
270.0
  0
ARC
  5
43
330
22
100
AcDbEntity
  8
0
100
AcDbCircle
 10
4.599730896781153
 20
-11.77159925848133
 30
0.0
 40
2.0
100
AcDbArc
 50
179.9999999999992
 51
270.0
  0
LINE
  5
44
330
22
100
AcDbEntity
  8
0
100
AcDbLine
 10
11.59973089678115
 20
-13.77159925848144
 30
0.0
 11
4.599730896781153
 21
-13.77159925848147
 31
0.0
  0
LINE
  5
45
330
22
100
AcDbEntity
  8
0
100
AcDbLine
 10
8.771303772034769
 20
-12.77159925848136
 30
0.0
 11
4.599730896781153
 21
-12.77159925848133
 31
0.0
  0
LINE
  5
46
330
22
100
AcDbEntity
  8
0
100
AcDbLine
 10
31.59973089678115
 20
-13.77159925848147
 30
0.0
 11
23.6715276665056
 21
-13.77159925848144
 31
0.0
  0
LINE
  5
47
330
22
100
AcDbEntity
  8
0
100
AcDbLine
 10
23.56565672307022
 20
-9.51278021337896
 30
0.0
 11
24.4388546544846
 21
-12.77159925848144
 31
0.0
  0
LINE
  5
48
330
22
100
AcDbEntity
  8
0
100
AcDbLine
 10
22.59973089678116
 20
-9.771599258481472
 30
0.0
 11
18.59973089678112
 21
-9.771599258481472
 31
0.0
  0
LINE
  5
49
330
22
100
AcDbEntity
  8
0
100
AcDbLine
 10
18.59973089678115
 20
-13.77159925848144
 30
0.0
 11
17.59973089678115
 21
-13.77159925848144
 31
0.0
  0
LINE
  5
4A
330
22
100
AcDbEntity
  8
0
100
AcDbLine
 10
18.59973089678115
 20
-9.771599258481472
 30
0.0
 11
18.59973089678115
 21
-13.77159925848144
 31
0.0
  0
LINE
  5
4B
330
22
100
AcDbEntity
  8
0
100
AcDbLine
 10
22.59973089678116
 20
-9.771599258481472
 30
0.0
 11
23.67152766650562
 21
-13.77159925848147
 31
0.0
  0
ARC
  5
4C
330
22
100
AcDbEntity
  8
0
100
AcDbCircle
 10
22.59973089678116
 20
-7.271599258481472
 30
0.0
 40
2.5
100
AcDbArc
 50
270.0
 51
270.0000000000007
  0
LINE
  5
4D
330
22
100
AcDbEntity
  8
0
100
AcDbLine
 10
28.77130377203494
 20
-12.77159925848147
 30
0.0
 11
24.43885465448463
 21
-12.77159925848144
 31
0.0
  0
LINE
  5
4E
330
22
100
AcDbEntity
  8
0
100
AcDbLine
 10
3.599730896781125
 20
-4.771599258481472
 30
0.0
 11
2.599730896781125
 21
-4.771599258481472
 31
0.0
  0
LINE
  5
4F
330
22
100
AcDbEntity
  8
0
100
AcDbLine
 10
22.59973089678116
 20
-8.771599258481472
 30
0.0
 11
18.59973089678115
 21
-8.771599258481472
 31
0.0
  0
LINE
  5
50
330
22
100
AcDbEntity
  8
0
100
AcDbLine
 10
22.59973089678116
 20
-5.771599258481472
 30
0.0
 11
18.59973089678115
 21
-5.771599258481472
 31
0.0
  0
LINE
  5
51
330
22
100
AcDbEntity
  8
0
100
AcDbLine
 10
22.59973089678116
 20
-4.771599258481472
 30
0.0
 11
17.59973089678115
 21
-4.771599258481472
 31
0.0
  0
LINE
  5
52
330
22
100
AcDbEntity
  8
0
100
AcDbLine
 10
18.59973089678115
 20
-5.771599258481472
 30
0.0
 11
18.59973089678115
 21
-8.771599258481472
 31
0.0
  0
ARC
  5
53
330
22
100
AcDbEntity
  8
0
100
AcDbCircle
 10
22.59973089678116
 20
-7.271599258481472
 30
0.0
 40
1.5
100
AcDbArc
 50
270.0
 51
90.0
  0
ENDBLK
  5
54
330
22
100
AcDbEntity
  8
0
100
AcDbBlockEnd
  0
BLOCK
  5
55
330
23
100
AcDbEntity
  8
0
100
AcDbBlockBegin
  2
LORO
 70
     0
 10
0.0
 20
0.0
 30
0.0
  3
LORO
  1

  0
INSERT
  5
56
330
23
100
AcDbEntity
  8
STEMPEL
100
AcDbBlockReference
  2
LOGO
 10
-1.748032802467321
 20
3.771489518552062
 30
0.0
  0
ENDBLK
  5
57
330
23
100
AcDbEntity
  8
0
100
AcDbBlockEnd
  0
BLOCK
  5
871
330
867
100
AcDbEntity
  8
0
100
AcDbBlockBegin
  2
*D2
 70
     1
 10
0.0
 20
0.0
 30
0.0
  3
*D2
  1

  0
LINE
  5
D36
330
867
100
AcDbEntity
  8
BEM
 62
     0
370
    -2
100
AcDbLine
 10
345.212065582287
 20
498.537331408201
 30
0.0
 11
345.212065582287
 21
521.7481088994162
 31
0.0
  0
LINE
  5
D37
330
867
100
AcDbEntity
  8
BEM
 62
     0
370
    -2
100
AcDbLine
 10
548.2120655822869
 20
498.537331408201
 30
0.0
 11
548.2120655822869
 21
521.7481088994162
 31
0.0
  0
LINE
  5
D38
330
867
100
AcDbEntity
  8
BEM
 62
     0
370
    -2
100
AcDbLine
 10
352.212065582287
 20
519.7481088994162
 30
0.0
 11
541.2120655822869
 21
519.7481088994162
 31
0.0
  0
SOLID
  5
D39
330
867
100
AcDbEntity
  8
BEM
 62
     0
100
AcDbTrace
 10
352.212065582287
 20
520.9147755660828
 30
0.0
 11
352.212065582287
 21
518.5814422327496
 31
0.0
 12
345.212065582287
 22
519.7481088994162
 32
0.0
 13
345.212065582287
 23
519.7481088994162
 33
0.0
  0
SOLID
  5
D3A
330
867
100
AcDbEntity
  8
BEM
 62
     0
100
AcDbTrace
 10
541.2120655822869
 20
520.9147755660828
 30
0.0
 11
541.2120655822869
 21
518.5814422327496
 31
0.0
 12
548.2120655822869
 22
519.7481088994162
 32
0.0
 13
548.2120655822869
 23
519.7481088994162
 33
0.0
  0
MTEXT
  5
D3B
330
867
100
AcDbEntity
  8
BEM
 62
     1
100
AcDbMText
 10
446.712065582287
 20
526.2481088994162
 30
0.0
 40
7.0
 41
0.0
 71
     5
 72
     1
  1
\A1;%%c203
 73
     1
 44
1.0
  0
POINT
  5
D3C
330
867
100
AcDbEntity
  8
DEFPOINTS
 62
     0
100
AcDbPoint
 10
345.212065582287
 20
496.5373314082009
 30
0.0
  0
POINT
  5
D3D
330
867
100
AcDbEntity
  8
DEFPOINTS
 62
     0
100
AcDbPoint
 10
548.2120655822869
 20
496.5373314082009
 30
0.0
  0
POINT
  5
D3E
330
867
100
AcDbEntity
  8
DEFPOINTS
 62
     0
100
AcDbPoint
 10
548.2120655822869
 20
519.7481088994162
 30
0.0
  0
ENDBLK
  5
872
330
867
100
AcDbEntity
  8
0
100
AcDbBlockEnd
  0
BLOCK
  5
AD4
330
ACA
100
AcDbEntity
  8
0
100
AcDbBlockBegin
  2
*D3
 70
     1
 10
0.0
 20
0.0
 30
0.0
  3
*D3
  1

  0
LINE
  5
D2D
330
ACA
100
AcDbEntity
  8
BEM
 62
     0
370
    -2
100
AcDbLine
 10
279.7120655822871
 20
275.6604370338189
 30
0.0
 11
256.6591191105473
 21
275.6604370338189
 31
0.0
  0
LINE
  5
D2E
330
ACA
100
AcDbEntity
  8
BEM
 62
     0
370
    -2
100
AcDbLine
 10
355.2120655822872
 20
508.5373314082009
 30
0.0
 11
256.6591191105473
 21
508.5373314082009
 31
0.0
  0
LINE
  5
D2F
330
ACA
100
AcDbEntity
  8
BEM
 62
     0
370
    -2
100
AcDbLine
 10
258.6591191105473
 20
282.6604370338189
 30
0.0
 11
258.6591191105473
 21
501.537331408201
 31
0.0
  0
SOLID
  5
D30
330
ACA
100
AcDbEntity
  8
BEM
 62
     0
100
AcDbTrace
 10
257.4924524438805
 20
282.6604370338189
 30
0.0
 11
259.8257857772139
 21
282.6604370338189
 31
0.0
 12
258.6591191105473
 22
275.6604370338189
 32
0.0
 13
258.6591191105473
 23
275.6604370338189
 33
0.0
  0
SOLID
  5
D31
330
ACA
100
AcDbEntity
  8
BEM
 62
     0
100
AcDbTrace
 10
257.4924524438806
 20
501.537331408201
 30
0.0
 11
259.825785777214
 21
501.537331408201
 31
0.0
 12
258.6591191105473
 22
508.5373314082009
 32
0.0
 13
258.6591191105473
 23
508.5373314082009
 33
0.0
  0
MTEXT
  5
D32
330
ACA
100
AcDbEntity
  8
BEM
 62
     1
100
AcDbMText
 10
252.1591191105472
 20
392.09888422101
 30
0.0
 40
7.0
 41
0.0
 71
     5
 72
     1
  1
\A1;233
 11
0.0000000000000001
 21
1.0
 31
0.0
 73
     1
 44
1.0
  0
POINT
  5
D33
330
ACA
100
AcDbEntity
  8
DEFPOINTS
 62
     0
100
AcDbPoint
 10
281.7120655822871
 20
275.6604370338189
 30
0.0
  0
POINT
  5
D34
330
ACA
100
AcDbEntity
  8
DEFPOINTS
 62
     0
100
AcDbPoint
 10
357.2120655822872
 20
508.5373314082009
 30
0.0
  0
POINT
  5
D35
330
ACA
100
AcDbEntity
  8
DEFPOINTS
 62
     0
100
AcDbPoint
 10
258.6591191105473
 20
508.5373314082009
 30
0.0
  0
ENDBLK
  5
AD5
330
ACA
100
AcDbEntity
  8
0
100
AcDbBlockEnd
  0
BLOCK
  5
AE0
330
AD6
100
AcDbEntity
  8
0
100
AcDbBlockBegin
  2
*D4
 70
     1
 10
0.0
 20
0.0
 30
0.0
  3
*D4
  1

  0
LINE
  5
D24
330
AD6
100
AcDbEntity
  8
BEM
 62
     0
370
    -2
100
AcDbLine
 10
281.7120655822871
 20
271.6604370338188
 30
0.0
 11
281.7120655822871
 21
187.2257701935945
 31
0.0
  0
LINE
  5
D25
330
AD6
100
AcDbEntity
  8
BEM
 62
     0
370
    -2
100
AcDbLine
 10
611.7120655822869
 20
271.6604370338189
 30
0.0
 11
611.7120655822869
 21
187.2257701935945
 31
0.0
  0
LINE
  5
D26
330
AD6
100
AcDbEntity
  8
BEM
 62
     0
370
    -2
100
AcDbLine
 10
288.7120655822871
 20
189.2257701935944
 30
0.0
 11
604.712065582287
 21
189.2257701935944
 31
0.0
  0
SOLID
  5
D27
330
AD6
100
AcDbEntity
  8
BEM
 62
     0
100
AcDbTrace
 10
288.7120655822871
 20
190.3924368602611
 30
0.0
 11
288.7120655822871
 21
188.0591035269278
 31
0.0
 12
281.7120655822871
 22
189.2257701935944
 32
0.0
 13
281.7120655822871
 23
189.2257701935944
 33
0.0
  0
SOLID
  5
D28
330
AD6
100
AcDbEntity
  8
BEM
 62
     0
100
AcDbTrace
 10
604.712065582287
 20
190.3924368602611
 30
0.0
 11
604.712065582287
 21
188.0591035269278
 31
0.0
 12
611.7120655822869
 22
189.2257701935944
 32
0.0
 13
611.7120655822869
 23
189.2257701935944
 33
0.0
  0
MTEXT
  5
D29
330
AD6
100
AcDbEntity
  8
BEM
 62
     1
100
AcDbMText
 10
446.712065582287
 20
195.7257701935945
 30
0.0
 40
7.0
 41
0.0
 71
     5
 72
     1
  1
\A1;%%c330
 73
     1
 44
1.0
  0
POINT
  5
D2A
330
AD6
100
AcDbEntity
  8
DEFPOINTS
 62
     0
100
AcDbPoint
 10
281.7120655822871
 20
273.6604370338188
 30
0.0
  0
POINT
  5
D2B
330
AD6
100
AcDbEntity
  8
DEFPOINTS
 62
     0
100
AcDbPoint
 10
611.7120655822869
 20
273.6604370338189
 30
0.0
  0
POINT
  5
D2C
330
AD6
100
AcDbEntity
  8
DEFPOINTS
 62
     0
100
AcDbPoint
 10
611.7120655822869
 20
189.2257701935944
 30
0.0
  0
ENDBLK
  5
AE1
330
AD6
100
AcDbEntity
  8
0
100
AcDbBlockEnd
  0
BLOCK
  5
AEE
330
AE2
100
AcDbEntity
  8
0
100
AcDbBlockBegin
  2
*D5
 70
     1
 10
0.0
 20
0.0
 30
0.0
  3
*D5
  1

  0
LINE
  5
D19
330
AE2
100
AcDbEntity
  8
BEM
 62
     0
370
    -2
100
AcDbLine
 10
613.7120655822871
 20
275.6604370338189
 30
0.0
 11
642.497819493631
 21
275.6604370338189
 31
0.0
  0
LINE
  5
D1A
330
AE2
100
AcDbEntity
  8
BEM
 62
     0
370
    -2
100
AcDbLine
 10
529.2120655822872
 20
258.6604370338189
 30
0.0
 11
642.497819493631
 21
258.6604370338189
 31
0.0
  0
LINE
  5
D1B
330
AE2
100
AcDbEntity
  8
BEM
 62
     0
370
    -2
100
AcDbLine
 10
640.497819493631
 20
282.6604370338189
 30
0.0
 11
640.497819493631
 21
289.6604370338189
 31
0.0
  0
LINE
  5
D1C
330
AE2
100
AcDbEntity
  8
BEM
 62
     0
370
    -2
100
AcDbLine
 10
640.4978194936309
 20
251.6604370338189
 30
0.0
 11
640.4978194936309
 21
244.6604370338189
 31
0.0
  0
LINE
  5
D1D
330
AE2
100
AcDbEntity
  8
BEM
 62
     0
370
    -2
100
AcDbLine
 10
640.497819493631
 20
275.6604370338189
 30
0.0
 11
640.497819493631
 21
258.6604370338189
 31
0.0
  0
SOLID
  5
D1E
330
AE2
100
AcDbEntity
  8
BEM
 62
     0
100
AcDbTrace
 10
639.3311528269643
 20
282.660437033819
 30
0.0
 11
641.6644861602976
 21
282.6604370338189
 31
0.0
 12
640.497819493631
 22
275.6604370338189
 32
0.0
 13
640.497819493631
 23
275.6604370338189
 33
0.0
  0
SOLID
  5
D1F
330
AE2
100
AcDbEntity
  8
BEM
 62
     0
100
AcDbTrace
 10
639.3311528269642
 20
251.6604370338189
 30
0.0
 11
641.6644861602975
 21
251.6604370338189
 31
0.0
 12
640.497819493631
 22
258.6604370338189
 32
0.0
 13
640.497819493631
 23
258.6604370338189
 33
0.0
  0
MTEXT
  5
D20
330
AE2
100
AcDbEntity
  8
BEM
 62
     1
100
AcDbMText
 10
633.9978194936309
 20
267.160437033819
 30
0.0
 40
7.0
 41
0.0
 71
     5
 72
     1
  1
\A1;17
 11
0.0000000000000001
 21
1.0
 31
0.0
 73
     1
 44
1.0
  0
POINT
  5
D21
330
AE2
100
AcDbEntity
  8
DEFPOINTS
 62
     0
100
AcDbPoint
 10
611.7120655822872
 20
275.6604370338189
 30
0.0
  0
POINT
  5
D22
330
AE2
100
AcDbEntity
  8
DEFPOINTS
 62
     0
100
AcDbPoint
 10
527.2120655822872
 20
258.6604370338189
 30
0.0
  0
POINT
  5
D23
330
AE2
100
AcDbEntity
  8
DEFPOINTS
 62
     0
100
AcDbPoint
 10
640.497819493631
 20
258.6604370338189
 30
0.0
  0
ENDBLK
  5
AEF
330
AE2
100
AcDbEntity
  8
0
100
AcDbBlockEnd
  0
BLOCK
  5
BAF
330
BA5
100
AcDbEntity
  8
0
100
AcDbBlockBegin
  2
*D6
 70
     1
 10
0.0
 20
0.0
 30
0.0
  3
*D6
  1

  0
LINE
  5
D10
330
BA5
100
AcDbEntity
  8
BEM
 62
     0
370
    -2
100
AcDbLine
 10
364.212065582287
 20
258.6604370338188
 30
0.0
 11
240.013993140723
 21
258.6604370338188
 31
0.0
  0
LINE
  5
D11
330
BA5
100
AcDbEntity
  8
BEM
 62
     0
370
    -2
100
AcDbLine
 10
355.212065582287
 20
508.5373314082011
 30
0.0
 11
240.0139931407231
 21
508.5373314082011
 31
0.0
  0
LINE
  5
D12
330
BA5
100
AcDbEntity
  8
BEM
 62
     0
370
    -2
100
AcDbLine
 10
242.013993140723
 20
265.6604370338188
 30
0.0
 11
242.0139931407231
 21
501.5373314082011
 31
0.0
  0
SOLID
  5
D13
330
BA5
100
AcDbEntity
  8
BEM
 62
     0
100
AcDbTrace
 10
240.8473264740564
 20
265.6604370338188
 30
0.0
 11
243.1806598073897
 21
265.6604370338188
 31
0.0
 12
242.013993140723
 22
258.6604370338188
 32
0.0
 13
242.013993140723
 23
258.6604370338188
 33
0.0
  0
SOLID
  5
D14
330
BA5
100
AcDbEntity
  8
BEM
 62
     0
100
AcDbTrace
 10
240.8473264740564
 20
501.5373314082011
 30
0.0
 11
243.1806598073897
 21
501.5373314082011
 31
0.0
 12
242.0139931407231
 22
508.5373314082011
 32
0.0
 13
242.0139931407231
 23
508.5373314082011
 33
0.0
  0
MTEXT
  5
D15
330
BA5
100
AcDbEntity
  8
BEM
 62
     1
100
AcDbMText
 10
235.513993140723
 20
383.5988842210101
 30
0.0
 40
7.0
 41
0.0
 71
     5
 72
     1
  1
\A1;250
 11
0.0000000000000001
 21
1.0
 31
0.0
 73
     1
 44
1.0
  0
POINT
  5
D16
330
BA5
100
AcDbEntity
  8
DEFPOINTS
 62
     0
100
AcDbPoint
 10
366.212065582287
 20
258.6604370338188
 30
0.0
  0
POINT
  5
D17
330
BA5
100
AcDbEntity
  8
DEFPOINTS
 62
     0
100
AcDbPoint
 10
357.212065582287
 20
508.5373314082011
 30
0.0
  0
POINT
  5
D18
330
BA5
100
AcDbEntity
  8
DEFPOINTS
 62
     0
100
AcDbPoint
 10
242.0139931407231
 20
508.5373314082011
 30
0.0
  0
ENDBLK
  5
BB0
330
BA5
100
AcDbEntity
  8
0
100
AcDbBlockEnd
  0
BLOCK
  5
C28
330
C1E
100
AcDbEntity
  8
0
100
AcDbBlockBegin
  2
*D7
 70
     1
 10
0.0
 20
0.0
 30
0.0
  3
*D7
  1

  0
LINE
  5
D07
330
C1E
100
AcDbEntity
  8
BEM
 62
     0
370
    -2
100
AcDbLine
 10
376.712065582287
 20
265.8053838059965
 30
0.0
 11
376.712065582287
 21
217.2143377608686
 31
0.0
  0
LINE
  5
D08
330
C1E
100
AcDbEntity
  8
BEM
 62
     0
370
    -2
100
AcDbLine
 10
516.7120655822869
 20
265.8053838059964
 30
0.0
 11
516.7120655822869
 21
217.2143377608686
 31
0.0
  0
LINE
  5
D09
330
C1E
100
AcDbEntity
  8
BEM
 62
     0
370
    -2
100
AcDbLine
 10
383.712065582287
 20
219.2143377608686
 30
0.0
 11
509.712065582287
 21
219.2143377608686
 31
0.0
  0
SOLID
  5
D0A
330
C1E
100
AcDbEntity
  8
BEM
 62
     0
100
AcDbTrace
 10
383.712065582287
 20
220.3810044275352
 30
0.0
 11
383.712065582287
 21
218.047671094202
 31
0.0
 12
376.712065582287
 22
219.2143377608686
 32
0.0
 13
376.712065582287
 23
219.2143377608686
 33
0.0
  0
SOLID
  5
D0B
330
C1E
100
AcDbEntity
  8
BEM
 62
     0
100
AcDbTrace
 10
509.712065582287
 20
220.3810044275352
 30
0.0
 11
509.712065582287
 21
218.047671094202
 31
0.0
 12
516.7120655822869
 22
219.2143377608686
 32
0.0
 13
516.7120655822869
 23
219.2143377608686
 33
0.0
  0
MTEXT
  5
D0C
330
C1E
100
AcDbEntity
  8
BEM
 62
     1
100
AcDbMText
 10
446.712065582287
 20
225.7143377608686
 30
0.0
 40
7.0
 41
0.0
 71
     5
 72
     1
  1
\A1;%%c140
 73
     1
 44
1.0
  0
POINT
  5
D0D
330
C1E
100
AcDbEntity
  8
DEFPOINTS
 62
     0
100
AcDbPoint
 10
376.712065582287
 20
267.8053838059965
 30
0.0
  0
POINT
  5
D0E
330
C1E
100
AcDbEntity
  8
DEFPOINTS
 62
     0
100
AcDbPoint
 10
516.7120655822869
 20
267.8053838059964
 30
0.0
  0
POINT
  5
D0F
330
C1E
100
AcDbEntity
  8
DEFPOINTS
 62
     0
100
AcDbPoint
 10
516.7120655822869
 20
219.2143377608686
 30
0.0
  0
ENDBLK
  5
C29
330
C1E
100
AcDbEntity
  8
0
100
AcDbBlockEnd
  0
BLOCK
  5
C88
330
C7E
100
AcDbEntity
  8
0
100
AcDbBlockBegin
  2
*D8
 70
     1
 10
0.0
 20
0.0
 30
0.0
  3
*D8
  1

  0
LINE
  5
CFE
330
C7E
100
AcDbEntity
  8
BEM
 62
     0
370
    -2
100
AcDbLine
 10
527.2120655822872
 20
256.6604370338189
 30
0.0
 11
527.2120655822872
 21
202.8341032958518
 31
0.0
  0
LINE
  5
CFF
330
C7E
100
AcDbEntity
  8
BEM
 62
     0
370
    -2
100
AcDbLine
 10
366.212065582287
 20
256.6604370338188
 30
0.0
 11
366.212065582287
 21
202.8341032958518
 31
0.0
  0
LINE
  5
D00
330
C7E
100
AcDbEntity
  8
BEM
 62
     0
370
    -2
100
AcDbLine
 10
520.2120655822872
 20
204.8341032958518
 30
0.0
 11
373.212065582287
 21
204.8341032958518
 31
0.0
  0
SOLID
  5
D01
330
C7E
100
AcDbEntity
  8
BEM
 62
     0
100
AcDbTrace
 10
520.2120655822872
 20
206.0007699625185
 30
0.0
 11
520.2120655822872
 21
203.6674366291852
 31
0.0
 12
527.2120655822872
 22
204.8341032958518
 32
0.0
 13
527.2120655822872
 23
204.8341032958518
 33
0.0
  0
SOLID
  5
D02
330
C7E
100
AcDbEntity
  8
BEM
 62
     0
100
AcDbTrace
 10
373.212065582287
 20
206.0007699625185
 30
0.0
 11
373.212065582287
 21
203.6674366291852
 31
0.0
 12
366.212065582287
 22
204.8341032958518
 32
0.0
 13
366.212065582287
 23
204.8341032958518
 33
0.0
  0
MTEXT
  5
D03
330
C7E
100
AcDbEntity
  8
BEM
 62
     1
100
AcDbMText
 10
446.7120655822871
 20
211.3341032958518
 30
0.0
 40
7.0
 41
0.0
 71
     5
 72
     1
  1
\A1;%%c161
 73
     1
 44
1.0
  0
POINT
  5
D04
330
C7E
100
AcDbEntity
  8
DEFPOINTS
 62
     0
100
AcDbPoint
 10
527.2120655822872
 20
258.6604370338189
 30
0.0
  0
POINT
  5
D05
330
C7E
100
AcDbEntity
  8
DEFPOINTS
 62
     0
100
AcDbPoint
 10
366.212065582287
 20
258.6604370338188
 30
0.0
  0
POINT
  5
D06
330
C7E
100
AcDbEntity
  8
DEFPOINTS
 62
     0
100
AcDbPoint
 10
366.212065582287
 20
204.8341032958518
 30
0.0
  0
ENDBLK
  5
C89
330
C7E
100
AcDbEntity
  8
0
100
AcDbBlockEnd
  0
ENDSEC
  0
SECTION
  2
ENTITIES
  0
LINE
  5
58
330
1E
100
AcDbEntity
  8
STEMPEL
100
AcDbLine
 10
830.0000000000002
 20
110.0
 30
0.0
 11
470.0000000000001
 21
110.0
 31
0.0
  0
LINE
  5
59
330
1E
100
AcDbEntity
  8
STEMPEL
100
AcDbLine
 10
470.0000000000001
 20
110.0
 30
0.0
 11
470.0000000000001
 21
10.0
 31
0.0
  0
LINE
  5
5A
330
1E
100
AcDbEntity
  8
STEMPEL
100
AcDbLine
 10
566.0000000000002
 20
109.9999999999999
 30
0.0
 11
566.0000000000001
 21
9.999999999999886
 31
0.0
  0
LINE
  5
5B
330
1E
100
AcDbEntity
  8
STEMPEL
100
AcDbLine
 10
650.0
 20
110.0
 30
0.0
 11
650.0
 21
10.0
 31
0.0
  0
LINE
  5
5C
330
1E
100
AcDbEntity
  8
STEMPEL
100
AcDbLine
 10
752.0000000000002
 20
109.9999999999997
 30
0.0
 11
752.0000000000002
 21
40.0
 31
0.0
  0
LINE
  5
5D
330
1E
100
AcDbEntity
  8
STEMPEL
100
AcDbLine
 10
566.0
 20
30.0
 30
0.0
 11
470.0000000000001
 21
30.0
 31
0.0
  0
LINE
  5
5E
330
1E
100
AcDbEntity
  8
STEMPEL
100
AcDbLine
 10
830.0000000000002
 20
40.0
 30
0.0
 11
566.0000000000001
 21
40.0
 31
0.0
  0
LINE
  5
5F
330
1E
100
AcDbEntity
  8
STEMPEL
100
AcDbLine
 10
830.0000000000002
 20
80.0
 30
0.0
 11
566.0000000000002
 21
80.0
 31
0.0
  0
LINE
  5
60
330
1E
100
AcDbEntity
  8
VOLL
100
AcDbLine
 10
484.0000000000002
 20
110.0
 30
0.0
 11
484.0000000000001
 21
9.999999999999985
 31
0.0
  0
LINE
  5
61
330
1E
100
AcDbEntity
  8
VOLL
100
AcDbLine
 10
524.0000000000001
 20
109.9999999999999
 30
0.0
 11
524.0000000000001
 21
9.999999999999943
 31
0.0
  0
LINE
  5
62
330
1E
100
AcDbEntity
  8
VOLL
100
AcDbLine
 10
544.0000000000002
 20
109.9999999999999
 30
0.0
 11
544.0000000000001
 21
9.999999999999914
 31
0.0
  0
LINE
  5
63
330
1E
100
AcDbEntity
  8
VOLL
100
AcDbLine
 10
584.0000000000002
 20
80.0
 30
0.0
 11
584.0000000000002
 21
40.0
 31
0.0
  0
LINE
  5
64
330
1E
100
AcDbEntity
  8
VOLL
100
AcDbLine
 10
610.0000000000002
 20
109.9999999999998
 30
0.0
 11
610.0000000000001
 21
40.0
 31
0.0
  0
LINE
  5
65
330
1E
100
AcDbEntity
  8
HILF
100
AcDbLine
 10
470.0000000000001
 20
100.0
 30
0.0
 11
566.0000000000002
 21
100.0
 31
0.0
  0
LINE
  5
66
330
1E
100
AcDbEntity
  8
HILF
100
AcDbLine
 10
470.0000000000001
 20
90.0
 30
0.0
 11
566.0000000000002
 21
90.0
 31
0.0
  0
LINE
  5
67
330
1E
100
AcDbEntity
  8
HILF
100
AcDbLine
 10
470.0000000000001
 20
80.0
 30
0.0
 11
566.0000000000002
 21
80.0
 31
0.0
  0
LINE
  5
68
330
1E
100
AcDbEntity
  8
HILF
100
AcDbLine
 10
470.0000000000001
 20
70.0
 30
0.0
 11
566.0000000000002
 21
70.0
 31
0.0
  0
LINE
  5
69
330
1E
100
AcDbEntity
  8
HILF
100
AcDbLine
 10
470.0000000000001
 20
60.0
 30
0.0
 11
566.0000000000002
 21
60.0
 31
0.0
  0
LINE
  5
6A
330
1E
100
AcDbEntity
  8
HILF
100
AcDbLine
 10
470.0000000000001
 20
50.0
 30
0.0
 11
566.0000000000002
 21
50.0
 31
0.0
  0
LINE
  5
6B
330
1E
100
AcDbEntity
  8
HILF
100
AcDbLine
 10
470.0000000000001
 20
40.0
 30
0.0
 11
566.0000000000002
 21
40.0
 31
0.0
  0
LINE
  5
6C
330
1E
100
AcDbEntity
  8
HILF
100
AcDbLine
 10
566.0000000000002
 20
70.0
 30
0.0
 11
650.0
 21
70.0
 31
0.0
  0
LINE
  5
6D
330
1E
100
AcDbEntity
  8
HILF
100
AcDbLine
 10
566.0000000000002
 20
60.0
 30
0.0
 11
650.0
 21
60.0
 31
0.0
  0
LINE
  5
6E
330
1E
100
AcDbEntity
  8
HILF
100
AcDbLine
 10
566.0000000000002
 20
50.0
 30
0.0
 11
650.0
 21
50.0
 31
0.0
  0
LINE
  5
6F
330
1E
100
AcDbEntity
  8
HILF
100
AcDbLine
 10
654.7736801096948
 20
84.03758247564136
 30
0.0
 11
746.6297842514811
 21
84.03758247564136
 31
0.0
  0
LINE
  5
70
330
1E
100
AcDbEntity
  8
HILF
100
AcDbLine
 10
654.7736801096948
 20
70.0
 30
0.0
 11
746.6297842514811
 21
70.0
 31
0.0
  0
LINE
  5
71
330
1E
100
AcDbEntity
  8
HILF
100
AcDbLine
 10
654.7736801096948
 20
60.0
 30
0.0
 11
746.6297842514811
 21
60.0
 31
0.0
  0
LINE
  5
72
330
1E
100
AcDbEntity
  8
HILF
100
AcDbLine
 10
654.7736801096948
 20
50.0
 30
0.0
 11
746.6297842514811
 21
50.0
 31
0.0
  0
LINE
  5
73
330
1E
100
AcDbEntity
  8
VOLL
100
AcDbLine
 10
752.0000000000002
 20
60.0
 30
0.0
 11
830.0000000000002
 21
60.0
 31
0.0
  0
LINE
  5
74
330
1E
100
AcDbEntity
  8
HILF
100
AcDbLine
 10
756.7238616296995
 20
83.77983636955823
 30
0.0
 11
824.858883932673
 21
83.77983636955823
 31
0.0
  0
LINE
  5
75
330
1E
100
AcDbEntity
  8
HILF
100
AcDbLine
 10
654.7736801096948
 20
14.89398258028305
 30
0.0
 11
824.858883932673
 21
14.89398258028305
 31
0.0
  0
TEXT
  5
76
330
1E
100
AcDbEntity
  8
TEXT
100
AcDbText
 10
492.3998239263297
 20
18.67381894984129
 30
0.0
 40
4.0
  1
Änderung
 41
0.8
  7
GREEKS
 72
     1
 11
503.1426810691868
 21
18.67381894984129
 31
0.0
100
AcDbText
  0
TEXT
  5
78
330
1E
100
AcDbEntity
  8
TEXT
100
AcDbText
 10
573.5163572150378
 20
102.4620895087088
 30
0.0
 40
5.0
  1
Maßstab
 41
0.8
  7
GREEKS
100
AcDbText
  0
TEXT
  5
79
330
1E
100
AcDbEntity
  8
TEXT
100
AcDbText
 10
654.8779403809011
 20
102.5489328011779
 30
0.0
 40
5.0
  1
Benennung
 41
0.8
  7
GREEKS
100
AcDbText
  0
TEXT
  5
7A
330
1E
100
AcDbEntity
  8
TEXT
100
AcDbText
 10
756.1787549576343
 20
102.3132034537135
 30
0.0
 40
5.0
  1
Zeichnungs Nr.
 41
0.8
  7
GREEKS
100
AcDbText
  0
TEXT
  5
7B
330
1E
100
AcDbEntity
  8
TEXT
100
AcDbText
 10
654.742238391136
 20
30.84560570193055
 30
0.0
 40
5.0
  1
Bauvorhaben
 41
0.8
  7
GREEKS
100
AcDbText
  0
TEXT
  5
7C
330
1E
100
AcDbEntity
  8
TEXT
100
AcDbText
 10
756.7238616296995
 20
73.18118237099965
 30
0.0
 40
5.0
  1
Ersatz für:
 41
0.8
  7
GREEKS
100
AcDbText
  0
TEXT
  5
7D
330
1E
100
AcDbEntity
  8
TEXT
100
AcDbText
 10
478.2664110704577
 20
13.65465846027187
 30
0.0
 40
4.0
  1
Index
 50
90.0
 41
0.8
  7
GREEKS
100
AcDbText
  0
TEXT
  5
7E
330
1E
100
AcDbEntity
  8
TEXT
100
AcDbText
 10
529.8990113186979
 20
18.67156269339808
 30
0.0
 40
4.0
  1
Tag
 41
0.8
  7
GREEKS
 72
     1
 11
533.6323446520313
 21
18.67156269339808
 31
0.0
100
AcDbText
  0
TEXT
  5
7F
330
1E
100
AcDbEntity
  8
TEXT
100
AcDbText
 10
548.9795678138293
 20
18.59324216966404
 30
0.0
 40
4.0
  1
Name
 41
0.8
  7
GREEKS
 72
     1
 11
555.3033773376388
 21
18.59324216966404
 31
0.0
100
AcDbText
  0
TEXT
  5
80
330
1E
100
AcDbEntity
  8
TEXT
100
AcDbText
 10
592.3311673153651
 20
73.31880501229919
 30
0.0
 40
4.0
  1
Tag
 41
0.8
  7
GREEKS
100
AcDbText
  0
TEXT
  5
81
330
1E
100
AcDbEntity
  8
TEXT
100
AcDbText
 10
622.4626584226296
 20
73.3096109191522
 30
0.0
 40
4.0
  1
Name
 41
0.8
  7
GREEKS
100
AcDbText
  0
TEXT
  5
82
330
1E
100
AcDbEntity
  8
TEXT
100
AcDbText
 10
567.5836127167616
 20
63.62990369617961
 30
0.0
 40
4.0
  1
Gez.
 41
0.8
  7
GREEKS
100
AcDbText
  0
TEXT
  5
83
330
1E
100
AcDbEntity
  8
TEXT
100
AcDbText
 10
567.5515086571673
 20
53.68926291428373
 30
0.0
 40
4.0
  1
Gepr.
 41
0.8
  7
GREEKS
100
AcDbText
  0
TEXT
  5
84
330
1E
100
AcDbEntity
  8
TEXT
100
AcDbText
 10
567.6006777387304
 20
43.52946389649804
 30
0.0
 40
4.0
  1
Norm.
 41
0.8
  7
GREEKS
100
AcDbText
  0
TEXT
  5
85
330
1E
100
AcDbEntity
  8
TEXT
100
AcDbText
 10
757.2400861497007
 20
52.07416177878596
 30
0.0
 40
5.0
  1
ersetzt durch:
 41
0.8
  7
GREEKS
100
AcDbText
  0
TEXT
  5
86
330
1E
100
AcDbEntity
  8
TEXT
100
AcDbText
 10
568.8693027807324
 20
72.96682596523723
 30
0.0
 40
4.0
  1
2007
 41
0.8
  7
GREEKS
100
AcDbText
  0
LINE
  5
87
330
1E
100
AcDbEntity
  8
HILF
100
AcDbLine
 10
0.0
 20
0.0
 30
0.0
 11
840.0
 21
0.0
 31
0.0
  0
LINE
  5
88
330
1E
100
AcDbEntity
  8
HILF
100
AcDbLine
 10
840.0
 20
0.0
 30
0.0
 11
840.0
 21
594.0
 31
0.0
  0
LINE
  5
89
330
1E
100
AcDbEntity
  8
HILF
100
AcDbLine
 10
840.0
 20
594.0
 30
0.0
 11
0.0
 21
594.0
 31
0.0
  0
LINE
  5
8B
330
1E
100
AcDbEntity
  8
STEMPEL
100
AcDbLine
 10
830.0
 20
584.0
 30
0.0
 11
40.0
 21
584.0
 31
0.0
  0
LINE
  5
8D
330
1E
100
AcDbEntity
  8
STEMPEL
100
AcDbLine
 10
40.0
 20
10.0
 30
0.0
 11
830.0
 21
10.0
 31
0.0
  0
LINE
  5
8E
330
1E
100
AcDbEntity
  8
STEMPEL
100
AcDbLine
 10
830.0
 20
10.0
 30
0.0
 11
830.0
 21
584.0
 31
0.0
  0
TEXT
  5
8F
330
1E
100
AcDbEntity
  8
TEXT
 62
     1
100
AcDbText
 10
655.0390572473189
 20
87.37343075652544
 30
0.0
 40
7.0
  1
Siebeinheit DN125
 41
0.8
  7
GREEKS
100
AcDbText
  0
TEXT
  5
90
330
1E
100
AcDbEntity
  8
TEXT
 62
     1
100
AcDbText
 10
767.7294755517469
 20
87.37343075652544
 30
0.0
 40
7.0
  1
17137125W
 41
0.8
  7
GREEKS
 72
     1
 11
790.1294755517469
 21
87.37343075652544
 31
0.0
100
AcDbText
  0
TEXT
  5
91
330
1E
100
AcDbEntity
  8
TEXT
100
AcDbText
 10
618.509022641583
 20
102.83989611379
 30
0.0
 40
5.0
  1
Zul.Abw.
 41
0.8
  7
GREEKS
100
AcDbText
  0
TEXT
  5
93
330
1E
100
AcDbEntity
  8
TEXT
100
AcDbText
 10
590.7660475607107
 20
63.1508587612022
 30
0.0
 40
4.0
  1
11.06.
 41
0.8
  7
GREEKS
 72
     1
 11
597.1660475607107
 21
63.1508587612022
 31
0.0
100
AcDbText
  0
TEXT
  5
94
330
1E
100
AcDbEntity
  8
TEXT
100
AcDbText
 10
624.023175322661
 20
62.94297655165468
 30
0.0
 40
4.0
  1
Koeh
 41
0.8
  7
GREEKS
 72
     1
 11
629.2803181798038
 21
62.94297655165468
 31
0.0
100
AcDbText
  0
TEXT
  5
95
330
1E
100
AcDbEntity
  8
TEXT
100
AcDbText
 10
654.3410940884992
 20
72.10021383107525
 30
0.0
 40
5.0
  1
für Naßdach H=230mm
 41
0.8
  7
GREEKS
100
AcDbText
  0
TEXT
  5
97
330
1E
100
AcDbEntity
  8
TEXT
100
AcDbText
 10
654.3410940884992
 20
52.59097337846058
 30
0.0
 40
5.0
  1
EDV-Art.Nr. 17137.125A
 41
0.8
  7
GREEKS
100
AcDbText
  0
TEXT
  5
98
330
1E
100
AcDbEntity
  8
TEXT
100
AcDbText
 10
654.1676050109348
 20
43.31127624791508
 30
0.0
 40
4.0
  1
17137125W.DWG
 41
0.8
  7
GREEKS
100
AcDbText
  0
TEXT
  5
99
330
1E
100
AcDbEntity
  8
TEXT
 62
     1
100
AcDbText
 10
582.7034912034222
 20
87.47077088414977
 30
0.0
 40
7.0
  1
1:2
 41
0.8
  7
GREEKS
100
AcDbText
  0
TEXT
  5
9A
330
1E
100
AcDbEntity
  8
TEXT
100
AcDbText
 10
470.0441139350127
 20
114.1143585051043
 30
0.0
 40
5.0
  1
Erstellt mit AUTOCAD 2004
 41
0.8
  7
GREEKS
100
AcDbText
  0
INSERT
  5
9B
330
1E
100
AcDbEntity
  8
HILF
100
AcDbBlockReference
  2
LORO
 10
573.0624985962354
 20
36.9805930029896
 30
0.0
 41
2.0
 42
2.0
 43
2.0
  0
LINE
  5
9C
330
1E
100
AcDbEntity
  8
BEM
100
AcDbLine
 10
456.0
 20
0.0
 30
0.0
 11
456.0
 21
10.0
 31
0.0
  0
LINE
  5
13E
330
1E
100
AcDbEntity
  8
HILF
100
AcDbLine
 10
0.0
 20
0.0
 30
0.0
 11
0.0
 21
594.0
 31
0.0
  0
LINE
  5
13F
330
1E
100
AcDbEntity
  8
STEMPEL
100
AcDbLine
 10
40.0
 20
10.0
 30
0.0
 11
40.0
 21
584.0
 31
0.0
  0
LINE
  5
14A
330
1E
100
AcDbEntity
  8
HILF
100
AcDbLine
 10
0.0
 20
297.0
 30
0.0
 11
40.0
 21
297.0
 31
0.0
  0
TEXT
  5
15B
330
1E
100
AcDbEntity
  8
BEM
100
AcDbText
 10
837.3022923857165
 20
10.16790107998861
 30
0.0
 40
4.0
  1
Diese Zeichnung ist urheberrechtlich geschützt und bleibt unser Eigentum. Sie darf weder ganz noch teilweise verfielfältigt und nicht an Dritte weitergegeben werden.
 50
90.0
 41
0.8
  7
GREEKS
100
AcDbText
  0
LINE
  5
412
330
1E
100
AcDbEntity
  8
TEXT
 62
     2
100
AcDbLine
 10
546.6207939698399
 20
496.6869592861614
 30
0.0
 11
614.7006548126474
 21
505.5307306545653
 31
0.0
  0
TEXT
  5
415
330
1E
100
AcDbEntity
  8
TEXT
 62
     1
100
AcDbText
 10
616.503732557935
 20
509.0307306545652
 30
0.0
 40
7.0
  1
Siebdeckel
 41
0.8
  7
GREEKS
 11
616.503732557935
 21
512.5307306545653
 31
0.0
100
AcDbText
 73
     2
  0
TEXT
  5
416
330
1E
100
AcDbEntity
  8
TEXT
 62
     1
100
AcDbText
 10
616.503732557935
 20
495.5760840885359
 30
0.0
 40
7.0
  1
EDV-Art.Nr. 17112.000A
 41
0.8
  7
GREEKS
 11
616.503732557935
 21
499.0760840885359
 31
0.0
100
AcDbText
 73
     2
  0
LINE
  5
417
330
1E
100
AcDbEntity
  8
TEXT
 62
     2
100
AcDbLine
 10
614.7006548126474
 20
505.5307306545653
 30
0.0
 11
720.1655228219199
 21
505.5307306545653
 31
0.0
  0
TEXT
  5
683
330
1E
100
AcDbEntity
  8
TEXT
100
AcDbText
 10
612.2898419893276
 20
88.99279565650221
 30
0.0
 40
4.0
  1
DIN EN1123-2
 41
0.8
  7
GREEKS
 72
     1
 11
629.2803181798038
 21
88.99279565650221
 31
0.0
100
AcDbText
  0
DIMENSION
  5
866
330
1E
100
AcDbEntity
  8
BEM
100
AcDbDimension
  2
*D2
 10
548.2120655822869
 20
519.7481088994162
 30
0.0
 11
446.712065582287
 21
526.2481088994162
 31
0.0
 70
    32
  1
%%c<>
 71
     5
 42
203.0
  3
Standard
100
AcDbAlignedDimension
 13
345.212065582287
 23
496.5373314082009
 33
0.0
 14
548.2120655822869
 24
496.5373314082009
 34
0.0
100
AcDbRotatedDimension
1001
ACAD
1000
DSTYLE
1002
{
1070
    40
1040
2.0
1070
    41
1040
3.5
1070
    42
1040
1.0
1070
    43
1040
7.0
1070
    44
1040
1.0
1070
    73
1070
     0
1070
    74
1070
     0
1070
    77
1070
     1
1070
    78
1070
     8
1070
    79
1070
     2
1070
   140
1040
3.5
1070
   141
1040
1.5
1070
   146
1040
0.5142857142857144
1070
   147
1040
1.5
1070
   172
1070
     1
1070
   178
1070
     1
1070
   179
1070
     2
1070
   271
1070
     2
1070
   272
1070
     2
1070
   284
1070
     8
1070
   285
1070
     8
1070
   286
1070
     8
1002
}
  0
LINE
  5
87C
330
1E
100
AcDbEntity
  8
TEXT
 62
     2
100
AcDbLine
 10
614.7006548126474
 20
412.7082259793212
 30
0.0
 11
720.1655228219199
 21
412.7082259793212
 31
0.0
  0
TEXT
  5
87D
330
1E
100
AcDbEntity
  8
TEXT
 62
     1
100
AcDbText
 10
616.503732557935
 20
402.7535794132918
 30
0.0
 40
7.0
  1
EDV-Art.Nr. 17119.125A
 41
0.8
  7
GREEKS
 11
616.503732557935
 21
406.2535794132918
 31
0.0
100
AcDbText
 73
     2
  0
TEXT
  5
87E
330
1E
100
AcDbEntity
  8
TEXT
 62
     1
100
AcDbText
 10
616.503732557935
 20
416.2082259793212
 30
0.0
 40
7.0
  1
Stauelement DN125
 41
0.8
  7
GREEKS
 11
616.503732557935
 21
419.7082259793212
 31
0.0
100
AcDbText
 73
     2
  0
LINE
  5
87F
330
1E
100
AcDbEntity
  8
TEXT
 62
     2
100
AcDbLine
 10
511.9465043310736
 20
403.8644546109172
 30
0.0
 11
614.7006548126474
 21
412.7082259793212
 31
0.0
  0
LINE
  5
880
330
1E
100
AcDbEntity
  8
TEXT
 62
     2
100
AcDbLine
 10
544.05517635207
 20
333.6065364760322
 30
0.0
 11
614.7006548126474
 21
351.6812757004282
 31
0.0
  0
TEXT
  5
881
330
1E
100
AcDbEntity
  8
TEXT
 62
     1
100
AcDbText
 10
616.503732557935
 20
355.1812757004281
 30
0.0
 40
7.0
  1
Siebkorb DN125
 41
0.8
  7
GREEKS
 11
616.503732557935
 21
358.6812757004282
 31
0.0
100
AcDbText
 73
     2
  0
TEXT
  5
882
330
1E
100
AcDbEntity
  8
TEXT
 62
     1
100
AcDbText
 10
616.503732557935
 20
341.7266291343988
 30
0.0
 40
7.0
  1
EDV-Art.Nr. 17118.125A
 41
0.8
  7
GREEKS
 11
616.503732557935
 21
345.2266291343988
 31
0.0
100
AcDbText
 73
     2
  0
LINE
  5
883
330
1E
100
AcDbEntity
  8
TEXT
 62
     2
100
AcDbLine
 10
614.7006548126474
 20
351.6812757004282
 30
0.0
 11
720.1655228219199
 21
351.6812757004282
 31
0.0
  0
HATCH
  5
9C7
330
1E
100
AcDbEntity
  8
SCHRAFF
100
AcDbHatch
 10
0.0
 20
0.0
 30
0.0
210
0.0
220
0.0
230
1.0
  2
_USER
 70
     0
 71
     1
 91
       30
 92
        7
 72
     0
 73
     1
 93
        4
 10
544.2120655822868
 20
500.6604370338181
 10
541.2120655822869
 20
500.660437033818
 10
541.2120655822869
 20
495.6604370338186
 10
544.2120655822869
 20
495.6604370338186
 97
        4
330
ABB
330
AC9
330
AC3
330
AC8
 92
        7
 72
     0
 73
     1
 93
        4
 10
541.2120655822869
 20
480.6604370338186
 10
544.2120655822869
 20
480.6604370338185
 10
544.2120655822869
 20
485.6604370338186
 10
541.2120655822869
 20
485.6604370338185
 97
        4
330
AC4
330
9F2
330
AB1
330
9F3
 92
        7
 72
     0
 73
     1
 93
        4
 10
544.2120655822869
 20
470.6604370338186
 10
541.2120655822869
 20
470.6604370338186
 10
541.2120655822869
 20
465.6604370338185
 10
544.2120655822869
 20
465.6604370338185
 97
        4
330
AB2
330
AB8
330
AB3
330
AB7
 92
        7
 72
     0
 73
     1
 93
        4
 10
544.2120655822869
 20
450.6604370338186
 10
544.2120655822869
 20
455.6604370338186
 10
541.2120655822869
 20
455.6604370338187
 10
541.2120655822869
 20
450.6604370338186
 97
        4
330
AAA
330
AB0
330
AA9
330
AAF
 92
        7
 72
     0
 73
     1
 93
        4
 10
541.2120655822869
 20
435.6604370338187
 10
544.2120655822869
 20
435.6604370338188
 10
544.2120655822868
 20
440.6604370338187
 10
541.2120655822869
 20
440.6604370338187
 97
        4
330
AAB
330
A8F
330
A9E
330
A8E
 92
        7
 72
     0
 73
     1
 93
        4
 10
541.2120655822869
 20
420.6604370338188
 10
544.2120655822869
 20
420.6604370338187
 10
544.2120655822869
 20
425.6604370338187
 10
541.2120655822869
 20
425.6604370338187
 97
        4
330
AA0
330
AA5
330
A9F
330
AA4
 92
        7
 72
     0
 73
     1
 93
        4
 10
544.2120655822869
 20
410.6604370338188
 10
541.2120655822869
 20
410.6604370338188
 10
541.2120655822869
 20
405.6604370338186
 10
544.2120655822869
 20
405.6604370338188
 97
        4
330
A94
330
A9D
330
A93
330
A9C
 92
        7
 72
     0
 73
     1
 93
        4
 10
544.212065582287
 20
395.6604370338189
 10
541.2120655822868
 20
395.6604370338188
 10
541.2120655822869
 20
390.6604370338188
 10
544.2120655822869
 20
390.6604370338188
 97
        4
330
A95
330
A9B
330
A96
330
A9A
 92
        7
 72
     0
 73
     1
 93
        4
 10
541.2120655822869
 20
375.6604370338187
 10
544.2120655822869
 20
375.6604370338188
 10
544.2120655822869
 20
380.6604370338188
 10
541.2120655822869
 20
380.6604370338189
 97
        4
330
A52
330
A54
330
A53
330
A55
 92
        7
 72
     0
 73
     1
 93
        4
 10
541.2120655822869
 20
360.6604370338188
 10
544.2120655822869
 20
360.6604370338188
 10
544.2120655822869
 20
365.6604370338187
 10
541.2120655822869
 20
365.6604370338188
 97
        4
330
A48
330
A51
330
A47
330
A50
 92
        7
 72
     0
 73
     1
 93
        4
 10
544.2120655822868
 20
350.6604370338187
 10
541.2120655822869
 20
350.6604370338187
 10
541.2120655822869
 20
345.6604370338188
 10
544.2120655822869
 20
345.6604370338188
 97
        4
330
A4A
330
A4F
330
A49
330
A4E
 92
        7
 72
     0
 73
     1
 93
        4
 10
544.2120655822869
 20
335.6604370338189
 10
541.2120655822869
 20
335.6604370338189
 10
541.2120655822869
 20
330.6604370338189
 10
544.2120655822869
 20
330.6604370338189
 97
        4
330
A3D
330
A43
330
A3C
330
A42
 92
        7
 72
     0
 73
     1
 93
        4
 10
544.2120655822869
 20
320.6604370338189
 10
541.2120655822869
 20
320.6604370338189
 10
541.2120655822869
 20
315.660437033819
 10
544.2120655822869
 20
315.660437033819
 97
        4
330
A3E
330
A33
330
A34
330
A32
 92
        7
 72
     0
 73
     1
 93
        4
 10
541.2120655822869
 20
300.6604370338189
 10
544.2120655822869
 20
300.6604370338189
 10
544.2120655822869
 20
305.6604370338189
 10
541.2120655822869
 20
305.6604370338189
 97
        4
330
A36
330
A3B
330
A35
330
A3A
 92
        7
 72
     0
 73
     1
 93
        4
 10
541.2120655822869
 20
285.6604370338189
 10
544.2120655822869
 20
285.6604370338189
 10
544.2120655822869
 20
290.6604370338189
 10
541.2120655822869
 20
290.6604370338188
 97
        4
330
9EA
330
9F0
330
9EB
330
9EF
 92
        7
 72
     0
 73
     1
 93
        4
 10
352.212065582287
 20
500.6604370338187
 10
349.212065582287
 20
500.6604370338186
 10
349.2120655822871
 20
495.6604370338186
 10
352.2120655822872
 20
495.6604370338186
 97
        4
330
ABB
330
ABE
330
ABD
330
ABF
 92
        7
 72
     0
 73
     1
 93
        4
 10
352.2120655822873
 20
485.6604370338186
 10
349.2120655822873
 20
485.6604370338186
 10
349.2120655822872
 20
480.6604370338185
 10
352.2120655822872
 20
480.6604370338186
 97
        4
330
ABC
330
9F5
330
A80
330
9F4
 92
        7
 72
     0
 73
     1
 93
        4
 10
352.2120655822872
 20
465.6604370338186
 10
352.2120655822872
 20
470.6604370338186
 10
349.2120655822872
 20
470.6604370338186
 10
349.2120655822871
 20
465.6604370338185
 97
        4
330
A7F
330
A83
330
A7E
330
A84
 92
        7
 72
     0
 73
     1
 93
        4
 10
352.2120655822872
 20
455.6604370338188
 10
349.2120655822872
 20
455.6604370338186
 10
349.2120655822869
 20
450.6604370338187
 10
352.212065582287
 20
450.6604370338187
 97
        4
330
A7C
330
A81
330
A7D
330
A82
 92
        7
 72
     0
 73
     1
 93
        4
 10
352.212065582287
 20
440.6604370338188
 10
349.212065582287
 20
440.6604370338187
 10
349.2120655822872
 20
435.6604370338187
 10
352.2120655822872
 20
435.6604370338187
 97
        4
330
A7B
330
A64
330
A6B
330
A63
 92
        7
 72
     0
 73
     1
 93
        4
 10
352.2120655822872
 20
425.6604370338187
 10
349.2120655822872
 20
425.6604370338187
 10
349.2120655822872
 20
420.6604370338188
 10
352.2120655822873
 20
420.6604370338188
 97
        4
330
A69
330
A70
330
A6A
330
A71
 92
        7
 72
     0
 73
     1
 93
        4
 10
352.2120655822872
 20
410.6604370338187
 10
349.2120655822872
 20
410.6604370338188
 10
349.2120655822872
 20
405.6604370338187
 10
352.2120655822873
 20
405.6604370338187
 97
        4
330
A68
330
A6E
330
A67
330
A6F
 92
        7
 72
     0
 73
     1
 93
        4
 10
349.2120655822871
 20
390.6604370338189
 10
352.2120655822869
 20
390.660437033819
 10
352.212065582287
 20
395.6604370338189
 10
349.212065582287
 20
395.6604370338189
 97
        4
330
A65
330
A6C
330
A66
330
A6D
 92
        7
 72
     0
 73
     1
 93
        4
 10
352.212065582287
 20
380.660437033819
 10
349.212065582287
 20
380.6604370338189
 10
349.2120655822869
 20
375.6604370338188
 10
352.212065582287
 20
375.6604370338188
 97
        4
330
A21
330
A27
330
A22
330
A28
 92
        7
 72
     0
 73
     1
 93
        4
 10
352.2120655822869
 20
365.6604370338186
 10
349.212065582287
 20
365.6604370338188
 10
349.212065582287
 20
360.6604370338188
 10
352.212065582287
 20
360.6604370338188
 97
        4
330
A1F
330
A25
330
A20
330
A26
 92
        7
 72
     0
 73
     1
 93
        4
 10
352.2120655822869
 20
350.6604370338188
 10
349.212065582287
 20
350.6604370338188
 10
349.212065582287
 20
345.6604370338188
 10
352.212065582287
 20
345.6604370338188
 97
        4
330
A1D
330
A23
330
A1E
330
A24
 92
        7
 72
     0
 73
     1
 93
        4
 10
352.212065582287
 20
335.6604370338189
 10
349.2120655822869
 20
335.6604370338189
 10
349.212065582287
 20
330.6604370338189
 10
352.212065582287
 20
330.6604370338189
 97
        4
330
A0F
330
A15
330
A10
330
A16
 92
        7
 72
     0
 73
     1
 93
        4
 10
352.212065582287
 20
320.6604370338188
 10
349.212065582287
 20
320.6604370338189
 10
349.2120655822869
 20
315.6604370338189
 10
352.2120655822869
 20
315.6604370338189
 97
        4
330
A0E
330
A12
330
A0D
330
A11
 92
        7
 72
     0
 73
     1
 93
        4
 10
349.2120655822871
 20
300.6604370338189
 10
352.212065582287
 20
300.6604370338189
 10
352.212065582287
 20
305.6604370338189
 10
349.212065582287
 20
305.6604370338189
 97
        4
330
A0B
330
A13
330
A0C
330
A14
 92
        7
 72
     0
 73
     1
 93
        4
 10
352.212065582287
 20
290.6604370338189
 10
349.212065582287
 20
290.6604370338189
 10
349.2120655822869
 20
285.6604370338189
 10
352.2120655822869
 20
285.6604370338189
 97
        4
330
9DE
330
9DF
330
9DD
330
9E0
 75
     0
 76
     0
 52
135.0
 41
2.0
 77
     0
 78
     1
 53
135.0
 43
0.0000000000001137
 44
0.0000000000001137
 45
-1.414213562373095
 46
-1.414213562373094
 79
     0
 47
0.4308702683592009
 98
       30
 10
542.9995795480579
 20
498.079437630639
 10
542.5684652468247
 20
483.4298491909484
 10
543.4306959780723
 20
468.7802593544623
 10
542.5684652468247
 20
451.5454487680991
 10
542.1373488168105
 20
437.7575991815723
 10
542.5684652468247
 20
422.2462704919227
 10
543.4306959780723
 20
408.0275514788139
 10
543.4306959780723
 20
393.3779616423279
 10
542.5684652468247
 20
378.2975023792602
 10
542.1373488168105
 20
363.6479139395695
 10
543.4306959780723
 20
348.1365838531246
 10
542.9995795480579
 20
333.0561245900566
 10
542.9995795480579
 20
318.4065347535708
 10
542.5684652468247
 20
302.8952046671258
 10
542.1373488168105
 20
288.2456162274351
 10
351.1530938952031
 20
497.6485668072617
 10
351.5842081964364
 20
482.1372381176121
 10
351.1530938952031
 20
466.6259080311671
 10
350.7219774651888
 20
453.2689292680173
 10
351.5842081964364
 20
438.6193408283267
 10
350.7219774651888
 20
423.9697509918409
 10
350.7219774651888
 20
408.4584209053958
 10
349.8597467339413
 20
392.947092215746
 10
351.1530938952031
 20
378.2975023792602
 10
351.1530938952031
 20
363.6479139395695
 10
350.7219774651888
 20
348.5674532797065
 10
351.1530938952031
 20
332.6252537666795
 10
351.5842081964364
 20
318.4065347535708
 10
350.2908610351746
 20
303.7569463138801
 10
351.1530938952031
 20
288.2456162274351
  0
HATCH
  5
9C8
330
1E
100
AcDbEntity
  8
SCHRAFF
100
AcDbHatch
 10
0.0
 20
0.0
 30
0.0
210
0.0
220
0.0
230
1.0
  2
_USER
 70
     0
 71
     0
 91
        2
 92
        7
 72
     1
 73
     1
 93
        8
 10
611.7120655822874
 20
273.6604370338189
 42
0.0
 10
611.7120655822872
 20
275.6604370338189
 42
0.0
 10
535.2120655822869
 20
275.6604370338189
 42
0.4142135623730951
 10
525.212065582287
 20
265.660437033819
 42
0.0
 10
525.2120655822872
 20
258.660437033819
 42
0.0
 10
527.2120655822872
 20
258.6604370338189
 42
0.0
 10
527.2120655822869
 20
265.6604370338189
 42
-0.4142135623730951
 10
535.2120655822869
 20
273.6604370338189
 42
0.0
 97
        0
 92
        7
 72
     1
 73
     1
 93
        8
 10
358.212065582287
 20
273.6604370338189
 42
-0.4142135623730951
 10
366.212065582287
 20
265.6604370338189
 42
0.0
 10
366.212065582287
 20
258.6604370338189
 42
0.0
 10
368.212065582287
 20
258.6604370338189
 42
0.0
 10
368.212065582287
 20
265.6604370338189
 42
0.4142135623730951
 10
358.212065582287
 20
275.6604370338189
 42
0.0
 10
281.7120655822872
 20
275.6604370338188
 42
0.0
 10
281.712065582287
 20
273.6604370338188
 42
0.0
 97
        0
 75
     0
 76
     0
 52
45.0
 41
2.0
 77
     0
 78
     1
 53
45.0
 43
0.0000000000001137
 44
0.0000000000001137
 45
-1.414213562373094
 46
1.414213562373095
 79
     0
 47
0.4308702683592009
 98
        2
 10
573.6087949883271
 20
274.4577666409083
 10
343.8241252288657
 20
274.4577666409083
  0
LINE
  5
9CC
330
1E
100
AcDbEntity
  8
MITTEL
100
AcDbLine
 10
446.712065582287
 20
513.5373314082009
 30
0.0
 11
446.712065582287
 21
233.6604370338189
 31
0.0
  0
DIMENSION
  5
9D0
330
1E
100
AcDbEntity
  8
BEM
100
AcDbDimension
  2
*D3
 10
258.6591191105473
 20
508.5373314082009
 30
0.0
 11
252.1591191105472
 21
392.09888422101
 31
0.0
 70
    32
  1
233
 71
     5
 42
232.8768943743821
  3
Standard
100
AcDbAlignedDimension
 13
281.7120655822871
 23
275.6604370338189
 33
0.0
 14
357.2120655822872
 24
508.5373314082009
 34
0.0
 50
90.0
100
AcDbRotatedDimension
1001
ACAD
1000
DSTYLE
1002
{
1070
    40
1040
2.0
1070
    41
1040
3.5
1070
    42
1040
1.0
1070
    43
1040
7.0
1070
    44
1040
1.0
1070
    73
1070
     0
1070
    74
1070
     0
1070
    77
1070
     1
1070
    78
1070
     8
1070
    79
1070
     2
1070
   140
1040
3.5
1070
   141
1040
1.5
1070
   146
1040
0.5142857142857144
1070
   147
1040
1.5
1070
   172
1070
     1
1070
   178
1070
     1
1070
   179
1070
     2
1070
   271
1070
     2
1070
   272
1070
     2
1070
   284
1070
     8
1070
   285
1070
     8
1070
   286
1070
     8
1002
}
  0
LINE
  5
9D1
330
1E
100
AcDbEntity
  8
STEMPEL
100
AcDbLine
 10
281.7120655822871
 20
275.6604370338189
 30
0.0
 11
376.7120655822868
 21
275.6604370338189
 31
0.0
  0
LINE
  5
9D2
330
1E
100
AcDbEntity
  8
STEMPEL
100
AcDbLine
 10
281.7120655822871
 20
273.6604370338188
 30
0.0
 11
358.212065582287
 21
273.6604370338189
 31
0.0
  0
DIMENSION
  5
9D3
330
1E
100
AcDbEntity
  8
BEM
100
AcDbDimension
  2
*D4
 10
611.7120655822869
 20
189.2257701935944
 30
0.0
 11
446.712065582287
 21
195.7257701935945
 31
0.0
 70
    32
  1
%%c<>
 71
     5
 42
329.9999999999999
  3
Standard
100
AcDbAlignedDimension
 13
281.7120655822871
 23
273.6604370338188
 33
0.0
 14
611.7120655822869
 24
273.6604370338189
 34
0.0
100
AcDbRotatedDimension
1001
ACAD
1000
DSTYLE
1002
{
1070
    40
1040
2.0
1070
    41
1040
3.5
1070
    42
1040
1.0
1070
    43
1040
7.0
1070
    44
1040
1.0
1070
    73
1070
     0
1070
    74
1070
     0
1070
    77
1070
     1
1070
    78
1070
     8
1070
    79
1070
     2
1070
   140
1040
3.5
1070
   141
1040
1.5
1070
   146
1040
0.5142857142857144
1070
   147
1040
1.5
1070
   172
1070
     1
1070
   178
1070
     1
1070
   179
1070
     2
1070
   271
1070
     2
1070
   272
1070
     2
1070
   284
1070
     8
1070
   285
1070
     8
1070
   286
1070
     8
1002
}
  0
LINE
  5
9D4
330
1E
100
AcDbEntity
  8
STEMPEL
100
AcDbLine
 10
281.7120655822871
 20
275.6604370338189
 30
0.0
 11
281.7120655822871
 21
273.6604370338188
 31
0.0
  0
LINE
  5
9D5
330
1E
100
AcDbEntity
  8
STEMPEL
100
AcDbLine
 10
535.2120655822869
 20
273.6604370338189
 30
0.0
 11
611.7120655822869
 21
273.6604370338189
 31
0.0
  0
DIMENSION
  5
9D6
330
1E
100
AcDbEntity
  8
BEM
100
AcDbDimension
  2
*D5
 10
640.497819493631
 20
258.6604370338189
 30
0.0
 11
633.9978194936309
 21
267.160437033819
 31
0.0
 70
    32
 71
     5
 42
17.0
  3
Standard
100
AcDbAlignedDimension
 13
611.7120655822872
 23
275.6604370338189
 33
0.0
 14
527.2120655822872
 24
258.6604370338189
 34
0.0
 50
90.0
100
AcDbRotatedDimension
1001
ACAD
1000
DSTYLE
1002
{
1070
    40
1040
2.0
1070
    41
1040
3.5
1070
    42
1040
1.0
1070
    43
1040
7.0
1070
    44
1040
1.0
1070
    73
1070
     0
1070
    74
1070
     0
1070
    77
1070
     1
1070
    78
1070
     8
1070
    79
1070
     2
1070
   140
1040
3.5
1070
   141
1040
1.5
1070
   146
1040
0.5142857142857144
1070
   147
1040
1.5
1070
   172
1070
     1
1070
   178
1070
     1
1070
   179
1070
     2
1070
   271
1070
     2
1070
   272
1070
     2
1070
   284
1070
     8
1070
   285
1070
     8
1070
   286
1070
     8
1002
}
  0
LINE
  5
9D7
330
1E
100
AcDbEntity
  8
STEMPEL
100
AcDbLine
 10
366.212065582287
 20
258.6604370338188
 30
0.0
 11
378.0381799295343
 21
258.6604370338188
 31
0.0
  0
ARC
  5
9DB
330
1E
100
AcDbEntity
  8
STEMPEL
100
AcDbCircle
 10
358.212065582287
 20
265.6604370338189
 30
0.0
 40
8.0
100
AcDbArc
 50
0.0
 51
90.0
  0
ARC
  5
9DC
330
1E
100
AcDbEntity
  8
STEMPEL
100
AcDbCircle
 10
358.212065582287
 20
265.6604370338189
 30
0.0
 40
10.0
100
AcDbArc
 50
0.0
 51
90.0
  0
LINE
  5
9DD
102
{ACAD_REACTORS
330
9C7
102
}
330
1E
100
AcDbEntity
  8
STEMPEL
100
AcDbLine
 10
349.212065582287
 20
285.6604370338189
 30
0.0
 11
376.7120655822868
 21
285.6604370338189
 31
0.0
  0
LINE
  5
9DE
102
{ACAD_REACTORS
330
9C7
102
}
330
1E
100
AcDbEntity
  8
STEMPEL
100
AcDbLine
 10
349.212065582287
 20
290.6604370338189
 30
0.0
 11
376.7120655822868
 21
290.6604370338189
 31
0.0
  0
LINE
  5
9DF
102
{ACAD_REACTORS
330
9C7
102
}
330
1E
100
AcDbEntity
  8
STEMPEL
100
AcDbLine
 10
349.212065582287
 20
290.6604370338189
 30
0.0
 11
349.212065582287
 21
285.6604370338189
 31
0.0
  0
LINE
  5
9E0
102
{ACAD_REACTORS
330
9C7
102
}
330
1E
100
AcDbEntity
  8
STEMPEL
100
AcDbLine
 10
352.212065582287
 20
290.6604370338189
 30
0.0
 11
352.212065582287
 21
285.6604370338189
 31
0.0
  0
LINE
  5
9E1
330
1E
100
AcDbEntity
  8
STEMPEL
100
AcDbLine
 10
366.212065582287
 20
265.6604370338189
 30
0.0
 11
366.212065582287
 21
258.6604370338188
 31
0.0
  0
LINE
  5
9E2
330
1E
100
AcDbEntity
  8
STEMPEL
100
AcDbLine
 10
368.212065582287
 20
265.6604370338189
 30
0.0
 11
368.212065582287
 21
258.6604370338189
 31
0.0
  0
ARC
  5
9E6
330
1E
100
AcDbEntity
  8
STEMPEL
100
AcDbCircle
 10
535.2120655822869
 20
265.6604370338189
 30
0.0
 40
10.0
100
AcDbArc
 50
90.0
 51
180.0
  0
ARC
  5
9E7
330
1E
100
AcDbEntity
  8
STEMPEL
100
AcDbCircle
 10
535.2120655822869
 20
265.6604370338189
 30
0.0
 40
8.0
100
AcDbArc
 50
90.0
 51
180.0
  0
LINE
  5
9E8
330
1E
100
AcDbEntity
  8
STEMPEL
100
AcDbLine
 10
525.212065582287
 20
265.6604370338189
 30
0.0
 11
525.212065582287
 21
258.6604370338189
 31
0.0
  0
LINE
  5
9E9
330
1E
100
AcDbEntity
  8
STEMPEL
100
AcDbLine
 10
527.2120655822869
 20
265.6604370338189
 30
0.0
 11
527.2120655822872
 21
258.6604370338189
 31
0.0
  0
LINE
  5
9EA
102
{ACAD_REACTORS
330
9C7
102
}
330
1E
100
AcDbEntity
  8
STEMPEL
100
AcDbLine
 10
516.7120655822872
 20
290.6604370338188
 30
0.0
 11
544.2120655822869
 21
290.6604370338189
 31
0.0
  0
LINE
  5
9EB
102
{ACAD_REACTORS
330
9C7
102
}
330
1E
100
AcDbEntity
  8
STEMPEL
100
AcDbLine
 10
516.7120655822872
 20
285.6604370338189
 30
0.0
 11
544.2120655822869
 21
285.6604370338189
 31
0.0
  0
LINE
  5
9EF
102
{ACAD_REACTORS
330
9C7
102
}
330
1E
100
AcDbEntity
  8
STEMPEL
100
AcDbLine
 10
544.2120655822869
 20
290.6604370338189
 30
0.0
 11
544.2120655822869
 21
285.6604370338189
 31
0.0
  0
LINE
  5
9F0
102
{ACAD_REACTORS
330
9C7
102
}
330
1E
100
AcDbEntity
  8
STEMPEL
100
AcDbLine
 10
541.2120655822869
 20
290.6604370338189
 30
0.0
 11
541.2120655822869
 21
285.6604370338189
 31
0.0
  0
LINE
  5
9F1
330
1E
100
AcDbEntity
  8
STEMPEL
100
AcDbLine
 10
611.7120655822872
 20
275.6604370338189
 30
0.0
 11
611.7120655822869
 21
273.6604370338189
 31
0.0
  0
LINE
  5
9F2
102
{ACAD_REACTORS
330
9C7
102
}
330
1E
100
AcDbEntity
  8
STEMPEL
100
AcDbLine
 10
541.2120655822869
 20
485.6604370338186
 30
0.0
 11
541.2120655822869
 21
480.6604370338186
 31
0.0
  0
LINE
  5
9F3
102
{ACAD_REACTORS
330
9C7
102
}
330
1E
100
AcDbEntity
  8
STEMPEL
100
AcDbLine
 10
544.2120655822869
 20
485.6604370338186
 30
0.0
 11
544.2120655822869
 21
480.6604370338186
 31
0.0
  0
LINE
  5
9F4
102
{ACAD_REACTORS
330
9C7
102
}
330
1E
100
AcDbEntity
  8
STEMPEL
100
AcDbLine
 10
352.2120655822872
 20
485.6604370338186
 30
0.0
 11
352.2120655822872
 21
480.6604370338186
 31
0.0
  0
LINE
  5
9F5
102
{ACAD_REACTORS
330
9C7
102
}
330
1E
100
AcDbEntity
  8
STEMPEL
100
AcDbLine
 10
349.2120655822872
 20
485.6604370338186
 30
0.0
 11
349.2120655822872
 21
480.6604370338186
 31
0.0
  0
LINE
  5
A0B
102
{ACAD_REACTORS
330
9C7
102
}
330
1E
100
AcDbEntity
  8
STEMPEL
100
AcDbLine
 10
349.212065582287
 20
305.6604370338189
 30
0.0
 11
377.3344405937738
 21
305.6604370338189
 31
0.0
  0
LINE
  5
A0C
102
{ACAD_REACTORS
330
9C7
102
}
330
1E
100
AcDbEntity
  8
STEMPEL
100
AcDbLine
 10
349.212065582287
 20
300.6604370338189
 30
0.0
 11
376.7120655822868
 21
300.6604370338189
 31
0.0
  0
LINE
  5
A0D
102
{ACAD_REACTORS
330
9C7
102
}
330
1E
100
AcDbEntity
  8
STEMPEL
100
AcDbLine
 10
349.212065582287
 20
315.6604370338189
 30
0.0
 11
380.2120655822865
 21
315.6604370338189
 31
0.0
  0
LINE
  5
A0E
102
{ACAD_REACTORS
330
9C7
102
}
330
1E
100
AcDbEntity
  8
STEMPEL
100
AcDbLine
 10
349.212065582287
 20
320.6604370338189
 30
0.0
 11
380.2120655822865
 21
320.6604370338189
 31
0.0
  0
LINE
  5
A0F
102
{ACAD_REACTORS
330
9C7
102
}
330
1E
100
AcDbEntity
  8
STEMPEL
100
AcDbLine
 10
349.212065582287
 20
335.6604370338189
 30
0.0
 11
380.2120655822868
 21
335.6604370338189
 31
0.0
  0
LINE
  5
A10
102
{ACAD_REACTORS
330
9C7
102
}
330
1E
100
AcDbEntity
  8
STEMPEL
100
AcDbLine
 10
349.212065582287
 20
330.6604370338189
 30
0.0
 11
380.2120655822868
 21
330.6604370338189
 31
0.0
  0
LINE
  5
A11
102
{ACAD_REACTORS
330
9C7
102
}
330
1E
100
AcDbEntity
  8
STEMPEL
100
AcDbLine
 10
352.212065582287
 20
320.6604370338189
 30
0.0
 11
352.212065582287
 21
315.6604370338189
 31
0.0
  0
LINE
  5
A12
102
{ACAD_REACTORS
330
9C7
102
}
330
1E
100
AcDbEntity
  8
STEMPEL
100
AcDbLine
 10
349.212065582287
 20
320.6604370338189
 30
0.0
 11
349.212065582287
 21
315.6604370338189
 31
0.0
  0
LINE
  5
A13
102
{ACAD_REACTORS
330
9C7
102
}
330
1E
100
AcDbEntity
  8
STEMPEL
100
AcDbLine
 10
349.212065582287
 20
305.6604370338189
 30
0.0
 11
349.212065582287
 21
300.6604370338189
 31
0.0
  0
LINE
  5
A14
102
{ACAD_REACTORS
330
9C7
102
}
330
1E
100
AcDbEntity
  8
STEMPEL
100
AcDbLine
 10
352.212065582287
 20
305.6604370338189
 30
0.0
 11
352.212065582287
 21
300.6604370338189
 31
0.0
  0
LINE
  5
A15
102
{ACAD_REACTORS
330
9C7
102
}
330
1E
100
AcDbEntity
  8
STEMPEL
100
AcDbLine
 10
349.212065582287
 20
335.6604370338189
 30
0.0
 11
349.212065582287
 21
330.6604370338189
 31
0.0
  0
LINE
  5
A16
102
{ACAD_REACTORS
330
9C7
102
}
330
1E
100
AcDbEntity
  8
STEMPEL
100
AcDbLine
 10
352.212065582287
 20
335.6604370338189
 30
0.0
 11
352.212065582287
 21
330.6604370338189
 31
0.0
  0
LINE
  5
A1D
102
{ACAD_REACTORS
330
9C7
102
}
330
1E
100
AcDbEntity
  8
STEMPEL
100
AcDbLine
 10
349.212065582287
 20
350.6604370338188
 30
0.0
 11
380.2120655822868
 21
350.6604370338188
 31
0.0
  0
LINE
  5
A1E
102
{ACAD_REACTORS
330
9C7
102
}
330
1E
100
AcDbEntity
  8
STEMPEL
100
AcDbLine
 10
349.212065582287
 20
345.6604370338188
 30
0.0
 11
380.2120655822868
 21
345.6604370338188
 31
0.0
  0
LINE
  5
A1F
102
{ACAD_REACTORS
330
9C7
102
}
330
1E
100
AcDbEntity
  8
STEMPEL
100
AcDbLine
 10
349.212065582287
 20
365.6604370338188
 30
0.0
 11
380.2120655822868
 21
365.6604370338188
 31
0.0
  0
LINE
  5
A20
102
{ACAD_REACTORS
330
9C7
102
}
330
1E
100
AcDbEntity
  8
STEMPEL
100
AcDbLine
 10
349.212065582287
 20
360.6604370338188
 30
0.0
 11
380.2120655822868
 21
360.6604370338188
 31
0.0
  0
LINE
  5
A21
102
{ACAD_REACTORS
330
9C7
102
}
330
1E
100
AcDbEntity
  8
STEMPEL
100
AcDbLine
 10
349.212065582287
 20
380.6604370338189
 30
0.0
 11
380.2120655822868
 21
380.6604370338188
 31
0.0
  0
LINE
  5
A22
102
{ACAD_REACTORS
330
9C7
102
}
330
1E
100
AcDbEntity
  8
STEMPEL
100
AcDbLine
 10
349.212065582287
 20
375.6604370338188
 30
0.0
 11
380.2120655822868
 21
375.6604370338188
 31
0.0
  0
LINE
  5
A23
102
{ACAD_REACTORS
330
9C7
102
}
330
1E
100
AcDbEntity
  8
STEMPEL
100
AcDbLine
 10
349.212065582287
 20
350.6604370338188
 30
0.0
 11
349.212065582287
 21
345.6604370338188
 31
0.0
  0
LINE
  5
A24
102
{ACAD_REACTORS
330
9C7
102
}
330
1E
100
AcDbEntity
  8
STEMPEL
100
AcDbLine
 10
352.212065582287
 20
350.6604370338188
 30
0.0
 11
352.212065582287
 21
345.6604370338188
 31
0.0
  0
LINE
  5
A25
102
{ACAD_REACTORS
330
9C7
102
}
330
1E
100
AcDbEntity
  8
STEMPEL
100
AcDbLine
 10
349.212065582287
 20
365.6604370338188
 30
0.0
 11
349.212065582287
 21
360.6604370338188
 31
0.0
  0
LINE
  5
A26
102
{ACAD_REACTORS
330
9C7
102
}
330
1E
100
AcDbEntity
  8
STEMPEL
100
AcDbLine
 10
352.212065582287
 20
365.6604370338188
 30
0.0
 11
352.212065582287
 21
360.6604370338188
 31
0.0
  0
LINE
  5
A27
102
{ACAD_REACTORS
330
9C7
102
}
330
1E
100
AcDbEntity
  8
STEMPEL
100
AcDbLine
 10
349.212065582287
 20
380.6604370338189
 30
0.0
 11
349.212065582287
 21
375.6604370338188
 31
0.0
  0
LINE
  5
A28
102
{ACAD_REACTORS
330
9C7
102
}
330
1E
100
AcDbEntity
  8
STEMPEL
100
AcDbLine
 10
352.212065582287
 20
380.6604370338189
 30
0.0
 11
352.212065582287
 21
375.6604370338188
 31
0.0
  0
LINE
  5
A32
102
{ACAD_REACTORS
330
9C7
102
}
330
1E
100
AcDbEntity
  8
STEMPEL
100
AcDbLine
 10
544.2120655822869
 20
320.6604370338189
 30
0.0
 11
544.2120655822869
 21
315.6604370338189
 31
0.0
  0
LINE
  5
A33
102
{ACAD_REACTORS
330
9C7
102
}
330
1E
100
AcDbEntity
  8
STEMPEL
100
AcDbLine
 10
541.2120655822869
 20
320.6604370338189
 30
0.0
 11
541.2120655822869
 21
315.6604370338189
 31
0.0
  0
LINE
  5
A34
102
{ACAD_REACTORS
330
9C7
102
}
330
1E
100
AcDbEntity
  8
STEMPEL
100
AcDbLine
 10
513.2120655822872
 20
315.6604370338189
 30
0.0
 11
544.2120655822869
 21
315.6604370338189
 31
0.0
  0
LINE
  5
A35
102
{ACAD_REACTORS
330
9C7
102
}
330
1E
100
AcDbEntity
  8
STEMPEL
100
AcDbLine
 10
516.7120655822872
 20
300.6604370338189
 30
0.0
 11
544.2120655822869
 21
300.6604370338189
 31
0.0
  0
LINE
  5
A36
102
{ACAD_REACTORS
330
9C7
102
}
330
1E
100
AcDbEntity
  8
STEMPEL
100
AcDbLine
 10
516.0896905708003
 20
305.6604370338189
 30
0.0
 11
544.2120655822869
 21
305.6604370338189
 31
0.0
  0
LINE
  5
A3A
102
{ACAD_REACTORS
330
9C7
102
}
330
1E
100
AcDbEntity
  8
STEMPEL
100
AcDbLine
 10
544.2120655822869
 20
305.6604370338189
 30
0.0
 11
544.2120655822869
 21
300.6604370338189
 31
0.0
  0
LINE
  5
A3B
102
{ACAD_REACTORS
330
9C7
102
}
330
1E
100
AcDbEntity
  8
STEMPEL
100
AcDbLine
 10
541.2120655822869
 20
305.6604370338189
 30
0.0
 11
541.2120655822869
 21
300.6604370338189
 31
0.0
  0
LINE
  5
A3C
102
{ACAD_REACTORS
330
9C7
102
}
330
1E
100
AcDbEntity
  8
STEMPEL
100
AcDbLine
 10
513.2120655822872
 20
330.6604370338189
 30
0.0
 11
544.2120655822869
 21
330.6604370338189
 31
0.0
  0
LINE
  5
A3D
102
{ACAD_REACTORS
330
9C7
102
}
330
1E
100
AcDbEntity
  8
STEMPEL
100
AcDbLine
 10
513.2120655822872
 20
335.6604370338189
 30
0.0
 11
544.2120655822869
 21
335.6604370338189
 31
0.0
  0
LINE
  5
A3E
102
{ACAD_REACTORS
330
9C7
102
}
330
1E
100
AcDbEntity
  8
STEMPEL
100
AcDbLine
 10
513.2120655822872
 20
320.6604370338189
 30
0.0
 11
544.2120655822869
 21
320.6604370338189
 31
0.0
  0
LINE
  5
A42
102
{ACAD_REACTORS
330
9C7
102
}
330
1E
100
AcDbEntity
  8
STEMPEL
100
AcDbLine
 10
544.2120655822869
 20
335.6604370338189
 30
0.0
 11
544.2120655822869
 21
330.6604370338189
 31
0.0
  0
LINE
  5
A43
102
{ACAD_REACTORS
330
9C7
102
}
330
1E
100
AcDbEntity
  8
STEMPEL
100
AcDbLine
 10
541.2120655822869
 20
335.6604370338189
 30
0.0
 11
541.2120655822869
 21
330.6604370338189
 31
0.0
  0
LINE
  5
A47
102
{ACAD_REACTORS
330
9C7
102
}
330
1E
100
AcDbEntity
  8
STEMPEL
100
AcDbLine
 10
513.2120655822872
 20
360.6604370338188
 30
0.0
 11
544.2120655822869
 21
360.6604370338188
 31
0.0
  0
LINE
  5
A48
102
{ACAD_REACTORS
330
9C7
102
}
330
1E
100
AcDbEntity
  8
STEMPEL
100
AcDbLine
 10
513.2120655822872
 20
365.6604370338188
 30
0.0
 11
544.2120655822869
 21
365.6604370338188
 31
0.0
  0
LINE
  5
A49
102
{ACAD_REACTORS
330
9C7
102
}
330
1E
100
AcDbEntity
  8
STEMPEL
100
AcDbLine
 10
513.2120655822872
 20
345.6604370338188
 30
0.0
 11
544.2120655822869
 21
345.6604370338188
 31
0.0
  0
LINE
  5
A4A
102
{ACAD_REACTORS
330
9C7
102
}
330
1E
100
AcDbEntity
  8
STEMPEL
100
AcDbLine
 10
513.2120655822872
 20
350.6604370338188
 30
0.0
 11
544.2120655822869
 21
350.6604370338188
 31
0.0
  0
LINE
  5
A4E
102
{ACAD_REACTORS
330
9C7
102
}
330
1E
100
AcDbEntity
  8
STEMPEL
100
AcDbLine
 10
544.2120655822869
 20
350.6604370338188
 30
0.0
 11
544.2120655822869
 21
345.6604370338188
 31
0.0
  0
LINE
  5
A4F
102
{ACAD_REACTORS
330
9C7
102
}
330
1E
100
AcDbEntity
  8
STEMPEL
100
AcDbLine
 10
541.2120655822869
 20
350.6604370338188
 30
0.0
 11
541.2120655822869
 21
345.6604370338188
 31
0.0
  0
LINE
  5
A50
102
{ACAD_REACTORS
330
9C7
102
}
330
1E
100
AcDbEntity
  8
STEMPEL
100
AcDbLine
 10
544.2120655822869
 20
365.6604370338188
 30
0.0
 11
544.2120655822869
 21
360.6604370338188
 31
0.0
  0
LINE
  5
A51
102
{ACAD_REACTORS
330
9C7
102
}
330
1E
100
AcDbEntity
  8
STEMPEL
100
AcDbLine
 10
541.2120655822869
 20
365.6604370338188
 30
0.0
 11
541.2120655822869
 21
360.6604370338188
 31
0.0
  0
LINE
  5
A52
102
{ACAD_REACTORS
330
9C7
102
}
330
1E
100
AcDbEntity
  8
STEMPEL
100
AcDbLine
 10
513.2120655822872
 20
380.6604370338188
 30
0.0
 11
544.2120655822869
 21
380.6604370338188
 31
0.0
  0
LINE
  5
A53
102
{ACAD_REACTORS
330
9C7
102
}
330
1E
100
AcDbEntity
  8
STEMPEL
100
AcDbLine
 10
513.2120655822872
 20
375.6604370338188
 30
0.0
 11
544.2120655822869
 21
375.6604370338188
 31
0.0
  0
LINE
  5
A54
102
{ACAD_REACTORS
330
9C7
102
}
330
1E
100
AcDbEntity
  8
STEMPEL
100
AcDbLine
 10
541.2120655822869
 20
380.6604370338188
 30
0.0
 11
541.2120655822869
 21
375.6604370338188
 31
0.0
  0
LINE
  5
A55
102
{ACAD_REACTORS
330
9C7
102
}
330
1E
100
AcDbEntity
  8
STEMPEL
100
AcDbLine
 10
544.2120655822869
 20
380.6604370338188
 30
0.0
 11
544.2120655822869
 21
375.6604370338188
 31
0.0
  0
LINE
  5
A57
330
1E
100
AcDbEntity
  8
STEMPEL
100
AcDbLine
 10
397.8378914813167
 20
455.6604370338187
 30
0.0
 11
495.5862396832575
 21
455.6604370338186
 31
0.0
  0
LINE
  5
A58
330
1E
100
AcDbEntity
  8
STEMPEL
100
AcDbLine
 10
397.8378914813167
 20
480.6604370338186
 30
0.0
 11
495.5862396832575
 21
480.6604370338186
 31
0.0
  0
LINE
  5
A59
330
1E
100
AcDbEntity
  8
STEMPEL
100
AcDbLine
 10
397.8378914813167
 20
470.6604370338186
 30
0.0
 11
495.5862396832575
 21
470.6604370338186
 31
0.0
  0
LINE
  5
A5A
330
1E
100
AcDbEntity
  8
STEMPEL
100
AcDbLine
 10
397.8378914813167
 20
465.6604370338186
 30
0.0
 11
495.5862396832575
 21
465.6604370338186
 31
0.0
  0
LINE
  5
A5B
330
1E
100
AcDbEntity
  8
STEMPEL
100
AcDbLine
 10
397.8378914813167
 20
450.6604370338187
 30
0.0
 11
495.5862396832575
 21
450.6604370338187
 31
0.0
  0
LINE
  5
A5C
330
1E
100
AcDbEntity
  8
STEMPEL
100
AcDbLine
 10
397.8378914813167
 20
440.6604370338187
 30
0.0
 11
495.5862396832575
 21
440.6604370338187
 31
0.0
  0
LINE
  5
A5D
330
1E
100
AcDbEntity
  8
STEMPEL
100
AcDbLine
 10
397.8378914813167
 20
435.6604370338187
 30
0.0
 11
495.5862396832575
 21
435.6604370338187
 31
0.0
  0
LINE
  5
A63
102
{ACAD_REACTORS
330
9C7
102
}
330
1E
100
AcDbEntity
  8
STEMPEL
100
AcDbLine
 10
352.212065582287
 20
440.6604370338187
 30
0.0
 11
352.2120655822872
 21
435.6604370338187
 31
0.0
  0
LINE
  5
A64
102
{ACAD_REACTORS
330
9C7
102
}
330
1E
100
AcDbEntity
  8
STEMPEL
100
AcDbLine
 10
349.212065582287
 20
440.6604370338187
 30
0.0
 11
349.2120655822872
 21
435.6604370338187
 31
0.0
  0
LINE
  5
A65
102
{ACAD_REACTORS
330
9C7
102
}
330
1E
100
AcDbEntity
  8
STEMPEL
100
AcDbLine
 10
349.212065582287
 20
395.6604370338189
 30
0.0
 11
380.212065582287
 21
395.6604370338189
 31
0.0
  0
LINE
  5
A66
102
{ACAD_REACTORS
330
9C7
102
}
330
1E
100
AcDbEntity
  8
STEMPEL
100
AcDbLine
 10
349.212065582287
 20
390.6604370338189
 30
0.0
 11
380.212065582287
 21
390.6604370338189
 31
0.0
  0
LINE
  5
A67
102
{ACAD_REACTORS
330
9C7
102
}
330
1E
100
AcDbEntity
  8
STEMPEL
100
AcDbLine
 10
349.2120655822872
 20
405.6604370338187
 30
0.0
 11
380.212065582287
 21
405.6604370338187
 31
0.0
  0
LINE
  5
A68
102
{ACAD_REACTORS
330
9C7
102
}
330
1E
100
AcDbEntity
  8
STEMPEL
100
AcDbLine
 10
349.2120655822872
 20
410.6604370338187
 30
0.0
 11
380.212065582287
 21
410.6604370338187
 31
0.0
  0
LINE
  5
A69
102
{ACAD_REACTORS
330
9C7
102
}
330
1E
100
AcDbEntity
  8
STEMPEL
100
AcDbLine
 10
349.2120655822872
 20
425.6604370338187
 30
0.0
 11
380.212065582287
 21
425.6604370338187
 31
0.0
  0
LINE
  5
A6A
102
{ACAD_REACTORS
330
9C7
102
}
330
1E
100
AcDbEntity
  8
STEMPEL
100
AcDbLine
 10
349.2120655822872
 20
420.6604370338188
 30
0.0
 11
380.212065582287
 21
420.6604370338188
 31
0.0
  0
LINE
  5
A6B
102
{ACAD_REACTORS
330
9C7
102
}
330
1E
100
AcDbEntity
  8
STEMPEL
100
AcDbLine
 10
349.2120655822872
 20
435.6604370338187
 30
0.0
 11
384.8936195713176
 21
435.6604370338187
 31
0.0
  0
LINE
  5
A6C
102
{ACAD_REACTORS
330
9C7
102
}
330
1E
100
AcDbEntity
  8
STEMPEL
100
AcDbLine
 10
349.212065582287
 20
395.6604370338189
 30
0.0
 11
349.212065582287
 21
390.6604370338189
 31
0.0
  0
LINE
  5
A6D
102
{ACAD_REACTORS
330
9C7
102
}
330
1E
100
AcDbEntity
  8
STEMPEL
100
AcDbLine
 10
352.212065582287
 20
395.6604370338189
 30
0.0
 11
352.212065582287
 21
390.6604370338189
 31
0.0
  0
LINE
  5
A6E
102
{ACAD_REACTORS
330
9C7
102
}
330
1E
100
AcDbEntity
  8
STEMPEL
100
AcDbLine
 10
349.2120655822872
 20
410.6604370338187
 30
0.0
 11
349.2120655822872
 21
405.6604370338187
 31
0.0
  0
LINE
  5
A6F
102
{ACAD_REACTORS
330
9C7
102
}
330
1E
100
AcDbEntity
  8
STEMPEL
100
AcDbLine
 10
352.2120655822872
 20
410.6604370338187
 30
0.0
 11
352.2120655822872
 21
405.6604370338187
 31
0.0
  0
LINE
  5
A70
102
{ACAD_REACTORS
330
9C7
102
}
330
1E
100
AcDbEntity
  8
STEMPEL
100
AcDbLine
 10
349.2120655822872
 20
425.6604370338187
 30
0.0
 11
349.2120655822872
 21
420.6604370338188
 31
0.0
  0
LINE
  5
A71
102
{ACAD_REACTORS
330
9C7
102
}
330
1E
100
AcDbEntity
  8
STEMPEL
100
AcDbLine
 10
352.2120655822872
 20
425.6604370338187
 30
0.0
 11
352.2120655822872
 21
420.6604370338188
 31
0.0
  0
LINE
  5
A78
330
1E
100
AcDbEntity
  8
STEMPEL
100
AcDbLine
 10
384.8936195713176
 20
435.6604370338187
 30
0.0
 11
384.8936195713176
 21
433.6604370338189
 31
0.0
  0
LINE
  5
A79
330
1E
100
AcDbEntity
  8
STEMPEL
100
AcDbLine
 10
382.7657940805035
 20
435.6604370338187
 30
0.0
 11
382.7657940805035
 21
433.6604370338189
 31
0.0
  0
LINE
  5
A7A
330
1E
100
AcDbEntity
  8
STEMPEL
100
AcDbLine
 10
397.8378914813167
 20
435.6604370338187
 30
0.0
 11
397.8378914813167
 21
433.6604370338189
 31
0.0
  0
LINE
  5
A7B
102
{ACAD_REACTORS
330
9C7
102
}
330
1E
100
AcDbEntity
  8
STEMPEL
100
AcDbLine
 10
349.2120655822872
 20
440.6604370338187
 30
0.0
 11
384.8936195713176
 21
440.6604370338187
 31
0.0
  0
LINE
  5
A7C
102
{ACAD_REACTORS
330
9C7
102
}
330
1E
100
AcDbEntity
  8
STEMPEL
100
AcDbLine
 10
349.2120655822872
 20
455.6604370338187
 30
0.0
 11
384.8936195713176
 21
455.6604370338186
 31
0.0
  0
LINE
  5
A7D
102
{ACAD_REACTORS
330
9C7
102
}
330
1E
100
AcDbEntity
  8
STEMPEL
100
AcDbLine
 10
349.2120655822872
 20
450.6604370338187
 30
0.0
 11
384.8936195713176
 21
450.6604370338187
 31
0.0
  0
LINE
  5
A7E
102
{ACAD_REACTORS
330
9C7
102
}
330
1E
100
AcDbEntity
  8
STEMPEL
100
AcDbLine
 10
349.2120655822872
 20
465.6604370338186
 30
0.0
 11
384.8936195713176
 21
465.6604370338186
 31
0.0
  0
LINE
  5
A7F
102
{ACAD_REACTORS
330
9C7
102
}
330
1E
100
AcDbEntity
  8
STEMPEL
100
AcDbLine
 10
349.2120655822872
 20
470.6604370338186
 30
0.0
 11
384.8936195713176
 21
470.6604370338186
 31
0.0
  0
LINE
  5
A80
102
{ACAD_REACTORS
330
9C7
102
}
330
1E
100
AcDbEntity
  8
STEMPEL
100
AcDbLine
 10
349.2120655822872
 20
480.6604370338186
 30
0.0
 11
384.8936195713176
 21
480.6604370338186
 31
0.0
  0
LINE
  5
A81
102
{ACAD_REACTORS
330
9C7
102
}
330
1E
100
AcDbEntity
  8
STEMPEL
100
AcDbLine
 10
349.2120655822872
 20
455.6604370338187
 30
0.0
 11
349.212065582287
 21
450.6604370338187
 31
0.0
  0
LINE
  5
A82
102
{ACAD_REACTORS
330
9C7
102
}
330
1E
100
AcDbEntity
  8
STEMPEL
100
AcDbLine
 10
352.2120655822872
 20
455.6604370338187
 30
0.0
 11
352.212065582287
 21
450.6604370338187
 31
0.0
  0
LINE
  5
A83
102
{ACAD_REACTORS
330
9C7
102
}
330
1E
100
AcDbEntity
  8
STEMPEL
100
AcDbLine
 10
349.2120655822872
 20
470.6604370338186
 30
0.0
 11
349.2120655822872
 21
465.6604370338186
 31
0.0
  0
LINE
  5
A84
102
{ACAD_REACTORS
330
9C7
102
}
330
1E
100
AcDbEntity
  8
STEMPEL
100
AcDbLine
 10
352.2120655822872
 20
470.6604370338186
 30
0.0
 11
352.2120655822872
 21
465.6604370338186
 31
0.0
  0
LINE
  5
A85
330
1E
100
AcDbEntity
  8
STEMPEL
100
AcDbLine
 10
397.8378914813167
 20
465.6604370338186
 30
0.0
 11
397.8378914813167
 21
455.6604370338187
 31
0.0
  0
LINE
  5
A86
330
1E
100
AcDbEntity
  8
STEMPEL
100
AcDbLine
 10
384.8936195713176
 20
465.6604370338186
 30
0.0
 11
384.8936195713176
 21
455.6604370338186
 31
0.0
  0
LINE
  5
A87
330
1E
100
AcDbEntity
  8
STEMPEL
100
AcDbLine
 10
382.7657940805035
 20
465.6604370338186
 30
0.0
 11
382.7657940805035
 21
455.6604370338187
 31
0.0
  0
LINE
  5
A88
330
1E
100
AcDbEntity
  8
STEMPEL
100
AcDbLine
 10
384.8936195713176
 20
450.6604370338187
 30
0.0
 11
384.8936195713176
 21
440.6604370338187
 31
0.0
  0
LINE
  5
A89
330
1E
100
AcDbEntity
  8
STEMPEL
100
AcDbLine
 10
382.7657940805035
 20
450.6604370338188
 30
0.0
 11
382.7657940805035
 21
440.6604370338187
 31
0.0
  0
LINE
  5
A8A
330
1E
100
AcDbEntity
  8
STEMPEL
100
AcDbLine
 10
397.8378914813167
 20
450.6604370338187
 30
0.0
 11
397.8378914813167
 21
440.6604370338189
 31
0.0
  0
LINE
  5
A8B
330
1E
100
AcDbEntity
  8
STEMPEL
100
AcDbLine
 10
384.8936195713176
 20
480.6604370338186
 30
0.0
 11
384.8936195713176
 21
470.6604370338186
 31
0.0
  0
LINE
  5
A8C
330
1E
100
AcDbEntity
  8
STEMPEL
100
AcDbLine
 10
382.7657940805035
 20
480.6604370338186
 30
0.0
 11
382.7657940805035
 21
470.6604370338186
 31
0.0
  0
LINE
  5
A8D
330
1E
100
AcDbEntity
  8
STEMPEL
100
AcDbLine
 10
397.8378914813167
 20
480.6604370338186
 30
0.0
 11
397.8378914813167
 21
470.6604370338186
 31
0.0
  0
LINE
  5
A8E
102
{ACAD_REACTORS
330
9C7
102
}
330
1E
100
AcDbEntity
  8
STEMPEL
100
AcDbLine
 10
544.2120655822869
 20
440.6604370338187
 30
0.0
 11
544.2120655822869
 21
435.6604370338187
 31
0.0
  0
LINE
  5
A8F
102
{ACAD_REACTORS
330
9C7
102
}
330
1E
100
AcDbEntity
  8
STEMPEL
100
AcDbLine
 10
541.2120655822869
 20
440.6604370338187
 30
0.0
 11
541.2120655822869
 21
435.6604370338187
 31
0.0
  0
LINE
  5
A93
102
{ACAD_REACTORS
330
9C7
102
}
330
1E
100
AcDbEntity
  8
STEMPEL
100
AcDbLine
 10
513.2120655822872
 20
405.6604370338187
 30
0.0
 11
544.2120655822869
 21
405.6604370338187
 31
0.0
  0
LINE
  5
A94
102
{ACAD_REACTORS
330
9C7
102
}
330
1E
100
AcDbEntity
  8
STEMPEL
100
AcDbLine
 10
513.2120655822872
 20
410.6604370338187
 30
0.0
 11
544.2120655822869
 21
410.6604370338187
 31
0.0
  0
LINE
  5
A95
102
{ACAD_REACTORS
330
9C7
102
}
330
1E
100
AcDbEntity
  8
STEMPEL
100
AcDbLine
 10
513.2120655822872
 20
395.6604370338188
 30
0.0
 11
544.2120655822869
 21
395.6604370338188
 31
0.0
  0
LINE
  5
A96
102
{ACAD_REACTORS
330
9C7
102
}
330
1E
100
AcDbEntity
  8
STEMPEL
100
AcDbLine
 10
513.2120655822872
 20
390.6604370338188
 30
0.0
 11
544.2120655822869
 21
390.6604370338188
 31
0.0
  0
LINE
  5
A9A
102
{ACAD_REACTORS
330
9C7
102
}
330
1E
100
AcDbEntity
  8
STEMPEL
100
AcDbLine
 10
544.2120655822869
 20
395.6604370338188
 30
0.0
 11
544.2120655822869
 21
390.6604370338188
 31
0.0
  0
LINE
  5
A9B
102
{ACAD_REACTORS
330
9C7
102
}
330
1E
100
AcDbEntity
  8
STEMPEL
100
AcDbLine
 10
541.2120655822869
 20
395.6604370338188
 30
0.0
 11
541.2120655822869
 21
390.6604370338188
 31
0.0
  0
LINE
  5
A9C
102
{ACAD_REACTORS
330
9C7
102
}
330
1E
100
AcDbEntity
  8
STEMPEL
100
AcDbLine
 10
544.2120655822869
 20
410.6604370338187
 30
0.0
 11
544.2120655822869
 21
405.6604370338187
 31
0.0
  0
LINE
  5
A9D
102
{ACAD_REACTORS
330
9C7
102
}
330
1E
100
AcDbEntity
  8
STEMPEL
100
AcDbLine
 10
541.2120655822869
 20
410.6604370338187
 30
0.0
 11
541.2120655822869
 21
405.6604370338187
 31
0.0
  0
LINE
  5
A9E
102
{ACAD_REACTORS
330
9C7
102
}
330
1E
100
AcDbEntity
  8
STEMPEL
100
AcDbLine
 10
508.5305115932566
 20
435.6604370338187
 30
0.0
 11
544.2120655822869
 21
435.6604370338187
 31
0.0
  0
LINE
  5
A9F
102
{ACAD_REACTORS
330
9C7
102
}
330
1E
100
AcDbEntity
  8
STEMPEL
100
AcDbLine
 10
513.2120655822872
 20
420.6604370338188
 30
0.0
 11
544.2120655822869
 21
420.6604370338188
 31
0.0
  0
LINE
  5
AA0
102
{ACAD_REACTORS
330
9C7
102
}
330
1E
100
AcDbEntity
  8
STEMPEL
100
AcDbLine
 10
513.2120655822872
 20
425.6604370338187
 30
0.0
 11
544.2120655822869
 21
425.6604370338187
 31
0.0
  0
LINE
  5
AA1
330
1E
100
AcDbEntity
  8
STEMPEL
100
AcDbLine
 10
495.5862396832575
 20
435.6604370338187
 30
0.0
 11
495.5862396832575
 21
433.6604370338189
 31
0.0
  0
LINE
  5
AA2
330
1E
100
AcDbEntity
  8
STEMPEL
100
AcDbLine
 10
510.3000237097075
 20
435.6604370338187
 30
0.0
 11
510.3000237097075
 21
433.6604370338189
 31
0.0
  0
LINE
  5
AA3
330
1E
100
AcDbEntity
  8
STEMPEL
100
AcDbLine
 10
508.5305115932566
 20
435.6604370338187
 30
0.0
 11
508.5305115932566
 21
433.6604370338189
 31
0.0
  0
LINE
  5
AA4
102
{ACAD_REACTORS
330
9C7
102
}
330
1E
100
AcDbEntity
  8
STEMPEL
100
AcDbLine
 10
544.2120655822869
 20
425.6604370338187
 30
0.0
 11
544.2120655822869
 21
420.6604370338188
 31
0.0
  0
LINE
  5
AA5
102
{ACAD_REACTORS
330
9C7
102
}
330
1E
100
AcDbEntity
  8
STEMPEL
100
AcDbLine
 10
541.2120655822869
 20
425.6604370338187
 30
0.0
 11
541.2120655822869
 21
420.6604370338188
 31
0.0
  0
LINE
  5
AA6
330
1E
100
AcDbEntity
  8
STEMPEL
100
AcDbLine
 10
508.5305115932566
 20
465.6604370338186
 30
0.0
 11
508.5305115932566
 21
455.6604370338186
 31
0.0
  0
LINE
  5
AA7
330
1E
100
AcDbEntity
  8
STEMPEL
100
AcDbLine
 10
495.5862396832575
 20
465.6604370338186
 30
0.0
 11
495.5862396832575
 21
455.6604370338186
 31
0.0
  0
LINE
  5
AA8
330
1E
100
AcDbEntity
  8
STEMPEL
100
AcDbLine
 10
510.3000237097075
 20
465.6604370338186
 30
0.0
 11
510.3000237097075
 21
455.6604370338186
 31
0.0
  0
LINE
  5
AA9
102
{ACAD_REACTORS
330
9C7
102
}
330
1E
100
AcDbEntity
  8
STEMPEL
100
AcDbLine
 10
508.5305115932566
 20
450.6604370338187
 30
0.0
 11
544.2120655822869
 21
450.6604370338187
 31
0.0
  0
LINE
  5
AAA
102
{ACAD_REACTORS
330
9C7
102
}
330
1E
100
AcDbEntity
  8
STEMPEL
100
AcDbLine
 10
508.5305115932566
 20
455.6604370338186
 30
0.0
 11
544.2120655822869
 21
455.6604370338186
 31
0.0
  0
LINE
  5
AAB
102
{ACAD_REACTORS
330
9C7
102
}
330
1E
100
AcDbEntity
  8
STEMPEL
100
AcDbLine
 10
508.5305115932566
 20
440.6604370338187
 30
0.0
 11
544.2120655822869
 21
440.6604370338187
 31
0.0
  0
LINE
  5
AAC
330
1E
100
AcDbEntity
  8
STEMPEL
100
AcDbLine
 10
508.5305115932566
 20
450.6604370338187
 30
0.0
 11
508.5305115932566
 21
440.6604370338187
 31
0.0
  0
LINE
  5
AAD
330
1E
100
AcDbEntity
  8
STEMPEL
100
AcDbLine
 10
510.3000237097075
 20
450.6604370338187
 30
0.0
 11
510.3000237097075
 21
440.6604370338187
 31
0.0
  0
LINE
  5
AAE
330
1E
100
AcDbEntity
  8
STEMPEL
100
AcDbLine
 10
495.5862396832575
 20
450.6604370338187
 30
0.0
 11
495.5862396832575
 21
440.6604370338187
 31
0.0
  0
LINE
  5
AAF
102
{ACAD_REACTORS
330
9C7
102
}
330
1E
100
AcDbEntity
  8
STEMPEL
100
AcDbLine
 10
544.2120655822869
 20
455.6604370338186
 30
0.0
 11
544.2120655822869
 21
450.6604370338187
 31
0.0
  0
LINE
  5
AB0
102
{ACAD_REACTORS
330
9C7
102
}
330
1E
100
AcDbEntity
  8
STEMPEL
100
AcDbLine
 10
541.2120655822869
 20
455.6604370338186
 30
0.0
 11
541.2120655822869
 21
450.6604370338187
 31
0.0
  0
LINE
  5
AB1
102
{ACAD_REACTORS
330
9C7
102
}
330
1E
100
AcDbEntity
  8
STEMPEL
100
AcDbLine
 10
508.5305115932566
 20
480.6604370338186
 30
0.0
 11
544.2120655822869
 21
480.6604370338186
 31
0.0
  0
LINE
  5
AB2
102
{ACAD_REACTORS
330
9C7
102
}
330
1E
100
AcDbEntity
  8
STEMPEL
100
AcDbLine
 10
508.5305115932566
 20
470.6604370338186
 30
0.0
 11
544.2120655822869
 21
470.6604370338186
 31
0.0
  0
LINE
  5
AB3
102
{ACAD_REACTORS
330
9C7
102
}
330
1E
100
AcDbEntity
  8
STEMPEL
100
AcDbLine
 10
508.5305115932566
 20
465.6604370338186
 30
0.0
 11
544.2120655822869
 21
465.6604370338186
 31
0.0
  0
LINE
  5
AB4
330
1E
100
AcDbEntity
  8
STEMPEL
100
AcDbLine
 10
510.3000237097075
 20
480.6604370338186
 30
0.0
 11
510.3000237097075
 21
470.6604370338186
 31
0.0
  0
LINE
  5
AB5
330
1E
100
AcDbEntity
  8
STEMPEL
100
AcDbLine
 10
508.5305115932566
 20
480.6604370338186
 30
0.0
 11
508.5305115932566
 21
470.6604370338186
 31
0.0
  0
LINE
  5
AB6
330
1E
100
AcDbEntity
  8
STEMPEL
100
AcDbLine
 10
495.5862396832575
 20
480.6604370338186
 30
0.0
 11
495.5862396832575
 21
470.6604370338186
 31
0.0
  0
LINE
  5
AB7
102
{ACAD_REACTORS
330
9C7
102
}
330
1E
100
AcDbEntity
  8
STEMPEL
100
AcDbLine
 10
544.2120655822869
 20
470.6604370338186
 30
0.0
 11
544.2120655822869
 21
465.6604370338186
 31
0.0
  0
LINE
  5
AB8
102
{ACAD_REACTORS
330
9C7
102
}
330
1E
100
AcDbEntity
  8
STEMPEL
100
AcDbLine
 10
541.2120655822869
 20
470.6604370338186
 30
0.0
 11
541.2120655822869
 21
465.6604370338186
 31
0.0
  0
LINE
  5
AB9
330
1E
100
AcDbEntity
  8
STEMPEL
100
AcDbLine
 10
397.8378914813167
 20
495.6604370338186
 30
0.0
 11
495.5862396832575
 21
495.6604370338186
 31
0.0
  0
LINE
  5
ABA
330
1E
100
AcDbEntity
  8
STEMPEL
100
AcDbLine
 10
397.8378914813167
 20
485.6604370338186
 30
0.0
 11
495.5862396832575
 21
485.6604370338186
 31
0.0
  0
LINE
  5
ABB
102
{ACAD_REACTORS
330
9C7
102
}
330
1E
100
AcDbEntity
  8
STEMPEL
100
AcDbLine
 10
349.2120655822872
 20
500.6604370338187
 30
0.0
 11
544.2120655822869
 21
500.6604370338181
 31
0.0
  0
LINE
  5
ABC
102
{ACAD_REACTORS
330
9C7
102
}
330
1E
100
AcDbEntity
  8
STEMPEL
100
AcDbLine
 10
349.2120655822872
 20
485.6604370338186
 30
0.0
 11
384.8936195713176
 21
485.6604370338186
 31
0.0
  0
LINE
  5
ABD
102
{ACAD_REACTORS
330
9C7
102
}
330
1E
100
AcDbEntity
  8
STEMPEL
100
AcDbLine
 10
349.2120655822872
 20
495.6604370338186
 30
0.0
 11
384.8936195713176
 21
495.6604370338186
 31
0.0
  0
LINE
  5
ABE
102
{ACAD_REACTORS
330
9C7
102
}
330
1E
100
AcDbEntity
  8
STEMPEL
100
AcDbLine
 10
349.212065582287
 20
500.6604370338187
 30
0.0
 11
349.2120655822872
 21
495.6604370338186
 31
0.0
  0
LINE
  5
ABF
102
{ACAD_REACTORS
330
9C7
102
}
330
1E
100
AcDbEntity
  8
STEMPEL
100
AcDbLine
 10
352.212065582287
 20
500.6604370338187
 30
0.0
 11
352.2120655822872
 21
495.6604370338186
 31
0.0
  0
LINE
  5
AC0
330
1E
100
AcDbEntity
  8
STEMPEL
100
AcDbLine
 10
384.8936195713176
 20
495.6604370338186
 30
0.0
 11
384.8936195713176
 21
485.6604370338186
 31
0.0
  0
LINE
  5
AC1
330
1E
100
AcDbEntity
  8
STEMPEL
100
AcDbLine
 10
382.7657940805035
 20
495.6604370338186
 30
0.0
 11
382.7657940805035
 21
485.6604370338186
 31
0.0
  0
LINE
  5
AC2
330
1E
100
AcDbEntity
  8
STEMPEL
100
AcDbLine
 10
397.8378914813167
 20
495.6604370338186
 30
0.0
 11
397.8378914813167
 21
485.6604370338186
 31
0.0
  0
LINE
  5
AC3
102
{ACAD_REACTORS
330
9C7
102
}
330
1E
100
AcDbEntity
  8
STEMPEL
100
AcDbLine
 10
508.5305115932566
 20
495.6604370338186
 30
0.0
 11
544.2120655822869
 21
495.6604370338186
 31
0.0
  0
LINE
  5
AC4
102
{ACAD_REACTORS
330
9C7
102
}
330
1E
100
AcDbEntity
  8
STEMPEL
100
AcDbLine
 10
508.5305115932566
 20
485.6604370338186
 30
0.0
 11
544.2120655822869
 21
485.6604370338186
 31
0.0
  0
LINE
  5
AC5
330
1E
100
AcDbEntity
  8
STEMPEL
100
AcDbLine
 10
508.5305115932566
 20
495.6604370338186
 30
0.0
 11
508.5305115932566
 21
485.6604370338186
 31
0.0
  0
LINE
  5
AC6
330
1E
100
AcDbEntity
  8
STEMPEL
100
AcDbLine
 10
510.3000237097075
 20
495.6604370338186
 30
0.0
 11
510.3000237097075
 21
485.6604370338186
 31
0.0
  0
LINE
  5
AC7
330
1E
100
AcDbEntity
  8
STEMPEL
100
AcDbLine
 10
495.5862396832575
 20
495.6604370338186
 30
0.0
 11
495.5862396832575
 21
485.6604370338186
 31
0.0
  0
LINE
  5
AC8
102
{ACAD_REACTORS
330
9C7
102
}
330
1E
100
AcDbEntity
  8
STEMPEL
100
AcDbLine
 10
544.2120655822869
 20
500.6604370338181
 30
0.0
 11
544.2120655822869
 21
495.6604370338186
 31
0.0
  0
LINE
  5
AC9
102
{ACAD_REACTORS
330
9C7
102
}
330
1E
100
AcDbEntity
  8
STEMPEL
100
AcDbLine
 10
541.2120655822869
 20
500.6604370338187
 30
0.0
 11
541.2120655822869
 21
495.6604370338186
 31
0.0
  0
HATCH
  5
B5B
330
1E
100
AcDbEntity
  8
SCHRAFF
100
AcDbHatch
 10
0.0
 20
0.0
 30
0.0
210
0.0
220
0.0
230
1.0
  2
_USER
 70
     0
 71
     0
 91
       10
 92
        7
 72
     1
 73
     1
 93
        8
 10
532.7120655822872
 20
508.5373314082011
 42
0.0
 10
532.7120655822872
 20
505.5373314082009
 42
0.0
 10
536.2120655822869
 20
505.537331408201
 42
-0.4142135623730951
 10
545.2120655822869
 20
496.5373314082009
 42
0.0
 10
545.2120655822869
 20
485.5373314082012
 42
0.0
 10
548.2120655822869
 20
485.5373314082011
 42
0.0
 10
548.2120655822869
 20
496.5373314082009
 42
0.4142135623730951
 10
536.2120655822869
 20
508.5373314082009
 42
0.0
 97
        0
 92
        7
 72
     0
 73
     1
 93
        4
 10
515.7120655822869
 20
508.537331408201
 10
515.7120655822867
 20
505.5373314082008
 10
520.7120655822869
 20
505.5373314082009
 10
520.7120655822867
 20
508.5373314082009
 97
        0
 92
        7
 72
     0
 73
     1
 93
        4
 10
496.712065582287
 20
508.5373314082009
 10
496.712065582287
 20
505.5373314082011
 10
503.7120655822869
 20
505.5373314082011
 10
503.7120655822869
 20
508.537331408201
 97
        0
 92
        7
 72
     0
 73
     1
 93
        4
 10
484.712065582287
 20
505.537331408201
 10
484.712065582287
 20
508.5373314082009
 10
476.712065582287
 20
508.5373314082008
 10
476.712065582287
 20
505.537331408201
 97
        0
 92
        7
 72
     0
 73
     1
 93
        4
 10
458.2120655822867
 20
508.5373314082009
 10
458.2120655822869
 20
505.537331408201
 10
464.7120655822872
 20
505.537331408201
 10
464.7120655822869
 20
508.537331408201
 97
        0
 92
        7
 72
     0
 73
     1
 93
        4
 10
428.7120655822869
 20
508.5373314082009
 10
428.7120655822869
 20
505.5373314082009
 10
435.2120655822869
 20
505.5373314082009
 10
435.2120655822867
 20
508.5373314082009
 97
        0
 92
        7
 72
     0
 73
     1
 93
        4
 10
408.712065582287
 20
508.537331408201
 10
408.712065582287
 20
505.5373314082008
 10
416.7120655822869
 20
505.5373314082008
 10
416.7120655822872
 20
508.537331408201
 97
        0
 92
        7
 72
     0
 73
     1
 93
        4
 10
396.7120655822872
 20
508.5373314082011
 10
389.712065582287
 20
508.5373314082011
 10
389.712065582287
 20
505.5373314082012
 10
396.712065582287
 20
505.5373314082011
 97
        0
 92
        7
 72
     0
 73
     1
 93
        4
 10
372.712065582287
 20
508.537331408201
 10
372.7120655822868
 20
505.537331408201
 10
377.712065582287
 20
505.537331408201
 10
377.7120655822868
 20
508.537331408201
 97
        0
 92
        7
 72
     1
 73
     1
 93
        8
 10
357.212065582287
 20
508.5373314082011
 42
0.4142135623730951
 10
345.212065582287
 20
496.5373314082011
 42
0.0
 10
345.2120655822872
 20
485.5373314082012
 42
0.0
 10
348.212065582287
 20
485.5373314082011
 42
0.0
 10
348.212065582287
 20
496.5373314082011
 42
-0.4142135623730951
 10
357.212065582287
 20
505.5373314082011
 42
0.0
 10
360.712065582287
 20
505.5373314082011
 42
0.0
 10
360.712065582287
 20
508.5373314082011
 42
0.0
 97
        0
 75
     0
 76
     0
 52
45.0
 41
2.0
 77
     0
 78
     1
 53
45.0
 43
-704.7832341961324
 44
-14.14692724768224
 45
-1.414213562373094
 46
1.414213562373095
 79
     0
 47
0.2968933835097576
 98
       10
 10
534.7248780535359
 20
507.1731999198163
 10
518.6835030769819
 20
507.1731999198163
 10
498.4832514014732
 20
507.766987220322
 10
480.9565635008315
 20
506.8763076664867
 10
459.8651281629512
 20
507.1731999198163
 10
431.6441902779405
 20
507.1731999198163
 10
414.7116265239141
 20
507.1731999198163
 10
395.9966903300432
 20
507.4700935700692
 10
376.0935007278416
 20
507.1731999198163
 10
358.5668128271999
 20
507.1731999198163
  0
LINE
  5
B5C
330
1E
100
AcDbEntity
  8
STEMPEL
100
AcDbLine
 10
548.2120655822869
 20
485.5373314082011
 30
0.0
 11
548.2120655822869
 21
496.5373314082009
 31
0.0
  0
ARC
  5
B5D
330
1E
100
AcDbEntity
  8
STEMPEL
100
AcDbCircle
 10
357.2120655822872
 20
496.5373314082009
 30
0.0
 40
12.0
100
AcDbArc
 50
90.0
 51
180.0
  0
ARC
  5
B5E
330
1E
100
AcDbEntity
  8
STEMPEL
100
AcDbCircle
 10
536.2120655822869
 20
496.5373314082009
 30
0.0
 40
12.0
100
AcDbArc
 50
0.0
 51
90.0
  0
LINE
  5
B5F
330
1E
100
AcDbEntity
  8
STEMPEL
100
AcDbLine
 10
548.2120655822869
 20
485.5373314082011
 30
0.0
 11
544.2120655822869
 21
485.5373314082011
 31
0.0
  0
ARC
  5
B61
330
1E
100
AcDbEntity
  8
STEMPEL
100
AcDbCircle
 10
357.2120655822872
 20
496.5373314082009
 30
0.0
 40
12.0
100
AcDbArc
 50
90.0
 51
180.0
  0
LINE
  5
B62
330
1E
100
AcDbEntity
  8
STEMPEL
100
AcDbLine
 10
536.2120655822869
 20
508.5373314082009
 30
0.0
 11
357.212065582287
 21
508.5373314082011
 31
0.0
  0
ARC
  5
B63
330
1E
100
AcDbEntity
  8
STEMPEL
100
AcDbCircle
 10
536.2120655822869
 20
496.5373314082009
 30
0.0
 40
12.0
100
AcDbArc
 50
0.0
 51
90.0
  0
LINE
  5
B64
330
1E
100
AcDbEntity
  8
STEMPEL
100
AcDbLine
 10
548.2120655822869
 20
485.5373314082011
 30
0.0
 11
548.2120655822869
 21
496.5373314082009
 31
0.0
  0
LINE
  5
B65
330
1E
100
AcDbEntity
  8
STEMPEL
100
AcDbLine
 10
435.2120655822869
 20
508.5373314082009
 30
0.0
 11
435.2120655822869
 21
505.5373314082011
 31
0.0
  0
LINE
  5
B66
330
1E
100
AcDbEntity
  8
MITTEL
100
AcDbLine
 10
366.712065582287
 20
511.5373314082011
 30
0.0
 11
366.712065582287
 21
502.5373314082011
 31
0.0
  0
LINE
  5
B67
330
1E
100
AcDbEntity
  8
STEMPEL
100
AcDbLine
 10
360.712065582287
 20
508.5373314082011
 30
0.0
 11
360.712065582287
 21
505.5373314082012
 31
0.0
  0
LINE
  5
B68
330
1E
100
AcDbEntity
  8
STEMPEL
100
AcDbLine
 10
372.712065582287
 20
508.5373314082011
 30
0.0
 11
372.712065582287
 21
505.5373314082012
 31
0.0
  0
LINE
  5
B69
330
1E
100
AcDbEntity
  8
STEMPEL
100
AcDbLine
 10
458.2120655822869
 20
508.5373314082009
 30
0.0
 11
458.2120655822869
 21
505.5373314082011
 31
0.0
  0
LINE
  5
B6A
330
1E
100
AcDbEntity
  8
STEMPEL
100
AcDbLine
 10
532.7120655822869
 20
508.5373314082009
 30
0.0
 11
532.7120655822869
 21
505.5373314082011
 31
0.0
  0
LINE
  5
B6B
330
1E
100
AcDbEntity
  8
MITTEL
100
AcDbLine
 10
526.712065582287
 20
511.537331408201
 30
0.0
 11
526.712065582287
 21
502.537331408201
 31
0.0
  0
LINE
  5
B6C
330
1E
100
AcDbEntity
  8
STEMPEL
100
AcDbLine
 10
520.7120655822869
 20
508.5373314082009
 30
0.0
 11
520.7120655822869
 21
505.5373314082011
 31
0.0
  0
LINE
  5
B6D
330
1E
100
AcDbEntity
  8
MITTEL
100
AcDbLine
 10
383.712065582287
 20
511.5373314082011
 30
0.0
 11
383.712065582287
 21
502.5373314082011
 31
0.0
  0
LINE
  5
B6E
330
1E
100
AcDbEntity
  8
MITTEL
100
AcDbLine
 10
402.7120655822869
 20
511.537331408201
 30
0.0
 11
402.7120655822869
 21
502.537331408201
 31
0.0
  0
LINE
  5
B6F
330
1E
100
AcDbEntity
  8
MITTEL
100
AcDbLine
 10
422.7120655822869
 20
511.537331408201
 30
0.0
 11
422.7120655822869
 21
502.537331408201
 31
0.0
  0
LINE
  5
B70
330
1E
100
AcDbEntity
  8
MITTEL
100
AcDbLine
 10
526.712065582287
 20
511.537331408201
 30
0.0
 11
526.712065582287
 21
502.537331408201
 31
0.0
  0
LINE
  5
B71
330
1E
100
AcDbEntity
  8
MITTEL
100
AcDbLine
 10
509.712065582287
 20
511.537331408201
 30
0.0
 11
509.712065582287
 21
502.537331408201
 31
0.0
  0
LINE
  5
B72
330
1E
100
AcDbEntity
  8
MITTEL
100
AcDbLine
 10
490.7120655822869
 20
511.537331408201
 30
0.0
 11
490.7120655822869
 21
502.537331408201
 31
0.0
  0
LINE
  5
B73
330
1E
100
AcDbEntity
  8
MITTEL
100
AcDbLine
 10
470.7120655822869
 20
511.537331408201
 30
0.0
 11
470.7120655822869
 21
502.537331408201
 31
0.0
  0
LINE
  5
B74
330
1E
100
AcDbEntity
  8
STEMPEL
100
AcDbLine
 10
377.712065582287
 20
508.5373314082011
 30
0.0
 11
377.712065582287
 21
505.5373314082011
 31
0.0
  0
LINE
  5
B75
330
1E
100
AcDbEntity
  8
STEMPEL
100
AcDbLine
 10
389.712065582287
 20
508.5373314082009
 30
0.0
 11
389.712065582287
 21
505.537331408201
 31
0.0
  0
LINE
  5
B76
330
1E
100
AcDbEntity
  8
STEMPEL
100
AcDbLine
 10
396.712065582287
 20
508.5373314082009
 30
0.0
 11
396.712065582287
 21
505.537331408201
 31
0.0
  0
LINE
  5
B77
330
1E
100
AcDbEntity
  8
STEMPEL
100
AcDbLine
 10
408.712065582287
 20
508.5373314082009
 30
0.0
 11
408.712065582287
 21
505.537331408201
 31
0.0
  0
LINE
  5
B78
330
1E
100
AcDbEntity
  8
STEMPEL
100
AcDbLine
 10
416.7120655822869
 20
508.5373314082009
 30
0.0
 11
416.7120655822869
 21
505.537331408201
 31
0.0
  0
LINE
  5
B79
330
1E
100
AcDbEntity
  8
STEMPEL
100
AcDbLine
 10
428.7120655822869
 20
508.5373314082009
 30
0.0
 11
428.7120655822869
 21
505.537331408201
 31
0.0
  0
LINE
  5
B7A
330
1E
100
AcDbEntity
  8
STEMPEL
100
AcDbLine
 10
464.7120655822869
 20
508.5373314082009
 30
0.0
 11
464.7120655822869
 21
505.537331408201
 31
0.0
  0
LINE
  5
B7B
330
1E
100
AcDbEntity
  8
STEMPEL
100
AcDbLine
 10
476.712065582287
 20
508.5373314082009
 30
0.0
 11
476.712065582287
 21
505.537331408201
 31
0.0
  0
LINE
  5
B7C
330
1E
100
AcDbEntity
  8
STEMPEL
100
AcDbLine
 10
484.712065582287
 20
508.5373314082009
 30
0.0
 11
484.712065582287
 21
505.537331408201
 31
0.0
  0
LINE
  5
B7D
330
1E
100
AcDbEntity
  8
STEMPEL
100
AcDbLine
 10
496.712065582287
 20
508.5373314082009
 30
0.0
 11
496.712065582287
 21
505.537331408201
 31
0.0
  0
LINE
  5
B7E
330
1E
100
AcDbEntity
  8
STEMPEL
100
AcDbLine
 10
503.7120655822869
 20
508.5373314082009
 30
0.0
 11
503.7120655822869
 21
505.537331408201
 31
0.0
  0
LINE
  5
B7F
330
1E
100
AcDbEntity
  8
STEMPEL
100
AcDbLine
 10
515.7120655822869
 20
508.5373314082009
 30
0.0
 11
515.7120655822869
 21
505.537331408201
 31
0.0
  0
LINE
  5
B80
330
1E
100
AcDbEntity
  8
STEMPEL
100
AcDbLine
 10
345.212065582287
 20
485.5373314082012
 30
0.0
 11
345.212065582287
 21
496.5373314082011
 31
0.0
  0
ARC
  5
B81
330
1E
100
AcDbEntity
  8
STEMPEL
100
AcDbCircle
 10
357.2120655822872
 20
496.5373314082009
 30
0.0
 40
8.999999999999998
100
AcDbArc
 50
90.0
 51
180.0
  0
LINE
  5
B82
330
1E
100
AcDbEntity
  8
STEMPEL
100
AcDbLine
 10
536.2120655822869
 20
505.537331408201
 30
0.0
 11
357.212065582287
 21
505.5373314082011
 31
0.0
  0
ARC
  5
B83
330
1E
100
AcDbEntity
  8
STEMPEL
100
AcDbCircle
 10
536.2120655822869
 20
496.5373314082009
 30
0.0
 40
9.000000000000003
100
AcDbArc
 50
0.0
 51
90.0
  0
LINE
  5
B84
330
1E
100
AcDbEntity
  8
STEMPEL
100
AcDbLine
 10
348.212065582287
 20
485.5373314082012
 30
0.0
 11
348.212065582287
 21
496.5373314082011
 31
0.0
  0
LINE
  5
B85
330
1E
100
AcDbEntity
  8
STEMPEL
100
AcDbLine
 10
545.2120655822869
 20
485.5373314082011
 30
0.0
 11
545.2120655822869
 21
496.5373314082009
 31
0.0
  0
POINT
  5
B86
330
1E
100
AcDbEntity
  8
DEFPOINTS
  6
ByBlock
 62
     0
100
AcDbPoint
 10
347.8755790800175
 20
504.0759002241594
 30
0.0
  0
LINE
  5
B88
330
1E
100
AcDbEntity
  8
STEMPEL
100
AcDbLine
 10
349.2120655822872
 20
485.5373314082012
 30
0.0
 11
345.212065582287
 21
485.5373314082012
 31
0.0
  0
DIMENSION
  5
BA4
330
1E
100
AcDbEntity
  8
BEM
100
AcDbDimension
  2
*D6
 10
242.0139931407231
 20
508.5373314082011
 30
0.0
 11
235.513993140723
 21
383.5988842210101
 31
0.0
 70
    32
  1
250
 71
     5
 42
249.8768943743823
  3
Standard
100
AcDbAlignedDimension
 13
366.212065582287
 23
258.6604370338188
 33
0.0
 14
357.212065582287
 24
508.5373314082011
 34
0.0
 50
90.0
100
AcDbRotatedDimension
1001
ACAD
1000
DSTYLE
1002
{
1070
    40
1040
2.0
1070
    41
1040
3.5
1070
    42
1040
1.0
1070
    43
1040
7.0
1070
    44
1040
1.0
1070
    73
1070
     0
1070
    74
1070
     0
1070
    77
1070
     1
1070
    78
1070
     8
1070
    79
1070
     2
1070
   140
1040
3.5
1070
   141
1040
1.5
1070
   146
1040
0.5142857142857144
1070
   147
1040
1.5
1070
   172
1070
     1
1070
   178
1070
     1
1070
   179
1070
     2
1070
   271
1070
     2
1070
   272
1070
     2
1070
   284
1070
     8
1070
   285
1070
     8
1070
   286
1070
     8
1002
}
  0
HATCH
  5
BF8
330
1E
100
AcDbEntity
  8
SCHRAFF
100
AcDbHatch
 10
0.0
 20
0.0
 30
0.0
210
0.0
220
0.0
230
1.0
  2
_USER
 70
     0
 71
     0
 91
        2
 92
        7
 72
     1
 73
     1
 93
       16
 10
513.2120655822872
 20
433.6604370338189
 42
0.0
 10
511.2120655822872
 20
433.6604370338189
 42
0.0
 10
511.2120655822872
 20
315.3299165185007
 42
0.087488663525925
 10
511.9357541328565
 20
311.2256747985927
 42
0.0
 10
514.2296065485744
 20
304.9233670828462
 42
-0.0874886635259278
 10
514.7120655822872
 20
302.1872059362407
 42
0.0
 10
514.7120655822869
 20
267.8053838059964
 42
-0.0393657852408344
 10
514.6131936932971
 20
266.5515199483917
 42
0.0
 10
510.187038298183
 20
238.6604370338189
 42
0.0
 10
512.2120655822869
 20
238.6604370338189
 42
0.0
 10
516.5884757210496
 20
266.2380539839905
 42
0.039365785240835
 10
516.7120655822869
 20
267.8053838059964
 42
0.0
 10
516.7120655822872
 20
302.1872059362408
 42
0.0874886635259267
 10
516.1089917901461
 20
305.6074073694976
 42
0.0
 10
513.8151393744282
 20
311.9097150852439
 42
-0.0874886635259309
 10
513.2120655822872
 20
315.3299165185008
 42
0.0
 97
        0
 92
        7
 72
     1
 73
     1
 93
       16
 10
382.2120655822872
 20
433.6604370338189
 42
0.0
 10
380.2120655822868
 20
433.6604370338188
 42
0.0
 10
380.2120655822865
 20
315.3299165185008
 42
-0.08748866352592
 10
379.6089917901458
 20
311.9097150852443
 42
0.0
 10
377.3151393744277
 20
305.6074073694976
 42
0.0874886635259324
 10
376.7120655822868
 20
302.1872059362407
 42
0.0
 10
376.712065582287
 20
267.8053838059965
 42
0.0393657852408344
 10
376.8356554435241
 20
266.2380539839907
 42
0.0
 10
381.2120655822868
 20
238.6604370338189
 42
0.0
 10
383.2370928663916
 20
238.6604370338189
 42
0.0
 10
378.8109374712768
 20
266.5515199483918
 42
-0.0393657852408343
 10
378.712065582287
 20
267.8053838059965
 42
0.0
 10
378.7120655822868
 20
302.1872059362409
 42
-0.0874886635259261
 10
379.1945246159995
 20
304.9233670828463
 42
0.0
 10
381.4883770317175
 20
311.2256747985927
 42
0.087488663525918
 10
382.2120655822865
 20
315.3299165185004
 42
0.0
 97
        0
 75
     0
 76
     0
 52
45.0
 41
2.0
 77
     0
 78
     1
 53
45.0
 43
222.8459943180857
 44
-53.70335174078582
 45
-1.414213562373094
 46
1.414213562373095
 79
     0
 47
0.4520900437989614
 98
        2
 10
512.4696309948259
 20
402.971736543915
 10
381.2674883007486
 20
398.4508365742767
  0
DIMENSION
  5
BF9
102
{ACAD_XDICTIONARY
360
BFA
102
}
102
{ACAD_REACTORS
330
BFB
102
}
330
1E
100
AcDbEntity
  8
BEM
100
AcDbDimension
  2
*D7
 10
516.7120655822869
 20
219.2143377608686
 30
0.0
 11
446.712065582287
 21
225.7143377608686
 31
0.0
 70
    32
  1
%%c<>
 71
     5
 42
140.0
  3
Standard
100
AcDbAlignedDimension
 13
376.712065582287
 23
267.8053838059965
 33
0.0
 14
516.7120655822869
 24
267.8053838059964
 34
0.0
100
AcDbRotatedDimension
1001
ACAD
1000
DSTYLE
1002
{
1070
    40
1040
2.0
1070
    41
1040
3.5
1070
    42
1040
1.0
1070
    43
1040
7.0
1070
    44
1040
1.0
1070
    73
1070
     0
1070
    74
1070
     0
1070
    77
1070
     1
1070
    78
1070
     8
1070
    79
1070
     2
1070
   140
1040
3.5
1070
   141
1040
1.5
1070
   146
1040
0.5142857142857144
1070
   147
1040
1.5
1070
   172
1070
     1
1070
   178
1070
     1
1070
   179
1070
     2
1070
   271
1070
     2
1070
   272
1070
     2
1070
   284
1070
     8
1070
   285
1070
     8
1070
   286
1070
     8
1002
}
  0
LINE
  5
BFC
330
1E
100
AcDbEntity
  8
STEMPEL
  6
Continuous
100
AcDbLine
 10
381.2120655822868
 20
238.6604370338189
 30
0.0
 11
376.8356554435241
 21
266.2380539839907
 31
0.0
  0
LINE
  5
BFD
330
1E
100
AcDbEntity
  8
STEMPEL
  6
Continuous
100
AcDbLine
 10
379.6089917901458
 20
311.909715085244
 30
0.0
 11
377.3151393744277
 21
305.6074073694976
 31
0.0
  0
LINE
  5
BFE
330
1E
100
AcDbEntity
  8
STEMPEL
  6
Continuous
100
AcDbLine
 10
380.2120655822865
 20
315.3299165185008
 30
0.0
 11
380.212065582287
 21
433.660437033819
 31
0.0
  0
LINE
  5
BFF
102
{ACAD_REACTORS
330
BFB
102
}
330
1E
100
AcDbEntity
  8
STEMPEL
100
AcDbLine
 10
376.7120655822868
 20
302.1872059362409
 30
0.0
 11
376.712065582287
 21
267.8053838059965
 31
0.0
  0
ARC
  5
C00
330
1E
100
AcDbEntity
  8
STEMPEL
100
AcDbCircle
 10
386.7120655822867
 20
302.1872059362409
 30
0.0
 40
10.0
100
AcDbArc
 50
160.0000000000015
 51
180.0
  0
ARC
  5
C01
330
1E
100
AcDbEntity
  8
STEMPEL
  6
Continuous
100
AcDbCircle
 10
370.2120655822865
 20
315.3299165185009
 30
0.0
 40
10.0
100
AcDbArc
 50
340.0
 51
0.0
  0
ARC
  5
C02
330
1E
100
AcDbEntity
  8
STEMPEL
100
AcDbCircle
 10
386.712065582287
 20
267.8053838059966
 30
0.0
 40
10.0
100
AcDbArc
 50
180.0
 51
189.0173173888511
  0
LINE
  5
C03
330
1E
100
AcDbEntity
  8
STEMPEL
  6
Continuous
100
AcDbLine
 10
382.2120655822865
 20
315.3299165185008
 30
0.0
 11
382.212065582287
 21
433.660437033819
 31
0.0
  0
ARC
  5
C04
330
1E
100
AcDbEntity
  8
STEMPEL
  6
Continuous
100
AcDbCircle
 10
370.2120655822865
 20
315.3299165185009
 30
0.0
 40
12.0
100
AcDbArc
 50
340.0
 51
0.0
  0
LINE
  5
C05
330
1E
100
AcDbEntity
  8
STEMPEL
  6
Continuous
100
AcDbLine
 10
381.4883770317175
 20
311.2256747985927
 30
0.0
 11
379.1945246159995
 21
304.9233670828463
 31
0.0
  0
ARC
  5
C06
330
1E
100
AcDbEntity
  8
STEMPEL
100
AcDbCircle
 10
386.7120655822867
 20
302.1872059362409
 30
0.0
 40
8.0
100
AcDbArc
 50
160.0000000000015
 51
180.0
  0
LINE
  5
C07
330
1E
100
AcDbEntity
  8
STEMPEL
100
AcDbLine
 10
378.7120655822868
 20
302.1872059362409
 30
0.0
 11
378.712065582287
 21
267.8053838059965
 31
0.0
  0
ARC
  5
C08
330
1E
100
AcDbEntity
  8
STEMPEL
100
AcDbCircle
 10
386.712065582287
 20
267.8053838059966
 30
0.0
 40
8.0
100
AcDbArc
 50
180.0
 51
189.0173173888511
  0
LINE
  5
C09
330
1E
100
AcDbEntity
  8
STEMPEL
  6
Continuous
100
AcDbLine
 10
383.2370928663914
 20
238.660437033819
 30
0.0
 11
378.8109374712768
 21
266.5515199483918
 31
0.0
  0
LINE
  5
C0A
330
1E
100
AcDbEntity
  8
STEMPEL
  6
Continuous
100
AcDbLine
 10
510.1870382981825
 20
238.6604370338189
 30
0.0
 11
514.6131936932971
 21
266.5515199483917
 31
0.0
  0
ARC
  5
C0B
330
1E
100
AcDbEntity
  8
STEMPEL
100
AcDbCircle
 10
506.7120655822869
 20
267.8053838059964
 30
0.0
 40
8.0
100
AcDbArc
 50
350.9826826111489
 51
0.0
  0
LINE
  5
C0C
330
1E
100
AcDbEntity
  8
STEMPEL
100
AcDbLine
 10
514.7120655822872
 20
302.1872059362408
 30
0.0
 11
514.7120655822869
 21
267.8053838059964
 31
0.0
  0
ARC
  5
C0D
330
1E
100
AcDbEntity
  8
STEMPEL
100
AcDbCircle
 10
506.7120655822872
 20
302.1872059362408
 30
0.0
 40
8.0
100
AcDbArc
 50
0.0
 51
19.99999999999842
  0
LINE
  5
C0E
330
1E
100
AcDbEntity
  8
STEMPEL
  6
Continuous
100
AcDbLine
 10
511.9357541328565
 20
311.2256747985926
 30
0.0
 11
514.2296065485744
 21
304.9233670828462
 31
0.0
  0
ARC
  5
C0F
330
1E
100
AcDbEntity
  8
STEMPEL
  6
Continuous
100
AcDbCircle
 10
523.2120655822872
 20
315.3299165185007
 30
0.0
 40
12.0
100
AcDbArc
 50
180.0
 51
199.9999999999984
  0
LINE
  5
C10
330
1E
100
AcDbEntity
  8
STEMPEL
  6
Continuous
100
AcDbLine
 10
511.2120655822872
 20
315.3299165185007
 30
0.0
 11
511.2120655822872
 21
433.6604370338189
 31
0.0
  0
ARC
  5
C11
330
1E
100
AcDbEntity
  8
STEMPEL
100
AcDbCircle
 10
506.7120655822869
 20
267.8053838059964
 30
0.0
 40
10.0
100
AcDbArc
 50
350.9826826111489
 51
0.0
  0
ARC
  5
C12
330
1E
100
AcDbEntity
  8
STEMPEL
  6
Continuous
100
AcDbCircle
 10
523.2120655822872
 20
315.3299165185007
 30
0.0
 40
10.0
100
AcDbArc
 50
180.0
 51
199.9999999999984
  0
ARC
  5
C13
330
1E
100
AcDbEntity
  8
STEMPEL
100
AcDbCircle
 10
506.7120655822872
 20
302.1872059362408
 30
0.0
 40
10.0
100
AcDbArc
 50
0.0
 51
19.99999999999842
  0
LINE
  5
C14
102
{ACAD_REACTORS
330
BFB
102
}
330
1E
100
AcDbEntity
  8
STEMPEL
100
AcDbLine
 10
516.7120655822872
 20
302.1872059362408
 30
0.0
 11
516.7120655822869
 21
267.8053838059964
 31
0.0
  0
LINE
  5
C15
330
1E
100
AcDbEntity
  8
STEMPEL
  6
Continuous
100
AcDbLine
 10
513.2120655822872
 20
315.3299165185007
 30
0.0
 11
513.2120655822872
 21
433.6604370338189
 31
0.0
  0
LINE
  5
C16
330
1E
100
AcDbEntity
  8
STEMPEL
  6
Continuous
100
AcDbLine
 10
513.8151393744282
 20
311.9097150852439
 30
0.0
 11
516.1089917901461
 21
305.6074073694976
 31
0.0
  0
LINE
  5
C17
330
1E
100
AcDbEntity
  8
STEMPEL
  6
Continuous
100
AcDbLine
 10
513.2120655822872
 20
433.6604370338189
 30
0.0
 11
380.212065582287
 21
433.6604370338189
 31
0.0
  0
LINE
  5
C18
330
1E
100
AcDbEntity
  8
HILF
  6
Continuous
100
AcDbLine
 10
380.968840787862
 20
303.9236877129101
 30
0.0
 11
512.4552903767117
 21
303.9236877129101
 31
0.0
  0
LINE
  5
C19
330
1E
100
AcDbEntity
  8
HILF
  6
Continuous
100
AcDbLine
 10
384.1039564197246
 20
313.5934347418313
 30
0.0
 11
509.3201747448492
 21
313.5934347418313
 31
0.0
  0
LINE
  5
C1A
330
1E
100
AcDbEntity
  8
HILF
  6
Continuous
100
AcDbLine
 10
380.763784259601
 20
267.0192862890257
 30
0.0
 11
512.6603469049727
 21
267.0192862890257
 31
0.0
  0
LINE
  5
C1B
330
1E
100
AcDbEntity
  8
STEMPEL
100
AcDbLine
 10
512.2120655822869
 20
238.6604370338189
 30
0.0
 11
381.2120655822868
 21
238.6604370338189
 31
0.0
  0
LINE
  5
C1D
330
1E
100
AcDbEntity
  8
STEMPEL
  6
Continuous
100
AcDbLine
 10
512.2120655822869
 20
238.6604370338189
 30
0.0
 11
516.5884757210496
 21
266.2380539839905
 31
0.0
  0
DIMENSION
  5
C7D
330
1E
100
AcDbEntity
  8
BEM
100
AcDbDimension
  2
*D8
 10
366.212065582287
 20
204.8341032958518
 30
0.0
 11
446.7120655822871
 21
211.3341032958518
 31
0.0
 70
    32
  1
%%c<>
 71
     5
 42
161.0000000000002
  3
Standard
100
AcDbAlignedDimension
 13
527.2120655822872
 23
258.6604370338189
 33
0.0
 14
366.212065582287
 24
258.6604370338188
 34
0.0
100
AcDbRotatedDimension
1001
ACAD
1000
DSTYLE
1002
{
1070
    40
1040
2.0
1070
    41
1040
3.5
1070
    42
1040
1.0
1070
    43
1040
7.0
1070
    44
1040
1.0
1070
    73
1070
     0
1070
    74
1070
     0
1070
    77
1070
     1
1070
    78
1070
     8
1070
    79
1070
     2
1070
   140
1040
3.5
1070
   141
1040
1.5
1070
   146
1040
0.5142857142857144
1070
   147
1040
1.5
1070
   172
1070
     1
1070
   178
1070
     1
1070
   179
1070
     2
1070
   271
1070
     2
1070
   272
1070
     2
1070
   284
1070
     8
1070
   285
1070
     8
1070
   286
1070
     8
1002
}
  0
LINE
  5
CB1
330
1E
100
AcDbEntity
  8
STEMPEL
100
AcDbLine
 10
515.3859512350394
 20
258.6604370338189
 30
0.0
 11
527.2120655822872
 21
258.6604370338189
 31
0.0
  0
LINE
  5
CB2
330
1E
100
AcDbEntity
  8
STEMPEL
100
AcDbLine
 10
516.7120655822867
 20
275.6604370338189
 30
0.0
 11
611.7120655822872
 21
275.6604370338189
 31
0.0
  0
ENDSEC
  0
SECTION
  2
OBJECTS
  0
DICTIONARY
  5
C
330
0
100
AcDbDictionary
281
     1
  3
ACAD_COLOR
350
11A
  3
ACAD_GROUP
350
D
  3
ACAD_LAYOUT
350
19
  3
ACAD_MATERIAL
350
119
  3
ACAD_MLINESTYLE
350
16
  3
ACAD_PLOTSETTINGS
350
18
  3
ACAD_PLOTSTYLENAME
350
E
  3
AcDbVariableDictionary
350
125
  0
DICTIONARY
  5
DB
330
1E
100
AcDbDictionary
280
     1
281
     1
  3
ACAD_LAYOUTSELFREF
360
10F
  0
DICTIONARY
  5
DD
330
1A
100
AcDbDictionary
280
     1
281
     1
  3
ACAD_LAYOUTSELFREF
360
10E
  0
DICTIONARY
  5
BFA
330
BF9
100
AcDbDictionary
280
     1
281
     1
  3
ACAD_DIMASSOC
360
BFB
  0
DICTIONARY
  5
11A
102
{ACAD_REACTORS
330
C
102
}
330
C
100
AcDbDictionary
281
     1
  0
DICTIONARY
  5
D
102
{ACAD_REACTORS
330
C
102
}
330
C
100
AcDbDictionary
281
     1
  0
DICTIONARY
  5
19
102
{ACAD_REACTORS
330
C
102
}
330
C
100
AcDbDictionary
281
     1
  3
Layout1
350
1D
  3
Model
350
21
  0
DICTIONARY
  5
119
102
{ACAD_REACTORS
330
C
102
}
330
C
100
AcDbDictionary
281
     1
  0
DICTIONARY
  5
16
102
{ACAD_REACTORS
330
C
102
}
330
C
100
AcDbDictionary
281
     1
  3
Standard
350
17
  0
DICTIONARY
  5
18
102
{ACAD_REACTORS
330
C
102
}
330
C
100
AcDbDictionary
281
     1
  0
ACDBDICTIONARYWDFLT
  5
E
102
{ACAD_REACTORS
330
C
102
}
330
C
100
AcDbDictionary
281
     1
  3
Normal
350
F
100
AcDbDictionaryWithDefault
340
F
  0
DICTIONARY
  5
125
102
{ACAD_REACTORS
330
C
102
}
330
C
100
AcDbDictionary
281
     1
  3
DIMASSOC
350
126
  3
PROJECTNAME
350
127
  0
XRECORD
  5
10F
102
{ACAD_REACTORS
330
DB
102
}
330
DB
100
AcDbXrecord
280
     1
340
1E
  0
XRECORD
  5
10E
102
{ACAD_REACTORS
330
DD
102
}
330
DD
100
AcDbXrecord
280
     1
340
1A
  0
DIMASSOC
  5
BFB
102
{ACAD_REACTORS
330
BFA
102
}
330
BFA
100
AcDbDimAssoc
330
BF9
 90
        3
 70
     0
 71
     0
  1
AcDbOsnapPointRef
 72
     1
331
BFF
 73
     2
 91
        0
 40
1.0
 10
0.0
 20
0.0
 30
2.000000000000000E+50
 75
     0
  1
AcDbOsnapPointRef
 72
     1
331
C14
 73
     2
 91
        0
 40
1.0
 10
0.0
 20
0.0
 30
2.000000000000000E+50
 75
     0
  0
LAYOUT
  5
1D
102
{ACAD_REACTORS
330
19
102
}
330
19
100
AcDbPlotSettings
  1

  2
\\NT_WORK01\HP LaserJet 5000 PCL 6
  4

  6

 40
0.0
 41
0.0
 42
0.0
 43
0.0
 44
0.0
 45
0.0
 46
0.0
 47
0.0
 48
0.0
 49
0.0
140
0.0
141
0.0
142
1.0
143
1.0
 70
   688
 72
     0
 73
     0
 74
     5
  7

 75
    16
147
1.0
 76
     0
 77
     2
 78
   300
148
0.0
149
0.0
100
AcDbLayout
  1
Layout1
 70
     0
 71
     1
 10
0.0
 20
0.0
 11
12.0
 21
9.0
 12
0.0
 22
0.0
 32
0.0
 14
1.000000000000000E+20
 24
1.000000000000000E+20
 34
1.000000000000000E+20
 15
-1.000000000000000E+20
 25
-1.000000000000000E+20
 35
-1.000000000000000E+20
146
0.0
 13
0.0
 23
0.0
 33
0.0
 16
1.0
 26
0.0
 36
0.0
 17
0.0
 27
1.0
 37
0.0
 76
     0
330
1A
  0
LAYOUT
  5
21
102
{ACAD_REACTORS
330
19
102
}
330
19
100
AcDbPlotSettings
  1

  2
none_device
  4
Letter_(8.50_x_11.00_Inches)
  6

 40
6.349999904632568
 41
6.349999904632568
 42
6.350006103515625
 43
6.350006103515625
 44
215.8999938964844
 45
279.3999938964844
 46
0.0
 47
0.0
 48
0.0
 49
0.0
140
0.0
141
0.0
142
1.0
143
1.0
 70
 11952
 72
     0
 73
     1
 74
     0
  7

 75
     0
147
1.0
 76
     0
 77
     2
 78
   300
148
-2639.973496999152
149
484.3632585142624
100
AcDbLayout
  1
Model
 70
     1
 71
     0
 10
0.0
 20
0.0
 11
12.0
 21
9.0
 12
0.0
 22
0.0
 32
0.0
 14
0.0
 24
0.0
 34
0.0
 15
0.0
 25
0.0
 35
0.0
146
0.0
 13
0.0
 23
0.0
 33
0.0
 16
1.0
 26
0.0
 36
0.0
 17
0.0
 27
1.0
 37
0.0
 76
     0
330
1E
  0
MLINESTYLE
  5
17
102
{ACAD_REACTORS
330
16
102
}
330
16
100
AcDbMlineStyle
  2
STANDARD
 70
     0
  3

 62
   256
 51
90.0
 52
90.0
 71
     2
 49
0.5
 62
   256
  6
BYLAYER
 49
-0.5
 62
   256
  6
BYLAYER
  0
ACDBPLACEHOLDER
  5
F
102
{ACAD_REACTORS
330
E
102
}
330
E
  0
DICTIONARYVAR
  5
126
102
{ACAD_REACTORS
330
125
102
}
330
125
100
DictionaryVariables
280
     0
  1
1
  0
DICTIONARYVAR
  5
127
102
{ACAD_REACTORS
330
125
102
}
330
125
100
DictionaryVariables
280
     0
  1

  0
ENDSEC
  0
EOF
