  0
SECTION
  2
HEADER
  9
$ACADVER
  1
AC1018
  9
$ACADMAINTVER
 70
     2
  9
$DWGCODEPAGE
  3
ANSI_1252
  9
$INSBASE
 10
0.0
 20
0.0
 30
0.0
  9
$EXTMIN
 10
-0.0437706063369205
 20
-0.0309594015629955
 30
-0.0000000000000053
  9
$EXTMAX
 10
840.0470151785677
 20
594.023434677505
 30
0.0000000000000099
  9
$LIMMIN
 10
0.0
 20
0.0
  9
$LIMMAX
 10
840.0
 20
594.0
  9
$ORTHOMODE
 70
     0
  9
$REGENMODE
 70
     1
  9
$FILLMODE
 70
     1
  9
$QTEXTMODE
 70
     0
  9
$MIRRTEXT
 70
     1
  9
$LTSCALE
 40
20.0
  9
$ATTMODE
 70
     1
  9
$TEXTSIZE
 40
3.5
  9
$TRACEWID
 40
1.0
  9
$TEXTSTYLE
  7
STANDARD
  9
$CLAYER
  8
BEM
  9
$CELTYPE
  6
ByLayer
  9
$CECOLOR
 62
   256
  9
$CELTSCALE
 40
1.0
  9
$DISPSILH
 70
     0
  9
$DIMSCALE
 40
2.0
  9
$DIMASZ
 40
3.5
  9
$DIMEXO
 40
1.0
  9
$DIMDLI
 40
7.0
  9
$DIMRND
 40
0.0
  9
$DIMDLE
 40
0.0
  9
$DIMEXE
 40
1.0
  9
$DIMTP
 40
0.0
  9
$DIMTM
 40
0.0
  9
$DIMTXT
 40
3.5
  9
$DIMCEN
 40
1.5
  9
$DIMTSZ
 40
0.0
  9
$DIMTOL
 70
     0
  9
$DIMLIM
 70
     0
  9
$DIMTIH
 70
     0
  9
$DIMTOH
 70
     0
  9
$DIMSE1
 70
     0
  9
$DIMSE2
 70
     0
  9
$DIMTAD
 70
     1
  9
$DIMZIN
 70
     8
  9
$DIMBLK
  1

  9
$DIMASO
 70
     1
  9
$DIMSHO
 70
     0
  9
$DIMPOST
  1

  9
$DIMAPOST
  1

  9
$DIMALT
 70
     0
  9
$DIMALTD
 70
     2
  9
$DIMALTF
 40
25.4
  9
$DIMLFAC
 40
1.0
  9
$DIMTOFL
 70
     1
  9
$DIMTVP
 40
0.0
  9
$DIMTIX
 70
     0
  9
$DIMSOXD
 70
     0
  9
$DIMSAH
 70
     0
  9
$DIMBLK1
  1

  9
$DIMBLK2
  1

  9
$DIMSTYLE
  2
Standard
  9
$DIMCLRD
 70
     0
  9
$DIMCLRE
 70
     0
  9
$DIMCLRT
 70
     1
  9
$DIMTFAC
 40
0.5142857142857144
  9
$DIMGAP
 40
1.5
  9
$DIMJUST
 70
     0
  9
$DIMSD1
 70
     0
  9
$DIMSD2
 70
     0
  9
$DIMTOLJ
 70
     1
  9
$DIMTZIN
 70
     8
  9
$DIMALTZ
 70
     8
  9
$DIMALTTZ
 70
     8
  9
$DIMUPT
 70
     0
  9
$DIMDEC
 70
     2
  9
$DIMTDEC
 70
     2
  9
$DIMALTU
 70
     2
  9
$DIMALTTD
 70
     2
  9
$DIMTXSTY
  7
STANDARD
  9
$DIMAUNIT
 70
     0
  9
$DIMADEC
 70
     2
  9
$DIMALTRND
 40
0.0
  9
$DIMAZIN
 70
     2
  9
$DIMDSEP
 70
    46
  9
$DIMATFIT
 70
     3
  9
$DIMFRAC
 70
     0
  9
$DIMLDRBLK
  1

  9
$DIMLUNIT
 70
     2
  9
$DIMLWD
 70
    -2
  9
$DIMLWE
 70
    -2
  9
$DIMTMOVE
 70
     0
  9
$LUNITS
 70
     2
  9
$LUPREC
 70
     2
  9
$SKETCHINC
 40
1.0
  9
$FILLETRAD
 40
0.0
  9
$AUNITS
 70
     0
  9
$AUPREC
 70
     0
  9
$MENU
  1
ACAD
  9
$ELEVATION
 40
0.0
  9
$PELEVATION
 40
0.0
  9
$THICKNESS
 40
0.0
  9
$LIMCHECK
 70
     0
  9
$CHAMFERA
 40
0.0
  9
$CHAMFERB
 40
0.0
  9
$CHAMFERC
 40
0.0
  9
$CHAMFERD
 40
0.0
  9
$SKPOLY
 70
     0
  9
$TDCREATE
 40
2455397.867059838
  9
$TDUCREATE
 40
2455397.783726505
  9
$TDUPDATE
 40
2455463.434478240
  9
$TDUUPDATE
 40
2455463.351144908
  9
$TDINDWG
 40
0.0519362500
  9
$TDUSRTIMER
 40
0.0519362500
  9
$USRTIMER
 70
     1
  9
$ANGBASE
 50
0.0
  9
$ANGDIR
 70
     0
  9
$PDMODE
 70
     0
  9
$PDSIZE
 40
0.0
  9
$PLINEWID
 40
0.0
  9
$SPLFRAME
 70
     0
  9
$SPLINETYPE
 70
     6
  9
$SPLINESEGS
 70
     8
  9
$HANDSEED
  5
8AD
  9
$SURFTAB1
 70
     6
  9
$SURFTAB2
 70
     6
  9
$SURFTYPE
 70
     6
  9
$SURFU
 70
     6
  9
$SURFV
 70
     6
  9
$UCSBASE
  2

  9
$UCSNAME
  2

  9
$UCSORG
 10
0.0
 20
0.0
 30
0.0
  9
$UCSXDIR
 10
1.0
 20
0.0
 30
0.0
  9
$UCSYDIR
 10
0.0
 20
1.0
 30
0.0
  9
$UCSORTHOREF
  2

  9
$UCSORTHOVIEW
 70
     0
  9
$UCSORGTOP
 10
0.0
 20
0.0
 30
0.0
  9
$UCSORGBOTTOM
 10
0.0
 20
0.0
 30
0.0
  9
$UCSORGLEFT
 10
0.0
 20
0.0
 30
0.0
  9
$UCSORGRIGHT
 10
0.0
 20
0.0
 30
0.0
  9
$UCSORGFRONT
 10
0.0
 20
0.0
 30
0.0
  9
$UCSORGBACK
 10
0.0
 20
0.0
 30
0.0
  9
$PUCSBASE
  2

  9
$PUCSNAME
  2

  9
$PUCSORG
 10
0.0
 20
0.0
 30
0.0
  9
$PUCSXDIR
 10
1.0
 20
0.0
 30
0.0
  9
$PUCSYDIR
 10
0.0
 20
1.0
 30
0.0
  9
$PUCSORTHOREF
  2

  9
$PUCSORTHOVIEW
 70
     0
  9
$PUCSORGTOP
 10
0.0
 20
0.0
 30
0.0
  9
$PUCSORGBOTTOM
 10
0.0
 20
0.0
 30
0.0
  9
$PUCSORGLEFT
 10
0.0
 20
0.0
 30
0.0
  9
$PUCSORGRIGHT
 10
0.0
 20
0.0
 30
0.0
  9
$PUCSORGFRONT
 10
0.0
 20
0.0
 30
0.0
  9
$PUCSORGBACK
 10
0.0
 20
0.0
 30
0.0
  9
$USERI1
 70
     0
  9
$USERI2
 70
     0
  9
$USERI3
 70
     0
  9
$USERI4
 70
     0
  9
$USERI5
 70
     0
  9
$USERR1
 40
0.0
  9
$USERR2
 40
0.0
  9
$USERR3
 40
0.0
  9
$USERR4
 40
0.0
  9
$USERR5
 40
0.0
  9
$WORLDVIEW
 70
     1
  9
$SHADEDGE
 70
     3
  9
$SHADEDIF
 70
    70
  9
$TILEMODE
 70
     1
  9
$MAXACTVP
 70
    16
  9
$PINSBASE
 10
0.0
 20
0.0
 30
0.0
  9
$PLIMCHECK
 70
     0
  9
$PEXTMIN
 10
1.000000000000000E+20
 20
1.000000000000000E+20
 30
1.000000000000000E+20
  9
$PEXTMAX
 10
-1.000000000000000E+20
 20
-1.000000000000000E+20
 30
-1.000000000000000E+20
  9
$PLIMMIN
 10
0.0
 20
0.0
  9
$PLIMMAX
 10
12.0
 20
9.0
  9
$UNITMODE
 70
     0
  9
$VISRETAIN
 70
     0
  9
$PLINEGEN
 70
     0
  9
$PSLTSCALE
 70
     0
  9
$TREEDEPTH
 70
  3020
  9
$CMLSTYLE
  2
Standard
  9
$CMLJUST
 70
     0
  9
$CMLSCALE
 40
1.0
  9
$PROXYGRAPHICS
 70
     1
  9
$MEASUREMENT
 70
     0
  9
$CELWEIGHT
370
    -1
  9
$ENDCAPS
280
     0
  9
$JOINSTYLE
280
     0
  9
$LWDISPLAY
290
     0
  9
$INSUNITS
 70
     0
  9
$HYPERLINKBASE
  1

  9
$STYLESHEET
  1
monochrome 1.ctb
  9
$XEDIT
290
     1
  9
$CEPSNTYPE
380
     0
  9
$PSTYLEMODE
290
     1
  9
$FINGERPRINTGUID
  2
{D68B0D0D-A558-11D7-B632-000102183313}
  9
$VERSIONGUID
  2
{76836328-3F3D-41F3-BAF5-C085BDBCD4DE}
  9
$EXTNAMES
290
     1
  9
$PSVPSCALE
 40
0.0
  9
$OLESTARTUP
290
     0
  9
$SORTENTS
280
   127
  9
$INDEXCTL
280
     0
  9
$HIDETEXT
280
     0
  9
$XCLIPFRAME
290
     0
  9
$HALOGAP
280
     0
  9
$OBSCOLOR
 70
   257
  9
$OBSLTYPE
280
     0
  9
$INTERSECTIONDISPLAY
280
     0
  9
$INTERSECTIONCOLOR
 70
   257
  9
$DIMASSOC
280
     1
  9
$PROJECTNAME
  1

  0
ENDSEC
  0
SECTION
  2
CLASSES
  0
CLASS
  1
ACDBDICTIONARYWDFLT
  2
AcDbDictionaryWithDefault
  3
ObjectDBX Classes
 90
        0
 91
        1
280
     0
281
     0
  0
CLASS
  1
DICTIONARYVAR
  2
AcDbDictionaryVar
  3
ObjectDBX Classes
 90
        0
 91
        2
280
     0
281
     0
  0
ENDSEC
  0
SECTION
  2
TABLES
  0
TABLE
  2
VPORT
  5
8
330
0
100
AcDbSymbolTable
 70
     2
  0
VPORT
  5
8AC
330
8
100
AcDbSymbolTableRecord
100
AcDbViewportTableRecord
  2
*Active
 70
     0
 10
0.0
 20
0.0
 11
1.0
 21
1.0
 12
420.0016222861154
 22
296.996237637971
 13
0.0
 23
0.0
 14
1.0
 24
1.0
 15
10.0
 25
10.0
 16
0.0
 26
0.0
 36
1.0
 17
0.0
 27
0.0
 37
0.0
 40
632.1698939963496
 41
1.336927223719676
 42
50.0
 43
0.0
 44
0.0
 50
0.0
 51
0.0
 71
     0
 72
  1500
 73
     1
 74
     0
 75
     0
 76
     0
 77
     0
 78
     0
281
     0
 65
     1
110
0.0
120
0.0
130
0.0
111
1.0
121
0.0
131
0.0
112
0.0
122
1.0
132
0.0
 79
     0
146
0.0
  0
ENDTAB
  0
TABLE
  2
LTYPE
  5
5
330
0
100
AcDbSymbolTable
 70
     2
  0
LTYPE
  5
13
330
5
100
AcDbSymbolTableRecord
100
AcDbLinetypeTableRecord
  2
ByBlock
 70
     0
  3

 72
    65
 73
     0
 40
0.0
  0
LTYPE
  5
14
330
5
100
AcDbSymbolTableRecord
100
AcDbLinetypeTableRecord
  2
ByLayer
 70
     0
  3

 72
    65
 73
     0
 40
0.0
  0
LTYPE
  5
15
330
5
100
AcDbSymbolTableRecord
100
AcDbLinetypeTableRecord
  2
Continuous
 70
     0
  3
Solid line
 72
    65
 73
     0
 40
0.0
  0
LTYPE
  5
25
330
5
100
AcDbSymbolTableRecord
100
AcDbLinetypeTableRecord
  2
STRICHPUNKT
 70
     0
  3
__ . __ . __ . __ . __ . __ . __ . __ . __ . __
 72
    65
 73
     4
 40
1.0
 49
0.5
 74
     0
 49
-0.25
 74
     0
 49
0.0
 74
     0
 49
-0.25
 74
     0
  0
ENDTAB
  0
TABLE
  2
LAYER
  5
2
330
0
100
AcDbSymbolTable
 70
     9
  0
LAYER
  5
10
330
2
100
AcDbSymbolTableRecord
100
AcDbLayerTableRecord
  2
0
 70
     0
 62
     7
  6
Continuous
370
    -3
390
F
  0
LAYER
  5
2B
330
2
100
AcDbSymbolTableRecord
100
AcDbLayerTableRecord
  2
VOLL
 70
     0
 62
     1
  6
Continuous
370
    -3
390
F
  0
LAYER
  5
2C
330
2
100
AcDbSymbolTableRecord
100
AcDbLayerTableRecord
  2
HILF
 70
     0
 62
     2
  6
Continuous
370
    -3
390
F
  0
LAYER
  5
2D
330
2
100
AcDbSymbolTableRecord
100
AcDbLayerTableRecord
  2
MITTEL
 70
     0
 62
     2
  6
STRICHPUNKT
370
    -3
390
F
  0
LAYER
  5
2F
330
2
100
AcDbSymbolTableRecord
100
AcDbLayerTableRecord
  2
BEM
 70
     0
 62
     7
  6
Continuous
370
    -3
390
F
  0
LAYER
  5
30
330
2
100
AcDbSymbolTableRecord
100
AcDbLayerTableRecord
  2
STEMPEL
 70
     0
 62
     3
  6
Continuous
370
    -3
390
F
  0
LAYER
  5
33
330
2
100
AcDbSymbolTableRecord
100
AcDbLayerTableRecord
  2
TEXT
 70
     0
 62
     7
  6
Continuous
370
    -3
390
F
  0
LAYER
  5
29F
330
2
100
AcDbSymbolTableRecord
100
AcDbLayerTableRecord
  2
SCHRAFF
 70
     0
 62
     7
  6
Continuous
370
    -3
390
F
  0
LAYER
  5
2A0
330
2
100
AcDbSymbolTableRecord
100
AcDbLayerTableRecord
  2
DEFPOINTS
 70
     0
 62
     7
  6
Continuous
290
     0
370
    -3
390
F
  0
ENDTAB
  0
TABLE
  2
STYLE
  5
3
330
0
100
AcDbSymbolTable
 70
     2
  0
STYLE
  5
11
330
3
100
AcDbSymbolTableRecord
100
AcDbTextStyleTableRecord
  2
STANDARD
 70
     0
 40
0.0
 41
0.8
 50
0.0
 71
     0
 42
3.5
  3
simplex.shx
  4

  0
STYLE
  5
24
330
3
100
AcDbSymbolTableRecord
100
AcDbTextStyleTableRecord
  2
GREEKS
 70
     0
 40
0.0
 41
0.8
 50
0.0
 71
     0
 42
2.5
  3
SIMPLEX.shx
  4

  0
ENDTAB
  0
TABLE
  2
VIEW
  5
6
330
0
100
AcDbSymbolTable
 70
     0
  0
ENDTAB
  0
TABLE
  2
UCS
  5
7
330
0
100
AcDbSymbolTable
 70
     0
  0
ENDTAB
  0
TABLE
  2
APPID
  5
9
330
0
100
AcDbSymbolTable
 70
     1
  0
APPID
  5
12
330
9
100
AcDbSymbolTableRecord
100
AcDbRegAppTableRecord
  2
ACAD
 70
     0
  0
ENDTAB
  0
TABLE
  2
DIMSTYLE
  5
A
330
0
100
AcDbSymbolTable
 70
     1
100
AcDbDimStyleTable
 71
     1
340
A2
  0
DIMSTYLE
105
A2
102
{ACAD_REACTORS
330
4BC
330
49D
330
425
330
72E
330
796
330
7F9
330
866
102
}
330
A
100
AcDbSymbolTableRecord
100
AcDbDimStyleTableRecord
  2
Standard
 70
     0
340
11
  0
ENDTAB
  0
TABLE
  2
BLOCK_RECORD
  5
1
330
0
100
AcDbSymbolTable
 70
     9
  0
BLOCK_RECORD
  5
1E
102
{ACAD_XDICTIONARY
360
DB
102
}
330
1
100
AcDbSymbolTableRecord
100
AcDbBlockTableRecord
  2
*Model_Space
340
21
  0
BLOCK_RECORD
  5
1A
102
{ACAD_XDICTIONARY
360
DD
102
}
330
1
100
AcDbSymbolTableRecord
100
AcDbBlockTableRecord
  2
*Paper_Space
340
1D
  0
BLOCK_RECORD
  5
22
330
1
100
AcDbSymbolTableRecord
100
AcDbBlockTableRecord
  2
LOGO
340
0
102
{BLKREFS
331
56
102
}
  0
BLOCK_RECORD
  5
23
330
1
100
AcDbSymbolTableRecord
100
AcDbBlockTableRecord
  2
LORO
340
0
102
{BLKREFS
331
9B
102
}
  0
BLOCK_RECORD
  5
4D0
330
1
100
AcDbSymbolTableRecord
100
AcDbBlockTableRecord
  2
*D2
340
0
  0
BLOCK_RECORD
  5
500
330
1
100
AcDbSymbolTableRecord
100
AcDbBlockTableRecord
  2
*D3
340
0
  0
BLOCK_RECORD
  5
51A
330
1
100
AcDbSymbolTableRecord
100
AcDbBlockTableRecord
  2
*D4
340
0
  0
BLOCK_RECORD
  5
72F
330
1
100
AcDbSymbolTableRecord
100
AcDbBlockTableRecord
  2
*D5
340
0
  0
BLOCK_RECORD
  5
797
330
1
100
AcDbSymbolTableRecord
100
AcDbBlockTableRecord
  2
*D6
340
0
  0
BLOCK_RECORD
  5
7FC
330
1
100
AcDbSymbolTableRecord
100
AcDbBlockTableRecord
  2
*D7
340
0
  0
BLOCK_RECORD
  5
867
330
1
100
AcDbSymbolTableRecord
100
AcDbBlockTableRecord
  2
*D8
340
0
  0
ENDTAB
  0
ENDSEC
  0
SECTION
  2
BLOCKS
  0
BLOCK
  5
37
330
1E
100
AcDbEntity
  8
0
100
AcDbBlockBegin
  2
*Model_Space
 70
     0
 10
0.0
 20
0.0
 30
0.0
  3
*Model_Space
  1

  0
ENDBLK
  5
38
330
1E
100
AcDbEntity
  8
0
100
AcDbBlockEnd
  0
BLOCK
  5
35
330
1A
100
AcDbEntity
 67
     1
  8
0
100
AcDbBlockBegin
  2
*Paper_Space
 70
     0
 10
0.0
 20
0.0
 30
0.0
  3
*Paper_Space
  1

  0
ENDBLK
  5
36
330
1A
100
AcDbEntity
 67
     1
  8
0
100
AcDbBlockEnd
  0
BLOCK
  5
39
330
22
100
AcDbEntity
  8
0
100
AcDbBlockBegin
  2
LOGO
 70
     0
 10
0.0
 20
0.0
 30
0.0
  3
LOGO
  1

  0
ARC
  5
3A
330
22
100
AcDbEntity
  8
0
100
AcDbCircle
 10
11.59973089678112
 20
-9.271599258481501
 30
0.0
 40
4.5
100
AcDbArc
 50
270.0
 51
231.0575587310159
  0
LINE
  5
3B
330
22
100
AcDbEntity
  8
0
100
AcDbLine
 10
3.599730896781125
 20
-4.771599258481529
 30
0.0
 11
3.599730896781153
 21
-11.77159925848133
 31
0.0
  0
LINE
  5
3C
330
22
100
AcDbEntity
  8
0
100
AcDbLine
 10
2.599730896781125
 20
-4.771599258481529
 30
0.0
 11
2.599730896781153
 21
-11.77159925848133
 31
0.0
  0
CIRCLE
  5
3D
330
22
100
AcDbEntity
  8
0
100
AcDbCircle
 10
11.59973089678112
 20
-9.271599258481501
 30
0.0
 40
3.5
  0
ARC
  5
3E
330
22
100
AcDbEntity
  8
0
100
AcDbCircle
 10
31.59973089678115
 20
-9.271599258481472
 30
0.0
 40
4.5
100
AcDbArc
 50
270.0
 51
231.0575587310182
  0
LINE
  5
3F
330
22
100
AcDbEntity
  8
0
100
AcDbLine
 10
17.59973089678112
 20
-4.771599258481472
 30
0.0
 11
17.59973089678115
 21
-13.77159925848147
 31
0.0
  0
ARC
  5
40
330
22
100
AcDbEntity
  8
0
100
AcDbCircle
 10
22.59973089678116
 20
-7.271599258481472
 30
0.0
 40
2.5
100
AcDbArc
 50
293.1161887722295
 51
90.0
  0
CIRCLE
  5
41
330
22
100
AcDbEntity
  8
0
100
AcDbCircle
 10
31.59973089678115
 20
-9.271599258481472
 30
0.0
 40
3.5
  0
ARC
  5
42
330
22
100
AcDbEntity
  8
0
100
AcDbCircle
 10
4.599730896781153
 20
-11.77159925848133
 30
0.0
 40
1.0
100
AcDbArc
 50
180.0
 51
270.0
  0
ARC
  5
43
330
22
100
AcDbEntity
  8
0
100
AcDbCircle
 10
4.599730896781153
 20
-11.77159925848133
 30
0.0
 40
2.0
100
AcDbArc
 50
179.9999999999992
 51
270.0
  0
LINE
  5
44
330
22
100
AcDbEntity
  8
0
100
AcDbLine
 10
11.59973089678115
 20
-13.77159925848144
 30
0.0
 11
4.599730896781153
 21
-13.77159925848147
 31
0.0
  0
LINE
  5
45
330
22
100
AcDbEntity
  8
0
100
AcDbLine
 10
8.771303772034769
 20
-12.77159925848136
 30
0.0
 11
4.599730896781153
 21
-12.77159925848133
 31
0.0
  0
LINE
  5
46
330
22
100
AcDbEntity
  8
0
100
AcDbLine
 10
31.59973089678115
 20
-13.77159925848147
 30
0.0
 11
23.6715276665056
 21
-13.77159925848144
 31
0.0
  0
LINE
  5
47
330
22
100
AcDbEntity
  8
0
100
AcDbLine
 10
23.56565672307022
 20
-9.51278021337896
 30
0.0
 11
24.4388546544846
 21
-12.77159925848144
 31
0.0
  0
LINE
  5
48
330
22
100
AcDbEntity
  8
0
100
AcDbLine
 10
22.59973089678116
 20
-9.771599258481472
 30
0.0
 11
18.59973089678112
 21
-9.771599258481472
 31
0.0
  0
LINE
  5
49
330
22
100
AcDbEntity
  8
0
100
AcDbLine
 10
18.59973089678115
 20
-13.77159925848144
 30
0.0
 11
17.59973089678115
 21
-13.77159925848144
 31
0.0
  0
LINE
  5
4A
330
22
100
AcDbEntity
  8
0
100
AcDbLine
 10
18.59973089678115
 20
-9.771599258481472
 30
0.0
 11
18.59973089678115
 21
-13.77159925848144
 31
0.0
  0
LINE
  5
4B
330
22
100
AcDbEntity
  8
0
100
AcDbLine
 10
22.59973089678116
 20
-9.771599258481472
 30
0.0
 11
23.67152766650562
 21
-13.77159925848147
 31
0.0
  0
ARC
  5
4C
330
22
100
AcDbEntity
  8
0
100
AcDbCircle
 10
22.59973089678116
 20
-7.271599258481472
 30
0.0
 40
2.5
100
AcDbArc
 50
270.0
 51
270.0000000000007
  0
LINE
  5
4D
330
22
100
AcDbEntity
  8
0
100
AcDbLine
 10
28.77130377203494
 20
-12.77159925848147
 30
0.0
 11
24.43885465448463
 21
-12.77159925848144
 31
0.0
  0
LINE
  5
4E
330
22
100
AcDbEntity
  8
0
100
AcDbLine
 10
3.599730896781125
 20
-4.771599258481472
 30
0.0
 11
2.599730896781125
 21
-4.771599258481472
 31
0.0
  0
LINE
  5
4F
330
22
100
AcDbEntity
  8
0
100
AcDbLine
 10
22.59973089678116
 20
-8.771599258481472
 30
0.0
 11
18.59973089678115
 21
-8.771599258481472
 31
0.0
  0
LINE
  5
50
330
22
100
AcDbEntity
  8
0
100
AcDbLine
 10
22.59973089678116
 20
-5.771599258481472
 30
0.0
 11
18.59973089678115
 21
-5.771599258481472
 31
0.0
  0
LINE
  5
51
330
22
100
AcDbEntity
  8
0
100
AcDbLine
 10
22.59973089678116
 20
-4.771599258481472
 30
0.0
 11
17.59973089678115
 21
-4.771599258481472
 31
0.0
  0
LINE
  5
52
330
22
100
AcDbEntity
  8
0
100
AcDbLine
 10
18.59973089678115
 20
-5.771599258481472
 30
0.0
 11
18.59973089678115
 21
-8.771599258481472
 31
0.0
  0
ARC
  5
53
330
22
100
AcDbEntity
  8
0
100
AcDbCircle
 10
22.59973089678116
 20
-7.271599258481472
 30
0.0
 40
1.5
100
AcDbArc
 50
270.0
 51
90.0
  0
ENDBLK
  5
54
330
22
100
AcDbEntity
  8
0
100
AcDbBlockEnd
  0
BLOCK
  5
55
330
23
100
AcDbEntity
  8
0
100
AcDbBlockBegin
  2
LORO
 70
     0
 10
0.0
 20
0.0
 30
0.0
  3
LORO
  1

  0
INSERT
  5
56
330
23
100
AcDbEntity
  8
STEMPEL
100
AcDbBlockReference
  2
LOGO
 10
-1.748032802467321
 20
3.771489518552062
 30
0.0
  0
ENDBLK
  5
57
330
23
100
AcDbEntity
  8
0
100
AcDbBlockEnd
  0
BLOCK
  5
4DB
330
4D0
100
AcDbEntity
  8
0
100
AcDbBlockBegin
  2
*D2
 70
     1
 10
0.0
 20
0.0
 30
0.0
  3
*D2
  1

  0
LINE
  5
782
330
4D0
100
AcDbEntity
  8
BEM
 62
     0
370
    -2
100
AcDbLine
 10
613.7120655822871
 20
275.6604370338188
 30
0.0
 11
649.6037255502376
 21
275.6604370338187
 31
0.0
  0
LINE
  5
783
330
4D0
100
AcDbEntity
  8
BEM
 62
     0
370
    -2
100
AcDbLine
 10
514.212065582287
 20
258.6604370338188
 30
0.0
 11
649.6037255502376
 21
258.6604370338188
 31
0.0
  0
LINE
  5
784
330
4D0
100
AcDbEntity
  8
BEM
 62
     0
370
    -2
100
AcDbLine
 10
647.6037255502376
 20
282.6604370338188
 30
0.0
 11
647.6037255502376
 21
289.6604370338188
 31
0.0
  0
LINE
  5
785
330
4D0
100
AcDbEntity
  8
BEM
 62
     0
370
    -2
100
AcDbLine
 10
647.6037255502375
 20
251.6604370338188
 30
0.0
 11
647.6037255502375
 21
244.6604370338188
 31
0.0
  0
LINE
  5
786
330
4D0
100
AcDbEntity
  8
BEM
 62
     0
370
    -2
100
AcDbLine
 10
647.6037255502376
 20
275.6604370338187
 30
0.0
 11
647.6037255502376
 21
258.6604370338188
 31
0.0
  0
SOLID
  5
787
330
4D0
100
AcDbEntity
  8
BEM
 62
     0
100
AcDbTrace
 10
646.437058883571
 20
282.6604370338188
 30
0.0
 11
648.7703922169043
 21
282.6604370338188
 31
0.0
 12
647.6037255502376
 22
275.6604370338187
 32
0.0
 13
647.6037255502376
 23
275.6604370338187
 33
0.0
  0
SOLID
  5
788
330
4D0
100
AcDbEntity
  8
BEM
 62
     0
100
AcDbTrace
 10
646.4370588835708
 20
251.6604370338188
 30
0.0
 11
648.7703922169041
 21
251.6604370338188
 31
0.0
 12
647.6037255502376
 22
258.6604370338188
 32
0.0
 13
647.6037255502376
 23
258.6604370338188
 33
0.0
  0
MTEXT
  5
789
330
4D0
100
AcDbEntity
  8
BEM
 62
     1
100
AcDbMText
 10
641.1037255502375
 20
267.1604370338189
 30
0.0
 40
7.0
 41
0.0
 71
     5
 72
     1
  1
\A1;17
 11
0.0000000000000001
 21
1.0
 31
0.0
 73
     1
 44
1.0
  0
POINT
  5
78A
330
4D0
100
AcDbEntity
  8
DEFPOINTS
 62
     0
100
AcDbPoint
 10
611.7120655822871
 20
275.6604370338188
 30
0.0
  0
POINT
  5
78B
330
4D0
100
AcDbEntity
  8
DEFPOINTS
 62
     0
100
AcDbPoint
 10
512.2120655822871
 20
258.6604370338188
 30
0.0
  0
POINT
  5
78C
330
4D0
100
AcDbEntity
  8
DEFPOINTS
 62
     0
100
AcDbPoint
 10
647.6037255502376
 20
258.6604370338188
 30
0.0
  0
ENDBLK
  5
4DC
330
4D0
100
AcDbEntity
  8
0
100
AcDbBlockEnd
  0
BLOCK
  5
50B
330
500
100
AcDbEntity
  8
0
100
AcDbBlockBegin
  2
*D3
 70
     1
 10
0.0
 20
0.0
 30
0.0
  3
*D3
  1

  0
LINE
  5
85D
330
500
100
AcDbEntity
  8
BEM
 62
     0
370
    -2
100
AcDbLine
 10
279.712065582287
 20
275.6604370338187
 30
0.0
 11
262.8067548770115
 21
275.6604370338187
 31
0.0
  0
LINE
  5
85E
330
500
100
AcDbEntity
  8
BEM
 62
     0
370
    -2
100
AcDbLine
 10
355.2120655822869
 20
508.5373314082009
 30
0.0
 11
262.8067548770116
 21
508.5373314082009
 31
0.0
  0
LINE
  5
85F
330
500
100
AcDbEntity
  8
BEM
 62
     0
370
    -2
100
AcDbLine
 10
264.8067548770115
 20
282.6604370338188
 30
0.0
 11
264.8067548770116
 21
501.537331408201
 31
0.0
  0
SOLID
  5
860
330
500
100
AcDbEntity
  8
BEM
 62
     0
100
AcDbTrace
 10
263.6400882103449
 20
282.6604370338188
 30
0.0
 11
265.9734215436782
 21
282.6604370338188
 31
0.0
 12
264.8067548770115
 22
275.6604370338187
 32
0.0
 13
264.8067548770115
 23
275.6604370338187
 33
0.0
  0
SOLID
  5
861
330
500
100
AcDbEntity
  8
BEM
 62
     0
100
AcDbTrace
 10
263.6400882103449
 20
501.537331408201
 30
0.0
 11
265.9734215436783
 21
501.537331408201
 31
0.0
 12
264.8067548770116
 22
508.5373314082009
 32
0.0
 13
264.8067548770116
 23
508.5373314082009
 33
0.0
  0
MTEXT
  5
862
330
500
100
AcDbEntity
  8
BEM
 62
     1
100
AcDbMText
 10
258.3067548770115
 20
392.0988842210099
 30
0.0
 40
7.0
 41
0.0
 71
     5
 72
     1
  1
\A1;233
 11
0.0000000000000001
 21
1.0
 31
0.0
 73
     1
 44
1.0
  0
POINT
  5
863
330
500
100
AcDbEntity
  8
DEFPOINTS
 62
     0
100
AcDbPoint
 10
281.712065582287
 20
275.6604370338187
 30
0.0
  0
POINT
  5
864
330
500
100
AcDbEntity
  8
DEFPOINTS
 62
     0
100
AcDbPoint
 10
357.2120655822869
 20
508.5373314082009
 30
0.0
  0
POINT
  5
865
330
500
100
AcDbEntity
  8
DEFPOINTS
 62
     0
100
AcDbPoint
 10
264.8067548770116
 20
508.5373314082009
 30
0.0
  0
ENDBLK
  5
50C
330
500
100
AcDbEntity
  8
0
100
AcDbBlockEnd
  0
BLOCK
  5
525
330
51A
100
AcDbEntity
  8
0
100
AcDbBlockBegin
  2
*D4
 70
     1
 10
0.0
 20
0.0
 30
0.0
  3
*D4
  1

  0
LINE
  5
849
330
51A
100
AcDbEntity
  8
BEM
 62
     0
370
    -2
100
AcDbLine
 10
281.712065582287
 20
271.6604370338187
 30
0.0
 11
281.712065582287
 21
187.8510783940139
 31
0.0
  0
LINE
  5
84A
330
51A
100
AcDbEntity
  8
BEM
 62
     0
370
    -2
100
AcDbLine
 10
611.7120655822868
 20
271.6604370338188
 30
0.0
 11
611.7120655822868
 21
187.8510783940139
 31
0.0
  0
LINE
  5
84B
330
51A
100
AcDbEntity
  8
BEM
 62
     0
370
    -2
100
AcDbLine
 10
288.712065582287
 20
189.8510783940139
 30
0.0
 11
604.7120655822868
 21
189.8510783940139
 31
0.0
  0
SOLID
  5
84C
330
51A
100
AcDbEntity
  8
BEM
 62
     0
100
AcDbTrace
 10
288.712065582287
 20
191.0177450606806
 30
0.0
 11
288.712065582287
 21
188.6844117273473
 31
0.0
 12
281.712065582287
 22
189.8510783940139
 32
0.0
 13
281.712065582287
 23
189.8510783940139
 33
0.0
  0
SOLID
  5
84D
330
51A
100
AcDbEntity
  8
BEM
 62
     0
100
AcDbTrace
 10
604.7120655822868
 20
191.0177450606806
 30
0.0
 11
604.7120655822868
 21
188.6844117273473
 31
0.0
 12
611.7120655822868
 22
189.8510783940139
 32
0.0
 13
611.7120655822868
 23
189.8510783940139
 33
0.0
  0
MTEXT
  5
84E
330
51A
100
AcDbEntity
  8
BEM
 62
     1
100
AcDbMText
 10
446.7120655822869
 20
196.3510783940139
 30
0.0
 40
7.0
 41
0.0
 71
     5
 72
     1
  1
\A1;%%c330
 73
     1
 44
1.0
  0
POINT
  5
84F
330
51A
100
AcDbEntity
  8
DEFPOINTS
 62
     0
100
AcDbPoint
 10
281.712065582287
 20
273.6604370338187
 30
0.0
  0
POINT
  5
850
330
51A
100
AcDbEntity
  8
DEFPOINTS
 62
     0
100
AcDbPoint
 10
611.7120655822868
 20
273.6604370338188
 30
0.0
  0
POINT
  5
851
330
51A
100
AcDbEntity
  8
DEFPOINTS
 62
     0
100
AcDbPoint
 10
611.7120655822868
 20
189.8510783940139
 30
0.0
  0
ENDBLK
  5
526
330
51A
100
AcDbEntity
  8
0
100
AcDbBlockEnd
  0
BLOCK
  5
739
330
72F
100
AcDbEntity
  8
0
100
AcDbBlockBegin
  2
*D5
 70
     1
 10
0.0
 20
0.0
 30
0.0
  3
*D5
  1

  0
LINE
  5
854
330
72F
100
AcDbEntity
  8
BEM
 62
     0
370
    -2
100
AcDbLine
 10
379.212065582287
 20
258.6604370338188
 30
0.0
 11
243.5827932982465
 21
258.6604370338188
 31
0.0
  0
LINE
  5
855
330
72F
100
AcDbEntity
  8
BEM
 62
     0
370
    -2
100
AcDbLine
 10
355.2120655822869
 20
508.5373314082009
 30
0.0
 11
243.5827932982466
 21
508.5373314082009
 31
0.0
  0
LINE
  5
856
330
72F
100
AcDbEntity
  8
BEM
 62
     0
370
    -2
100
AcDbLine
 10
245.5827932982465
 20
265.6604370338188
 30
0.0
 11
245.5827932982465
 21
501.537331408201
 31
0.0
  0
SOLID
  5
857
330
72F
100
AcDbEntity
  8
BEM
 62
     0
100
AcDbTrace
 10
244.4161266315798
 20
265.6604370338188
 30
0.0
 11
246.7494599649131
 21
265.6604370338188
 31
0.0
 12
245.5827932982465
 22
258.6604370338188
 32
0.0
 13
245.5827932982465
 23
258.6604370338188
 33
0.0
  0
SOLID
  5
858
330
72F
100
AcDbEntity
  8
BEM
 62
     0
100
AcDbTrace
 10
244.4161266315799
 20
501.537331408201
 30
0.0
 11
246.7494599649132
 21
501.537331408201
 31
0.0
 12
245.5827932982465
 22
508.5373314082009
 32
0.0
 13
245.5827932982465
 23
508.5373314082009
 33
0.0
  0
MTEXT
  5
859
330
72F
100
AcDbEntity
  8
BEM
 62
     1
100
AcDbMText
 10
239.0827932982464
 20
383.5988842210099
 30
0.0
 40
7.0
 41
0.0
 71
     5
 72
     1
  1
\A1;250
 11
0.0000000000000001
 21
1.0
 31
0.0
 73
     1
 44
1.0
  0
POINT
  5
85A
330
72F
100
AcDbEntity
  8
DEFPOINTS
 62
     0
100
AcDbPoint
 10
381.212065582287
 20
258.6604370338188
 30
0.0
  0
POINT
  5
85B
330
72F
100
AcDbEntity
  8
DEFPOINTS
 62
     0
100
AcDbPoint
 10
357.2120655822869
 20
508.5373314082009
 30
0.0
  0
POINT
  5
85C
330
72F
100
AcDbEntity
  8
DEFPOINTS
 62
     0
100
AcDbPoint
 10
245.5827932982465
 20
508.5373314082009
 30
0.0
  0
ENDBLK
  5
73A
330
72F
100
AcDbEntity
  8
0
100
AcDbBlockEnd
  0
BLOCK
  5
7A1
330
797
100
AcDbEntity
  8
0
100
AcDbBlockBegin
  2
*D6
 70
     1
 10
0.0
 20
0.0
 30
0.0
  3
*D6
  1

  0
LINE
  5
840
330
797
100
AcDbEntity
  8
BEM
 62
     0
370
    -2
100
AcDbLine
 10
512.2120655822871
 20
256.6604370338188
 30
0.0
 11
512.2120655822871
 21
202.3003992940482
 31
0.0
  0
LINE
  5
841
330
797
100
AcDbEntity
  8
BEM
 62
     0
370
    -2
100
AcDbLine
 10
381.212065582287
 20
256.6604370338188
 30
0.0
 11
381.212065582287
 21
202.3003992940482
 31
0.0
  0
LINE
  5
842
330
797
100
AcDbEntity
  8
BEM
 62
     0
370
    -2
100
AcDbLine
 10
505.2120655822871
 20
204.3003992940482
 30
0.0
 11
388.212065582287
 21
204.3003992940482
 31
0.0
  0
SOLID
  5
843
330
797
100
AcDbEntity
  8
BEM
 62
     0
100
AcDbTrace
 10
505.2120655822871
 20
205.4670659607149
 30
0.0
 11
505.2120655822871
 21
203.1337326273816
 31
0.0
 12
512.2120655822871
 22
204.3003992940482
 32
0.0
 13
512.2120655822871
 23
204.3003992940482
 33
0.0
  0
SOLID
  5
844
330
797
100
AcDbEntity
  8
BEM
 62
     0
100
AcDbTrace
 10
388.212065582287
 20
205.4670659607149
 30
0.0
 11
388.212065582287
 21
203.1337326273816
 31
0.0
 12
381.212065582287
 22
204.3003992940482
 32
0.0
 13
381.212065582287
 23
204.3003992940482
 33
0.0
  0
MTEXT
  5
845
330
797
100
AcDbEntity
  8
BEM
 62
     1
100
AcDbMText
 10
446.712065582287
 20
210.8003992940482
 30
0.0
 40
7.0
 41
0.0
 71
     5
 72
     1
  1
\A1;%%c131
 73
     1
 44
1.0
  0
POINT
  5
846
330
797
100
AcDbEntity
  8
DEFPOINTS
 62
     0
100
AcDbPoint
 10
512.2120655822871
 20
258.6604370338188
 30
0.0
  0
POINT
  5
847
330
797
100
AcDbEntity
  8
DEFPOINTS
 62
     0
100
AcDbPoint
 10
381.212065582287
 20
258.6604370338188
 30
0.0
  0
POINT
  5
848
330
797
100
AcDbEntity
  8
DEFPOINTS
 62
     0
100
AcDbPoint
 10
381.212065582287
 20
204.3003992940482
 30
0.0
  0
ENDBLK
  5
7A2
330
797
100
AcDbEntity
  8
0
100
AcDbBlockEnd
  0
BLOCK
  5
806
330
7FC
100
AcDbEntity
  8
0
100
AcDbBlockBegin
  2
*D7
 70
     1
 10
0.0
 20
0.0
 30
0.0
  3
*D7
  1

  0
LINE
  5
837
330
7FC
100
AcDbEntity
  8
BEM
 62
     0
370
    -2
100
AcDbLine
 10
391.7120655822871
 20
263.2310691844095
 30
0.0
 11
391.7120655822871
 21
217.3684878173319
 31
0.0
  0
LINE
  5
838
330
7FC
100
AcDbEntity
  8
BEM
 62
     0
370
    -2
100
AcDbLine
 10
501.712065582287
 20
263.2310691844096
 30
0.0
 11
501.712065582287
 21
217.3684878173319
 31
0.0
  0
LINE
  5
839
330
7FC
100
AcDbEntity
  8
BEM
 62
     0
370
    -2
100
AcDbLine
 10
398.7120655822871
 20
219.3684878173319
 30
0.0
 11
494.7120655822869
 21
219.3684878173319
 31
0.0
  0
SOLID
  5
83A
330
7FC
100
AcDbEntity
  8
BEM
 62
     0
100
AcDbTrace
 10
398.7120655822871
 20
220.5351544839985
 30
0.0
 11
398.7120655822871
 21
218.2018211506652
 31
0.0
 12
391.7120655822871
 22
219.3684878173319
 32
0.0
 13
391.7120655822871
 23
219.3684878173319
 33
0.0
  0
SOLID
  5
83B
330
7FC
100
AcDbEntity
  8
BEM
 62
     0
100
AcDbTrace
 10
494.7120655822869
 20
220.5351544839985
 30
0.0
 11
494.7120655822869
 21
218.2018211506652
 31
0.0
 12
501.712065582287
 22
219.3684878173319
 32
0.0
 13
501.712065582287
 23
219.3684878173319
 33
0.0
  0
MTEXT
  5
83C
330
7FC
100
AcDbEntity
  8
BEM
 62
     1
100
AcDbMText
 10
446.712065582287
 20
225.8684878173319
 30
0.0
 40
7.0
 41
0.0
 71
     5
 72
     1
  1
\A1;%%c110
 73
     1
 44
1.0
  0
POINT
  5
83D
330
7FC
100
AcDbEntity
  8
DEFPOINTS
 62
     0
100
AcDbPoint
 10
391.7120655822871
 20
265.2310691844095
 30
0.0
  0
POINT
  5
83E
330
7FC
100
AcDbEntity
  8
DEFPOINTS
 62
     0
100
AcDbPoint
 10
501.712065582287
 20
265.2310691844096
 30
0.0
  0
POINT
  5
83F
330
7FC
100
AcDbEntity
  8
DEFPOINTS
 62
     0
100
AcDbPoint
 10
501.712065582287
 20
219.3684878173319
 30
0.0
  0
ENDBLK
  5
807
330
7FC
100
AcDbEntity
  8
0
100
AcDbBlockEnd
  0
BLOCK
  5
871
330
867
100
AcDbEntity
  8
0
100
AcDbBlockBegin
  2
*D8
 70
     1
 10
0.0
 20
0.0
 30
0.0
  3
*D8
  1

  0
LINE
  5
873
330
867
100
AcDbEntity
  8
BEM
 62
     0
370
    -2
100
AcDbLine
 10
345.212065582287
 20
498.5373314082009
 30
0.0
 11
345.212065582287
 21
521.7481088994161
 31
0.0
  0
LINE
  5
874
330
867
100
AcDbEntity
  8
BEM
 62
     0
370
    -2
100
AcDbLine
 10
548.2120655822869
 20
498.5373314082009
 30
0.0
 11
548.2120655822869
 21
521.7481088994161
 31
0.0
  0
LINE
  5
875
330
867
100
AcDbEntity
  8
BEM
 62
     0
370
    -2
100
AcDbLine
 10
352.212065582287
 20
519.7481088994161
 30
0.0
 11
541.2120655822868
 21
519.7481088994161
 31
0.0
  0
SOLID
  5
876
330
867
100
AcDbEntity
  8
BEM
 62
     0
100
AcDbTrace
 10
352.212065582287
 20
520.9147755660827
 30
0.0
 11
352.212065582287
 21
518.5814422327495
 31
0.0
 12
345.212065582287
 22
519.7481088994161
 32
0.0
 13
345.212065582287
 23
519.7481088994161
 33
0.0
  0
SOLID
  5
877
330
867
100
AcDbEntity
  8
BEM
 62
     0
100
AcDbTrace
 10
541.2120655822868
 20
520.9147755660827
 30
0.0
 11
541.2120655822868
 21
518.5814422327495
 31
0.0
 12
548.2120655822869
 22
519.7481088994161
 32
0.0
 13
548.2120655822869
 23
519.7481088994161
 33
0.0
  0
MTEXT
  5
878
330
867
100
AcDbEntity
  8
BEM
 62
     1
100
AcDbMText
 10
446.712065582287
 20
526.2481088994161
 30
0.0
 40
7.0
 41
0.0
 71
     5
 72
     1
  1
\A1;%%c203
 73
     1
 44
1.0
  0
POINT
  5
879
330
867
100
AcDbEntity
  8
DEFPOINTS
 62
     0
100
AcDbPoint
 10
345.212065582287
 20
496.5373314082008
 30
0.0
  0
POINT
  5
87A
330
867
100
AcDbEntity
  8
DEFPOINTS
 62
     0
100
AcDbPoint
 10
548.2120655822869
 20
496.5373314082008
 30
0.0
  0
POINT
  5
87B
330
867
100
AcDbEntity
  8
DEFPOINTS
 62
     0
100
AcDbPoint
 10
548.2120655822869
 20
519.7481088994161
 30
0.0
  0
ENDBLK
  5
872
330
867
100
AcDbEntity
  8
0
100
AcDbBlockEnd
  0
ENDSEC
  0
SECTION
  2
ENTITIES
  0
LINE
  5
58
330
1E
100
AcDbEntity
  8
STEMPEL
100
AcDbLine
 10
830.0000000000002
 20
110.0
 30
0.0
 11
470.0000000000001
 21
110.0
 31
0.0
  0
LINE
  5
59
330
1E
100
AcDbEntity
  8
STEMPEL
100
AcDbLine
 10
470.0000000000001
 20
110.0
 30
0.0
 11
470.0000000000001
 21
10.0
 31
0.0
  0
LINE
  5
5A
330
1E
100
AcDbEntity
  8
STEMPEL
100
AcDbLine
 10
566.0000000000002
 20
109.9999999999999
 30
0.0
 11
566.0000000000001
 21
9.999999999999886
 31
0.0
  0
LINE
  5
5B
330
1E
100
AcDbEntity
  8
STEMPEL
100
AcDbLine
 10
650.0
 20
110.0
 30
0.0
 11
650.0
 21
10.0
 31
0.0
  0
LINE
  5
5C
330
1E
100
AcDbEntity
  8
STEMPEL
100
AcDbLine
 10
752.0000000000002
 20
109.9999999999997
 30
0.0
 11
752.0000000000002
 21
40.0
 31
0.0
  0
LINE
  5
5D
330
1E
100
AcDbEntity
  8
STEMPEL
100
AcDbLine
 10
566.0
 20
30.0
 30
0.0
 11
470.0000000000001
 21
30.0
 31
0.0
  0
LINE
  5
5E
330
1E
100
AcDbEntity
  8
STEMPEL
100
AcDbLine
 10
830.0000000000002
 20
40.0
 30
0.0
 11
566.0000000000001
 21
40.0
 31
0.0
  0
LINE
  5
5F
330
1E
100
AcDbEntity
  8
STEMPEL
100
AcDbLine
 10
830.0000000000002
 20
80.0
 30
0.0
 11
566.0000000000002
 21
80.0
 31
0.0
  0
LINE
  5
60
330
1E
100
AcDbEntity
  8
VOLL
100
AcDbLine
 10
484.0000000000002
 20
110.0
 30
0.0
 11
484.0000000000001
 21
9.999999999999985
 31
0.0
  0
LINE
  5
61
330
1E
100
AcDbEntity
  8
VOLL
100
AcDbLine
 10
524.0000000000001
 20
109.9999999999999
 30
0.0
 11
524.0000000000001
 21
9.999999999999943
 31
0.0
  0
LINE
  5
62
330
1E
100
AcDbEntity
  8
VOLL
100
AcDbLine
 10
544.0000000000002
 20
109.9999999999999
 30
0.0
 11
544.0000000000001
 21
9.999999999999914
 31
0.0
  0
LINE
  5
63
330
1E
100
AcDbEntity
  8
VOLL
100
AcDbLine
 10
584.0000000000002
 20
80.0
 30
0.0
 11
584.0000000000002
 21
40.0
 31
0.0
  0
LINE
  5
64
330
1E
100
AcDbEntity
  8
VOLL
100
AcDbLine
 10
610.0000000000002
 20
109.9999999999998
 30
0.0
 11
610.0000000000001
 21
40.0
 31
0.0
  0
LINE
  5
65
330
1E
100
AcDbEntity
  8
HILF
100
AcDbLine
 10
470.0000000000001
 20
100.0
 30
0.0
 11
566.0000000000002
 21
100.0
 31
0.0
  0
LINE
  5
66
330
1E
100
AcDbEntity
  8
HILF
100
AcDbLine
 10
470.0000000000001
 20
90.0
 30
0.0
 11
566.0000000000002
 21
90.0
 31
0.0
  0
LINE
  5
67
330
1E
100
AcDbEntity
  8
HILF
100
AcDbLine
 10
470.0000000000001
 20
80.0
 30
0.0
 11
566.0000000000002
 21
80.0
 31
0.0
  0
LINE
  5
68
330
1E
100
AcDbEntity
  8
HILF
100
AcDbLine
 10
470.0000000000001
 20
70.0
 30
0.0
 11
566.0000000000002
 21
70.0
 31
0.0
  0
LINE
  5
69
330
1E
100
AcDbEntity
  8
HILF
100
AcDbLine
 10
470.0000000000001
 20
60.0
 30
0.0
 11
566.0000000000002
 21
60.0
 31
0.0
  0
LINE
  5
6A
330
1E
100
AcDbEntity
  8
HILF
100
AcDbLine
 10
470.0000000000001
 20
50.0
 30
0.0
 11
566.0000000000002
 21
50.0
 31
0.0
  0
LINE
  5
6B
330
1E
100
AcDbEntity
  8
HILF
100
AcDbLine
 10
470.0000000000001
 20
40.0
 30
0.0
 11
566.0000000000002
 21
40.0
 31
0.0
  0
LINE
  5
6C
330
1E
100
AcDbEntity
  8
HILF
100
AcDbLine
 10
566.0000000000002
 20
70.0
 30
0.0
 11
650.0
 21
70.0
 31
0.0
  0
LINE
  5
6D
330
1E
100
AcDbEntity
  8
HILF
100
AcDbLine
 10
566.0000000000002
 20
60.0
 30
0.0
 11
650.0
 21
60.0
 31
0.0
  0
LINE
  5
6E
330
1E
100
AcDbEntity
  8
HILF
100
AcDbLine
 10
566.0000000000002
 20
50.0
 30
0.0
 11
650.0
 21
50.0
 31
0.0
  0
LINE
  5
6F
330
1E
100
AcDbEntity
  8
HILF
100
AcDbLine
 10
654.7736801096948
 20
84.03758247564136
 30
0.0
 11
746.6297842514811
 21
84.03758247564136
 31
0.0
  0
LINE
  5
70
330
1E
100
AcDbEntity
  8
HILF
100
AcDbLine
 10
654.7736801096948
 20
70.0
 30
0.0
 11
746.6297842514811
 21
70.0
 31
0.0
  0
LINE
  5
71
330
1E
100
AcDbEntity
  8
HILF
100
AcDbLine
 10
654.7736801096948
 20
60.0
 30
0.0
 11
746.6297842514811
 21
60.0
 31
0.0
  0
LINE
  5
72
330
1E
100
AcDbEntity
  8
HILF
100
AcDbLine
 10
654.7736801096948
 20
50.0
 30
0.0
 11
746.6297842514811
 21
50.0
 31
0.0
  0
LINE
  5
73
330
1E
100
AcDbEntity
  8
VOLL
100
AcDbLine
 10
752.0000000000002
 20
60.0
 30
0.0
 11
830.0000000000002
 21
60.0
 31
0.0
  0
LINE
  5
74
330
1E
100
AcDbEntity
  8
HILF
100
AcDbLine
 10
756.7238616296995
 20
83.77983636955823
 30
0.0
 11
824.858883932673
 21
83.77983636955823
 31
0.0
  0
LINE
  5
75
330
1E
100
AcDbEntity
  8
HILF
100
AcDbLine
 10
654.7736801096948
 20
14.89398258028305
 30
0.0
 11
824.858883932673
 21
14.89398258028305
 31
0.0
  0
TEXT
  5
76
330
1E
100
AcDbEntity
  8
TEXT
100
AcDbText
 10
492.3998239263297
 20
18.67381894984129
 30
0.0
 40
4.0
  1
Änderung
 41
0.8
  7
GREEKS
 72
     1
 11
503.1426810691868
 21
18.67381894984129
 31
0.0
100
AcDbText
  0
TEXT
  5
78
330
1E
100
AcDbEntity
  8
TEXT
100
AcDbText
 10
573.5163572150378
 20
102.4620895087088
 30
0.0
 40
5.0
  1
Maßstab
 41
0.8
  7
GREEKS
100
AcDbText
  0
TEXT
  5
79
330
1E
100
AcDbEntity
  8
TEXT
100
AcDbText
 10
654.8779403809011
 20
102.5489328011779
 30
0.0
 40
5.0
  1
Benennung
 41
0.8
  7
GREEKS
100
AcDbText
  0
TEXT
  5
7A
330
1E
100
AcDbEntity
  8
TEXT
100
AcDbText
 10
756.1787549576343
 20
102.3132034537135
 30
0.0
 40
5.0
  1
Zeichnungs Nr.
 41
0.8
  7
GREEKS
100
AcDbText
  0
TEXT
  5
7B
330
1E
100
AcDbEntity
  8
TEXT
100
AcDbText
 10
654.742238391136
 20
30.84560570193055
 30
0.0
 40
5.0
  1
Bauvorhaben
 41
0.8
  7
GREEKS
100
AcDbText
  0
TEXT
  5
7C
330
1E
100
AcDbEntity
  8
TEXT
100
AcDbText
 10
756.7238616296995
 20
73.18118237099965
 30
0.0
 40
5.0
  1
Ersatz für:
 41
0.8
  7
GREEKS
100
AcDbText
  0
TEXT
  5
7D
330
1E
100
AcDbEntity
  8
TEXT
100
AcDbText
 10
478.2664110704577
 20
13.65465846027187
 30
0.0
 40
4.0
  1
Index
 50
90.0
 41
0.8
  7
GREEKS
100
AcDbText
  0
TEXT
  5
7E
330
1E
100
AcDbEntity
  8
TEXT
100
AcDbText
 10
529.8990113186979
 20
18.67156269339808
 30
0.0
 40
4.0
  1
Tag
 41
0.8
  7
GREEKS
 72
     1
 11
533.6323446520313
 21
18.67156269339808
 31
0.0
100
AcDbText
  0
TEXT
  5
7F
330
1E
100
AcDbEntity
  8
TEXT
100
AcDbText
 10
548.9795678138293
 20
18.59324216966404
 30
0.0
 40
4.0
  1
Name
 41
0.8
  7
GREEKS
 72
     1
 11
555.3033773376388
 21
18.59324216966404
 31
0.0
100
AcDbText
  0
TEXT
  5
80
330
1E
100
AcDbEntity
  8
TEXT
100
AcDbText
 10
592.3311673153651
 20
73.31880501229919
 30
0.0
 40
4.0
  1
Tag
 41
0.8
  7
GREEKS
100
AcDbText
  0
TEXT
  5
81
330
1E
100
AcDbEntity
  8
TEXT
100
AcDbText
 10
622.4626584226296
 20
73.3096109191522
 30
0.0
 40
4.0
  1
Name
 41
0.8
  7
GREEKS
100
AcDbText
  0
TEXT
  5
82
330
1E
100
AcDbEntity
  8
TEXT
100
AcDbText
 10
567.5836127167616
 20
63.62990369617961
 30
0.0
 40
4.0
  1
Gez.
 41
0.8
  7
GREEKS
100
AcDbText
  0
TEXT
  5
83
330
1E
100
AcDbEntity
  8
TEXT
100
AcDbText
 10
567.5515086571673
 20
53.68926291428373
 30
0.0
 40
4.0
  1
Gepr.
 41
0.8
  7
GREEKS
100
AcDbText
  0
TEXT
  5
84
330
1E
100
AcDbEntity
  8
TEXT
100
AcDbText
 10
567.6006777387304
 20
43.52946389649804
 30
0.0
 40
4.0
  1
Norm.
 41
0.8
  7
GREEKS
100
AcDbText
  0
TEXT
  5
85
330
1E
100
AcDbEntity
  8
TEXT
100
AcDbText
 10
757.2400861497007
 20
52.07416177878596
 30
0.0
 40
5.0
  1
ersetzt durch:
 41
0.8
  7
GREEKS
100
AcDbText
  0
TEXT
  5
86
330
1E
100
AcDbEntity
  8
TEXT
100
AcDbText
 10
568.8693027807324
 20
72.96682596523723
 30
0.0
 40
4.0
  1
2007
 41
0.8
  7
GREEKS
100
AcDbText
  0
LINE
  5
87
330
1E
100
AcDbEntity
  8
HILF
100
AcDbLine
 10
0.0
 20
0.0
 30
0.0
 11
840.0
 21
0.0
 31
0.0
  0
LINE
  5
88
330
1E
100
AcDbEntity
  8
HILF
100
AcDbLine
 10
840.0
 20
0.0
 30
0.0
 11
840.0
 21
594.0
 31
0.0
  0
LINE
  5
89
330
1E
100
AcDbEntity
  8
HILF
100
AcDbLine
 10
840.0
 20
594.0
 30
0.0
 11
0.0
 21
594.0
 31
0.0
  0
LINE
  5
8B
330
1E
100
AcDbEntity
  8
STEMPEL
100
AcDbLine
 10
830.0
 20
584.0
 30
0.0
 11
40.0
 21
584.0
 31
0.0
  0
LINE
  5
8D
330
1E
100
AcDbEntity
  8
STEMPEL
100
AcDbLine
 10
40.0
 20
10.0
 30
0.0
 11
830.0
 21
10.0
 31
0.0
  0
LINE
  5
8E
330
1E
100
AcDbEntity
  8
STEMPEL
100
AcDbLine
 10
830.0
 20
10.0
 30
0.0
 11
830.0
 21
584.0
 31
0.0
  0
TEXT
  5
8F
330
1E
100
AcDbEntity
  8
TEXT
 62
     1
100
AcDbText
 10
655.0390572473189
 20
87.37343075652544
 30
0.0
 40
7.0
  1
Siebeinheit DN100
 41
0.8
  7
GREEKS
100
AcDbText
  0
TEXT
  5
90
330
1E
100
AcDbEntity
  8
TEXT
 62
     1
100
AcDbText
 10
767.7294755517469
 20
87.37343075652544
 30
0.0
 40
7.0
  1
17137100W
 41
0.8
  7
GREEKS
 72
     1
 11
790.1294755517469
 21
87.37343075652544
 31
0.0
100
AcDbText
  0
TEXT
  5
91
330
1E
100
AcDbEntity
  8
TEXT
100
AcDbText
 10
618.509022641583
 20
102.83989611379
 30
0.0
 40
5.0
  1
Zul.Abw.
 41
0.8
  7
GREEKS
100
AcDbText
  0
TEXT
  5
93
330
1E
100
AcDbEntity
  8
TEXT
100
AcDbText
 10
590.7660475607107
 20
63.1508587612022
 30
0.0
 40
4.0
  1
11.06.
 41
0.8
  7
GREEKS
 72
     1
 11
597.1660475607107
 21
63.1508587612022
 31
0.0
100
AcDbText
  0
TEXT
  5
94
330
1E
100
AcDbEntity
  8
TEXT
100
AcDbText
 10
624.023175322661
 20
62.94297655165468
 30
0.0
 40
4.0
  1
Koeh
 41
0.8
  7
GREEKS
 72
     1
 11
629.2803181798038
 21
62.94297655165468
 31
0.0
100
AcDbText
  0
TEXT
  5
95
330
1E
100
AcDbEntity
  8
TEXT
100
AcDbText
 10
654.3410940884992
 20
72.10021383107525
 30
0.0
 40
5.0
  1
für Naßdach H=230mm
 41
0.8
  7
GREEKS
100
AcDbText
  0
TEXT
  5
97
330
1E
100
AcDbEntity
  8
TEXT
100
AcDbText
 10
654.3410940884992
 20
52.59097337846058
 30
0.0
 40
5.0
  1
EDV-Art.Nr. 17137.100A
 41
0.8
  7
GREEKS
100
AcDbText
  0
TEXT
  5
98
330
1E
100
AcDbEntity
  8
TEXT
100
AcDbText
 10
654.1676050109348
 20
43.31127624791508
 30
0.0
 40
4.0
  1
17137100W.DWG
 41
0.8
  7
GREEKS
100
AcDbText
  0
TEXT
  5
99
330
1E
100
AcDbEntity
  8
TEXT
 62
     1
100
AcDbText
 10
582.7034912034222
 20
87.47077088414977
 30
0.0
 40
7.0
  1
1:2
 41
0.8
  7
GREEKS
100
AcDbText
  0
TEXT
  5
9A
330
1E
100
AcDbEntity
  8
TEXT
100
AcDbText
 10
470.0441139350127
 20
114.1143585051043
 30
0.0
 40
5.0
  1
Erstellt mit AUTOCAD 2004
 41
0.8
  7
GREEKS
100
AcDbText
  0
INSERT
  5
9B
330
1E
100
AcDbEntity
  8
HILF
100
AcDbBlockReference
  2
LORO
 10
573.0624985962354
 20
36.9805930029896
 30
0.0
 41
2.0
 42
2.0
 43
2.0
  0
LINE
  5
9C
330
1E
100
AcDbEntity
  8
BEM
100
AcDbLine
 10
456.0
 20
0.0
 30
0.0
 11
456.0
 21
10.0
 31
0.0
  0
LINE
  5
13E
330
1E
100
AcDbEntity
  8
HILF
100
AcDbLine
 10
0.0
 20
0.0
 30
0.0
 11
0.0
 21
594.0
 31
0.0
  0
LINE
  5
13F
330
1E
100
AcDbEntity
  8
STEMPEL
100
AcDbLine
 10
40.0
 20
10.0
 30
0.0
 11
40.0
 21
584.0
 31
0.0
  0
LINE
  5
14A
330
1E
100
AcDbEntity
  8
HILF
100
AcDbLine
 10
0.0
 20
297.0
 30
0.0
 11
40.0
 21
297.0
 31
0.0
  0
TEXT
  5
15B
330
1E
100
AcDbEntity
  8
BEM
100
AcDbText
 10
837.3022923857165
 20
10.16790107998861
 30
0.0
 40
4.0
  1
Diese Zeichnung ist urheberrechtlich geschützt und bleibt unser Eigentum. Sie darf weder ganz noch teilweise verfielfältigt und nicht an Dritte weitergegeben werden.
 50
90.0
 41
0.8
  7
GREEKS
100
AcDbText
  0
LINE
  5
3B4
102
{ACAD_REACTORS
330
65D
102
}
330
1E
100
AcDbEntity
  8
STEMPEL
100
AcDbLine
 10
544.2120655822869
 20
500.660437033818
 30
0.0
 11
544.2120655822869
 21
495.6604370338185
 31
0.0
  0
LINE
  5
3B5
102
{ACAD_REACTORS
330
65D
102
}
330
1E
100
AcDbEntity
  8
STEMPEL
100
AcDbLine
 10
541.2120655822869
 20
500.6604370338185
 30
0.0
 11
541.2120655822869
 21
495.6604370338185
 31
0.0
  0
LINE
  5
3B6
330
1E
100
AcDbEntity
  8
STEMPEL
100
AcDbLine
 10
508.5305115932565
 20
495.6604370338185
 30
0.0
 11
508.5305115932565
 21
485.6604370338185
 31
0.0
  0
LINE
  5
3B7
330
1E
100
AcDbEntity
  8
STEMPEL
100
AcDbLine
 10
510.3000237097073
 20
495.6604370338185
 30
0.0
 11
510.3000237097073
 21
485.6604370338185
 31
0.0
  0
LINE
  5
3B8
330
1E
100
AcDbEntity
  8
STEMPEL
100
AcDbLine
 10
495.5862396832573
 20
495.6604370338185
 30
0.0
 11
495.5862396832573
 21
485.6604370338185
 31
0.0
  0
LINE
  5
3B9
102
{ACAD_REACTORS
330
65D
102
}
330
1E
100
AcDbEntity
  8
STEMPEL
100
AcDbLine
 10
508.5305115932565
 20
495.6604370338185
 30
0.0
 11
544.2120655822869
 21
495.6604370338185
 31
0.0
  0
LINE
  5
3BA
102
{ACAD_REACTORS
330
65D
102
}
330
1E
100
AcDbEntity
  8
STEMPEL
100
AcDbLine
 10
508.5305115932565
 20
485.6604370338185
 30
0.0
 11
544.2120655822869
 21
485.6604370338185
 31
0.0
  0
LINE
  5
3BD
102
{ACAD_REACTORS
330
65D
102
}
330
1E
100
AcDbEntity
  8
STEMPEL
100
AcDbLine
 10
544.2120655822869
 20
470.6604370338185
 30
0.0
 11
544.2120655822869
 21
465.6604370338185
 31
0.0
  0
LINE
  5
3BE
102
{ACAD_REACTORS
330
65D
102
}
330
1E
100
AcDbEntity
  8
STEMPEL
100
AcDbLine
 10
541.2120655822869
 20
470.6604370338185
 30
0.0
 11
541.2120655822869
 21
465.6604370338185
 31
0.0
  0
LINE
  5
3BF
102
{ACAD_REACTORS
330
65D
102
}
330
1E
100
AcDbEntity
  8
STEMPEL
100
AcDbLine
 10
544.2120655822869
 20
455.6604370338185
 30
0.0
 11
544.2120655822869
 21
450.6604370338185
 31
0.0
  0
LINE
  5
3C0
102
{ACAD_REACTORS
330
65D
102
}
330
1E
100
AcDbEntity
  8
STEMPEL
100
AcDbLine
 10
541.2120655822869
 20
455.6604370338185
 30
0.0
 11
541.2120655822869
 21
450.6604370338185
 31
0.0
  0
LINE
  5
3C1
330
1E
100
AcDbEntity
  8
STEMPEL
100
AcDbLine
 10
510.3000237097073
 20
480.6604370338185
 30
0.0
 11
510.3000237097073
 21
470.6604370338185
 31
0.0
  0
LINE
  5
3C2
330
1E
100
AcDbEntity
  8
STEMPEL
100
AcDbLine
 10
508.5305115932565
 20
480.6604370338185
 30
0.0
 11
508.5305115932565
 21
470.6604370338185
 31
0.0
  0
LINE
  5
3C3
330
1E
100
AcDbEntity
  8
STEMPEL
100
AcDbLine
 10
495.5862396832573
 20
480.6604370338185
 30
0.0
 11
495.5862396832573
 21
470.6604370338185
 31
0.0
  0
LINE
  5
3C4
330
1E
100
AcDbEntity
  8
STEMPEL
100
AcDbLine
 10
508.5305115932565
 20
450.6604370338185
 30
0.0
 11
508.5305115932565
 21
440.6604370338186
 31
0.0
  0
LINE
  5
3C5
330
1E
100
AcDbEntity
  8
STEMPEL
100
AcDbLine
 10
510.3000237097073
 20
450.6604370338187
 30
0.0
 11
510.3000237097073
 21
440.6604370338186
 31
0.0
  0
LINE
  5
3C6
330
1E
100
AcDbEntity
  8
STEMPEL
100
AcDbLine
 10
495.5862396832573
 20
450.6604370338185
 30
0.0
 11
495.5862396832573
 21
440.6604370338186
 31
0.0
  0
LINE
  5
3C7
330
1E
100
AcDbEntity
  8
STEMPEL
100
AcDbLine
 10
508.5305115932565
 20
465.6604370338185
 30
0.0
 11
508.5305115932565
 21
455.6604370338185
 31
0.0
  0
LINE
  5
3C8
330
1E
100
AcDbEntity
  8
STEMPEL
100
AcDbLine
 10
495.5862396832573
 20
465.6604370338185
 30
0.0
 11
495.5862396832573
 21
455.6604370338185
 31
0.0
  0
LINE
  5
3C9
330
1E
100
AcDbEntity
  8
STEMPEL
100
AcDbLine
 10
510.3000237097073
 20
465.6604370338185
 30
0.0
 11
510.3000237097073
 21
455.6604370338185
 31
0.0
  0
LINE
  5
3CA
102
{ACAD_REACTORS
330
65D
102
}
330
1E
100
AcDbEntity
  8
STEMPEL
100
AcDbLine
 10
508.5305115932565
 20
480.6604370338185
 30
0.0
 11
544.2120655822869
 21
480.6604370338185
 31
0.0
  0
LINE
  5
3CB
102
{ACAD_REACTORS
330
65D
102
}
330
1E
100
AcDbEntity
  8
STEMPEL
100
AcDbLine
 10
508.5305115932565
 20
470.6604370338185
 30
0.0
 11
544.2120655822869
 21
470.6604370338185
 31
0.0
  0
LINE
  5
3CC
102
{ACAD_REACTORS
330
65D
102
}
330
1E
100
AcDbEntity
  8
STEMPEL
100
AcDbLine
 10
508.5305115932565
 20
465.6604370338185
 30
0.0
 11
544.2120655822869
 21
465.6604370338185
 31
0.0
  0
LINE
  5
3CD
102
{ACAD_REACTORS
330
65D
102
}
330
1E
100
AcDbEntity
  8
STEMPEL
100
AcDbLine
 10
508.5305115932565
 20
450.6604370338185
 30
0.0
 11
544.2120655822869
 21
450.6604370338185
 31
0.0
  0
LINE
  5
3CE
102
{ACAD_REACTORS
330
65D
102
}
330
1E
100
AcDbEntity
  8
STEMPEL
100
AcDbLine
 10
508.5305115932565
 20
455.6604370338185
 30
0.0
 11
544.2120655822869
 21
455.6604370338185
 31
0.0
  0
LINE
  5
3CF
102
{ACAD_REACTORS
330
65D
102
}
330
1E
100
AcDbEntity
  8
STEMPEL
100
AcDbLine
 10
508.5305115932565
 20
440.6604370338186
 30
0.0
 11
544.2120655822869
 21
440.6604370338186
 31
0.0
  0
LINE
  5
3D0
102
{ACAD_REACTORS
330
65D
102
}
330
1E
100
AcDbEntity
  8
STEMPEL
100
AcDbLine
 10
544.2120655822869
 20
425.6604370338186
 30
0.0
 11
544.2120655822869
 21
420.6604370338186
 31
0.0
  0
LINE
  5
3D1
102
{ACAD_REACTORS
330
65D
102
}
330
1E
100
AcDbEntity
  8
STEMPEL
100
AcDbLine
 10
541.2120655822869
 20
425.6604370338186
 30
0.0
 11
541.2120655822869
 21
420.6604370338186
 31
0.0
  0
LINE
  5
3D2
102
{ACAD_REACTORS
330
65D
102
}
330
1E
100
AcDbEntity
  8
STEMPEL
100
AcDbLine
 10
544.2120655822869
 20
410.6604370338186
 30
0.0
 11
544.2120655822869
 21
405.6604370338186
 31
0.0
  0
LINE
  5
3D3
102
{ACAD_REACTORS
330
65D
102
}
330
1E
100
AcDbEntity
  8
STEMPEL
100
AcDbLine
 10
541.2120655822869
 20
410.6604370338186
 30
0.0
 11
541.2120655822869
 21
405.6604370338186
 31
0.0
  0
LINE
  5
3D4
102
{ACAD_REACTORS
330
65D
102
}
330
1E
100
AcDbEntity
  8
STEMPEL
100
AcDbLine
 10
544.2120655822869
 20
395.6604370338187
 30
0.0
 11
544.2120655822869
 21
390.6604370338186
 31
0.0
  0
LINE
  5
3D5
102
{ACAD_REACTORS
330
65D
102
}
330
1E
100
AcDbEntity
  8
STEMPEL
100
AcDbLine
 10
541.2120655822869
 20
395.6604370338187
 30
0.0
 11
541.2120655822869
 21
390.6604370338186
 31
0.0
  0
LINE
  5
3D6
330
1E
100
AcDbEntity
  8
STEMPEL
100
AcDbLine
 10
510.3000237097073
 20
435.6604370338186
 30
0.0
 11
510.3000237097073
 21
425.6604370338186
 31
0.0
  0
LINE
  5
3D7
330
1E
100
AcDbEntity
  8
STEMPEL
100
AcDbLine
 10
508.5305115932565
 20
435.6604370338186
 30
0.0
 11
508.5305115932565
 21
425.6604370338186
 31
0.0
  0
LINE
  5
3D8
330
1E
100
AcDbEntity
  8
STEMPEL
100
AcDbLine
 10
495.5862396832573
 20
435.6604370338186
 30
0.0
 11
495.5862396832573
 21
433.6604370338187
 31
0.0
  0
LINE
  5
3D9
330
1E
100
AcDbEntity
  8
STEMPEL
100
AcDbLine
 10
510.3000237097073
 20
405.6604370338186
 30
0.0
 11
510.3000237097073
 21
395.6604370338187
 31
0.0
  0
LINE
  5
3DA
330
1E
100
AcDbEntity
  8
STEMPEL
100
AcDbLine
 10
508.5305115932565
 20
405.6604370338186
 30
0.0
 11
508.5305115932565
 21
395.6604370338187
 31
0.0
  0
LINE
  5
3DC
330
1E
100
AcDbEntity
  8
STEMPEL
100
AcDbLine
 10
510.3000237097073
 20
420.6604370338186
 30
0.0
 11
510.3000237097073
 21
410.6604370338186
 31
0.0
  0
LINE
  5
3DD
330
1E
100
AcDbEntity
  8
STEMPEL
100
AcDbLine
 10
508.5305115932565
 20
420.6604370338186
 30
0.0
 11
508.5305115932565
 21
410.6604370338186
 31
0.0
  0
LINE
  5
3DF
102
{ACAD_REACTORS
330
65D
102
}
330
1E
100
AcDbEntity
  8
STEMPEL
100
AcDbLine
 10
508.5305115932565
 20
435.6604370338186
 30
0.0
 11
544.2120655822869
 21
435.6604370338186
 31
0.0
  0
LINE
  5
3E0
102
{ACAD_REACTORS
330
65D
102
}
330
1E
100
AcDbEntity
  8
STEMPEL
100
AcDbLine
 10
508.5305115932565
 20
420.6604370338186
 30
0.0
 11
544.2120655822869
 21
420.6604370338186
 31
0.0
  0
LINE
  5
3E1
102
{ACAD_REACTORS
330
65D
102
}
330
1E
100
AcDbEntity
  8
STEMPEL
100
AcDbLine
 10
508.5305115932565
 20
425.6604370338186
 30
0.0
 11
544.2120655822869
 21
425.6604370338186
 31
0.0
  0
LINE
  5
3E2
102
{ACAD_REACTORS
330
65D
102
}
330
1E
100
AcDbEntity
  8
STEMPEL
100
AcDbLine
 10
508.5305115932565
 20
405.6604370338186
 30
0.0
 11
544.2120655822869
 21
405.6604370338186
 31
0.0
  0
LINE
  5
3E3
102
{ACAD_REACTORS
330
65D
102
}
330
1E
100
AcDbEntity
  8
STEMPEL
100
AcDbLine
 10
508.5305115932565
 20
410.6604370338186
 30
0.0
 11
544.2120655822869
 21
410.6604370338186
 31
0.0
  0
LINE
  5
3E4
102
{ACAD_REACTORS
330
65D
102
}
330
1E
100
AcDbEntity
  8
STEMPEL
100
AcDbLine
 10
508.5305115932565
 20
395.6604370338187
 30
0.0
 11
544.2120655822869
 21
395.6604370338187
 31
0.0
  0
LINE
  5
3E5
102
{ACAD_REACTORS
330
65D
102
}
330
1E
100
AcDbEntity
  8
STEMPEL
100
AcDbLine
 10
508.5305115932565
 20
390.6604370338186
 30
0.0
 11
544.2120655822869
 21
390.6604370338186
 31
0.0
  0
LINE
  5
3E6
102
{ACAD_REACTORS
330
65D
102
}
330
1E
100
AcDbEntity
  8
STEMPEL
100
AcDbLine
 10
544.2120655822869
 20
440.6604370338186
 30
0.0
 11
544.2120655822869
 21
435.6604370338186
 31
0.0
  0
LINE
  5
3E7
102
{ACAD_REACTORS
330
65D
102
}
330
1E
100
AcDbEntity
  8
STEMPEL
100
AcDbLine
 10
541.2120655822869
 20
440.6604370338186
 30
0.0
 11
541.2120655822869
 21
435.6604370338186
 31
0.0
  0
LINE
  5
3E8
102
{ACAD_REACTORS
330
65D
102
}
330
1E
100
AcDbEntity
  8
STEMPEL
100
AcDbLine
 10
541.2120655822869
 20
380.6604370338186
 30
0.0
 11
541.2120655822869
 21
375.6604370338187
 31
0.0
  0
LINE
  5
3E9
102
{ACAD_REACTORS
330
65D
102
}
330
1E
100
AcDbEntity
  8
STEMPEL
100
AcDbLine
 10
544.2120655822869
 20
380.6604370338186
 30
0.0
 11
544.2120655822869
 21
375.6604370338187
 31
0.0
  0
LINE
  5
3EA
102
{ACAD_REACTORS
330
65D
102
}
330
1E
100
AcDbEntity
  8
STEMPEL
100
AcDbLine
 10
544.2120655822869
 20
365.6604370338186
 30
0.0
 11
544.2120655822869
 21
360.6604370338187
 31
0.0
  0
LINE
  5
3EB
102
{ACAD_REACTORS
330
65D
102
}
330
1E
100
AcDbEntity
  8
STEMPEL
100
AcDbLine
 10
541.2120655822869
 20
365.6604370338186
 30
0.0
 11
541.2120655822869
 21
360.6604370338187
 31
0.0
  0
LINE
  5
3EC
102
{ACAD_REACTORS
330
65D
102
}
330
1E
100
AcDbEntity
  8
STEMPEL
100
AcDbLine
 10
544.2120655822869
 20
350.6604370338187
 30
0.0
 11
544.2120655822869
 21
345.6604370338187
 31
0.0
  0
LINE
  5
3ED
102
{ACAD_REACTORS
330
65D
102
}
330
1E
100
AcDbEntity
  8
STEMPEL
100
AcDbLine
 10
541.2120655822869
 20
350.6604370338187
 30
0.0
 11
541.2120655822869
 21
345.6604370338187
 31
0.0
  0
LINE
  5
3EE
330
1E
100
AcDbEntity
  8
STEMPEL
100
AcDbLine
 10
510.3000237097073
 20
360.6604370338187
 30
0.0
 11
510.3000237097073
 21
350.6604370338187
 31
0.0
  0
LINE
  5
3EF
330
1E
100
AcDbEntity
  8
STEMPEL
100
AcDbLine
 10
508.5305115932565
 20
360.6604370338187
 30
0.0
 11
508.5305115932565
 21
350.6604370338187
 31
0.0
  0
LINE
  5
3F2
330
1E
100
AcDbEntity
  8
STEMPEL
100
AcDbLine
 10
510.3000237097073
 20
375.6604370338187
 30
0.0
 11
510.3000237097073
 21
365.6604370338186
 31
0.0
  0
LINE
  5
3F3
330
1E
100
AcDbEntity
  8
STEMPEL
100
AcDbLine
 10
508.5305115932565
 20
375.6604370338187
 30
0.0
 11
508.5305115932565
 21
365.6604370338186
 31
0.0
  0
LINE
  5
3F4
102
{ACAD_REACTORS
330
65D
102
}
330
1E
100
AcDbEntity
  8
STEMPEL
100
AcDbLine
 10
508.5305115932565
 20
380.6604370338186
 30
0.0
 11
544.2120655822869
 21
380.6604370338186
 31
0.0
  0
LINE
  5
3F5
102
{ACAD_REACTORS
330
65D
102
}
330
1E
100
AcDbEntity
  8
STEMPEL
100
AcDbLine
 10
508.5305115932565
 20
375.6604370338187
 30
0.0
 11
544.2120655822869
 21
375.6604370338187
 31
0.0
  0
LINE
  5
3F6
102
{ACAD_REACTORS
330
65D
102
}
330
1E
100
AcDbEntity
  8
STEMPEL
100
AcDbLine
 10
508.5305115932565
 20
360.6604370338187
 30
0.0
 11
544.2120655822869
 21
360.6604370338187
 31
0.0
  0
LINE
  5
3F7
102
{ACAD_REACTORS
330
65D
102
}
330
1E
100
AcDbEntity
  8
STEMPEL
100
AcDbLine
 10
508.5305115932565
 20
365.6604370338186
 30
0.0
 11
544.2120655822869
 21
365.6604370338186
 31
0.0
  0
LINE
  5
3F8
102
{ACAD_REACTORS
330
65D
102
}
330
1E
100
AcDbEntity
  8
STEMPEL
100
AcDbLine
 10
508.5305115932565
 20
345.6604370338187
 30
0.0
 11
544.2120655822869
 21
345.6604370338187
 31
0.0
  0
LINE
  5
3F9
102
{ACAD_REACTORS
330
65D
102
}
330
1E
100
AcDbEntity
  8
STEMPEL
100
AcDbLine
 10
508.5305115932565
 20
350.6604370338187
 30
0.0
 11
544.2120655822869
 21
350.6604370338187
 31
0.0
  0
LINE
  5
3FA
102
{ACAD_REACTORS
330
65D
102
}
330
1E
100
AcDbEntity
  8
STEMPEL
100
AcDbLine
 10
544.2120655822869
 20
335.6604370338188
 30
0.0
 11
544.2120655822869
 21
330.6604370338188
 31
0.0
  0
LINE
  5
3FB
102
{ACAD_REACTORS
330
65D
102
}
330
1E
100
AcDbEntity
  8
STEMPEL
100
AcDbLine
 10
541.2120655822869
 20
335.6604370338188
 30
0.0
 11
541.2120655822869
 21
330.6604370338188
 31
0.0
  0
LINE
  5
3FC
102
{ACAD_REACTORS
330
65D
102
}
330
1E
100
AcDbEntity
  8
STEMPEL
100
AcDbLine
 10
544.2120655822869
 20
305.6604370338188
 30
0.0
 11
544.2120655822869
 21
300.6604370338188
 31
0.0
  0
LINE
  5
3FD
102
{ACAD_REACTORS
330
65D
102
}
330
1E
100
AcDbEntity
  8
STEMPEL
100
AcDbLine
 10
541.2120655822869
 20
305.6604370338188
 30
0.0
 11
541.2120655822869
 21
300.6604370338188
 31
0.0
  0
LINE
  5
3FE
102
{ACAD_REACTORS
330
65D
102
}
330
1E
100
AcDbEntity
  8
STEMPEL
100
AcDbLine
 10
544.2120655822869
 20
320.6604370338188
 30
0.0
 11
544.2120655822869
 21
315.6604370338188
 31
0.0
  0
LINE
  5
3FF
102
{ACAD_REACTORS
330
65D
102
}
330
1E
100
AcDbEntity
  8
STEMPEL
100
AcDbLine
 10
541.2120655822869
 20
320.6604370338188
 30
0.0
 11
541.2120655822869
 21
315.6604370338188
 31
0.0
  0
LINE
  5
400
330
1E
100
AcDbEntity
  8
STEMPEL
100
AcDbLine
 10
510.3000237097073
 20
330.6604370338188
 30
0.0
 11
510.3000237097073
 21
320.6604370338188
 31
0.0
  0
LINE
  5
401
330
1E
100
AcDbEntity
  8
STEMPEL
100
AcDbLine
 10
508.5305115932565
 20
330.6604370338188
 30
0.0
 11
508.5305115932565
 21
320.6604370338188
 31
0.0
  0
LINE
  5
403
330
1E
100
AcDbEntity
  8
STEMPEL
100
AcDbLine
 10
510.3000237097073
 20
315.6604370338188
 30
0.0
 11
510.3000237097073
 21
305.6604370338188
 31
0.0
  0
LINE
  5
404
330
1E
100
AcDbEntity
  8
STEMPEL
100
AcDbLine
 10
508.5305115932565
 20
315.6604370338188
 30
0.0
 11
508.5305115932565
 21
305.6604370338188
 31
0.0
  0
LINE
  5
406
102
{ACAD_REACTORS
330
65D
102
}
330
1E
100
AcDbEntity
  8
STEMPEL
100
AcDbLine
 10
508.5305115932565
 20
330.6604370338188
 30
0.0
 11
544.2120655822869
 21
330.6604370338188
 31
0.0
  0
LINE
  5
407
102
{ACAD_REACTORS
330
65D
102
}
330
1E
100
AcDbEntity
  8
STEMPEL
100
AcDbLine
 10
508.5305115932565
 20
335.6604370338188
 30
0.0
 11
544.2120655822869
 21
335.6604370338188
 31
0.0
  0
LINE
  5
408
102
{ACAD_REACTORS
330
65D
102
}
330
1E
100
AcDbEntity
  8
STEMPEL
100
AcDbLine
 10
508.5305115932565
 20
315.6604370338188
 30
0.0
 11
544.2120655822869
 21
315.6604370338188
 31
0.0
  0
LINE
  5
409
102
{ACAD_REACTORS
330
65D
102
}
330
1E
100
AcDbEntity
  8
STEMPEL
100
AcDbLine
 10
508.5305115932565
 20
320.6604370338188
 30
0.0
 11
544.2120655822869
 21
320.6604370338188
 31
0.0
  0
LINE
  5
40A
102
{ACAD_REACTORS
330
65D
102
}
330
1E
100
AcDbEntity
  8
STEMPEL
100
AcDbLine
 10
508.5305115932565
 20
300.6604370338188
 30
0.0
 11
544.2120655822869
 21
300.6604370338188
 31
0.0
  0
LINE
  5
40B
102
{ACAD_REACTORS
330
65D
102
}
330
1E
100
AcDbEntity
  8
STEMPEL
100
AcDbLine
 10
508.5305115932565
 20
305.6604370338188
 30
0.0
 11
544.2120655822869
 21
305.6604370338188
 31
0.0
  0
LINE
  5
40D
330
1E
100
AcDbEntity
  8
STEMPEL
100
AcDbLine
 10
510.3000237097073
 20
345.6604370338187
 30
0.0
 11
510.3000237097073
 21
335.6604370338188
 31
0.0
  0
LINE
  5
40E
330
1E
100
AcDbEntity
  8
STEMPEL
100
AcDbLine
 10
508.5305115932565
 20
345.6604370338187
 30
0.0
 11
508.5305115932565
 21
335.6604370338188
 31
0.0
  0
LINE
  5
410
330
1E
100
AcDbEntity
  8
STEMPEL
100
AcDbLine
 10
508.5305115932565
 20
390.6604370338186
 30
0.0
 11
508.5305115932565
 21
380.6604370338186
 31
0.0
  0
LINE
  5
411
330
1E
100
AcDbEntity
  8
STEMPEL
100
AcDbLine
 10
510.3000237097073
 20
390.6604370338188
 30
0.0
 11
510.3000237097073
 21
380.6604370338186
 31
0.0
  0
LINE
  5
412
330
1E
100
AcDbEntity
  8
TEXT
 62
     2
100
AcDbLine
 10
546.6207939698399
 20
496.6869592861614
 30
0.0
 11
614.7006548126474
 21
505.5307306545653
 31
0.0
  0
LINE
  5
413
102
{ACAD_REACTORS
330
65D
102
}
330
1E
100
AcDbEntity
  8
STEMPEL
100
AcDbLine
 10
541.2120655822869
 20
485.6604370338185
 30
0.0
 11
541.2120655822869
 21
480.6604370338185
 31
0.0
  0
LINE
  5
414
102
{ACAD_REACTORS
330
65D
102
}
330
1E
100
AcDbEntity
  8
STEMPEL
100
AcDbLine
 10
544.2120655822869
 20
485.6604370338185
 30
0.0
 11
544.2120655822869
 21
480.6604370338185
 31
0.0
  0
TEXT
  5
415
330
1E
100
AcDbEntity
  8
TEXT
 62
     1
100
AcDbText
 10
616.503732557935
 20
509.0307306545652
 30
0.0
 40
7.0
  1
Siebdeckel
 41
0.8
  7
GREEKS
 11
616.503732557935
 21
512.5307306545653
 31
0.0
100
AcDbText
 73
     2
  0
TEXT
  5
416
330
1E
100
AcDbEntity
  8
TEXT
 62
     1
100
AcDbText
 10
616.503732557935
 20
495.5760840885359
 30
0.0
 40
7.0
  1
EDV-Art.Nr. 17112.000A
 41
0.8
  7
GREEKS
 11
616.503732557935
 21
499.0760840885359
 31
0.0
100
AcDbText
 73
     2
  0
LINE
  5
417
330
1E
100
AcDbEntity
  8
TEXT
 62
     2
100
AcDbLine
 10
614.7006548126474
 20
505.5307306545653
 30
0.0
 11
720.1655228219199
 21
505.5307306545653
 31
0.0
  0
LINE
  5
418
102
{ACAD_REACTORS
330
676
102
}
330
1E
100
AcDbEntity
  8
STEMPEL
100
AcDbLine
 10
611.7120655822871
 20
275.6604370338188
 30
0.0
 11
611.7120655822868
 21
273.6604370338188
 31
0.0
  0
LINE
  5
41A
102
{ACAD_REACTORS
330
65D
102
}
330
1E
100
AcDbEntity
  8
STEMPEL
100
AcDbLine
 10
544.2120655822869
 20
290.6604370338188
 30
0.0
 11
544.2120655822869
 21
285.6604370338187
 31
0.0
  0
LINE
  5
41B
102
{ACAD_REACTORS
330
65D
102
}
330
1E
100
AcDbEntity
  8
STEMPEL
100
AcDbLine
 10
541.2120655822869
 20
290.6604370338188
 30
0.0
 11
541.2120655822869
 21
285.6604370338187
 31
0.0
  0
LINE
  5
41C
330
1E
100
AcDbEntity
  8
STEMPEL
100
AcDbLine
 10
510.3000237097073
 20
285.6604370338187
 30
0.0
 11
510.3000237097073
 21
275.6604370338187
 31
0.0
  0
LINE
  5
41D
330
1E
100
AcDbEntity
  8
STEMPEL
100
AcDbLine
 10
508.5305115932565
 20
285.6604370338187
 30
0.0
 11
508.5305115932565
 21
275.6604370338187
 31
0.0
  0
LINE
  5
41F
102
{ACAD_REACTORS
330
676
102
}
330
1E
100
AcDbEntity
  8
STEMPEL
100
AcDbLine
 10
512.2120655822868
 20
265.6604370338188
 30
0.0
 11
512.2120655822871
 21
258.6604370338188
 31
0.0
  0
LINE
  5
420
102
{ACAD_REACTORS
330
676
102
}
330
1E
100
AcDbEntity
  8
STEMPEL
100
AcDbLine
 10
510.2120655822869
 20
265.6604370338188
 30
0.0
 11
510.2120655822869
 21
258.6604370338188
 31
0.0
  0
ARC
  5
421
102
{ACAD_REACTORS
330
676
102
}
330
1E
100
AcDbEntity
  8
STEMPEL
100
AcDbCircle
 10
520.2120655822868
 20
265.6604370338188
 30
0.0
 40
8.0
100
AcDbArc
 50
90.0
 51
180.0
  0
ARC
  5
422
102
{ACAD_REACTORS
330
676
102
}
330
1E
100
AcDbEntity
  8
STEMPEL
100
AcDbCircle
 10
520.2120655822868
 20
265.6604370338188
 30
0.0
 40
10.0
100
AcDbArc
 50
90.0
 51
180.0
  0
LINE
  5
423
102
{ACAD_REACTORS
330
65D
102
}
330
1E
100
AcDbEntity
  8
STEMPEL
100
AcDbLine
 10
508.5305115932565
 20
290.6604370338188
 30
0.0
 11
544.2120655822869
 21
290.6604370338188
 31
0.0
  0
LINE
  5
424
102
{ACAD_REACTORS
330
65D
102
}
330
1E
100
AcDbEntity
  8
STEMPEL
100
AcDbLine
 10
508.5305115932565
 20
285.6604370338187
 30
0.0
 11
544.2120655822869
 21
285.6604370338187
 31
0.0
  0
DIMENSION
  5
425
330
1E
100
AcDbEntity
  8
BEM
100
AcDbDimension
  2
*D2
 10
647.6037255502376
 20
258.6604370338188
 30
0.0
 11
641.1037255502375
 21
267.1604370338189
 31
0.0
 70
    32
 71
     5
 42
17.0
  3
Standard
100
AcDbAlignedDimension
 13
611.7120655822871
 23
275.6604370338188
 33
0.0
 14
512.2120655822871
 24
258.6604370338188
 34
0.0
 50
90.0
100
AcDbRotatedDimension
1001
ACAD
1000
DSTYLE
1002
{
1070
    40
1040
2.0
1070
    41
1040
3.5
1070
    42
1040
1.0
1070
    43
1040
7.0
1070
    44
1040
1.0
1070
    73
1070
     0
1070
    74
1070
     0
1070
    77
1070
     1
1070
    78
1070
     8
1070
    79
1070
     2
1070
   140
1040
3.5
1070
   141
1040
1.5
1070
   146
1040
0.5142857142857144
1070
   147
1040
1.5
1070
   172
1070
     1
1070
   178
1070
     1
1070
   179
1070
     2
1070
   271
1070
     2
1070
   272
1070
     2
1070
   284
1070
     8
1070
   285
1070
     8
1070
   286
1070
     8
1002
}
  0
LINE
  5
426
102
{ACAD_REACTORS
330
676
102
}
330
1E
100
AcDbEntity
  8
STEMPEL
100
AcDbLine
 10
520.2120655822868
 20
273.6604370338188
 30
0.0
 11
611.7120655822868
 21
273.6604370338188
 31
0.0
  0
LINE
  5
427
330
1E
100
AcDbEntity
  8
STEMPEL
100
AcDbLine
 10
510.3000237097073
 20
300.6604370338188
 30
0.0
 11
510.3000237097073
 21
290.6604370338188
 31
0.0
  0
LINE
  5
428
330
1E
100
AcDbEntity
  8
STEMPEL
100
AcDbLine
 10
508.5305115932565
 20
300.6604370338188
 30
0.0
 11
508.5305115932565
 21
290.6604370338188
 31
0.0
  0
LINE
  5
42B
330
1E
100
AcDbEntity
  8
MITTEL
100
AcDbLine
 10
446.712065582287
 20
513.5373314082009
 30
0.0
 11
446.712065582287
 21
233.6604370338188
 31
0.0
  0
LINE
  5
42C
330
1E
100
AcDbEntity
  8
STEMPEL
100
AcDbLine
 10
397.8378914813167
 20
495.6604370338185
 30
0.0
 11
397.8378914813167
 21
485.6604370338185
 31
0.0
  0
LINE
  5
42D
330
1E
100
AcDbEntity
  8
STEMPEL
100
AcDbLine
 10
384.8936195713175
 20
495.6604370338185
 30
0.0
 11
384.8936195713175
 21
485.6604370338185
 31
0.0
  0
LINE
  5
42E
330
1E
100
AcDbEntity
  8
STEMPEL
100
AcDbLine
 10
382.7657940805035
 20
495.6604370338185
 30
0.0
 11
382.7657940805035
 21
485.6604370338185
 31
0.0
  0
LINE
  5
42F
102
{ACAD_REACTORS
330
65D
102
}
330
1E
100
AcDbEntity
  8
STEMPEL
100
AcDbLine
 10
349.212065582287
 20
500.6604370338185
 30
0.0
 11
349.2120655822871
 21
495.6604370338185
 31
0.0
  0
LINE
  5
430
102
{ACAD_REACTORS
330
65D
102
}
330
1E
100
AcDbEntity
  8
STEMPEL
100
AcDbLine
 10
352.212065582287
 20
500.6604370338185
 30
0.0
 11
352.212065582287
 21
495.6604370338185
 31
0.0
  0
LINE
  5
431
102
{ACAD_REACTORS
330
65D
102
}
330
1E
100
AcDbEntity
  8
STEMPEL
100
AcDbLine
 10
349.2120655822871
 20
485.6604370338185
 30
0.0
 11
384.8936195713175
 21
485.6604370338185
 31
0.0
  0
LINE
  5
432
102
{ACAD_REACTORS
330
65D
102
}
330
1E
100
AcDbEntity
  8
STEMPEL
100
AcDbLine
 10
349.2120655822871
 20
495.6604370338185
 30
0.0
 11
384.8936195713175
 21
495.6604370338185
 31
0.0
  0
LINE
  5
433
330
1E
100
AcDbEntity
  8
STEMPEL
100
AcDbLine
 10
397.8378914813167
 20
480.6604370338185
 30
0.0
 11
397.8378914813167
 21
470.6604370338185
 31
0.0
  0
LINE
  5
434
330
1E
100
AcDbEntity
  8
STEMPEL
100
AcDbLine
 10
397.8378914813167
 20
450.6604370338187
 30
0.0
 11
397.8378914813167
 21
440.6604370338187
 31
0.0
  0
LINE
  5
435
330
1E
100
AcDbEntity
  8
STEMPEL
100
AcDbLine
 10
397.8378914813167
 20
465.6604370338185
 30
0.0
 11
397.8378914813165
 21
455.6604370338186
 31
0.0
  0
LINE
  5
436
330
1E
100
AcDbEntity
  8
STEMPEL
100
AcDbLine
 10
384.8936195713175
 20
480.6604370338185
 30
0.0
 11
384.8936195713175
 21
470.6604370338185
 31
0.0
  0
LINE
  5
437
330
1E
100
AcDbEntity
  8
STEMPEL
100
AcDbLine
 10
382.7657940805035
 20
480.6604370338185
 30
0.0
 11
382.7657940805035
 21
470.6604370338185
 31
0.0
  0
LINE
  5
438
330
1E
100
AcDbEntity
  8
STEMPEL
100
AcDbLine
 10
384.8936195713175
 20
450.6604370338187
 30
0.0
 11
384.8936195713175
 21
440.6604370338186
 31
0.0
  0
LINE
  5
439
330
1E
100
AcDbEntity
  8
STEMPEL
100
AcDbLine
 10
382.7657940805035
 20
450.6604370338187
 30
0.0
 11
382.7657940805035
 21
440.6604370338186
 31
0.0
  0
LINE
  5
43A
330
1E
100
AcDbEntity
  8
STEMPEL
100
AcDbLine
 10
384.8936195713175
 20
465.6604370338185
 30
0.0
 11
384.8936195713174
 21
455.6604370338185
 31
0.0
  0
LINE
  5
43B
330
1E
100
AcDbEntity
  8
STEMPEL
100
AcDbLine
 10
382.7657940805035
 20
465.6604370338185
 30
0.0
 11
382.7657940805034
 21
455.6604370338186
 31
0.0
  0
LINE
  5
43C
330
1E
100
AcDbEntity
  8
STEMPEL
100
AcDbLine
 10
397.8378914813167
 20
435.6604370338186
 30
0.0
 11
397.8378914813167
 21
433.6604370338187
 31
0.0
  0
LINE
  5
43F
330
1E
100
AcDbEntity
  8
STEMPEL
100
AcDbLine
 10
384.8936195713175
 20
435.6604370338186
 30
0.0
 11
384.8936195713175
 21
425.6604370338186
 31
0.0
  0
LINE
  5
440
330
1E
100
AcDbEntity
  8
STEMPEL
100
AcDbLine
 10
382.7657940805035
 20
435.6604370338186
 30
0.0
 11
382.7657940805035
 21
425.6604370338186
 31
0.0
  0
LINE
  5
441
330
1E
100
AcDbEntity
  8
STEMPEL
100
AcDbLine
 10
384.8936195713175
 20
405.6604370338186
 30
0.0
 11
384.8936195713174
 21
395.6604370338188
 31
0.0
  0
LINE
  5
442
330
1E
100
AcDbEntity
  8
STEMPEL
100
AcDbLine
 10
382.7657940805035
 20
405.6604370338186
 30
0.0
 11
382.7657940805034
 21
395.6604370338188
 31
0.0
  0
LINE
  5
443
330
1E
100
AcDbEntity
  8
STEMPEL
100
AcDbLine
 10
384.8936195713175
 20
420.6604370338186
 30
0.0
 11
384.8936195713175
 21
410.6604370338186
 31
0.0
  0
LINE
  5
444
330
1E
100
AcDbEntity
  8
STEMPEL
100
AcDbLine
 10
382.7657940805035
 20
420.6604370338186
 30
0.0
 11
382.7657940805035
 21
410.6604370338186
 31
0.0
  0
LINE
  5
445
102
{ACAD_REACTORS
330
65D
102
}
330
1E
100
AcDbEntity
  8
STEMPEL
100
AcDbLine
 10
352.212065582287
 20
470.6604370338185
 30
0.0
 11
352.212065582287
 21
465.6604370338185
 31
0.0
  0
LINE
  5
446
102
{ACAD_REACTORS
330
65D
102
}
330
1E
100
AcDbEntity
  8
STEMPEL
100
AcDbLine
 10
349.2120655822871
 20
470.6604370338185
 30
0.0
 11
349.2120655822871
 21
465.6604370338185
 31
0.0
  0
LINE
  5
447
102
{ACAD_REACTORS
330
65D
102
}
330
1E
100
AcDbEntity
  8
STEMPEL
100
AcDbLine
 10
349.2120655822871
 20
455.6604370338186
 30
0.0
 11
349.212065582287
 21
450.6604370338187
 31
0.0
  0
LINE
  5
448
102
{ACAD_REACTORS
330
65D
102
}
330
1E
100
AcDbEntity
  8
STEMPEL
100
AcDbLine
 10
352.212065582287
 20
455.6604370338186
 30
0.0
 11
352.212065582287
 21
450.6604370338187
 31
0.0
  0
LINE
  5
449
102
{ACAD_REACTORS
330
65D
102
}
330
1E
100
AcDbEntity
  8
STEMPEL
100
AcDbLine
 10
349.2120655822871
 20
425.6604370338186
 30
0.0
 11
349.2120655822871
 21
420.6604370338186
 31
0.0
  0
LINE
  5
44A
102
{ACAD_REACTORS
330
65D
102
}
330
1E
100
AcDbEntity
  8
STEMPEL
100
AcDbLine
 10
352.212065582287
 20
425.6604370338186
 30
0.0
 11
352.212065582287
 21
420.6604370338186
 31
0.0
  0
LINE
  5
44B
102
{ACAD_REACTORS
330
65D
102
}
330
1E
100
AcDbEntity
  8
STEMPEL
100
AcDbLine
 10
352.212065582287
 20
410.6604370338186
 30
0.0
 11
352.212065582287
 21
405.6604370338186
 31
0.0
  0
LINE
  5
44C
102
{ACAD_REACTORS
330
65D
102
}
330
1E
100
AcDbEntity
  8
STEMPEL
100
AcDbLine
 10
349.2120655822871
 20
410.6604370338186
 30
0.0
 11
349.2120655822871
 21
405.6604370338186
 31
0.0
  0
LINE
  5
44D
102
{ACAD_REACTORS
330
65D
102
}
330
1E
100
AcDbEntity
  8
STEMPEL
100
AcDbLine
 10
349.212065582287
 20
395.6604370338188
 30
0.0
 11
349.212065582287
 21
390.6604370338188
 31
0.0
  0
LINE
  5
44E
102
{ACAD_REACTORS
330
65D
102
}
330
1E
100
AcDbEntity
  8
STEMPEL
100
AcDbLine
 10
352.212065582287
 20
395.6604370338188
 30
0.0
 11
352.212065582287
 21
390.6604370338188
 31
0.0
  0
LINE
  5
44F
102
{ACAD_REACTORS
330
65D
102
}
330
1E
100
AcDbEntity
  8
STEMPEL
100
AcDbLine
 10
352.212065582287
 20
440.6604370338186
 30
0.0
 11
352.212065582287
 21
435.6604370338186
 31
0.0
  0
LINE
  5
450
102
{ACAD_REACTORS
330
65D
102
}
330
1E
100
AcDbEntity
  8
STEMPEL
100
AcDbLine
 10
349.212065582287
 20
440.6604370338186
 30
0.0
 11
349.2120655822871
 21
435.6604370338186
 31
0.0
  0
LINE
  5
451
102
{ACAD_REACTORS
330
65D
102
}
330
1E
100
AcDbEntity
  8
STEMPEL
100
AcDbLine
 10
349.212065582287
 20
395.6604370338188
 30
0.0
 11
384.8936195713174
 21
395.6604370338188
 31
0.0
  0
LINE
  5
452
102
{ACAD_REACTORS
330
65D
102
}
330
1E
100
AcDbEntity
  8
STEMPEL
100
AcDbLine
 10
349.212065582287
 20
390.6604370338188
 30
0.0
 11
384.8936195713175
 21
390.6604370338188
 31
0.0
  0
LINE
  5
453
102
{ACAD_REACTORS
330
65D
102
}
330
1E
100
AcDbEntity
  8
STEMPEL
100
AcDbLine
 10
349.2120655822871
 20
405.6604370338186
 30
0.0
 11
384.8936195713175
 21
405.6604370338186
 31
0.0
  0
LINE
  5
454
102
{ACAD_REACTORS
330
65D
102
}
330
1E
100
AcDbEntity
  8
STEMPEL
100
AcDbLine
 10
349.2120655822871
 20
410.6604370338186
 30
0.0
 11
384.8936195713175
 21
410.6604370338186
 31
0.0
  0
LINE
  5
455
102
{ACAD_REACTORS
330
65D
102
}
330
1E
100
AcDbEntity
  8
STEMPEL
100
AcDbLine
 10
349.2120655822871
 20
425.6604370338186
 30
0.0
 11
384.8936195713175
 21
425.6604370338186
 31
0.0
  0
LINE
  5
456
102
{ACAD_REACTORS
330
65D
102
}
330
1E
100
AcDbEntity
  8
STEMPEL
100
AcDbLine
 10
349.2120655822871
 20
420.6604370338186
 30
0.0
 11
384.8936195713175
 21
420.6604370338186
 31
0.0
  0
LINE
  5
457
102
{ACAD_REACTORS
330
65D
102
}
330
1E
100
AcDbEntity
  8
STEMPEL
100
AcDbLine
 10
349.2120655822871
 20
435.6604370338186
 30
0.0
 11
384.8936195713175
 21
435.6604370338186
 31
0.0
  0
LINE
  5
458
102
{ACAD_REACTORS
330
65D
102
}
330
1E
100
AcDbEntity
  8
STEMPEL
100
AcDbLine
 10
349.2120655822871
 20
440.6604370338186
 30
0.0
 11
384.8936195713175
 21
440.6604370338186
 31
0.0
  0
LINE
  5
459
102
{ACAD_REACTORS
330
65D
102
}
330
1E
100
AcDbEntity
  8
STEMPEL
100
AcDbLine
 10
349.2120655822871
 20
455.6604370338186
 30
0.0
 11
384.8936195713174
 21
455.6604370338185
 31
0.0
  0
LINE
  5
45A
102
{ACAD_REACTORS
330
65D
102
}
330
1E
100
AcDbEntity
  8
STEMPEL
100
AcDbLine
 10
349.2120655822871
 20
450.6604370338187
 30
0.0
 11
384.8936195713175
 21
450.6604370338187
 31
0.0
  0
LINE
  5
45B
102
{ACAD_REACTORS
330
65D
102
}
330
1E
100
AcDbEntity
  8
STEMPEL
100
AcDbLine
 10
349.2120655822871
 20
465.6604370338185
 30
0.0
 11
384.8936195713175
 21
465.6604370338185
 31
0.0
  0
LINE
  5
45C
102
{ACAD_REACTORS
330
65D
102
}
330
1E
100
AcDbEntity
  8
STEMPEL
100
AcDbLine
 10
349.2120655822871
 20
470.6604370338185
 30
0.0
 11
384.8936195713175
 21
470.6604370338185
 31
0.0
  0
LINE
  5
45D
102
{ACAD_REACTORS
330
65D
102
}
330
1E
100
AcDbEntity
  8
STEMPEL
100
AcDbLine
 10
349.2120655822871
 20
480.6604370338185
 30
0.0
 11
384.8936195713175
 21
480.6604370338185
 31
0.0
  0
LINE
  5
460
330
1E
100
AcDbEntity
  8
STEMPEL
100
AcDbLine
 10
384.8936195713175
 20
360.6604370338188
 30
0.0
 11
384.8936195713175
 21
350.6604370338188
 31
0.0
  0
LINE
  5
461
330
1E
100
AcDbEntity
  8
STEMPEL
100
AcDbLine
 10
382.7657940805034
 20
360.6604370338188
 30
0.0
 11
382.7657940805034
 21
350.6604370338188
 31
0.0
  0
LINE
  5
462
330
1E
100
AcDbEntity
  8
STEMPEL
100
AcDbLine
 10
384.8936195713175
 20
375.6604370338188
 30
0.0
 11
384.8936195713175
 21
365.6604370338188
 31
0.0
  0
LINE
  5
463
330
1E
100
AcDbEntity
  8
STEMPEL
100
AcDbLine
 10
382.7657940805034
 20
375.6604370338188
 30
0.0
 11
382.7657940805034
 21
365.6604370338188
 31
0.0
  0
LINE
  5
466
330
1E
100
AcDbEntity
  8
STEMPEL
100
AcDbLine
 10
384.8936195713175
 20
330.6604370338188
 30
0.0
 11
384.8936195713175
 21
320.6604370338188
 31
0.0
  0
LINE
  5
467
330
1E
100
AcDbEntity
  8
STEMPEL
100
AcDbLine
 10
382.7657940805034
 20
330.6604370338189
 30
0.0
 11
382.7657940805034
 21
320.6604370338188
 31
0.0
  0
LINE
  5
468
330
1E
100
AcDbEntity
  8
STEMPEL
100
AcDbLine
 10
384.8936195713175
 20
315.6604370338188
 30
0.0
 11
384.8936195713175
 21
305.6604370338189
 31
0.0
  0
LINE
  5
469
330
1E
100
AcDbEntity
  8
STEMPEL
100
AcDbLine
 10
382.7657940805034
 20
315.6604370338188
 30
0.0
 11
382.7657940805034
 21
305.6604370338189
 31
0.0
  0
LINE
  5
46A
330
1E
100
AcDbEntity
  8
STEMPEL
100
AcDbLine
 10
384.8936195713175
 20
345.6604370338188
 30
0.0
 11
384.8936195713173
 21
335.6604370338188
 31
0.0
  0
LINE
  5
46B
330
1E
100
AcDbEntity
  8
STEMPEL
100
AcDbLine
 10
382.7657940805034
 20
345.6604370338188
 30
0.0
 11
382.7657940805034
 21
335.6604370338188
 31
0.0
  0
LINE
  5
46D
102
{ACAD_REACTORS
330
65D
102
}
330
1E
100
AcDbEntity
  8
STEMPEL
100
AcDbLine
 10
349.212065582287
 20
380.6604370338188
 30
0.0
 11
349.212065582287
 21
375.6604370338187
 31
0.0
  0
LINE
  5
46E
102
{ACAD_REACTORS
330
65D
102
}
330
1E
100
AcDbEntity
  8
STEMPEL
100
AcDbLine
 10
352.212065582287
 20
380.6604370338188
 30
0.0
 11
352.212065582287
 21
375.6604370338187
 31
0.0
  0
LINE
  5
46F
102
{ACAD_REACTORS
330
65D
102
}
330
1E
100
AcDbEntity
  8
STEMPEL
100
AcDbLine
 10
349.212065582287
 20
365.6604370338186
 30
0.0
 11
349.212065582287
 21
360.6604370338187
 31
0.0
  0
LINE
  5
470
102
{ACAD_REACTORS
330
65D
102
}
330
1E
100
AcDbEntity
  8
STEMPEL
100
AcDbLine
 10
352.212065582287
 20
365.6604370338186
 30
0.0
 11
352.212065582287
 21
360.6604370338187
 31
0.0
  0
LINE
  5
471
102
{ACAD_REACTORS
330
65D
102
}
330
1E
100
AcDbEntity
  8
STEMPEL
100
AcDbLine
 10
349.212065582287
 20
350.6604370338187
 30
0.0
 11
349.212065582287
 21
345.6604370338187
 31
0.0
  0
LINE
  5
472
102
{ACAD_REACTORS
330
65D
102
}
330
1E
100
AcDbEntity
  8
STEMPEL
100
AcDbLine
 10
352.212065582287
 20
350.6604370338187
 30
0.0
 11
352.212065582287
 21
345.6604370338187
 31
0.0
  0
LINE
  5
473
102
{ACAD_REACTORS
330
65D
102
}
330
1E
100
AcDbEntity
  8
STEMPEL
100
AcDbLine
 10
349.212065582287
 20
335.6604370338188
 30
0.0
 11
349.212065582287
 21
330.6604370338188
 31
0.0
  0
LINE
  5
474
102
{ACAD_REACTORS
330
65D
102
}
330
1E
100
AcDbEntity
  8
STEMPEL
100
AcDbLine
 10
352.212065582287
 20
335.6604370338188
 30
0.0
 11
352.212065582287
 21
330.6604370338188
 31
0.0
  0
LINE
  5
475
102
{ACAD_REACTORS
330
65D
102
}
330
1E
100
AcDbEntity
  8
STEMPEL
100
AcDbLine
 10
349.212065582287
 20
305.6604370338188
 30
0.0
 11
349.212065582287
 21
300.6604370338188
 31
0.0
  0
LINE
  5
476
102
{ACAD_REACTORS
330
65D
102
}
330
1E
100
AcDbEntity
  8
STEMPEL
100
AcDbLine
 10
352.212065582287
 20
305.6604370338188
 30
0.0
 11
352.212065582287
 21
300.6604370338188
 31
0.0
  0
LINE
  5
477
102
{ACAD_REACTORS
330
65D
102
}
330
1E
100
AcDbEntity
  8
STEMPEL
100
AcDbLine
 10
352.212065582287
 20
320.6604370338188
 30
0.0
 11
352.212065582287
 21
315.6604370338188
 31
0.0
  0
LINE
  5
478
102
{ACAD_REACTORS
330
65D
102
}
330
1E
100
AcDbEntity
  8
STEMPEL
100
AcDbLine
 10
349.212065582287
 20
320.6604370338188
 30
0.0
 11
349.212065582287
 21
315.6604370338188
 31
0.0
  0
LINE
  5
479
102
{ACAD_REACTORS
330
65D
102
}
330
1E
100
AcDbEntity
  8
STEMPEL
100
AcDbLine
 10
349.212065582287
 20
305.6604370338188
 30
0.0
 11
384.8936195713175
 21
305.6604370338188
 31
0.0
  0
LINE
  5
47A
102
{ACAD_REACTORS
330
65D
102
}
330
1E
100
AcDbEntity
  8
STEMPEL
100
AcDbLine
 10
349.212065582287
 20
300.6604370338188
 30
0.0
 11
384.8936195713175
 21
300.6604370338188
 31
0.0
  0
LINE
  5
47B
102
{ACAD_REACTORS
330
65D
102
}
330
1E
100
AcDbEntity
  8
STEMPEL
100
AcDbLine
 10
349.212065582287
 20
315.6604370338188
 30
0.0
 11
384.8936195713175
 21
315.6604370338188
 31
0.0
  0
LINE
  5
47C
102
{ACAD_REACTORS
330
65D
102
}
330
1E
100
AcDbEntity
  8
STEMPEL
100
AcDbLine
 10
349.212065582287
 20
320.6604370338188
 30
0.0
 11
384.8936195713175
 21
320.6604370338188
 31
0.0
  0
LINE
  5
47D
102
{ACAD_REACTORS
330
65D
102
}
330
1E
100
AcDbEntity
  8
STEMPEL
100
AcDbLine
 10
349.212065582287
 20
335.6604370338188
 30
0.0
 11
384.8936195713173
 21
335.6604370338188
 31
0.0
  0
LINE
  5
47E
102
{ACAD_REACTORS
330
65D
102
}
330
1E
100
AcDbEntity
  8
STEMPEL
100
AcDbLine
 10
349.212065582287
 20
330.6604370338188
 30
0.0
 11
384.8936195713175
 21
330.6604370338188
 31
0.0
  0
LINE
  5
47F
102
{ACAD_REACTORS
330
65D
102
}
330
1E
100
AcDbEntity
  8
STEMPEL
100
AcDbLine
 10
349.212065582287
 20
350.6604370338187
 30
0.0
 11
384.8936195713175
 21
350.6604370338187
 31
0.0
  0
LINE
  5
480
102
{ACAD_REACTORS
330
65D
102
}
330
1E
100
AcDbEntity
  8
STEMPEL
100
AcDbLine
 10
349.212065582287
 20
345.6604370338187
 30
0.0
 11
384.8936195713175
 21
345.6604370338187
 31
0.0
  0
LINE
  5
481
102
{ACAD_REACTORS
330
65D
102
}
330
1E
100
AcDbEntity
  8
STEMPEL
100
AcDbLine
 10
349.212065582287
 20
365.6604370338186
 30
0.0
 11
384.8936195713175
 21
365.6604370338186
 31
0.0
  0
LINE
  5
482
102
{ACAD_REACTORS
330
65D
102
}
330
1E
100
AcDbEntity
  8
STEMPEL
100
AcDbLine
 10
349.212065582287
 20
360.6604370338187
 30
0.0
 11
384.8936195713175
 21
360.6604370338187
 31
0.0
  0
LINE
  5
483
102
{ACAD_REACTORS
330
65D
102
}
330
1E
100
AcDbEntity
  8
STEMPEL
100
AcDbLine
 10
349.212065582287
 20
380.6604370338188
 30
0.0
 11
384.8936195713175
 21
380.6604370338186
 31
0.0
  0
LINE
  5
484
102
{ACAD_REACTORS
330
65D
102
}
330
1E
100
AcDbEntity
  8
STEMPEL
100
AcDbLine
 10
349.212065582287
 20
375.6604370338187
 30
0.0
 11
384.8936195713175
 21
375.6604370338187
 31
0.0
  0
LINE
  5
485
330
1E
100
AcDbEntity
  8
STEMPEL
100
AcDbLine
 10
384.8936195713175
 20
390.6604370338188
 30
0.0
 11
384.8936195713175
 21
380.6604370338188
 31
0.0
  0
LINE
  5
486
330
1E
100
AcDbEntity
  8
STEMPEL
100
AcDbLine
 10
382.7657940805034
 20
390.6604370338188
 30
0.0
 11
382.7657940805034
 21
380.6604370338188
 31
0.0
  0
LINE
  5
488
102
{ACAD_REACTORS
330
65D
102
}
330
1E
100
AcDbEntity
  8
STEMPEL
100
AcDbLine
 10
352.212065582287
 20
485.6604370338185
 30
0.0
 11
352.212065582287
 21
480.6604370338185
 31
0.0
  0
LINE
  5
489
102
{ACAD_REACTORS
330
65D
102
}
330
1E
100
AcDbEntity
  8
STEMPEL
100
AcDbLine
 10
349.2120655822871
 20
485.6604370338185
 30
0.0
 11
349.2120655822871
 21
480.6604370338185
 31
0.0
  0
LINE
  5
48B
330
1E
100
AcDbEntity
  8
STEMPEL
100
AcDbLine
 10
384.8936195713175
 20
285.6604370338189
 30
0.0
 11
384.8936195713175
 21
275.6604370338187
 31
0.0
  0
LINE
  5
48C
330
1E
100
AcDbEntity
  8
STEMPEL
100
AcDbLine
 10
382.7657940805034
 20
285.6604370338187
 30
0.0
 11
382.7657940805034
 21
275.6604370338187
 31
0.0
  0
LINE
  5
48D
102
{ACAD_REACTORS
330
676
102
}
330
1E
100
AcDbEntity
  8
STEMPEL
100
AcDbLine
 10
383.212065582287
 20
265.6604370338188
 30
0.0
 11
383.212065582287
 21
258.6604370338188
 31
0.0
  0
LINE
  5
48E
102
{ACAD_REACTORS
330
676
102
}
330
1E
100
AcDbEntity
  8
STEMPEL
100
AcDbLine
 10
381.212065582287
 20
265.6604370338188
 30
0.0
 11
381.212065582287
 21
258.6604370338188
 31
0.0
  0
ARC
  5
490
102
{ACAD_REACTORS
330
676
102
}
330
1E
100
AcDbEntity
  8
STEMPEL
100
AcDbCircle
 10
373.212065582287
 20
265.6604370338188
 30
0.0
 40
10.0
100
AcDbArc
 50
0.0
 51
90.0
  0
ARC
  5
491
102
{ACAD_REACTORS
330
676
102
}
330
1E
100
AcDbEntity
  8
STEMPEL
100
AcDbCircle
 10
373.212065582287
 20
265.6604370338188
 30
0.0
 40
8.0
100
AcDbArc
 50
0.0
 51
90.0
  0
LINE
  5
492
102
{ACAD_REACTORS
330
65D
102
}
330
1E
100
AcDbEntity
  8
STEMPEL
100
AcDbLine
 10
352.212065582287
 20
290.6604370338188
 30
0.0
 11
352.212065582287
 21
285.6604370338187
 31
0.0
  0
LINE
  5
493
102
{ACAD_REACTORS
330
65D
102
}
330
1E
100
AcDbEntity
  8
STEMPEL
100
AcDbLine
 10
349.212065582287
 20
290.6604370338188
 30
0.0
 11
349.212065582287
 21
285.6604370338187
 31
0.0
  0
LINE
  5
494
102
{ACAD_REACTORS
330
65D
102
}
330
1E
100
AcDbEntity
  8
STEMPEL
100
AcDbLine
 10
349.212065582287
 20
285.6604370338187
 30
0.0
 11
384.8936195713175
 21
285.6604370338187
 31
0.0
  0
LINE
  5
495
102
{ACAD_REACTORS
330
65D
102
}
330
1E
100
AcDbEntity
  8
STEMPEL
100
AcDbLine
 10
349.212065582287
 20
290.6604370338188
 30
0.0
 11
384.8936195713175
 21
290.6604370338188
 31
0.0
  0
LINE
  5
496
102
{ACAD_REACTORS
330
676
102
}
330
1E
100
AcDbEntity
  8
STEMPEL
100
AcDbLine
 10
281.712065582287
 20
275.6604370338187
 30
0.0
 11
281.712065582287
 21
273.6604370338187
 31
0.0
  0
LINE
  5
497
102
{ACAD_REACTORS
330
676
102
}
330
1E
100
AcDbEntity
  8
STEMPEL
100
AcDbLine
 10
281.712065582287
 20
273.6604370338187
 30
0.0
 11
373.212065582287
 21
273.6604370338188
 31
0.0
  0
LINE
  5
499
330
1E
100
AcDbEntity
  8
STEMPEL
100
AcDbLine
 10
384.8936195713175
 20
300.6604370338189
 30
0.0
 11
384.8936195713175
 21
290.6604370338189
 31
0.0
  0
LINE
  5
49A
330
1E
100
AcDbEntity
  8
STEMPEL
100
AcDbLine
 10
382.7657940805034
 20
300.6604370338189
 30
0.0
 11
382.7657940805034
 21
290.6604370338188
 31
0.0
  0
DIMENSION
  5
49D
330
1E
100
AcDbEntity
  8
BEM
100
AcDbDimension
  2
*D3
 10
264.8067548770116
 20
508.5373314082009
 30
0.0
 11
258.3067548770115
 21
392.0988842210099
 31
0.0
 70
    32
  1
233
 71
     5
 42
232.8768943743822
  3
Standard
100
AcDbAlignedDimension
 13
281.712065582287
 23
275.6604370338187
 33
0.0
 14
357.2120655822869
 24
508.5373314082009
 34
0.0
 50
90.0
100
AcDbRotatedDimension
1001
ACAD
1000
DSTYLE
1002
{
1070
    40
1040
2.0
1070
    41
1040
3.5
1070
    42
1040
1.0
1070
    43
1040
7.0
1070
    44
1040
1.0
1070
    73
1070
     0
1070
    74
1070
     0
1070
    77
1070
     1
1070
    78
1070
     8
1070
    79
1070
     2
1070
   140
1040
3.5
1070
   141
1040
1.5
1070
   146
1040
0.5142857142857144
1070
   147
1040
1.5
1070
   172
1070
     1
1070
   178
1070
     1
1070
   179
1070
     2
1070
   271
1070
     2
1070
   272
1070
     2
1070
   284
1070
     8
1070
   285
1070
     8
1070
   286
1070
     8
1002
}
  0
LINE
  5
4AD
330
1E
100
AcDbEntity
  8
STEMPEL
100
AcDbLine
 10
397.8378914813165
 20
455.6604370338186
 30
0.0
 11
495.5862396832573
 21
455.6604370338185
 31
0.0
  0
LINE
  5
4AE
330
1E
100
AcDbEntity
  8
STEMPEL
100
AcDbLine
 10
397.8378914813167
 20
495.6604370338185
 30
0.0
 11
495.5862396832573
 21
495.6604370338185
 31
0.0
  0
LINE
  5
4AF
330
1E
100
AcDbEntity
  8
STEMPEL
100
AcDbLine
 10
397.8378914813167
 20
485.6604370338185
 30
0.0
 11
495.5862396832573
 21
485.6604370338185
 31
0.0
  0
LINE
  5
4B0
330
1E
100
AcDbEntity
  8
STEMPEL
100
AcDbLine
 10
397.8378914813167
 20
480.6604370338185
 30
0.0
 11
495.5862396832573
 21
480.6604370338185
 31
0.0
  0
LINE
  5
4B1
330
1E
100
AcDbEntity
  8
STEMPEL
100
AcDbLine
 10
397.8378914813167
 20
470.6604370338185
 30
0.0
 11
495.5862396832573
 21
470.6604370338185
 31
0.0
  0
LINE
  5
4B2
330
1E
100
AcDbEntity
  8
STEMPEL
100
AcDbLine
 10
397.8378914813167
 20
465.6604370338185
 30
0.0
 11
495.5862396832573
 21
465.6604370338185
 31
0.0
  0
LINE
  5
4B3
330
1E
100
AcDbEntity
  8
STEMPEL
100
AcDbLine
 10
397.8378914813167
 20
450.6604370338187
 30
0.0
 11
495.5862396832573
 21
450.6604370338185
 31
0.0
  0
LINE
  5
4B4
330
1E
100
AcDbEntity
  8
STEMPEL
100
AcDbLine
 10
397.8378914813167
 20
440.6604370338186
 30
0.0
 11
495.5862396832573
 21
440.6604370338186
 31
0.0
  0
LINE
  5
4B5
330
1E
100
AcDbEntity
  8
STEMPEL
100
AcDbLine
 10
397.8378914813167
 20
435.6604370338186
 30
0.0
 11
495.5862396832573
 21
435.6604370338186
 31
0.0
  0
DIMENSION
  5
4BC
330
1E
100
AcDbEntity
  8
BEM
100
AcDbDimension
  2
*D4
 10
611.7120655822868
 20
189.8510783940139
 30
0.0
 11
446.7120655822869
 21
196.3510783940139
 31
0.0
 70
    32
  1
%%c<>
 71
     5
 42
329.9999999999999
  3
Standard
100
AcDbAlignedDimension
 13
281.712065582287
 23
273.6604370338187
 33
0.0
 14
611.7120655822868
 24
273.6604370338188
 34
0.0
100
AcDbRotatedDimension
1001
ACAD
1000
DSTYLE
1002
{
1070
    40
1040
2.0
1070
    41
1040
3.5
1070
    42
1040
1.0
1070
    43
1040
7.0
1070
    44
1040
1.0
1070
    73
1070
     0
1070
    74
1070
     0
1070
    77
1070
     1
1070
    78
1070
     8
1070
    79
1070
     2
1070
   140
1040
3.5
1070
   141
1040
1.5
1070
   146
1040
0.5142857142857144
1070
   147
1040
1.5
1070
   172
1070
     1
1070
   178
1070
     1
1070
   179
1070
     2
1070
   271
1070
     2
1070
   272
1070
     2
1070
   284
1070
     8
1070
   285
1070
     8
1070
   286
1070
     8
1002
}
  0
LINE
  5
4BF
102
{ACAD_REACTORS
330
676
102
}
330
1E
100
AcDbEntity
  8
STEMPEL
100
AcDbLine
 10
381.212065582287
 20
258.6604370338188
 30
0.0
 11
392.6855259681177
 21
258.6604370338188
 31
0.0
  0
LINE
  5
4C0
102
{ACAD_REACTORS
330
676
102
}
330
1E
100
AcDbEntity
  8
STEMPEL
100
AcDbLine
 10
281.712065582287
 20
275.6604370338187
 30
0.0
 11
391.7120655822871
 21
275.6604370338188
 31
0.0
  0
LINE
  5
4C2
102
{ACAD_REACTORS
330
65D
102
}
330
1E
100
AcDbEntity
  8
STEMPEL
100
AcDbLine
 10
349.2120655822871
 20
500.6604370338185
 30
0.0
 11
544.2120655822869
 21
500.660437033818
 31
0.0
  0
HATCH
  5
65D
330
1E
100
AcDbEntity
  8
SCHRAFF
100
AcDbHatch
 10
0.0
 20
0.0
 30
0.0
210
0.0
220
0.0
230
1.0
  2
_USER
 70
     0
 71
     1
 91
       30
 92
        7
 72
     0
 73
     1
 93
        4
 10
544.212065582287
 20
500.6604370338181
 10
541.2120655822869
 20
500.6604370338181
 10
541.2120655822869
 20
495.6604370338184
 10
544.2120655822869
 20
495.6604370338186
 97
        4
330
4C2
330
3B5
330
3B9
330
3B4
 92
        7
 72
     0
 73
     1
 93
        4
 10
544.212065582287
 20
485.6604370338185
 10
541.2120655822868
 20
485.6604370338185
 10
541.2120655822869
 20
480.6604370338185
 10
544.2120655822869
 20
480.6604370338185
 97
        4
330
3BA
330
413
330
3CA
330
414
 92
        7
 72
     0
 73
     1
 93
        4
 10
544.2120655822869
 20
470.6604370338185
 10
541.2120655822869
 20
470.6604370338184
 10
541.2120655822869
 20
465.6604370338184
 10
544.2120655822869
 20
465.6604370338185
 97
        4
330
3CB
330
3BE
330
3CC
330
3BD
 92
        7
 72
     0
 73
     1
 93
        4
 10
544.2120655822868
 20
455.6604370338184
 10
541.2120655822868
 20
455.6604370338184
 10
541.2120655822869
 20
450.6604370338185
 10
544.2120655822869
 20
450.6604370338185
 97
        4
330
3CE
330
3C0
330
3CD
330
3BF
 92
        7
 72
     0
 73
     1
 93
        4
 10
544.2120655822869
 20
440.6604370338185
 10
541.2120655822869
 20
440.6604370338185
 10
541.2120655822869
 20
435.6604370338186
 10
544.2120655822869
 20
435.6604370338185
 97
        4
330
3CF
330
3E7
330
3DF
330
3E6
 92
        7
 72
     0
 73
     1
 93
        4
 10
544.2120655822869
 20
425.6604370338186
 10
541.2120655822869
 20
425.6604370338187
 10
541.2120655822869
 20
420.6604370338187
 10
544.2120655822869
 20
420.6604370338186
 97
        4
330
3E1
330
3D1
330
3E0
330
3D0
 92
        7
 72
     0
 73
     1
 93
        4
 10
544.212065582287
 20
410.6604370338185
 10
541.2120655822868
 20
410.6604370338185
 10
541.2120655822869
 20
405.6604370338186
 10
544.2120655822869
 20
405.6604370338185
 97
        4
330
3E3
330
3D3
330
3E2
330
3D2
 92
        7
 72
     0
 73
     1
 93
        4
 10
544.212065582287
 20
395.6604370338187
 10
541.2120655822868
 20
395.6604370338188
 10
541.2120655822869
 20
390.6604370338187
 10
544.2120655822869
 20
390.6604370338186
 97
        4
330
3E4
330
3D5
330
3E5
330
3D4
 92
        7
 72
     0
 73
     1
 93
        4
 10
544.212065582287
 20
380.6604370338186
 10
541.2120655822868
 20
380.6604370338186
 10
541.2120655822869
 20
375.6604370338186
 10
544.2120655822869
 20
375.6604370338186
 97
        4
330
3F4
330
3E8
330
3F5
330
3E9
 92
        7
 72
     0
 73
     1
 93
        4
 10
544.2120655822868
 20
365.6604370338186
 10
541.2120655822868
 20
365.6604370338186
 10
541.2120655822868
 20
360.6604370338187
 10
544.2120655822869
 20
360.6604370338187
 97
        4
330
3F7
330
3EB
330
3F6
330
3EA
 92
        7
 72
     0
 73
     1
 93
        4
 10
544.212065582287
 20
350.6604370338187
 10
541.2120655822868
 20
350.6604370338186
 10
541.2120655822869
 20
345.6604370338186
 10
544.2120655822869
 20
345.6604370338186
 97
        4
330
3F9
330
3ED
330
3F8
330
3EC
 92
        7
 72
     0
 73
     1
 93
        4
 10
544.2120655822869
 20
335.6604370338188
 10
541.2120655822869
 20
335.6604370338188
 10
541.2120655822869
 20
330.6604370338188
 10
544.2120655822869
 20
330.6604370338188
 97
        4
330
407
330
3FB
330
406
330
3FA
 92
        7
 72
     0
 73
     1
 93
        4
 10
544.2120655822869
 20
320.6604370338188
 10
541.2120655822869
 20
320.6604370338188
 10
541.2120655822869
 20
315.6604370338188
 10
544.2120655822869
 20
315.6604370338188
 97
        4
330
409
330
3FF
330
408
330
3FE
 92
        7
 72
     0
 73
     1
 93
        4
 10
544.2120655822869
 20
305.6604370338188
 10
541.2120655822869
 20
305.6604370338188
 10
541.2120655822869
 20
300.6604370338188
 10
544.2120655822869
 20
300.6604370338188
 97
        4
330
40B
330
3FD
330
40A
330
3FC
 92
        7
 72
     0
 73
     1
 93
        4
 10
544.2120655822869
 20
290.6604370338188
 10
541.2120655822869
 20
290.6604370338188
 10
541.2120655822869
 20
285.6604370338187
 10
544.2120655822869
 20
285.6604370338187
 97
        4
330
423
330
41B
330
424
330
41A
 92
        7
 72
     0
 73
     1
 93
        4
 10
352.212065582287
 20
290.6604370338188
 10
349.212065582287
 20
290.6604370338188
 10
349.212065582287
 20
285.6604370338189
 10
352.212065582287
 20
285.6604370338189
 97
        4
330
495
330
493
330
494
330
492
 92
        7
 72
     0
 73
     1
 93
        4
 10
352.212065582287
 20
305.6604370338188
 10
349.212065582287
 20
305.6604370338188
 10
349.212065582287
 20
300.6604370338188
 10
352.212065582287
 20
300.6604370338188
 97
        4
330
479
330
475
330
47A
330
476
 92
        7
 72
     0
 73
     1
 93
        4
 10
352.2120655822869
 20
320.6604370338188
 10
349.212065582287
 20
320.6604370338188
 10
349.212065582287
 20
315.6604370338188
 10
352.212065582287
 20
315.6604370338188
 97
        4
330
47C
330
478
330
47B
330
477
 92
        7
 72
     0
 73
     1
 93
        4
 10
352.212065582287
 20
335.6604370338188
 10
349.212065582287
 20
335.6604370338188
 10
349.212065582287
 20
330.6604370338188
 10
352.212065582287
 20
330.6604370338188
 97
        4
330
47D
330
473
330
47E
330
474
 92
        7
 72
     0
 73
     1
 93
        4
 10
352.212065582287
 20
350.6604370338186
 10
349.212065582287
 20
350.6604370338186
 10
349.212065582287
 20
345.6604370338187
 10
352.212065582287
 20
345.6604370338187
 97
        4
330
47F
330
471
330
480
330
472
 92
        7
 72
     0
 73
     1
 93
        4
 10
352.212065582287
 20
365.6604370338186
 10
349.212065582287
 20
365.6604370338186
 10
349.212065582287
 20
360.6604370338187
 10
352.212065582287
 20
360.6604370338187
 97
        4
330
481
330
46F
330
482
330
470
 92
        7
 72
     0
 73
     1
 93
        4
 10
352.212065582287
 20
380.6604370338188
 10
349.212065582287
 20
380.6604370338188
 10
349.212065582287
 20
375.6604370338187
 10
352.212065582287
 20
375.6604370338187
 97
        4
330
483
330
46D
330
484
330
46E
 92
        7
 72
     0
 73
     1
 93
        4
 10
352.212065582287
 20
395.6604370338188
 10
349.2120655822869
 20
395.6604370338188
 10
349.212065582287
 20
390.6604370338188
 10
352.212065582287
 20
390.6604370338188
 97
        4
330
451
330
44D
330
452
330
44E
 92
        7
 72
     0
 73
     1
 93
        4
 10
352.212065582287
 20
410.6604370338185
 10
349.2120655822871
 20
410.6604370338185
 10
349.212065582287
 20
405.6604370338186
 10
352.2120655822871
 20
405.6604370338186
 97
        4
330
454
330
44C
330
453
330
44B
 92
        7
 72
     0
 73
     1
 93
        4
 10
352.2120655822871
 20
425.6604370338187
 10
349.2120655822871
 20
425.6604370338186
 10
349.2120655822871
 20
420.6604370338187
 10
352.212065582287
 20
420.6604370338188
 97
        4
330
455
330
449
330
456
330
44A
 92
        7
 72
     0
 73
     1
 93
        4
 10
352.212065582287
 20
440.6604370338187
 10
349.2120655822869
 20
440.6604370338186
 10
349.212065582287
 20
435.6604370338186
 10
352.2120655822871
 20
435.6604370338186
 97
        4
330
458
330
450
330
457
330
44F
 92
        7
 72
     0
 73
     1
 93
        4
 10
352.212065582287
 20
455.6604370338186
 10
349.2120655822871
 20
455.6604370338186
 10
349.212065582287
 20
450.6604370338187
 10
352.212065582287
 20
450.6604370338187
 97
        4
330
459
330
447
330
45A
330
448
 92
        7
 72
     0
 73
     1
 93
        4
 10
352.2120655822871
 20
470.6604370338184
 10
349.2120655822871
 20
470.6604370338184
 10
349.2120655822871
 20
465.6604370338184
 10
352.212065582287
 20
465.6604370338185
 97
        4
330
45C
330
446
330
45B
330
445
 92
        7
 72
     0
 73
     1
 93
        4
 10
352.212065582287
 20
485.6604370338185
 10
349.2120655822871
 20
485.6604370338184
 10
349.2120655822871
 20
480.6604370338185
 10
352.212065582287
 20
480.6604370338185
 97
        4
330
431
330
489
330
45D
330
488
 92
        7
 72
     0
 73
     1
 93
        4
 10
352.212065582287
 20
500.6604370338185
 10
349.212065582287
 20
500.6604370338185
 10
349.212065582287
 20
495.6604370338186
 10
352.212065582287
 20
495.6604370338185
 97
        4
330
4C2
330
42F
330
432
330
430
 75
     0
 76
     0
 52
135.0
 41
2.0
 77
     0
 78
     1
 53
135.0
 43
0.0
 44
0.0
 45
-1.414213562373095
 46
-1.414213562373094
 79
     0
 47
0.3864440187638846
 98
       30
 10
542.6967264187935
 20
498.0400312434287
 10
542.6967264187935
 20
482.9687140051833
 10
542.31006106066
 20
467.8973967669378
 10
542.6967264187935
 20
453.5989682368669
 10
541.923397831307
 20
438.9140953527087
 10
543.083389648146
 20
424.2292224685506
 10
541.923397831307
 20
408.3850179189259
 10
543.470052877499
 20
392.9272577233885
 10
542.6967264187935
 20
378.2423848392304
 10
543.470052877499
 20
363.171067600985
 10
543.083389648146
 20
348.486194716827
 10
541.923397831307
 20
333.0284345212894
 10
542.6967264187935
 20
319.5028933025978
 10
542.31006106066
 20
303.6586887529732
 10
542.6967264187935
 20
288.5873715147277
 10
350.9113091007423
 20
288.2009271606405
 10
350.9113091007423
 20
303.6586887529732
 10
350.5246458713898
 20
318.3435616371314
 10
350.9113091007423
 20
333.4148774785815
 10
350.9113091007423
 20
348.8726390709142
 10
350.9113091007423
 20
363.171067600985
 10
350.9113091007423
 20
377.8559404851433
 10
351.2979744588758
 20
392.5408133693013
 10
350.9113091007423
 20
407.9985735648388
 10
351.2979744588758
 20
422.6834464489968
 10
350.9113091007423
 20
437.7547636872423
 10
350.9113091007423
 20
453.2125238827798
 10
350.9113091007423
 20
467.5109538096458
 10
350.9113091007423
 20
481.8093823397169
 10
350.9113091007423
 20
499.5858072629824
  0
HATCH
  5
676
330
1E
100
AcDbEntity
  8
SCHRAFF
100
AcDbHatch
 10
0.0
 20
0.0
 30
0.0
210
0.0
220
0.0
230
1.0
  2
_USER
 70
     0
 71
     1
 91
        2
 92
        7
 72
     1
 73
     1
 93
        8
 10
611.7120655822867
 20
273.6604370338188
 42
0.0
 10
611.7120655822871
 20
275.6604370338188
 42
0.0
 10
520.2120655822868
 20
275.6604370338188
 42
0.4142135623730919
 10
510.2120655822869
 20
265.6604370338188
 42
0.0
 10
510.2120655822869
 20
258.6604370338188
 42
0.0
 10
512.2120655822872
 20
258.6604370338189
 42
0.0
 10
512.2120655822868
 20
265.6604370338188
 42
-0.4142135623730951
 10
520.2120655822868
 20
273.6604370338188
 42
0.0
 97
        8
330
4C0
330
422
330
420
330
4BF
330
41F
330
421
330
426
330
418
 92
        7
 72
     1
 73
     1
 93
        8
 10
373.212065582287
 20
273.6604370338188
 42
-0.4142135623730951
 10
381.212065582287
 20
265.6604370338188
 42
0.0
 10
381.212065582287
 20
258.6604370338188
 42
0.0
 10
383.212065582287
 20
258.6604370338188
 42
0.0
 10
383.212065582287
 20
265.6604370338188
 42
0.4142135623730951
 10
373.212065582287
 20
275.6604370338187
 42
0.0
 10
281.712065582287
 20
275.6604370338187
 42
0.0
 10
281.712065582287
 20
273.6604370338187
 42
0.0
 97
        8
330
4C0
330
496
330
497
330
491
330
48E
330
4BF
330
48D
330
490
 75
     0
 76
     0
 52
45.0
 41
2.0
 77
     0
 78
     1
 53
45.0
 43
0.0
 44
0.0
 45
-1.414213562373094
 46
1.414213562373095
 79
     0
 47
0.3864440187638847
 98
        2
 10
545.4033754106051
 20
274.5690563013709
 10
362.511233655475
 20
274.5690563013709
  0
TEXT
  5
683
330
1E
100
AcDbEntity
  8
TEXT
100
AcDbText
 10
612.2898419893276
 20
88.99279565650221
 30
0.0
 40
4.0
  1
DIN EN1123-2
 41
0.8
  7
GREEKS
 72
     1
 11
629.2803181798038
 21
88.99279565650221
 31
0.0
100
AcDbText
  0
HATCH
  5
6D4
330
1E
100
AcDbEntity
  8
SCHRAFF
100
AcDbHatch
 10
0.0
 20
0.0
 30
0.0
210
0.0
220
0.0
230
1.0
  2
_USER
 70
     0
 71
     1
 91
       10
 92
        7
 72
     1
 73
     1
 93
        8
 10
532.7120655822868
 20
508.5373314082009
 42
0.0
 10
532.7120655822868
 20
505.5373314082009
 42
0.0
 10
536.2120655822868
 20
505.5373314082008
 42
-0.4142135623730951
 10
545.2120655822868
 20
496.5373314082008
 42
0.0
 10
545.2120655822868
 20
485.5373314082008
 42
0.0
 10
548.2120655822869
 20
485.537331408201
 42
0.0
 10
548.2120655822869
 20
496.5373314082008
 42
0.4142135623730951
 10
536.2120655822868
 20
508.5373314082008
 42
0.0
 97
        8
330
6DC
330
6E5
330
6FD
330
6FE
330
700
330
6D9
330
6D6
330
6D8
 92
        7
 72
     0
 73
     1
 93
        4
 10
515.7120655822868
 20
508.5373314082008
 10
515.7120655822868
 20
505.5373314082009
 10
520.7120655822868
 20
505.5373314082009
 10
520.7120655822869
 20
508.5373314082009
 97
        4
330
6DC
330
6FA
330
6FD
330
6E7
 92
        7
 72
     0
 73
     1
 93
        4
 10
496.712065582287
 20
508.5373314082009
 10
496.7120655822868
 20
505.5373314082009
 10
503.7120655822868
 20
505.5373314082008
 10
503.7120655822869
 20
508.5373314082009
 97
        4
330
6DC
330
6F8
330
6FD
330
6F9
 92
        7
 72
     0
 73
     1
 93
        4
 10
484.7120655822869
 20
505.537331408201
 10
484.7120655822869
 20
508.5373314082008
 10
476.7120655822869
 20
508.5373314082009
 10
476.7120655822869
 20
505.5373314082009
 97
        4
330
6DC
330
6F6
330
6FD
330
6F7
 92
        7
 72
     0
 73
     1
 93
        4
 10
458.2120655822869
 20
508.5373314082009
 10
458.212065582287
 20
505.5373314082009
 10
464.7120655822869
 20
505.5373314082009
 10
464.7120655822869
 20
508.5373314082009
 97
        4
330
6DC
330
6E4
330
6FD
330
6F5
 92
        7
 72
     0
 73
     1
 93
        4
 10
428.7120655822869
 20
508.5373314082009
 10
428.7120655822869
 20
505.5373314082009
 10
435.2120655822869
 20
505.5373314082008
 10
435.2120655822869
 20
508.5373314082008
 97
        4
330
6DC
330
6F4
330
6FD
330
6E0
 92
        7
 72
     0
 73
     1
 93
        4
 10
408.7120655822869
 20
508.537331408201
 10
408.7120655822869
 20
505.5373314082011
 10
416.7120655822869
 20
505.5373314082011
 10
416.7120655822869
 20
508.5373314082009
 97
        4
330
6DC
330
6F2
330
6FD
330
6F3
 92
        7
 72
     0
 73
     1
 93
        4
 10
396.7120655822869
 20
508.5373314082009
 10
389.7120655822869
 20
508.5373314082009
 10
389.7120655822869
 20
505.537331408201
 10
396.7120655822869
 20
505.537331408201
 97
        4
330
6DC
330
6F0
330
6FD
330
6F1
 92
        7
 72
     0
 73
     1
 93
        4
 10
372.7120655822869
 20
508.5373314082009
 10
372.7120655822869
 20
505.537331408201
 10
377.712065582287
 20
505.537331408201
 10
377.7120655822869
 20
508.5373314082011
 97
        4
330
6DC
330
6E3
330
6FD
330
6EF
 92
        7
 72
     1
 73
     1
 93
        8
 10
357.2120655822869
 20
508.5373314082009
 42
0.4142135623730951
 10
345.2120655822869
 20
496.5373314082009
 42
0.0
 10
345.2120655822869
 20
485.537331408201
 42
0.0
 10
348.2120655822869
 20
485.537331408201
 42
0.0
 10
348.2120655822869
 20
496.5373314082009
 42
-0.4142135623730951
 10
357.2120655822869
 20
505.537331408201
 42
0.0
 10
360.7120655822869
 20
505.537331408201
 42
0.0
 10
360.712065582287
 20
508.537331408201
 42
0.0
 97
        8
330
6DC
330
6D7
330
6FB
330
6D9
330
6FF
330
6FC
330
6FD
330
6E2
 75
     0
 76
     0
 52
45.0
 41
2.0
 77
     0
 78
     1
 53
45.0
 43
-0.0000000000000568
 44
-23.12310562561731
 45
-1.414213562373094
 46
1.414213562373095
 79
     0
 47
0.2968933835097576
 98
       10
 10
534.7248780535358
 20
507.1731999198162
 10
518.6835030769818
 20
507.1731999198162
 10
498.4832514014732
 20
507.7669872203219
 10
480.9565635008314
 20
506.8763076664866
 10
459.8651281629511
 20
507.1731999198162
 10
431.6441902779405
 20
507.1731999198162
 10
414.711626523914
 20
507.1731999198162
 10
395.9966903300431
 20
507.4700935700691
 10
376.0935007278416
 20
507.1731999198162
 10
358.5668128271998
 20
507.1731999198162
  0
LINE
  5
6D6
102
{ACAD_REACTORS
330
6D4
102
}
330
1E
100
AcDbEntity
  8
STEMPEL
100
AcDbLine
 10
548.2120655822869
 20
485.537331408201
 30
0.0
 11
548.2120655822869
 21
496.5373314082008
 31
0.0
  0
ARC
  5
6D7
102
{ACAD_REACTORS
330
6D4
102
}
330
1E
100
AcDbEntity
  8
STEMPEL
100
AcDbCircle
 10
357.2120655822871
 20
496.5373314082008
 30
0.0
 40
12.0
100
AcDbArc
 50
90.0
 51
180.0
  0
ARC
  5
6D8
102
{ACAD_REACTORS
330
6D4
102
}
330
1E
100
AcDbEntity
  8
STEMPEL
100
AcDbCircle
 10
536.2120655822868
 20
496.5373314082008
 30
0.0
 40
12.0
100
AcDbArc
 50
0.0
 51
90.0
  0
LINE
  5
6D9
102
{ACAD_REACTORS
330
6D4
102
}
330
1E
100
AcDbEntity
  8
STEMPEL
100
AcDbLine
 10
548.2120655822869
 20
485.537331408201
 30
0.0
 11
544.2120655822868
 21
485.537331408201
 31
0.0
  0
ARC
  5
6DB
330
1E
100
AcDbEntity
  8
STEMPEL
100
AcDbCircle
 10
357.2120655822871
 20
496.5373314082008
 30
0.0
 40
12.0
100
AcDbArc
 50
90.0
 51
180.0
  0
LINE
  5
6DC
102
{ACAD_REACTORS
330
6D4
102
}
330
1E
100
AcDbEntity
  8
STEMPEL
100
AcDbLine
 10
536.2120655822868
 20
508.5373314082008
 30
0.0
 11
357.2120655822869
 21
508.5373314082009
 31
0.0
  0
LINE
  5
6DD
330
1E
100
AcDbEntity
  8
BEM
100
AcDbLine
 10
548.2120655822869
 20
485.537331408201
 30
0.0
 11
548.2120655822869
 21
496.5373314082008
 31
0.0
  0
ARC
  5
6DE
330
1E
100
AcDbEntity
  8
STEMPEL
100
AcDbCircle
 10
536.2120655822868
 20
496.5373314082008
 30
0.0
 40
12.0
100
AcDbArc
 50
0.0
 51
90.0
  0
LINE
  5
6DF
330
1E
100
AcDbEntity
  8
STEMPEL
100
AcDbLine
 10
548.2120655822869
 20
485.537331408201
 30
0.0
 11
548.2120655822869
 21
496.5373314082008
 31
0.0
  0
LINE
  5
6E0
102
{ACAD_REACTORS
330
6D4
102
}
330
1E
100
AcDbEntity
  8
STEMPEL
100
AcDbLine
 10
435.2120655822869
 20
508.5373314082008
 30
0.0
 11
435.2120655822869
 21
505.537331408201
 31
0.0
  0
LINE
  5
6E1
330
1E
100
AcDbEntity
  8
MITTEL
100
AcDbLine
 10
366.7120655822869
 20
511.537331408201
 30
0.0
 11
366.7120655822869
 21
502.537331408201
 31
0.0
  0
LINE
  5
6E2
102
{ACAD_REACTORS
330
6D4
102
}
330
1E
100
AcDbEntity
  8
STEMPEL
100
AcDbLine
 10
360.7120655822869
 20
508.5373314082009
 30
0.0
 11
360.7120655822869
 21
505.5373314082011
 31
0.0
  0
LINE
  5
6E3
102
{ACAD_REACTORS
330
6D4
102
}
330
1E
100
AcDbEntity
  8
STEMPEL
100
AcDbLine
 10
372.7120655822869
 20
508.5373314082009
 30
0.0
 11
372.7120655822869
 21
505.5373314082011
 31
0.0
  0
LINE
  5
6E4
102
{ACAD_REACTORS
330
6D4
102
}
330
1E
100
AcDbEntity
  8
STEMPEL
100
AcDbLine
 10
458.2120655822869
 20
508.5373314082008
 30
0.0
 11
458.2120655822869
 21
505.537331408201
 31
0.0
  0
LINE
  5
6E5
102
{ACAD_REACTORS
330
6D4
102
}
330
1E
100
AcDbEntity
  8
STEMPEL
100
AcDbLine
 10
532.7120655822868
 20
508.5373314082008
 30
0.0
 11
532.7120655822868
 21
505.537331408201
 31
0.0
  0
LINE
  5
6E6
330
1E
100
AcDbEntity
  8
MITTEL
100
AcDbLine
 10
526.7120655822869
 20
511.5373314082009
 30
0.0
 11
526.7120655822869
 21
502.5373314082009
 31
0.0
  0
LINE
  5
6E7
102
{ACAD_REACTORS
330
6D4
102
}
330
1E
100
AcDbEntity
  8
STEMPEL
100
AcDbLine
 10
520.7120655822868
 20
508.5373314082008
 30
0.0
 11
520.7120655822868
 21
505.537331408201
 31
0.0
  0
LINE
  5
6E8
330
1E
100
AcDbEntity
  8
MITTEL
100
AcDbLine
 10
383.7120655822869
 20
511.537331408201
 30
0.0
 11
383.7120655822869
 21
502.537331408201
 31
0.0
  0
LINE
  5
6E9
330
1E
100
AcDbEntity
  8
MITTEL
100
AcDbLine
 10
402.7120655822868
 20
511.5373314082009
 30
0.0
 11
402.7120655822868
 21
502.5373314082009
 31
0.0
  0
LINE
  5
6EA
330
1E
100
AcDbEntity
  8
MITTEL
100
AcDbLine
 10
422.7120655822869
 20
511.5373314082009
 30
0.0
 11
422.7120655822869
 21
502.5373314082009
 31
0.0
  0
LINE
  5
6EB
330
1E
100
AcDbEntity
  8
MITTEL
100
AcDbLine
 10
526.7120655822869
 20
511.5373314082009
 30
0.0
 11
526.7120655822869
 21
502.5373314082009
 31
0.0
  0
LINE
  5
6EC
330
1E
100
AcDbEntity
  8
MITTEL
100
AcDbLine
 10
509.7120655822869
 20
511.5373314082009
 30
0.0
 11
509.7120655822869
 21
502.5373314082009
 31
0.0
  0
LINE
  5
6ED
330
1E
100
AcDbEntity
  8
MITTEL
100
AcDbLine
 10
490.7120655822869
 20
511.5373314082009
 30
0.0
 11
490.7120655822869
 21
502.5373314082009
 31
0.0
  0
LINE
  5
6EE
330
1E
100
AcDbEntity
  8
MITTEL
100
AcDbLine
 10
470.7120655822869
 20
511.5373314082009
 30
0.0
 11
470.7120655822869
 21
502.5373314082009
 31
0.0
  0
LINE
  5
6EF
102
{ACAD_REACTORS
330
6D4
102
}
330
1E
100
AcDbEntity
  8
STEMPEL
100
AcDbLine
 10
377.7120655822869
 20
508.5373314082009
 30
0.0
 11
377.7120655822869
 21
505.537331408201
 31
0.0
  0
LINE
  5
6F0
102
{ACAD_REACTORS
330
6D4
102
}
330
1E
100
AcDbEntity
  8
STEMPEL
100
AcDbLine
 10
389.7120655822869
 20
508.5373314082008
 30
0.0
 11
389.7120655822869
 21
505.5373314082008
 31
0.0
  0
LINE
  5
6F1
102
{ACAD_REACTORS
330
6D4
102
}
330
1E
100
AcDbEntity
  8
STEMPEL
100
AcDbLine
 10
396.7120655822869
 20
508.5373314082008
 30
0.0
 11
396.7120655822869
 21
505.5373314082008
 31
0.0
  0
LINE
  5
6F2
102
{ACAD_REACTORS
330
6D4
102
}
330
1E
100
AcDbEntity
  8
STEMPEL
100
AcDbLine
 10
408.7120655822869
 20
508.5373314082008
 30
0.0
 11
408.7120655822869
 21
505.5373314082008
 31
0.0
  0
LINE
  5
6F3
102
{ACAD_REACTORS
330
6D4
102
}
330
1E
100
AcDbEntity
  8
STEMPEL
100
AcDbLine
 10
416.7120655822869
 20
508.5373314082008
 30
0.0
 11
416.7120655822869
 21
505.5373314082008
 31
0.0
  0
LINE
  5
6F4
102
{ACAD_REACTORS
330
6D4
102
}
330
1E
100
AcDbEntity
  8
STEMPEL
100
AcDbLine
 10
428.7120655822869
 20
508.5373314082008
 30
0.0
 11
428.7120655822869
 21
505.5373314082008
 31
0.0
  0
LINE
  5
6F5
102
{ACAD_REACTORS
330
6D4
102
}
330
1E
100
AcDbEntity
  8
STEMPEL
100
AcDbLine
 10
464.7120655822869
 20
508.5373314082008
 30
0.0
 11
464.7120655822869
 21
505.5373314082008
 31
0.0
  0
LINE
  5
6F6
102
{ACAD_REACTORS
330
6D4
102
}
330
1E
100
AcDbEntity
  8
STEMPEL
100
AcDbLine
 10
476.7120655822869
 20
508.5373314082008
 30
0.0
 11
476.7120655822869
 21
505.5373314082008
 31
0.0
  0
LINE
  5
6F7
102
{ACAD_REACTORS
330
6D4
102
}
330
1E
100
AcDbEntity
  8
STEMPEL
100
AcDbLine
 10
484.7120655822869
 20
508.5373314082008
 30
0.0
 11
484.7120655822869
 21
505.5373314082008
 31
0.0
  0
LINE
  5
6F8
102
{ACAD_REACTORS
330
6D4
102
}
330
1E
100
AcDbEntity
  8
STEMPEL
100
AcDbLine
 10
496.7120655822869
 20
508.5373314082008
 30
0.0
 11
496.7120655822869
 21
505.5373314082008
 31
0.0
  0
LINE
  5
6F9
102
{ACAD_REACTORS
330
6D4
102
}
330
1E
100
AcDbEntity
  8
STEMPEL
100
AcDbLine
 10
503.7120655822869
 20
508.5373314082008
 30
0.0
 11
503.7120655822869
 21
505.5373314082008
 31
0.0
  0
LINE
  5
6FA
102
{ACAD_REACTORS
330
6D4
102
}
330
1E
100
AcDbEntity
  8
STEMPEL
100
AcDbLine
 10
515.7120655822868
 20
508.5373314082008
 30
0.0
 11
515.7120655822868
 21
505.5373314082008
 31
0.0
  0
LINE
  5
6FB
102
{ACAD_REACTORS
330
6D4
102
}
330
1E
100
AcDbEntity
  8
STEMPEL
100
AcDbLine
 10
345.2120655822869
 20
485.5373314082011
 30
0.0
 11
345.2120655822869
 21
496.5373314082009
 31
0.0
  0
ARC
  5
6FC
102
{ACAD_REACTORS
330
6D4
102
}
330
1E
100
AcDbEntity
  8
STEMPEL
100
AcDbCircle
 10
357.2120655822871
 20
496.5373314082008
 30
0.0
 40
8.999999999999998
100
AcDbArc
 50
90.0
 51
180.0
  0
LINE
  5
6FD
102
{ACAD_REACTORS
330
6D4
102
}
330
1E
100
AcDbEntity
  8
STEMPEL
100
AcDbLine
 10
536.2120655822868
 20
505.5373314082008
 30
0.0
 11
357.2120655822869
 21
505.537331408201
 31
0.0
  0
ARC
  5
6FE
102
{ACAD_REACTORS
330
6D4
102
}
330
1E
100
AcDbEntity
  8
STEMPEL
100
AcDbCircle
 10
536.2120655822868
 20
496.5373314082008
 30
0.0
 40
9.000000000000003
100
AcDbArc
 50
0.0
 51
90.0
  0
LINE
  5
6FF
102
{ACAD_REACTORS
330
6D4
102
}
330
1E
100
AcDbEntity
  8
STEMPEL
100
AcDbLine
 10
348.2120655822869
 20
485.5373314082011
 30
0.0
 11
348.2120655822869
 21
496.5373314082009
 31
0.0
  0
LINE
  5
700
102
{ACAD_REACTORS
330
6D4
102
}
330
1E
100
AcDbEntity
  8
STEMPEL
100
AcDbLine
 10
545.2120655822868
 20
485.537331408201
 30
0.0
 11
545.2120655822868
 21
496.5373314082008
 31
0.0
  0
POINT
  5
701
330
1E
100
AcDbEntity
  8
DEFPOINTS
  6
ByBlock
 62
     0
100
AcDbPoint
 10
347.8755790800174
 20
504.0759002241593
 30
0.0
  0
DIMENSION
  5
72E
330
1E
100
AcDbEntity
  8
BEM
100
AcDbDimension
  2
*D5
 10
245.5827932982465
 20
508.5373314082009
 30
0.0
 11
239.0827932982464
 21
383.5988842210099
 31
0.0
 70
    32
  1
250
 71
     5
 42
249.8768943743822
  3
Standard
100
AcDbAlignedDimension
 13
381.212065582287
 23
258.6604370338188
 33
0.0
 14
357.2120655822869
 24
508.5373314082009
 34
0.0
 50
90.0
100
AcDbRotatedDimension
1001
ACAD
1000
DSTYLE
1002
{
1070
    40
1040
2.0
1070
    41
1040
3.5
1070
    42
1040
1.0
1070
    43
1040
7.0
1070
    44
1040
1.0
1070
    73
1070
     0
1070
    74
1070
     0
1070
    77
1070
     1
1070
    78
1070
     8
1070
    79
1070
     2
1070
   140
1040
3.5
1070
   141
1040
1.5
1070
   146
1040
0.5142857142857144
1070
   147
1040
1.5
1070
   172
1070
     1
1070
   178
1070
     1
1070
   179
1070
     2
1070
   271
1070
     2
1070
   272
1070
     2
1070
   284
1070
     8
1070
   285
1070
     8
1070
   286
1070
     8
1002
}
  0
DIMENSION
  5
796
330
1E
100
AcDbEntity
  8
BEM
100
AcDbDimension
  2
*D6
 10
381.212065582287
 20
204.3003992940482
 30
0.0
 11
446.712065582287
 21
210.8003992940482
 31
0.0
 70
    32
  1
%%c<>
 71
     5
 42
131.0000000000001
  3
Standard
100
AcDbAlignedDimension
 13
512.2120655822871
 23
258.6604370338188
 33
0.0
 14
381.212065582287
 24
258.6604370338188
 34
0.0
100
AcDbRotatedDimension
1001
ACAD
1000
DSTYLE
1002
{
1070
    40
1040
2.0
1070
    41
1040
3.5
1070
    42
1040
1.0
1070
    43
1040
7.0
1070
    44
1040
1.0
1070
    73
1070
     0
1070
    74
1070
     0
1070
    77
1070
     1
1070
    78
1070
     8
1070
    79
1070
     2
1070
   140
1040
3.5
1070
   141
1040
1.5
1070
   146
1040
0.5142857142857144
1070
   147
1040
1.5
1070
   172
1070
     1
1070
   178
1070
     1
1070
   179
1070
     2
1070
   271
1070
     2
1070
   272
1070
     2
1070
   284
1070
     8
1070
   285
1070
     8
1070
   286
1070
     8
1002
}
  0
HATCH
  5
7DC
330
1E
100
AcDbEntity
  8
SCHRAFF
100
AcDbHatch
 10
0.0
 20
0.0
 30
0.0
210
0.0
220
0.0
230
1.0
  2
_USER
 70
     0
 71
     1
 91
        2
 92
        7
 72
     1
 73
     1
 93
       14
 10
495.9620655822869
 20
313.1687783892329
 42
0.1507946423587037
 10
497.6577177562
 20
307.6742373623219
 42
-0.1507946423587032
 10
499.9620655822869
 20
300.2072969924173
 42
0.0
 10
499.9620655822869
 20
265.2310691844096
 42
-0.0436609429085101
 10
499.8063450506621
 20
263.4511753633236
 42
0.0
 10
495.4350690114869
 20
238.6604370338188
 42
0.0
 10
497.2120655822871
 20
238.6604370338189
 42
0.0
 10
501.5297586184334
 20
263.1472910524065
 42
0.0436609429085165
 10
501.712065582287
 20
265.2310691844099
 42
0.0
 10
501.712065582287
 20
300.2072969924173
 42
0.150794642358703
 10
499.1033699301131
 20
308.6604370338188
 42
-0.1507946423587059
 10
497.7120655822869
 20
313.168778389233
 42
0.0
 10
497.712065582287
 20
433.6604370338188
 42
0.0
 10
495.9620655822869
 20
433.6604370338188
 42
0.0
 97
       14
330
7FA
330
7EF
330
7ED
330
7EE
330
7EC
330
7E1
330
7EB
330
7FB
330
7F5
330
7E2
330
7F1
330
7F2
330
7F0
330
7F4
 92
        7
 72
     1
 73
     1
 93
       14
 10
397.4620655822871
 20
433.6604370338187
 42
0.0
 10
395.712065582287
 20
433.6604370338188
 42
0.0
 10
395.712065582287
 20
313.1687783892328
 42
-0.1507946423587016
 10
394.3207612344609
 20
308.6604370338187
 42
0.1507946423587033
 10
391.712065582287
 20
300.2072969924172
 42
0.0
 10
391.7120655822872
 20
265.2310691844095
 42
0.0436609429085101
 10
391.8943725461405
 20
263.1472910524065
 42
0.0
 10
396.212065582287
 20
238.6604370338188
 42
0.0
 10
397.989062153087
 20
238.6604370338187
 42
0.0
 10
393.6177861139121
 20
263.4511753633236
 42
-0.0436609429085254
 10
393.4620655822872
 20
265.2310691844101
 42
0.0
 10
393.462065582287
 20
300.2072969924172
 42
-0.1507946423587017
 10
395.7664134083739
 20
307.6742373623218
 42
0.150794642358707
 10
397.462065582287
 20
313.1687783892329
 42
0.0
 97
       14
330
7FA
330
7E3
330
7E6
330
7E4
330
7E5
330
7DF
330
7DD
330
7FB
330
7DE
330
7E0
330
7EA
330
7E8
330
7E9
330
7E7
 75
     0
 76
     0
 52
45.0
 41
2.0
 77
     0
 78
     1
 53
45.0
 43
227.29463916616
 44
-39.2006317933114
 45
-1.414213562373094
 46
1.414213562373095
 79
     0
 47
0.4419247096116093
 98
        2
 10
496.5862002206978
 20
357.8662976782294
 10
396.6408064476328
 20
344.1666318563305
  0
LINE
  5
7DD
102
{ACAD_REACTORS
330
7DC
102
}
330
1E
100
AcDbEntity
  8
STEMPEL
100
AcDbLine
 10
396.212065582287
 20
238.6604370338188
 30
0.0
 11
391.8943725461405
 21
263.1472910524065
 31
0.0
  0
LINE
  5
7DE
102
{ACAD_REACTORS
330
7DC
102
}
330
1E
100
AcDbEntity
  8
STEMPEL
100
AcDbLine
 10
397.989062153087
 20
238.6604370338188
 30
0.0
 11
393.6177861139121
 21
263.4511753633236
 31
0.0
  0
ARC
  5
7DF
102
{ACAD_REACTORS
330
7DC
102
}
330
1E
100
AcDbEntity
  8
STEMPEL
100
AcDbCircle
 10
403.7120655822871
 20
265.2310691844095
 30
0.0
 40
12.0
100
AcDbArc
 50
180.0
 51
190.0000000000002
  0
ARC
  5
7E0
102
{ACAD_REACTORS
330
7DC
102
}
330
1E
100
AcDbEntity
  8
STEMPEL
100
AcDbCircle
 10
403.7120655822871
 20
265.2310691844095
 30
0.0
 40
10.25
100
AcDbArc
 50
180.0
 51
190.0000000000002
  0
ARC
  5
7E1
102
{ACAD_REACTORS
330
7DC
102
}
330
1E
100
AcDbEntity
  8
STEMPEL
100
AcDbCircle
 10
489.7120655822869
 20
265.2310691844096
 30
0.0
 40
10.25
100
AcDbArc
 50
349.9999999999998
 51
0.0
  0
ARC
  5
7E2
102
{ACAD_REACTORS
330
7DC
102
}
330
1E
100
AcDbEntity
  8
STEMPEL
100
AcDbCircle
 10
489.7120655822869
 20
265.2310691844096
 30
0.0
 40
12.0
100
AcDbArc
 50
349.9999999999998
 51
0.0
  0
LINE
  5
7E3
102
{ACAD_REACTORS
330
7DC
102
}
330
1E
100
AcDbEntity
  8
STEMPEL
  6
Continuous
100
AcDbLine
 10
395.712065582287
 20
313.1687783892328
 30
0.0
 11
395.712065582287
 21
433.6604370338188
 31
0.0
  0
ARC
  5
7E4
102
{ACAD_REACTORS
330
7DC
102
}
330
1E
100
AcDbEntity
  8
STEMPEL
  6
Continuous
100
AcDbCircle
 10
406.7120655822869
 20
300.2072969924172
 30
0.0
 40
15.0
100
AcDbArc
 50
145.6988472432089
 51
180.0
  0
LINE
  5
7E5
102
{ACAD_REACTORS
330
7DC
102
}
330
1E
100
AcDbEntity
  8
STEMPEL
  6
Continuous
100
AcDbLine
 10
391.7120655822872
 20
265.2310691844095
 30
0.0
 11
391.712065582287
 21
300.2072969924172
 31
0.0
  0
ARC
  5
7E6
102
{ACAD_REACTORS
330
7DC
102
}
330
1E
100
AcDbEntity
  8
STEMPEL
  6
Continuous
100
AcDbCircle
 10
387.712065582287
 20
313.1687783892328
 30
0.0
 40
8.0
100
AcDbArc
 50
325.698847243209
 51
0.0
  0
LINE
  5
7E7
102
{ACAD_REACTORS
330
7DC
102
}
330
1E
100
AcDbEntity
  8
STEMPEL
  6
Continuous
100
AcDbLine
 10
397.462065582287
 20
313.1687783892328
 30
0.0
 11
397.462065582287
 21
433.6604370338188
 31
0.0
  0
ARC
  5
7E8
102
{ACAD_REACTORS
330
7DC
102
}
330
1E
100
AcDbEntity
  8
STEMPEL
  6
Continuous
100
AcDbCircle
 10
406.7120655822869
 20
300.2072969924172
 30
0.0
 40
13.25
100
AcDbArc
 50
145.6988472432089
 51
180.0
  0
ARC
  5
7E9
102
{ACAD_REACTORS
330
7DC
102
}
330
1E
100
AcDbEntity
  8
STEMPEL
  6
Continuous
100
AcDbCircle
 10
387.712065582287
 20
313.1687783892328
 30
0.0
 40
9.75
100
AcDbArc
 50
325.698847243209
 51
0.0
  0
LINE
  5
7EA
102
{ACAD_REACTORS
330
7DC
102
}
330
1E
100
AcDbEntity
  8
STEMPEL
  6
Continuous
100
AcDbLine
 10
393.4620655822872
 20
265.2310691844095
 30
0.0
 11
393.462065582287
 21
300.2072969924172
 31
0.0
  0
LINE
  5
7EB
102
{ACAD_REACTORS
330
7DC
102
}
330
1E
100
AcDbEntity
  8
STEMPEL
100
AcDbLine
 10
495.4350690114869
 20
238.6604370338188
 30
0.0
 11
499.8063450506621
 21
263.4511753633236
 31
0.0
  0
LINE
  5
7EC
102
{ACAD_REACTORS
330
7DC
102
}
330
1E
100
AcDbEntity
  8
STEMPEL
  6
Continuous
100
AcDbLine
 10
499.9620655822869
 20
265.2310691844096
 30
0.0
 11
499.9620655822869
 21
300.2072969924173
 31
0.0
  0
ARC
  5
7ED
102
{ACAD_REACTORS
330
7DC
102
}
330
1E
100
AcDbEntity
  8
STEMPEL
  6
Continuous
100
AcDbCircle
 10
505.712065582287
 20
313.1687783892329
 30
0.0
 40
9.75
100
AcDbArc
 50
180.0
 51
214.3011527567911
  0
ARC
  5
7EE
102
{ACAD_REACTORS
330
7DC
102
}
330
1E
100
AcDbEntity
  8
STEMPEL
  6
Continuous
100
AcDbCircle
 10
486.7120655822869
 20
300.2072969924173
 30
0.0
 40
13.25
100
AcDbArc
 50
0.0
 51
34.30115275679106
  0
LINE
  5
7EF
102
{ACAD_REACTORS
330
7DC
102
}
330
1E
100
AcDbEntity
  8
STEMPEL
  6
Continuous
100
AcDbLine
 10
495.9620655822869
 20
313.1687783892329
 30
0.0
 11
495.9620655822869
 21
433.6604370338188
 31
0.0
  0
ARC
  5
7F0
102
{ACAD_REACTORS
330
7DC
102
}
330
1E
100
AcDbEntity
  8
STEMPEL
  6
Continuous
100
AcDbCircle
 10
505.712065582287
 20
313.1687783892329
 30
0.0
 40
8.0
100
AcDbArc
 50
180.0
 51
214.3011527567911
  0
LINE
  5
7F1
102
{ACAD_REACTORS
330
7DC
102
}
330
1E
100
AcDbEntity
  8
STEMPEL
  6
Continuous
100
AcDbLine
 10
501.712065582287
 20
265.2310691844096
 30
0.0
 11
501.712065582287
 21
300.2072969924173
 31
0.0
  0
ARC
  5
7F2
102
{ACAD_REACTORS
330
7DC
102
}
330
1E
100
AcDbEntity
  8
STEMPEL
  6
Continuous
100
AcDbCircle
 10
486.7120655822869
 20
300.2072969924173
 30
0.0
 40
15.0
100
AcDbArc
 50
0.0
 51
34.30115275679106
  0
LINE
  5
7F4
102
{ACAD_REACTORS
330
7DC
102
}
330
1E
100
AcDbEntity
  8
STEMPEL
  6
Continuous
100
AcDbLine
 10
497.7120655822869
 20
313.1687783892329
 30
0.0
 11
497.7120655822869
 21
433.6604370338188
 31
0.0
  0
LINE
  5
7F5
102
{ACAD_REACTORS
330
7DC
102
}
330
1E
100
AcDbEntity
  8
STEMPEL
100
AcDbLine
 10
497.212065582287
 20
238.6604370338188
 30
0.0
 11
501.5297586184334
 21
263.1472910524065
 31
0.0
  0
LINE
  5
7F6
330
1E
100
AcDbEntity
  8
HILF
100
AcDbLine
 10
395.2572105642845
 20
264.5084847665625
 30
0.0
 11
498.1669206002895
 21
264.5084847665626
 31
0.0
  0
LINE
  5
7F8
330
1E
100
AcDbEntity
  8
HILF
100
AcDbLine
 10
395.8698172994775
 20
304.0407878524446
 30
0.0
 11
497.5543138650965
 21
304.0407878524446
 31
0.0
  0
DIMENSION
  5
7F9
330
1E
100
AcDbEntity
  8
BEM
100
AcDbDimension
  2
*D7
 10
501.712065582287
 20
219.3684878173319
 30
0.0
 11
446.712065582287
 21
225.8684878173319
 31
0.0
 70
    32
  1
%%c<>
 71
     5
 42
109.9999999999999
  3
Standard
100
AcDbAlignedDimension
 13
391.7120655822871
 23
265.2310691844095
 33
0.0
 14
501.712065582287
 24
265.2310691844096
 34
0.0
100
AcDbRotatedDimension
1001
ACAD
1000
DSTYLE
1002
{
1070
    40
1040
2.0
1070
    41
1040
3.5
1070
    42
1040
1.0
1070
    43
1040
7.0
1070
    44
1040
1.0
1070
    73
1070
     0
1070
    74
1070
     0
1070
    77
1070
     1
1070
    78
1070
     8
1070
    79
1070
     2
1070
   140
1040
3.5
1070
   141
1040
1.5
1070
   146
1040
0.5142857142857144
1070
   147
1040
1.5
1070
   172
1070
     1
1070
   178
1070
     1
1070
   179
1070
     2
1070
   271
1070
     2
1070
   272
1070
     2
1070
   284
1070
     8
1070
   285
1070
     8
1070
   286
1070
     8
1002
}
  0
LINE
  5
7FA
102
{ACAD_REACTORS
330
7DC
102
}
330
1E
100
AcDbEntity
  8
STEMPEL
100
AcDbLine
 10
395.712065582287
 20
433.6604370338187
 30
0.0
 11
497.7120655822869
 21
433.6604370338187
 31
0.0
  0
LINE
  5
7FB
102
{ACAD_REACTORS
330
7DC
102
}
330
1E
100
AcDbEntity
  8
STEMPEL
100
AcDbLine
 10
396.212065582287
 20
238.6604370338188
 30
0.0
 11
497.212065582287
 21
238.6604370338188
 31
0.0
  0
LINE
  5
852
330
1E
100
AcDbEntity
  8
STEMPEL
100
AcDbLine
 10
501.7120655822869
 20
275.6604370338188
 30
0.0
 11
611.7120655822871
 21
275.6604370338188
 31
0.0
  0
LINE
  5
853
330
1E
100
AcDbEntity
  8
STEMPEL
100
AcDbLine
 10
500.7386051964561
 20
258.6604370338188
 30
0.0
 11
512.2120655822871
 21
258.6604370338188
 31
0.0
  0
DIMENSION
  5
866
330
1E
100
AcDbEntity
  8
BEM
100
AcDbDimension
  2
*D8
 10
548.2120655822869
 20
519.7481088994161
 30
0.0
 11
446.712065582287
 21
526.2481088994161
 31
0.0
 70
    32
  1
%%c<>
 71
     5
 42
202.9999999999998
  3
Standard
100
AcDbAlignedDimension
 13
345.212065582287
 23
496.5373314082008
 33
0.0
 14
548.2120655822869
 24
496.5373314082008
 34
0.0
100
AcDbRotatedDimension
1001
ACAD
1000
DSTYLE
1002
{
1070
    40
1040
2.0
1070
    41
1040
3.5
1070
    42
1040
1.0
1070
    43
1040
7.0
1070
    44
1040
1.0
1070
    73
1070
     0
1070
    74
1070
     0
1070
    77
1070
     1
1070
    78
1070
     8
1070
    79
1070
     2
1070
   140
1040
3.5
1070
   141
1040
1.5
1070
   146
1040
0.5142857142857144
1070
   147
1040
1.5
1070
   172
1070
     1
1070
   178
1070
     1
1070
   179
1070
     2
1070
   271
1070
     2
1070
   272
1070
     2
1070
   284
1070
     8
1070
   285
1070
     8
1070
   286
1070
     8
1002
}
  0
LINE
  5
87C
330
1E
100
AcDbEntity
  8
TEXT
 62
     2
100
AcDbLine
 10
614.7006548126474
 20
412.7082259793212
 30
0.0
 11
720.1655228219199
 21
412.7082259793212
 31
0.0
  0
TEXT
  5
87D
330
1E
100
AcDbEntity
  8
TEXT
 62
     1
100
AcDbText
 10
616.503732557935
 20
402.7535794132918
 30
0.0
 40
7.0
  1
EDV-Art.Nr. 17119.100A
 41
0.8
  7
GREEKS
 11
616.503732557935
 21
406.2535794132918
 31
0.0
100
AcDbText
 73
     2
  0
TEXT
  5
87E
330
1E
100
AcDbEntity
  8
TEXT
 62
     1
100
AcDbText
 10
616.503732557935
 20
416.2082259793212
 30
0.0
 40
7.0
  1
Stauelement DN100
 41
0.8
  7
GREEKS
 11
616.503732557935
 21
419.7082259793212
 31
0.0
100
AcDbText
 73
     2
  0
LINE
  5
87F
330
1E
100
AcDbEntity
  8
TEXT
 62
     2
100
AcDbLine
 10
496.8478036695912
 20
403.8644546109172
 30
0.0
 11
614.7006548126474
 21
412.7082259793212
 31
0.0
  0
LINE
  5
880
330
1E
100
AcDbEntity
  8
TEXT
 62
     2
100
AcDbLine
 10
544.05517635207
 20
333.6065364760322
 30
0.0
 11
614.7006548126474
 21
351.6812757004282
 31
0.0
  0
TEXT
  5
881
330
1E
100
AcDbEntity
  8
TEXT
 62
     1
100
AcDbText
 10
616.503732557935
 20
355.1812757004281
 30
0.0
 40
7.0
  1
Siebkorb DN100
 41
0.8
  7
GREEKS
 11
616.503732557935
 21
358.6812757004282
 31
0.0
100
AcDbText
 73
     2
  0
TEXT
  5
882
330
1E
100
AcDbEntity
  8
TEXT
 62
     1
100
AcDbText
 10
616.503732557935
 20
341.7266291343988
 30
0.0
 40
7.0
  1
EDV-Art.Nr. 17118.100A
 41
0.8
  7
GREEKS
 11
616.503732557935
 21
345.2266291343988
 31
0.0
100
AcDbText
 73
     2
  0
LINE
  5
883
330
1E
100
AcDbEntity
  8
TEXT
 62
     2
100
AcDbLine
 10
614.7006548126474
 20
351.6812757004282
 30
0.0
 11
720.1655228219199
 21
351.6812757004282
 31
0.0
  0
LINE
  5
88F
330
1E
100
AcDbEntity
  8
STEMPEL
100
AcDbLine
 10
349.212065582287
 20
485.537331408201
 30
0.0
 11
345.2120655822869
 21
485.5373314082011
 31
0.0
  0
ENDSEC
  0
SECTION
  2
OBJECTS
  0
DICTIONARY
  5
C
330
0
100
AcDbDictionary
281
     1
  3
ACAD_COLOR
350
11A
  3
ACAD_GROUP
350
D
  3
ACAD_LAYOUT
350
19
  3
ACAD_MATERIAL
350
119
  3
ACAD_MLINESTYLE
350
16
  3
ACAD_PLOTSETTINGS
350
18
  3
ACAD_PLOTSTYLENAME
350
E
  3
AcDbVariableDictionary
350
125
  0
DICTIONARY
  5
DB
330
1E
100
AcDbDictionary
280
     1
281
     1
  3
ACAD_LAYOUTSELFREF
360
10F
  0
DICTIONARY
  5
DD
330
1A
100
AcDbDictionary
280
     1
281
     1
  3
ACAD_LAYOUTSELFREF
360
10E
  0
DICTIONARY
  5
11A
102
{ACAD_REACTORS
330
C
102
}
330
C
100
AcDbDictionary
281
     1
  0
DICTIONARY
  5
D
102
{ACAD_REACTORS
330
C
102
}
330
C
100
AcDbDictionary
281
     1
  0
DICTIONARY
  5
19
102
{ACAD_REACTORS
330
C
102
}
330
C
100
AcDbDictionary
281
     1
  3
Layout1
350
1D
  3
Model
350
21
  0
DICTIONARY
  5
119
102
{ACAD_REACTORS
330
C
102
}
330
C
100
AcDbDictionary
281
     1
  0
DICTIONARY
  5
16
102
{ACAD_REACTORS
330
C
102
}
330
C
100
AcDbDictionary
281
     1
  3
Standard
350
17
  0
DICTIONARY
  5
18
102
{ACAD_REACTORS
330
C
102
}
330
C
100
AcDbDictionary
281
     1
  0
ACDBDICTIONARYWDFLT
  5
E
102
{ACAD_REACTORS
330
C
102
}
330
C
100
AcDbDictionary
281
     1
  3
Normal
350
F
100
AcDbDictionaryWithDefault
340
F
  0
DICTIONARY
  5
125
102
{ACAD_REACTORS
330
C
102
}
330
C
100
AcDbDictionary
281
     1
  3
DIMASSOC
350
126
  3
PROJECTNAME
350
127
  0
XRECORD
  5
10F
102
{ACAD_REACTORS
330
DB
102
}
330
DB
100
AcDbXrecord
280
     1
340
1E
  0
XRECORD
  5
10E
102
{ACAD_REACTORS
330
DD
102
}
330
DD
100
AcDbXrecord
280
     1
340
1A
  0
LAYOUT
  5
1D
102
{ACAD_REACTORS
330
19
102
}
330
19
100
AcDbPlotSettings
  1

  2
\\NT_WORK01\HP LaserJet 5000 PCL 6
  4

  6

 40
0.0
 41
0.0
 42
0.0
 43
0.0
 44
0.0
 45
0.0
 46
0.0
 47
0.0
 48
0.0
 49
0.0
140
0.0
141
0.0
142
1.0
143
1.0
 70
   688
 72
     0
 73
     0
 74
     5
  7

 75
    16
147
1.0
 76
     0
 77
     2
 78
   300
148
0.0
149
0.0
100
AcDbLayout
  1
Layout1
 70
     0
 71
     1
 10
0.0
 20
0.0
 11
12.0
 21
9.0
 12
0.0
 22
0.0
 32
0.0
 14
1.000000000000000E+20
 24
1.000000000000000E+20
 34
1.000000000000000E+20
 15
-1.000000000000000E+20
 25
-1.000000000000000E+20
 35
-1.000000000000000E+20
146
0.0
 13
0.0
 23
0.0
 33
0.0
 16
1.0
 26
0.0
 36
0.0
 17
0.0
 27
1.0
 37
0.0
 76
     0
330
1A
  0
LAYOUT
  5
21
102
{ACAD_REACTORS
330
19
102
}
330
19
100
AcDbPlotSettings
  1

  2
none_device
  4
Letter_(8.50_x_11.00_Inches)
  6

 40
6.349999904632568
 41
6.349999904632568
 42
6.350006103515625
 43
6.350006103515625
 44
215.8999938964844
 45
279.3999938964844
 46
0.0
 47
0.0
 48
0.0
 49
0.0
140
0.0
141
0.0
142
1.0
143
1.0
 70
 11952
 72
     0
 73
     1
 74
     0
  7

 75
     0
147
1.0
 76
     0
 77
     2
 78
   300
148
-2639.483552313691
149
484.8532177491774
100
AcDbLayout
  1
Model
 70
     1
 71
     0
 10
0.0
 20
0.0
 11
12.0
 21
9.0
 12
0.0
 22
0.0
 32
0.0
 14
0.0
 24
0.0
 34
0.0
 15
0.0
 25
0.0
 35
0.0
146
0.0
 13
0.0
 23
0.0
 33
0.0
 16
1.0
 26
0.0
 36
0.0
 17
0.0
 27
1.0
 37
0.0
 76
     0
330
1E
  0
MLINESTYLE
  5
17
102
{ACAD_REACTORS
330
16
102
}
330
16
100
AcDbMlineStyle
  2
STANDARD
 70
     0
  3

 62
   256
 51
90.0
 52
90.0
 71
     2
 49
0.5
 62
   256
  6
BYLAYER
 49
-0.5
 62
   256
  6
BYLAYER
  0
ACDBPLACEHOLDER
  5
F
102
{ACAD_REACTORS
330
E
102
}
330
E
  0
DICTIONARYVAR
  5
126
102
{ACAD_REACTORS
330
125
102
}
330
125
100
DictionaryVariables
280
     0
  1
1
  0
DICTIONARYVAR
  5
127
102
{ACAD_REACTORS
330
125
102
}
330
125
100
DictionaryVariables
280
     0
  1

  0
ENDSEC
  0
EOF
