  0
SECTION
  2
HEADER
  9
$ACADVER
  1
AC1018
  9
$ACADMAINTVER
 70
     2
  9
$DWGCODEPAGE
  3
ANSI_1252
  9
$INSBASE
 10
0.0
 20
0.0
 30
0.0
  9
$EXTMIN
 10
0.0
 20
-0.0000000000000568
 30
0.0
  9
$EXTMAX
 10
594.0
 20
840.0
 30
0.0
  9
$LIMMIN
 10
0.0
 20
0.0
  9
$LIMMAX
 10
594.0
 20
840.0
  9
$ORTHOMODE
 70
     1
  9
$REGENMODE
 70
     1
  9
$FILLMODE
 70
     1
  9
$QTEXTMODE
 70
     0
  9
$MIRRTEXT
 70
     1
  9
$LTSCALE
 40
20.0
  9
$ATTMODE
 70
     1
  9
$TEXTSIZE
 40
3.5
  9
$TRACEWID
 40
1.0
  9
$TEXTSTYLE
  7
STANDARD
  9
$CLAYER
  8
VOLL
  9
$CELTYPE
  6
ByLayer
  9
$CECOLOR
 62
   256
  9
$CELTSCALE
 40
1.0
  9
$DISPSILH
 70
     0
  9
$DIMSCALE
 40
2.0
  9
$DIMASZ
 40
3.5
  9
$DIMEXO
 40
1.0
  9
$DIMDLI
 40
7.0
  9
$DIMRND
 40
0.0
  9
$DIMDLE
 40
0.0
  9
$DIMEXE
 40
1.0
  9
$DIMTP
 40
0.0
  9
$DIMTM
 40
0.0
  9
$DIMTXT
 40
3.5
  9
$DIMCEN
 40
1.5
  9
$DIMTSZ
 40
0.0
  9
$DIMTOL
 70
     0
  9
$DIMLIM
 70
     0
  9
$DIMTIH
 70
     0
  9
$DIMTOH
 70
     0
  9
$DIMSE1
 70
     0
  9
$DIMSE2
 70
     0
  9
$DIMTAD
 70
     1
  9
$DIMZIN
 70
     8
  9
$DIMBLK
  1

  9
$DIMASO
 70
     1
  9
$DIMSHO
 70
     0
  9
$DIMPOST
  1

  9
$DIMAPOST
  1

  9
$DIMALT
 70
     0
  9
$DIMALTD
 70
     2
  9
$DIMALTF
 40
25.4
  9
$DIMLFAC
 40
1.0
  9
$DIMTOFL
 70
     1
  9
$DIMTVP
 40
0.0
  9
$DIMTIX
 70
     0
  9
$DIMSOXD
 70
     0
  9
$DIMSAH
 70
     0
  9
$DIMBLK1
  1

  9
$DIMBLK2
  1

  9
$DIMSTYLE
  2
Standard
  9
$DIMCLRD
 70
     0
  9
$DIMCLRE
 70
     0
  9
$DIMCLRT
 70
     1
  9
$DIMTFAC
 40
0.5142857142857144
  9
$DIMGAP
 40
1.5
  9
$DIMJUST
 70
     0
  9
$DIMSD1
 70
     0
  9
$DIMSD2
 70
     0
  9
$DIMTOLJ
 70
     1
  9
$DIMTZIN
 70
     8
  9
$DIMALTZ
 70
     8
  9
$DIMALTTZ
 70
     8
  9
$DIMUPT
 70
     0
  9
$DIMDEC
 70
     2
  9
$DIMTDEC
 70
     2
  9
$DIMALTU
 70
     2
  9
$DIMALTTD
 70
     2
  9
$DIMTXSTY
  7
STANDARD
  9
$DIMAUNIT
 70
     0
  9
$DIMADEC
 70
     2
  9
$DIMALTRND
 40
0.0
  9
$DIMAZIN
 70
     2
  9
$DIMDSEP
 70
    46
  9
$DIMATFIT
 70
     3
  9
$DIMFRAC
 70
     0
  9
$DIMLDRBLK
  1

  9
$DIMLUNIT
 70
     2
  9
$DIMLWD
 70
    -2
  9
$DIMLWE
 70
    -2
  9
$DIMTMOVE
 70
     0
  9
$LUNITS
 70
     2
  9
$LUPREC
 70
     2
  9
$SKETCHINC
 40
1.0
  9
$FILLETRAD
 40
0.0
  9
$AUNITS
 70
     0
  9
$AUPREC
 70
     0
  9
$MENU
  1
ACAD
  9
$ELEVATION
 40
0.0
  9
$PELEVATION
 40
0.0
  9
$THICKNESS
 40
0.0
  9
$LIMCHECK
 70
     0
  9
$CHAMFERA
 40
0.0
  9
$CHAMFERB
 40
0.0
  9
$CHAMFERC
 40
0.0
  9
$CHAMFERD
 40
0.0
  9
$SKPOLY
 70
     0
  9
$TDCREATE
 40
2455397.867059838
  9
$TDUCREATE
 40
2455397.783726505
  9
$TDUPDATE
 40
2456111.319725162
  9
$TDUUPDATE
 40
2456111.236391829
  9
$TDINDWG
 40
0.0916350463
  9
$TDUSRTIMER
 40
0.0916350463
  9
$USRTIMER
 70
     1
  9
$ANGBASE
 50
0.0
  9
$ANGDIR
 70
     0
  9
$PDMODE
 70
     0
  9
$PDSIZE
 40
0.0
  9
$PLINEWID
 40
0.0
  9
$SPLFRAME
 70
     0
  9
$SPLINETYPE
 70
     6
  9
$SPLINESEGS
 70
     8
  9
$HANDSEED
  5
1064
  9
$SURFTAB1
 70
     6
  9
$SURFTAB2
 70
     6
  9
$SURFTYPE
 70
     6
  9
$SURFU
 70
     6
  9
$SURFV
 70
     6
  9
$UCSBASE
  2

  9
$UCSNAME
  2

  9
$UCSORG
 10
0.0
 20
0.0
 30
0.0
  9
$UCSXDIR
 10
1.0
 20
0.0
 30
0.0
  9
$UCSYDIR
 10
0.0
 20
1.0
 30
0.0
  9
$UCSORTHOREF
  2

  9
$UCSORTHOVIEW
 70
     0
  9
$UCSORGTOP
 10
0.0
 20
0.0
 30
0.0
  9
$UCSORGBOTTOM
 10
0.0
 20
0.0
 30
0.0
  9
$UCSORGLEFT
 10
0.0
 20
0.0
 30
0.0
  9
$UCSORGRIGHT
 10
0.0
 20
0.0
 30
0.0
  9
$UCSORGFRONT
 10
0.0
 20
0.0
 30
0.0
  9
$UCSORGBACK
 10
0.0
 20
0.0
 30
0.0
  9
$PUCSBASE
  2

  9
$PUCSNAME
  2

  9
$PUCSORG
 10
0.0
 20
0.0
 30
0.0
  9
$PUCSXDIR
 10
1.0
 20
0.0
 30
0.0
  9
$PUCSYDIR
 10
0.0
 20
1.0
 30
0.0
  9
$PUCSORTHOREF
  2

  9
$PUCSORTHOVIEW
 70
     0
  9
$PUCSORGTOP
 10
0.0
 20
0.0
 30
0.0
  9
$PUCSORGBOTTOM
 10
0.0
 20
0.0
 30
0.0
  9
$PUCSORGLEFT
 10
0.0
 20
0.0
 30
0.0
  9
$PUCSORGRIGHT
 10
0.0
 20
0.0
 30
0.0
  9
$PUCSORGFRONT
 10
0.0
 20
0.0
 30
0.0
  9
$PUCSORGBACK
 10
0.0
 20
0.0
 30
0.0
  9
$USERI1
 70
     0
  9
$USERI2
 70
     0
  9
$USERI3
 70
     0
  9
$USERI4
 70
     0
  9
$USERI5
 70
     0
  9
$USERR1
 40
0.0
  9
$USERR2
 40
0.0
  9
$USERR3
 40
0.0
  9
$USERR4
 40
0.0
  9
$USERR5
 40
0.0
  9
$WORLDVIEW
 70
     1
  9
$SHADEDGE
 70
     3
  9
$SHADEDIF
 70
    70
  9
$TILEMODE
 70
     1
  9
$MAXACTVP
 70
    16
  9
$PINSBASE
 10
0.0
 20
0.0
 30
0.0
  9
$PLIMCHECK
 70
     0
  9
$PEXTMIN
 10
1.000000000000000E+20
 20
1.000000000000000E+20
 30
1.000000000000000E+20
  9
$PEXTMAX
 10
-1.000000000000000E+20
 20
-1.000000000000000E+20
 30
-1.000000000000000E+20
  9
$PLIMMIN
 10
0.0
 20
0.0
  9
$PLIMMAX
 10
12.0
 20
9.0
  9
$UNITMODE
 70
     0
  9
$VISRETAIN
 70
     0
  9
$PLINEGEN
 70
     0
  9
$PSLTSCALE
 70
     0
  9
$TREEDEPTH
 70
  3020
  9
$CMLSTYLE
  2
Standard
  9
$CMLJUST
 70
     0
  9
$CMLSCALE
 40
1.0
  9
$PROXYGRAPHICS
 70
     1
  9
$MEASUREMENT
 70
     0
  9
$CELWEIGHT
370
    -1
  9
$ENDCAPS
280
     0
  9
$JOINSTYLE
280
     0
  9
$LWDISPLAY
290
     0
  9
$INSUNITS
 70
     0
  9
$HYPERLINKBASE
  1

  9
$STYLESHEET
  1

  9
$XEDIT
290
     1
  9
$CEPSNTYPE
380
     0
  9
$PSTYLEMODE
290
     1
  9
$FINGERPRINTGUID
  2
{D68B0D0D-A558-11D7-B632-000102183313}
  9
$VERSIONGUID
  2
{9F464BB5-5677-46BD-B486-260F70223B04}
  9
$EXTNAMES
290
     1
  9
$PSVPSCALE
 40
0.0
  9
$OLESTARTUP
290
     0
  9
$SORTENTS
280
   127
  9
$INDEXCTL
280
     0
  9
$HIDETEXT
280
     0
  9
$XCLIPFRAME
290
     0
  9
$HALOGAP
280
     0
  9
$OBSCOLOR
 70
   257
  9
$OBSLTYPE
280
     0
  9
$INTERSECTIONDISPLAY
280
     0
  9
$INTERSECTIONCOLOR
 70
   257
  9
$DIMASSOC
280
     1
  9
$PROJECTNAME
  1

  0
ENDSEC
  0
SECTION
  2
CLASSES
  0
CLASS
  1
ACDBDICTIONARYWDFLT
  2
AcDbDictionaryWithDefault
  3
ObjectDBX Classes
 90
        0
 91
        1
280
     0
281
     0
  0
CLASS
  1
DICTIONARYVAR
  2
AcDbDictionaryVar
  3
ObjectDBX Classes
 90
        0
 91
        2
280
     0
281
     0
  0
ENDSEC
  0
SECTION
  2
TABLES
  0
TABLE
  2
VPORT
  5
8
330
0
100
AcDbSymbolTable
 70
     2
  0
VPORT
  5
1063
330
8
100
AcDbSymbolTableRecord
100
AcDbViewportTableRecord
  2
*Active
 70
     0
 10
0.0
 20
0.0
 11
1.0
 21
1.0
 12
297.0
 22
420.0
 13
0.0
 23
0.0
 14
1.0
 24
1.0
 15
10.0
 25
10.0
 16
0.0
 26
0.0
 36
1.0
 17
0.0
 27
0.0
 37
0.0
 40
840.3408760073512
 41
1.374331550802138
 42
50.0
 43
0.0
 44
0.0
 50
0.0
 51
0.0
 71
     0
 72
  1500
 73
     1
 74
     0
 75
     0
 76
     0
 77
     0
 78
     0
281
     0
 65
     1
110
0.0
120
0.0
130
0.0
111
1.0
121
0.0
131
0.0
112
0.0
122
1.0
132
0.0
 79
     0
146
0.0
  0
ENDTAB
  0
TABLE
  2
LTYPE
  5
5
330
0
100
AcDbSymbolTable
 70
     2
  0
LTYPE
  5
13
330
5
100
AcDbSymbolTableRecord
100
AcDbLinetypeTableRecord
  2
ByBlock
 70
     0
  3

 72
    65
 73
     0
 40
0.0
  0
LTYPE
  5
14
330
5
100
AcDbSymbolTableRecord
100
AcDbLinetypeTableRecord
  2
ByLayer
 70
     0
  3

 72
    65
 73
     0
 40
0.0
  0
LTYPE
  5
15
330
5
100
AcDbSymbolTableRecord
100
AcDbLinetypeTableRecord
  2
Continuous
 70
     0
  3
Solid line
 72
    65
 73
     0
 40
0.0
  0
LTYPE
  5
25
330
5
100
AcDbSymbolTableRecord
100
AcDbLinetypeTableRecord
  2
STRICHPUNKT
 70
     0
  3
__ . __ . __ . __ . __ . __ . __ . __ . __ . __
 72
    65
 73
     4
 40
1.0
 49
0.5
 74
     0
 49
-0.25
 74
     0
 49
0.0
 74
     0
 49
-0.25
 74
     0
  0
ENDTAB
  0
TABLE
  2
LAYER
  5
2
330
0
100
AcDbSymbolTable
 70
    10
  0
LAYER
  5
10
330
2
100
AcDbSymbolTableRecord
100
AcDbLayerTableRecord
  2
0
 70
     0
 62
     7
  6
Continuous
370
    -3
390
F
  0
LAYER
  5
2B
330
2
100
AcDbSymbolTableRecord
100
AcDbLayerTableRecord
  2
VOLL
 70
     0
 62
     1
  6
Continuous
370
    -3
390
F
  0
LAYER
  5
2C
330
2
100
AcDbSymbolTableRecord
100
AcDbLayerTableRecord
  2
HILF
 70
     0
 62
     2
  6
Continuous
370
    -3
390
F
  0
LAYER
  5
2D
330
2
100
AcDbSymbolTableRecord
100
AcDbLayerTableRecord
  2
MITTEL
 70
     0
 62
     2
  6
STRICHPUNKT
370
    -3
390
F
  0
LAYER
  5
2F
330
2
100
AcDbSymbolTableRecord
100
AcDbLayerTableRecord
  2
BEM
 70
     0
 62
     7
  6
Continuous
370
    -3
390
F
  0
LAYER
  5
30
330
2
100
AcDbSymbolTableRecord
100
AcDbLayerTableRecord
  2
STEMPEL
 70
     0
 62
     3
  6
Continuous
370
    -3
390
F
  0
LAYER
  5
33
330
2
100
AcDbSymbolTableRecord
100
AcDbLayerTableRecord
  2
TEXT
 70
     0
 62
     7
  6
Continuous
370
    -3
390
F
  0
LAYER
  5
258
330
2
100
AcDbSymbolTableRecord
100
AcDbLayerTableRecord
  2
DEFPOINTS
 70
     0
 62
     7
  6
Continuous
290
     0
370
    -3
390
F
  0
LAYER
  5
259
330
2
100
AcDbSymbolTableRecord
100
AcDbLayerTableRecord
  2
SCHRAFF
 70
     0
 62
     7
  6
Continuous
370
    -3
390
F
  0
LAYER
  5
B91
330
2
100
AcDbSymbolTableRecord
100
AcDbLayerTableRecord
  2
1
 70
     0
 62
     7
  6
Continuous
370
    -3
390
F
  0
ENDTAB
  0
TABLE
  2
STYLE
  5
3
330
0
100
AcDbSymbolTable
 70
     2
  0
STYLE
  5
11
330
3
100
AcDbSymbolTableRecord
100
AcDbTextStyleTableRecord
  2
STANDARD
 70
     0
 40
0.0
 41
0.8
 50
0.0
 71
     0
 42
3.5
  3
simplex.shx
  4

  0
STYLE
  5
24
330
3
100
AcDbSymbolTableRecord
100
AcDbTextStyleTableRecord
  2
GREEKS
 70
     0
 40
0.0
 41
0.8
 50
0.0
 71
     0
 42
2.5
  3
SIMPLEX.shx
  4

  0
ENDTAB
  0
TABLE
  2
VIEW
  5
6
330
0
100
AcDbSymbolTable
 70
     0
  0
ENDTAB
  0
TABLE
  2
UCS
  5
7
330
0
100
AcDbSymbolTable
 70
     0
  0
ENDTAB
  0
TABLE
  2
APPID
  5
9
330
0
100
AcDbSymbolTable
 70
     1
  0
APPID
  5
12
330
9
100
AcDbSymbolTableRecord
100
AcDbRegAppTableRecord
  2
ACAD
 70
     0
  0
ENDTAB
  0
TABLE
  2
DIMSTYLE
  5
A
330
0
100
AcDbSymbolTable
 70
     1
100
AcDbDimStyleTable
 71
     1
340
A2
  0
DIMSTYLE
105
A2
102
{ACAD_REACTORS
330
855
330
A03
330
F7C
330
F7D
330
FCE
330
856
330
FF1
330
1010
102
}
330
A
100
AcDbSymbolTableRecord
100
AcDbDimStyleTableRecord
  2
Standard
 70
     0
340
11
  0
ENDTAB
  0
TABLE
  2
BLOCK_RECORD
  5
1
330
0
100
AcDbSymbolTable
 70
    10
  0
BLOCK_RECORD
  5
1E
102
{ACAD_XDICTIONARY
360
DB
102
}
330
1
100
AcDbSymbolTableRecord
100
AcDbBlockTableRecord
  2
*Model_Space
340
21
  0
BLOCK_RECORD
  5
1A
102
{ACAD_XDICTIONARY
360
DD
102
}
330
1
100
AcDbSymbolTableRecord
100
AcDbBlockTableRecord
  2
*Paper_Space
340
1D
  0
BLOCK_RECORD
  5
22
330
1
100
AcDbSymbolTableRecord
100
AcDbBlockTableRecord
  2
LOGO
340
0
102
{BLKREFS
331
56
102
}
  0
BLOCK_RECORD
  5
23
330
1
100
AcDbSymbolTableRecord
100
AcDbBlockTableRecord
  2
LORO
340
0
102
{BLKREFS
331
9B
102
}
  0
BLOCK_RECORD
  5
883
330
1
100
AcDbSymbolTableRecord
100
AcDbBlockTableRecord
  2
*D2
340
0
  0
BLOCK_RECORD
  5
88F
330
1
100
AcDbSymbolTableRecord
100
AcDbBlockTableRecord
  2
*D3
340
0
  0
BLOCK_RECORD
  5
A04
330
1
100
AcDbSymbolTableRecord
100
AcDbBlockTableRecord
  2
*D4
340
0
  0
BLOCK_RECORD
  5
FA3
330
1
100
AcDbSymbolTableRecord
100
AcDbBlockTableRecord
  2
*D5
340
0
  0
BLOCK_RECORD
  5
FAF
330
1
100
AcDbSymbolTableRecord
100
AcDbBlockTableRecord
  2
*D6
340
0
  0
BLOCK_RECORD
  5
FCF
330
1
100
AcDbSymbolTableRecord
100
AcDbBlockTableRecord
  2
*D7
340
0
  0
BLOCK_RECORD
  5
FF2
330
1
100
AcDbSymbolTableRecord
100
AcDbBlockTableRecord
  2
*D8
340
0
  0
BLOCK_RECORD
  5
1011
330
1
100
AcDbSymbolTableRecord
100
AcDbBlockTableRecord
  2
*D9
340
0
  0
ENDTAB
  0
ENDSEC
  0
SECTION
  2
BLOCKS
  0
BLOCK
  5
37
330
1E
100
AcDbEntity
  8
0
100
AcDbBlockBegin
  2
*Model_Space
 70
     0
 10
0.0
 20
0.0
 30
0.0
  3
*Model_Space
  1

  0
ENDBLK
  5
38
330
1E
100
AcDbEntity
  8
0
100
AcDbBlockEnd
  0
BLOCK
  5
35
330
1A
100
AcDbEntity
 67
     1
  8
0
100
AcDbBlockBegin
  2
*Paper_Space
 70
     0
 10
0.0
 20
0.0
 30
0.0
  3
*Paper_Space
  1

  0
ENDBLK
  5
36
330
1A
100
AcDbEntity
 67
     1
  8
0
100
AcDbBlockEnd
  0
BLOCK
  5
39
330
22
100
AcDbEntity
  8
0
100
AcDbBlockBegin
  2
LOGO
 70
     0
 10
0.0
 20
0.0
 30
0.0
  3
LOGO
  1

  0
ARC
  5
3A
330
22
100
AcDbEntity
  8
0
100
AcDbCircle
 10
11.59973089678112
 20
-9.271599258481501
 30
0.0
 40
4.5
100
AcDbArc
 50
270.0
 51
231.0575587310159
  0
LINE
  5
3B
330
22
100
AcDbEntity
  8
0
100
AcDbLine
 10
3.599730896781125
 20
-4.771599258481529
 30
0.0
 11
3.599730896781153
 21
-11.77159925848133
 31
0.0
  0
LINE
  5
3C
330
22
100
AcDbEntity
  8
0
100
AcDbLine
 10
2.599730896781125
 20
-4.771599258481529
 30
0.0
 11
2.599730896781153
 21
-11.77159925848133
 31
0.0
  0
CIRCLE
  5
3D
330
22
100
AcDbEntity
  8
0
100
AcDbCircle
 10
11.59973089678112
 20
-9.271599258481501
 30
0.0
 40
3.5
  0
ARC
  5
3E
330
22
100
AcDbEntity
  8
0
100
AcDbCircle
 10
31.59973089678115
 20
-9.271599258481472
 30
0.0
 40
4.5
100
AcDbArc
 50
270.0
 51
231.0575587310182
  0
LINE
  5
3F
330
22
100
AcDbEntity
  8
0
100
AcDbLine
 10
17.59973089678112
 20
-4.771599258481472
 30
0.0
 11
17.59973089678115
 21
-13.77159925848147
 31
0.0
  0
ARC
  5
40
330
22
100
AcDbEntity
  8
0
100
AcDbCircle
 10
22.59973089678116
 20
-7.271599258481472
 30
0.0
 40
2.5
100
AcDbArc
 50
293.1161887722295
 51
90.0
  0
CIRCLE
  5
41
330
22
100
AcDbEntity
  8
0
100
AcDbCircle
 10
31.59973089678115
 20
-9.271599258481472
 30
0.0
 40
3.5
  0
ARC
  5
42
330
22
100
AcDbEntity
  8
0
100
AcDbCircle
 10
4.599730896781153
 20
-11.77159925848133
 30
0.0
 40
1.0
100
AcDbArc
 50
180.0
 51
270.0
  0
ARC
  5
43
330
22
100
AcDbEntity
  8
0
100
AcDbCircle
 10
4.599730896781153
 20
-11.77159925848133
 30
0.0
 40
2.0
100
AcDbArc
 50
179.9999999999992
 51
270.0
  0
LINE
  5
44
330
22
100
AcDbEntity
  8
0
100
AcDbLine
 10
11.59973089678115
 20
-13.77159925848144
 30
0.0
 11
4.599730896781153
 21
-13.77159925848147
 31
0.0
  0
LINE
  5
45
330
22
100
AcDbEntity
  8
0
100
AcDbLine
 10
8.771303772034769
 20
-12.77159925848136
 30
0.0
 11
4.599730896781153
 21
-12.77159925848133
 31
0.0
  0
LINE
  5
46
330
22
100
AcDbEntity
  8
0
100
AcDbLine
 10
31.59973089678115
 20
-13.77159925848147
 30
0.0
 11
23.6715276665056
 21
-13.77159925848144
 31
0.0
  0
LINE
  5
47
330
22
100
AcDbEntity
  8
0
100
AcDbLine
 10
23.56565672307022
 20
-9.51278021337896
 30
0.0
 11
24.4388546544846
 21
-12.77159925848144
 31
0.0
  0
LINE
  5
48
330
22
100
AcDbEntity
  8
0
100
AcDbLine
 10
22.59973089678116
 20
-9.771599258481472
 30
0.0
 11
18.59973089678112
 21
-9.771599258481472
 31
0.0
  0
LINE
  5
49
330
22
100
AcDbEntity
  8
0
100
AcDbLine
 10
18.59973089678115
 20
-13.77159925848144
 30
0.0
 11
17.59973089678115
 21
-13.77159925848144
 31
0.0
  0
LINE
  5
4A
330
22
100
AcDbEntity
  8
0
100
AcDbLine
 10
18.59973089678115
 20
-9.771599258481472
 30
0.0
 11
18.59973089678115
 21
-13.77159925848144
 31
0.0
  0
LINE
  5
4B
330
22
100
AcDbEntity
  8
0
100
AcDbLine
 10
22.59973089678116
 20
-9.771599258481472
 30
0.0
 11
23.67152766650562
 21
-13.77159925848147
 31
0.0
  0
ARC
  5
4C
330
22
100
AcDbEntity
  8
0
100
AcDbCircle
 10
22.59973089678116
 20
-7.271599258481472
 30
0.0
 40
2.5
100
AcDbArc
 50
270.0
 51
270.0000000000007
  0
LINE
  5
4D
330
22
100
AcDbEntity
  8
0
100
AcDbLine
 10
28.77130377203494
 20
-12.77159925848147
 30
0.0
 11
24.43885465448463
 21
-12.77159925848144
 31
0.0
  0
LINE
  5
4E
330
22
100
AcDbEntity
  8
0
100
AcDbLine
 10
3.599730896781125
 20
-4.771599258481472
 30
0.0
 11
2.599730896781125
 21
-4.771599258481472
 31
0.0
  0
LINE
  5
4F
330
22
100
AcDbEntity
  8
0
100
AcDbLine
 10
22.59973089678116
 20
-8.771599258481472
 30
0.0
 11
18.59973089678115
 21
-8.771599258481472
 31
0.0
  0
LINE
  5
50
330
22
100
AcDbEntity
  8
0
100
AcDbLine
 10
22.59973089678116
 20
-5.771599258481472
 30
0.0
 11
18.59973089678115
 21
-5.771599258481472
 31
0.0
  0
LINE
  5
51
330
22
100
AcDbEntity
  8
0
100
AcDbLine
 10
22.59973089678116
 20
-4.771599258481472
 30
0.0
 11
17.59973089678115
 21
-4.771599258481472
 31
0.0
  0
LINE
  5
52
330
22
100
AcDbEntity
  8
0
100
AcDbLine
 10
18.59973089678115
 20
-5.771599258481472
 30
0.0
 11
18.59973089678115
 21
-8.771599258481472
 31
0.0
  0
ARC
  5
53
330
22
100
AcDbEntity
  8
0
100
AcDbCircle
 10
22.59973089678116
 20
-7.271599258481472
 30
0.0
 40
1.5
100
AcDbArc
 50
270.0
 51
90.0
  0
ENDBLK
  5
54
330
22
100
AcDbEntity
  8
0
100
AcDbBlockEnd
  0
BLOCK
  5
55
330
23
100
AcDbEntity
  8
0
100
AcDbBlockBegin
  2
LORO
 70
     0
 10
0.0
 20
0.0
 30
0.0
  3
LORO
  1

  0
INSERT
  5
56
330
23
100
AcDbEntity
  8
STEMPEL
100
AcDbBlockReference
  2
LOGO
 10
-1.748032802467321
 20
3.771489518552062
 30
0.0
  0
ENDBLK
  5
57
330
23
100
AcDbEntity
  8
0
100
AcDbBlockEnd
  0
BLOCK
  5
88D
330
883
100
AcDbEntity
  8
0
100
AcDbBlockBegin
  2
*D2
 70
     1
 10
0.0
 20
0.0
 30
0.0
  3
*D2
  1

  0
LINE
  5
C7F
330
883
100
AcDbEntity
  8
BEM
 62
     0
370
    -2
100
AcDbLine
 10
89.35608851535418
 20
606.156204918326
 30
0.0
 11
63.69482852027858
 21
606.156204918326
 31
0.0
  0
LINE
  5
C80
330
883
100
AcDbEntity
  8
BEM
 62
     0
370
    -2
100
AcDbLine
 10
139.3560885153541
 20
696.1562049183251
 30
0.0
 11
63.69482852027861
 21
696.1562049183251
 31
0.0
  0
LINE
  5
C81
330
883
100
AcDbEntity
  8
BEM
 62
     0
370
    -2
100
AcDbLine
 10
65.69482852027859
 20
613.1562049183259
 30
0.0
 11
65.6948285202786
 21
689.1562049183252
 31
0.0
  0
SOLID
  5
C82
330
883
100
AcDbEntity
  8
BEM
 62
     0
100
AcDbTrace
 10
64.52816185361192
 20
613.1562049183259
 30
0.0
 11
66.86149518694526
 21
613.1562049183259
 31
0.0
 12
65.69482852027857
 22
606.156204918326
 32
0.0
 13
65.69482852027857
 23
606.156204918326
 33
0.0
  0
SOLID
  5
C83
330
883
100
AcDbEntity
  8
BEM
 62
     0
100
AcDbTrace
 10
64.52816185361193
 20
689.1562049183252
 30
0.0
 11
66.86149518694527
 21
689.1562049183252
 31
0.0
 12
65.6948285202786
 22
696.1562049183251
 32
0.0
 13
65.6948285202786
 23
696.1562049183251
 33
0.0
  0
MTEXT
  5
C84
330
883
100
AcDbEntity
  8
BEM
 62
     1
100
AcDbMText
 10
59.19482852027849
 20
651.1562049183255
 30
0.0
 40
7.0
 41
0.0
 71
     5
 72
     1
  1
\A1;90
 11
0.0000000000000001
 21
1.0
 31
0.0
 73
     1
 44
1.0
  0
POINT
  5
C85
330
883
100
AcDbEntity
  8
DEFPOINTS
 62
     0
100
AcDbPoint
 10
91.35608851535417
 20
606.156204918326
 30
0.0
  0
POINT
  5
C86
330
883
100
AcDbEntity
  8
DEFPOINTS
 62
     0
100
AcDbPoint
 10
141.3560885153541
 20
696.1562049183251
 30
0.0
  0
POINT
  5
C87
330
883
100
AcDbEntity
  8
DEFPOINTS
 62
     0
100
AcDbPoint
 10
65.6948285202786
 20
696.1562049183251
 30
0.0
  0
ENDBLK
  5
88E
330
883
100
AcDbEntity
  8
0
100
AcDbBlockEnd
  0
BLOCK
  5
899
330
88F
100
AcDbEntity
  8
0
100
AcDbBlockBegin
  2
*D3
 70
     1
 10
0.0
 20
0.0
 30
0.0
  3
*D3
  1

  0
LINE
  5
FE8
330
88F
100
AcDbEntity
  8
BEM
 62
     0
370
    -2
100
AcDbLine
 10
111.3560885153541
 20
678.1561469510104
 30
0.0
 11
111.3560885153541
 21
713.8951733342755
 31
0.0
  0
LINE
  5
FE9
330
88F
100
AcDbEntity
  8
BEM
 62
     0
370
    -2
100
AcDbLine
 10
331.3560885153544
 20
678.1561469510104
 30
0.0
 11
331.3560885153544
 21
713.8951733342755
 31
0.0
  0
LINE
  5
FEA
330
88F
100
AcDbEntity
  8
BEM
 62
     0
370
    -2
100
AcDbLine
 10
118.3560885153541
 20
711.8951733342754
 30
0.0
 11
324.3560885153544
 21
711.8951733342754
 31
0.0
  0
SOLID
  5
FEB
330
88F
100
AcDbEntity
  8
BEM
 62
     0
100
AcDbTrace
 10
118.3560885153541
 20
713.0618400009421
 30
0.0
 11
118.3560885153541
 21
710.7285066676088
 31
0.0
 12
111.3560885153541
 22
711.8951733342754
 32
0.0
 13
111.3560885153541
 23
711.8951733342754
 33
0.0
  0
SOLID
  5
FEC
330
88F
100
AcDbEntity
  8
BEM
 62
     0
100
AcDbTrace
 10
324.3560885153544
 20
713.0618400009421
 30
0.0
 11
324.3560885153544
 21
710.7285066676088
 31
0.0
 12
331.3560885153544
 22
711.8951733342754
 32
0.0
 13
331.3560885153544
 23
711.8951733342754
 33
0.0
  0
MTEXT
  5
FED
330
88F
100
AcDbEntity
  8
BEM
 62
     1
100
AcDbMText
 10
221.3560885153543
 20
718.3951733342754
 30
0.0
 40
7.0
 41
0.0
 71
     5
 72
     1
  1
\A1;%%c220
 73
     1
 44
1.0
  0
POINT
  5
FEE
330
88F
100
AcDbEntity
  8
DEFPOINTS
 62
     0
100
AcDbPoint
 10
111.3560885153541
 20
676.1561469510104
 30
0.0
  0
POINT
  5
FEF
330
88F
100
AcDbEntity
  8
DEFPOINTS
 62
     0
100
AcDbPoint
 10
331.3560885153544
 20
676.1561469510104
 30
0.0
  0
POINT
  5
FF0
330
88F
100
AcDbEntity
  8
DEFPOINTS
 62
     0
100
AcDbPoint
 10
331.3560885153544
 20
711.8951733342754
 30
0.0
  0
ENDBLK
  5
89A
330
88F
100
AcDbEntity
  8
0
100
AcDbBlockEnd
  0
BLOCK
  5
A10
330
A04
100
AcDbEntity
  8
0
100
AcDbBlockBegin
  2
*D4
 70
     1
 10
0.0
 20
0.0
 30
0.0
  3
*D4
  1

  0
LINE
  5
C62
330
A04
100
AcDbEntity
  8
BEM
 62
     0
370
    -2
100
AcDbLine
 10
89.35608851535395
 20
606.156204918326
 30
0.0
 11
63.69482852027858
 21
606.156204918326
 31
0.0
  0
LINE
  5
C63
330
A04
100
AcDbEntity
  8
BEM
 62
     0
370
    -2
100
AcDbLine
 10
84.356088515354
 20
591.1562049183261
 30
0.0
 11
63.69482852027857
 21
591.1562049183261
 31
0.0
  0
LINE
  5
C64
330
A04
100
AcDbEntity
  8
BEM
 62
     0
370
    -2
100
AcDbLine
 10
65.69482852027859
 20
613.1562049183259
 30
0.0
 11
65.69482852027859
 21
620.156204918326
 31
0.0
  0
LINE
  5
C65
330
A04
100
AcDbEntity
  8
BEM
 62
     0
370
    -2
100
AcDbLine
 10
65.69482852027857
 20
584.1562049183261
 30
0.0
 11
65.69482852027857
 21
577.1562049183261
 31
0.0
  0
LINE
  5
C66
330
A04
100
AcDbEntity
  8
BEM
 62
     0
370
    -2
100
AcDbLine
 10
65.69482852027857
 20
606.156204918326
 30
0.0
 11
65.69482852027857
 21
591.1562049183261
 31
0.0
  0
SOLID
  5
C67
330
A04
100
AcDbEntity
  8
BEM
 62
     0
100
AcDbTrace
 10
64.52816185361192
 20
613.1562049183259
 30
0.0
 11
66.86149518694526
 21
613.1562049183259
 31
0.0
 12
65.69482852027857
 22
606.156204918326
 32
0.0
 13
65.69482852027857
 23
606.156204918326
 33
0.0
  0
SOLID
  5
C68
330
A04
100
AcDbEntity
  8
BEM
 62
     0
100
AcDbTrace
 10
64.5281618536119
 20
584.1562049183261
 30
0.0
 11
66.86149518694525
 21
584.1562049183261
 31
0.0
 12
65.69482852027857
 22
591.1562049183261
 32
0.0
 13
65.69482852027857
 23
591.1562049183261
 33
0.0
  0
MTEXT
  5
C69
330
A04
100
AcDbEntity
  8
BEM
 62
     1
100
AcDbMText
 10
59.19482852027848
 20
598.656204918326
 30
0.0
 40
7.0
 41
0.0
 71
     5
 72
     1
  1
\A1;15
 11
0.0000000000000001
 21
1.0
 31
0.0
 73
     1
 44
1.0
  0
POINT
  5
C6A
330
A04
100
AcDbEntity
  8
DEFPOINTS
 62
     0
100
AcDbPoint
 10
91.35608851535394
 20
606.156204918326
 30
0.0
  0
POINT
  5
C6B
330
A04
100
AcDbEntity
  8
DEFPOINTS
 62
     0
100
AcDbPoint
 10
86.35608851535399
 20
591.1562049183261
 30
0.0
  0
POINT
  5
C6C
330
A04
100
AcDbEntity
  8
DEFPOINTS
 62
     0
100
AcDbPoint
 10
65.69482852027857
 20
591.1562049183261
 30
0.0
  0
ENDBLK
  5
A11
330
A04
100
AcDbEntity
  8
0
100
AcDbBlockEnd
  0
BLOCK
  5
FAD
330
FA3
100
AcDbEntity
  8
0
100
AcDbBlockBegin
  2
*D5
 70
     1
 10
0.0
 20
0.0
 30
0.0
  3
*D5
  1

  0
LINE
  5
103C
330
FA3
100
AcDbEntity
  8
BEM
 62
     0
370
    -2
100
AcDbLine
 10
273.2857856851467
 20
539.6562049183263
 30
0.0
 11
377.0427078510768
 21
539.6562049183263
 31
0.0
  0
LINE
  5
103D
330
FA3
100
AcDbEntity
  8
BEM
 62
     0
370
    -2
100
AcDbLine
 10
358.3560885153539
 20
589.6562049183263
 30
0.0
 11
377.0427078510768
 21
589.6562049183263
 31
0.0
  0
LINE
  5
103E
330
FA3
100
AcDbEntity
  8
BEM
 62
     0
370
    -2
100
AcDbLine
 10
375.0427078510768
 20
546.6562049183263
 30
0.0
 11
375.0427078510768
 21
582.6562049183263
 31
0.0
  0
SOLID
  5
103F
330
FA3
100
AcDbEntity
  8
BEM
 62
     0
100
AcDbTrace
 10
373.8760411844101
 20
546.6562049183263
 30
0.0
 11
376.2093745177435
 21
546.6562049183263
 31
0.0
 12
375.0427078510768
 22
539.6562049183263
 32
0.0
 13
375.0427078510768
 23
539.6562049183263
 33
0.0
  0
SOLID
  5
1040
330
FA3
100
AcDbEntity
  8
BEM
 62
     0
100
AcDbTrace
 10
373.8760411844101
 20
582.6562049183263
 30
0.0
 11
376.2093745177435
 21
582.6562049183263
 31
0.0
 12
375.0427078510768
 22
589.6562049183263
 32
0.0
 13
375.0427078510768
 23
589.6562049183263
 33
0.0
  0
MTEXT
  5
1041
330
FA3
100
AcDbEntity
  8
BEM
 62
     1
100
AcDbMText
 10
368.5427078510767
 20
564.6562049183264
 30
0.0
 40
7.0
 41
0.0
 71
     5
 72
     1
  1
\A1;50
 11
0.0000000000000001
 21
1.0
 31
0.0
 73
     1
 44
1.0
  0
POINT
  5
1042
330
FA3
100
AcDbEntity
  8
DEFPOINTS
 62
     0
100
AcDbPoint
 10
271.2857856851467
 20
539.6562049183263
 30
0.0
  0
POINT
  5
1043
330
FA3
100
AcDbEntity
  8
DEFPOINTS
 62
     0
100
AcDbPoint
 10
356.3560885153539
 20
589.6562049183263
 30
0.0
  0
POINT
  5
1044
330
FA3
100
AcDbEntity
  8
DEFPOINTS
 62
     0
100
AcDbPoint
 10
375.0427078510768
 20
589.6562049183263
 30
0.0
  0
ENDBLK
  5
FAE
330
FA3
100
AcDbEntity
  8
0
100
AcDbBlockEnd
  0
BLOCK
  5
FB9
330
FAF
100
AcDbEntity
  8
0
100
AcDbBlockBegin
  2
*D6
 70
     1
 10
0.0
 20
0.0
 30
0.0
  3
*D6
  1

  0
LINE
  5
FC4
330
FAF
100
AcDbEntity
  8
BEM
 62
     0
370
    -2
100
AcDbLine
 10
170.5560885153539
 20
547.6038117868363
 30
0.0
 11
170.5560885153539
 21
517.6012586678108
 31
0.0
  0
LINE
  5
FC5
330
FAF
100
AcDbEntity
  8
BEM
 62
     0
370
    -2
100
AcDbLine
 10
272.1560885153539
 20
547.6038117868361
 30
0.0
 11
272.1560885153539
 21
517.6012586678108
 31
0.0
  0
LINE
  5
FC6
330
FAF
100
AcDbEntity
  8
BEM
 62
     0
370
    -2
100
AcDbLine
 10
177.5560885153539
 20
519.6012586678108
 30
0.0
 11
265.1560885153539
 21
519.6012586678108
 31
0.0
  0
SOLID
  5
FC7
330
FAF
100
AcDbEntity
  8
BEM
 62
     0
100
AcDbTrace
 10
177.5560885153539
 20
520.7679253344775
 30
0.0
 11
177.5560885153539
 21
518.4345920011442
 31
0.0
 12
170.5560885153539
 22
519.6012586678108
 32
0.0
 13
170.5560885153539
 23
519.6012586678108
 33
0.0
  0
SOLID
  5
FC8
330
FAF
100
AcDbEntity
  8
BEM
 62
     0
100
AcDbTrace
 10
265.1560885153539
 20
520.7679253344775
 30
0.0
 11
265.1560885153539
 21
518.4345920011442
 31
0.0
 12
272.1560885153539
 22
519.6012586678108
 32
0.0
 13
272.1560885153539
 23
519.6012586678108
 33
0.0
  0
MTEXT
  5
FC9
330
FAF
100
AcDbEntity
  8
BEM
 62
     1
100
AcDbMText
 10
221.3560885153539
 20
526.1012586678108
 30
0.0
 40
7.0
 41
0.0
 71
     5
 72
     1
  1
\A1;%%c101.6
 73
     1
 44
1.0
  0
POINT
  5
FCA
330
FAF
100
AcDbEntity
  8
DEFPOINTS
 62
     0
100
AcDbPoint
 10
170.5560885153539
 20
549.6038117868363
 30
0.0
  0
POINT
  5
FCB
330
FAF
100
AcDbEntity
  8
DEFPOINTS
 62
     0
100
AcDbPoint
 10
272.1560885153539
 20
549.603811786836
 30
0.0
  0
POINT
  5
FCC
330
FAF
100
AcDbEntity
  8
DEFPOINTS
 62
     0
100
AcDbPoint
 10
272.1560885153539
 20
519.6012586678108
 30
0.0
  0
ENDBLK
  5
FBA
330
FAF
100
AcDbEntity
  8
0
100
AcDbBlockEnd
  0
BLOCK
  5
FDB
330
FCF
100
AcDbEntity
  8
0
100
AcDbBlockBegin
  2
*D7
 70
     1
 10
0.0
 20
0.0
 30
0.0
  3
*D7
  1

  0
LINE
  5
1031
330
FCF
100
AcDbEntity
  8
BEM
 62
     0
370
    -2
100
AcDbLine
 10
358.3560885153539
 20
589.6562049183262
 30
0.0
 11
377.0427078510768
 21
589.6562049183262
 31
0.0
  0
LINE
  5
1032
330
FCF
100
AcDbEntity
  8
BEM
 62
     0
370
    -2
100
AcDbLine
 10
358.3560885153539
 20
591.1562049183268
 30
0.0
 11
377.0427078510768
 21
591.1562049183268
 31
0.0
  0
LINE
  5
1033
330
FCF
100
AcDbEntity
  8
BEM
 62
     0
370
    -2
100
AcDbLine
 10
375.0427078510768
 20
582.6562049183262
 30
0.0
 11
375.0427078510768
 21
575.6562049183262
 31
0.0
  0
LINE
  5
1034
330
FCF
100
AcDbEntity
  8
BEM
 62
     0
370
    -2
100
AcDbLine
 10
375.0427078510768
 20
598.1562049183268
 30
0.0
 11
375.0427078510768
 21
621.8228715849934
 31
0.0
  0
LINE
  5
1035
330
FCF
100
AcDbEntity
  8
BEM
 62
     0
370
    -2
100
AcDbLine
 10
375.0427078510768
 20
589.6562049183262
 30
0.0
 11
375.0427078510768
 21
591.1562049183268
 31
0.0
  0
SOLID
  5
1036
330
FCF
100
AcDbEntity
  8
BEM
 62
     0
100
AcDbTrace
 10
373.8760411844101
 20
582.6562049183262
 30
0.0
 11
376.2093745177435
 21
582.6562049183262
 31
0.0
 12
375.0427078510768
 22
589.6562049183262
 32
0.0
 13
375.0427078510768
 23
589.6562049183262
 33
0.0
  0
SOLID
  5
1037
330
FCF
100
AcDbEntity
  8
BEM
 62
     0
100
AcDbTrace
 10
373.8760411844101
 20
598.1562049183268
 30
0.0
 11
376.2093745177435
 21
598.1562049183268
 31
0.0
 12
375.0427078510768
 22
591.1562049183268
 32
0.0
 13
375.0427078510768
 23
591.1562049183268
 33
0.0
  0
MTEXT
  5
1038
330
FCF
100
AcDbEntity
  8
BEM
 62
     1
100
AcDbMText
 10
368.5427078510767
 20
613.4895382516603
 30
0.0
 40
7.0
 41
0.0
 71
     5
 72
     1
  1
\A1;1.5
 11
0.0000000000000001
 21
1.0
 31
0.0
 73
     1
 44
1.0
  0
POINT
  5
1039
330
FCF
100
AcDbEntity
  8
DEFPOINTS
 62
     0
100
AcDbPoint
 10
356.3560885153539
 20
589.6562049183262
 30
0.0
  0
POINT
  5
103A
330
FCF
100
AcDbEntity
  8
DEFPOINTS
 62
     0
100
AcDbPoint
 10
356.3560885153539
 20
591.1562049183268
 30
0.0
  0
POINT
  5
103B
330
FCF
100
AcDbEntity
  8
DEFPOINTS
 62
     0
100
AcDbPoint
 10
375.0427078510768
 20
591.1562049183268
 30
0.0
  0
ENDBLK
  5
FDC
330
FCF
100
AcDbEntity
  8
0
100
AcDbBlockEnd
  0
BLOCK
  5
FFC
330
FF2
100
AcDbEntity
  8
0
100
AcDbBlockBegin
  2
*D8
 70
     1
 10
0.0
 20
0.0
 30
0.0
  3
*D8
  1

  0
LINE
  5
1007
330
FF2
100
AcDbEntity
  8
BEM
 62
     0
370
    -2
100
AcDbLine
 10
91.35608851535407
 20
609.1562049183269
 30
0.0
 11
91.35608851535407
 21
728.2643940519995
 31
0.0
  0
LINE
  5
1008
330
FF2
100
AcDbEntity
  8
BEM
 62
     0
370
    -2
100
AcDbLine
 10
351.356088515354
 20
609.1562049183258
 30
0.0
 11
351.356088515354
 21
728.2643940519995
 31
0.0
  0
LINE
  5
1009
330
FF2
100
AcDbEntity
  8
BEM
 62
     0
370
    -2
100
AcDbLine
 10
98.35608851535408
 20
726.2643940519994
 30
0.0
 11
344.356088515354
 21
726.2643940519994
 31
0.0
  0
SOLID
  5
100A
330
FF2
100
AcDbEntity
  8
BEM
 62
     0
100
AcDbTrace
 10
98.35608851535408
 20
727.4310607186661
 30
0.0
 11
98.35608851535408
 21
725.0977273853329
 31
0.0
 12
91.35608851535407
 22
726.2643940519994
 32
0.0
 13
91.35608851535407
 23
726.2643940519994
 33
0.0
  0
SOLID
  5
100B
330
FF2
100
AcDbEntity
  8
BEM
 62
     0
100
AcDbTrace
 10
344.356088515354
 20
727.4310607186661
 30
0.0
 11
344.356088515354
 21
725.0977273853329
 31
0.0
 12
351.356088515354
 22
726.2643940519994
 32
0.0
 13
351.356088515354
 23
726.2643940519994
 33
0.0
  0
MTEXT
  5
100C
330
FF2
100
AcDbEntity
  8
BEM
 62
     1
100
AcDbMText
 10
221.356088515354
 20
732.7643940519995
 30
0.0
 40
7.0
 41
0.0
 71
     5
 72
     1
  1
\A1;%%c260
 73
     1
 44
1.0
  0
POINT
  5
100D
330
FF2
100
AcDbEntity
  8
DEFPOINTS
 62
     0
100
AcDbPoint
 10
91.35608851535407
 20
607.1562049183269
 30
0.0
  0
POINT
  5
100E
330
FF2
100
AcDbEntity
  8
DEFPOINTS
 62
     0
100
AcDbPoint
 10
351.356088515354
 20
607.1562049183257
 30
0.0
  0
POINT
  5
100F
330
FF2
100
AcDbEntity
  8
DEFPOINTS
 62
     0
100
AcDbPoint
 10
351.356088515354
 20
726.2643940519994
 30
0.0
  0
ENDBLK
  5
FFD
330
FF2
100
AcDbEntity
  8
0
100
AcDbBlockEnd
  0
BLOCK
  5
101B
330
1011
100
AcDbEntity
  8
0
100
AcDbBlockBegin
  2
*D9
 70
     1
 10
0.0
 20
0.0
 30
0.0
  3
*D9
  1

  0
LINE
  5
1026
330
1011
100
AcDbEntity
  8
BEM
 62
     0
370
    -2
100
AcDbLine
 10
356.3560885153539
 20
587.6562049183262
 30
0.0
 11
356.3560885153539
 21
502.8934804659586
 31
0.0
  0
LINE
  5
1027
330
1011
100
AcDbEntity
  8
BEM
 62
     0
370
    -2
100
AcDbLine
 10
86.35608851535403
 20
587.6562049183262
 30
0.0
 11
86.35608851535403
 21
502.8934804659586
 31
0.0
  0
LINE
  5
1028
330
1011
100
AcDbEntity
  8
BEM
 62
     0
370
    -2
100
AcDbLine
 10
349.3560885153539
 20
504.8934804659586
 30
0.0
 11
93.35608851535402
 21
504.8934804659586
 31
0.0
  0
SOLID
  5
1029
330
1011
100
AcDbEntity
  8
BEM
 62
     0
100
AcDbTrace
 10
349.3560885153539
 20
506.0601471326253
 30
0.0
 11
349.3560885153539
 21
503.7268137992919
 31
0.0
 12
356.3560885153539
 22
504.8934804659586
 32
0.0
 13
356.3560885153539
 23
504.8934804659586
 33
0.0
  0
SOLID
  5
102A
330
1011
100
AcDbEntity
  8
BEM
 62
     0
100
AcDbTrace
 10
93.35608851535402
 20
506.0601471326253
 30
0.0
 11
93.35608851535402
 21
503.7268137992919
 31
0.0
 12
86.35608851535403
 22
504.8934804659586
 32
0.0
 13
86.35608851535403
 23
504.8934804659586
 33
0.0
  0
MTEXT
  5
102B
330
1011
100
AcDbEntity
  8
BEM
 62
     1
100
AcDbMText
 10
221.356088515354
 20
511.3934804659586
 30
0.0
 40
7.0
 41
0.0
 71
     5
 72
     1
  1
\A1;%%c270
 73
     1
 44
1.0
  0
POINT
  5
102C
330
1011
100
AcDbEntity
  8
DEFPOINTS
 62
     0
100
AcDbPoint
 10
356.3560885153539
 20
589.6562049183262
 30
0.0
  0
POINT
  5
102D
330
1011
100
AcDbEntity
  8
DEFPOINTS
 62
     0
100
AcDbPoint
 10
86.35608851535403
 20
589.6562049183262
 30
0.0
  0
POINT
  5
102E
330
1011
100
AcDbEntity
  8
DEFPOINTS
 62
     0
100
AcDbPoint
 10
86.35608851535403
 20
504.8934804659586
 30
0.0
  0
ENDBLK
  5
101C
330
1011
100
AcDbEntity
  8
0
100
AcDbBlockEnd
  0
ENDSEC
  0
SECTION
  2
ENTITIES
  0
LINE
  5
58
330
1E
100
AcDbEntity
  8
STEMPEL
100
AcDbLine
 10
484.0
 20
830.0000000000002
 30
0.0
 11
484.0
 21
470.0000000000001
 31
0.0
  0
LINE
  5
59
330
1E
100
AcDbEntity
  8
STEMPEL
100
AcDbLine
 10
484.0
 20
470.0000000000001
 30
0.0
 11
584.0
 21
470.0000000000001
 31
0.0
  0
LINE
  5
5A
330
1E
100
AcDbEntity
  8
STEMPEL
100
AcDbLine
 10
484.0000000000001
 20
566.0000000000002
 30
0.0
 11
584.0000000000001
 21
566.0
 31
0.0
  0
LINE
  5
5B
330
1E
100
AcDbEntity
  8
STEMPEL
100
AcDbLine
 10
484.0
 20
650.0
 30
0.0
 11
584.0
 21
650.0
 31
0.0
  0
LINE
  5
5C
330
1E
100
AcDbEntity
  8
STEMPEL
100
AcDbLine
 10
484.0000000000003
 20
752.0000000000002
 30
0.0
 11
554.0
 21
752.0000000000002
 31
0.0
  0
LINE
  5
5D
330
1E
100
AcDbEntity
  8
STEMPEL
100
AcDbLine
 10
564.0
 20
566.0
 30
0.0
 11
564.0
 21
470.0000000000001
 31
0.0
  0
LINE
  5
5E
330
1E
100
AcDbEntity
  8
STEMPEL
100
AcDbLine
 10
554.0
 20
830.0000000000002
 30
0.0
 11
554.0
 21
566.0
 31
0.0
  0
LINE
  5
5F
330
1E
100
AcDbEntity
  8
STEMPEL
100
AcDbLine
 10
514.0
 20
830.0000000000002
 30
0.0
 11
514.0
 21
566.0000000000002
 31
0.0
  0
LINE
  5
60
330
1E
100
AcDbEntity
  8
VOLL
100
AcDbLine
 10
484.0
 20
484.0000000000001
 30
0.0
 11
584.0
 21
484.0
 31
0.0
  0
LINE
  5
61
330
1E
100
AcDbEntity
  8
VOLL
100
AcDbLine
 10
484.0000000000001
 20
524.0000000000001
 30
0.0
 11
584.0000000000001
 21
524.0
 31
0.0
  0
LINE
  5
62
330
1E
100
AcDbEntity
  8
VOLL
100
AcDbLine
 10
484.0000000000001
 20
544.0000000000002
 30
0.0
 11
584.0000000000001
 21
544.0
 31
0.0
  0
LINE
  5
63
330
1E
100
AcDbEntity
  8
VOLL
100
AcDbLine
 10
514.0
 20
584.0000000000002
 30
0.0
 11
554.0
 21
584.0000000000002
 31
0.0
  0
LINE
  5
64
330
1E
100
AcDbEntity
  8
VOLL
100
AcDbLine
 10
484.0000000000002
 20
610.0000000000002
 30
0.0
 11
554.0
 21
610.0
 31
0.0
  0
LINE
  5
65
330
1E
100
AcDbEntity
  8
HILF
100
AcDbLine
 10
494.0
 20
470.0000000000001
 30
0.0
 11
494.0
 21
566.0000000000002
 31
0.0
  0
LINE
  5
66
330
1E
100
AcDbEntity
  8
HILF
100
AcDbLine
 10
504.0
 20
470.0000000000001
 30
0.0
 11
504.0
 21
566.0000000000002
 31
0.0
  0
LINE
  5
67
330
1E
100
AcDbEntity
  8
HILF
100
AcDbLine
 10
514.0
 20
470.0000000000001
 30
0.0
 11
514.0
 21
566.0000000000002
 31
0.0
  0
LINE
  5
68
330
1E
100
AcDbEntity
  8
HILF
100
AcDbLine
 10
524.0
 20
470.0000000000001
 30
0.0
 11
524.0
 21
566.0000000000002
 31
0.0
  0
LINE
  5
69
330
1E
100
AcDbEntity
  8
HILF
100
AcDbLine
 10
534.0
 20
470.0000000000001
 30
0.0
 11
534.0
 21
566.0000000000002
 31
0.0
  0
LINE
  5
6A
330
1E
100
AcDbEntity
  8
HILF
100
AcDbLine
 10
544.0
 20
470.0000000000001
 30
0.0
 11
544.0
 21
566.0000000000002
 31
0.0
  0
LINE
  5
6B
330
1E
100
AcDbEntity
  8
HILF
100
AcDbLine
 10
554.0
 20
470.0000000000001
 30
0.0
 11
554.0
 21
566.0000000000002
 31
0.0
  0
LINE
  5
6C
330
1E
100
AcDbEntity
  8
HILF
100
AcDbLine
 10
524.0
 20
566.0000000000002
 30
0.0
 11
524.0
 21
650.0
 31
0.0
  0
LINE
  5
6D
330
1E
100
AcDbEntity
  8
HILF
100
AcDbLine
 10
534.0
 20
566.0000000000002
 30
0.0
 11
534.0
 21
650.0
 31
0.0
  0
LINE
  5
6E
330
1E
100
AcDbEntity
  8
HILF
100
AcDbLine
 10
544.0
 20
566.0000000000002
 30
0.0
 11
544.0
 21
650.0
 31
0.0
  0
LINE
  5
6F
330
1E
100
AcDbEntity
  8
HILF
100
AcDbLine
 10
509.9624175243587
 20
654.7736801096948
 30
0.0
 11
509.9624175243587
 21
746.6297842514811
 31
0.0
  0
LINE
  5
70
330
1E
100
AcDbEntity
  8
HILF
100
AcDbLine
 10
524.0
 20
654.7736801096948
 30
0.0
 11
524.0
 21
746.6297842514811
 31
0.0
  0
LINE
  5
71
330
1E
100
AcDbEntity
  8
HILF
100
AcDbLine
 10
534.0
 20
654.7736801096948
 30
0.0
 11
534.0
 21
746.6297842514811
 31
0.0
  0
LINE
  5
72
330
1E
100
AcDbEntity
  8
HILF
100
AcDbLine
 10
544.0
 20
654.7736801096948
 30
0.0
 11
544.0
 21
746.6297842514811
 31
0.0
  0
LINE
  5
73
330
1E
100
AcDbEntity
  8
VOLL
100
AcDbLine
 10
534.0
 20
752.0000000000002
 30
0.0
 11
534.0
 21
830.0000000000002
 31
0.0
  0
LINE
  5
74
330
1E
100
AcDbEntity
  8
HILF
100
AcDbLine
 10
510.2201636304418
 20
756.7238616296995
 30
0.0
 11
510.2201636304418
 21
824.858883932673
 31
0.0
  0
LINE
  5
75
330
1E
100
AcDbEntity
  8
HILF
100
AcDbLine
 10
579.1060174197169
 20
654.7736801096948
 30
0.0
 11
579.1060174197169
 21
824.858883932673
 31
0.0
  0
TEXT
  5
76
330
1E
100
AcDbEntity
  8
TEXT
100
AcDbText
 10
575.3261810501587
 20
492.3998239263297
 30
0.0
 40
4.0
  1
Änderung
 50
90.0
 41
0.8
  7
GREEKS
 72
     1
 11
575.3261810501587
 21
503.1426810691868
 31
0.0
100
AcDbText
  0
TEXT
  5
78
330
1E
100
AcDbEntity
  8
TEXT
100
AcDbText
 10
491.5379104912911
 20
573.5163572150376
 30
0.0
 40
5.0
  1
Maßstab
 50
90.0
 41
0.8
  7
GREEKS
100
AcDbText
  0
TEXT
  5
79
330
1E
100
AcDbEntity
  8
TEXT
100
AcDbText
 10
491.4510671988221
 20
654.8779403809009
 30
0.0
 40
5.0
  1
Benennung
 50
90.0
 41
0.8
  7
GREEKS
100
AcDbText
  0
TEXT
  5
7A
330
1E
100
AcDbEntity
  8
TEXT
100
AcDbText
 10
491.6867965462863
 20
756.1787549576343
 30
0.0
 40
5.0
  1
Zeichnungs Nr.
 50
90.0
 41
0.8
  7
GREEKS
100
AcDbText
  0
TEXT
  5
7B
330
1E
100
AcDbEntity
  8
TEXT
100
AcDbText
 10
563.1543942980694
 20
654.7422383911359
 30
0.0
 40
5.0
  1
Bauvorhaben
 50
90.0
 41
0.8
  7
GREEKS
100
AcDbText
  0
TEXT
  5
7C
330
1E
100
AcDbEntity
  8
TEXT
100
AcDbText
 10
520.8188176290003
 20
756.7238616296995
 30
0.0
 40
5.0
  1
Ersatz für:
 50
90.0
 41
0.8
  7
GREEKS
100
AcDbText
  0
TEXT
  5
7D
330
1E
100
AcDbEntity
  8
TEXT
100
AcDbText
 10
580.3453415397281
 20
478.2664110704577
 30
0.0
 40
4.0
  1
Index
 50
180.0
 41
0.8
  7
GREEKS
100
AcDbText
  0
TEXT
  5
7E
330
1E
100
AcDbEntity
  8
TEXT
100
AcDbText
 10
575.3284373066019
 20
529.8990113186978
 30
0.0
 40
4.0
  1
Tag
 50
90.0
 41
0.8
  7
GREEKS
 72
     1
 11
575.3284373066019
 21
533.6323446520311
 31
0.0
100
AcDbText
  0
TEXT
  5
7F
330
1E
100
AcDbEntity
  8
TEXT
100
AcDbText
 10
575.4067578303359
 20
548.9795678138292
 30
0.0
 40
4.0
  1
Name
 50
90.0
 41
0.8
  7
GREEKS
 72
     1
 11
575.4067578303359
 21
555.3033773376387
 31
0.0
100
AcDbText
  0
TEXT
  5
80
330
1E
100
AcDbEntity
  8
TEXT
100
AcDbText
 10
520.6811949877008
 20
592.3311673153651
 30
0.0
 40
4.0
  1
Tag
 50
90.0
 41
0.8
  7
GREEKS
100
AcDbText
  0
TEXT
  5
81
330
1E
100
AcDbEntity
  8
TEXT
100
AcDbText
 10
520.6903890808478
 20
622.4626584226296
 30
0.0
 40
4.0
  1
Name
 50
90.0
 41
0.8
  7
GREEKS
100
AcDbText
  0
TEXT
  5
82
330
1E
100
AcDbEntity
  8
TEXT
100
AcDbText
 10
530.3700963038204
 20
567.5836127167615
 30
0.0
 40
4.0
  1
Gez.
 50
90.0
 41
0.8
  7
GREEKS
100
AcDbText
  0
TEXT
  5
83
330
1E
100
AcDbEntity
  8
TEXT
100
AcDbText
 10
540.3107370857163
 20
567.5515086571672
 30
0.0
 40
4.0
  1
Gepr.
 50
90.0
 41
0.8
  7
GREEKS
100
AcDbText
  0
TEXT
  5
84
330
1E
100
AcDbEntity
  8
TEXT
100
AcDbText
 10
550.470536103502
 20
567.6006777387303
 30
0.0
 40
4.0
  1
Norm.
 50
90.0
 41
0.8
  7
GREEKS
100
AcDbText
  0
TEXT
  5
85
330
1E
100
AcDbEntity
  8
TEXT
100
AcDbText
 10
541.925838221214
 20
757.2400861497007
 30
0.0
 40
5.0
  1
ersetzt durch:
 50
90.0
 41
0.8
  7
GREEKS
100
AcDbText
  0
TEXT
  5
86
330
1E
100
AcDbEntity
  8
TEXT
100
AcDbText
 10
521.0331740347627
 20
568.8693027807324
 30
0.0
 40
4.0
  1
2012
 50
90.0
 41
0.8
  7
GREEKS
100
AcDbText
  0
LINE
  5
87
330
1E
100
AcDbEntity
  8
HILF
100
AcDbLine
 10
594.0
 20
-0.0000000000000568
 30
0.0
 11
594.0
 21
840.0
 31
0.0
  0
LINE
  5
88
330
1E
100
AcDbEntity
  8
HILF
100
AcDbLine
 10
594.0
 20
840.0
 30
0.0
 11
0.0
 21
840.0
 31
0.0
  0
LINE
  5
89
330
1E
100
AcDbEntity
  8
HILF
100
AcDbLine
 10
0.0
 20
840.0
 30
0.0
 11
0.0
 21
0.0
 31
0.0
  0
LINE
  5
8B
330
1E
100
AcDbEntity
  8
STEMPEL
100
AcDbLine
 10
10.0
 20
830.0
 30
0.0
 11
10.0
 21
39.99999999999995
 31
0.0
  0
LINE
  5
8D
330
1E
100
AcDbEntity
  8
STEMPEL
100
AcDbLine
 10
584.0
 20
39.99999999999995
 30
0.0
 11
584.0
 21
830.0
 31
0.0
  0
LINE
  5
8E
330
1E
100
AcDbEntity
  8
STEMPEL
100
AcDbLine
 10
584.0
 20
830.0
 30
0.0
 11
10.0
 21
830.0
 31
0.0
  0
TEXT
  5
8F
330
1E
100
AcDbEntity
  8
TEXT
 62
     1
100
AcDbText
 10
506.6265692434746
 20
655.0390572473189
 30
0.0
 40
7.0
  1
Siebeinheit DN100
 50
90.0
 41
0.8
  7
GREEKS
100
AcDbText
  0
TEXT
  5
90
330
1E
100
AcDbEntity
  8
TEXT
 62
     1
100
AcDbText
 10
506.6265692434746
 20
768.2628088850803
 30
0.0
 40
7.0
  1
17121100W
 50
90.0
 41
0.8
  7
GREEKS
 72
     1
 11
506.6265692434746
 21
790.1294755517469
 31
0.0
100
AcDbText
  0
TEXT
  5
91
330
1E
100
AcDbEntity
  8
TEXT
100
AcDbText
 10
491.16010388621
 20
618.5090226415829
 30
0.0
 40
5.0
  1
Zul.Abw.
 50
90.0
 41
0.8
  7
GREEKS
100
AcDbText
  0
TEXT
  5
93
330
1E
100
AcDbEntity
  8
TEXT
100
AcDbText
 10
530.8491412387978
 20
590.1565237511869
 30
0.0
 40
4.0
  1
29.06.
 50
90.0
 41
0.8
  7
GREEKS
 72
     1
 11
530.8491412387978
 21
597.1660475607107
 31
0.0
100
AcDbText
  0
TEXT
  5
94
330
1E
100
AcDbEntity
  8
TEXT
100
AcDbText
 10
531.0570234483452
 20
624.0231753226609
 30
0.0
 40
4.0
  1
Koeh
 50
90.0
 41
0.8
  7
GREEKS
 72
     1
 11
531.0570234483452
 21
629.2803181798038
 31
0.0
100
AcDbText
  0
TEXT
  5
95
330
1E
100
AcDbEntity
  8
TEXT
100
AcDbText
 10
521.8997861689246
 20
654.3410940884991
 30
0.0
 40
5.0
  1
für Flachdacheinlauf
 50
90.0
 41
0.8
  7
GREEKS
100
AcDbText
  0
TEXT
  5
97
330
1E
100
AcDbEntity
  8
TEXT
100
AcDbText
 10
541.4090266215394
 20
654.3410940884991
 30
0.0
 40
5.0
  1
EDV-Art.Nr. 17121.100X
 50
90.0
 41
0.8
  7
GREEKS
100
AcDbText
  0
TEXT
  5
98
330
1E
100
AcDbEntity
  8
TEXT
100
AcDbText
 10
550.6887237520849
 20
654.1676050109347
 30
0.0
 40
4.0
  1
17121.100X.DWG
 50
90.0
 41
0.8
  7
GREEKS
100
AcDbText
  0
TEXT
  5
99
330
1E
100
AcDbEntity
  8
TEXT
 62
     1
100
AcDbText
 10
506.5292291158502
 20
582.703491203422
 30
0.0
 40
7.0
  1
1:2
 50
90.0
 41
0.8
  7
GREEKS
100
AcDbText
  0
TEXT
  5
9A
330
1E
100
AcDbEntity
  8
TEXT
100
AcDbText
 10
479.8856414948956
 20
470.0441139350127
 30
0.0
 40
5.0
  1
Erstellt mit AUTOCAD 2004
 50
90.0
 41
0.8
  7
GREEKS
100
AcDbText
  0
INSERT
  5
9B
330
1E
100
AcDbEntity
  8
HILF
100
AcDbBlockReference
  2
LORO
 10
557.0194069970104
 20
573.0624985962354
 30
0.0
 41
2.0
 42
2.0
 43
2.0
 50
90.0
  0
LINE
  5
9C
330
1E
100
AcDbEntity
  8
BEM
100
AcDbLine
 10
594.0
 20
455.9999999999999
 30
0.0
 11
584.0
 21
455.9999999999999
 31
0.0
  0
LINE
  5
13E
330
1E
100
AcDbEntity
  8
HILF
100
AcDbLine
 10
594.0
 20
-0.0000000000000568
 30
0.0
 11
0.0
 21
0.0
 31
0.0
  0
LINE
  5
13F
330
1E
100
AcDbEntity
  8
STEMPEL
100
AcDbLine
 10
584.0
 20
39.99999999999995
 30
0.0
 11
10.0
 21
39.99999999999995
 31
0.0
  0
LINE
  5
14A
330
1E
100
AcDbEntity
  8
HILF
100
AcDbLine
 10
297.0
 20
-0.0000000000000568
 30
0.0
 11
297.0
 21
39.99999999999995
 31
0.0
  0
TEXT
  5
15B
330
1E
100
AcDbEntity
  8
BEM
100
AcDbText
 10
583.8320989200114
 20
837.3022923857165
 30
0.0
 40
4.0
  1
Diese Zeichnung ist urheberrechtlich geschützt und bleibt unser Eigentum. Sie darf weder ganz noch teilweise verfielfältigt und nicht an Dritte weitergegeben werden.
 50
180.0
 41
0.8
  7
GREEKS
100
AcDbText
  0
LINE
  5
19C
330
1E
100
AcDbEntity
  8
BEM
100
AcDbLine
 10
0.0
 20
455.9999999999999
 30
0.0
 11
10.0
 21
455.9999999999999
 31
0.0
  0
ARC
  5
316
330
1E
100
AcDbEntity
  8
MITTEL
100
AcDbCircle
 10
221.356088515354
 20
280.3422965254938
 30
0.0
 40
122.0
100
AcDbArc
 50
174.3150541218282
 51
185.6849458781718
  0
LINE
  5
337
330
1E
100
AcDbEntity
  8
MITTEL
100
AcDbLine
 10
361.3560885153538
 20
280.3422965254938
 30
0.0
 11
81.35608851535398
 21
280.3422965254938
 31
0.0
  0
LINE
  5
33A
330
1E
100
AcDbEntity
  8
STEMPEL
100
AcDbLine
 10
287.356088515354
 20
606.1562049183261
 30
0.0
 11
277.356088515354
 21
606.1562049183261
 31
0.0
  0
LINE
  5
33B
330
1E
100
AcDbEntity
  8
STEMPEL
100
AcDbLine
 10
277.356088515354
 20
591.1562049183261
 30
0.0
 11
277.356088515354
 21
606.1562049183261
 31
0.0
  0
LINE
  5
33C
330
1E
100
AcDbEntity
  8
STEMPEL
100
AcDbLine
 10
287.356088515354
 20
591.1562049183261
 30
0.0
 11
287.356088515354
 21
606.1562049183261
 31
0.0
  0
LINE
  5
34D
330
1E
100
AcDbEntity
  8
MITTEL
100
AcDbLine
 10
276.3060885153539
 20
185.1661046495839
 30
0.0
 11
288.4060885153539
 21
164.2082898780005
 31
0.0
  0
ARC
  5
34F
330
1E
100
AcDbEntity
  8
MITTEL
100
AcDbCircle
 10
221.356088515354
 20
280.3422965254938
 30
0.0
 40
122.0
100
AcDbArc
 50
294.3150541218281
 51
305.6849458781718
  0
LINE
  5
350
330
1E
100
AcDbEntity
  8
MITTEL
100
AcDbLine
 10
99.35608851535398
 20
584.6562049183262
 30
0.0
 11
99.356088515354
 21
618.7562049183267
 31
0.0
  0
LINE
  5
351
330
1E
100
AcDbEntity
  8
STEMPEL
100
AcDbLine
 10
101.356088515354
 20
592.1562049183259
 30
0.0
 11
99.35608851535398
 21
591.6203065334636
 31
0.0
  0
LINE
  5
352
330
1E
100
AcDbEntity
  8
STEMPEL
100
AcDbLine
 10
97.35608851535397
 20
592.1562049183259
 30
0.0
 11
99.35608851535398
 21
591.6203065334636
 31
0.0
  0
LINE
  5
353
330
1E
100
AcDbEntity
  8
STEMPEL
100
AcDbLine
 10
101.356088515354
 20
592.1562049183259
 30
0.0
 11
97.35608851535397
 21
592.1562049183259
 31
0.0
  0
LINE
  5
354
330
1E
100
AcDbEntity
  8
STEMPEL
100
AcDbLine
 10
97.35608851535397
 20
592.1562049183258
 30
0.0
 11
97.35608851535401
 21
595.1562049183268
 31
0.0
  0
LINE
  5
355
330
1E
100
AcDbEntity
  8
STEMPEL
100
AcDbLine
 10
101.356088515354
 20
592.1562049183255
 30
0.0
 11
101.356088515354
 21
595.1562049183268
 31
0.0
  0
LINE
  5
356
330
1E
100
AcDbEntity
  8
STEMPEL
100
AcDbLine
 10
102.356088515354
 20
593.1562049183257
 30
0.0
 11
96.35608851535398
 21
593.156204918326
 31
0.0
  0
LINE
  5
357
330
1E
100
AcDbEntity
  8
HILF
100
AcDbLine
 10
102.356088515354
 20
593.156204918326
 30
0.0
 11
102.356088515354
 21
595.7697049183267
 31
0.0
  0
LINE
  5
358
330
1E
100
AcDbEntity
  8
HILF
100
AcDbLine
 10
96.35608851535398
 20
593.156204918326
 30
0.0
 11
96.35608851535398
 21
595.7697049183267
 31
0.0
  0
LINE
  5
359
330
1E
100
AcDbEntity
  8
STEMPEL
100
AcDbLine
 10
104.356088515354
 20
591.156204918326
 30
0.0
 11
104.356088515354
 21
606.156204918326
 31
0.0
  0
LINE
  5
35A
330
1E
100
AcDbEntity
  8
STEMPEL
100
AcDbLine
 10
94.35608851535397
 20
591.156204918326
 30
0.0
 11
94.35608851535397
 21
606.156204918326
 31
0.0
  0
LINE
  5
35B
330
1E
100
AcDbEntity
  8
STEMPEL
100
AcDbLine
 10
104.356088515354
 20
606.156204918326
 30
0.0
 11
94.35608851535397
 21
606.156204918326
 31
0.0
  0
LINE
  5
36A
330
1E
100
AcDbEntity
  8
MITTEL
100
AcDbLine
 10
221.356088515354
 20
420.3422965254937
 30
0.0
 11
221.3560885153539
 21
140.3422965254937
 31
0.0
  0
LINE
  5
36B
330
1E
100
AcDbEntity
  8
STEMPEL
100
AcDbLine
 10
356.3560885153539
 20
591.1562049183268
 30
0.0
 11
86.35608851535405
 21
591.1562049183262
 31
0.0
  0
LINE
  5
626
330
1E
100
AcDbEntity
  8
TEXT
 62
     2
100
AcDbLine
 10
26.4335719794683
 20
477.4636957318553
 30
0.0
 11
129.7069815154268
 21
477.4636957318553
 31
0.0
  0
TEXT
  5
627
330
1E
100
AcDbEntity
  8
TEXT
 62
     1
100
AcDbText
 10
26.69894911709224
 20
480.7995440127394
 30
0.0
 40
7.0
  1
Losflansch DN100
 41
0.8
  7
GREEKS
100
AcDbText
  0
TEXT
  5
628
330
1E
100
AcDbEntity
  8
TEXT
 62
     1
100
AcDbText
 10
26.69894911709224
 20
467.5230184623734
 30
0.0
 40
7.0
  1
EDV-Art.Nr. 17014.100X
 41
0.8
  7
GREEKS
100
AcDbText
  0
DIMENSION
  5
855
330
1E
100
AcDbEntity
  8
BEM
100
AcDbDimension
  2
*D2
 10
65.6948285202786
 20
696.1562049183251
 30
0.0
 11
59.19482852027849
 21
651.1562049183255
 31
0.0
 70
    32
 71
     5
 42
89.9999999999992
  3
Standard
100
AcDbAlignedDimension
 13
91.35608851535417
 23
606.156204918326
 33
0.0
 14
141.3560885153541
 24
696.1562049183251
 34
0.0
 50
90.0
100
AcDbRotatedDimension
1001
ACAD
1000
DSTYLE
1002
{
1070
    40
1040
2.0
1070
    41
1040
3.5
1070
    42
1040
1.0
1070
    43
1040
7.0
1070
    44
1040
1.0
1070
    73
1070
     0
1070
    74
1070
     0
1070
    77
1070
     1
1070
    78
1070
     8
1070
    79
1070
     2
1070
   140
1040
3.5
1070
   141
1040
1.5
1070
   146
1040
0.5142857142857144
1070
   147
1040
1.5
1070
   172
1070
     1
1070
   178
1070
     1
1070
   179
1070
     2
1070
   271
1070
     2
1070
   272
1070
     2
1070
   284
1070
     8
1070
   285
1070
     8
1070
   286
1070
     8
1002
}
  0
DIMENSION
  5
856
330
1E
100
AcDbEntity
  8
BEM
100
AcDbDimension
  2
*D3
 10
331.3560885153544
 20
711.8951733342754
 30
0.0
 11
221.3560885153543
 21
718.3951733342754
 31
0.0
 70
    32
  1
%%c<>
 71
     5
 42
220.0000000000002
  3
Standard
100
AcDbAlignedDimension
 13
111.3560885153541
 23
676.1561469510104
 33
0.0
 14
331.3560885153544
 24
676.1561469510104
 34
0.0
100
AcDbRotatedDimension
1001
ACAD
1000
DSTYLE
1002
{
1070
    40
1040
2.0
1070
    41
1040
3.5
1070
    42
1040
1.0
1070
    43
1040
7.0
1070
    44
1040
1.0
1070
    73
1070
     0
1070
    74
1070
     0
1070
    77
1070
     1
1070
    78
1070
     8
1070
    79
1070
     2
1070
   140
1040
3.5
1070
   141
1040
1.5
1070
   146
1040
0.5142857142857144
1070
   147
1040
1.5
1070
   172
1070
     1
1070
   178
1070
     1
1070
   179
1070
     2
1070
   271
1070
     2
1070
   272
1070
     2
1070
   284
1070
     8
1070
   285
1070
     8
1070
   286
1070
     8
1002
}
  0
LINE
  5
950
330
1E
100
AcDbEntity
  8
MITTEL
100
AcDbLine
 10
221.3560885153543
 20
701.1562049183246
 30
0.0
 11
221.3560885153539
 21
534.6562049183263
 31
0.0
  0
DIMENSION
  5
A03
330
1E
100
AcDbEntity
  8
BEM
100
AcDbDimension
  2
*D4
 10
65.69482852027857
 20
591.1562049183261
 30
0.0
 11
59.19482852027848
 21
598.656204918326
 31
0.0
 70
    32
 71
     5
 42
14.99999999999988
  3
Standard
100
AcDbAlignedDimension
 13
91.35608851535394
 23
606.156204918326
 33
0.0
 14
86.35608851535399
 24
591.1562049183261
 34
0.0
 50
90.0
100
AcDbRotatedDimension
1001
ACAD
1000
DSTYLE
1002
{
1070
    40
1040
2.0
1070
    41
1040
3.5
1070
    42
1040
1.0
1070
    43
1040
7.0
1070
    44
1040
1.0
1070
    73
1070
     0
1070
    74
1070
     0
1070
    77
1070
     1
1070
    78
1070
     8
1070
    79
1070
     2
1070
   140
1040
3.5
1070
   141
1040
1.5
1070
   146
1040
0.5142857142857144
1070
   147
1040
1.5
1070
   172
1070
     1
1070
   178
1070
     1
1070
   179
1070
     2
1070
   271
1070
     2
1070
   272
1070
     2
1070
   284
1070
     8
1070
   285
1070
     8
1070
   286
1070
     8
1002
}
  0
LINE
  5
A9E
330
1E
100
AcDbEntity
  8
STEMPEL
100
AcDbLine
 10
330.0104207306346
 20
243.4541400135286
 30
0.0
 11
325.616468464095
 21
245.2741746347491
 31
0.0
  0
LINE
  5
A9F
330
1E
100
AcDbEntity
  8
STEMPEL
100
AcDbLine
 10
333.8975787010087
 20
257.9612110559968
 30
0.0
 11
329.1822871045549
 21
258.5819909715226
 31
0.0
  0
ARC
  5
AA0
330
1E
100
AcDbEntity
  8
STEMPEL
100
AcDbCircle
 10
327.1402949878972
 20
236.5250435196927
 30
0.0
 40
7.499999999999842
100
AcDbArc
 50
247.5000000000007
 51
67.5000000000098
  0
LINE
  5
AA1
330
1E
100
AcDbEntity
  8
STEMPEL
100
AcDbLine
 10
335.8554715843048
 20
272.8328839766043
 30
0.0
 11
331.1401799878552
 21
273.45366389213
 31
0.0
  0
LINE
  5
AA2
330
1E
100
AcDbEntity
  8
STEMPEL
100
AcDbLine
 10
335.8554715843085
 20
287.8517090743896
 30
0.0
 11
331.1401799878549
 21
287.2309291588633
 31
0.0
  0
ARC
  5
AA3
330
1E
100
AcDbEntity
  8
STEMPEL
100
AcDbCircle
 10
334.8765251426558
 20
265.3970475162996
 30
0.0
 40
7.499999999999842
100
AcDbArc
 50
262.4999999999993
 51
82.50000000001104
  0
LINE
  5
AA4
330
1E
100
AcDbEntity
  8
STEMPEL
100
AcDbLine
 10
324.2701692451556
 20
331.0886460251336
 30
0.0
 11
319.8762169786164
 21
329.2686114039128
 31
0.0
  0
LINE
  5
AA5
330
1E
100
AcDbEntity
  8
STEMPEL
100
AcDbLine
 10
333.8975787010033
 20
302.7233819949959
 30
0.0
 11
329.1822871045534
 21
302.1026020794705
 31
0.0
  0
ARC
  5
AA6
330
1E
100
AcDbEntity
  8
STEMPEL
100
AcDbCircle
 10
327.1402949878956
 20
324.1595495312985
 30
0.0
 40
7.499999999999842
100
AcDbArc
 50
292.5000000000011
 51
112.5000000000107
  0
LINE
  5
AA7
330
1E
100
AcDbEntity
  8
STEMPEL
100
AcDbLine
 10
330.0104207306365
 20
317.2304530374662
 30
0.0
 11
325.6164684640932
 21
315.4104184162438
 31
0.0
  0
LINE
  5
AA8
330
1E
100
AcDbEntity
  8
STEMPEL
100
AcDbLine
 10
316.7607566962668
 20
344.0953300948129
 30
0.0
 11
312.9875843452493
 21
341.2000731195811
 31
0.0
  0
ARC
  5
AA9
330
1E
100
AcDbEntity
  8
STEMPEL
100
AcDbCircle
 10
312.1950459786993
 20
350.0454801469942
 30
0.0
 40
7.499999999999842
100
AcDbArc
 50
307.5000000000023
 51
127.5000000000119
  0
LINE
  5
AAA
330
1E
100
AcDbEntity
  8
STEMPEL
100
AcDbLine
 10
307.6293352611319
 20
355.9956301991782
 30
0.0
 11
303.8561629101184
 21
353.1003732239492
 31
0.0
  0
ARC
  5
AAC
330
1E
100
AcDbEntity
  8
STEMPEL
100
AcDbCircle
 10
334.876525142655
 20
295.2875455346915
 30
0.0
 40
7.499999999999842
100
AcDbArc
 50
277.5000000000002
 51
97.50000000001179
  0
LINE
  5
AAD
330
1E
100
AcDbEntity
  8
STEMPEL
100
AcDbLine
 10
307.6293352611396
 20
204.6889628518111
 30
0.0
 11
303.8561629101222
 21
207.584219827043
 31
0.0
  0
LINE
  5
AAE
330
1E
100
AcDbEntity
  8
STEMPEL
100
AcDbLine
 10
297.0094221890384
 20
194.0690497797154
 30
0.0
 11
294.1141652138091
 21
197.8422221307291
 31
0.0
  0
LINE
  5
AB0
330
1E
100
AcDbEntity
  8
STEMPEL
100
AcDbLine
 10
285.1091220846728
 20
184.9376283445808
 30
0.0
 11
282.213865109441
 21
188.7108006955978
 31
0.0
  0
ARC
  5
AB2
330
1E
100
AcDbEntity
  8
STEMPEL
100
AcDbCircle
 10
291.0592721368544
 20
189.5033390621482
 30
0.0
 40
7.499999999999842
100
AcDbArc
 50
217.499999999999
 51
37.5000000000119
  0
ARC
  5
AB3
330
1E
100
AcDbEntity
  8
STEMPEL
100
AcDbCircle
 10
224.5810885153395
 20
275.9258581417926
 30
0.0
 40
1.099999999999931
100
AcDbArc
 50
179.9999999999994
 51
359.9999999999995
  0
ARC
  5
AB4
330
1E
100
AcDbEntity
  8
STEMPEL
100
AcDbCircle
 10
219.4310885153396
 20
275.6758581417927
 30
0.0
 40
4.050000000000011
100
AcDbArc
 50
279.9999999999994
 51
308.6930109383305
  0
LINE
  5
AB5
330
1E
100
AcDbEntity
  8
STEMPEL
100
AcDbLine
 10
217.4480913449317
 20
271.235158592982
 30
0.0
 11
220.122117495929
 21
271.6852764185045
 31
0.0
  0
ARC
  5
AB6
330
1E
100
AcDbEntity
  8
STEMPEL
100
AcDbCircle
 10
224.5810885153395
 20
275.9258581417926
 30
0.0
 40
4.299999999999931
100
AcDbArc
 50
232.4919601629188
 51
359.9999999999995
  0
LINE
  5
AB7
330
1E
100
AcDbEntity
  8
STEMPEL
100
AcDbLine
 10
217.0310885153396
 20
270.7420952403545
 30
0.0
 11
217.0310885153396
 21
269.6837798691288
 31
0.0
  0
CIRCLE
  5
AB8
330
1E
100
AcDbEntity
  8
STEMPEL
100
AcDbCircle
 10
221.3560885153395
 20
263.5258581417926
 30
0.0
 40
4.324999999999954
  0
ARC
  5
AB9
330
1E
100
AcDbEntity
  8
STEMPEL
100
AcDbCircle
 10
217.5310885153396
 20
270.7420952403546
 30
0.0
 40
0.5
100
AcDbArc
 50
99.55500261065774
 51
179.9999999999994
  0
ARC
  5
ABA
330
1E
100
AcDbEntity
  8
STEMPEL
100
AcDbCircle
 10
221.3560885153395
 20
263.5258581417926
 30
0.0
 40
7.524999999999954
100
AcDbArc
 50
179.9999999999994
 51
125.0821845754585
  0
ARC
  5
ABB
330
1E
100
AcDbEntity
  8
STEMPEL
100
AcDbCircle
 10
227.8810885153395
 20
281.9258581417927
 30
0.0
 40
1.0
100
AcDbArc
 50
359.9999999999995
 51
89.99999999999944
  0
LINE
  5
ABC
330
1E
100
AcDbEntity
  8
STEMPEL
100
AcDbLine
 10
227.8810885153395
 20
282.9258581417926
 30
0.0
 11
224.9707288847262
 21
282.9258581417926
 31
0.0
  0
ARC
  5
ABD
330
1E
100
AcDbEntity
  8
STEMPEL
100
AcDbCircle
 10
219.4310885153396
 20
275.6758581417927
 30
0.0
 40
0.8500000000000111
100
AcDbArc
 50
279.9999999999994
 51
359.9999999999995
  0
LINE
  5
ABE
330
1E
100
AcDbEntity
  8
STEMPEL
100
AcDbLine
 10
216.2837105869753
 20
274.2841779204189
 30
0.0
 11
219.5909356053182
 21
274.8408818753205
 31
0.0
  0
LINE
  5
ABF
330
1E
100
AcDbEntity
  8
STEMPEL
100
AcDbLine
 10
220.2810885153394
 20
279.7258581417925
 30
0.0
 11
215.4310885153395
 21
279.7258581417924
 31
0.0
  0
LINE
  5
AC0
330
1E
100
AcDbEntity
  8
STEMPEL
100
AcDbLine
 10
220.2810885153394
 20
279.7258581417925
 30
0.0
 11
220.2810885153394
 21
275.6758581417926
 31
0.0
  0
LINE
  5
AC1
330
1E
100
AcDbEntity
  8
STEMPEL
100
AcDbLine
 10
225.6810885153395
 20
279.7258581417925
 30
0.0
 11
223.4810885153395
 21
279.7258581417924
 31
0.0
  0
LINE
  5
AC2
330
1E
100
AcDbEntity
  8
STEMPEL
100
AcDbLine
 10
217.7414481459529
 20
282.9258581417926
 30
0.0
 11
215.4310885153396
 21
282.9258581417924
 31
0.0
  0
ARC
  5
AC3
330
1E
100
AcDbEntity
  8
STEMPEL
100
AcDbCircle
 10
221.3560885153395
 20
289.5258581417927
 30
0.0
 40
7.524999999999954
100
AcDbArc
 50
179.9999999999994
 51
241.2916789772534
  0
ARC
  5
AC4
330
1E
100
AcDbEntity
  8
STEMPEL
100
AcDbCircle
 10
215.4310885153395
 20
281.3258581417926
 30
0.0
 40
1.600000000000022
100
AcDbArc
 50
89.99999999999944
 51
269.9999999999995
  0
ARC
  5
AC5
330
1E
100
AcDbEntity
  8
STEMPEL
100
AcDbCircle
 10
216.7810885153397
 20
271.3918458889644
 30
0.0
 40
2.95
100
AcDbArc
 50
99.99999999999936
 51
179.9999999999994
  0
LINE
  5
AC6
330
1E
100
AcDbEntity
  8
SCHRAFF
 62
     3
100
AcDbLine
 10
217.0310885153397
 20
300.8058581417925
 30
0.0
 11
217.0310885153396
 21
297.9258581417925
 31
0.0
  0
ARC
  5
AC7
330
1E
100
AcDbEntity
  8
STEMPEL
100
AcDbCircle
 10
217.5310885153397
 20
300.8058581417925
 30
0.0
 40
0.5
100
AcDbArc
 50
89.99999999999944
 51
179.9999999999994
  0
LINE
  5
AC8
330
1E
100
AcDbEntity
  8
STEMPEL
100
AcDbLine
 10
217.0310885153396
 20
297.9258581417925
 30
0.0
 11
217.0310885153396
 21
295.6837798691278
 31
0.0
  0
ARC
  5
AC9
330
1E
100
AcDbEntity
  8
STEMPEL
100
AcDbCircle
 10
216.7810885153396
 20
301.5558581417926
 30
0.0
 40
2.95
100
AcDbArc
 50
89.99999999999944
 51
179.9999999999994
  0
LINE
  5
ACA
330
1E
100
AcDbEntity
  8
SCHRAFF
 62
     3
100
AcDbLine
 10
213.8310885153397
 20
301.5558581417923
 30
0.0
 11
213.8310885153396
 21
298.6758581417926
 31
0.0
  0
LINE
  5
ACB
330
1E
100
AcDbEntity
  8
STEMPEL
100
AcDbLine
 10
213.8310885153396
 20
298.6758581417926
 30
0.0
 11
213.8310885153397
 21
289.5258581417926
 31
0.0
  0
CIRCLE
  5
ACC
330
1E
100
AcDbEntity
  8
STEMPEL
100
AcDbCircle
 10
221.3560885153395
 20
289.5258581417927
 30
0.0
 40
4.324999999999954
  0
ARC
  5
ACD
330
1E
100
AcDbEntity
  8
STEMPEL
100
AcDbCircle
 10
221.3560885153395
 20
289.5258581417927
 30
0.0
 40
7.524999999999954
100
AcDbArc
 50
298.7083210227461
 51
125.082184575465
  0
LINE
  5
ACE
330
1E
100
AcDbEntity
  8
STEMPEL
100
AcDbLine
 10
227.2810885153396
 20
301.3058581417924
 30
0.0
 11
217.5310885153396
 21
301.3058581417924
 31
0.0
  0
LINE
  5
ACF
330
1E
100
AcDbEntity
  8
STEMPEL
100
AcDbLine
 10
227.2810885153396
 20
304.5058581417925
 30
0.0
 11
216.7810885153396
 21
304.5058581417925
 31
0.0
  0
ARC
  5
AD0
330
1E
100
AcDbEntity
  8
STEMPEL
100
AcDbCircle
 10
227.2810885153395
 20
302.9058581417926
 30
0.0
 40
1.600000000000022
100
AcDbArc
 50
269.9999999999995
 51
89.99999999999944
  0
LINE
  5
AD1
330
1E
100
AcDbEntity
  8
STEMPEL
100
AcDbLine
 10
225.6810885153395
 20
279.7258581417925
 30
0.0
 11
225.6810885153393
 21
275.9258581417924
 31
0.0
  0
LINE
  5
AD2
330
1E
100
AcDbEntity
  8
STEMPEL
100
AcDbLine
 10
223.4810885153395
 20
279.7258581417924
 30
0.0
 11
223.4810885153394
 21
275.9258581417924
 31
0.0
  0
LINE
  5
AD3
330
1E
100
AcDbEntity
  8
STEMPEL
100
AcDbLine
 10
228.8810885153395
 20
281.9258581417926
 30
0.0
 11
228.8810885153395
 21
275.9258581417924
 31
0.0
  0
LINE
  5
AD4
330
1E
100
AcDbEntity
  8
STEMPEL
100
AcDbLine
 10
213.8310885153396
 20
271.3918458889645
 30
0.0
 11
213.8310885153396
 21
263.5258581417926
 31
0.0
  0
LINE
  5
AD6
330
1E
100
AcDbEntity
  8
STEMPEL
100
AcDbLine
 10
316.7607566962665
 20
216.5892629561827
 30
0.0
 11
312.9875843452525
 21
219.4845199314114
 31
0.0
  0
ARC
  5
AD7
330
1E
100
AcDbEntity
  8
STEMPEL
100
AcDbCircle
 10
312.1950459787016
 20
210.6391129039968
 30
0.0
 40
7.499999999999842
100
AcDbArc
 50
232.4999999999985
 51
52.50000000001303
  0
LINE
  5
AD8
330
1E
100
AcDbEntity
  8
STEMPEL
100
AcDbLine
 10
324.2701692451624
 20
229.5959470258574
 30
0.0
 11
319.8762169786192
 21
231.4159816470797
 31
0.0
  0
LINE
  5
ADA
330
1E
100
AcDbEntity
  8
STEMPEL
100
AcDbLine
 10
285.1091220846649
 20
375.7469647064065
 30
0.0
 11
282.2138651094359
 21
371.9737923553926
 31
0.0
  0
LINE
  5
ADB
330
1E
100
AcDbEntity
  8
STEMPEL
100
AcDbLine
 10
297.0094221890363
 20
366.6155432712798
 30
0.0
 11
294.1141652138048
 21
362.8423709202624
 31
0.0
  0
ARC
  5
ADC
330
1E
100
AcDbEntity
  8
STEMPEL
100
AcDbCircle
 10
291.0592721368506
 20
371.1812539888416
 30
0.0
 40
7.499999999999842
100
AcDbArc
 50
322.5000000000027
 51
142.5000000000118
  0
LINE
  5
ADD
330
1E
100
AcDbEntity
  8
STEMPEL
100
AcDbLine
 10
258.2442450273183
 20
388.9966287407741
 30
0.0
 11
256.4242104060979
 21
384.6026764742347
 31
0.0
  0
ARC
  5
ADE
330
1E
100
AcDbEntity
  8
STEMPEL
100
AcDbCircle
 10
265.1733415211547
 20
386.1265029980372
 30
0.0
 40
7.499999999999842
100
AcDbArc
 50
337.5000000000007
 51
157.5000000000124
  0
LINE
  5
ADF
330
1E
100
AcDbEntity
  8
STEMPEL
100
AcDbLine
 10
243.7371739848503
 20
392.8837867111488
 30
0.0
 11
243.1163940693247
 21
388.168495114695
 31
0.0
  0
LINE
  5
AE0
330
1E
100
AcDbEntity
  8
STEMPEL
100
AcDbLine
 10
272.1024380149895
 20
383.2563772553026
 30
0.0
 11
270.2824033937673
 21
378.862424988759
 31
0.0
  0
ARC
  5
AE6
330
1E
100
AcDbEntity
  8
STEMPEL
100
AcDbCircle
 10
236.3013375245476
 20
393.8627331527958
 30
0.0
 40
7.499999999999842
100
AcDbArc
 50
352.4999999999993
 51
172.5000000000105
  0
LINE
  5
AE9
330
1E
100
AcDbEntity
  8
STEMPEL
100
AcDbLine
 10
213.8466759664577
 20
394.8416795944485
 30
0.0
 11
214.467455881984
 21
390.1263879979944
 31
0.0
  0
LINE
  5
AEA
330
1E
100
AcDbEntity
  8
STEMPEL
100
AcDbLine
 10
198.9750030458513
 20
392.8837867111427
 30
0.0
 11
199.595782961377
 21
388.1684951146933
 31
0.0
  0
LINE
  5
AEB
330
1E
100
AcDbEntity
  8
STEMPEL
100
AcDbLine
 10
184.4679320033811
 20
388.9966287407765
 30
0.0
 11
186.2879666246035
 21
384.6026764742332
 31
0.0
  0
ARC
  5
AEC
330
1E
100
AcDbEntity
  8
STEMPEL
100
AcDbCircle
 10
206.4108395061559
 20
393.8627331527952
 30
0.0
 40
7.499999999999842
100
AcDbArc
 50
7.500000000001505
 51
187.5000000000148
  0
LINE
  5
AED
330
1E
100
AcDbEntity
  8
STEMPEL
100
AcDbLine
 10
170.6097390157138
 20
383.2563772552957
 30
0.0
 11
172.4297736369344
 21
378.8624249887564
 31
0.0
  0
ARC
  5
AEF
330
1E
100
AcDbEntity
  8
STEMPEL
100
AcDbCircle
 10
177.5388355095487
 20
386.126502998036
 30
0.0
 40
7.499999999999842
100
AcDbArc
 50
22.50000000000102
 51
202.5000000000144
  0
LINE
  5
AF1
330
1E
100
AcDbEntity
  8
STEMPEL
100
AcDbLine
 10
228.8655010642425
 20
394.8416795944445
 30
0.0
 11
228.2447211487173
 21
390.1263879979951
 31
0.0
  0
CIRCLE
  5
B41
330
1E
100
AcDbEntity
  8
STEMPEL
100
AcDbCircle
 10
221.3560885153537
 20
280.3422965254937
 30
0.0
 40
129.9999999999895
  0
CIRCLE
  5
B42
330
1E
100
AcDbEntity
  8
STEMPEL
100
AcDbCircle
 10
221.3560885153537
 20
280.3422965254937
 30
0.0
 40
110.0
  0
CIRCLE
  5
B43
330
1E
100
AcDbEntity
  8
HILF
100
AcDbCircle
 10
221.356088515354
 20
280.3422965254938
 30
0.0
 40
81.62197558178423
  0
LINE
  5
B44
330
1E
100
AcDbEntity
  8
STEMPEL
100
AcDbLine
 10
118.4420077855566
 20
331.0886460251793
 30
0.0
 11
122.8359600520948
 21
329.2686114039558
 31
0.0
  0
ARC
  5
B45
330
1E
100
AcDbEntity
  8
STEMPEL
100
AcDbCircle
 10
130.517131052024
 20
350.0454801470325
 30
0.0
 40
7.499999999999842
100
AcDbArc
 50
52.49999999995196
 51
232.4999999999652
  0
LINE
  5
B46
330
1E
100
AcDbEntity
  8
STEMPEL
100
AcDbLine
 10
135.0828417695949
 20
355.9956301992138
 30
0.0
 11
138.8560141206069
 21
353.1003732239826
 31
0.0
  0
LINE
  5
B47
330
1E
100
AcDbEntity
  8
STEMPEL
100
AcDbLine
 10
125.9514203344533
 20
344.0953300948537
 30
0.0
 11
129.724592685469
 21
341.2000731196197
 31
0.0
  0
ARC
  5
B48
330
1E
100
AcDbEntity
  8
STEMPEL
100
AcDbCircle
 10
115.5718820428125
 20
324.1595495313458
 30
0.0
 40
7.499999999999842
100
AcDbArc
 50
67.49999999995627
 51
247.4999999999675
  0
LINE
  5
B4C
330
1E
100
AcDbEntity
  8
STEMPEL
100
AcDbLine
 10
106.8567054463786
 20
287.851709074442
 30
0.0
 11
111.5719970428322
 21
287.2309291589131
 31
0.0
  0
LINE
  5
B4D
330
1E
100
AcDbEntity
  8
STEMPEL
100
AcDbLine
 10
112.7017563000677
 20
317.2304530375151
 30
0.0
 11
117.0957085666098
 21
315.4104184162902
 31
0.0
  0
ARC
  5
B4E
330
1E
100
AcDbEntity
  8
STEMPEL
100
AcDbCircle
 10
107.8356518880363
 20
295.2875455347435
 30
0.0
 40
7.499999999999842
100
AcDbArc
 50
82.49999999995436
 51
262.4999999999661
  0
LINE
  5
B4F
330
1E
100
AcDbEntity
  8
STEMPEL
100
AcDbLine
 10
108.814598329693
 20
302.7233819950474
 30
0.0
 11
113.5298899261423
 21
302.1026020795189
 31
0.0
  0
ARC
  5
B50
330
1E
100
AcDbEntity
  8
STEMPEL
100
AcDbCircle
 10
107.8356518880187
 20
265.3970475163516
 30
0.0
 40
7.499999999999842
100
AcDbArc
 50
97.49999999995496
 51
277.499999999964
  0
LINE
  5
B51
330
1E
100
AcDbEntity
  8
STEMPEL
100
AcDbLine
 10
108.8145983296609
 20
257.961211056048
 30
0.0
 11
113.5298899261151
 21
258.5819909715711
 31
0.0
  0
LINE
  5
B52
330
1E
100
AcDbEntity
  8
STEMPEL
100
AcDbLine
 10
106.8567054463737
 20
272.8328839766568
 30
0.0
 11
111.5719970428237
 21
273.4536638921795
 31
0.0
  0
LINE
  5
B53
330
1E
100
AcDbEntity
  8
STEMPEL
100
AcDbLine
 10
213.8466759663668
 20
165.8429134565289
 30
0.0
 11
214.4674558818957
 21
170.5582050529821
 31
0.0
  0
ARC
  5
B54
330
1E
100
AcDbEntity
  8
STEMPEL
100
AcDbCircle
 10
236.3013375244571
 20
166.8218598981691
 30
0.0
 40
7.499999999999842
100
AcDbArc
 50
187.4999999999537
 51
7.499999999968249
  0
LINE
  5
B55
330
1E
100
AcDbEntity
  8
STEMPEL
100
AcDbLine
 10
228.8655010641517
 20
165.8429134565242
 30
0.0
 11
228.2447211486291
 21
170.5582050529741
 31
0.0
  0
LINE
  5
B56
330
1E
100
AcDbEntity
  8
STEMPEL
100
AcDbLine
 10
243.7371739847606
 20
167.8008063398114
 30
0.0
 11
243.1163940692372
 21
172.5160979362657
 31
0.0
  0
ARC
  5
B57
330
1E
100
AcDbEntity
  8
STEMPEL
100
AcDbCircle
 10
151.6529048937763
 20
189.5033390621744
 30
0.0
 40
7.499999999999842
100
AcDbArc
 50
142.4999999999549
 51
322.4999999999665
  0
LINE
  5
B58
330
1E
100
AcDbEntity
  8
STEMPEL
100
AcDbLine
 10
112.701756300027
 20
243.4541400135778
 30
0.0
 11
117.0957085665674
 21
245.2741746347956
 31
0.0
  0
ARC
  5
B59
330
1E
100
AcDbEntity
  8
STEMPEL
100
AcDbCircle
 10
115.5718820427601
 20
236.5250435197399
 30
0.0
 40
7.499999999999842
100
AcDbArc
 50
112.4999999999548
 51
292.4999999999645
  0
LINE
  5
B5A
330
1E
100
AcDbEntity
  8
STEMPEL
100
AcDbLine
 10
118.4420077854906
 20
229.5959470259032
 30
0.0
 11
122.8359600520352
 21
231.415981647123
 31
0.0
  0
LINE
  5
B5B
330
1E
100
AcDbEntity
  8
STEMPEL
100
AcDbLine
 10
135.0828417694992
 20
204.688962851847
 30
0.0
 11
138.8560141205184
 21
207.5842198270763
 31
0.0
  0
ARC
  5
B5C
330
1E
100
AcDbEntity
  8
STEMPEL
100
AcDbCircle
 10
130.5171310519408
 20
210.6391129040351
 30
0.0
 40
7.499999999999842
100
AcDbArc
 50
127.499999999956
 51
307.4999999999657
  0
LINE
  5
B5D
330
1E
100
AcDbEntity
  8
STEMPEL
100
AcDbLine
 10
145.7027548415946
 20
194.069049779745
 30
0.0
 11
148.5980118168259
 21
197.8422221307573
 31
0.0
  0
LINE
  5
B5E
330
1E
100
AcDbEntity
  8
STEMPEL
100
AcDbLine
 10
125.9514203343793
 20
216.5892629562238
 30
0.0
 11
129.7245926853949
 21
219.4845199314504
 31
0.0
  0
ARC
  5
B5F
330
1E
100
AcDbEntity
  8
STEMPEL
100
AcDbCircle
 10
177.5388355094631
 20
174.5580900529628
 30
0.0
 40
7.499999999999842
100
AcDbArc
 50
157.4999999999557
 51
337.4999999999674
  0
LINE
  5
B60
330
1E
100
AcDbEntity
  8
STEMPEL
100
AcDbLine
 10
157.6030549459548
 20
184.9376283446037
 30
0.0
 11
160.4983119211887
 21
188.7108006956191
 31
0.0
  0
LINE
  5
B61
330
1E
100
AcDbEntity
  8
STEMPEL
100
AcDbLine
 10
170.6097390156298
 20
177.4282157957068
 30
0.0
 11
172.4297736368527
 21
181.822168062245
 31
0.0
  0
ARC
  5
B62
330
1E
100
AcDbEntity
  8
STEMPEL
100
AcDbCircle
 10
206.4108395060653
 20
166.8218598981867
 30
0.0
 40
7.499999999999842
100
AcDbArc
 50
172.4999999999569
 51
352.4999999999661
  0
LINE
  5
B63
330
1E
100
AcDbEntity
  8
STEMPEL
100
AcDbLine
 10
184.4679320032936
 20
171.6879643102181
 30
0.0
 11
186.2879666245185
 21
176.0819165767602
 31
0.0
  0
LINE
  5
B64
330
1E
100
AcDbEntity
  8
STEMPEL
100
AcDbLine
 10
198.9750030457616
 20
167.8008063398426
 30
0.0
 11
199.5957829612899
 21
172.5160979362921
 31
0.0
  0
ARC
  5
B65
330
1E
100
AcDbEntity
  8
STEMPEL
100
AcDbCircle
 10
151.6529048938845
 20
371.1812539888683
 30
0.0
 40
7.499999999999842
100
AcDbArc
 50
37.4999999999524
 51
217.4999999999658
  0
LINE
  5
B66
330
1E
100
AcDbEntity
  8
STEMPEL
100
AcDbLine
 10
157.6030549460732
 20
375.7469647064293
 30
0.0
 11
160.4983119212999
 21
371.9737923554137
 31
0.0
  0
LINE
  5
B67
330
1E
100
AcDbEntity
  8
STEMPEL
100
AcDbLine
 10
145.7027548416965
 20
366.6155432713093
 30
0.0
 11
148.5980118169258
 21
362.8423709202902
 31
0.0
  0
LINE
  5
B68
330
1E
100
AcDbEntity
  8
STEMPEL
100
AcDbLine
 10
258.2442450272308
 20
171.6879643101773
 30
0.0
 11
256.4242104060128
 21
176.0819165767177
 31
0.0
  0
ARC
  5
B69
330
1E
100
AcDbEntity
  8
STEMPEL
100
AcDbCircle
 10
265.1733415210686
 20
174.5580900529102
 30
0.0
 40
7.499999999999842
100
AcDbArc
 50
202.4999999999548
 51
22.49999999996777
  0
LINE
  5
B6A
330
1E
100
AcDbEntity
  8
STEMPEL
100
AcDbLine
 10
272.1024380148846
 20
177.4282157956527
 30
0.0
 11
270.2824033936772
 21
181.822168062202
 31
0.0
  0
TEXT
  5
B78
330
1E
100
AcDbEntity
  8
TEXT
 62
     1
100
AcDbText
 10
365.8796824101248
 20
658.4520787414527
 30
0.0
 40
7.0
  1
EDV-Art.Nr. 21004.000X
 41
0.8
  7
GREEKS
100
AcDbText
  0
TEXT
  5
B79
330
1E
100
AcDbEntity
  8
TEXT
 62
     1
100
AcDbText
 10
365.8796824101248
 20
671.7286042918186
 30
0.0
 40
7.0
  1
Siebkorb
 41
0.8
  7
GREEKS
100
AcDbText
  0
LINE
  5
B7A
330
1E
100
AcDbEntity
  8
TEXT
 62
     2
100
AcDbLine
 10
365.6143052725008
 20
668.3927560109346
 30
0.0
 11
468.8877148084593
 21
668.3927560109346
 31
0.0
  0
POINT
  5
BA8
330
1E
100
AcDbEntity
  8
1
 62
     0
100
AcDbPoint
 10
282.3560885153539
 20
174.6871972637922
 30
0.0
  0
CIRCLE
  5
BA9
330
1E
100
AcDbEntity
  8
STEMPEL
100
AcDbCircle
 10
282.3560885153539
 20
174.6871972637922
 30
0.0
 40
5.000000000000018
  0
CIRCLE
  5
BAD
330
1E
100
AcDbEntity
  8
HILF
100
AcDbCircle
 10
282.3560885153539
 20
174.6871972637922
 30
0.0
 40
6.738111078829117
  0
CIRCLE
  5
BAE
330
1E
100
AcDbEntity
  8
STEMPEL
100
AcDbCircle
 10
282.3560885153539
 20
174.6871972637922
 30
0.0
 40
7.099999999999999
  0
LINE
  5
BB0
330
1E
100
AcDbEntity
  8
STEMPEL
100
AcDbLine
 10
279.4693371694058
 20
169.6871972637922
 30
0.0
 11
276.5825858234577
 21
174.6871972637922
 31
0.0
  0
LINE
  5
BB1
330
1E
100
AcDbEntity
  8
STEMPEL
100
AcDbLine
 10
276.5825858234577
 20
174.6871972637922
 30
0.0
 11
279.4693371694058
 21
179.6871972637922
 31
0.0
  0
LINE
  5
BB2
330
1E
100
AcDbEntity
  8
STEMPEL
100
AcDbLine
 10
279.4693371694058
 20
179.6871972637922
 30
0.0
 11
285.2428398613021
 21
179.6871972637922
 31
0.0
  0
LINE
  5
BB3
330
1E
100
AcDbEntity
  8
STEMPEL
100
AcDbLine
 10
285.2428398613021
 20
179.6871972637922
 30
0.0
 11
288.1295912072502
 21
174.6871972637922
 31
0.0
  0
LINE
  5
BB4
330
1E
100
AcDbEntity
  8
STEMPEL
100
AcDbLine
 10
288.1295912072502
 20
174.6871972637922
 30
0.0
 11
285.2428398613021
 21
169.6871972637922
 31
0.0
  0
LINE
  5
BB5
330
1E
100
AcDbEntity
  8
STEMPEL
100
AcDbLine
 10
285.2428398613021
 20
169.6871972637922
 30
0.0
 11
279.4693371694058
 21
169.6871972637922
 31
0.0
  0
LINE
  5
BB7
330
1E
100
AcDbEntity
  8
STEMPEL
100
AcDbLine
 10
288.1295912072502
 20
385.9973957871954
 30
0.0
 11
285.2428398613021
 21
390.9973957871954
 31
0.0
  0
LINE
  5
BB8
330
1E
100
AcDbEntity
  8
STEMPEL
100
AcDbLine
 10
285.2428398613021
 20
380.9973957871954
 30
0.0
 11
288.1295912072502
 21
385.9973957871954
 31
0.0
  0
LINE
  5
BB9
330
1E
100
AcDbEntity
  8
STEMPEL
100
AcDbLine
 10
276.5825858234577
 20
385.9973957871954
 30
0.0
 11
279.4693371694058
 21
380.9973957871954
 31
0.0
  0
LINE
  5
BBA
330
1E
100
AcDbEntity
  8
STEMPEL
100
AcDbLine
 10
279.4693371694058
 20
390.9973957871954
 30
0.0
 11
276.5825858234577
 21
385.9973957871954
 31
0.0
  0
CIRCLE
  5
BBB
330
1E
100
AcDbEntity
  8
STEMPEL
100
AcDbCircle
 10
282.3560885153539
 20
385.9973957871954
 30
0.0
 40
7.099999999999999
  0
CIRCLE
  5
BBC
330
1E
100
AcDbEntity
  8
HILF
100
AcDbCircle
 10
282.3560885153539
 20
385.9973957871954
 30
0.0
 40
6.738111078829117
  0
CIRCLE
  5
BBD
330
1E
100
AcDbEntity
  8
STEMPEL
100
AcDbCircle
 10
282.3560885153539
 20
385.9973957871954
 30
0.0
 40
5.000000000000018
  0
POINT
  5
BBE
330
1E
100
AcDbEntity
  8
1
 62
     0
100
AcDbPoint
 10
282.3560885153539
 20
385.9973957871954
 30
0.0
  0
ARC
  5
BBF
330
1E
100
AcDbEntity
  8
MITTEL
100
AcDbCircle
 10
221.356088515354
 20
280.3422965254938
 30
0.0
 40
122.0
100
AcDbArc
 50
54.31505412182821
 51
65.68494587817186
  0
LINE
  5
BC0
330
1E
100
AcDbEntity
  8
MITTEL
100
AcDbLine
 10
276.306088515354
 20
375.5184884014036
 30
0.0
 11
288.406088515354
 21
396.4763031729871
 31
0.0
  0
LINE
  5
BC1
330
1E
100
AcDbEntity
  8
STEMPEL
100
AcDbLine
 10
285.2428398613021
 20
390.9973957871954
 30
0.0
 11
279.4693371694058
 21
390.9973957871954
 31
0.0
  0
LINE
  5
BC2
330
1E
100
AcDbEntity
  8
STEMPEL
100
AcDbLine
 10
279.4693371694058
 20
380.9973957871954
 30
0.0
 11
285.2428398613021
 21
380.9973957871954
 31
0.0
  0
LINE
  5
BC3
330
1E
100
AcDbEntity
  8
STEMPEL
100
AcDbLine
 10
105.1295912072502
 20
280.3422965254938
 30
0.0
 11
102.242839861302
 21
275.3422965254938
 31
0.0
  0
LINE
  5
BC4
330
1E
100
AcDbEntity
  8
STEMPEL
100
AcDbLine
 10
102.242839861302
 20
285.3422965254938
 30
0.0
 11
105.1295912072502
 21
280.3422965254938
 31
0.0
  0
CIRCLE
  5
BC5
330
1E
100
AcDbEntity
  8
STEMPEL
100
AcDbCircle
 10
99.35608851535391
 20
280.3422965254938
 30
0.0
 40
7.099999999999999
  0
CIRCLE
  5
BC6
330
1E
100
AcDbEntity
  8
HILF
100
AcDbCircle
 10
99.35608851535391
 20
280.3422965254938
 30
0.0
 40
6.738111078829117
  0
CIRCLE
  5
BC7
330
1E
100
AcDbEntity
  8
STEMPEL
100
AcDbCircle
 10
99.35608851535391
 20
280.3422965254938
 30
0.0
 40
5.000000000000018
  0
LINE
  5
BC8
330
1E
100
AcDbEntity
  8
STEMPEL
100
AcDbLine
 10
96.46933716940578
 20
285.3422965254938
 30
0.0
 11
102.242839861302
 21
285.3422965254938
 31
0.0
  0
LINE
  5
BC9
330
1E
100
AcDbEntity
  8
STEMPEL
100
AcDbLine
 10
102.242839861302
 20
275.3422965254938
 30
0.0
 11
96.46933716940578
 21
275.3422965254938
 31
0.0
  0
LINE
  5
BCA
330
1E
100
AcDbEntity
  8
STEMPEL
100
AcDbLine
 10
96.46933716940578
 20
275.3422965254938
 30
0.0
 11
93.58258582345769
 21
280.3422965254938
 31
0.0
  0
LINE
  5
BCB
330
1E
100
AcDbEntity
  8
STEMPEL
100
AcDbLine
 10
93.58258582345769
 20
280.3422965254938
 30
0.0
 11
96.46933716940578
 21
285.3422965254938
 31
0.0
  0
TEXT
  5
BF3
330
1E
100
AcDbEntity
  8
VOLL
100
AcDbText
 10
148.6720729564316
 20
480.6470318025352
 30
0.0
 40
1.8
  1

 50
270.0
  7
GREEKS
100
AcDbText
  0
LINE
  5
BF4
330
1E
100
AcDbEntity
  8
STEMPEL
100
AcDbLine
 10
102.3560885153539
 20
595.7697049183267
 30
0.0
 11
102.356088515354
 21
607.1562049183267
 31
0.0
  0
LINE
  5
BF5
330
1E
100
AcDbEntity
  8
STEMPEL
100
AcDbLine
 10
96.35608851535398
 20
607.1562049183267
 30
0.0
 11
96.35608851535398
 21
595.7697049183267
 31
0.0
  0
LINE
  5
BF6
330
1E
100
AcDbEntity
  8
STEMPEL
100
AcDbLine
 10
101.7425885153539
 20
595.1562049183267
 30
0.0
 11
102.3560885153539
 21
595.7697049183267
 31
0.0
  0
LINE
  5
BF7
330
1E
100
AcDbEntity
  8
STEMPEL
100
AcDbLine
 10
96.35608851535398
 20
595.7697049183267
 30
0.0
 11
96.96958851535397
 21
595.1562049183267
 31
0.0
  0
ARC
  5
BF8
330
1E
100
AcDbEntity
  8
STEMPEL
100
AcDbCircle
 10
92.80608851535395
 20
607.7062049183266
 30
0.0
 40
0.5500000000000003
100
AcDbArc
 50
110.0000000000006
 51
270.0
  0
ARC
  5
BF9
330
1E
100
AcDbEntity
  8
STEMPEL
100
AcDbCircle
 10
105.9060885153539
 20
607.7062049183266
 30
0.0
 40
0.5500000000000009
100
AcDbArc
 50
270.0
 51
69.99999999999935
  0
LINE
  5
BFA
330
1E
100
AcDbEntity
  8
STEMPEL
100
AcDbLine
 10
106.094199594183
 20
608.2230358597589
 30
0.0
 11
105.1295912072502
 21
608.574124600326
 31
0.0
  0
LINE
  5
BFB
330
1E
100
AcDbEntity
  8
STEMPEL
100
AcDbLine
 10
93.58258582345769
 20
608.574124600326
 30
0.0
 11
92.61797743652483
 21
608.2230358597589
 31
0.0
  0
LINE
  5
BFC
330
1E
100
AcDbEntity
  8
STEMPEL
100
AcDbLine
 10
102.356088515354
 20
595.7697049183267
 30
0.0
 11
96.35608851535398
 21
595.7697049183267
 31
0.0
  0
LINE
  5
BFD
330
1E
100
AcDbEntity
  8
STEMPEL
100
AcDbLine
 10
101.7425885153539
 20
595.1562049183267
 30
0.0
 11
96.96958851535397
 21
595.1562049183267
 31
0.0
  0
LINE
  5
BFE
330
1E
100
AcDbEntity
  8
STEMPEL
100
AcDbLine
 10
104.356088515354
 20
613.7562049183267
 30
0.0
 11
94.35608851535397
 21
613.7562049183267
 31
0.0
  0
LINE
  5
BFF
330
1E
100
AcDbEntity
  8
STEMPEL
100
AcDbLine
 10
105.1295912072502
 20
613.5489454966898
 30
0.0
 11
105.1295912072502
 21
608.574124600326
 31
0.0
  0
LINE
  5
C00
330
1E
100
AcDbEntity
  8
STEMPEL
100
AcDbLine
 10
102.2428398613021
 20
613.5489454966898
 30
0.0
 11
102.2428398613021
 21
608.574124600326
 31
0.0
  0
LINE
  5
C01
330
1E
100
AcDbEntity
  8
STEMPEL
100
AcDbLine
 10
96.46933716940583
 20
613.5489454966898
 30
0.0
 11
96.46933716940583
 21
608.574124600326
 31
0.0
  0
LINE
  5
C02
330
1E
100
AcDbEntity
  8
STEMPEL
100
AcDbLine
 10
93.58258582345769
 20
613.5489454966898
 30
0.0
 11
93.58258582345769
 21
608.574124600326
 31
0.0
  0
LINE
  5
C03
330
1E
100
AcDbEntity
  8
STEMPEL
100
AcDbLine
 10
105.9060885153539
 20
607.1562049183267
 30
0.0
 11
92.80608851535395
 21
607.1562049183267
 31
0.0
  0
LINE
  5
C04
330
1E
100
AcDbEntity
  8
STEMPEL
100
AcDbLine
 10
106.094199594183
 20
608.2230358597589
 30
0.0
 11
92.61797743652483
 21
608.2230358597589
 31
0.0
  0
LINE
  5
C05
330
1E
100
AcDbEntity
  8
HILF
100
AcDbLine
 10
101.7425885153539
 20
604.1562049183267
 30
0.0
 11
101.7425885153539
 21
595.1562049183267
 31
0.0
  0
LINE
  5
C06
330
1E
100
AcDbEntity
  8
HILF
100
AcDbLine
 10
101.7425885153539
 20
604.1562049183267
 30
0.0
 11
102.356088515354
 21
607.1562049183267
 31
0.0
  0
LINE
  5
C07
330
1E
100
AcDbEntity
  8
HILF
100
AcDbLine
 10
96.35608851535398
 20
604.1562049183267
 30
0.0
 11
102.3560885153539
 21
604.1562049183267
 31
0.0
  0
LINE
  5
C08
330
1E
100
AcDbEntity
  8
HILF
100
AcDbLine
 10
96.96958851535397
 20
604.1562049183267
 30
0.0
 11
96.96958851535397
 21
595.1562049183267
 31
0.0
  0
LINE
  5
C09
330
1E
100
AcDbEntity
  8
HILF
100
AcDbLine
 10
96.96958851535397
 20
604.1562049183267
 30
0.0
 11
96.35608851535398
 21
607.1562049183267
 31
0.0
  0
POINT
  5
C0B
330
1E
100
AcDbEntity
  8
0
100
AcDbPoint
 10
99.35608851535395
 20
595.1562049183267
 30
0.0
210
-0.0000000000000002
220
-1.0
230
0.0
  0
ARC
  5
C0C
330
1E
100
AcDbEntity
  8
STEMPEL
100
AcDbCircle
 10
103.6862155342761
 20
608.6266677798036
 30
0.0
 40
5.129537138523076
100
AcDbArc
 50
73.65710669401501
 51
106.342893305985
  0
LINE
  5
C0D
330
1E
100
AcDbEntity
  8
STEMPEL
100
AcDbLine
 10
104.356088515354
 20
613.7562049183267
 30
0.0
 11
105.1295912072502
 21
613.5489454966898
 31
0.0
  0
LINE
  5
C0E
330
1E
100
AcDbEntity
  8
STEMPEL
100
AcDbLine
 10
94.35608851535397
 20
613.7562049183267
 30
0.0
 11
93.58258582345769
 21
613.5489454966898
 31
0.0
  0
ARC
  5
C0F
330
1E
100
AcDbEntity
  8
STEMPEL
100
AcDbCircle
 10
95.02596149643176
 20
608.6266677798036
 30
0.0
 40
5.129537138523076
100
AcDbArc
 50
73.65710669401501
 51
106.342893305985
  0
ARC
  5
C10
330
1E
100
AcDbEntity
  8
STEMPEL
100
AcDbCircle
 10
99.35608851535398
 20
593.5489454966898
 30
0.0
 40
20.20725942163691
100
AcDbArc
 50
81.78678929826174
 51
98.21321070173826
  0
ARC
  5
C11
330
1E
100
AcDbEntity
  8
HILF
100
AcDbCircle
 10
103.6862155342761
 20
605.013731594622
 30
0.0
 40
3.841839622940954
100
AcDbArc
 50
67.93247218100898
 51
112.0675278189903
  0
ARC
  5
C12
330
1E
100
AcDbEntity
  8
HILF
100
AcDbCircle
 10
95.02596149643176
 20
605.0148961565103
 30
0.0
 40
3.840760399790701
100
AcDbArc
 50
67.92594526324075
 51
112.0740547367592
  0
ARC
  5
C13
330
1E
100
AcDbEntity
  8
HILF
100
AcDbCircle
 10
99.35608851535398
 20
593.9149128911004
 30
0.0
 40
14.94074366520046
100
AcDbArc
 50
78.85962783889434
 51
101.1403721611056
  0
HATCH
  5
C43
330
1E
100
AcDbEntity
  8
SCHRAFF
100
AcDbHatch
 10
0.0
 20
0.0
 30
0.0
210
0.0
220
0.0
230
1.0
  2
_USER
 70
     0
 71
     0
 91
        4
 92
        7
 72
     0
 73
     1
 93
        9
 10
102.3560885153539
 20
595.7697049183267
 10
102.356088515354
 20
593.1562049183257
 10
101.356088515354
 20
593.1562049183257
 10
101.356088515354
 20
592.1562049183259
 10
99.35608851535398
 20
591.6203065334636
 10
99.35608851535395
 20
591.156204918326
 10
104.356088515354
 20
591.156204918326
 10
104.356088515354
 20
606.1562049183264
 10
102.356088515354
 20
606.1562049183264
 97
        0
 92
       23
 72
     0
 73
     1
 93
        5
 10
101.356088515354
 20
593.1562049183257
 10
102.356088515354
 20
593.1562049183257
 10
102.356088515354
 20
595.7697049183267
 10
101.742588515354
 20
595.1562049183267
 10
101.356088515354
 20
595.1562049183267
 97
        0
 92
       22
 72
     0
 73
     1
 93
        5
 10
96.35608851535398
 20
593.156204918326
 10
97.35608851535397
 20
593.156204918326
 10
97.35608851535401
 20
595.1562049183268
 10
96.96958851535384
 20
595.1562049183267
 10
96.35608851535394
 20
595.7697049183265
 97
        0
 92
        7
 72
     0
 73
     1
 93
        9
 10
96.35608851535398
 20
595.7697049183267
 10
96.35608851535394
 20
606.1562049183265
 10
94.356088515354
 20
606.1562049183265
 10
94.35608851535395
 20
591.1562049183261
 10
99.35608851535398
 20
591.1562049183262
 10
99.356088515354
 20
591.6203065334636
 10
97.35608851535397
 20
592.1562049183261
 10
97.35608851535397
 20
593.1562049183258
 10
96.35608851535398
 20
593.156204918326
 97
        0
 75
     0
 76
     0
 52
45.0
 41
1.0
 77
     0
 78
     1
 53
45.0
 43
-50.89628381559032
 44
0.0
 45
-0.7071067811865475
 46
0.7071067811865476
 79
     0
 47
0.0321819604051909
 98
        4
 10
103.3203997600371
 20
600.8615856338971
 10
101.7107156031816
 20
593.588462292447
 10
96.84947176134301
 20
594.5861029057062
 10
96.14121051726943
 20
594.4251931924716
  0
LINE
  5
CAC
330
1E
100
AcDbEntity
  8
TEXT
 62
     2
100
AcDbLine
 10
365.6143052725008
 20
668.3927560109346
 30
0.0
 11
331.0238265169437
 21
660.3466561091638
 31
0.0
  0
LINE
  5
CAD
330
1E
100
AcDbEntity
  8
TEXT
 62
     2
100
AcDbLine
 10
129.7069815154268
 20
477.4636957318553
 30
0.0
 11
137.2600050873385
 21
502.9757592601952
 31
0.0
  0
ARC
  5
E19
330
1E
100
AcDbEntity
  8
STEMPEL
100
AcDbCircle
 10
111.8449449110425
 20
685.6760419007886
 30
0.0
 40
5.0
100
AcDbArc
 50
300.0670458384858
 51
300.2564371635302
  0
ARC
  5
E1A
330
1E
100
AcDbEntity
  8
STEMPEL
100
AcDbCircle
 10
117.3560885153544
 20
676.1561469510109
 30
0.0
 40
6.000000000000454
100
AcDbArc
 50
120.2564164748174
 51
179.9999999999935
  0
ARC
  5
E1B
330
1E
100
AcDbEntity
  8
STEMPEL
100
AcDbCircle
 10
117.3560885153546
 20
676.1561469510109
 30
0.0
 40
5.000000000000511
100
AcDbArc
 50
120.2564164748189
 51
179.9999999999935
  0
LINE
  5
E1C
330
1E
100
AcDbEntity
  8
STEMPEL
100
AcDbLine
 10
111.3560885153543
 20
671.1562049183267
 30
0.0
 11
112.3560885153543
 21
671.1562049183267
 31
0.0
  0
LINE
  5
E1D
330
1E
100
AcDbEntity
  8
STEMPEL
100
AcDbLine
 10
111.3560885153541
 20
631.1562049183266
 30
0.0
 11
112.3560885153541
 21
631.1562049183266
 31
0.0
  0
LINE
  5
E1E
330
1E
100
AcDbEntity
  8
STEMPEL
100
AcDbLine
 10
91.35608851535407
 20
607.1562049183271
 30
0.0
 11
91.35608851535394
 21
606.1562049183269
 31
0.0
  0
LINE
  5
E1F
330
1E
100
AcDbEntity
  8
STEMPEL
100
AcDbLine
 10
95.35608851535394
 20
607.1562049183269
 30
0.0
 11
95.35608851535394
 21
606.1562049183269
 31
0.0
  0
LINE
  5
E20
330
1E
100
AcDbEntity
  8
STEMPEL
100
AcDbLine
 10
103.3560885153539
 20
607.1562049183273
 30
0.0
 11
103.3560885153539
 21
606.1562049183269
 31
0.0
  0
LWPOLYLINE
  5
E21
330
1E
100
AcDbEntity
  8
STEMPEL
100
AcDbPolyline
 90
        7
 70
   128
 43
0.0
 10
113.0478328412702
 20
625.1182589741647
 10
113.1856618508405
 20
624.3661527372262
 10
113.3045261278067
 20
623.4434391265115
 10
113.4008741297079
 20
622.3776878766073
 10
113.471827077246
 20
621.2007425397861
 10
113.515264969254
 20
619.9477690333842
 10
113.5298899261516
 20
618.6562049183249
  0
LWPOLYLINE
  5
E22
330
1E
100
AcDbEntity
  8
STEMPEL
100
AcDbPolyline
 90
        7
 70
   128
 43
0.0
 10
-110.9094307424808
 20
607.1562049183272
 10
-111.5861326175582
 20
607.7658056461863
 10
-112.1856820411922
 20
608.4933647300979
 10
-112.6919707143418
 20
609.3193345917782
 10
-113.0913960063874
 20
610.2215236169812
 10
-113.3732264216503
 20
611.1756923851749
 10
-113.5298899261518
 20
612.1562049183272
210
0.0
220
0.0
230
-1.0
  0
LWPOLYLINE
  5
E23
330
1E
100
AcDbEntity
  8
STEMPEL
100
AcDbPolyline
 90
       10
 70
   128
 43
0.0
 10
-113.2063983765489
 20
606.1562049183268
 10
-114.0425776513905
 20
606.2473584002535
 10
-114.8533500420931
 20
606.5180491936114
 10
-115.614080639836
 20
606.9600524956201
 10
-116.3016550303547
 20
607.5599382596131
 10
-116.8951816137231
 20
608.2994792602078
 10
-117.3766263850444
 20
609.156204918327
 10
-117.7313608885647
 20
610.1040840583729
 10
-117.9486066958989
 20
611.1143158523256
 10
-118.0217629031229
 20
612.1562049183272
210
0.0
220
0.0
230
-1.0
  0
LINE
  5
E24
330
1E
100
AcDbEntity
  8
STEMPEL
100
AcDbLine
 10
112.5657757563891
 20
618.6562049183249
 30
0.0
 11
112.565775756389
 21
612.1562049183272
 31
0.0
  0
LINE
  5
E25
330
1E
100
AcDbEntity
  8
STEMPEL
100
AcDbLine
 10
118.0217629031229
 20
618.6562049183249
 30
0.0
 11
118.0217629031229
 21
612.1562049183284
 31
0.0
  0
LINE
  5
E26
330
1E
100
AcDbEntity
  8
STEMPEL
100
AcDbLine
 10
114.5236686396896
 20
618.6562049183249
 30
0.0
 11
114.5236686396895
 21
612.156204918326
 31
0.0
  0
LINE
  5
E27
330
1E
100
AcDbEntity
  8
STEMPEL
100
AcDbLine
 10
113.5298899261517
 20
618.6562049183249
 30
0.0
 11
113.5298899261517
 21
612.1562049183272
 31
0.0
  0
LINE
  5
E28
330
1E
100
AcDbEntity
  8
STEMPEL
100
AcDbLine
 10
109.9453165727184
 20
607.1562049183268
 30
0.0
 11
110.909430742481
 21
607.1562049183268
 31
0.0
  0
ARC
  5
E29
330
1E
100
AcDbEntity
  8
STEMPEL
100
AcDbCircle
 10
106.3560885153538
 20
612.1562049183274
 30
0.0
 40
5.0
100
AcDbArc
 50
270.0000000000017
 51
0.0
  0
LWPOLYLINE
  5
E2A
330
1E
100
AcDbEntity
  8
STEMPEL
100
AcDbPolyline
 90
       10
 70
   128
 43
0.0
 10
-107.0597870253582
 20
606.156204918328
 10
-107.917860021631
 20
606.2223321329006
 10
-108.7706722212532
 20
606.4748858826308
 10
-109.5914305281702
 20
606.9059315989484
 10
-110.3543488945693
 20
607.5019269693882
 10
-111.0354584500684
 20
608.2441474011089
 10
-111.6133605400141
 20
609.1092742979063
 10
-112.0698990144203
 20
610.0701276686224
 10
-112.3907306460179
 20
611.0965200503346
 10
-112.565775756389
 20
612.1562049183272
210
0.0
220
0.0
230
-1.0
  0
ARC
  5
E2B
330
1E
100
AcDbEntity
  8
STEMPEL
100
AcDbCircle
 10
106.3560885153538
 20
612.1562049183274
 30
0.0
 40
6.0
100
AcDbArc
 50
270.0000000000017
 51
0.0
  0
LWPOLYLINE
  5
E2C
330
1E
100
AcDbEntity
  8
STEMPEL
100
AcDbPolyline
 90
       10
 70
   128
 43
0.0
 10
-109.0176799086587
 20
606.1562049183269
 10
-109.8757529049315
 20
606.2223321328994
 10
-110.7285651045537
 20
606.4748858826296
 10
-111.5493234114707
 20
606.9059315989473
 10
-112.3122417778698
 20
607.501926969387
 10
-112.9933513333689
 20
608.2441474011077
 10
-113.5712534233146
 20
609.1092742979052
 10
-114.0277918977208
 20
610.0701276686213
 10
-114.3486235293184
 20
611.0965200503335
 10
-114.5236686396895
 20
612.156204918326
210
0.0
220
0.0
230
-1.0
  0
LINE
  5
E2D
330
1E
100
AcDbEntity
  8
STEMPEL
100
AcDbLine
 10
91.35608851535417
 20
607.1562049183269
 30
0.0
 11
106.356088515354
 21
607.1562049183272
 31
0.0
  0
LWPOLYLINE
  5
E2E
330
1E
100
AcDbEntity
  8
STEMPEL
100
AcDbPolyline
 90
       18
 70
   128
 43
0.0
 10
112.5657757563891
 20
618.6562049183249
 10
112.582444179866
 20
620.0343263019495
 10
112.6318818271263
 20
621.3655174147292
 10
112.7124051583867
 20
622.604446139906
 10
112.8212720481784
 20
623.7089222456752
 10
112.9547751651407
 20
624.6413341229281
 10
113.1083682207448
 20
625.3699296034893
 10
113.2768207876969
 20
625.8698972421226
 10
113.4543964158658
 20
626.1242112405393
 10
113.6350479802128
 20
626.1242112405393
 10
113.8126236083818
 20
625.8698972421226
 10
113.9810761753338
 20
625.3699296034893
 10
114.134669230938
 20
624.6413341229281
 10
114.2681723479002
 20
623.7089222456752
 10
114.3770392376919
 20
622.604446139906
 10
114.4575625689524
 20
621.3655174147292
 10
114.5070002162127
 20
620.0343263019495
 10
114.5236686396896
 20
618.6562049183249
  0
LINE
  5
E2F
330
1E
100
AcDbEntity
  8
STEMPEL
100
AcDbLine
 10
112.3560885153541
 20
676.1561469510112
 30
0.0
 11
112.3560885153538
 21
612.1562049183272
 31
0.0
  0
LINE
  5
E30
330
1E
100
AcDbEntity
  8
STEMPEL
100
AcDbLine
 10
111.356088515354
 20
676.1561469510112
 30
0.0
 11
111.3560885153537
 21
612.1562049183272
 31
0.0
  0
ARC
  5
E31
330
1E
100
AcDbEntity
  8
STEMPEL
100
AcDbCircle
 10
141.356088515354
 20
690.1562049183262
 30
0.0
 40
6.0
100
AcDbArc
 50
90.0
 51
90.0
  0
ARC
  5
E32
330
1E
100
AcDbEntity
  8
STEMPEL
100
AcDbCircle
 10
141.3560885153541
 20
690.1562049183269
 30
0.0
 40
5.999999999999263
100
AcDbArc
 50
90.0
 51
120.5128743276239
  0
ARC
  5
E33
330
1E
100
AcDbEntity
  8
STEMPEL
100
AcDbCircle
 10
141.3560885153561
 20
690.1562049183216
 30
0.0
 40
5.000000000004884
100
AcDbArc
 50
90.00000000002442
 51
120.5373500482963
  0
ARC
  5
E34
330
1E
100
AcDbEntity
  8
STEMPEL
100
AcDbCircle
 10
198.7146501316516
 20
696.1562049183259
 30
0.0
 40
1.5
100
AcDbArc
 50
30.00000000000782
 51
90.0
  0
ARC
  5
E35
330
1E
100
AcDbEntity
  8
STEMPEL
100
AcDbCircle
 10
198.7146501316516
 20
696.1562049183259
 30
0.0
 40
0.5
100
AcDbArc
 50
30.00000000000782
 51
90.0
  0
LINE
  5
E36
330
1E
100
AcDbEntity
  8
STEMPEL
100
AcDbLine
 10
198.7146501316516
 20
696.6562049183259
 30
0.0
 11
198.5146501316515
 21
696.6562049183259
 31
0.0
  0
ARC
  5
E37
330
1E
100
AcDbEntity
  8
STEMPEL
100
AcDbCircle
 10
198.5146501316515
 20
696.1562049183259
 30
0.0
 40
0.5
100
AcDbArc
 50
90.0
 51
150.0000000000075
  0
ARC
  5
E38
330
1E
100
AcDbEntity
  8
STEMPEL
100
AcDbCircle
 10
198.5146501316515
 20
696.1562049183259
 30
0.0
 40
1.5
100
AcDbArc
 50
90.0
 51
150.0000000000075
  0
ARC
  5
E39
330
1E
100
AcDbEntity
  8
STEMPEL
100
AcDbCircle
 10
195.9165739202975
 20
697.656204918326
 30
0.0
 40
1.5
100
AcDbArc
 50
270.0
 51
330.0000000000076
  0
ARC
  5
E3A
330
1E
100
AcDbEntity
  8
STEMPEL
100
AcDbCircle
 10
195.9165739202975
 20
697.656204918326
 30
0.0
 40
2.5
100
AcDbArc
 50
270.0
 51
330.0000000000076
  0
LINE
  5
E3B
330
1E
100
AcDbEntity
  8
STEMPEL
100
AcDbLine
 10
207.766573920298
 20
696.1562049183261
 30
0.0
 11
201.3127263430039
 21
696.1562049183261
 31
0.0
  0
LINE
  5
E3C
330
1E
100
AcDbEntity
  8
STEMPEL
100
AcDbLine
 10
207.766573920298
 20
696.1562049183259
 30
0.0
 11
201.3127263430039
 21
696.1562049183259
 31
0.0
  0
ARC
  5
E3D
330
1E
100
AcDbEntity
  8
STEMPEL
100
AcDbCircle
 10
210.3646501316515
 20
696.1562049183259
 30
0.0
 40
1.5
100
AcDbArc
 50
90.0
 51
150.0000000000011
  0
ARC
  5
E3E
330
1E
100
AcDbEntity
  8
STEMPEL
100
AcDbCircle
 10
210.5646501316515
 20
696.1562049183259
 30
0.0
 40
1.5
100
AcDbArc
 50
14.47751218592986
 51
90.0
  0
ARC
  5
E3F
330
1E
100
AcDbEntity
  8
STEMPEL
100
AcDbCircle
 10
212.5011418047555
 20
696.6562049183259
 30
0.0
 40
0.5
100
AcDbArc
 50
194.4775121859299
 51
270.0
  0
LINE
  5
E40
330
1E
100
AcDbEntity
  8
STEMPEL
100
AcDbLine
 10
212.6898909973547
 20
696.1562049183259
 30
0.0
 11
212.5011418047555
 21
696.1562049183259
 31
0.0
  0
ARC
  5
E41
330
1E
100
AcDbEntity
  8
STEMPEL
100
AcDbCircle
 10
210.5646501316515
 20
696.1562049183259
 30
0.0
 40
0.5
100
AcDbArc
 50
14.47751218592986
 51
90.0
  0
LINE
  5
E42
330
1E
100
AcDbEntity
  8
STEMPEL
100
AcDbLine
 10
210.5646501316515
 20
696.6562049183261
 30
0.0
 11
210.3646501316515
 21
696.6562049183261
 31
0.0
  0
ARC
  5
E43
330
1E
100
AcDbEntity
  8
STEMPEL
100
AcDbCircle
 10
210.3646501316515
 20
696.1562049183259
 30
0.0
 40
0.5
100
AcDbArc
 50
90.0
 51
150.0000000000011
  0
ARC
  5
E44
330
1E
100
AcDbEntity
  8
STEMPEL
100
AcDbCircle
 10
214.626382670458
 20
696.1562049183259
 30
0.0
 40
0.5
100
AcDbArc
 50
90.0
 51
165.5224878140701
  0
ARC
  5
E45
330
1E
100
AcDbEntity
  8
STEMPEL
100
AcDbCircle
 10
214.626382670458
 20
696.1562049183259
 30
0.0
 40
1.5
100
AcDbArc
 50
90.0
 51
165.5224878140701
  0
ARC
  5
E46
330
1E
100
AcDbEntity
  8
STEMPEL
100
AcDbCircle
 10
212.6898909973547
 20
696.6562049183259
 30
0.0
 40
0.5
100
AcDbArc
 50
270.0
 51
345.5224878140701
  0
ARC
  5
E47
330
1E
100
AcDbEntity
  8
STEMPEL
100
AcDbCircle
 10
207.766573920298
 20
697.656204918326
 30
0.0
 40
1.5
100
AcDbArc
 50
270.0
 51
330.0000000000011
  0
ARC
  5
E48
330
1E
100
AcDbEntity
  8
STEMPEL
100
AcDbCircle
 10
212.6898909973547
 20
696.6562049183259
 30
0.0
 40
1.5
100
AcDbArc
 50
270.0
 51
345.5224878140701
  0
ARC
  5
E49
330
1E
100
AcDbEntity
  8
STEMPEL
100
AcDbCircle
 10
212.5011418047555
 20
696.6562049183259
 30
0.0
 40
1.5
100
AcDbArc
 50
194.4775121859299
 51
270.0
  0
ARC
  5
E4A
330
1E
100
AcDbEntity
  8
STEMPEL
100
AcDbCircle
 10
207.766573920298
 20
697.656204918326
 30
0.0
 40
2.5
100
AcDbArc
 50
270.0
 51
330.0000000000011
  0
ARC
  5
E4B
330
1E
100
AcDbEntity
  8
STEMPEL
100
AcDbCircle
 10
201.3127263430039
 20
697.656204918326
 30
0.0
 40
1.5
100
AcDbArc
 50
210.0000000000078
 51
270.0
  0
ARC
  5
E4C
330
1E
100
AcDbEntity
  8
STEMPEL
100
AcDbCircle
 10
201.3127263430039
 20
697.656204918326
 30
0.0
 40
2.5
100
AcDbArc
 50
210.0000000000078
 51
270.0
  0
ARC
  5
E4D
330
1E
100
AcDbEntity
  8
STEMPEL
100
AcDbCircle
 10
224.7146501316516
 20
696.1562049183259
 30
0.0
 40
0.5
100
AcDbArc
 50
30.00000000000055
 51
90.0
  0
ARC
  5
E4E
330
1E
100
AcDbEntity
  8
STEMPEL
100
AcDbCircle
 10
227.3127263430043
 20
697.6562049183258
 30
0.0
 40
1.5
100
AcDbArc
 50
210.000000000007
 51
270.0
  0
ARC
  5
E4F
330
1E
100
AcDbEntity
  8
STEMPEL
100
AcDbCircle
 10
224.7146501316516
 20
696.1562049183259
 30
0.0
 40
1.5
100
AcDbArc
 50
30.00000000000055
 51
90.0
  0
ARC
  5
E50
330
1E
100
AcDbEntity
  8
STEMPEL
100
AcDbCircle
 10
227.3127263430043
 20
697.6562049183258
 30
0.0
 40
2.5
100
AcDbArc
 50
210.000000000007
 51
270.0
  0
ARC
  5
E51
330
1E
100
AcDbEntity
  8
STEMPEL
100
AcDbCircle
 10
233.7665739202986
 20
697.6562049183258
 30
0.0
 40
1.5
100
AcDbArc
 50
270.0
 51
329.9999999999995
  0
ARC
  5
E52
330
1E
100
AcDbEntity
  8
STEMPEL
100
AcDbCircle
 10
236.5646501316515
 20
696.1562049183259
 30
0.0
 40
0.5
100
AcDbArc
 50
29.99999999999328
 51
90.0
  0
LINE
  5
E53
330
1E
100
AcDbEntity
  8
STEMPEL
100
AcDbLine
 10
236.5646501316515
 20
696.6562049183259
 30
0.0
 11
236.3646501316515
 21
696.6562049183259
 31
0.0
  0
ARC
  5
E54
330
1E
100
AcDbEntity
  8
STEMPEL
100
AcDbCircle
 10
236.3646501316515
 20
696.1562049183259
 30
0.0
 40
0.5
100
AcDbArc
 50
90.0
 51
149.9999999999994
  0
ARC
  5
E55
330
1E
100
AcDbEntity
  8
STEMPEL
100
AcDbCircle
 10
236.3646501316515
 20
696.1562049183259
 30
0.0
 40
1.5
100
AcDbArc
 50
90.0
 51
149.9999999999994
  0
ARC
  5
E56
330
1E
100
AcDbEntity
  8
STEMPEL
100
AcDbCircle
 10
239.1627263430052
 20
697.6562049183257
 30
0.0
 40
1.5
100
AcDbArc
 50
209.9999999999933
 51
270.0
  0
LINE
  5
E57
330
1E
100
AcDbEntity
  8
STEMPEL
100
AcDbLine
 10
241.2215739202976
 20
696.1562049183258
 30
0.0
 11
239.1627263430052
 21
696.1562049183258
 31
0.0
  0
LINE
  5
E58
330
1E
100
AcDbEntity
  8
STEMPEL
100
AcDbLine
 10
241.2215739202976
 20
696.1562049183258
 30
0.0
 11
239.1627263430052
 21
696.1562049183258
 31
0.0
  0
ARC
  5
E59
330
1E
100
AcDbEntity
  8
STEMPEL
100
AcDbCircle
 10
236.5646501316515
 20
696.1562049183259
 30
0.0
 40
1.5
100
AcDbArc
 50
29.99999999999328
 51
90.0
  0
ARC
  5
E5A
330
1E
100
AcDbEntity
  8
STEMPEL
100
AcDbCircle
 10
244.0196501316514
 20
696.1562049183259
 30
0.0
 40
0.5
100
AcDbArc
 50
29.99999999999973
 51
90.0
  0
LINE
  5
E5B
330
1E
100
AcDbEntity
  8
STEMPEL
100
AcDbLine
 10
244.0196501316514
 20
696.6562049183258
 30
0.0
 11
243.8196501316514
 21
696.6562049183258
 31
0.0
  0
ARC
  5
E5C
330
1E
100
AcDbEntity
  8
STEMPEL
100
AcDbCircle
 10
243.8196501316514
 20
696.1562049183259
 30
0.0
 40
0.5
100
AcDbArc
 50
90.0
 51
150.0000000000002
  0
ARC
  5
E5D
330
1E
100
AcDbEntity
  8
STEMPEL
100
AcDbCircle
 10
243.8196501316514
 20
696.1562049183259
 30
0.0
 40
1.5
100
AcDbArc
 50
90.0
 51
150.0000000000075
  0
ARC
  5
E5E
330
1E
100
AcDbEntity
  8
STEMPEL
100
AcDbCircle
 10
244.0196501316514
 20
696.1562049183259
 30
0.0
 40
1.5
100
AcDbArc
 50
29.99999999999891
 51
90.0
  0
ARC
  5
E5F
330
1E
100
AcDbEntity
  8
STEMPEL
100
AcDbCircle
 10
246.6177263430049
 20
697.6562049183258
 30
0.0
 40
1.5
100
AcDbArc
 50
209.9999999999933
 51
270.0
  0
ARC
  5
E60
330
1E
100
AcDbEntity
  8
STEMPEL
100
AcDbCircle
 10
241.2215739202976
 20
697.6562049183257
 30
0.0
 40
1.5
100
AcDbArc
 50
270.0
 51
330.0000000000068
  0
ARC
  5
E61
330
1E
100
AcDbEntity
  8
STEMPEL
100
AcDbCircle
 10
246.6177263430049
 20
697.6562049183258
 30
0.0
 40
2.5
100
AcDbArc
 50
209.9999999999997
 51
270.0
  0
ARC
  5
E62
330
1E
100
AcDbEntity
  8
STEMPEL
100
AcDbCircle
 10
241.2215739202976
 20
697.6562049183257
 30
0.0
 40
2.5
100
AcDbArc
 50
270.0
 51
330.0000000000076
  0
ARC
  5
E63
330
1E
100
AcDbEntity
  8
STEMPEL
100
AcDbCircle
 10
239.1627263430052
 20
697.6562049183257
 30
0.0
 40
2.5
100
AcDbArc
 50
209.9999999999933
 51
270.0
  0
ARC
  5
E64
330
1E
100
AcDbEntity
  8
STEMPEL
100
AcDbCircle
 10
233.7665739202986
 20
697.6562049183258
 30
0.0
 40
2.5
100
AcDbArc
 50
270.0
 51
329.9999999999995
  0
LINE
  5
E65
330
1E
100
AcDbEntity
  8
STEMPEL
100
AcDbLine
 10
233.7665739202986
 20
696.1562049183259
 30
0.0
 11
227.3127263430043
 21
696.1562049183259
 31
0.0
  0
LINE
  5
E66
330
1E
100
AcDbEntity
  8
STEMPEL
100
AcDbLine
 10
233.7665739202986
 20
696.1562049183259
 30
0.0
 11
227.3127263430043
 21
696.1562049183259
 31
0.0
  0
LINE
  5
E67
330
1E
100
AcDbEntity
  8
STEMPEL
100
AcDbLine
 10
224.7146501316516
 20
696.6562049183259
 30
0.0
 11
214.626382670458
 21
696.6562049183259
 31
0.0
  0
LINE
  5
E68
330
1E
100
AcDbEntity
  8
STEMPEL
100
AcDbLine
 10
244.0196501316514
 20
697.6562049183258
 30
0.0
 11
198.5146501316515
 21
697.656204918326
 31
0.0
  0
LINE
  5
E69
330
1E
100
AcDbEntity
  8
STEMPEL
100
AcDbLine
 10
195.9165739202975
 20
696.1562049183262
 30
0.0
 11
141.3560885153541
 21
696.1562049183267
 31
0.0
  0
ELLIPSE
  5
E6A
330
1E
100
AcDbEntity
  8
STEMPEL
100
AcDbEllipse
 10
126.3149789890022
 20
663.6562049183269
 30
0.0
 11
0.0000000000000334
 21
7.499999999999999
 31
0.0
210
0.0
220
0.0
230
1.0
 40
0.4999999999999926
 41
4.712388980384689
 42
6.167183451052224
  0
ELLIPSE
  5
E6B
330
1E
100
AcDbEntity
  8
STEMPEL
100
AcDbEllipse
 10
127.1830430086909
 20
663.6562049183269
 30
0.0
 11
0.0000000000000334
 21
7.499999999999999
 31
0.0
210
0.0
220
0.0
230
1.0
 40
0.4999999999999926
 41
4.712388980384689
 42
7.853981633974482
  0
ELLIPSE
  5
E6C
330
1E
100
AcDbEntity
  8
STEMPEL
100
AcDbEllipse
 10
126.3149789890021
 20
638.6562049183285
 30
0.0
 11
-0.0000000000000334
 21
-7.499999999999999
 31
0.0
210
0.0
220
0.0
230
-1.0
 40
0.4999999999999926
 41
4.712388980384689
 42
6.167183451052224
  0
ELLIPSE
  5
E6D
330
1E
100
AcDbEntity
  8
STEMPEL
100
AcDbEllipse
 10
127.1830430086908
 20
638.6562049183285
 30
0.0
 11
-0.0000000000000334
 21
-7.499999999999999
 31
0.0
210
0.0
220
0.0
230
-1.0
 40
0.4999999999999926
 41
4.712388980384689
 42
7.853981633974482
  0
LINE
  5
E6E
330
1E
100
AcDbEntity
  8
STEMPEL
100
AcDbLine
 10
123.433043008691
 20
663.6562049183269
 30
0.0
 11
123.4330430086909
 21
638.6562049183301
 31
0.0
  0
LINE
  5
E6F
330
1E
100
AcDbEntity
  8
STEMPEL
100
AcDbLine
 10
130.9330430086909
 20
663.6562049183269
 30
0.0
 11
130.9330430086908
 21
638.6562049183285
 31
0.0
  0
LINE
  5
E70
330
1E
100
AcDbEntity
  8
STEMPEL
100
AcDbLine
 10
130.0649789890018
 20
638.6562049183269
 30
0.0
 11
130.0649789890019
 21
663.6562049183285
 31
0.0
  0
LWPOLYLINE
  5
E71
330
1E
100
AcDbEntity
  8
STEMPEL
100
AcDbPolyline
 90
        7
 70
   128
 43
0.0
 10
-120.6823884194247
 20
607.1562049183268
 10
-121.302478942489
 20
607.7655428201676
 10
-121.8342990892725
 20
608.4929730934568
 10
-122.2635448890037
 20
609.3189305874004
 10
-122.578671236801
 20
610.2212001378627
 10
-122.7712024137669
 20
611.175514072106
 10
-122.8359600520932
 20
612.1562049183271
210
0.0
220
0.0
230
-1.0
  0
LWPOLYLINE
  5
E72
330
1E
100
AcDbEntity
  8
STEMPEL
100
AcDbPolyline
 90
       10
 70
   128
 43
0.0
 10
-118.9466498620267
 20
606.1562049183268
 10
-119.7828291368683
 20
606.2473584002535
 10
-120.5936015275709
 20
606.5180491936114
 10
-121.3543321253137
 20
606.9600524956201
 10
-122.0419065158325
 20
607.559938259613
 10
-122.6354330992009
 20
608.2994792602077
 10
-123.1168778705221
 20
609.1562049183269
 10
-123.4716123740425
 20
610.1040840583729
 10
-123.6888581813766
 20
611.1143158523255
 10
-123.7620143886006
 20
612.1562049183271
210
0.0
220
0.0
230
-1.0
  0
LINE
  5
E73
330
1E
100
AcDbEntity
  8
STEMPEL
100
AcDbLine
 10
122.8359600520934
 20
618.6562049183248
 30
0.0
 11
122.8359600520934
 21
612.1562049183283
 31
0.0
  0
LINE
  5
E74
330
1E
100
AcDbEntity
  8
STEMPEL
100
AcDbLine
 10
123.7620143886007
 20
618.6562049183248
 30
0.0
 11
123.7620143886006
 21
612.1562049183283
 31
0.0
  0
LINE
  5
E75
330
1E
100
AcDbEntity
  8
STEMPEL
100
AcDbLine
 10
130.5198135722824
 20
618.6562049183248
 30
0.0
 11
130.5198135722824
 21
612.1562049183283
 31
0.0
  0
LWPOLYLINE
  5
E76
330
1E
100
AcDbEntity
  8
STEMPEL
100
AcDbPolyline
 90
       10
 70
   128
 43
0.0
 10
-126.1561073976765
 20
606.1562049183266
 10
-126.9138570227707
 20
606.2473584002534
 10
-127.6485828089462
 20
606.5180491936112
 10
-128.3379604849794
 20
606.9600524956201
 10
-128.9610436590258
 20
607.559938259613
 10
-129.4989002641372
 20
608.2994792602077
 10
-129.9351877995362
 20
609.1562049183269
 10
-130.2566498892314
 20
610.1040840583729
 10
-130.4535190702954
 20
611.1143158523255
 10
-130.5198135722823
 20
612.1562049183271
210
0.0
220
0.0
230
-1.0
  0
LWPOLYLINE
  5
E77
330
1E
100
AcDbEntity
  8
STEMPEL
100
AcDbPolyline
 90
        7
 70
   128
 43
0.0
 10
-136.9044372920752
 20
607.1562049183267
 10
-137.4663662653393
 20
607.7655428201675
 10
-137.9483042049264
 20
608.4929730934568
 10
-138.3372887846763
 20
609.3189305874004
 10
-138.6228577757827
 20
610.2212001378627
 10
-138.7973304415787
 20
611.175514072106
 10
-138.8560141205936
 20
612.1562049183271
210
0.0
220
0.0
230
-1.0
  0
LWPOLYLINE
  5
E78
330
1E
100
AcDbEntity
  8
STEMPEL
100
AcDbPolyline
 90
       10
 70
   128
 43
0.0
 10
-135.2875288328083
 20
606.1562049183266
 10
-136.0452784579026
 20
606.2473584002534
 10
-136.7800042440781
 20
606.5180491936112
 10
-137.4693819201112
 20
606.9600524956201
 10
-138.0924650941577
 20
607.5599382596128
 10
-138.6303216992691
 20
608.2994792602075
 10
-139.066609234668
 20
609.1562049183269
 10
-139.3880713243633
 20
610.1040840583729
 10
-139.5849405054273
 20
611.1143158523255
 10
-139.6512350074141
 20
612.1562049183271
210
0.0
220
0.0
230
-1.0
  0
LINE
  5
E79
330
1E
100
AcDbEntity
  8
STEMPEL
100
AcDbLine
 10
138.8560141205936
 20
618.6562049183248
 30
0.0
 11
138.8560141205935
 21
612.1562049183283
 31
0.0
  0
LINE
  5
E7A
330
1E
100
AcDbEntity
  8
STEMPEL
100
AcDbLine
 10
139.6512350074143
 20
618.6562049183248
 30
0.0
 11
139.6512350074142
 21
612.1562049183283
 31
0.0
  0
LWPOLYLINE
  5
E7B
330
1E
100
AcDbEntity
  8
STEMPEL
100
AcDbPolyline
 90
       10
 70
   128
 43
0.0
 10
-145.5456031292419
 20
606.1562049183266
 10
-146.1816074892428
 20
606.2473584002534
 10
-146.7982871785989
 20
606.5180491936112
 10
-147.376904697004
 20
606.9600524956201
 10
-147.8998790439558
 20
607.5599382596128
 10
-148.3513199085603
 20
608.2994792602075
 10
-148.7175104885863
 20
609.1562049183269
 10
-148.9873242685612
 20
610.1040840583729
 10
-149.1525630933129
 20
611.1143158523255
 10
-149.208206264766
 20
612.1562049183271
210
0.0
220
0.0
230
-1.0
  0
LINE
  5
E7C
330
1E
100
AcDbEntity
  8
STEMPEL
100
AcDbLine
 10
149.2082062647661
 20
618.6562049183248
 30
0.0
 11
149.208206264766
 21
612.1562049183283
 31
0.0
  0
LINE
  5
E7D
330
1E
100
AcDbEntity
  8
STEMPEL
100
AcDbLine
 10
128.5682367437639
 20
607.1562049183267
 30
0.0
 11
136.9044372920758
 21
607.1562049183267
 31
0.0
  0
LWPOLYLINE
  5
E7E
330
1E
100
AcDbEntity
  8
STEMPEL
100
AcDbPolyline
 90
        9
 70
   128
 43
0.0
 10
120.4288614776097
 20
626.0579631629901
 10
120.9179220208785
 20
625.7315302652326
 10
121.3775349887795
 20
625.1862612519754
 10
121.7934847924037
 20
624.4390210088474
 10
122.1529063216953
 20
623.5129212860698
 10
122.4446828565828
 20
622.4366058640996
 10
122.659789901321
 20
621.2433646164687
 10
122.7915743074285
 20
619.9701038713929
 10
122.8359600520933
 20
618.6562049183264
  0
LWPOLYLINE
  5
E7F
330
1E
100
AcDbEntity
  8
STEMPEL
100
AcDbPolyline
 90
       18
 70
   128
 43
0.0
 10
130.5198135722825
 20
618.6562049183248
 10
130.5975534735426
 20
620.0343263019495
 10
130.8281258382245
 20
621.3655174147291
 10
131.2036788009896
 20
622.6044461399059
 10
131.7114233561173
 20
623.7089222456752
 10
132.3340688717553
 20
624.6413341229279
 10
133.0504119016494
 20
625.3699296034892
 10
133.8360582430752
 20
625.8698972421225
 10
134.6642536521546
 20
626.1242112405393
 10
135.5067949275423
 20
626.1242112405392
 10
136.3349903366217
 20
625.8698972421225
 10
137.1206366780476
 20
625.3699296034892
 10
137.8369797079417
 20
624.6413341229279
 10
138.4596252235796
 20
623.7089222456751
 10
138.9673697787073
 20
622.6044461399058
 10
139.3429227414725
 20
621.3655174147291
 10
139.5734951061543
 20
620.0343263019495
 10
139.6512350074144
 20
618.6562049183248
  0
LWPOLYLINE
  5
E80
330
1E
100
AcDbEntity
  8
STEMPEL
100
AcDbPolyline
 90
       10
 70
   128
 43
0.0
 10
134.2903034030275
 20
626.1562049183281
 10
135.0831307488872
 20
626.0422630659195
 10
135.8518684370329
 20
625.7038995742223
 10
136.5731587618105
 20
625.1513954467111
 10
137.225085681692
 20
624.40153824172
 10
137.7878407271076
 20
623.4771119909765
 10
138.2443248707705
 20
622.4062049183272
 10
138.5806680729673
 20
621.2213559932695
 10
138.7866507156974
 20
619.9585662508286
 10
138.8560141205934
 20
618.6562049183264
  0
LINE
  5
E81
330
1E
100
AcDbEntity
  8
STEMPEL
100
AcDbLine
 10
160.4900648132921
 20
663.6562049183266
 30
0.0
 11
160.4900648132919
 21
638.6562049183282
 31
0.0
  0
LINE
  5
E82
330
1E
100
AcDbEntity
  8
STEMPEL
100
AcDbLine
 10
173.4804458700578
 20
663.6562049183266
 30
0.0
 11
173.4804458700577
 21
638.6562049183266
 31
0.0
  0
LINE
  5
E83
330
1E
100
AcDbEntity
  8
STEMPEL
100
AcDbLine
 10
172.9792688746158
 20
663.6562049183266
 30
0.0
 11
172.9792688746157
 21
638.6562049183266
 31
0.0
  0
ELLIPSE
  5
E84
330
1E
100
AcDbEntity
  8
STEMPEL
100
AcDbEllipse
 10
166.9852553416749
 20
663.6562049183266
 30
0.0
 11
0.0000000000000334
 21
7.5
 31
0.0
210
0.0
220
0.0
230
1.0
 40
0.8660254037843856
 41
4.712388980384689
 42
7.853981633974482
  0
ELLIPSE
  5
E85
330
1E
100
AcDbEntity
  8
STEMPEL
100
AcDbEllipse
 10
166.484078346233
 20
663.6562049183266
 30
0.0
 11
0.0000000000000334
 21
7.5
 31
0.0
210
0.0
220
0.0
230
1.0
 40
0.8660254037843856
 41
4.712388980384689
 42
6.24459510668465
  0
ELLIPSE
  5
E86
330
1E
100
AcDbEntity
  8
STEMPEL
100
AcDbEllipse
 10
166.9852553416748
 20
638.6562049183266
 30
0.0
 11
-0.0000000000000334
 21
-7.5
 31
0.0
210
0.0
220
0.0
230
-1.0
 40
0.8660254037843856
 41
4.712388980384689
 42
7.853981633974482
  0
ELLIPSE
  5
E87
330
1E
100
AcDbEntity
  8
STEMPEL
100
AcDbEllipse
 10
166.4840783462329
 20
638.6562049183266
 30
0.0
 11
-0.0000000000000334
 21
-7.5
 31
0.0
210
0.0
220
0.0
230
-1.0
 40
0.8660254037843856
 41
4.712388980384689
 42
6.24459510668465
  0
LINE
  5
E88
330
1E
100
AcDbEntity
  8
STEMPEL
100
AcDbLine
 10
160.4983119212725
 20
618.6562049183248
 30
0.0
 11
160.4983119212725
 21
612.1562049183282
 31
0.0
  0
LINE
  5
E89
330
1E
100
AcDbEntity
  8
STEMPEL
100
AcDbLine
 10
161.1085063691349
 20
618.6562049183248
 30
0.0
 11
161.1085063691348
 21
612.1562049183282
 31
0.0
  0
LWPOLYLINE
  5
E8A
330
1E
100
AcDbEntity
  8
STEMPEL
100
AcDbPolyline
 90
        7
 70
   128
 43
0.0
 10
-158.8602888451671
 20
607.1562049183267
 10
-159.331934445734
 20
607.7655428201675
 10
-159.7364409221168
 20
608.4929730934568
 10
-160.0629285646058
 20
609.3189305874004
 10
-160.3026160780141
 20
610.2212001378626
 10
-160.4490567656401
 20
611.1755140721059
 10
-160.4983119212725
 20
612.156204918327
210
0.0
220
0.0
230
-1.0
  0
LWPOLYLINE
  5
E8B
330
1E
100
AcDbEntity
  8
STEMPEL
100
AcDbPolyline
 90
       10
 70
   128
 43
0.0
 10
-157.4459032336107
 20
606.1562049183266
 10
-158.0819075936116
 20
606.2473584002534
 10
-158.6985872829678
 20
606.5180491936112
 10
-159.2772048013728
 20
606.96005249562
 10
-159.8001791483247
 20
607.5599382596128
 10
-160.2516200129292
 20
608.2994792602075
 10
-160.6178105929552
 20
609.1562049183267
 10
-160.8876243729301
 20
610.1040840583728
 10
-161.0528631976817
 20
611.1143158523254
 10
-161.1085063691348
 20
612.156204918327
210
0.0
220
0.0
230
-1.0
  0
LWPOLYLINE
  5
E8C
330
1E
100
AcDbEntity
  8
STEMPEL
100
AcDbPolyline
 90
       10
 70
   128
 43
0.0
 10
-170.091014575407
 20
606.1562049183265
 10
-170.5637445331606
 20
606.2473584002533
 10
-171.0221108303608
 20
606.5180491936112
 10
-171.4521862390116
 20
606.9600524956199
 10
-171.8409031354498
 20
607.5599382596128
 10
-172.1764505534775
 20
608.2994792602075
 10
-172.4486330545931
 20
609.1562049183267
 10
-172.6491805112312
 20
610.1040840583728
 10
-172.7719993904036
 20
611.1143158523254
 10
-172.8133579026161
 20
612.156204918327
210
0.0
220
0.0
230
-1.0
  0
LINE
  5
E8D
330
1E
100
AcDbEntity
  8
STEMPEL
100
AcDbLine
 10
172.8133579026161
 20
618.6562049183248
 30
0.0
 11
172.8133579026161
 21
612.1562049183282
 31
0.0
  0
LWPOLYLINE
  5
E8E
330
1E
100
AcDbEntity
  8
STEMPEL
100
AcDbPolyline
 90
        9
 70
   128
 43
0.0
 10
154.8532590930309
 20
626.1463389961485
 10
155.969666814402
 20
625.9390318597414
 10
157.0349460661443
 20
625.4697771322875
 10
158.0107810491826
 20
624.7554528951191
 10
158.8620730820406
 20
623.8217518517226
 10
159.558203024777
 20
622.7022572165622
 10
160.0741325834684
 20
621.4372347992235
 10
160.3913048836842
 20
620.0721847300142
 10
160.4983119212724
 20
618.6562049183264
  0
LINE
  5
E8F
330
1E
100
AcDbEntity
  8
STEMPEL
100
AcDbLine
 10
147.5701831886606
 20
607.1562049183267
 30
0.0
 11
158.8602888451677
 21
607.1562049183267
 31
0.0
  0
LWPOLYLINE
  5
E90
330
1E
100
AcDbEntity
  8
STEMPEL
100
AcDbPolyline
 90
       18
 70
   128
 43
0.0
 10
149.2082062647659
 20
618.6562049183248
 10
149.3095188765703
 20
620.0343263019493
 10
149.6100066324995
 20
621.3655174147291
 10
150.0994367824207
 20
622.6044461399058
 10
150.7611423695851
 20
623.708922245675
 10
151.5725898038502
 20
624.6413341229279
 10
152.5061462160659
 20
625.3699296034892
 10
153.530020462292
 20
625.8698972421225
 10
154.6093457330748
 20
626.124211240539
 10
155.7073669008259
 20
626.124211240539
 10
156.7866921716086
 20
625.8698972421225
 10
157.8105664178348
 20
625.3699296034892
 10
158.7441228300505
 20
624.6413341229279
 10
159.5555702643156
 20
623.708922245675
 10
160.21727585148
 20
622.6044461399058
 10
160.7067060014012
 20
621.3655174147289
 10
161.0071937573304
 20
620.0343263019492
 10
161.1085063691348
 20
618.6562049183248
  0
LINE
  5
E91
330
1E
100
AcDbEntity
  8
STEMPEL
100
AcDbLine
 10
213.8560885153541
 20
663.6562049183265
 30
0.0
 11
213.8560885153539
 21
638.6562049183265
 31
0.0
  0
LWPOLYLINE
  5
E92
330
1E
100
AcDbEntity
  8
STEMPEL
100
AcDbPolyline
 90
        7
 70
   128
 43
0.0
 10
-185.0704551918809
 20
607.1562049183264
 10
-185.4210204062929
 20
607.7655428201674
 10
-185.7216823852316
 20
608.4929730934566
 10
-185.9643544471662
 20
609.3189305874002
 10
-186.1425096222147
 20
610.2212001378624
 10
-186.2513562031952
 20
611.1755140721056
 10
-186.28796662461
 20
612.1562049183268
210
0.0
220
0.0
230
-1.0
  0
LINE
  5
E93
330
1E
100
AcDbEntity
  8
STEMPEL
100
AcDbLine
 10
186.2879666246101
 20
618.6562049183246
 30
0.0
 11
186.28796662461
 21
612.156204918328
 31
0.0
  0
LINE
  5
E94
330
1E
100
AcDbEntity
  8
STEMPEL
100
AcDbLine
 10
186.6715508902871
 20
618.656204918323
 30
0.0
 11
186.671550890287
 21
612.156204918328
 31
0.0
  0
LWPOLYLINE
  5
E95
330
1E
100
AcDbEntity
  8
STEMPEL
100
AcDbPolyline
 90
       10
 70
   128
 43
0.0
 10
-198.4150416745589
 20
606.1562049183264
 10
-198.6427942374275
 20
606.2473584002532
 10
-198.8636266539216
 20
606.518049193611
 10
-199.0708290428129
 20
606.9600524956198
 10
-199.2581056643641
 20
607.5599382596126
 10
-199.419766213196
 20
608.2994792602073
 10
-199.5508987153366
 20
609.1562049183266
 10
-199.6475187760646
 20
610.1040840583727
 10
-199.7066906437267
 20
611.1143158523252
 10
-199.7266164110667
 20
612.1562049183268
210
0.0
220
0.0
230
-1.0
  0
LINE
  5
E96
330
1E
100
AcDbEntity
  8
STEMPEL
100
AcDbLine
 10
199.7266164110667
 20
618.6562049183262
 30
0.0
 11
199.7266164110666
 21
612.156204918328
 31
0.0
  0
LWPOLYLINE
  5
E97
330
1E
100
AcDbEntity
  8
STEMPEL
100
AcDbPolyline
 90
       10
 70
   128
 43
0.0
 10
-213.2867145951665
 20
606.1562049183264
 10
-213.514467158035
 20
606.2473584002531
 10
-213.7352995745292
 20
606.518049193611
 10
-213.9425019634205
 20
606.9600524956197
 10
-214.1297785849717
 20
607.5599382596126
 10
-214.2914391338036
 20
608.2994792602073
 10
-214.4225716359442
 20
609.1562049183266
 10
-214.5191916966722
 20
610.1040840583725
 10
-214.5783635643344
 20
611.1143158523251
 10
-214.5982893316744
 20
612.1562049183268
210
0.0
220
0.0
230
-1.0
  0
LWPOLYLINE
  5
E98
330
1E
100
AcDbEntity
  8
STEMPEL
100
AcDbPolyline
 90
        7
 70
   128
 43
0.0
 10
-213.8808813597308
 20
607.1562049183263
 10
-214.0497772054993
 20
607.7655428201672
 10
-214.1946305940719
 20
608.4929730934565
 10
-214.311545511639
 20
609.3189305874001
 10
-214.3973773846567
 20
610.2212001378624
 10
-214.4498176571024
 20
611.1755140721056
 10
-214.4674558819877
 20
612.1562049183268
210
0.0
220
0.0
230
-1.0
  0
LINE
  5
E99
330
1E
100
AcDbEntity
  8
STEMPEL
100
AcDbLine
 10
214.4674558819879
 20
618.6562049183245
 30
0.0
 11
214.4674558819879
 21
612.1562049183279
 31
0.0
  0
LINE
  5
E9A
330
1E
100
AcDbEntity
  8
STEMPEL
100
AcDbLine
 10
214.5982893316744
 20
618.6562049183229
 30
0.0
 11
214.5982893316744
 21
612.1562049183279
 31
0.0
  0
LINE
  5
E9B
330
1E
100
AcDbEntity
  8
STEMPEL
100
AcDbLine
 10
199.1400418888097
 20
607.1562049183264
 30
0.0
 11
213.8808813597311
 21
607.1562049183263
 31
0.0
  0
LWPOLYLINE
  5
E9C
330
1E
100
AcDbEntity
  8
STEMPEL
100
AcDbPolyline
 90
       18
 70
   128
 43
0.0
 10
199.7266164110669
 20
618.6562049183246
 10
199.8532256572433
 20
620.0343263019491
 10
200.228741869745
 20
621.3655174147288
 10
200.8403772943374
 20
622.6044461399055
 10
201.6673034202117
 20
623.7089222456748
 10
202.68136026994
 20
624.6413341229277
 10
203.8480153537317
 20
625.369929603489
 10
205.127539631957
 20
625.8698972421223
 10
206.4763604399411
 20
626.1242112405389
 10
207.8485453028004
 20
626.1242112405389
 10
209.1973661107845
 20
625.8698972421223
 10
210.4768903890097
 20
625.369929603489
 10
211.6435454728015
 20
624.6413341229277
 10
212.6576023225298
 20
623.7089222456748
 10
213.4845284484041
 20
622.6044461399055
 10
214.0961638729965
 20
621.3655174147287
 10
214.4716800854982
 20
620.034326301949
 10
214.5982893316745
 20
618.6562049183245
  0
LWPOLYLINE
  5
E9D
330
1E
100
AcDbEntity
  8
STEMPEL
100
AcDbPolyline
 90
        9
 70
   128
 43
0.0
 10
207.0970361466272
 20
626.1559146780994
 10
208.538376130505
 20
626.0006132841756
 10
209.9224570339546
 20
625.5662130371613
 10
211.1966816464866
 20
624.869221816886
 10
212.3126274662164
 20
623.9361263654403
 10
213.2278868296695
 20
622.8023857500968
 10
213.9076784684446
 20
621.5110838640275
 10
214.326169251094
 20
620.1112921718679
 10
214.4674558819879
 20
618.6562049183261
  0
LINE
  5
E9E
330
1E
100
AcDbEntity
  8
STEMPEL
100
AcDbLine
 10
228.8560885153541
 20
663.6562049183249
 30
0.0
 11
228.856088515354
 21
638.6562049183249
 31
0.0
  0
LWPOLYLINE
  5
E9F
330
1E
100
AcDbEntity
  8
STEMPEL
100
AcDbPolyline
 90
        7
 70
   128
 43
0.0
 10
228.8312956709769
 20
607.1562049183262
 10
228.6623998252084
 20
607.7655428201672
 10
228.5175464366357
 20
608.4929730934564
 10
228.4006315190687
 20
609.3189305874
 10
228.314799646051
 20
610.2212001378623
 10
228.2623593736053
 20
611.1755140721056
 10
228.24472114872
 20
612.1562049183267
  0
LWPOLYLINE
  5
EA0
330
1E
100
AcDbEntity
  8
STEMPEL
100
AcDbPolyline
 90
       10
 70
   128
 43
0.0
 10
229.4254624355411
 20
606.1562049183262
 10
229.1977098726726
 20
606.247358400253
 10
228.9768774561784
 20
606.5180491936108
 10
228.7696750672872
 20
606.9600524956197
 10
228.582398445736
 20
607.5599382596124
 10
228.420737896904
 20
608.2994792602072
 10
228.2896053947634
 20
609.1562049183265
 10
228.1929853340355
 20
610.1040840583725
 10
228.1338134663732
 20
611.114315852325
 10
228.1138876990333
 20
612.1562049183267
  0
LINE
  5
EA1
330
1E
100
AcDbEntity
  8
STEMPEL
100
AcDbLine
 10
228.1138876990334
 20
618.6562049183228
 30
0.0
 11
228.1138876990333
 21
612.1562049183278
 31
0.0
  0
LINE
  5
EA2
330
1E
100
AcDbEntity
  8
STEMPEL
100
AcDbLine
 10
228.2447211487199
 20
618.6562049183244
 30
0.0
 11
228.2447211487198
 21
612.1562049183278
 31
0.0
  0
LWPOLYLINE
  5
EA3
330
1E
100
AcDbEntity
  8
STEMPEL
100
AcDbPolyline
 90
       10
 70
   128
 43
0.0
 10
244.2971353561487
 20
606.1562049183262
 10
244.0693827932801
 20
606.247358400253
 10
243.8485503767859
 20
606.5180491936107
 10
243.6413479878948
 20
606.9600524956197
 10
243.4540713663436
 20
607.5599382596124
 10
243.2924108175116
 20
608.2994792602071
 10
243.161278315371
 20
609.1562049183265
 10
243.0646582546431
 20
610.1040840583725
 10
243.0054863869808
 20
611.114315852325
 10
242.9855606196409
 20
612.1562049183267
  0
LINE
  5
EA4
330
1E
100
AcDbEntity
  8
STEMPEL
100
AcDbLine
 10
242.9855606196411
 20
618.656204918326
 30
0.0
 11
242.985560619641
 21
612.1562049183278
 31
0.0
  0
LINE
  5
EA5
330
1E
100
AcDbEntity
  8
STEMPEL
100
AcDbLine
 10
243.5721351418979
 20
607.1562049183262
 30
0.0
 11
228.8312956709765
 21
607.1562049183262
 31
0.0
  0
LWPOLYLINE
  5
EA6
330
1E
100
AcDbEntity
  8
STEMPEL
100
AcDbPolyline
 90
        9
 70
   128
 43
0.0
 10
-235.6151408840806
 20
626.1559146780991
 10
-234.1738009002027
 20
626.0006132841755
 10
-232.7897199967532
 20
625.5662130371612
 10
-231.5154953842212
 20
624.869221816886
 10
-230.3995495644914
 20
623.9361263654402
 10
-229.4842902010383
 20
622.8023857500968
 10
-228.8044985622632
 20
621.5110838640274
 10
-228.3860077796138
 20
620.1112921718679
 10
-228.2447211487199
 20
618.656204918326
210
0.0
220
0.0
230
-1.0
  0
LWPOLYLINE
  5
EA7
330
1E
100
AcDbEntity
  8
STEMPEL
100
AcDbPolyline
 90
       18
 70
   128
 43
0.0
 10
-242.9855606196408
 20
618.6562049183244
 10
-242.8589513734645
 20
620.034326301949
 10
-242.4834351609628
 20
621.3655174147286
 10
-241.8717997363704
 20
622.6044461399053
 10
-241.0448736104961
 20
623.7089222456746
 10
-240.0308167607678
 20
624.6413341229274
 10
-238.8641616769761
 20
625.3699296034888
 10
-237.5846373987508
 20
625.869897242122
 10
-236.2358165907667
 20
626.1242112405389
 10
-234.8636317279074
 20
626.1242112405389
 10
-233.5148109199233
 20
625.869897242122
 10
-232.235286641698
 20
625.3699296034888
 10
-231.0686315579063
 20
624.6413341229275
 10
-230.054574708178
 20
623.7089222456748
 10
-229.2276485823037
 20
622.6044461399054
 10
-228.6160131577113
 20
621.3655174147286
 10
-228.2404969452096
 20
620.034326301949
 10
-228.1138876990332
 20
618.6562049183244
210
0.0
220
0.0
230
-1.0
  0
ARC
  5
EA8
330
1E
100
AcDbEntity
  8
STEMPEL
100
AcDbCircle
 10
221.356088515354
 20
663.6562049183265
 30
0.0
 40
7.5
100
AcDbArc
 50
359.999999999987
 51
179.9999999999739
  0
ARC
  5
EA9
330
1E
100
AcDbEntity
  8
STEMPEL
100
AcDbCircle
 10
221.356088515354
 20
638.6562049183265
 30
0.0
 40
7.5
100
AcDbArc
 50
180.000000000026
 51
0.0000000000130276
  0
LWPOLYLINE
  5
EAA
330
1E
100
AcDbEntity
  8
STEMPEL
100
AcDbPolyline
 90
       10
 70
   128
 43
0.0
 10
-183.9492075630779
 20
606.1562049183264
 10
-184.4219375208315
 20
606.2473584002532
 10
-184.8803038180317
 20
606.5180491936111
 10
-185.3103792266825
 20
606.9600524956199
 10
-185.6990961231207
 20
607.5599382596126
 10
-186.0346435411484
 20
608.2994792602073
 10
-186.306826042264
 20
609.1562049183266
 10
-186.5073734989021
 20
610.1040840583728
 10
-186.6301923780745
 20
611.1143158523252
 10
-186.671550890287
 20
612.1562049183268
210
0.0
220
0.0
230
-1.0
  0
LINE
  5
EAB
330
1E
100
AcDbEntity
  8
STEMPEL
100
AcDbLine
 10
171.595846469887
 20
607.1562049183265
 30
0.0
 11
185.0704551918814
 21
607.1562049183264
 31
0.0
  0
LWPOLYLINE
  5
EAC
330
1E
100
AcDbEntity
  8
STEMPEL
100
AcDbPolyline
 90
        9
 70
   128
 43
0.0
 10
179.5506622636397
 20
626.1533313413649
 10
180.8748717139695
 20
625.974498434317
 10
182.1428511111556
 20
625.5242225169929
 10
183.3075697992412
 20
624.8192047848537
 10
184.3258271678479
 20
623.8855950684701
 10
185.1598550071101
 20
622.758021909494
 10
185.7787183693041
 20
621.4783081525422
 10
186.1594629777782
 20
620.0939196930067
 10
186.2879666246101
 20
618.6562049183262
  0
LWPOLYLINE
  5
EAD
330
1E
100
AcDbEntity
  8
STEMPEL
100
AcDbPolyline
 90
       18
 70
   128
 43
0.0
 10
172.8133579026161
 20
618.6562049183248
 10
172.9313389378972
 20
620.0343263019492
 10
173.2812643410869
 20
621.3655174147288
 10
173.8512178222687
 20
622.6044461399056
 10
174.6217902992247
 20
623.708922245675
 10
175.5667408504523
 20
624.6413341229278
 10
176.6538903182723
 20
625.369929603489
 10
177.8462171314506
 20
625.8698972421223
 10
179.1031180304024
 20
626.124211240539
 10
180.3817907625008
 20
626.124211240539
 10
181.6386916614526
 20
625.8698972421223
 10
182.8310184746309
 20
625.369929603489
 10
183.9181679424509
 20
624.6413341229278
 10
184.8631184936784
 20
623.708922245675
 10
185.6336909706345
 20
622.6044461399056
 10
186.2036444518163
 20
621.3655174147288
 10
186.5535698550059
 20
620.0343263019492
 10
186.6715508902871
 20
618.6562049183246
  0
LINE
  5
EAE
330
1E
100
AcDbEntity
  8
STEMPEL
100
AcDbLine
 10
114.836734947227
 20
680.4750423652075
 30
0.0
 11
138.8155888401782
 21
694.4626955313928
 31
0.0
  0
LINE
  5
EAF
330
1E
100
AcDbEntity
  8
STEMPEL
100
AcDbLine
 10
114.3233938936462
 20
681.3332854783701
 30
0.0
 11
138.3096967691131
 21
695.3252954890586
 31
0.0
  0
LINE
  5
EB0
330
1E
100
AcDbEntity
  8
STEMPEL
100
AcDbLine
 10
115.8681912704543
 20
607.1562049183268
 30
0.0
 11
120.6823884194257
 21
607.1562049183268
 31
0.0
  0
LWPOLYLINE
  5
EB1
330
1E
100
AcDbEntity
  8
STEMPEL
100
AcDbPolyline
 90
       18
 70
   128
 43
0.0
 10
118.0217629031229
 20
618.6562049183249
 10
118.0706322480392
 20
620.0343263019495
 10
118.2155760958593
 20
621.3655174147292
 10
118.4516585576865
 20
622.604446139906
 10
118.7708401284331
 20
623.7089222456752
 10
119.1622514625236
 20
624.6413341229281
 10
119.6125635164215
 20
625.3699296034893
 10
120.106441453221
 20
625.8698972421226
 10
120.6270668521259
 20
626.1242112405393
 10
121.1567104395977
 20
626.1242112405393
 10
121.6773358385026
 20
625.8698972421226
 10
122.1712137753021
 20
625.3699296034892
 10
122.6215258292
 20
624.6413341229279
 10
123.0129371632905
 20
623.7089222456752
 10
123.3321187340371
 20
622.6044461399059
 10
123.5682011958643
 20
621.3655174147291
 10
123.7131450436844
 20
620.0343263019495
 10
123.7620143886007
 20
618.6562049183248
  0
ARC
  5
EB2
330
1E
100
AcDbEntity
  8
STEMPEL
100
AcDbCircle
 10
301.3560885153544
 20
690.1562049183255
 30
0.0
 40
6.0
100
AcDbArc
 50
90.0
 51
90.0
  0
ARC
  5
EB3
330
1E
100
AcDbEntity
  8
STEMPEL
100
AcDbCircle
 10
301.3560885153544
 20
690.1562049183255
 30
0.0
 40
6.0
100
AcDbArc
 50
59.48712567238029
 51
90.0
  0
ARC
  5
EB4
330
1E
100
AcDbEntity
  8
STEMPEL
100
AcDbCircle
 10
301.3560885153544
 20
690.1562049183255
 30
0.0
 40
5.0
100
AcDbArc
 50
59.46264995169811
 51
90.0
  0
ARC
  5
EB5
330
1E
100
AcDbEntity
  8
STEMPEL
100
AcDbCircle
 10
325.3560885153541
 20
676.1561469510103
 30
0.0
 40
5.0
100
AcDbArc
 50
0.0
 51
59.74358352518254
  0
ARC
  5
EB6
330
1E
100
AcDbEntity
  8
STEMPEL
100
AcDbCircle
 10
330.8672321196658
 20
685.6760419007875
 30
0.0
 40
5.0
100
AcDbArc
 50
239.7435628364698
 51
239.9329541615142
  0
ARC
  5
EB7
330
1E
100
AcDbEntity
  8
STEMPEL
100
AcDbCircle
 10
325.3560885153541
 20
676.1561469510103
 30
0.0
 40
6.0
100
AcDbArc
 50
0.0
 51
59.74358352518254
  0
LINE
  5
EB8
330
1E
100
AcDbEntity
  8
STEMPEL
100
AcDbLine
 10
328.3887831370621
 20
681.3332854783691
 30
0.0
 11
304.4024802615953
 21
695.3252954890578
 31
0.0
  0
LINE
  5
EB9
330
1E
100
AcDbEntity
  8
STEMPEL
100
AcDbLine
 10
327.8754420834813
 20
680.4750423652064
 30
0.0
 11
303.8965881905302
 21
694.4626955313921
 31
0.0
  0
ELLIPSE
  5
EBA
330
1E
100
AcDbEntity
  8
STEMPEL
100
AcDbEllipse
 10
276.2280986844753
 20
663.6562049183262
 30
0.0
 11
0.0000000000000334
 21
7.5
 31
0.0
210
0.0
220
0.0
230
-1.0
 40
0.8660254037843856
 41
4.712388980384689
 42
6.24459510668465
  0
ELLIPSE
  5
EBB
330
1E
100
AcDbEntity
  8
STEMPEL
100
AcDbEllipse
 10
275.7269216890334
 20
663.6562049183262
 30
0.0
 11
0.0000000000000334
 21
7.5
 31
0.0
210
0.0
220
0.0
230
-1.0
 40
0.8660254037843856
 41
4.712388980384689
 42
7.853981633974482
  0
ELLIPSE
  5
EBC
330
1E
100
AcDbEntity
  8
STEMPEL
100
AcDbEllipse
 10
276.2280986844752
 20
638.6562049183262
 30
0.0
 11
-0.0000000000000334
 21
-7.5
 31
0.0
210
0.0
220
0.0
230
1.0
 40
0.8660254037843856
 41
4.712388980384689
 42
6.24459510668465
  0
ELLIPSE
  5
EBD
330
1E
100
AcDbEntity
  8
STEMPEL
100
AcDbEllipse
 10
275.7269216890332
 20
638.6562049183262
 30
0.0
 11
-0.0000000000000334
 21
-7.5
 31
0.0
210
0.0
220
0.0
230
1.0
 40
0.8660254037843856
 41
4.712388980384689
 42
7.853981633974482
  0
LINE
  5
EBE
330
1E
100
AcDbEntity
  8
STEMPEL
100
AcDbLine
 10
269.7329081560924
 20
663.6562049183262
 30
0.0
 11
269.7329081560923
 21
638.6562049183262
 31
0.0
  0
LINE
  5
EBF
330
1E
100
AcDbEntity
  8
STEMPEL
100
AcDbLine
 10
282.2221122174162
 20
663.6562049183262
 30
0.0
 11
282.2221122174161
 21
638.6562049183278
 31
0.0
  0
LINE
  5
EC0
330
1E
100
AcDbEntity
  8
STEMPEL
100
AcDbLine
 10
269.2317311606504
 20
663.6562049183262
 30
0.0
 11
269.2317311606503
 21
638.6562049183262
 31
0.0
  0
LWPOLYLINE
  5
EC1
330
1E
100
AcDbEntity
  8
STEMPEL
100
AcDbPolyline
 90
        7
 70
   128
 43
0.0
 10
257.6417218388267
 20
607.1562049183262
 10
257.2911566244147
 20
607.7655428201669
 10
256.990494645476
 20
608.4929730934562
 10
256.7478225835414
 20
609.3189305874
 10
256.5696674084929
 20
610.2212001378623
 10
256.4608208275124
 20
611.1755140721054
 10
256.4242104060976
 20
612.1562049183267
  0
LINE
  5
EC2
330
1E
100
AcDbEntity
  8
STEMPEL
100
AcDbLine
 10
256.0406261404207
 20
618.6562049183228
 30
0.0
 11
256.0406261404206
 21
612.1562049183278
 31
0.0
  0
LINE
  5
EC3
330
1E
100
AcDbEntity
  8
STEMPEL
100
AcDbLine
 10
256.4242104060977
 20
618.6562049183244
 30
0.0
 11
256.4242104060976
 21
612.1562049183278
 31
0.0
  0
LWPOLYLINE
  5
EC4
330
1E
100
AcDbEntity
  8
STEMPEL
100
AcDbPolyline
 90
       10
 70
   128
 43
0.0
 10
258.7629694676297
 20
606.1562049183262
 10
258.2902395098761
 20
606.247358400253
 10
257.8318732126759
 20
606.5180491936107
 10
257.4017978040251
 20
606.9600524956196
 10
257.0130809075869
 20
607.5599382596124
 10
256.6775334895592
 20
608.2994792602071
 10
256.4053509884436
 20
609.1562049183265
 10
256.2048035318055
 20
610.1040840583724
 10
256.0819846526331
 20
611.114315852325
 10
256.0406261404206
 20
612.1562049183267
  0
LWPOLYLINE
  5
EC5
330
1E
100
AcDbEntity
  8
STEMPEL
100
AcDbPolyline
 90
       10
 70
   128
 43
0.0
 10
272.6211624553006
 20
606.1562049183261
 10
272.148432497547
 20
606.2473584002528
 10
271.6900662003468
 20
606.5180491936107
 10
271.2599907916961
 20
606.9600524956195
 10
270.8712738952578
 20
607.5599382596124
 10
270.5357264772301
 20
608.2994792602071
 10
270.2635439761145
 20
609.1562049183263
 10
270.0629965194764
 20
610.1040840583723
 10
269.940177640304
 20
611.1143158523248
 10
269.8988191280915
 20
612.1562049183266
  0
LINE
  5
EC6
330
1E
100
AcDbEntity
  8
STEMPEL
100
AcDbLine
 10
269.8988191280916
 20
618.6562049183243
 30
0.0
 11
269.8988191280915
 21
612.1562049183276
 31
0.0
  0
LINE
  5
EC7
330
1E
100
AcDbEntity
  8
STEMPEL
100
AcDbLine
 10
281.6036706615729
 20
618.6562049183241
 30
0.0
 11
281.6036706615728
 21
612.1562049183276
 31
0.0
  0
LINE
  5
EC8
330
1E
100
AcDbEntity
  8
STEMPEL
100
AcDbLine
 10
282.2138651094352
 20
618.6562049183241
 30
0.0
 11
282.2138651094351
 21
612.1562049183276
 31
0.0
  0
LINE
  5
EC9
330
1E
100
AcDbEntity
  8
STEMPEL
100
AcDbLine
 10
271.1163305608206
 20
607.1562049183261
 30
0.0
 11
257.6417218388262
 21
607.1562049183262
 31
0.0
  0
LWPOLYLINE
  5
ECA
330
1E
100
AcDbEntity
  8
STEMPEL
100
AcDbPolyline
 90
        9
 70
   128
 43
0.0
 10
-263.1615147670681
 20
626.1533313413645
 10
-261.8373053167383
 20
625.9744984343167
 10
-260.5693259195522
 20
625.5242225169925
 10
-259.4046072314666
 20
624.8192047848533
 10
-258.3863498628599
 20
623.8855950684699
 10
-257.5523220235977
 20
622.7580219094938
 10
-256.9334586614037
 20
621.4783081525419
 10
-256.5527140529296
 20
620.0939196930065
 10
-256.4242104060977
 20
618.656204918326
210
0.0
220
0.0
230
-1.0
  0
LWPOLYLINE
  5
ECB
330
1E
100
AcDbEntity
  8
STEMPEL
100
AcDbPolyline
 90
       18
 70
   128
 43
0.0
 10
-269.8988191280916
 20
618.6562049183243
 10
-269.7808380928105
 20
620.0343263019488
 10
-269.4309126896209
 20
621.3655174147285
 10
-268.8609592084391
 20
622.6044461399053
 10
-268.090386731483
 20
623.7089222456745
 10
-267.1454361802555
 20
624.6413341229274
 10
-266.0582867124353
 20
625.3699296034887
 10
-264.8659598992572
 20
625.8698972421219
 10
-263.6090590003054
 20
626.1242112405386
 10
-262.330386268207
 20
626.1242112405386
 10
-261.0734853692552
 20
625.869897242122
 10
-259.881158556077
 20
625.3699296034888
 10
-258.7940090882569
 20
624.6413341229274
 10
-257.8490585370293
 20
623.7089222456745
 10
-257.0784860600733
 20
622.6044461399053
 10
-256.5085325788915
 20
621.3655174147286
 10
-256.1586071757018
 20
620.0343263019489
 10
-256.0406261404207
 20
618.6562049183244
210
0.0
220
0.0
230
-1.0
  0
LINE
  5
ECC
330
1E
100
AcDbEntity
  8
STEMPEL
100
AcDbLine
 10
312.647198041706
 20
638.6562049183261
 30
0.0
 11
312.6471980417061
 21
663.6562049183277
 31
0.0
  0
LINE
  5
ECD
330
1E
100
AcDbEntity
  8
STEMPEL
100
AcDbLine
 10
311.7791340220173
 20
663.6562049183261
 30
0.0
 11
311.7791340220172
 21
638.6562049183277
 31
0.0
  0
LWPOLYLINE
  5
ECE
330
1E
100
AcDbEntity
  8
STEMPEL
100
AcDbPolyline
 90
       10
 70
   128
 43
0.0
 10
297.1665739014658
 20
606.156204918326
 10
296.5305695414648
 20
606.2473584002527
 10
295.9138898521087
 20
606.5180491936104
 10
295.3352723337037
 20
606.9600524956195
 10
294.8122979867518
 20
607.5599382596122
 10
294.3608571221473
 20
608.2994792602069
 10
293.9946665421213
 20
609.1562049183262
 10
293.7248527621464
 20
610.1040840583723
 10
293.5596139373947
 20
611.1143158523248
 10
293.5039707659417
 20
612.1562049183264
  0
LINE
  5
ECF
330
1E
100
AcDbEntity
  8
STEMPEL
100
AcDbLine
 10
293.5039707659417
 20
618.6562049183241
 30
0.0
 11
293.5039707659417
 21
612.1562049183276
 31
0.0
  0
LINE
  5
ED0
330
1E
100
AcDbEntity
  8
STEMPEL
100
AcDbLine
 10
295.141993842047
 20
607.156204918326
 30
0.0
 11
283.8518881855399
 21
607.156204918326
 31
0.0
  0
LWPOLYLINE
  5
ED1
330
1E
100
AcDbEntity
  8
STEMPEL
100
AcDbPolyline
 90
        7
 70
   128
 43
0.0
 10
305.8077397386325
 20
607.156204918326
 10
305.2458107653683
 20
607.7655428201667
 10
304.7638728257812
 20
608.4929730934561
 10
304.3748882460314
 20
609.3189305873997
 10
304.0893192549248
 20
610.221200137862
 10
303.9148465891289
 20
611.1755140721052
 10
303.856162910114
 20
612.1562049183264
  0
LINE
  5
ED2
330
1E
100
AcDbEntity
  8
STEMPEL
100
AcDbLine
 10
303.0609420232935
 20
618.6562049183241
 30
0.0
 11
303.0609420232934
 21
612.1562049183276
 31
0.0
  0
LINE
  5
ED3
330
1E
100
AcDbEntity
  8
STEMPEL
100
AcDbLine
 10
303.8561629101142
 20
618.6562049183241
 30
0.0
 11
303.8561629101141
 21
612.1562049183276
 31
0.0
  0
LINE
  5
ED4
330
1E
100
AcDbEntity
  8
STEMPEL
100
AcDbLine
 10
312.1923634584253
 20
618.6562049183241
 30
0.0
 11
312.1923634584252
 21
612.1562049183276
 31
0.0
  0
LINE
  5
ED5
330
1E
100
AcDbEntity
  8
STEMPEL
100
AcDbLine
 10
314.1439402869437
 20
607.1562049183259
 30
0.0
 11
305.8077397386318
 21
607.156204918326
 31
0.0
  0
LWPOLYLINE
  5
ED6
330
1E
100
AcDbEntity
  8
STEMPEL
100
AcDbPolyline
 90
       10
 70
   128
 43
0.0
 10
307.4246481978993
 20
606.156204918326
 10
306.6668985728051
 20
606.2473584002527
 10
305.9321727866295
 20
606.5180491936104
 10
305.2427951105964
 20
606.9600524956193
 10
304.6197119365501
 20
607.5599382596122
 10
304.0818553314385
 20
608.2994792602069
 10
303.6455677960396
 20
609.1562049183262
 10
303.3241057063443
 20
610.1040840583721
 10
303.1272365252803
 20
611.1143158523248
 10
303.0609420232935
 20
612.1562049183264
  0
LWPOLYLINE
  5
ED7
330
1E
100
AcDbEntity
  8
STEMPEL
100
AcDbPolyline
 90
       10
 70
   128
 43
0.0
 10
-308.4218736276803
 20
626.1562049183273
 10
-307.6290462818206
 20
626.0422630659189
 10
-306.8603085936749
 20
625.7038995742215
 10
-306.1390182688973
 20
625.1513954467104
 10
-305.4870913490158
 20
624.4015382417192
 10
-304.9243363036002
 20
623.4771119909757
 10
-304.4678521599373
 20
622.4062049183264
 10
-304.1315089577405
 20
621.2213559932688
 10
-303.9255263150104
 20
619.958566250828
 10
-303.8561629101143
 20
618.6562049183257
210
0.0
220
0.0
230
-1.0
  0
LWPOLYLINE
  5
ED8
330
1E
100
AcDbEntity
  8
STEMPEL
100
AcDbPolyline
 90
       18
 70
   128
 43
0.0
 10
-312.1923634584252
 20
618.6562049183241
 10
-312.1146235571651
 20
620.0343263019487
 10
-311.8840511924833
 20
621.3655174147284
 10
-311.5084982297182
 20
622.6044461399051
 10
-311.0007536745905
 20
623.7089222456743
 10
-310.3781081589525
 20
624.6413341229271
 10
-309.6617651290585
 20
625.3699296034885
 10
-308.8761187876325
 20
625.8698972421218
 10
-308.0479233785532
 20
626.1242112405384
 10
-307.2053821031655
 20
626.1242112405384
 10
-306.377186694086
 20
625.8698972421218
 10
-305.5915403526601
 20
625.3699296034885
 10
-304.8751973227661
 20
624.6413341229271
 10
-304.2525518071282
 20
623.7089222456743
 10
-303.7448072520005
 20
622.6044461399051
 10
-303.3692542892353
 20
621.3655174147284
 10
-303.1386819245534
 20
620.0343263019487
 10
-303.0609420232934
 20
618.6562049183241
210
0.0
220
0.0
230
-1.0
  0
LWPOLYLINE
  5
ED9
330
1E
100
AcDbEntity
  8
STEMPEL
100
AcDbPolyline
 90
        7
 70
   128
 43
0.0
 10
283.8518881855405
 20
607.156204918326
 10
283.3802425849736
 20
607.7655428201669
 10
282.9757361085908
 20
608.4929730934561
 10
282.6492484661017
 20
609.3189305873997
 10
282.4095609526936
 20
610.221200137862
 10
282.2631202650675
 20
611.1755140721054
 10
282.2138651094351
 20
612.1562049183264
  0
LWPOLYLINE
  5
EDA
330
1E
100
AcDbEntity
  8
STEMPEL
100
AcDbPolyline
 90
       10
 70
   128
 43
0.0
 10
285.2662737970969
 20
606.156204918326
 10
284.630269437096
 20
606.2473584002527
 10
284.0135897477399
 20
606.5180491936106
 10
283.4349722293348
 20
606.9600524956195
 10
282.9119978823829
 20
607.5599382596123
 10
282.4605570177785
 20
608.299479260207
 10
282.0943664377525
 20
609.1562049183262
 10
281.8245526577775
 20
610.1040840583723
 10
281.6593138330258
 20
611.1143158523248
 10
281.6036706615728
 20
612.1562049183264
  0
LWPOLYLINE
  5
EDB
330
1E
100
AcDbEntity
  8
STEMPEL
100
AcDbPolyline
 90
        9
 70
   128
 43
0.0
 10
-287.8589179376769
 20
626.1463389961479
 10
-286.7425102163057
 20
625.9390318597409
 10
-285.6772309645635
 20
625.469777132287
 10
-284.7013959815251
 20
624.7554528951184
 10
-283.8501039486672
 20
623.8217518517221
 10
-283.1539740059308
 20
622.7022572165617
 10
-282.6380444472394
 20
621.437234799223
 10
-282.3208721470235
 20
620.0721847300137
 10
-282.2138651094353
 20
618.6562049183257
210
0.0
220
0.0
230
-1.0
  0
LWPOLYLINE
  5
EDC
330
1E
100
AcDbEntity
  8
STEMPEL
100
AcDbPolyline
 90
       18
 70
   128
 43
0.0
 10
-293.5039707659419
 20
618.6562049183241
 10
-293.4026581541375
 20
620.0343263019488
 10
-293.1021703982083
 20
621.3655174147284
 10
-292.6127402482871
 20
622.6044461399051
 10
-291.9510346611227
 20
623.7089222456744
 10
-291.1395872268575
 20
624.6413341229271
 10
-290.2060308146419
 20
625.3699296034885
 10
-289.1821565684157
 20
625.8698972421218
 10
-288.102831297633
 20
626.1242112405385
 10
-287.0048101298819
 20
626.1242112405386
 10
-285.9254848590991
 20
625.8698972421218
 10
-284.901610612873
 20
625.3699296034885
 10
-283.9680542006573
 20
624.6413341229273
 10
-283.1566067663922
 20
623.7089222456745
 10
-282.4949011792278
 20
622.6044461399052
 10
-282.0054710293066
 20
621.3655174147284
 10
-281.7049832733774
 20
620.0343263019488
 10
-281.603670661573
 20
618.6562049183241
210
0.0
220
0.0
230
-1.0
  0
LINE
  5
EDD
330
1E
100
AcDbEntity
  8
STEMPEL
100
AcDbLine
 10
331.3560885153544
 20
671.1562049183257
 30
0.0
 11
330.3560885153544
 21
671.1562049183257
 31
0.0
  0
LINE
  5
EDE
330
1E
100
AcDbEntity
  8
STEMPEL
100
AcDbLine
 10
331.3560885153544
 20
631.1562049183256
 30
0.0
 11
330.3560885153542
 21
631.1562049183256
 31
0.0
  0
LINE
  5
EDF
330
1E
100
AcDbEntity
  8
STEMPEL
100
AcDbLine
 10
319.2791340220172
 20
663.656204918326
 30
0.0
 11
319.279134022017
 21
638.6562049183291
 31
0.0
  0
LWPOLYLINE
  5
EE0
330
1E
100
AcDbEntity
  8
STEMPEL
100
AcDbPolyline
 90
        7
 70
   128
 43
0.0
 10
322.0297886112829
 20
607.1562049183259
 10
321.4096980882185
 20
607.7655428201667
 10
320.8778779414351
 20
608.4929730934559
 10
320.4486321417039
 20
609.3189305873996
 10
320.1335057939066
 20
610.2212001378619
 10
319.9409746169407
 20
611.1755140721052
 10
319.8762169786144
 20
612.1562049183263
  0
LINE
  5
EE1
330
1E
100
AcDbEntity
  8
STEMPEL
100
AcDbLine
 10
318.9501626421071
 20
618.656204918324
 30
0.0
 11
318.950162642107
 21
612.1562049183275
 31
0.0
  0
LINE
  5
EE2
330
1E
100
AcDbEntity
  8
STEMPEL
100
AcDbLine
 10
319.8762169786144
 20
618.656204918324
 30
0.0
 11
319.8762169786143
 21
612.1562049183275
 31
0.0
  0
LWPOLYLINE
  5
EE3
330
1E
100
AcDbEntity
  8
STEMPEL
100
AcDbPolyline
 90
        7
 70
   128
 43
0.0
 10
-329.6643441894375
 20
625.1182589741638
 10
-329.5265151798673
 20
624.3661527372253
 10
-329.4076509029011
 20
623.4434391265105
 10
-329.3113029009999
 20
622.3776878766062
 10
-329.2403499534616
 20
621.2007425397851
 10
-329.1969120614538
 20
619.9477690333833
 10
-329.1822871045562
 20
618.656204918324
210
0.0
220
0.0
230
-1.0
  0
LWPOLYLINE
  5
EE4
330
1E
100
AcDbEntity
  8
STEMPEL
100
AcDbPolyline
 90
        7
 70
   128
 43
0.0
 10
331.8027462882268
 20
607.1562049183262
 10
331.1260444131493
 20
607.7658056461853
 10
330.5264949895154
 20
608.493364730097
 10
330.0202063163657
 20
609.3193345917772
 10
329.6207810243202
 20
610.2215236169802
 10
329.3389506090573
 20
611.1756923851739
 10
329.1822871045558
 20
612.1562049183262
  0
LWPOLYLINE
  5
EE5
330
1E
100
AcDbEntity
  8
STEMPEL
100
AcDbPolyline
 90
       10
 70
   128
 43
0.0
 10
329.5057786541587
 20
606.1562049183257
 10
328.6695993793171
 20
606.2473584002525
 10
327.8588269886145
 20
606.5180491936104
 10
327.0980963908717
 20
606.9600524956192
 10
326.4105220003529
 20
607.559938259612
 10
325.8169954169845
 20
608.2994792602069
 10
325.3355506456633
 20
609.1562049183261
 10
324.9808161421429
 20
610.1040840583721
 10
324.7635703348087
 20
611.1143158523247
 10
324.6904141275848
 20
612.1562049183263
  0
LINE
  5
EE6
330
1E
100
AcDbEntity
  8
STEMPEL
100
AcDbLine
 10
324.6904141275849
 20
618.656204918324
 30
0.0
 11
324.6904141275848
 21
612.1562049183275
 31
0.0
  0
LINE
  5
EE7
330
1E
100
AcDbEntity
  8
STEMPEL
100
AcDbLine
 10
330.1464012743187
 20
618.656204918324
 30
0.0
 11
330.1464012743186
 21
612.1562049183262
 31
0.0
  0
LINE
  5
EE8
330
1E
100
AcDbEntity
  8
STEMPEL
100
AcDbLine
 10
329.1822871045561
 20
618.656204918324
 30
0.0
 11
329.1822871045559
 21
612.1562049183262
 31
0.0
  0
LINE
  5
EE9
330
1E
100
AcDbEntity
  8
STEMPEL
100
AcDbLine
 10
328.1885083910182
 20
618.656204918324
 30
0.0
 11
328.1885083910181
 21
612.1562049183251
 31
0.0
  0
LWPOLYLINE
  5
EEA
330
1E
100
AcDbEntity
  8
STEMPEL
100
AcDbPolyline
 90
       10
 70
   128
 43
0.0
 10
323.7655271686809
 20
606.1562049183258
 10
322.9293478938394
 20
606.2473584002527
 10
322.1185755031367
 20
606.5180491936104
 10
321.3578449053939
 20
606.9600524956192
 10
320.6702705148751
 20
607.5599382596122
 10
320.0767439315067
 20
608.2994792602069
 10
319.5952991601855
 20
609.1562049183261
 10
319.2405646566651
 20
610.1040840583721
 10
319.0233188493309
 20
611.1143158523247
 10
318.950162642107
 20
612.1562049183263
  0
LINE
  5
EEB
330
1E
100
AcDbEntity
  8
STEMPEL
100
AcDbLine
 10
326.8439857602533
 20
607.1562049183257
 30
0.0
 11
322.0297886112819
 21
607.1562049183259
 31
0.0
  0
LINE
  5
EEC
330
1E
100
AcDbEntity
  8
STEMPEL
100
AcDbLine
 10
332.7668604579892
 20
607.1562049183257
 30
0.0
 11
331.8027462882266
 21
607.1562049183257
 31
0.0
  0
LWPOLYLINE
  5
EED
330
1E
100
AcDbEntity
  8
STEMPEL
100
AcDbPolyline
 90
       10
 70
   128
 43
0.0
 10
333.6944971220489
 20
606.1562049183257
 10
332.8364241257761
 20
606.2223321328985
 10
331.9836119261539
 20
606.4748858826288
 10
331.1628536192369
 20
606.9059315989463
 10
330.3999352528379
 20
607.5019269693862
 10
329.7188256973387
 20
608.2441474011068
 10
329.140923607393
 20
609.1092742979042
 10
328.6843851329868
 20
610.0701276686203
 10
328.3635535013892
 20
611.0965200503325
 10
328.1885083910181
 20
612.1562049183251
  0
LWPOLYLINE
  5
EEE
330
1E
100
AcDbEntity
  8
STEMPEL
100
AcDbPolyline
 90
       10
 70
   128
 43
0.0
 10
335.6523900053494
 20
606.1562049183269
 10
334.7943170090766
 20
606.2223321328996
 10
333.9415048094544
 20
606.4748858826298
 10
333.1207465025374
 20
606.9059315989473
 10
332.3578281361384
 20
607.5019269693873
 10
331.6767185806392
 20
608.2441474011079
 10
331.0988164906935
 20
609.1092742979054
 10
330.6422780162872
 20
610.0701276686215
 10
330.3214463846897
 20
611.0965200503336
 10
330.1464012743186
 20
612.1562049183262
  0
ARC
  5
EEF
330
1E
100
AcDbEntity
  8
STEMPEL
100
AcDbCircle
 10
336.3560885153538
 20
612.1562049183262
 30
0.0
 40
5.0
100
AcDbArc
 50
180.0
 51
269.9999999999984
  0
ARC
  5
EF0
330
1E
100
AcDbEntity
  8
STEMPEL
100
AcDbCircle
 10
336.3560885153538
 20
612.1562049183262
 30
0.0
 40
6.0
100
AcDbArc
 50
180.0
 51
269.9999999999984
  0
LWPOLYLINE
  5
EF1
330
1E
100
AcDbEntity
  8
STEMPEL
100
AcDbPolyline
 90
       18
 70
   128
 43
0.0
 10
-324.6904141275849
 20
618.656204918324
 10
-324.6415447826686
 20
620.0343263019485
 10
-324.4966009348485
 20
621.3655174147283
 10
-324.2605184730213
 20
622.6044461399051
 10
-323.9413369022746
 20
623.7089222456743
 10
-323.5499255681842
 20
624.6413341229271
 10
-323.0996135142863
 20
625.3699296034884
 10
-322.6057355774868
 20
625.8698972421217
 10
-322.0851101785819
 20
626.1242112405384
 10
-321.5554665911101
 20
626.1242112405384
 10
-321.0348411922051
 20
625.8698972421217
 10
-320.5409632554057
 20
625.3699296034884
 10
-320.0906512015077
 20
624.6413341229271
 10
-319.6992398674174
 20
623.7089222456743
 10
-319.3800582966706
 20
622.6044461399051
 10
-319.1439758348435
 20
621.3655174147283
 10
-318.9990319870234
 20
620.0343263019485
 10
-318.9501626421071
 20
618.656204918324
210
0.0
220
0.0
230
-1.0
  0
LWPOLYLINE
  5
EF2
330
1E
100
AcDbEntity
  8
STEMPEL
100
AcDbPolyline
 90
        9
 70
   128
 43
0.0
 10
-322.283315553098
 20
626.0579631629891
 10
-321.7942550098293
 20
625.7315302652317
 10
-321.3346420419283
 20
625.1862612519745
 10
-320.918692238304
 20
624.4390210088465
 10
-320.5592707090125
 20
623.512921286069
 10
-320.267494174125
 20
622.4366058640987
 10
-320.0523871293868
 20
621.2433646164679
 10
-319.9206027232794
 20
619.970103871392
 10
-319.8762169786145
 20
618.6562049183256
210
0.0
220
0.0
230
-1.0
  0
LWPOLYLINE
  5
EF3
330
1E
100
AcDbEntity
  8
STEMPEL
100
AcDbPolyline
 90
       18
 70
   128
 43
0.0
 10
-330.1464012743187
 20
618.656204918324
 10
-330.1297328508419
 20
620.0343263019485
 10
-330.0802952035815
 20
621.3655174147281
 10
-329.9997718723211
 20
622.604446139905
 10
-329.8909049825294
 20
623.7089222456743
 10
-329.7574018655671
 20
624.6413341229271
 10
-329.603808809963
 20
625.3699296034883
 10
-329.4353562430109
 20
625.8698972421216
 10
-329.257780614842
 20
626.1242112405384
 10
-329.0771290504949
 20
626.1242112405384
 10
-328.899553422326
 20
625.8698972421216
 10
-328.7311008553739
 20
625.3699296034883
 10
-328.5775077997698
 20
624.6413341229271
 10
-328.4440046828075
 20
623.7089222456743
 10
-328.3351377930159
 20
622.604446139905
 10
-328.2546144617554
 20
621.3655174147281
 10
-328.2051768144949
 20
620.0343263019485
 10
-328.1885083910182
 20
618.656204918324
210
0.0
220
0.0
230
-1.0
  0
LINE
  5
EF4
330
1E
100
AcDbEntity
  8
STEMPEL
100
AcDbLine
 10
351.356088515354
 20
607.156204918326
 30
0.0
 11
351.3560885153542
 21
606.1562049183257
 31
0.0
  0
LINE
  5
EF5
330
1E
100
AcDbEntity
  8
STEMPEL
100
AcDbLine
 10
351.3560885153539
 20
607.1562049183257
 30
0.0
 11
336.3560885153537
 21
607.1562049183262
 31
0.0
  0
LWPOLYLINE
  5
EF6
330
1E
100
AcDbEntity
  8
STEMPEL
100
AcDbPolyline
 90
       10
 70
   128
 43
0.0
 10
316.5560696330311
 20
606.1562049183258
 10
315.7983200079369
 20
606.2473584002527
 10
315.0635942217614
 20
606.5180491936104
 10
314.3742165457283
 20
606.9600524956192
 10
313.7511333716819
 20
607.5599382596122
 10
313.2132767665704
 20
608.2994792602069
 10
312.7769892311714
 20
609.1562049183262
 10
312.4555271414762
 20
610.1040840583721
 10
312.2586579604122
 20
611.1143158523248
 10
312.1923634584253
 20
612.1562049183264
  0
ELLIPSE
  5
EF7
330
1E
100
AcDbEntity
  8
STEMPEL
100
AcDbEllipse
 10
315.5291340220172
 20
663.656204918326
 30
0.0
 11
0.0000000000000334
 21
7.499999999999999
 31
0.0
210
0.0
220
0.0
230
-1.0
 40
0.4999999999999926
 41
4.712388980384689
 42
7.853981633974482
  0
ELLIPSE
  5
EF8
330
1E
100
AcDbEntity
  8
STEMPEL
100
AcDbEllipse
 10
316.3971980417061
 20
663.656204918326
 30
0.0
 11
0.0000000000000334
 21
7.499999999999999
 31
0.0
210
0.0
220
0.0
230
-1.0
 40
0.4999999999999926
 41
4.712388980384689
 42
6.167183451052224
  0
ELLIPSE
  5
EF9
330
1E
100
AcDbEntity
  8
STEMPEL
100
AcDbEllipse
 10
316.397198041706
 20
638.6562049183275
 30
0.0
 11
-0.0000000000000334
 21
-7.499999999999999
 31
0.0
210
0.0
220
0.0
230
1.0
 40
0.4999999999999926
 41
4.712388980384689
 42
6.167183451052224
  0
ELLIPSE
  5
EFA
330
1E
100
AcDbEntity
  8
STEMPEL
100
AcDbEllipse
 10
315.529134022017
 20
638.6562049183275
 30
0.0
 11
-0.0000000000000334
 21
-7.499999999999999
 31
0.0
210
0.0
220
0.0
230
1.0
 40
0.4999999999999926
 41
4.712388980384689
 42
7.853981633974482
  0
LINE
  5
EFB
330
1E
100
AcDbEntity
  8
STEMPEL
100
AcDbLine
 10
331.3560885153543
 20
676.1561469510102
 30
0.0
 11
331.3560885153539
 21
612.1562049183262
 31
0.0
  0
LINE
  5
EFC
330
1E
100
AcDbEntity
  8
STEMPEL
100
AcDbLine
 10
330.3560885153542
 20
676.1561469510102
 30
0.0
 11
330.3560885153538
 21
612.1562049183262
 31
0.0
  0
LINE
  5
EFD
330
1E
100
AcDbEntity
  8
STEMPEL
100
AcDbLine
 10
301.3560885153544
 20
696.1562049183251
 30
0.0
 11
246.6177263430049
 21
696.1562049183258
 31
0.0
  0
LINE
  5
EFE
330
1E
100
AcDbEntity
  8
HILF
100
AcDbLine
 10
119.0297554578236
 20
679.1562049183295
 30
0.0
 11
324.182421572885
 21
679.1562049183283
 31
0.0
  0
LINE
  5
EFF
330
1E
100
AcDbEntity
  8
STEMPEL
100
AcDbLine
 10
351.3560885153539
 20
606.1562049183257
 30
0.0
 11
91.35608851535383
 21
606.1562049183269
 31
0.0
  0
LINE
  5
F00
330
1E
100
AcDbEntity
  8
STEMPEL
100
AcDbLine
 10
301.3560885153544
 20
695.1562049183255
 30
0.0
 11
141.3560885153541
 21
695.1562049183267
 31
0.0
  0
HATCH
  5
F01
330
1E
100
AcDbEntity
  8
SCHRAFF
100
AcDbHatch
 10
0.0
 20
0.0
 30
0.0
210
0.0
220
0.0
230
1.0
  2
ANSI31
 70
     0
 71
     0
 91
        5
 92
        7
 72
     1
 73
     1
 93
       39
 10
141.3560885153541
 20
696.1562049183267
 42
0.1316524975847141
 10
138.3560885154093
 20
695.3523573410645
 42
0.0
 10
114.3233938936442
 20
681.3332854783689
 42
0.2662608607102479
 10
111.356088515354
 20
676.1561469510109
 42
0.0
 10
111.356088515354
 20
671.1562049183267
 42
0.0
 10
112.3560885153541
 20
671.1562049183267
 42
0.0
 10
112.3560885153541
 20
676.1561469510112
 42
-0.2667503951500742
 10
114.8367349472272
 20
680.4750423652076
 42
0.0
 10
138.8155888401782
 20
694.4626955313928
 42
-0.1340385084111775
 10
141.3560885153541
 20
695.1562049183267
 42
0.0
 10
195.9165739202975
 20
695.1562049183262
 42
0.2679491924311568
 10
198.0816374297589
 20
696.4062049183262
 42
-0.2679491924313146
 10
198.5146501316515
 20
696.6562049183259
 42
0.0
 10
198.7146501316516
 20
696.6562049183259
 42
-0.2679491924310819
 10
199.1476628335438
 20
696.4062049183261
 42
0.2679491924311186
 10
201.3127263430049
 20
695.1562049183262
 42
0.0
 10
207.7665739202979
 20
695.1562049183262
 42
0.2679491924311333
 10
209.9316374297591
 20
696.4062049183261
 42
-0.2679491924311795
 10
210.3646501316515
 20
696.6562049183261
 42
0.0
 10
210.5646501316515
 20
696.6562049183261
 42
-0.3419987131196873
 10
211.0487730499275
 20
696.281204918326
 42
0.359675761990544
 10
212.595516401055
 20
695.1591767169973
 42
0.3596757619904921
 10
214.1422597521823
 20
696.281204918326
 42
-0.3419987131195469
 10
214.626382670458
 20
696.6562049183259
 42
0.0
 10
221.3560885153542
 20
696.6562049183259
 42
0.0
 10
221.3560885153543
 20
697.656204918326
 42
0.0
 10
214.626382670458
 20
697.656204918326
 42
0.3419987131196276
 10
213.1740139156303
 20
696.531204918326
 42
-0.3419987131196876
 10
212.6898909973544
 20
696.1562049183259
 42
0.0
 10
212.5011418047555
 20
696.1562049183259
 42
-0.3419987131196593
 10
212.0170188864796
 20
696.531204918326
 42
0.3607372083888518
 10
210.4646501316515
 20
697.6528678730355
 42
0.2859076546238796
 10
209.0656120259747
 20
696.906204918326
 42
-0.2679491924311347
 10
207.766573920298
 20
696.1562049183259
 42
0.0
 10
201.3127263430039
 20
696.1562049183259
 42
-0.2679491924310867
 10
200.0136882373274
 20
696.9062049183257
 42
0.2859076546238621
 10
198.6146501316508
 20
697.6528678730357
 42
0.2859076546237983
 10
197.2156120259746
 20
696.906204918326
 42
-0.267949192431112
 10
195.9165739202979
 20
696.1562049183262
 42
0.0
 97
        0
 92
        7
 72
     1
 73
     1
 93
        8
 10
111.3560885153537
 20
612.1562049183272
 42
-0.4142135623730736
 10
106.356088515354
 20
607.1562049183272
 42
0.0
 10
103.3560885153539
 20
607.1562049183271
 42
0.0
 10
103.3560885153539
 20
606.1562049183269
 42
0.0
 10
106.3560885153538
 20
606.1562049183269
 42
0.414213562373112
 10
112.3560885153538
 20
612.1562049183272
 42
0.0
 10
112.3560885153539
 20
631.1562049183266
 42
0.0
 10
111.3560885153538
 20
631.1562049183266
 42
0.0
 97
        0
 92
        7
 72
     0
 73
     1
 93
        4
 10
91.35608851535407
 20
607.1562049183269
 10
91.35608851535392
 20
606.1562049183269
 10
95.35608851535396
 20
606.1562049183269
 10
95.35608851535394
 20
607.156204918327
 97
        0
 92
        7
 72
     1
 73
     1
 93
        8
 10
351.3560885153542
 20
606.1562049183257
 42
0.0
 10
351.356088515354
 20
607.1562049183257
 42
0.0
 10
336.3560885153537
 20
607.1562049183262
 42
-0.4142135623730833
 10
331.3560885153539
 20
612.1562049183262
 42
0.0
 10
331.3560885153541
 20
631.1562049183256
 42
0.0
 10
330.3560885153539
 20
631.1562049183257
 42
0.0
 10
330.3560885153538
 20
612.1562049183262
 42
0.4142135623731169
 10
336.3560885153538
 20
606.1562049183257
 42
0.0
 97
        0
 92
        7
 72
     1
 73
     1
 93
       40
 10
246.6177263430049
 20
696.1562049183258
 42
-0.2679491924311478
 10
245.3186882373282
 20
696.906204918326
 42
0.2859076546238744
 10
243.9196501316515
 20
697.6528678730354
 42
0.2859076546239183
 10
242.5206120259745
 20
696.9062049183257
 42
-0.2679491924311158
 10
241.2215739202979
 20
696.1562049183258
 42
0.0
 10
239.1627263430052
 20
696.1562049183258
 42
-0.2679491924311457
 10
237.8636882373285
 20
696.906204918326
 42
0.2859076546238805
 10
236.4646501316518
 20
697.6528678730355
 42
0.2859076546238791
 10
235.065612025975
 20
696.9062049183259
 42
-0.2679491924311259
 10
233.7665739202984
 20
696.1562049183259
 42
0.0
 10
227.3127263430043
 20
696.1562049183259
 42
-0.2679491924311028
 10
226.0136882373277
 20
696.9062049183257
 42
0.2679491924311533
 10
224.7146501316509
 20
697.656204918326
 42
0.0
 10
221.3560885153542
 20
697.656204918326
 42
0.0
 10
221.3560885153542
 20
696.6562049183258
 42
0.0
 10
224.7146501316516
 20
696.6562049183259
 42
-0.267949192431122
 10
225.1476628335438
 20
696.406204918326
 42
0.267949192431119
 10
227.3127263430049
 20
695.156204918326
 42
0.0
 10
233.7665739202985
 20
695.156204918326
 42
0.2679491924311053
 10
235.9316374297595
 20
696.4062049183257
 42
-0.2679491924310267
 10
236.3646501316515
 20
696.6562049183259
 42
0.0
 10
236.5646501316515
 20
696.6562049183259
 42
-0.2679491924311632
 10
236.9976628335438
 20
696.4062049183259
 42
0.2679491924311225
 10
239.1627263430049
 20
695.156204918326
 42
0.0
 10
241.2215739202976
 20
695.156204918326
 42
0.2679491924311512
 10
243.3866374297589
 20
696.406204918326
 42
-0.2679491924312574
 10
243.8196501316514
 20
696.6562049183258
 42
0.0
 10
244.0196501316514
 20
696.6562049183258
 42
-0.2679491924311204
 10
244.4526628335437
 20
696.4062049183259
 42
0.2679491924311204
 10
246.6177263430048
 20
695.1562049183259
 42
0.0
 10
301.3560885153544
 20
695.1562049183255
 42
-0.1340385084113062
 10
303.8965881905302
 20
694.4626955313921
 42
0.0
 10
327.8754420834813
 20
680.4750423652064
 42
-0.2667503951500889
 10
330.3560885153542
 20
676.1561469510104
 42
0.0
 10
330.3560885153542
 20
671.1562049183258
 42
0.0
 10
331.3560885153543
 20
671.1562049183258
 42
0.0
 10
331.3560885153543
 20
676.1561469510102
 42
0.2662608607100668
 10
328.3887831370678
 20
681.3332854783658
 42
0.0
 10
304.3560885152765
 20
695.352357341077
 42
0.1316524975835771
 10
301.3560885153544
 20
696.1562049183251
 42
0.0
 97
        0
 75
     0
 76
     1
 52
0.0
 41
20.0
 77
     0
 78
     1
 53
134.9999999999997
 43
459.7995600700271
 44
189.3298545698117
 45
1.767766952966376
 46
1.767766952966361
 79
     0
 47
0.2376111440341236
 98
        5
 10
159.2460108536281
 20
695.9510277012443
 10
111.5652965416364
 20
622.2867328228394
 10
93.03542064196724
 20
606.9388117912524
 10
344.4830976178339
 20
606.5150714601259
 10
294.0647870204245
 20
695.8568639809769
  0
ARC
  5
F10
330
1E
100
AcDbEntity
  8
HILF
100
AcDbCircle
 10
282.3560885153539
 20
593.9149128911008
 30
0.0
 40
14.94074366520046
100
AcDbArc
 50
78.85962783889434
 51
88.16153752705641
  0
ARC
  5
F12
330
1E
100
AcDbEntity
  8
HILF
100
AcDbCircle
 10
286.6862155342762
 20
605.0137315946224
 30
0.0
 40
3.841839622940954
100
AcDbArc
 50
67.93247218100898
 51
112.0675278189903
  0
ARC
  5
F13
330
1E
100
AcDbEntity
  8
STEMPEL
100
AcDbCircle
 10
282.3560885153539
 20
593.5489454966901
 30
0.0
 40
20.20725942163691
100
AcDbArc
 50
81.78678929826174
 51
90.40326439207204
  0
LINE
  5
F16
330
1E
100
AcDbEntity
  8
STEMPEL
100
AcDbLine
 10
287.3560885153539
 20
613.756204918327
 30
0.0
 11
288.1295912072502
 21
613.5489454966902
 31
0.0
  0
ARC
  5
F17
330
1E
100
AcDbEntity
  8
STEMPEL
100
AcDbCircle
 10
286.6862155342762
 20
608.6266677798039
 30
0.0
 40
5.129537138523076
100
AcDbArc
 50
73.65710669401501
 51
106.342893305985
  0
LINE
  5
F18
330
1E
100
AcDbEntity
  8
STEMPEL
100
AcDbLine
 10
288.9060885153539
 20
607.156204918327
 30
0.0
 11
283.8518881855397
 21
607.156204918327
 31
0.0
  0
LINE
  5
F1B
330
1E
100
AcDbEntity
  8
STEMPEL
100
AcDbLine
 10
285.2428398613021
 20
613.5489454966902
 30
0.0
 11
285.2428398613021
 21
608.5741246003264
 31
0.0
  0
LINE
  5
F1C
330
1E
100
AcDbEntity
  8
STEMPEL
100
AcDbLine
 10
288.1295912072502
 20
613.5489454966902
 30
0.0
 11
288.1295912072502
 21
608.5741246003264
 31
0.0
  0
LINE
  5
F1D
330
1E
100
AcDbEntity
  8
STEMPEL
100
AcDbLine
 10
287.3560885153539
 20
613.756204918327
 30
0.0
 11
282.2138651094352
 21
613.756204918327
 31
0.0
  0
LINE
  5
F1E
330
1E
100
AcDbEntity
  8
STEMPEL
100
AcDbLine
 10
289.094199594183
 20
608.2230358597593
 30
0.0
 11
288.1295912072502
 21
608.5741246003264
 31
0.0
  0
ARC
  5
F1F
330
1E
100
AcDbEntity
  8
STEMPEL
100
AcDbCircle
 10
288.9060885153539
 20
607.7062049183269
 30
0.0
 40
0.5500000000000009
100
AcDbArc
 50
270.0
 51
69.99999999999935
  0
LINE
  5
F20
330
1E
100
AcDbEntity
  8
STEMPEL
100
AcDbLine
 10
289.094199594183
 20
608.2230358597593
 30
0.0
 11
283.1258417108137
 21
608.2230358597593
 31
0.0
  0
LINE
  5
F23
330
1E
100
AcDbEntity
  8
MITTEL
100
AcDbLine
 10
282.3560885153539
 20
584.6562049183265
 30
0.0
 11
282.3560885153539
 21
618.756204918327
 31
0.0
  0
LINE
  5
F74
330
1E
100
AcDbEntity
  8
STEMPEL
100
AcDbLine
 10
356.3560885153539
 20
591.1562049183264
 30
0.0
 11
356.3560885153539
 21
589.6562049183262
 31
0.0
  0
HATCH
  5
F75
330
1E
100
AcDbEntity
  8
SCHRAFF
100
AcDbHatch
 10
0.0
 20
0.0
 30
0.0
210
0.0
220
0.0
230
1.0
  2
_USER
 70
     0
 71
     0
 91
        4
 92
        7
 72
     0
 73
     1
 93
        4
 10
282.356088515354
 20
591.1562049183266
 10
282.356088515354
 20
589.6562049183265
 10
356.3560885153539
 20
589.6562049183263
 10
356.3560885153539
 20
591.1562049183266
 97
        0
 92
        7
 72
     0
 73
     1
 93
        4
 10
282.356088515354
 20
589.6562049183266
 10
282.356088515354
 20
591.1562049183266
 10
270.956088515354
 20
591.1562049183266
 10
270.956088515354
 20
589.6562049183265
 97
        0
 92
        7
 72
     0
 73
     1
 93
        4
 10
171.7560885153539
 20
589.6562049183266
 10
171.7560885153539
 20
591.1562049183263
 10
99.35608851535398
 20
591.1562049183263
 10
99.356088515354
 20
589.6562049183269
 97
        0
 92
        7
 72
     0
 73
     1
 93
        4
 10
99.35608851535398
 20
589.6562049183269
 10
99.35608851535398
 20
591.1562049183263
 10
86.35608851535403
 20
591.1562049183262
 10
86.35608851535403
 20
589.6562049183269
 97
        0
 75
     0
 76
     0
 52
135.0
 41
2.0
 77
     0
 78
     1
 53
135.0
 43
-3.64391148464594
 44
66.22969229068701
 45
-1.414213562373095
 46
-1.414213562373094
 79
     0
 47
0.2802701113960166
 98
        4
 10
316.4589962470004
 20
590.5065019068314
 10
274.9648609248961
 20
590.2262319704224
 10
163.0989148599831
 20
590.2262319704224
 10
94.12893505387049
 20
590.2262319704224
  0
HATCH
  5
F76
330
1E
100
AcDbEntity
  8
SCHRAFF
100
AcDbHatch
 10
0.0
 20
0.0
 30
0.0
210
0.0
220
0.0
230
1.0
  2
_USER
 70
     0
 71
     0
 91
        2
 92
        7
 72
     0
 73
     1
 93
        6
 10
272.156088515354
 20
589.6562049183265
 10
270.956088515354
 20
589.6562049183264
 10
270.9560885153539
 20
549.6562049183259
 10
270.0812018800946
 20
539.6562049183263
 10
271.2857856851467
 20
539.6562049183264
 10
272.1560885153539
 20
549.6038117868362
 97
        0
 92
        7
 72
     0
 73
     1
 93
        6
 10
170.556088515354
 20
549.6038117868363
 10
171.4263913455611
 20
539.6562049183264
 10
172.6309751506132
 20
539.6562049183262
 10
171.7560885153539
 20
549.6562049183259
 10
171.7560885153539
 20
589.6562049183266
 10
170.5560885153539
 20
589.6562049183266
 97
        0
 75
     0
 76
     0
 52
45.0
 41
2.0
 77
     0
 78
     1
 53
45.0
 43
-3.64391148464594
 44
61.22969229068701
 45
-1.414213562373094
 46
1.414213562373095
 79
     0
 47
0.2802701113960166
 98
        2
 10
271.8808369405151
 20
579.9010990292259
 10
170.9491577293168
 20
578.4997493471802
  0
LINE
  5
F77
330
1E
100
AcDbEntity
  8
STEMPEL
100
AcDbLine
 10
270.9560885153539
 20
549.6562049183262
 30
0.0
 11
270.0812018800947
 21
539.6562049183262
 31
0.0
  0
LINE
  5
F78
330
1E
100
AcDbEntity
  8
STEMPEL
100
AcDbLine
 10
272.1560885153539
 20
549.603811786836
 30
0.0
 11
271.2857856851467
 21
539.6562049183263
 31
0.0
  0
LINE
  5
F79
330
1E
100
AcDbEntity
  8
STEMPEL
100
AcDbLine
 10
272.156088515354
 20
589.6562049183264
 30
0.0
 11
272.1560885153539
 21
549.603811786836
 31
0.0
  0
LINE
  5
F7A
330
1E
100
AcDbEntity
  8
STEMPEL
100
AcDbLine
 10
270.956088515354
 20
591.1562049183261
 30
0.0
 11
270.9560885153539
 21
549.6562049183262
 31
0.0
  0
LINE
  5
F7B
330
1E
100
AcDbEntity
  8
HILF
100
AcDbLine
 10
269.7515047103019
 20
549.6562049183264
 30
0.0
 11
172.9606723204059
 21
549.6562049183264
 31
0.0
  0
DIMENSION
  5
F7C
330
1E
100
AcDbEntity
  8
BEM
100
AcDbDimension
  2
*D5
 10
375.0427078510768
 20
589.6562049183263
 30
0.0
 11
368.5427078510767
 21
564.6562049183264
 31
0.0
 70
    32
 71
     5
 42
50.0
  3
Standard
100
AcDbAlignedDimension
 13
271.2857856851467
 23
539.6562049183263
 33
0.0
 14
356.3560885153539
 24
589.6562049183263
 34
0.0
 50
90.0
100
AcDbRotatedDimension
1001
ACAD
1000
DSTYLE
1002
{
1070
    40
1040
2.0
1070
    41
1040
3.5
1070
    42
1040
1.0
1070
    43
1040
7.0
1070
    44
1040
1.0
1070
    73
1070
     0
1070
    74
1070
     0
1070
    77
1070
     1
1070
    78
1070
     8
1070
    79
1070
     2
1070
   140
1040
3.5
1070
   141
1040
1.5
1070
   146
1040
0.5
1070
   147
1040
1.5
1070
   172
1070
     1
1070
   178
1070
     1
1070
   179
1070
     2
1070
   271
1070
     2
1070
   272
1070
     2
1070
   284
1070
     8
1070
   285
1070
     8
1070
   286
1070
     8
1002
}
  0
DIMENSION
  5
F7D
330
1E
100
AcDbEntity
  8
BEM
100
AcDbDimension
  2
*D6
 10
272.1560885153539
 20
519.6012586678108
 30
0.0
 11
221.3560885153539
 21
526.1012586678108
 31
0.0
 70
    32
  1
%%c<>
 71
     5
 42
101.5999999999999
  3
Standard
100
AcDbAlignedDimension
 13
170.5560885153539
 23
549.6038117868363
 33
0.0
 14
272.1560885153539
 24
549.603811786836
 34
0.0
100
AcDbRotatedDimension
1001
ACAD
1000
DSTYLE
1002
{
1070
    40
1040
2.0
1070
    41
1040
3.5
1070
    42
1040
1.0
1070
    43
1040
7.0
1070
    44
1040
1.0
1070
    73
1070
     0
1070
    74
1070
     0
1070
    77
1070
     1
1070
    78
1070
     8
1070
    79
1070
     2
1070
   140
1040
3.5
1070
   141
1040
1.5
1070
   146
1040
0.5
1070
   147
1040
1.5
1070
   172
1070
     1
1070
   178
1070
     1
1070
   179
1070
     2
1070
   271
1070
     2
1070
   272
1070
     2
1070
   284
1070
     8
1070
   285
1070
     8
1070
   286
1070
     8
1002
}
  0
LINE
  5
F7E
330
1E
100
AcDbEntity
  8
STEMPEL
100
AcDbLine
 10
271.2857856851467
 20
539.6562049183263
 30
0.0
 11
171.4263913455611
 21
539.6562049183263
 31
0.0
  0
ARC
  5
F7F
330
1E
100
AcDbEntity
  8
SCHRAFF
100
AcDbCircle
 10
272.001032550807
 20
589.6562049183263
 30
0.0
 40
1.828088629478462
100
AcDbArc
 50
124.8622016819284
 51
235.1377983180716
  0
HATCH
  5
F80
330
1E
100
AcDbEntity
  8
SCHRAFF
100
AcDbHatch
 10
0.0
 20
0.0
 30
0.0
210
0.0
220
0.0
230
1.0
  2
_USER
 70
     0
 71
     0
 91
        2
 92
        7
 72
     1
 73
     1
 93
        3
 10
270.956088515354
 20
591.1562049183259
 42
0.2453357974240878
 10
270.1729439213287
 20
589.6562049183264
 42
0.0
 10
270.956088515354
 20
589.6562049183264
 42
0.0
 97
        0
 92
        7
 72
     1
 73
     1
 93
        3
 10
270.956088515354
 20
589.6562049183264
 42
0.0
 10
270.1729439213284
 20
589.6562049183264
 42
0.2453357974242125
 10
270.956088515354
 20
588.1562049183263
 42
0.0
 97
        0
 75
     0
 76
     0
 52
0.0
 41
0.1
 77
     0
 78
     1
 53
0.0
 43
10.65608851535412
 44
76.22969229068655
 45
0.0
 46
0.1
 79
     0
 47
0.0937308931428171
 98
        2
 10
270.6048413284112
 20
590.1010612597798
 10
270.698606344186
 20
589.2574827302931
  0
ARC
  5
F81
330
1E
100
AcDbEntity
  8
SCHRAFF
100
AcDbCircle
 10
253.559167365013
 20
589.6562049183264
 30
0.0
 40
5.0
100
AcDbArc
 50
342.5423968762808
 51
17.45760312371915
  0
LINE
  5
F82
330
1E
100
AcDbEntity
  8
STEMPEL
100
AcDbLine
 10
260.4799573766857
 20
589.6562049183265
 30
0.0
 11
262.1972050189161
 21
579.8412952027104
 31
0.0
  0
ELLIPSE
  5
F83
330
1E
100
AcDbEntity
  8
STEMPEL
100
AcDbEllipse
 10
265.3501790276034
 20
581.6562049183264
 30
0.0
 11
0.0
 21
6.0
 31
0.0
210
0.0
220
0.0
230
1.0
 40
0.5513228499210167
 41
1.878094989772523
 42
2.965625447397827
  0
LINE
  5
F84
330
1E
100
AcDbEntity
  8
STEMPEL
100
AcDbLine
 10
259.5557714980715
 20
589.6562049183265
 30
0.0
 11
261.2324542353673
 21
579.8412952027105
 31
0.0
  0
ELLIPSE
  5
F85
330
1E
100
AcDbEntity
  8
STEMPEL
100
AcDbEllipse
 10
264.3109485430622
 20
581.6562049183264
 30
0.0
 11
0.0
 21
6.0
 31
0.0
210
0.0
220
0.0
230
1.0
 40
0.5382994755134405
 41
1.878094989772521
 42
3.141592653589793
  0
LINE
  5
F86
330
1E
100
AcDbEntity
  8
STEMPEL
100
AcDbLine
 10
267.8549840964968
 20
589.6562049183264
 30
0.0
 11
266.8668664544897
 21
580.256216613204
 31
0.0
  0
ELLIPSE
  5
F87
330
1E
100
AcDbEntity
  8
STEMPEL
100
AcDbEllipse
 10
264.3109485430622
 20
581.6562049183264
 30
0.0
 11
0.0
 21
6.0
 31
0.0
210
0.0
220
0.0
230
1.0
 40
0.4380784772424609
 41
3.141592653589793
 42
4.476886748139611
  0
ARC
  5
F88
330
1E
100
AcDbEntity
  8
SCHRAFF
100
AcDbCircle
 10
243.559167365013
 20
589.6562049183264
 30
0.0
 40
5.0
100
AcDbArc
 50
342.5423968762808
 51
17.45760312371915
  0
ARC
  5
F89
330
1E
100
AcDbEntity
  8
SCHRAFF
100
AcDbCircle
 10
248.559167365013
 20
589.6562049183264
 30
0.0
 40
5.0
100
AcDbArc
 50
342.5423968762808
 51
17.45760312371915
  0
ARC
  5
F8A
330
1E
100
AcDbEntity
  8
SCHRAFF
100
AcDbCircle
 10
238.559167365013
 20
589.6562049183264
 30
0.0
 40
5.0
100
AcDbArc
 50
342.5423968762808
 51
17.45760312371915
  0
ARC
  5
F8B
330
1E
100
AcDbEntity
  8
SCHRAFF
100
AcDbCircle
 10
233.559167365013
 20
589.6562049183264
 30
0.0
 40
5.0
100
AcDbArc
 50
342.5423968762808
 51
17.45760312371915
  0
ARC
  5
F8C
330
1E
100
AcDbEntity
  8
SCHRAFF
100
AcDbCircle
 10
228.559167365013
 20
589.6562049183264
 30
0.0
 40
5.0
100
AcDbArc
 50
342.5423968762808
 51
17.45760312371915
  0
ARC
  5
F8D
330
1E
100
AcDbEntity
  8
SCHRAFF
100
AcDbCircle
 10
204.8302571977032
 20
589.6562049183264
 30
0.0
 40
5.0
100
AcDbArc
 50
342.5423968762808
 51
17.45760312371915
  0
ARC
  5
F8E
330
1E
100
AcDbEntity
  8
STEMPEL
100
AcDbCircle
 10
221.356088515354
 20
581.6562049183265
 30
0.0
 40
6.0
100
AcDbArc
 50
195.8034962890195
 51
344.1965037109804
  0
LINE
  5
F8F
330
1E
100
AcDbEntity
  8
STEMPEL
100
AcDbLine
 10
229.856088515354
 20
589.6562049183265
 30
0.0
 11
227.1292967756698
 21
580.022171141741
 31
0.0
  0
LINE
  5
F90
330
1E
100
AcDbEntity
  8
STEMPEL
100
AcDbLine
 10
212.856088515354
 20
589.6562049183265
 30
0.0
 11
215.5828802550383
 21
580.022171141741
 31
0.0
  0
ARC
  5
F91
330
1E
100
AcDbEntity
  8
SCHRAFF
100
AcDbCircle
 10
189.8302571977032
 20
589.6562049183264
 30
0.0
 40
5.0
100
AcDbArc
 50
342.5423968762808
 51
17.45760312371915
  0
ARC
  5
F92
330
1E
100
AcDbEntity
  8
SCHRAFF
100
AcDbCircle
 10
184.8302571977032
 20
589.6562049183264
 30
0.0
 40
5.0
100
AcDbArc
 50
342.5423968762808
 51
17.45760312371915
  0
ARC
  5
F93
330
1E
100
AcDbEntity
  8
SCHRAFF
100
AcDbCircle
 10
179.8302571977032
 20
589.6562049183264
 30
0.0
 40
5.0
100
AcDbArc
 50
342.5423968762808
 51
17.45760312371915
  0
ARC
  5
F94
330
1E
100
AcDbEntity
  8
SCHRAFF
100
AcDbCircle
 10
194.8302571977032
 20
589.6562049183264
 30
0.0
 40
5.0
100
AcDbArc
 50
342.5423968762808
 51
17.45760312371915
  0
ARC
  5
F95
330
1E
100
AcDbEntity
  8
SCHRAFF
100
AcDbCircle
 10
199.8302571977032
 20
589.6562049183264
 30
0.0
 40
5.0
100
AcDbArc
 50
342.5423968762808
 51
17.45760312371915
  0
ELLIPSE
  5
F96
330
1E
100
AcDbEntity
  8
STEMPEL
100
AcDbEllipse
 10
178.4012284876458
 20
581.6562049183265
 30
0.0
 11
0.0000000000000166
 21
6.0
 31
0.0
210
0.0
220
0.0
230
-1.0
 40
0.4380784772424609
 41
3.141592653589793
 42
4.476886748139611
  0
LINE
  5
F97
330
1E
100
AcDbEntity
  8
STEMPEL
100
AcDbLine
 10
174.8571929342112
 20
589.6562049183265
 30
0.0
 11
175.8453105762182
 21
580.2562166132041
 31
0.0
  0
ELLIPSE
  5
F98
330
1E
100
AcDbEntity
  8
STEMPEL
100
AcDbEllipse
 10
178.4012284876458
 20
581.6562049183265
 30
0.0
 11
0.0000000000000166
 21
6.0
 31
0.0
210
0.0
220
0.0
230
-1.0
 40
0.5382994755134405
 41
1.878094989772521
 42
3.141592653589793
  0
LINE
  5
F99
330
1E
100
AcDbEntity
  8
STEMPEL
100
AcDbLine
 10
183.1564055326364
 20
589.6562049183265
 30
0.0
 11
181.4797227953406
 21
579.8412952027105
 31
0.0
  0
ELLIPSE
  5
F9A
330
1E
100
AcDbEntity
  8
STEMPEL
100
AcDbEllipse
 10
177.3619980031045
 20
581.6562049183265
 30
0.0
 11
0.0000000000000166
 21
6.0
 31
0.0
210
0.0
220
0.0
230
-1.0
 40
0.5513228499210167
 41
1.878094989772523
 42
2.965625447397827
  0
LINE
  5
F9B
330
1E
100
AcDbEntity
  8
STEMPEL
100
AcDbLine
 10
182.2322196540223
 20
589.6562049183265
 30
0.0
 11
180.5149720117918
 21
579.8412952027105
 31
0.0
  0
LINE
  5
F9C
330
1E
100
AcDbEntity
  8
STEMPEL
100
AcDbLine
 10
170.5560885153539
 20
549.6038117868363
 30
0.0
 11
171.4263913455611
 21
539.6562049183263
 31
0.0
  0
LINE
  5
F9D
330
1E
100
AcDbEntity
  8
STEMPEL
100
AcDbLine
 10
171.7560885153539
 20
549.6562049183264
 30
0.0
 11
172.6309751506132
 21
539.6562049183264
 31
0.0
  0
LINE
  5
F9E
330
1E
100
AcDbEntity
  8
STEMPEL
100
AcDbLine
 10
171.7560885153539
 20
591.1562049183263
 30
0.0
 11
171.7560885153539
 21
549.6562049183264
 31
0.0
  0
LINE
  5
F9F
330
1E
100
AcDbEntity
  8
STEMPEL
100
AcDbLine
 10
170.5560885153539
 20
589.6562049183266
 30
0.0
 11
170.5560885153539
 21
549.6038117868363
 31
0.0
  0
HATCH
  5
FA0
330
1E
100
AcDbEntity
  8
SCHRAFF
100
AcDbHatch
 10
0.0
 20
0.0
 30
0.0
210
0.0
220
0.0
230
1.0
  2
_USER
 70
     0
 71
     0
 91
        2
 92
        7
 72
     1
 73
     1
 93
        3
 10
171.7560885153539
 20
591.1562049183261
 42
-0.2453357974240878
 10
172.5392331093792
 20
589.6562049183265
 42
0.0
 10
171.7560885153539
 20
589.6562049183265
 42
0.0
 97
        0
 92
        7
 72
     1
 73
     1
 93
        3
 10
171.7560885153539
 20
589.6562049183265
 42
0.0
 10
172.5392331093796
 20
589.6562049183265
 42
-0.2453357974242125
 10
171.7560885153538
 20
588.1562049183266
 42
0.0
 97
        0
 75
     0
 76
     0
 52
0.0
 41
0.1
 77
     0
 78
     1
 53
179.9999999999998
 43
432.0560885153524
 44
76.22969229068599
 45
0.0000000000000003
 46
0.1
 79
     0
 47
0.0937308931428171
 98
        2
 10
172.1073357022967
 20
590.10106125978
 10
172.0135706865219
 20
589.2574827302934
  0
ARC
  5
FA1
330
1E
100
AcDbEntity
  8
SCHRAFF
100
AcDbCircle
 10
170.7111444799011
 20
589.6562049183265
 30
0.0
 40
1.828088629478462
100
AcDbArc
 50
304.8622016819284
 51
55.13779831807161
  0
LINE
  5
FA2
330
1E
100
AcDbEntity
  8
STEMPEL
100
AcDbLine
 10
86.35608851535403
 20
591.1562049183264
 30
0.0
 11
86.35608851535399
 21
589.6562049183262
 31
0.0
  0
LINE
  5
FCD
330
1E
100
AcDbEntity
  8
STEMPEL
100
AcDbLine
 10
356.3560885153539
 20
589.6562049183268
 30
0.0
 11
86.35608851535405
 21
589.6562049183262
 31
0.0
  0
DIMENSION
  5
FCE
330
1E
100
AcDbEntity
  8
BEM
100
AcDbDimension
  2
*D7
 10
375.0427078510768
 20
591.1562049183268
 30
0.0
 11
368.5427078510767
 21
613.4895382516603
 31
0.0
 70
    32
 71
     5
 42
1.500000000000568
  3
Standard
100
AcDbAlignedDimension
 13
356.3560885153539
 23
589.6562049183262
 33
0.0
 14
356.3560885153539
 24
591.1562049183268
 34
0.0
 50
90.0
100
AcDbRotatedDimension
1001
ACAD
1000
DSTYLE
1002
{
1070
    40
1040
2.0
1070
    41
1040
3.5
1070
    42
1040
1.0
1070
    43
1040
7.0
1070
    44
1040
1.0
1070
    73
1070
     0
1070
    74
1070
     0
1070
    77
1070
     1
1070
    78
1070
     8
1070
    79
1070
     2
1070
   140
1040
3.5
1070
   141
1040
1.5
1070
   146
1040
0.5142857142857144
1070
   147
1040
1.5
1070
   172
1070
     1
1070
   178
1070
     1
1070
   179
1070
     2
1070
   271
1070
     2
1070
   272
1070
     2
1070
   284
1070
     8
1070
   285
1070
     8
1070
   286
1070
     8
1002
}
  0
DIMENSION
  5
FF1
330
1E
100
AcDbEntity
  8
BEM
100
AcDbDimension
  2
*D8
 10
351.356088515354
 20
726.2643940519994
 30
0.0
 11
221.356088515354
 21
732.7643940519995
 31
0.0
 70
    32
  1
%%c<>
 71
     5
 42
260.0
  3
Standard
100
AcDbAlignedDimension
 13
91.35608851535407
 23
607.1562049183269
 33
0.0
 14
351.356088515354
 24
607.1562049183257
 34
0.0
100
AcDbRotatedDimension
1001
ACAD
1000
DSTYLE
1002
{
1070
    40
1040
2.0
1070
    41
1040
3.5
1070
    42
1040
1.0
1070
    43
1040
7.0
1070
    44
1040
1.0
1070
    73
1070
     0
1070
    74
1070
     0
1070
    77
1070
     1
1070
    78
1070
     8
1070
    79
1070
     2
1070
   140
1040
3.5
1070
   141
1040
1.5
1070
   146
1040
0.5142857142857144
1070
   147
1040
1.5
1070
   172
1070
     1
1070
   178
1070
     1
1070
   179
1070
     2
1070
   271
1070
     2
1070
   272
1070
     2
1070
   284
1070
     8
1070
   285
1070
     8
1070
   286
1070
     8
1002
}
  0
DIMENSION
  5
1010
330
1E
100
AcDbEntity
  8
BEM
100
AcDbDimension
  2
*D9
 10
86.35608851535403
 20
504.8934804659586
 30
0.0
 11
221.356088515354
 21
511.3934804659586
 31
0.0
 70
    32
  1
%%c<>
 71
     5
 42
269.9999999999999
  3
Standard
100
AcDbAlignedDimension
 13
356.3560885153539
 23
589.6562049183262
 33
0.0
 14
86.35608851535403
 24
589.6562049183262
 34
0.0
100
AcDbRotatedDimension
1001
ACAD
1000
DSTYLE
1002
{
1070
    40
1040
2.0
1070
    41
1040
3.5
1070
    42
1040
1.0
1070
    43
1040
7.0
1070
    44
1040
1.0
1070
    73
1070
     0
1070
    74
1070
     0
1070
    77
1070
     1
1070
    78
1070
     8
1070
    79
1070
     2
1070
   140
1040
3.5
1070
   141
1040
1.5
1070
   146
1040
0.5142857142857144
1070
   147
1040
1.5
1070
   172
1070
     1
1070
   178
1070
     1
1070
   179
1070
     2
1070
   271
1070
     2
1070
   272
1070
     2
1070
   284
1070
     8
1070
   285
1070
     8
1070
   286
1070
     8
1002
}
  0
LINE
  5
1030
330
1E
100
AcDbEntity
  8
TEXT
 62
     2
100
AcDbLine
 10
138.3955144478728
 20
506.811201671722
 30
0.0
 11
163.3745529127668
 21
591.1836136105773
 31
0.0
  0
CIRCLE
  5
1045
330
1E
100
AcDbEntity
  8
STEMPEL
100
AcDbCircle
 10
221.3560885153537
 20
280.3422965254937
 30
0.0
 40
135.0
  0
ENDSEC
  0
SECTION
  2
OBJECTS
  0
DICTIONARY
  5
C
330
0
100
AcDbDictionary
281
     1
  3
ACAD_COLOR
350
11A
  3
ACAD_GROUP
350
D
  3
ACAD_LAYOUT
350
19
  3
ACAD_MATERIAL
350
119
  3
ACAD_MLINESTYLE
350
16
  3
ACAD_PLOTSETTINGS
350
18
  3
ACAD_PLOTSTYLENAME
350
E
  3
AcDbVariableDictionary
350
125
  0
DICTIONARY
  5
DB
330
1E
100
AcDbDictionary
280
     1
281
     1
  3
ACAD_LAYOUTSELFREF
360
10F
  0
DICTIONARY
  5
DD
330
1A
100
AcDbDictionary
280
     1
281
     1
  3
ACAD_LAYOUTSELFREF
360
10E
  0
DICTIONARY
  5
11A
102
{ACAD_REACTORS
330
C
102
}
330
C
100
AcDbDictionary
281
     1
  0
DICTIONARY
  5
D
102
{ACAD_REACTORS
330
C
102
}
330
C
100
AcDbDictionary
281
     1
  0
DICTIONARY
  5
19
102
{ACAD_REACTORS
330
C
102
}
330
C
100
AcDbDictionary
281
     1
  3
Layout1
350
1D
  3
Model
350
21
  0
DICTIONARY
  5
119
102
{ACAD_REACTORS
330
C
102
}
330
C
100
AcDbDictionary
281
     1
  0
DICTIONARY
  5
16
102
{ACAD_REACTORS
330
C
102
}
330
C
100
AcDbDictionary
281
     1
  3
Standard
350
17
  0
DICTIONARY
  5
18
102
{ACAD_REACTORS
330
C
102
}
330
C
100
AcDbDictionary
281
     1
  0
ACDBDICTIONARYWDFLT
  5
E
102
{ACAD_REACTORS
330
C
102
}
330
C
100
AcDbDictionary
281
     1
  3
Normal
350
F
100
AcDbDictionaryWithDefault
340
F
  0
DICTIONARY
  5
125
102
{ACAD_REACTORS
330
C
102
}
330
C
100
AcDbDictionary
281
     1
  3
DIMASSOC
350
126
  3
PROJECTNAME
350
127
  0
XRECORD
  5
10F
102
{ACAD_REACTORS
330
DB
102
}
330
DB
100
AcDbXrecord
280
     1
340
1E
  0
XRECORD
  5
10E
102
{ACAD_REACTORS
330
DD
102
}
330
DD
100
AcDbXrecord
280
     1
340
1A
  0
LAYOUT
  5
1D
102
{ACAD_REACTORS
330
19
102
}
330
19
100
AcDbPlotSettings
  1

  2
\\NT_WORK01\HP LaserJet 5000 PCL 6
  4

  6

 40
0.0
 41
0.0
 42
0.0
 43
0.0
 44
0.0
 45
0.0
 46
0.0
 47
0.0
 48
0.0
 49
0.0
140
0.0
141
0.0
142
1.0
143
1.0
 70
   688
 72
     0
 73
     0
 74
     5
  7

 75
    16
147
1.0
 76
     0
 77
     2
 78
   300
148
0.0
149
0.0
100
AcDbLayout
  1
Layout1
 70
     0
 71
     1
 10
0.0
 20
0.0
 11
12.0
 21
9.0
 12
0.0
 22
0.0
 32
0.0
 14
1.000000000000000E+20
 24
1.000000000000000E+20
 34
1.000000000000000E+20
 15
-1.000000000000000E+20
 25
-1.000000000000000E+20
 35
-1.000000000000000E+20
146
0.0
 13
0.0
 23
0.0
 33
0.0
 16
1.0
 26
0.0
 36
0.0
 17
0.0
 27
1.0
 37
0.0
 76
     0
330
1A
  0
LAYOUT
  5
21
102
{ACAD_REACTORS
330
19
102
}
330
19
100
AcDbPlotSettings
  1

  2
none_device
  4
Letter_(8.50_x_11.00_Inches)
  6

 40
6.349999904632568
 41
6.349999904632568
 42
6.350006103515625
 43
6.350006103515625
 44
215.8999938964844
 45
279.3999938964844
 46
0.0
 47
0.0
 48
0.0
 49
0.0
140
0.0
141
0.0
142
1.0
143
1.0
 70
 11952
 72
     0
 73
     1
 74
     0
  7

 75
     0
147
1.0
 76
     0
 77
     2
 78
   300
148
3125.271100989971
149
1.071100989972251
100
AcDbLayout
  1
Model
 70
     1
 71
     0
 10
0.0
 20
0.0
 11
12.0
 21
9.0
 12
0.0
 22
0.0
 32
0.0
 14
0.0
 24
0.0
 34
0.0
 15
0.0
 25
0.0
 35
0.0
146
0.0
 13
0.0
 23
0.0
 33
0.0
 16
1.0
 26
0.0
 36
0.0
 17
0.0
 27
1.0
 37
0.0
 76
     0
330
1E
  0
MLINESTYLE
  5
17
102
{ACAD_REACTORS
330
16
102
}
330
16
100
AcDbMlineStyle
  2
STANDARD
 70
     0
  3

 62
   256
 51
90.0
 52
90.0
 71
     2
 49
0.5
 62
   256
  6
BYLAYER
 49
-0.5
 62
   256
  6
BYLAYER
  0
ACDBPLACEHOLDER
  5
F
102
{ACAD_REACTORS
330
E
102
}
330
E
  0
DICTIONARYVAR
  5
126
102
{ACAD_REACTORS
330
125
102
}
330
125
100
DictionaryVariables
280
     0
  1
1
  0
DICTIONARYVAR
  5
127
102
{ACAD_REACTORS
330
125
102
}
330
125
100
DictionaryVariables
280
     0
  1

  0
ENDSEC
  0
EOF
