  0
SECTION
  2
HEADER
  9
$ACADVER
  1
AC1018
  9
$ACADMAINTVER
 70
     2
  9
$DWGCODEPAGE
  3
ANSI_1252
  9
$INSBASE
 10
0.0
 20
0.0
 30
0.0
  9
$EXTMIN
 10
-0.0192209888436992
 20
-0.0271839699362317
 30
-0.0000000000000058
  9
$EXTMAX
 10
420.0192288123714
 20
594.0271950346398
 30
0.0000000000000104
  9
$LIMMIN
 10
0.0
 20
0.0
  9
$LIMMAX
 10
419.9999999999999
 20
594.0
  9
$ORTHOMODE
 70
     1
  9
$REGENMODE
 70
     1
  9
$FILLMODE
 70
     1
  9
$QTEXTMODE
 70
     0
  9
$MIRRTEXT
 70
     1
  9
$LTSCALE
 40
20.0
  9
$ATTMODE
 70
     1
  9
$TEXTSIZE
 40
3.5
  9
$TRACEWID
 40
0.5
  9
$TEXTSTYLE
  7
STANDARD
  9
$CLAYER
  8
BEM
  9
$CELTYPE
  6
ByLayer
  9
$CECOLOR
 62
   256
  9
$CELTSCALE
 40
1.0
  9
$DISPSILH
 70
     0
  9
$DIMSCALE
 40
2.0
  9
$DIMASZ
 40
3.5
  9
$DIMEXO
 40
1.0
  9
$DIMDLI
 40
7.0
  9
$DIMRND
 40
0.0
  9
$DIMDLE
 40
0.0
  9
$DIMEXE
 40
1.0
  9
$DIMTP
 40
0.0
  9
$DIMTM
 40
0.0
  9
$DIMTXT
 40
3.5
  9
$DIMCEN
 40
1.5
  9
$DIMTSZ
 40
0.0
  9
$DIMTOL
 70
     0
  9
$DIMLIM
 70
     0
  9
$DIMTIH
 70
     0
  9
$DIMTOH
 70
     0
  9
$DIMSE1
 70
     0
  9
$DIMSE2
 70
     0
  9
$DIMTAD
 70
     1
  9
$DIMZIN
 70
     8
  9
$DIMBLK
  1

  9
$DIMASO
 70
     1
  9
$DIMSHO
 70
     0
  9
$DIMPOST
  1

  9
$DIMAPOST
  1

  9
$DIMALT
 70
     0
  9
$DIMALTD
 70
     2
  9
$DIMALTF
 40
25.4
  9
$DIMLFAC
 40
1.0
  9
$DIMTOFL
 70
     1
  9
$DIMTVP
 40
0.0
  9
$DIMTIX
 70
     0
  9
$DIMSOXD
 70
     0
  9
$DIMSAH
 70
     0
  9
$DIMBLK1
  1

  9
$DIMBLK2
  1

  9
$DIMSTYLE
  2
Standard
  9
$DIMCLRD
 70
     0
  9
$DIMCLRE
 70
     0
  9
$DIMCLRT
 70
     1
  9
$DIMTFAC
 40
0.5
  9
$DIMGAP
 40
1.5
  9
$DIMJUST
 70
     0
  9
$DIMSD1
 70
     0
  9
$DIMSD2
 70
     0
  9
$DIMTOLJ
 70
     1
  9
$DIMTZIN
 70
     8
  9
$DIMALTZ
 70
     8
  9
$DIMALTTZ
 70
     8
  9
$DIMUPT
 70
     0
  9
$DIMDEC
 70
     2
  9
$DIMTDEC
 70
     2
  9
$DIMALTU
 70
     2
  9
$DIMALTTD
 70
     2
  9
$DIMTXSTY
  7
STANDARD
  9
$DIMAUNIT
 70
     0
  9
$DIMADEC
 70
     2
  9
$DIMALTRND
 40
0.0
  9
$DIMAZIN
 70
     2
  9
$DIMDSEP
 70
    46
  9
$DIMATFIT
 70
     3
  9
$DIMFRAC
 70
     0
  9
$DIMLDRBLK
  1

  9
$DIMLUNIT
 70
     2
  9
$DIMLWD
 70
    -2
  9
$DIMLWE
 70
    -2
  9
$DIMTMOVE
 70
     0
  9
$LUNITS
 70
     2
  9
$LUPREC
 70
     2
  9
$SKETCHINC
 40
1.0
  9
$FILLETRAD
 40
3.0
  9
$AUNITS
 70
     0
  9
$AUPREC
 70
     0
  9
$MENU
  1
ACAD
  9
$ELEVATION
 40
0.0
  9
$PELEVATION
 40
0.0
  9
$THICKNESS
 40
0.0
  9
$LIMCHECK
 70
     0
  9
$CHAMFERA
 40
0.0
  9
$CHAMFERB
 40
0.0
  9
$CHAMFERC
 40
0.0
  9
$CHAMFERD
 40
0.0
  9
$SKPOLY
 70
     0
  9
$TDCREATE
 40
2451803.424412500
  9
$TDUCREATE
 40
2451803.341079167
  9
$TDUPDATE
 40
2455707.345250186
  9
$TDUUPDATE
 40
2455707.261916852
  9
$TDINDWG
 40
0.0246826620
  9
$TDUSRTIMER
 40
0.0246826620
  9
$USRTIMER
 70
     1
  9
$ANGBASE
 50
0.0
  9
$ANGDIR
 70
     0
  9
$PDMODE
 70
     0
  9
$PDSIZE
 40
0.0
  9
$PLINEWID
 40
0.0
  9
$SPLFRAME
 70
     0
  9
$SPLINETYPE
 70
     6
  9
$SPLINESEGS
 70
     8
  9
$HANDSEED
  5
376
  9
$SURFTAB1
 70
     6
  9
$SURFTAB2
 70
     6
  9
$SURFTYPE
 70
     6
  9
$SURFU
 70
     6
  9
$SURFV
 70
     6
  9
$UCSBASE
  2

  9
$UCSNAME
  2

  9
$UCSORG
 10
0.0
 20
0.0
 30
0.0
  9
$UCSXDIR
 10
1.0
 20
0.0
 30
0.0
  9
$UCSYDIR
 10
0.0
 20
1.0
 30
0.0
  9
$UCSORTHOREF
  2

  9
$UCSORTHOVIEW
 70
     0
  9
$UCSORGTOP
 10
0.0
 20
0.0
 30
0.0
  9
$UCSORGBOTTOM
 10
0.0
 20
0.0
 30
0.0
  9
$UCSORGLEFT
 10
0.0
 20
0.0
 30
0.0
  9
$UCSORGRIGHT
 10
0.0
 20
0.0
 30
0.0
  9
$UCSORGFRONT
 10
0.0
 20
0.0
 30
0.0
  9
$UCSORGBACK
 10
0.0
 20
0.0
 30
0.0
  9
$PUCSBASE
  2

  9
$PUCSNAME
  2

  9
$PUCSORG
 10
0.0
 20
0.0
 30
0.0
  9
$PUCSXDIR
 10
1.0
 20
0.0
 30
0.0
  9
$PUCSYDIR
 10
0.0
 20
1.0
 30
0.0
  9
$PUCSORTHOREF
  2

  9
$PUCSORTHOVIEW
 70
     0
  9
$PUCSORGTOP
 10
0.0
 20
0.0
 30
0.0
  9
$PUCSORGBOTTOM
 10
0.0
 20
0.0
 30
0.0
  9
$PUCSORGLEFT
 10
0.0
 20
0.0
 30
0.0
  9
$PUCSORGRIGHT
 10
0.0
 20
0.0
 30
0.0
  9
$PUCSORGFRONT
 10
0.0
 20
0.0
 30
0.0
  9
$PUCSORGBACK
 10
0.0
 20
0.0
 30
0.0
  9
$USERI1
 70
     0
  9
$USERI2
 70
     0
  9
$USERI3
 70
     0
  9
$USERI4
 70
     0
  9
$USERI5
 70
     0
  9
$USERR1
 40
0.0
  9
$USERR2
 40
0.0
  9
$USERR3
 40
0.0
  9
$USERR4
 40
0.0
  9
$USERR5
 40
0.0
  9
$WORLDVIEW
 70
     1
  9
$SHADEDGE
 70
     3
  9
$SHADEDIF
 70
    70
  9
$TILEMODE
 70
     1
  9
$MAXACTVP
 70
    16
  9
$PINSBASE
 10
158.7634990033266
 20
50.00000000000001
 30
274.9684894305549
  9
$PLIMCHECK
 70
     0
  9
$PEXTMIN
 10
1.000000000000000E+20
 20
1.000000000000000E+20
 30
1.000000000000000E+20
  9
$PEXTMAX
 10
-1.000000000000000E+20
 20
-1.000000000000000E+20
 30
-1.000000000000000E+20
  9
$PLIMMIN
 10
0.0
 20
0.0
  9
$PLIMMAX
 10
12.0
 20
9.0
  9
$UNITMODE
 70
     0
  9
$VISRETAIN
 70
     0
  9
$PLINEGEN
 70
     0
  9
$PSLTSCALE
 70
     0
  9
$TREEDEPTH
 70
  3020
  9
$CMLSTYLE
  2
Standard
  9
$CMLJUST
 70
     0
  9
$CMLSCALE
 40
1.0
  9
$PROXYGRAPHICS
 70
     1
  9
$MEASUREMENT
 70
     0
  9
$CELWEIGHT
370
    -1
  9
$ENDCAPS
280
     0
  9
$JOINSTYLE
280
     0
  9
$LWDISPLAY
290
     0
  9
$INSUNITS
 70
     0
  9
$HYPERLINKBASE
  1

  9
$STYLESHEET
  1
monochrome 1.ctb
  9
$XEDIT
290
     1
  9
$CEPSNTYPE
380
     0
  9
$PSTYLEMODE
290
     1
  9
$FINGERPRINTGUID
  2
{46BC8785-7E28-435A-8624-75D263044D10}
  9
$VERSIONGUID
  2
{DE0DFFA6-DBBF-4474-A36B-671B0DE14093}
  9
$EXTNAMES
290
     1
  9
$PSVPSCALE
 40
0.0
  9
$OLESTARTUP
290
     0
  9
$SORTENTS
280
   127
  9
$INDEXCTL
280
     0
  9
$HIDETEXT
280
     1
  9
$XCLIPFRAME
290
     0
  9
$HALOGAP
280
     0
  9
$OBSCOLOR
 70
   257
  9
$OBSLTYPE
280
     0
  9
$INTERSECTIONDISPLAY
280
     0
  9
$INTERSECTIONCOLOR
 70
   257
  9
$DIMASSOC
280
     2
  9
$PROJECTNAME
  1

  0
ENDSEC
  0
SECTION
  2
CLASSES
  0
CLASS
  1
ACDBDICTIONARYWDFLT
  2
AcDbDictionaryWithDefault
  3
ObjectDBX Classes
 90
        0
 91
        1
280
     0
281
     0
  0
CLASS
  1
DIMASSOC
  2
AcDbDimAssoc
  3
"AcDbDimAssoc|Product Desc:     AcDim ARX App For Dimension|Company:          Autodesk, Inc.|WEB Address:      www.autodesk.com"
 90
        0
 91
        1
280
     0
281
     0
  0
CLASS
  1
DICTIONARYVAR
  2
AcDbDictionaryVar
  3
ObjectDBX Classes
 90
        0
 91
        3
280
     0
281
     0
  0
ENDSEC
  0
SECTION
  2
TABLES
  0
TABLE
  2
VPORT
  5
8
330
0
100
AcDbSymbolTable
 70
     3
  0
VPORT
  5
375
330
8
100
AcDbSymbolTableRecord
100
AcDbViewportTableRecord
  2
*Active
 70
     0
 10
0.0
 20
0.0
 11
1.0
 21
1.0
 12
210.0
 22
297.0
 13
0.0
 23
0.0
 14
1.0
 24
1.0
 15
10.0
 25
10.0
 16
0.0
 26
0.0
 36
1.0
 17
0.0
 27
0.0
 37
0.0
 40
594.0
 41
1.334231805929919
 42
50.0
 43
0.0
 44
0.0
 50
0.0
 51
0.0
 71
     0
 72
  1500
 73
     1
 74
     0
 75
     0
 76
     0
 77
     0
 78
     0
281
     0
 65
     1
110
0.0
120
0.0
130
0.0
111
1.0
121
0.0
131
0.0
112
0.0
122
1.0
132
0.0
 79
     0
146
0.0
  0
ENDTAB
  0
TABLE
  2
LTYPE
  5
5
330
0
100
AcDbSymbolTable
 70
     2
  0
LTYPE
  5
13
330
5
100
AcDbSymbolTableRecord
100
AcDbLinetypeTableRecord
  2
ByBlock
 70
     0
  3

 72
    65
 73
     0
 40
0.0
  0
LTYPE
  5
14
330
5
100
AcDbSymbolTableRecord
100
AcDbLinetypeTableRecord
  2
ByLayer
 70
     0
  3

 72
    65
 73
     0
 40
0.0
  0
LTYPE
  5
15
330
5
100
AcDbSymbolTableRecord
100
AcDbLinetypeTableRecord
  2
Continuous
 70
     0
  3
Solid line
 72
    65
 73
     0
 40
0.0
  0
LTYPE
  5
3C
330
5
100
AcDbSymbolTableRecord
100
AcDbLinetypeTableRecord
  2
STRICHPUNKT
 70
     0
  3
__ . __ . __ . __ . __ . __ . __ . __ . __ . __
 72
    65
 73
     4
 40
1.0
 49
0.5
 74
     0
 49
-0.25
 74
     0
 49
0.0
 74
     0
 49
-0.25
 74
     0
  0
ENDTAB
  0
TABLE
  2
LAYER
  5
2
330
0
100
AcDbSymbolTable
 70
     9
  0
LAYER
  5
10
330
2
100
AcDbSymbolTableRecord
100
AcDbLayerTableRecord
  2
0
 70
     0
 62
     7
  6
Continuous
370
    -3
390
F
  0
LAYER
  5
3F
330
2
100
AcDbSymbolTableRecord
100
AcDbLayerTableRecord
  2
VOLL
 70
     0
 62
     1
  6
Continuous
370
    -3
390
F
  0
LAYER
  5
40
330
2
100
AcDbSymbolTableRecord
100
AcDbLayerTableRecord
  2
HILF
 70
     0
 62
     2
  6
Continuous
370
    -3
390
F
  0
LAYER
  5
41
330
2
100
AcDbSymbolTableRecord
100
AcDbLayerTableRecord
  2
MITTEL
 70
     0
 62
     2
  6
STRICHPUNKT
370
    -3
390
F
  0
LAYER
  5
42
330
2
100
AcDbSymbolTableRecord
100
AcDbLayerTableRecord
  2
BEM
 70
     0
 62
     7
  6
Continuous
370
    -3
390
F
  0
LAYER
  5
43
330
2
100
AcDbSymbolTableRecord
100
AcDbLayerTableRecord
  2
STEMPEL
 70
     0
 62
     3
  6
Continuous
370
    -3
390
F
  0
LAYER
  5
44
330
2
100
AcDbSymbolTableRecord
100
AcDbLayerTableRecord
  2
TEXT
 70
     0
 62
     7
  6
Continuous
370
    -3
390
F
  0
LAYER
  5
45
330
2
100
AcDbSymbolTableRecord
100
AcDbLayerTableRecord
  2
DEFPOINTS
 70
     0
 62
     7
  6
Continuous
290
     0
370
    -3
390
F
  0
LAYER
  5
299
330
2
100
AcDbSymbolTableRecord
100
AcDbLayerTableRecord
  2
SCHRAFF
 70
     0
 62
     7
  6
Continuous
370
    -3
390
F
  0
ENDTAB
  0
TABLE
  2
STYLE
  5
3
330
0
100
AcDbSymbolTable
 70
     2
  0
STYLE
  5
11
330
3
100
AcDbSymbolTableRecord
100
AcDbTextStyleTableRecord
  2
STANDARD
 70
     0
 40
0.0
 41
0.8
 50
0.0
 71
     0
 42
3.5
  3
simplex.shx
  4

  0
STYLE
  5
3B
330
3
100
AcDbSymbolTableRecord
100
AcDbTextStyleTableRecord
  2
GREEKS
 70
     0
 40
0.0
 41
0.8
 50
0.0
 71
     0
 42
2.5
  3
SIMPLEX.shx
  4

  0
ENDTAB
  0
TABLE
  2
VIEW
  5
6
330
0
100
AcDbSymbolTable
 70
     0
  0
ENDTAB
  0
TABLE
  2
UCS
  5
7
330
0
100
AcDbSymbolTable
 70
     0
  0
ENDTAB
  0
TABLE
  2
APPID
  5
9
330
0
100
AcDbSymbolTable
 70
     1
  0
APPID
  5
12
330
9
100
AcDbSymbolTableRecord
100
AcDbRegAppTableRecord
  2
ACAD
 70
     0
  0
ENDTAB
  0
TABLE
  2
DIMSTYLE
  5
A
330
0
100
AcDbSymbolTable
 70
     1
100
AcDbDimStyleTable
 71
     1
340
1A6
  0
DIMSTYLE
105
1A6
102
{ACAD_REACTORS
330
317
330
187
330
178
330
196
330
197
330
198
102
}
330
A
100
AcDbSymbolTableRecord
100
AcDbDimStyleTableRecord
  2
Standard
 70
     0
340
11
  0
ENDTAB
  0
TABLE
  2
BLOCK_RECORD
  5
1
330
0
100
AcDbSymbolTable
 70
     7
  0
BLOCK_RECORD
  5
20
330
1
100
AcDbSymbolTableRecord
100
AcDbBlockTableRecord
  2
*Model_Space
340
23
  0
BLOCK_RECORD
  5
1C
330
1
100
AcDbSymbolTableRecord
100
AcDbBlockTableRecord
  2
*Paper_Space
340
1F
  0
BLOCK_RECORD
  5
24
330
1
100
AcDbSymbolTableRecord
100
AcDbBlockTableRecord
  2
LOGO
340
0
102
{BLKREFS
331
165
102
}
  0
BLOCK_RECORD
  5
2C0
330
1
100
AcDbSymbolTableRecord
100
AcDbBlockTableRecord
  2
*D1
340
0
  0
BLOCK_RECORD
  5
2D8
330
1
100
AcDbSymbolTableRecord
100
AcDbBlockTableRecord
  2
*D2
340
0
  0
BLOCK_RECORD
  5
2E4
330
1
100
AcDbSymbolTableRecord
100
AcDbBlockTableRecord
  2
*D3
340
0
  0
BLOCK_RECORD
  5
2EC
330
1
100
AcDbSymbolTableRecord
100
AcDbBlockTableRecord
  2
*D4
340
0
  0
BLOCK_RECORD
  5
2F9
330
1
100
AcDbSymbolTableRecord
100
AcDbBlockTableRecord
  2
*D5
340
0
  0
BLOCK_RECORD
  5
318
330
1
100
AcDbSymbolTableRecord
100
AcDbBlockTableRecord
  2
*D6
340
0
  0
ENDTAB
  0
ENDSEC
  0
SECTION
  2
BLOCKS
  0
BLOCK
  5
4B
330
20
100
AcDbEntity
  8
0
100
AcDbBlockBegin
  2
*Model_Space
 70
     0
 10
0.0
 20
0.0
 30
0.0
  3
*Model_Space
  1

  0
ENDBLK
  5
4C
330
20
100
AcDbEntity
  8
0
100
AcDbBlockEnd
  0
BLOCK
  5
49
330
1C
100
AcDbEntity
 67
     1
  8
0
100
AcDbBlockBegin
  2
*Paper_Space
 70
     0
 10
0.0
 20
0.0
 30
0.0
  3
*Paper_Space
  1

  0
ENDBLK
  5
4A
330
1C
100
AcDbEntity
 67
     1
  8
0
100
AcDbBlockEnd
  0
BLOCK
  5
4D
330
24
100
AcDbEntity
  8
0
100
AcDbBlockBegin
  2
LOGO
 70
     0
 10
0.0
 20
0.0
 30
0.0
  3
LOGO
  1

  0
ARC
  5
4E
330
24
100
AcDbEntity
  8
0
100
AcDbCircle
 10
11.59973089678112
 20
-9.271599258481501
 30
0.0
 40
4.5
100
AcDbArc
 50
270.0
 51
231.0575587310159
  0
LINE
  5
4F
330
24
100
AcDbEntity
  8
0
100
AcDbLine
 10
3.599730896781125
 20
-4.771599258481529
 30
0.0
 11
3.599730896781153
 21
-11.77159925848133
 31
0.0
  0
LINE
  5
50
330
24
100
AcDbEntity
  8
0
100
AcDbLine
 10
2.599730896781125
 20
-4.771599258481529
 30
0.0
 11
2.599730896781153
 21
-11.77159925848133
 31
0.0
  0
CIRCLE
  5
51
330
24
100
AcDbEntity
  8
0
100
AcDbCircle
 10
11.59973089678112
 20
-9.271599258481501
 30
0.0
 40
3.5
  0
ARC
  5
52
330
24
100
AcDbEntity
  8
0
100
AcDbCircle
 10
31.59973089678115
 20
-9.271599258481472
 30
0.0
 40
4.5
100
AcDbArc
 50
270.0
 51
231.0575587310182
  0
LINE
  5
53
330
24
100
AcDbEntity
  8
0
100
AcDbLine
 10
17.59973089678112
 20
-4.771599258481472
 30
0.0
 11
17.59973089678115
 21
-13.77159925848147
 31
0.0
  0
ARC
  5
54
330
24
100
AcDbEntity
  8
0
100
AcDbCircle
 10
22.59973089678116
 20
-7.271599258481472
 30
0.0
 40
2.5
100
AcDbArc
 50
293.1161887722295
 51
90.0
  0
CIRCLE
  5
55
330
24
100
AcDbEntity
  8
0
100
AcDbCircle
 10
31.59973089678115
 20
-9.271599258481472
 30
0.0
 40
3.5
  0
ARC
  5
56
330
24
100
AcDbEntity
  8
0
100
AcDbCircle
 10
4.599730896781153
 20
-11.77159925848133
 30
0.0
 40
1.0
100
AcDbArc
 50
180.0
 51
270.0
  0
ARC
  5
57
330
24
100
AcDbEntity
  8
0
100
AcDbCircle
 10
4.599730896781153
 20
-11.77159925848133
 30
0.0
 40
2.0
100
AcDbArc
 50
179.9999999999992
 51
270.0
  0
LINE
  5
58
330
24
100
AcDbEntity
  8
0
100
AcDbLine
 10
11.59973089678115
 20
-13.77159925848144
 30
0.0
 11
4.599730896781153
 21
-13.77159925848147
 31
0.0
  0
LINE
  5
59
330
24
100
AcDbEntity
  8
0
100
AcDbLine
 10
8.771303772034769
 20
-12.77159925848136
 30
0.0
 11
4.599730896781153
 21
-12.77159925848133
 31
0.0
  0
LINE
  5
5A
330
24
100
AcDbEntity
  8
0
100
AcDbLine
 10
31.59973089678115
 20
-13.77159925848147
 30
0.0
 11
23.6715276665056
 21
-13.77159925848144
 31
0.0
  0
LINE
  5
5B
330
24
100
AcDbEntity
  8
0
100
AcDbLine
 10
23.56565672307022
 20
-9.51278021337896
 30
0.0
 11
24.4388546544846
 21
-12.77159925848144
 31
0.0
  0
LINE
  5
5C
330
24
100
AcDbEntity
  8
0
100
AcDbLine
 10
22.59973089678116
 20
-9.771599258481472
 30
0.0
 11
18.59973089678112
 21
-9.771599258481472
 31
0.0
  0
LINE
  5
5D
330
24
100
AcDbEntity
  8
0
100
AcDbLine
 10
18.59973089678115
 20
-13.77159925848144
 30
0.0
 11
17.59973089678115
 21
-13.77159925848144
 31
0.0
  0
LINE
  5
5E
330
24
100
AcDbEntity
  8
0
100
AcDbLine
 10
18.59973089678115
 20
-9.771599258481472
 30
0.0
 11
18.59973089678115
 21
-13.77159925848144
 31
0.0
  0
LINE
  5
5F
330
24
100
AcDbEntity
  8
0
100
AcDbLine
 10
22.59973089678116
 20
-9.771599258481472
 30
0.0
 11
23.67152766650562
 21
-13.77159925848147
 31
0.0
  0
ARC
  5
60
330
24
100
AcDbEntity
  8
0
100
AcDbCircle
 10
22.59973089678116
 20
-7.271599258481472
 30
0.0
 40
2.5
100
AcDbArc
 50
270.0
 51
270.0000000000007
  0
LINE
  5
61
330
24
100
AcDbEntity
  8
0
100
AcDbLine
 10
28.77130377203494
 20
-12.77159925848147
 30
0.0
 11
24.43885465448463
 21
-12.77159925848144
 31
0.0
  0
LINE
  5
62
330
24
100
AcDbEntity
  8
0
100
AcDbLine
 10
3.599730896781125
 20
-4.771599258481472
 30
0.0
 11
2.599730896781125
 21
-4.771599258481472
 31
0.0
  0
LINE
  5
63
330
24
100
AcDbEntity
  8
0
100
AcDbLine
 10
22.59973089678116
 20
-8.771599258481472
 30
0.0
 11
18.59973089678115
 21
-8.771599258481472
 31
0.0
  0
LINE
  5
64
330
24
100
AcDbEntity
  8
0
100
AcDbLine
 10
22.59973089678116
 20
-5.771599258481472
 30
0.0
 11
18.59973089678115
 21
-5.771599258481472
 31
0.0
  0
LINE
  5
65
330
24
100
AcDbEntity
  8
0
100
AcDbLine
 10
22.59973089678116
 20
-4.771599258481472
 30
0.0
 11
17.59973089678115
 21
-4.771599258481472
 31
0.0
  0
LINE
  5
66
330
24
100
AcDbEntity
  8
0
100
AcDbLine
 10
18.59973089678115
 20
-5.771599258481472
 30
0.0
 11
18.59973089678115
 21
-8.771599258481472
 31
0.0
  0
ARC
  5
67
330
24
100
AcDbEntity
  8
0
100
AcDbCircle
 10
22.59973089678116
 20
-7.271599258481472
 30
0.0
 40
1.5
100
AcDbArc
 50
270.0
 51
90.0
  0
ENDBLK
  5
68
330
24
100
AcDbEntity
  8
0
100
AcDbBlockEnd
  0
BLOCK
  5
2CA
330
2C0
100
AcDbEntity
  8
0
100
AcDbBlockBegin
  2
*D1
 70
     1
 10
0.0
 20
0.0
 30
0.0
  3
*D1
  1

  0
LINE
  5
348
330
2C0
100
AcDbEntity
  8
BEM
 62
     0
370
    -2
100
AcDbLine
 10
173.4999999999999
 20
309.4857010560531
 30
0.0
 11
173.4999999999999
 21
197.2286816842764
 31
0.0
  0
LINE
  5
349
330
2C0
100
AcDbEntity
  8
BEM
 62
     0
370
    -2
100
AcDbLine
 10
276.5
 20
309.4857010560531
 30
0.0
 11
276.5
 21
197.2286816842764
 31
0.0
  0
LINE
  5
34A
330
2C0
100
AcDbEntity
  8
BEM
 62
     0
370
    -2
100
AcDbLine
 10
180.4999999999999
 20
199.2286816842764
 30
0.0
 11
269.5
 21
199.2286816842764
 31
0.0
  0
SOLID
  5
34B
330
2C0
100
AcDbEntity
  8
BEM
 62
     0
100
AcDbTrace
 10
180.4999999999999
 20
200.3953483509431
 30
0.0
 11
180.4999999999999
 21
198.0620150176098
 31
0.0
 12
173.4999999999999
 22
199.2286816842764
 32
0.0
 13
173.4999999999999
 23
199.2286816842764
 33
0.0
  0
SOLID
  5
34C
330
2C0
100
AcDbEntity
  8
BEM
 62
     0
100
AcDbTrace
 10
269.5
 20
200.3953483509431
 30
0.0
 11
269.5
 21
198.0620150176098
 31
0.0
 12
276.5
 22
199.2286816842764
 32
0.0
 13
276.5
 23
199.2286816842764
 33
0.0
  0
MTEXT
  5
34D
330
2C0
100
AcDbEntity
  8
BEM
 62
     1
100
AcDbMText
 10
225.0
 20
205.7286816842764
 30
0.0
 40
7.0
 41
0.0
 71
     5
 72
     1
  1
\A1;103
 73
     1
 44
1.0
  0
POINT
  5
34E
330
2C0
100
AcDbEntity
  8
DEFPOINTS
 62
     0
100
AcDbPoint
 10
173.4999999999999
 20
311.4857010560531
 30
0.0
  0
POINT
  5
34F
330
2C0
100
AcDbEntity
  8
DEFPOINTS
 62
     0
100
AcDbPoint
 10
276.5
 20
311.4857010560531
 30
0.0
  0
POINT
  5
350
330
2C0
100
AcDbEntity
  8
DEFPOINTS
 62
     0
100
AcDbPoint
 10
276.5
 20
199.2286816842764
 30
0.0
  0
ENDBLK
  5
2CB
330
2C0
100
AcDbEntity
  8
0
100
AcDbBlockEnd
  0
BLOCK
  5
2E2
330
2D8
100
AcDbEntity
  8
0
100
AcDbBlockBegin
  2
*D2
 70
     1
 10
0.0
 20
0.0
 30
0.0
  3
*D2
  1

  0
LINE
  5
351
330
2D8
100
AcDbEntity
  8
BEM
 62
     0
370
    -2
100
AcDbLine
 10
134.9999999999999
 20
309.4857010560531
 30
0.0
 11
134.9999999999999
 21
179.9090272669166
 31
0.0
  0
LINE
  5
352
330
2D8
100
AcDbEntity
  8
BEM
 62
     0
370
    -2
100
AcDbLine
 10
314.9999999999999
 20
309.4857010560531
 30
0.0
 11
314.9999999999999
 21
179.9090272669166
 31
0.0
  0
LINE
  5
353
330
2D8
100
AcDbEntity
  8
BEM
 62
     0
370
    -2
100
AcDbLine
 10
141.9999999999999
 20
181.9090272669166
 30
0.0
 11
308.0
 21
181.9090272669166
 31
0.0
  0
SOLID
  5
354
330
2D8
100
AcDbEntity
  8
BEM
 62
     0
100
AcDbTrace
 10
141.9999999999999
 20
183.0756939335832
 30
0.0
 11
141.9999999999999
 21
180.7423606002499
 31
0.0
 12
134.9999999999999
 22
181.9090272669166
 32
0.0
 13
134.9999999999999
 23
181.9090272669166
 33
0.0
  0
SOLID
  5
355
330
2D8
100
AcDbEntity
  8
BEM
 62
     0
100
AcDbTrace
 10
308.0
 20
183.0756939335832
 30
0.0
 11
308.0
 21
180.7423606002499
 31
0.0
 12
314.9999999999999
 22
181.9090272669166
 32
0.0
 13
314.9999999999999
 23
181.9090272669166
 33
0.0
  0
MTEXT
  5
356
330
2D8
100
AcDbEntity
  8
BEM
 62
     1
100
AcDbMText
 10
225.0
 20
188.4090272669166
 30
0.0
 40
7.0
 41
0.0
 71
     5
 72
     1
  1
\A1;180
 73
     1
 44
1.0
  0
POINT
  5
357
330
2D8
100
AcDbEntity
  8
DEFPOINTS
 62
     0
100
AcDbPoint
 10
134.9999999999999
 20
311.4857010560531
 30
0.0
  0
POINT
  5
358
330
2D8
100
AcDbEntity
  8
DEFPOINTS
 62
     0
100
AcDbPoint
 10
314.9999999999999
 20
311.4857010560531
 30
0.0
  0
POINT
  5
359
330
2D8
100
AcDbEntity
  8
DEFPOINTS
 62
     0
100
AcDbPoint
 10
314.9999999999999
 20
181.9090272669166
 30
0.0
  0
ENDBLK
  5
2E3
330
2D8
100
AcDbEntity
  8
0
100
AcDbBlockEnd
  0
BLOCK
  5
2EA
330
2E4
100
AcDbEntity
  8
0
100
AcDbBlockBegin
  2
*D3
 70
     1
 10
0.0
 20
0.0
 30
0.0
  3
*D3
  1

  0
LINE
  5
36F
330
2E4
100
AcDbEntity
  8
BEM
 62
     0
370
    -2
100
AcDbLine
 10
298.7044923197138
 20
517.416028773013
 30
0.0
 11
309.1395248171537
 21
493.8204762942645
 31
0.0
  0
MTEXT
  5
370
330
2E4
100
AcDbEntity
  8
BEM
 62
     1
100
AcDbMText
 10
307.7499577044259
 20
513.0334115467709
 30
0.0
 40
7.0
 41
0.0
 71
     5
 72
     1
  1
\A1;R3
 11
0.4044586239317777
 21
-0.9145562976259103
 31
0.0
 73
     1
 44
1.0
  0
SOLID
  5
371
330
2E4
100
AcDbEntity
  8
BEM
 62
     0
100
AcDbTrace
 10
310.2065071643839
 20
494.2923446888515
 30
0.0
 11
308.0725424699235
 21
493.3486078996774
 31
0.0
 12
311.9707351846761
 22
487.4185822108831
 32
0.0
 13
311.9707351846761
 23
487.4185822108831
 33
0.0
  0
POINT
  5
372
330
2E4
100
AcDbEntity
  8
DEFPOINTS
 62
     0
100
AcDbPoint
 10
311.9707351846761
 20
487.4185822108831
 30
0.0
  0
POINT
  5
373
330
2E4
100
AcDbEntity
  8
DEFPOINTS
 62
     0
100
AcDbPoint
 10
310.7573593128807
 20
490.1622511037608
 30
0.0
  0
ENDBLK
  5
2EB
330
2E4
100
AcDbEntity
  8
0
100
AcDbBlockEnd
  0
BLOCK
  5
2F7
330
2EC
100
AcDbEntity
  8
0
100
AcDbBlockBegin
  2
*D4
 70
     1
 10
0.0
 20
0.0
 30
0.0
  3
*D4
  1

  0
LINE
  5
365
330
2EC
100
AcDbEntity
  8
BEM
 62
     0
370
    -2
100
AcDbLine
 10
260.0656685725253
 20
487.1622511037608
 30
0.0
 11
260.3022838166983
 21
487.1622511037608
 31
0.0
  0
LINE
  5
366
330
2EC
100
AcDbEntity
  8
BEM
 62
     0
370
    -2
100
AcDbLine
 10
258.3022838166983
 20
480.1622511037607
 30
0.0
 11
258.3022838166983
 21
473.1622511037608
 31
0.0
  0
LINE
  5
367
330
2EC
100
AcDbEntity
  8
BEM
 62
     0
370
    -2
100
AcDbLine
 10
258.3022838166983
 20
495.1622511037608
 30
0.0
 11
258.3022838166983
 21
509.4955844370941
 31
0.0
  0
LINE
  5
368
330
2EC
100
AcDbEntity
  8
BEM
 62
     0
370
    -2
100
AcDbLine
 10
258.3022838166983
 20
487.1622511037608
 30
0.0
 11
258.3022838166983
 21
488.1622511037607
 31
0.0
  0
SOLID
  5
369
330
2EC
100
AcDbEntity
  8
BEM
 62
     0
100
AcDbTrace
 10
257.1356171500316
 20
480.1622511037607
 30
0.0
 11
259.4689504833649
 21
480.1622511037607
 31
0.0
 12
258.3022838166983
 22
487.1622511037608
 32
0.0
 13
258.3022838166983
 23
487.1622511037608
 33
0.0
  0
SOLID
  5
36A
330
2EC
100
AcDbEntity
  8
BEM
 62
     0
100
AcDbTrace
 10
257.1356171500316
 20
495.1622511037608
 30
0.0
 11
259.4689504833649
 21
495.1622511037608
 31
0.0
 12
258.3022838166983
 22
488.1622511037607
 32
0.0
 13
258.3022838166983
 23
488.1622511037607
 33
0.0
  0
MTEXT
  5
36B
330
2EC
100
AcDbEntity
  8
BEM
 62
     1
100
AcDbMText
 10
251.8022838166982
 20
505.8289177704275
 30
0.0
 40
7.0
 41
0.0
 71
     5
 72
     1
  1
\A1;1
 11
0.0000000000000001
 21
1.0
 31
0.0
 73
     1
 44
1.0
  0
POINT
  5
36C
330
2EC
100
AcDbEntity
  8
DEFPOINTS
 62
     0
100
AcDbPoint
 10
258.0656685725253
 20
487.1622511037608
 30
0.0
  0
POINT
  5
36D
330
2EC
100
AcDbEntity
  8
DEFPOINTS
 62
     0
100
AcDbPoint
 10
258.3022838166983
 20
488.1622511037607
 30
0.0
  0
POINT
  5
36E
330
2EC
100
AcDbEntity
  8
DEFPOINTS
 62
     0
100
AcDbPoint
 10
258.3022838166983
 20
488.1622511037607
 30
0.0
  0
ENDBLK
  5
2F8
330
2EC
100
AcDbEntity
  8
0
100
AcDbBlockEnd
  0
BLOCK
  5
305
330
2F9
100
AcDbEntity
  8
0
100
AcDbBlockBegin
  2
*D5
 70
     1
 10
0.0
 20
0.0
 30
0.0
  3
*D5
  1

  0
LINE
  5
35A
330
2F9
100
AcDbEntity
  8
BEM
 62
     0
370
    -2
100
AcDbLine
 10
312.7573593128807
 20
487.1622511037608
 30
0.0
 11
376.0408906469566
 21
487.1622511037608
 31
0.0
  0
LINE
  5
35B
330
2F9
100
AcDbEntity
  8
BEM
 62
     0
370
    -2
100
AcDbLine
 10
316.9999999999999
 20
490.1622511037608
 30
0.0
 11
376.0408906469566
 21
490.1622511037608
 31
0.0
  0
LINE
  5
35C
330
2F9
100
AcDbEntity
  8
BEM
 62
     0
370
    -2
100
AcDbLine
 10
374.0408906469566
 20
480.1622511037607
 30
0.0
 11
374.0408906469566
 21
473.1622511037608
 31
0.0
  0
LINE
  5
35D
330
2F9
100
AcDbEntity
  8
BEM
 62
     0
370
    -2
100
AcDbLine
 10
374.0408906469566
 20
497.1622511037607
 30
0.0
 11
374.0408906469566
 21
513.895584437094
 31
0.0
  0
LINE
  5
35E
330
2F9
100
AcDbEntity
  8
BEM
 62
     0
370
    -2
100
AcDbLine
 10
374.0408906469566
 20
487.1622511037608
 30
0.0
 11
374.0408906469566
 21
490.1622511037608
 31
0.0
  0
SOLID
  5
35F
330
2F9
100
AcDbEntity
  8
BEM
 62
     0
100
AcDbTrace
 10
372.8742239802898
 20
480.1622511037607
 30
0.0
 11
375.2075573136232
 21
480.1622511037607
 31
0.0
 12
374.0408906469566
 22
487.1622511037608
 32
0.0
 13
374.0408906469566
 23
487.1622511037608
 33
0.0
  0
SOLID
  5
360
330
2F9
100
AcDbEntity
  8
BEM
 62
     0
100
AcDbTrace
 10
372.8742239802898
 20
497.1622511037607
 30
0.0
 11
375.2075573136232
 21
497.1622511037607
 31
0.0
 12
374.0408906469566
 22
490.1622511037608
 32
0.0
 13
374.0408906469566
 23
490.1622511037608
 33
0.0
  0
MTEXT
  5
361
330
2F9
100
AcDbEntity
  8
BEM
 62
     1
100
AcDbMText
 10
367.5408906469565
 20
509.0289177704275
 30
0.0
 40
7.0
 41
0.0
 71
     5
 72
     1
  1
\A1;3
 11
0.0000000000000001
 21
1.0
 31
0.0
 73
     1
 44
1.0
  0
POINT
  5
362
330
2F9
100
AcDbEntity
  8
DEFPOINTS
 62
     0
100
AcDbPoint
 10
310.7573593128807
 20
487.1622511037608
 30
0.0
  0
POINT
  5
363
330
2F9
100
AcDbEntity
  8
DEFPOINTS
 62
     0
100
AcDbPoint
 10
314.9999999999999
 20
490.1622511037608
 30
0.0
  0
POINT
  5
364
330
2F9
100
AcDbEntity
  8
DEFPOINTS
 62
     0
100
AcDbPoint
 10
374.0408906469566
 20
490.1622511037608
 30
0.0
  0
ENDBLK
  5
306
330
2F9
100
AcDbEntity
  8
0
100
AcDbBlockEnd
  0
BLOCK
  5
326
330
318
100
AcDbEntity
  8
0
100
AcDbBlockBegin
  2
*D6
 70
     1
 10
0.0
 20
0.0
 30
0.0
  3
*D6
  1

  0
LINE
  5
329
330
318
100
AcDbEntity
  8
BEM
 62
     0
370
    -2
100
AcDbLine
 10
313.9999999999998
 20
487.1622511037607
 30
0.0
 11
353.1064363523833
 21
487.1622511037607
 31
0.0
  0
LINE
  5
32A
330
318
100
AcDbEntity
  8
BEM
 62
     0
370
    -2
100
AcDbLine
 10
316.414213562373
 20
491.5764646661338
 30
0.0
 11
341.0666398951835
 21
516.2288909989443
 31
0.0
  0
ARC
  5
32B
330
318
100
AcDbEntity
  8
BEM
 62
     0
370
    -2
100
AcDbCircle
 10
311.9999999999998
 20
487.1622511037607
 30
0.0
 40
39.10643635238351
100
AcDbArc
 50
339.460780826881
 51
349.7303904134405
  0
ARC
  5
32C
330
318
100
AcDbEntity
  8
BEM
 62
     0
370
    -2
100
AcDbCircle
 10
311.9999999999998
 20
487.1622511037607
 30
0.0
 40
39.10643635238351
100
AcDbArc
 50
55.26960958655934
 51
65.53921917311888
  0
ARC
  5
32D
330
318
100
AcDbEntity
  8
BEM
 62
     0
370
    -2
100
AcDbCircle
 10
311.9999999999998
 20
487.1622511037607
 30
0.0
 40
39.10643635238351
100
AcDbArc
 50
0.0
 51
44.99999999999984
  0
SOLID
  5
32E
330
318
100
AcDbEntity
  8
BEM
 62
     0
100
AcDbTrace
 10
349.317956320185
 20
480.2947588186875
 30
0.0
 11
351.641925711679
 21
480.0859270398705
 31
0.0
 12
351.1064363523833
 22
487.1622511037607
 32
0.0
 13
351.1064363523833
 23
487.1622511037607
 33
0.0
  0
SOLID
  5
32F
330
318
100
AcDbEntity
  8
BEM
 62
     0
100
AcDbTrace
 10
335.0273577585713
 20
520.1970423252325
 30
0.0
 11
333.5317296095047
 21
518.4060814423085
 31
0.0
 12
339.6524263328104
 22
514.8146774365711
 32
0.0
 13
339.6524263328104
 23
514.8146774365711
 33
0.0
  0
MTEXT
  5
330
330
318
100
AcDbEntity
  8
BEM
 62
     1
100
AcDbMText
 10
354.1348530967457
 20
504.6150787050308
 30
0.0
 40
7.0
 41
0.0
 71
     5
 72
     1
  1
\A1;45°
 11
0.3826834323650898
 21
-0.9238795325112867
 31
0.0
 73
     1
 44
1.0
  0
POINT
  5
331
330
318
100
AcDbEntity
  8
DEFPOINTS
 62
     0
100
AcDbPoint
 10
349.7739168468967
 20
497.2837416178471
 30
0.0
  0
POINT
  5
332
330
318
100
AcDbEntity
  8
DEFPOINTS
 62
     0
100
AcDbPoint
 10
139.242640687119
 20
487.1622511037607
 30
0.0
  0
POINT
  5
333
330
318
100
AcDbEntity
  8
DEFPOINTS
 62
     0
100
AcDbPoint
 10
314.9999999999999
 20
490.1622511037607
 30
0.0
  0
POINT
  5
334
330
318
100
AcDbEntity
  8
DEFPOINTS
 62
     0
100
AcDbPoint
 10
312.8786796564403
 20
488.0409307602011
 30
0.0
  0
POINT
  5
335
330
318
100
AcDbEntity
  8
DEFPOINTS
 62
     0
100
AcDbPoint
 10
310.7573593128807
 20
487.1622511037607
 30
0.0
  0
ENDBLK
  5
327
330
318
100
AcDbEntity
  8
0
100
AcDbBlockEnd
  0
ENDSEC
  0
SECTION
  2
ENTITIES
  0
TEXT
  5
124
330
20
100
AcDbEntity
  8
TEXT
 62
     1
100
AcDbText
 10
345.9102798223181
 20
88.14901428913959
 30
0.0
 40
7.0
  1
16802100W
 41
0.8
  7
GREEKS
 72
     1
 11
368.8436131556515
 21
88.14901428913959
 31
0.0
100
AcDbText
  0
LINE
  5
125
330
20
100
AcDbEntity
  8
VOLL
100
AcDbLine
 10
332.0
 20
60.0
 30
0.0
 11
410.0
 21
60.0
 31
0.0
  0
LINE
  5
126
330
20
100
AcDbEntity
  8
HILF
100
AcDbLine
 10
336.7238616296993
 20
83.77983636955827
 30
0.0
 11
404.8588839326728
 21
83.77983636955827
 31
0.0
  0
LINE
  5
127
330
20
100
AcDbEntity
  8
HILF
100
AcDbLine
 10
223.4909699289885
 20
14.89398258028314
 30
0.0
 11
404.8588839326728
 21
14.89398258028314
 31
0.0
  0
TEXT
  5
128
330
20
100
AcDbEntity
  8
TEXT
100
AcDbText
 10
336.178754957634
 20
102.3132034537136
 30
0.0
 40
5.0
  1
Zeichnungs Nr.
 41
0.8
  7
GREEKS
100
AcDbText
  0
TEXT
  5
129
330
20
100
AcDbEntity
  8
TEXT
100
AcDbText
 10
337.2400861497006
 20
52.07416177878602
 30
0.0
 40
5.0
  1
ersetzt durch:
 41
0.8
  7
GREEKS
100
AcDbText
  0
LINE
  5
12A
330
20
100
AcDbEntity
  8
STEMPEL
100
AcDbLine
 10
410.0
 20
40.0
 30
0.0
 11
136.0000000000001
 21
39.99999999999997
 31
0.0
  0
LINE
  5
12B
330
20
100
AcDbEntity
  8
STEMPEL
100
AcDbLine
 10
410.0
 20
80.0
 30
0.0
 11
136.0000000000001
 21
79.99999999999994
 31
0.0
  0
LINE
  5
12C
330
20
100
AcDbEntity
  8
STEMPEL
100
AcDbLine
 10
410.0
 20
110.0
 30
0.0
 11
39.99999999999997
 21
110.0
 31
0.0
  0
LINE
  5
12D
330
20
100
AcDbEntity
  8
STEMPEL
100
AcDbLine
 10
49.99999999999989
 20
10.0
 30
0.0
 11
410.0
 21
10.0
 31
0.0
  0
LINE
  5
12E
330
20
100
AcDbEntity
  8
STEMPEL
100
AcDbLine
 10
410.0
 20
10.0
 30
0.0
 11
39.99999999999989
 21
10.0
 31
0.0
  0
LINE
  5
12F
330
20
100
AcDbEntity
  8
STEMPEL
100
AcDbLine
 10
410.0
 20
584.0
 30
0.0
 11
39.99999999999989
 21
584.0
 31
0.0
  0
LINE
  5
130
330
20
100
AcDbEntity
  8
HILF
100
AcDbLine
 10
419.9999999999999
 20
594.0000000000002
 30
0.0
 11
0.0
 21
594.0
 31
0.0
  0
LINE
  5
131
330
20
100
AcDbEntity
  8
HILF
100
AcDbLine
 10
420.0
 20
0.0
 30
0.0
 11
0.0
 21
0.0
 31
0.0
  0
LINE
  5
132
330
20
100
AcDbEntity
  8
STEMPEL
100
AcDbLine
 10
40.0
 20
10.0
 30
0.0
 11
39.99999999999989
 21
584.0
 31
0.0
  0
LINE
  5
133
330
20
100
AcDbEntity
  8
HILF
100
AcDbLine
 10
0.0
 20
0.0
 30
0.0
 11
-0.0000000000001137
 21
594.0
 31
0.0
  0
TEXT
  5
139
330
20
100
AcDbEntity
  8
TEXT
100
AcDbText
 10
138.622109822104
 20
73.14025471151666
 30
0.0
 40
4.0
  1
2011
 41
0.8
  7
GREEKS
100
AcDbText
  0
TEXT
  5
13A
330
20
100
AcDbEntity
  8
TEXT
100
AcDbText
 10
137.5836127167615
 20
63.62990369617964
 30
0.0
 40
4.0
  1
Gez.
 41
0.8
  7
GREEKS
100
AcDbText
  0
TEXT
  5
13B
330
20
100
AcDbEntity
  8
TEXT
100
AcDbText
 10
137.6006777387304
 20
43.52946389649807
 30
0.0
 40
4.0
  1
Norm.
 41
0.8
  7
GREEKS
100
AcDbText
  0
TEXT
  5
13C
330
20
100
AcDbEntity
  8
TEXT
100
AcDbText
 10
137.5515086571672
 20
53.68926291428377
 30
0.0
 40
4.0
  1
Gepr.
 41
0.8
  7
GREEKS
100
AcDbText
  0
LINE
  5
13D
330
20
100
AcDbEntity
  8
HILF
100
AcDbLine
 10
136.0000000000001
 20
69.99999999999994
 30
0.0
 11
220.0
 21
69.99999999999994
 31
0.0
  0
LINE
  5
13E
330
20
100
AcDbEntity
  8
HILF
100
AcDbLine
 10
136.0000000000001
 20
59.99999999999997
 30
0.0
 11
220.0
 21
59.99999999999997
 31
0.0
  0
LINE
  5
13F
330
20
100
AcDbEntity
  8
HILF
100
AcDbLine
 10
136.0000000000001
 20
49.99999999999997
 30
0.0
 11
220.0
 21
49.99999999999997
 31
0.0
  0
LINE
  5
140
330
20
100
AcDbEntity
  8
STEMPEL
100
AcDbLine
 10
136.0000000000001
 20
109.9999999999999
 30
0.0
 11
136.0
 21
9.999999999999971
 31
0.0
  0
LINE
  5
141
330
20
100
AcDbEntity
  8
VOLL
100
AcDbLine
 10
114.0000000000001
 20
109.9999999999999
 30
0.0
 11
114.0
 21
9.999999999999971
 31
0.0
  0
LINE
  5
142
330
20
100
AcDbEntity
  8
VOLL
100
AcDbLine
 10
94.00000000000011
 20
109.9999999999999
 30
0.0
 11
94.0
 21
9.999999999999971
 31
0.0
  0
TEXT
  5
143
330
20
100
AcDbEntity
  8
TEXT
100
AcDbText
 10
99.7156769662704
 20
18.6715626933981
 30
0.0
 40
4.0
  1
Tag
 41
0.8
  7
GREEKS
 72
     1
 11
103.4490102996037
 21
18.6715626933981
 31
0.0
100
AcDbText
  0
TEXT
  5
144
330
20
100
AcDbEntity
  8
TEXT
100
AcDbText
 10
48.26641107045756
 20
13.65465846027192
 30
0.0
 40
4.0
  1
Index
 50
90.0
 41
0.8
  7
GREEKS
100
AcDbText
  0
LINE
  5
145
330
20
100
AcDbEntity
  8
VOLL
100
AcDbLine
 10
54.00000000000009
 20
110.0
 30
0.0
 11
53.99999999999997
 21
9.999999999999971
 31
0.0
  0
TEXT
  5
146
330
20
100
AcDbEntity
  8
TEXT
100
AcDbText
 10
61.36144756961037
 20
18.67381894984132
 30
0.0
 40
4.0
  1
Änderung
 41
0.8
  7
GREEKS
 72
     1
 11
72.10430471246752
 21
18.67381894984132
 31
0.0
100
AcDbText
  0
LINE
  5
147
330
20
100
AcDbEntity
  8
STEMPEL
100
AcDbLine
 10
135.9999999999999
 20
29.99999999999997
 30
0.0
 11
39.99999999999997
 21
29.99999999999997
 31
0.0
  0
LINE
  5
148
330
20
100
AcDbEntity
  8
HILF
100
AcDbLine
 10
40.00000000000008
 20
100.0
 30
0.0
 11
136.0000000000001
 21
100.0
 31
0.0
  0
LINE
  5
149
330
20
100
AcDbEntity
  8
HILF
100
AcDbLine
 10
40.00000000000008
 20
90.00000000000005
 30
0.0
 11
136.0000000000001
 21
90.00000000000005
 31
0.0
  0
LINE
  5
14A
330
20
100
AcDbEntity
  8
HILF
100
AcDbLine
 10
40.00000000000008
 20
79.99999999999994
 30
0.0
 11
136.0000000000001
 21
79.99999999999994
 31
0.0
  0
LINE
  5
14B
330
20
100
AcDbEntity
  8
HILF
100
AcDbLine
 10
40.00000000000008
 20
69.99999999999994
 30
0.0
 11
136.0000000000001
 21
69.99999999999994
 31
0.0
  0
LINE
  5
14C
330
20
100
AcDbEntity
  8
HILF
100
AcDbLine
 10
40.00000000000008
 20
59.99999999999997
 30
0.0
 11
136.0000000000001
 21
59.99999999999997
 31
0.0
  0
LINE
  5
14D
330
20
100
AcDbEntity
  8
HILF
100
AcDbLine
 10
40.00000000000008
 20
49.99999999999997
 30
0.0
 11
136.0000000000001
 21
49.99999999999997
 31
0.0
  0
LINE
  5
14E
330
20
100
AcDbEntity
  8
HILF
100
AcDbLine
 10
40.00000000000008
 20
39.99999999999997
 30
0.0
 11
136.0000000000001
 21
39.99999999999997
 31
0.0
  0
TEXT
  5
14F
330
20
100
AcDbEntity
  8
TEXT
100
AcDbText
 10
119.3525723460467
 20
18.59324216966408
 30
0.0
 40
4.0
  1
Name
 41
0.8
  7
GREEKS
 72
     1
 11
125.6763818698563
 21
18.59324216966408
 31
0.0
100
AcDbText
  0
LINE
  5
150
330
20
100
AcDbEntity
  8
HILF
100
AcDbLine
 10
31.08767135713856
 20
297.0
 30
0.0
 11
0.0000000000001137
 21
297.0
 31
0.0
  0
TEXT
  5
155
330
20
100
AcDbEntity
  8
TEXT
100
AcDbText
 10
41.85509950977674
 20
111.6719999999999
 30
0.0
 40
5.0
  1
Erstellt mit AUTOCAD 2004
 41
0.8
  7
GREEKS
100
AcDbText
  0
TEXT
  5
15B
330
20
100
AcDbEntity
  8
TEXT
100
AcDbText
 10
225.1296391125315
 20
62.11580706774856
 30
0.0
 40
5.0
  1
Auslaufseite
 41
0.8
  7
GREEKS
100
AcDbText
  0
TEXT
  5
15C
330
20
100
AcDbEntity
  8
TEXT
100
AcDbText
 10
224.742238391136
 20
30.84560570193057
 30
0.0
 40
5.0
  1
Bauvorhaben
 41
0.8
  7
GREEKS
100
AcDbText
  0
TEXT
  5
15D
330
20
100
AcDbEntity
  8
TEXT
100
AcDbText
 10
225.1296391125315
 20
71.50334417585288
 30
0.0
 40
5.0
  1
für Ablaufserien G+GF
 41
0.75
  7
GREEKS
100
AcDbText
  0
TEXT
  5
15E
330
20
100
AcDbEntity
  8
TEXT
 62
     1
100
AcDbText
 10
225.5170099555928
 20
87.41748789253779
 30
0.0
 40
7.0
  1
LORO-Abdeckrosette DN100
 41
0.7
  7
GREEKS
100
AcDbText
  0
TEXT
  5
15F
330
20
100
AcDbEntity
  8
TEXT
100
AcDbText
 10
225.1296391125315
 20
51.64011943042158
 30
0.0
 40
5.0
  1
EDV-Art.Nr. 16802.100X
 41
0.8
  7
GREEKS
100
AcDbText
  0
LINE
  5
160
330
20
100
AcDbEntity
  8
HILF
100
AcDbLine
 10
224.7736801096948
 20
84.03758247564139
 30
0.0
 11
324.8353916556311
 21
84.03758247564139
 31
0.0
  0
LINE
  5
161
330
20
100
AcDbEntity
  8
HILF
100
AcDbLine
 10
224.7736801096948
 20
69.99999999999994
 30
0.0
 11
324.835391655631
 21
69.99999999999994
 31
0.0
  0
LINE
  5
162
330
20
100
AcDbEntity
  8
HILF
100
AcDbLine
 10
224.7736801096948
 20
59.99999999999997
 30
0.0
 11
324.835391655631
 21
59.99999999999997
 31
0.0
  0
LINE
  5
163
330
20
100
AcDbEntity
  8
HILF
100
AcDbLine
 10
224.7736801096948
 20
49.99999999999997
 30
0.0
 11
324.835391655631
 21
49.99999999999997
 31
0.0
  0
LINE
  5
164
330
20
100
AcDbEntity
  8
STEMPEL
100
AcDbLine
 10
220.0
 20
110.0
 30
0.0
 11
220.0
 21
9.999999999999971
 31
0.0
  0
INSERT
  5
165
330
20
100
AcDbEntity
  8
STEMPEL
100
AcDbBlockReference
  2
LOGO
 10
140.9955485457794
 20
45.02105276448322
 30
0.0
 41
2.0
 42
2.0
 43
2.0
  0
TEXT
  5
166
330
20
100
AcDbEntity
  8
TEXT
100
AcDbText
 10
192.4626584226295
 20
73.30961091915225
 30
0.0
 40
4.0
  1
Name
 41
0.8
  7
GREEKS
100
AcDbText
  0
TEXT
  5
167
330
20
100
AcDbEntity
  8
TEXT
100
AcDbText
 10
194.4216048581257
 20
63.0896391972351
 30
0.0
 40
4.0
  1
Koeh
 41
0.8
  7
GREEKS
 72
     1
 11
199.6787477152685
 21
63.0896391972351
 31
0.0
100
AcDbText
  0
TEXT
  5
168
330
20
100
AcDbEntity
  8
TEXT
100
AcDbText
 10
181.0451798271316
 20
90.76363841023022
 30
0.0
 40
4.0
  1
DIN ISO 2768 m
 41
0.75
  7
GREEKS
 72
     1
 11
199.6166083985602
 21
90.76363841023022
 31
0.0
100
AcDbText
  0
TEXT
  5
169
330
20
100
AcDbEntity
  8
TEXT
100
AcDbText
 10
184.2858954734051
 20
102.4184168434819
 30
0.0
 40
5.0
  1
Zul. Abw.
 41
0.8
  7
GREEKS
100
AcDbText
  0
LINE
  5
16A
330
20
100
AcDbEntity
  8
VOLL
100
AcDbLine
 10
180.0000000000001
 20
109.9999999999998
 30
0.0
 11
180.0
 21
39.99999999999997
 31
0.0
  0
TEXT
  5
16B
330
20
100
AcDbEntity
  8
TEXT
100
AcDbText
 10
160.7037590129979
 20
63.10765040825732
 30
0.0
 40
4.0
  1
31.03.
 41
0.8
  7
GREEKS
 72
     1
 11
167.4085209177598
 21
63.10765040825732
 31
0.0
100
AcDbText
  0
LINE
  5
16C
330
20
100
AcDbEntity
  8
VOLL
100
AcDbLine
 10
154.0000000000001
 20
79.99999999999994
 30
0.0
 11
154.0000000000001
 21
39.99999999999997
 31
0.0
  0
TEXT
  5
16D
330
20
100
AcDbEntity
  8
TEXT
 62
     1
100
AcDbText
 10
150.5006306481887
 20
88.14901428913959
 30
0.0
 40
7.0
  1
1:2
 41
0.8
  7
GREEKS
100
AcDbText
  0
TEXT
  5
16E
330
20
100
AcDbEntity
  8
TEXT
100
AcDbText
 10
162.3311673153651
 20
73.31880501229926
 30
0.0
 40
4.0
  1
Tag
 41
0.8
  7
GREEKS
100
AcDbText
  0
TEXT
  5
16F
330
20
100
AcDbEntity
  8
TEXT
100
AcDbText
 10
143.5163572150377
 20
102.4620895087088
 30
0.0
 40
5.0
  1
Maßstab
 41
0.8
  7
GREEKS
100
AcDbText
  0
TEXT
  5
170
330
20
100
AcDbEntity
  8
TEXT
100
AcDbText
 10
224.9837501577827
 20
42.62974153022632
 30
0.0
 40
4.0
  1
16802100W.DWG
 41
0.8
  7
GREEKS
100
AcDbText
  0
TEXT
  5
171
330
20
100
AcDbEntity
  8
TEXT
100
AcDbText
 10
224.877940380901
 20
102.5489328011779
 30
0.0
 40
5.0
  1
Benennung
 41
0.8
  7
GREEKS
100
AcDbText
  0
LINE
  5
172
330
20
100
AcDbEntity
  8
STEMPEL
100
AcDbLine
 10
332.0
 20
109.9999999999997
 30
0.0
 11
332.0
 21
40.0
 31
0.0
  0
TEXT
  5
173
330
20
100
AcDbEntity
  8
TEXT
100
AcDbText
 10
336.7238616296993
 20
73.1811823709997
 30
0.0
 40
5.0
  1
Ersatz für:
 41
0.8
  7
GREEKS
100
AcDbText
  0
TEXT
  5
174
330
20
100
AcDbEntity
  8
TEXT
 62
     1
100
AcDbText
 10
228.9647302065891
 20
132.4103533557258
 30
0.0
 40
7.0
  1
Werkstoff: 1.4301
 41
0.8
  7
GREEKS
100
AcDbText
  0
DIMENSION
  5
178
330
20
100
AcDbEntity
  8
BEM
100
AcDbDimension
  2
*D2
 10
314.9999999999999
 20
181.9090272669166
 30
0.0
 11
225.0
 21
188.4090272669166
 31
0.0
 70
    32
 71
     5
 42
180.0
  3
Standard
100
AcDbAlignedDimension
 13
134.9999999999999
 23
311.4857010560531
 33
0.0
 14
314.9999999999999
 24
311.4857010560531
 34
0.0
100
AcDbRotatedDimension
1001
ACAD
1000
DSTYLE
1002
{
1070
    40
1040
2.0
1070
    41
1040
3.5
1070
    42
1040
1.0
1070
    43
1040
7.0
1070
    44
1040
1.0
1070
    73
1070
     0
1070
    74
1070
     0
1070
    77
1070
     1
1070
    78
1070
     8
1070
    79
1070
     2
1070
   140
1040
3.5
1070
   141
1040
1.5
1070
   146
1040
0.5
1070
   147
1040
1.5
1070
   172
1070
     1
1070
   178
1070
     1
1070
   179
1070
     2
1070
   271
1070
     2
1070
   272
1070
     2
1070
   284
1070
     8
1070
   285
1070
     8
1070
   286
1070
     8
1002
}
  0
LINE
  5
179
330
20
100
AcDbEntity
  8
MITTEL
100
AcDbLine
 10
129.9999999999999
 20
311.4857010560531
 30
0.0
 11
319.9999999999999
 21
311.4857010560531
 31
0.0
  0
ARC
  5
17B
330
20
100
AcDbEntity
  8
STEMPEL
100
AcDbCircle
 10
225.0
 20
311.4857010560531
 30
0.0
 40
90.0
100
AcDbArc
 50
270.1591551477672
 51
89.84084485223284
  0
ARC
  5
17C
330
20
100
AcDbEntity
  8
STEMPEL
100
AcDbCircle
 10
225.0
 20
311.4857010560531
 30
0.0
 40
88.58578643762687
100
AcDbArc
 50
270.1616959612587
 51
89.83830403874128
  0
ARC
  5
17D
330
20
100
AcDbEntity
  8
HILF
100
AcDbCircle
 10
225.0
 20
311.4857010560531
 30
0.0
 40
86.52272617761099
100
AcDbArc
 50
270.1655514734941
 51
89.83444852650585
  0
LINE
  5
17E
330
20
100
AcDbEntity
  8
STEMPEL
100
AcDbLine
 10
134.9999999999999
 20
490.1622511037608
 30
0.0
 11
224.75
 21
490.1622511037608
 31
0.0
  0
LINE
  5
17F
102
{ACAD_REACTORS
330
343
102
}
330
20
100
AcDbEntity
  8
STEMPEL
100
AcDbLine
 10
224.7499999999999
 20
488.1622511037607
 30
0.0
 11
310.7573593128807
 21
488.1622511037607
 31
0.0
  0
LINE
  5
180
102
{ACAD_REACTORS
330
336
330
343
102
}
330
20
100
AcDbEntity
  8
STEMPEL
100
AcDbLine
 10
139.2426406871191
 20
487.1622511037608
 30
0.0
 11
310.7573593128807
 21
487.1622511037608
 31
0.0
  0
ARC
  5
182
330
20
100
AcDbEntity
  8
STEMPEL
100
AcDbCircle
 10
139.2426406871191
 20
490.1622511037604
 30
0.0
 40
3.0
100
AcDbArc
 50
225.0000000000002
 51
270.0000000000002
  0
LINE
  5
183
330
20
100
AcDbEntity
  8
STEMPEL
100
AcDbLine
 10
134.9999999999999
 20
490.1622511037603
 30
0.0
 11
137.1213203435595
 21
488.0409307602008
 31
0.0
  0
LINE
  5
184
330
20
100
AcDbEntity
  8
MITTEL
100
AcDbLine
 10
225.0
 20
406.4857010560531
 30
0.0
 11
225.0
 21
216.4857010560531
 31
0.0
  0
DIMENSION
  5
187
330
20
100
AcDbEntity
  8
BEM
100
AcDbDimension
  2
*D1
 10
276.5
 20
199.2286816842764
 30
0.0
 11
225.0
 21
205.7286816842764
 31
0.0
 70
    32
 71
     5
 42
103.0
  3
Standard
100
AcDbAlignedDimension
 13
173.4999999999999
 23
311.4857010560531
 33
0.0
 14
276.5
 24
311.4857010560531
 34
0.0
100
AcDbRotatedDimension
1001
ACAD
1000
DSTYLE
1002
{
1070
    40
1040
2.0
1070
    41
1040
3.5
1070
    42
1040
1.0
1070
    43
1040
7.0
1070
    44
1040
1.0
1070
    73
1070
     0
1070
    74
1070
     0
1070
    77
1070
     1
1070
    78
1070
     8
1070
    79
1070
     2
1070
   140
1040
3.5
1070
   141
1040
1.5
1070
   146
1040
0.5
1070
   147
1040
1.5
1070
   172
1070
     1
1070
   178
1070
     1
1070
   179
1070
     2
1070
   271
1070
     2
1070
   272
1070
     2
1070
   284
1070
     8
1070
   285
1070
     8
1070
   286
1070
     8
1002
}
  0
LINE
  5
18A
330
20
100
AcDbEntity
  8
MITTEL
100
AcDbLine
 10
217.9999999999999
 20
249.2357010560531
 30
0.0
 11
217.9999999999999
 21
232.2357010560531
 31
0.0
  0
ARC
  5
18B
330
20
100
AcDbEntity
  8
STEMPEL
100
AcDbCircle
 10
217.9999999999999
 20
240.7357010560531
 30
0.0
 40
3.5
100
AcDbArc
 50
34.84990457904642
 51
325.1500954209536
  0
LINE
  5
18C
330
20
100
AcDbEntity
  8
MITTEL
100
AcDbLine
 10
225.0
 20
240.7357010560531
 30
0.0
 11
209.4999999999999
 21
240.7357010560531
 31
0.0
  0
LINE
  5
18D
330
20
100
AcDbEntity
  8
STEMPEL
100
AcDbLine
 10
225.25
 20
238.7357010560531
 30
0.0
 11
220.8722813232689
 21
238.7357010560531
 31
0.0
  0
LINE
  5
18E
330
20
100
AcDbEntity
  8
STEMPEL
100
AcDbLine
 10
225.25
 20
242.7357010560531
 30
0.0
 11
220.8722813232689
 21
242.7357010560531
 31
0.0
  0
LINE
  5
195
330
20
100
AcDbEntity
  8
MITTEL
100
AcDbLine
 10
225.0
 20
495.1622511037608
 30
0.0
 11
225.0
 21
482.1622511037608
 31
0.0
  0
DIMENSION
  5
196
330
20
100
AcDbEntity
  8
BEM
100
AcDbDimension
  2
*D5
 10
374.0408906469566
 20
490.1622511037608
 30
0.0
 11
367.5408906469565
 21
509.0289177704275
 31
0.0
 70
    32
 71
     5
 42
3.0
  3
Standard
100
AcDbAlignedDimension
 13
310.7573593128807
 23
487.1622511037608
 33
0.0
 14
314.9999999999999
 24
490.1622511037608
 34
0.0
 50
90.0
100
AcDbRotatedDimension
1001
ACAD
1000
DSTYLE
1002
{
1070
    40
1040
2.0
1070
    41
1040
3.5
1070
    42
1040
1.0
1070
    43
1040
7.0
1070
    44
1040
1.0
1070
    73
1070
     0
1070
    74
1070
     0
1070
    77
1070
     1
1070
    78
1070
     8
1070
    79
1070
     2
1070
   140
1040
3.5
1070
   141
1040
1.5
1070
   146
1040
0.5
1070
   147
1040
1.5
1070
   172
1070
     1
1070
   178
1070
     1
1070
   179
1070
     2
1070
   271
1070
     2
1070
   272
1070
     2
1070
   284
1070
     8
1070
   285
1070
     8
1070
   286
1070
     8
1002
}
  0
DIMENSION
  5
197
330
20
100
AcDbEntity
  8
BEM
100
AcDbDimension
  2
*D4
 10
258.3022838166983
 20
488.1622511037607
 30
0.0
 11
251.8022838166982
 21
505.8289177704275
 31
0.0
 70
    32
 71
     5
  3
Standard
100
AcDbAlignedDimension
 13
258.0656685725253
 23
487.1622511037608
 33
0.0
 14
258.3022838166983
 24
488.1622511037607
 34
0.0
 50
90.0
100
AcDbRotatedDimension
1001
ACAD
1000
DSTYLE
1002
{
1070
    40
1040
2.0
1070
    41
1040
3.5
1070
    42
1040
1.0
1070
    43
1040
7.0
1070
    44
1040
1.0
1070
    73
1070
     0
1070
    74
1070
     0
1070
    77
1070
     1
1070
    78
1070
     8
1070
    79
1070
     2
1070
   140
1040
3.5
1070
   141
1040
1.5
1070
   146
1040
0.5
1070
   147
1040
1.5
1070
   172
1070
     1
1070
   178
1070
     1
1070
   179
1070
     2
1070
   271
1070
     2
1070
   272
1070
     2
1070
   284
1070
     8
1070
   285
1070
     8
1070
   286
1070
     8
1002
}
  0
DIMENSION
  5
198
330
20
100
AcDbEntity
  8
BEM
100
AcDbDimension
  2
*D3
 10
310.7573593128807
 20
490.1622511037608
 30
0.0
 11
301.8053417698575
 21
510.4044304912143
 31
0.0
 70
   164
 71
     5
 42
3.0
  3
Standard
100
AcDbRadialDimension
 15
311.9707351846761
 25
487.4185822108831
 35
0.0
 40
0.0
1001
ACAD
1000
DSTYLE
1002
{
1070
    40
1040
2.0
1070
    41
1040
3.5
1070
    42
1040
1.0
1070
    43
1040
7.0
1070
    44
1040
1.0
1070
    73
1070
     0
1070
    74
1070
     0
1070
    77
1070
     1
1070
    78
1070
     8
1070
    79
1070
     2
1070
   140
1040
3.5
1070
   141
1040
1.5
1070
   146
1040
0.5
1070
   147
1040
1.5
1070
   172
1070
     1
1070
   178
1070
     1
1070
   179
1070
     2
1070
   271
1070
     2
1070
   272
1070
     2
1070
   284
1070
     8
1070
   285
1070
     8
1070
   286
1070
     8
1002
}
  0
ARC
  5
199
102
{ACAD_REACTORS
330
343
102
}
330
20
100
AcDbEntity
  8
STEMPEL
100
AcDbCircle
 10
310.7573593128807
 20
490.1622511037608
 30
0.0
 40
2.0
100
AcDbArc
 50
270.0
 51
315.0
  0
ARC
  5
19A
102
{ACAD_REACTORS
330
343
102
}
330
20
100
AcDbEntity
  8
STEMPEL
100
AcDbCircle
 10
310.7573593128807
 20
490.1622511037608
 30
0.0
 40
3.0
100
AcDbArc
 50
270.0
 51
315.0
  0
LINE
  5
19B
102
{ACAD_REACTORS
330
336
330
343
102
}
330
20
100
AcDbEntity
  8
STEMPEL
100
AcDbLine
 10
314.9999999999999
 20
490.1622511037608
 30
0.0
 11
312.8786796564404
 21
488.0409307602012
 31
0.0
  0
LINE
  5
19C
102
{ACAD_REACTORS
330
343
102
}
330
20
100
AcDbEntity
  8
STEMPEL
100
AcDbLine
 10
313.5857864376268
 20
490.1622511037608
 30
0.0
 11
312.171572875254
 21
488.7480375413876
 31
0.0
  0
LINE
  5
19D
330
20
100
AcDbEntity
  8
STEMPEL
100
AcDbLine
 10
410.0
 20
110.0
 30
0.0
 11
410.0
 21
584.0
 31
0.0
  0
LINE
  5
19E
330
20
100
AcDbEntity
  8
HILF
100
AcDbLine
 10
420.0
 20
-0.0000000000001137
 30
0.0
 11
419.9999999999999
 21
594.0
 31
0.0
  0
LINE
  5
1A0
330
20
100
AcDbEntity
  8
STEMPEL
100
AcDbLine
 10
410.0
 20
110.0
 30
0.0
 11
410.0
 21
10.0
 31
0.0
  0
LINE
  5
1A1
102
{ACAD_REACTORS
330
343
102
}
330
20
100
AcDbEntity
  8
STEMPEL
100
AcDbLine
 10
276.5
 20
488.1622511037607
 30
0.0
 11
276.5
 21
487.1622511037609
 31
0.0
  0
ARC
  5
1A4
330
20
100
AcDbEntity
  8
STEMPEL
100
AcDbCircle
 10
225.0
 20
311.4857010560531
 30
0.0
 40
51.5
100
AcDbArc
 50
270.2781359443867
 51
89.72186405561323
  0
LINE
  5
1AD
330
20
100
AcDbEntity
  8
STEMPEL
100
AcDbLine
 10
225.25
 20
259.9863078557444
 30
0.0
 11
225.25
 21
242.7357010560531
 31
0.0
  0
LINE
  5
1AE
330
20
100
AcDbEntity
  8
STEMPEL
100
AcDbLine
 10
224.75
 20
259.9863078557444
 30
0.0
 11
224.7499999999999
 21
242.7357010560531
 31
0.0
  0
LINE
  5
1B1
330
20
100
AcDbEntity
  8
MITTEL
100
AcDbLine
 10
220.0
 20
231.4857010560532
 30
0.0
 11
229.9999999999999
 21
231.4857010560532
 31
0.0
  0
LINE
  5
1B4
330
20
100
AcDbEntity
  8
STEMPEL
100
AcDbLine
 10
224.75
 20
231.9857010560532
 30
0.0
 11
225.25
 21
231.9857010560532
 31
0.0
  0
LINE
  5
1B5
330
20
100
AcDbEntity
  8
STEMPEL
100
AcDbLine
 10
224.75
 20
230.9857010560532
 30
0.0
 11
225.25
 21
230.9857010560532
 31
0.0
  0
LINE
  5
1B6
330
20
100
AcDbEntity
  8
STEMPEL
100
AcDbLine
 10
224.75
 20
230.9857010560532
 30
0.0
 11
224.75
 21
221.4860482789451
 31
0.0
  0
LINE
  5
1B7
330
20
100
AcDbEntity
  8
STEMPEL
100
AcDbLine
 10
225.25
 20
230.9857010560532
 30
0.0
 11
225.2499999999999
 21
221.4860482789451
 31
0.0
  0
LINE
  5
1B8
330
20
100
AcDbEntity
  8
STEMPEL
100
AcDbLine
 10
225.25
 20
391.985701056053
 30
0.0
 11
225.2499999999999
 21
401.485353833161
 31
0.0
  0
LINE
  5
1B9
330
20
100
AcDbEntity
  8
STEMPEL
100
AcDbLine
 10
224.75
 20
391.985701056053
 30
0.0
 11
224.75
 21
401.485353833161
 31
0.0
  0
LINE
  5
1BA
330
20
100
AcDbEntity
  8
STEMPEL
100
AcDbLine
 10
224.75
 20
391.985701056053
 30
0.0
 11
225.25
 21
391.985701056053
 31
0.0
  0
LINE
  5
1BB
330
20
100
AcDbEntity
  8
STEMPEL
100
AcDbLine
 10
224.75
 20
390.985701056053
 30
0.0
 11
225.25
 21
390.985701056053
 31
0.0
  0
LINE
  5
1BC
330
20
100
AcDbEntity
  8
MITTEL
100
AcDbLine
 10
220.0
 20
391.4857010560531
 30
0.0
 11
229.9999999999999
 21
391.4857010560531
 31
0.0
  0
LINE
  5
1BD
330
20
100
AcDbEntity
  8
STEMPEL
100
AcDbLine
 10
224.75
 20
362.9850942563618
 30
0.0
 11
224.75
 21
380.2357010560531
 31
0.0
  0
LINE
  5
1BE
330
20
100
AcDbEntity
  8
STEMPEL
100
AcDbLine
 10
225.25
 20
362.9850942563618
 30
0.0
 11
225.25
 21
380.2357010560531
 31
0.0
  0
LINE
  5
1BF
330
20
100
AcDbEntity
  8
STEMPEL
100
AcDbLine
 10
225.25
 20
380.2357010560531
 30
0.0
 11
220.8722813232689
 21
380.2357010560531
 31
0.0
  0
LINE
  5
1C0
330
20
100
AcDbEntity
  8
STEMPEL
100
AcDbLine
 10
225.25
 20
384.2357010560531
 30
0.0
 11
220.8722813232689
 21
384.2357010560531
 31
0.0
  0
LINE
  5
1C1
330
20
100
AcDbEntity
  8
MITTEL
100
AcDbLine
 10
225.0
 20
382.2357010560531
 30
0.0
 11
209.4999999999999
 21
382.2357010560531
 31
0.0
  0
ARC
  5
1C2
330
20
100
AcDbEntity
  8
STEMPEL
100
AcDbCircle
 10
217.9999999999999
 20
382.2357010560531
 30
0.0
 40
3.5
100
AcDbArc
 50
34.84990457904646
 51
325.1500954209536
  0
LINE
  5
1C3
330
20
100
AcDbEntity
  8
MITTEL
100
AcDbLine
 10
217.9999999999999
 20
373.7357010560531
 30
0.0
 11
217.9999999999999
 21
390.7357010560531
 31
0.0
  0
ARC
  5
1C4
330
20
100
AcDbEntity
  8
HILF
100
AcDbCircle
 10
225.0
 20
311.4857010560531
 30
0.0
 40
86.52272617761099
100
AcDbArc
 50
90.16555147349416
 51
269.8344485265059
  0
ARC
  5
1C5
330
20
100
AcDbEntity
  8
STEMPEL
100
AcDbCircle
 10
225.0
 20
311.4857010560531
 30
0.0
 40
88.58578643762687
100
AcDbArc
 50
90.16169596125875
 51
269.8383040387413
  0
ARC
  5
1C6
330
20
100
AcDbEntity
  8
STEMPEL
100
AcDbCircle
 10
225.0
 20
311.4857010560531
 30
0.0
 40
90.0
100
AcDbArc
 50
90.1591551477672
 51
269.8408448522328
  0
ARC
  5
1C7
330
20
100
AcDbEntity
  8
STEMPEL
100
AcDbCircle
 10
225.0
 20
311.4857010560531
 30
0.0
 40
51.5
100
AcDbArc
 50
90.27813594438674
 51
269.7218640556133
  0
LINE
  5
1C8
330
20
100
AcDbEntity
  8
STEMPEL
100
AcDbLine
 10
224.75
 20
384.2357010560531
 30
0.0
 11
224.75
 21
390.985701056053
 31
0.0
  0
LINE
  5
1C9
330
20
100
AcDbEntity
  8
STEMPEL
100
AcDbLine
 10
225.25
 20
384.2357010560531
 30
0.0
 11
225.25
 21
390.985701056053
 31
0.0
  0
LINE
  5
1CA
330
20
100
AcDbEntity
  8
STEMPEL
100
AcDbLine
 10
224.7499999999999
 20
238.7357010560531
 30
0.0
 11
224.75
 21
231.9857010560532
 31
0.0
  0
LINE
  5
1CB
330
20
100
AcDbEntity
  8
STEMPEL
100
AcDbLine
 10
225.25
 20
238.7357010560531
 30
0.0
 11
225.25
 21
231.9857010560532
 31
0.0
  0
LINE
  5
1D3
330
20
100
AcDbEntity
  8
TEXT
 62
     2
100
AcDbLine
 10
108.6768440412664
 20
402.0817642401778
 30
0.0
 11
176.9631306787658
 21
402.0817642401778
 31
0.0
  0
TEXT
  5
1D4
330
20
100
AcDbEntity
  8
TEXT
 62
     1
100
AcDbText
 10
109.4201738871645
 20
404.6125941878933
 30
0.0
 40
7.0
  1
Soll-Bruchstelle
 41
0.8
  7
GREEKS
100
AcDbText
  0
LINE
  5
1D5
330
20
100
AcDbEntity
  8
TEXT
 62
     2
100
AcDbLine
 10
176.9631306787658
 20
402.0817642401778
 30
0.0
 11
225.0
 21
391.4857010560531
 31
0.0
  0
TEXT
  5
297
330
20
100
AcDbEntity
  8
BEM
100
AcDbText
 10
417.3022923857165
 20
10.16790107998861
 30
0.0
 40
4.0
  1
Diese Zeichnung ist urheberrechtlich geschützt und bleibt unser Eigentum. Sie darf weder ganz noch teilweise verfielfältigt und nicht an Dritte weitergegeben werden.
 50
90.0
 41
0.8
  7
GREEKS
100
AcDbText
  0
LINE
  5
2A6
330
20
100
AcDbEntity
  8
STEMPEL
100
AcDbLine
 10
224.7499999999999
 20
490.1622511037608
 30
0.0
 11
224.75
 21
487.1622511037607
 31
0.0
  0
LINE
  5
2A7
330
20
100
AcDbEntity
  8
STEMPEL
100
AcDbLine
 10
225.2499999999999
 20
490.1622511037608
 30
0.0
 11
225.2499999999999
 21
487.1622511037607
 31
0.0
  0
LINE
  5
2A8
102
{ACAD_REACTORS
330
343
102
}
330
20
100
AcDbEntity
  8
STEMPEL
100
AcDbLine
 10
225.2499999999999
 20
490.1622511037608
 30
0.0
 11
314.9999999999999
 21
490.1622511037608
 31
0.0
  0
DIMENSION
  5
317
102
{ACAD_XDICTIONARY
360
328
102
}
102
{ACAD_REACTORS
330
336
102
}
330
20
100
AcDbEntity
  8
BEM
100
AcDbDimension
  2
*D6
 10
310.7573593128807
 20
487.1622511037608
 30
0.0
 11
354.1348530967456
 21
504.6150787050308
 31
0.0
 70
    34
 71
     5
 42
0.7853981633974455
  3
Standard
100
AcDb2LineAngularDimension
 13
314.9999999999999
 23
490.1622511037608
 33
0.0
 14
312.8786796564404
 24
488.0409307602012
 34
0.0
 15
139.2426406871191
 25
487.1622511037608
 35
0.0
 16
349.7739168468967
 26
497.2837416178471
 36
0.0
1001
ACAD
1000
DSTYLE
1002
{
1070
    40
1040
2.0
1070
    41
1040
3.5
1070
    42
1040
1.0
1070
    43
1040
7.0
1070
    44
1040
1.0
1070
    73
1070
     0
1070
    74
1070
     0
1070
    77
1070
     1
1070
    78
1070
     8
1070
    79
1070
     2
1070
   140
1040
3.5
1070
   141
1040
1.5
1070
   144
1040
0.5
1070
   146
1040
0.5
1070
   147
1040
1.5
1070
   172
1070
     1
1070
   178
1070
     1
1070
   179
1070
     2
1070
   271
1070
     2
1070
   272
1070
     2
1070
   284
1070
     8
1070
   285
1070
     8
1070
   286
1070
     8
1002
}
  0
HATCH
  5
343
330
20
100
AcDbEntity
  8
SCHRAFF
100
AcDbHatch
 10
0.0
 20
0.0
 30
0.0
210
0.0
220
0.0
230
1.0
  2
_USER
 70
     0
 71
     1
 91
        1
 92
        7
 72
     1
 73
     1
 93
        8
 10
310.7573593128807
 20
487.1622511037608
 42
0.1989123673796621
 10
312.8786796564404
 20
488.0409307602012
 42
0.0
 10
314.9999999999999
 20
490.1622511037607
 42
0.0
 10
313.5857864376267
 20
490.1622511037607
 42
0.0
 10
312.171572875254
 20
488.7480375413876
 42
-0.1989123673796728
 10
310.7573593128807
 20
488.1622511037607
 42
0.0
 10
276.4999999999999
 20
488.1622511037606
 42
0.0
 10
276.5
 20
487.1622511037608
 42
0.0
 97
        8
330
19B
330
2A8
330
19C
330
199
330
17F
330
1A1
330
180
330
19A
 75
     0
 76
     0
 52
135.0
 41
2.0
 77
     0
 78
     1
 53
135.0
 43
0.0
 44
0.0
 45
-1.414213562373095
 46
-1.414213562373094
 79
     0
 47
0.0752000441577066
 98
        1
 10
290.1676251483632
 20
487.5295372014309
  0
ENDSEC
  0
SECTION
  2
OBJECTS
  0
DICTIONARY
  5
C
330
0
100
AcDbDictionary
281
     1
  3
ACAD_COLOR
350
1B
  3
ACAD_GROUP
350
D
  3
ACAD_LAYOUT
350
19
  3
ACAD_MATERIAL
350
1A
  3
ACAD_MLINESTYLE
350
16
  3
ACAD_PLOTSETTINGS
350
18
  3
ACAD_PLOTSTYLENAME
350
E
  3
AcDbVariableDictionary
350
2B1
  0
DICTIONARY
  5
328
330
317
100
AcDbDictionary
280
     1
281
     1
  3
ACAD_DIMASSOC
360
336
  0
DICTIONARY
  5
1B
102
{ACAD_REACTORS
330
C
102
}
330
C
100
AcDbDictionary
281
     1
  0
DICTIONARY
  5
D
102
{ACAD_REACTORS
330
C
102
}
330
C
100
AcDbDictionary
281
     1
  0
DICTIONARY
  5
19
102
{ACAD_REACTORS
330
C
102
}
330
C
100
AcDbDictionary
281
     1
  3
Layout1
350
1F
  3
Model
350
23
  0
DICTIONARY
  5
1A
102
{ACAD_REACTORS
330
C
102
}
330
C
100
AcDbDictionary
281
     1
  0
DICTIONARY
  5
16
102
{ACAD_REACTORS
330
C
102
}
330
C
100
AcDbDictionary
281
     1
  3
Standard
350
17
  0
DICTIONARY
  5
18
102
{ACAD_REACTORS
330
C
102
}
330
C
100
AcDbDictionary
281
     1
  0
ACDBDICTIONARYWDFLT
  5
E
102
{ACAD_REACTORS
330
C
102
}
330
C
100
AcDbDictionary
281
     1
  3
Normal
350
F
100
AcDbDictionaryWithDefault
340
F
  0
DICTIONARY
  5
2B1
102
{ACAD_REACTORS
330
C
102
}
330
C
100
AcDbDictionary
281
     1
  3
DIMASSOC
350
2B3
  3
HIDETEXT
350
2B2
  3
PROJECTNAME
350
2B4
  0
DIMASSOC
  5
336
102
{ACAD_REACTORS
330
328
102
}
330
328
100
AcDbDimAssoc
330
317
 90
       15
 70
     0
 71
     0
  1
AcDbOsnapPointRef
 72
    13
331
19B
 73
     2
 91
        0
 40
0.0
 10
0.0
 20
0.0
 30
2.000000000000000E+50
 75
     0
  1
AcDbOsnapPointRef
 72
     1
331
19B
 73
     2
 91
        0
 40
0.9999999999999998
 10
0.0
 20
0.0
 30
2.000000000000000E+50
 75
     0
  1
AcDbOsnapPointRef
 72
    13
331
180
 73
     2
 91
        0
 40
0.0
 10
0.0
 20
0.0
 30
2.000000000000000E+50
 75
     0
  1
AcDbOsnapPointRef
 72
     1
331
180
 73
     2
 91
        0
 40
1.0
 10
0.0
 20
0.0
 30
2.000000000000000E+50
 75
     0
  0
LAYOUT
  5
1F
102
{ACAD_REACTORS
330
19
102
}
330
19
100
AcDbPlotSettings
  1

  2
RICOH Aficio 2027 PCL 6
  4

  6

 40
0.0
 41
0.0
 42
0.0
 43
0.0
 44
0.0
 45
0.0
 46
0.0
 47
0.0
 48
0.0
 49
0.0
140
0.0
141
0.0
142
1.0
143
1.0
 70
   688
 72
     0
 73
     0
 74
     5
  7
monochrome1.ctb
 75
    16
147
1.0
 76
     0
 77
     2
 78
   300
148
0.0
149
0.0
100
AcDbLayout
  1
Layout1
 70
     0
 71
     1
 10
0.0
 20
0.0
 11
12.0
 21
9.0
 12
158.7634990033266
 22
50.00000000000001
 32
274.9684894305549
 14
1.000000000000000E+20
 24
1.000000000000000E+20
 34
1.000000000000000E+20
 15
-1.000000000000000E+20
 25
-1.000000000000000E+20
 35
-1.000000000000000E+20
146
0.0
 13
0.0
 23
0.0
 33
0.0
 16
1.0
 26
0.0
 36
0.0
 17
0.0
 27
1.0
 37
0.0
 76
     0
330
1C
  0
LAYOUT
  5
23
102
{ACAD_REACTORS
330
19
102
}
330
19
100
AcDbPlotSettings
  1

  2
RICOH Aficio 2027 PCL 6
  4
A4
  6

 40
5.027083396911621
 41
5.027085304260253
 42
5.027084350585937
 43
5.027069091796875
 44
209.9733276367187
 45
296.9259948730469
 46
0.0
 47
0.0
 48
0.0
 49
0.0
140
0.0
141
0.0
142
1.0
143
1.0
 70
 11952
 72
     0
 73
     1
 74
     0
  7
monochrome1.ctb
 75
     0
147
1.0
 76
     0
 77
     2
 78
   300
148
2300.896799486477
149
91.09677890547535
100
AcDbLayout
  1
Model
 70
     1
 71
     0
 10
0.0
 20
0.0
 11
12.0
 21
9.0
 12
0.0
 22
0.0
 32
0.0
 14
0.0
 24
0.0
 34
0.0
 15
0.0
 25
0.0
 35
0.0
146
0.0
 13
0.0
 23
0.0
 33
0.0
 16
1.0
 26
0.0
 36
0.0
 17
0.0
 27
1.0
 37
0.0
 76
     0
330
20
  0
MLINESTYLE
  5
17
102
{ACAD_REACTORS
330
16
102
}
330
16
100
AcDbMlineStyle
  2
STANDARD
 70
     0
  3

 62
   256
 51
90.0
 52
90.0
 71
     2
 49
0.5
 62
   256
  6
BYLAYER
 49
-0.5
 62
   256
  6
BYLAYER
  0
ACDBPLACEHOLDER
  5
F
102
{ACAD_REACTORS
330
E
102
}
330
E
  0
DICTIONARYVAR
  5
2B3
102
{ACAD_REACTORS
330
2B1
102
}
330
2B1
100
DictionaryVariables
280
     0
  1
2
  0
DICTIONARYVAR
  5
2B2
102
{ACAD_REACTORS
330
2B1
102
}
330
2B1
100
DictionaryVariables
280
     0
  1
1
  0
DICTIONARYVAR
  5
2B4
102
{ACAD_REACTORS
330
2B1
102
}
330
2B1
100
DictionaryVariables
280
     0
  1

  0
ENDSEC
  0
EOF
