  0
SECTION
  2
HEADER
  9
$ACADVER
  1
AC1018
  9
$ACADMAINTVER
 70
     2
  9
$DWGCODEPAGE
  3
ANSI_1252
  9
$INSBASE
 10
0.0
 20
0.0
 30
0.0
  9
$EXTMIN
 10
-0.0128164049388033
 20
-0.0181260584133725
 30
-0.0015258207003583
  9
$EXTMAX
 10
420.012818360716
 20
594.0181288244416
 30
0.0000000349246037
  9
$LIMMIN
 10
0.0
 20
0.0
  9
$LIMMAX
 10
419.9999999999999
 20
594.0
  9
$ORTHOMODE
 70
     1
  9
$REGENMODE
 70
     1
  9
$FILLMODE
 70
     1
  9
$QTEXTMODE
 70
     0
  9
$MIRRTEXT
 70
     1
  9
$LTSCALE
 40
20.0
  9
$ATTMODE
 70
     1
  9
$TEXTSIZE
 40
3.5
  9
$TRACEWID
 40
0.5
  9
$TEXTSTYLE
  7
STANDARD
  9
$CLAYER
  8
BEM
  9
$CELTYPE
  6
ByLayer
  9
$CECOLOR
 62
   256
  9
$CELTSCALE
 40
1.0
  9
$DISPSILH
 70
     0
  9
$DIMSCALE
 40
2.0
  9
$DIMASZ
 40
3.5
  9
$DIMEXO
 40
1.0
  9
$DIMDLI
 40
7.0
  9
$DIMRND
 40
0.0
  9
$DIMDLE
 40
0.0
  9
$DIMEXE
 40
1.0
  9
$DIMTP
 40
0.0
  9
$DIMTM
 40
0.0
  9
$DIMTXT
 40
3.5
  9
$DIMCEN
 40
1.5
  9
$DIMTSZ
 40
0.0
  9
$DIMTOL
 70
     0
  9
$DIMLIM
 70
     0
  9
$DIMTIH
 70
     0
  9
$DIMTOH
 70
     0
  9
$DIMSE1
 70
     0
  9
$DIMSE2
 70
     0
  9
$DIMTAD
 70
     1
  9
$DIMZIN
 70
     8
  9
$DIMBLK
  1

  9
$DIMASO
 70
     1
  9
$DIMSHO
 70
     0
  9
$DIMPOST
  1

  9
$DIMAPOST
  1

  9
$DIMALT
 70
     0
  9
$DIMALTD
 70
     2
  9
$DIMALTF
 40
25.4
  9
$DIMLFAC
 40
1.0
  9
$DIMTOFL
 70
     1
  9
$DIMTVP
 40
0.0
  9
$DIMTIX
 70
     0
  9
$DIMSOXD
 70
     0
  9
$DIMSAH
 70
     0
  9
$DIMBLK1
  1

  9
$DIMBLK2
  1

  9
$DIMSTYLE
  2
Standard
  9
$DIMCLRD
 70
     0
  9
$DIMCLRE
 70
     0
  9
$DIMCLRT
 70
     1
  9
$DIMTFAC
 40
0.5
  9
$DIMGAP
 40
1.5
  9
$DIMJUST
 70
     0
  9
$DIMSD1
 70
     0
  9
$DIMSD2
 70
     0
  9
$DIMTOLJ
 70
     1
  9
$DIMTZIN
 70
     8
  9
$DIMALTZ
 70
     8
  9
$DIMALTTZ
 70
     8
  9
$DIMUPT
 70
     0
  9
$DIMDEC
 70
     2
  9
$DIMTDEC
 70
     2
  9
$DIMALTU
 70
     2
  9
$DIMALTTD
 70
     2
  9
$DIMTXSTY
  7
STANDARD
  9
$DIMAUNIT
 70
     0
  9
$DIMADEC
 70
     2
  9
$DIMALTRND
 40
0.0
  9
$DIMAZIN
 70
     2
  9
$DIMDSEP
 70
    46
  9
$DIMATFIT
 70
     3
  9
$DIMFRAC
 70
     0
  9
$DIMLDRBLK
  1

  9
$DIMLUNIT
 70
     2
  9
$DIMLWD
 70
    -2
  9
$DIMLWE
 70
    -2
  9
$DIMTMOVE
 70
     0
  9
$LUNITS
 70
     2
  9
$LUPREC
 70
     2
  9
$SKETCHINC
 40
1.0
  9
$FILLETRAD
 40
0.0
  9
$AUNITS
 70
     0
  9
$AUPREC
 70
     0
  9
$MENU
  1
ACAD
  9
$ELEVATION
 40
0.0
  9
$PELEVATION
 40
0.0
  9
$THICKNESS
 40
0.0
  9
$LIMCHECK
 70
     0
  9
$CHAMFERA
 40
0.0
  9
$CHAMFERB
 40
0.0
  9
$CHAMFERC
 40
0.0
  9
$CHAMFERD
 40
0.0
  9
$SKPOLY
 70
     0
  9
$TDCREATE
 40
2451803.390105671
  9
$TDUCREATE
 40
2451803.306772338
  9
$TDUPDATE
 40
2455652.343238321
  9
$TDUUPDATE
 40
2455652.259904989
  9
$TDINDWG
 40
0.0263601736
  9
$TDUSRTIMER
 40
0.0263601736
  9
$USRTIMER
 70
     1
  9
$ANGBASE
 50
0.0
  9
$ANGDIR
 70
     0
  9
$PDMODE
 70
     0
  9
$PDSIZE
 40
0.0
  9
$PLINEWID
 40
0.0
  9
$SPLFRAME
 70
     0
  9
$SPLINETYPE
 70
     6
  9
$SPLINESEGS
 70
     8
  9
$HANDSEED
  5
31C
  9
$SURFTAB1
 70
     6
  9
$SURFTAB2
 70
     6
  9
$SURFTYPE
 70
     6
  9
$SURFU
 70
     6
  9
$SURFV
 70
     6
  9
$UCSBASE
  2

  9
$UCSNAME
  2

  9
$UCSORG
 10
0.0
 20
0.0
 30
0.0
  9
$UCSXDIR
 10
1.0
 20
0.0
 30
0.0
  9
$UCSYDIR
 10
0.0
 20
1.0
 30
0.0
  9
$UCSORTHOREF
  2

  9
$UCSORTHOVIEW
 70
     0
  9
$UCSORGTOP
 10
0.0
 20
0.0
 30
0.0
  9
$UCSORGBOTTOM
 10
0.0
 20
0.0
 30
0.0
  9
$UCSORGLEFT
 10
0.0
 20
0.0
 30
0.0
  9
$UCSORGRIGHT
 10
0.0
 20
0.0
 30
0.0
  9
$UCSORGFRONT
 10
0.0
 20
0.0
 30
0.0
  9
$UCSORGBACK
 10
0.0
 20
0.0
 30
0.0
  9
$PUCSBASE
  2

  9
$PUCSNAME
  2

  9
$PUCSORG
 10
0.0
 20
0.0
 30
0.0
  9
$PUCSXDIR
 10
1.0
 20
0.0
 30
0.0
  9
$PUCSYDIR
 10
0.0
 20
1.0
 30
0.0
  9
$PUCSORTHOREF
  2

  9
$PUCSORTHOVIEW
 70
     0
  9
$PUCSORGTOP
 10
0.0
 20
0.0
 30
0.0
  9
$PUCSORGBOTTOM
 10
0.0
 20
0.0
 30
0.0
  9
$PUCSORGLEFT
 10
0.0
 20
0.0
 30
0.0
  9
$PUCSORGRIGHT
 10
0.0
 20
0.0
 30
0.0
  9
$PUCSORGFRONT
 10
0.0
 20
0.0
 30
0.0
  9
$PUCSORGBACK
 10
0.0
 20
0.0
 30
0.0
  9
$USERI1
 70
     0
  9
$USERI2
 70
     0
  9
$USERI3
 70
     0
  9
$USERI4
 70
     0
  9
$USERI5
 70
     0
  9
$USERR1
 40
0.0
  9
$USERR2
 40
0.0
  9
$USERR3
 40
0.0
  9
$USERR4
 40
0.0
  9
$USERR5
 40
0.0
  9
$WORLDVIEW
 70
     1
  9
$SHADEDGE
 70
     3
  9
$SHADEDIF
 70
    70
  9
$TILEMODE
 70
     1
  9
$MAXACTVP
 70
    16
  9
$PINSBASE
 10
158.7634990033266
 20
50.00000000000001
 30
274.9684894305549
  9
$PLIMCHECK
 70
     0
  9
$PEXTMIN
 10
1.000000000000000E+20
 20
1.000000000000000E+20
 30
1.000000000000000E+20
  9
$PEXTMAX
 10
-1.000000000000000E+20
 20
-1.000000000000000E+20
 30
-1.000000000000000E+20
  9
$PLIMMIN
 10
0.0
 20
0.0
  9
$PLIMMAX
 10
12.0
 20
9.0
  9
$UNITMODE
 70
     0
  9
$VISRETAIN
 70
     0
  9
$PLINEGEN
 70
     0
  9
$PSLTSCALE
 70
     0
  9
$TREEDEPTH
 70
  3020
  9
$CMLSTYLE
  2
Standard
  9
$CMLJUST
 70
     0
  9
$CMLSCALE
 40
1.0
  9
$PROXYGRAPHICS
 70
     1
  9
$MEASUREMENT
 70
     0
  9
$CELWEIGHT
370
    -1
  9
$ENDCAPS
280
     0
  9
$JOINSTYLE
280
     0
  9
$LWDISPLAY
290
     0
  9
$INSUNITS
 70
     0
  9
$HYPERLINKBASE
  1

  9
$STYLESHEET
  1
monochrome 1.ctb
  9
$XEDIT
290
     1
  9
$CEPSNTYPE
380
     0
  9
$PSTYLEMODE
290
     1
  9
$FINGERPRINTGUID
  2
{19E495DB-7D61-4D45-979E-1684257A452F}
  9
$VERSIONGUID
  2
{A6FBF872-DFE9-4B6B-8A4C-5A0673BB2DF1}
  9
$EXTNAMES
290
     1
  9
$PSVPSCALE
 40
0.0
  9
$OLESTARTUP
290
     0
  9
$SORTENTS
280
   127
  9
$INDEXCTL
280
     0
  9
$HIDETEXT
280
     1
  9
$XCLIPFRAME
290
     0
  9
$HALOGAP
280
     0
  9
$OBSCOLOR
 70
   257
  9
$OBSLTYPE
280
     0
  9
$INTERSECTIONDISPLAY
280
     0
  9
$INTERSECTIONCOLOR
 70
   257
  9
$DIMASSOC
280
     2
  9
$PROJECTNAME
  1

  0
ENDSEC
  0
SECTION
  2
CLASSES
  0
CLASS
  1
ACDBDICTIONARYWDFLT
  2
AcDbDictionaryWithDefault
  3
ObjectDBX Classes
 90
        0
 91
        1
280
     0
281
     0
  0
CLASS
  1
DIMASSOC
  2
AcDbDimAssoc
  3
"AcDbDimAssoc|Product Desc:     AcDim ARX App For Dimension|Company:          Autodesk, Inc.|WEB Address:      www.autodesk.com"
 90
        0
 91
        1
280
     0
281
     0
  0
CLASS
  1
DICTIONARYVAR
  2
AcDbDictionaryVar
  3
ObjectDBX Classes
 90
        0
 91
        3
280
     0
281
     0
  0
ENDSEC
  0
SECTION
  2
TABLES
  0
TABLE
  2
VPORT
  5
8
330
0
100
AcDbSymbolTable
 70
     3
  0
VPORT
  5
31B
330
8
100
AcDbSymbolTableRecord
100
AcDbViewportTableRecord
  2
*Active
 70
     0
 10
0.0
 20
0.0
 11
1.0
 21
1.0
 12
210.0
 22
297.0
 13
0.0
 23
0.0
 14
1.0
 24
1.0
 15
10.0
 25
10.0
 16
0.0
 26
0.0
 36
1.0
 17
0.0
 27
0.0
 37
0.0
 40
594.0
 41
1.334231805929919
 42
50.0
 43
0.0
 44
0.0
 50
0.0
 51
0.0
 71
     0
 72
  1500
 73
     1
 74
     0
 75
     0
 76
     0
 77
     0
 78
     0
281
     0
 65
     1
110
0.0
120
0.0
130
0.0
111
1.0
121
0.0
131
0.0
112
0.0
122
1.0
132
0.0
 79
     0
146
0.0
  0
ENDTAB
  0
TABLE
  2
LTYPE
  5
5
330
0
100
AcDbSymbolTable
 70
     2
  0
LTYPE
  5
13
330
5
100
AcDbSymbolTableRecord
100
AcDbLinetypeTableRecord
  2
ByBlock
 70
     0
  3

 72
    65
 73
     0
 40
0.0
  0
LTYPE
  5
14
330
5
100
AcDbSymbolTableRecord
100
AcDbLinetypeTableRecord
  2
ByLayer
 70
     0
  3

 72
    65
 73
     0
 40
0.0
  0
LTYPE
  5
15
330
5
100
AcDbSymbolTableRecord
100
AcDbLinetypeTableRecord
  2
Continuous
 70
     0
  3
Solid line
 72
    65
 73
     0
 40
0.0
  0
LTYPE
  5
3D
330
5
100
AcDbSymbolTableRecord
100
AcDbLinetypeTableRecord
  2
STRICHPUNKT
 70
     0
  3
__ . __ . __ . __ . __ . __ . __ . __ . __ . __
 72
    65
 73
     4
 40
1.0
 49
0.5
 74
     0
 49
-0.25
 74
     0
 49
0.0
 74
     0
 49
-0.25
 74
     0
  0
ENDTAB
  0
TABLE
  2
LAYER
  5
2
330
0
100
AcDbSymbolTable
 70
     9
  0
LAYER
  5
10
330
2
100
AcDbSymbolTableRecord
100
AcDbLayerTableRecord
  2
0
 70
     0
 62
     7
  6
Continuous
370
    -3
390
F
  0
LAYER
  5
40
330
2
100
AcDbSymbolTableRecord
100
AcDbLayerTableRecord
  2
VOLL
 70
     0
 62
     1
  6
Continuous
370
    -3
390
F
  0
LAYER
  5
41
330
2
100
AcDbSymbolTableRecord
100
AcDbLayerTableRecord
  2
HILF
 70
     0
 62
     2
  6
Continuous
370
    -3
390
F
  0
LAYER
  5
42
330
2
100
AcDbSymbolTableRecord
100
AcDbLayerTableRecord
  2
MITTEL
 70
     0
 62
     2
  6
STRICHPUNKT
370
    -3
390
F
  0
LAYER
  5
43
330
2
100
AcDbSymbolTableRecord
100
AcDbLayerTableRecord
  2
BEM
 70
     0
 62
     7
  6
Continuous
370
    -3
390
F
  0
LAYER
  5
44
330
2
100
AcDbSymbolTableRecord
100
AcDbLayerTableRecord
  2
STEMPEL
 70
     0
 62
     3
  6
Continuous
370
    -3
390
F
  0
LAYER
  5
45
330
2
100
AcDbSymbolTableRecord
100
AcDbLayerTableRecord
  2
TEXT
 70
     0
 62
     7
  6
Continuous
370
    -3
390
F
  0
LAYER
  5
46
330
2
100
AcDbSymbolTableRecord
100
AcDbLayerTableRecord
  2
DEFPOINTS
 70
     0
 62
     7
  6
Continuous
290
     0
370
    -3
390
F
  0
LAYER
  5
48
330
2
100
AcDbSymbolTableRecord
100
AcDbLayerTableRecord
  2
SCHRAFF
 70
     0
 62
     7
  6
Continuous
370
    -3
390
F
  0
ENDTAB
  0
TABLE
  2
STYLE
  5
3
330
0
100
AcDbSymbolTable
 70
     2
  0
STYLE
  5
11
330
3
100
AcDbSymbolTableRecord
100
AcDbTextStyleTableRecord
  2
STANDARD
 70
     0
 40
0.0
 41
0.8
 50
0.0
 71
     0
 42
3.5
  3
simplex.shx
  4

  0
STYLE
  5
3C
330
3
100
AcDbSymbolTableRecord
100
AcDbTextStyleTableRecord
  2
GREEKS
 70
     0
 40
0.0
 41
0.8
 50
0.0
 71
     0
 42
2.5
  3
SIMPLEX.shx
  4

  0
ENDTAB
  0
TABLE
  2
VIEW
  5
6
330
0
100
AcDbSymbolTable
 70
     0
  0
ENDTAB
  0
TABLE
  2
UCS
  5
7
330
0
100
AcDbSymbolTable
 70
     0
  0
ENDTAB
  0
TABLE
  2
APPID
  5
9
330
0
100
AcDbSymbolTable
 70
     1
  0
APPID
  5
12
330
9
100
AcDbSymbolTableRecord
100
AcDbRegAppTableRecord
  2
ACAD
 70
     0
  0
ENDTAB
  0
TABLE
  2
DIMSTYLE
  5
A
330
0
100
AcDbSymbolTable
 70
     1
100
AcDbDimStyleTable
 71
     1
340
1B4
  0
DIMSTYLE
105
1B4
102
{ACAD_REACTORS
330
195
330
186
330
1A6
330
1A5
330
1A4
330
2ED
102
}
330
A
100
AcDbSymbolTableRecord
100
AcDbDimStyleTableRecord
  2
Standard
 70
     0
340
11
  0
ENDTAB
  0
TABLE
  2
BLOCK_RECORD
  5
1
330
0
100
AcDbSymbolTable
 70
     9
  0
BLOCK_RECORD
  5
20
330
1
100
AcDbSymbolTableRecord
100
AcDbBlockTableRecord
  2
*Model_Space
340
23
  0
BLOCK_RECORD
  5
1C
330
1
100
AcDbSymbolTableRecord
100
AcDbBlockTableRecord
  2
*Paper_Space
340
1F
  0
BLOCK_RECORD
  5
24
330
1
100
AcDbSymbolTableRecord
100
AcDbBlockTableRecord
  2
LOGO
340
0
102
{BLKREFS
331
173
102
}
  0
BLOCK_RECORD
  5
292
330
1
100
AcDbSymbolTableRecord
100
AcDbBlockTableRecord
  2
*D2
340
0
  0
BLOCK_RECORD
  5
2AA
330
1
100
AcDbSymbolTableRecord
100
AcDbBlockTableRecord
  2
*D3
340
0
  0
BLOCK_RECORD
  5
2B6
330
1
100
AcDbSymbolTableRecord
100
AcDbBlockTableRecord
  2
*D4
340
0
  0
BLOCK_RECORD
  5
2BE
330
1
100
AcDbSymbolTableRecord
100
AcDbBlockTableRecord
  2
*D5
340
0
  0
BLOCK_RECORD
  5
2CB
330
1
100
AcDbSymbolTableRecord
100
AcDbBlockTableRecord
  2
*D6
340
0
  0
BLOCK_RECORD
  5
2EE
330
1
100
AcDbSymbolTableRecord
100
AcDbBlockTableRecord
  2
*D8
340
0
  0
ENDTAB
  0
ENDSEC
  0
SECTION
  2
BLOCKS
  0
BLOCK
  5
4C
330
20
100
AcDbEntity
  8
0
100
AcDbBlockBegin
  2
*Model_Space
 70
     0
 10
0.0
 20
0.0
 30
0.0
  3
*Model_Space
  1

  0
ENDBLK
  5
4D
330
20
100
AcDbEntity
  8
0
100
AcDbBlockEnd
  0
BLOCK
  5
4A
330
1C
100
AcDbEntity
 67
     1
  8
0
100
AcDbBlockBegin
  2
*Paper_Space
 70
     0
 10
0.0
 20
0.0
 30
0.0
  3
*Paper_Space
  1

  0
ENDBLK
  5
4B
330
1C
100
AcDbEntity
 67
     1
  8
0
100
AcDbBlockEnd
  0
BLOCK
  5
4E
330
24
100
AcDbEntity
  8
0
100
AcDbBlockBegin
  2
LOGO
 70
     0
 10
0.0
 20
0.0
 30
0.0
  3
LOGO
  1

  0
ARC
  5
4F
330
24
100
AcDbEntity
  8
0
100
AcDbCircle
 10
11.59973089678112
 20
-9.271599258481501
 30
0.0
 40
4.5
100
AcDbArc
 50
270.0
 51
231.0575587310159
  0
LINE
  5
50
330
24
100
AcDbEntity
  8
0
100
AcDbLine
 10
3.599730896781125
 20
-4.771599258481529
 30
0.0
 11
3.599730896781153
 21
-11.77159925848133
 31
0.0
  0
LINE
  5
51
330
24
100
AcDbEntity
  8
0
100
AcDbLine
 10
2.599730896781125
 20
-4.771599258481529
 30
0.0
 11
2.599730896781153
 21
-11.77159925848133
 31
0.0
  0
CIRCLE
  5
52
330
24
100
AcDbEntity
  8
0
100
AcDbCircle
 10
11.59973089678112
 20
-9.271599258481501
 30
0.0
 40
3.5
  0
ARC
  5
53
330
24
100
AcDbEntity
  8
0
100
AcDbCircle
 10
31.59973089678115
 20
-9.271599258481472
 30
0.0
 40
4.5
100
AcDbArc
 50
270.0
 51
231.0575587310182
  0
LINE
  5
54
330
24
100
AcDbEntity
  8
0
100
AcDbLine
 10
17.59973089678112
 20
-4.771599258481472
 30
0.0
 11
17.59973089678115
 21
-13.77159925848147
 31
0.0
  0
ARC
  5
55
330
24
100
AcDbEntity
  8
0
100
AcDbCircle
 10
22.59973089678116
 20
-7.271599258481472
 30
0.0
 40
2.5
100
AcDbArc
 50
293.1161887722295
 51
90.0
  0
CIRCLE
  5
56
330
24
100
AcDbEntity
  8
0
100
AcDbCircle
 10
31.59973089678115
 20
-9.271599258481472
 30
0.0
 40
3.5
  0
ARC
  5
57
330
24
100
AcDbEntity
  8
0
100
AcDbCircle
 10
4.599730896781153
 20
-11.77159925848133
 30
0.0
 40
1.0
100
AcDbArc
 50
180.0
 51
270.0
  0
ARC
  5
58
330
24
100
AcDbEntity
  8
0
100
AcDbCircle
 10
4.599730896781153
 20
-11.77159925848133
 30
0.0
 40
2.0
100
AcDbArc
 50
179.9999999999992
 51
270.0
  0
LINE
  5
59
330
24
100
AcDbEntity
  8
0
100
AcDbLine
 10
11.59973089678115
 20
-13.77159925848144
 30
0.0
 11
4.599730896781153
 21
-13.77159925848147
 31
0.0
  0
LINE
  5
5A
330
24
100
AcDbEntity
  8
0
100
AcDbLine
 10
8.771303772034769
 20
-12.77159925848136
 30
0.0
 11
4.599730896781153
 21
-12.77159925848133
 31
0.0
  0
LINE
  5
5B
330
24
100
AcDbEntity
  8
0
100
AcDbLine
 10
31.59973089678115
 20
-13.77159925848147
 30
0.0
 11
23.6715276665056
 21
-13.77159925848144
 31
0.0
  0
LINE
  5
5C
330
24
100
AcDbEntity
  8
0
100
AcDbLine
 10
23.56565672307022
 20
-9.51278021337896
 30
0.0
 11
24.4388546544846
 21
-12.77159925848144
 31
0.0
  0
LINE
  5
5D
330
24
100
AcDbEntity
  8
0
100
AcDbLine
 10
22.59973089678116
 20
-9.771599258481472
 30
0.0
 11
18.59973089678112
 21
-9.771599258481472
 31
0.0
  0
LINE
  5
5E
330
24
100
AcDbEntity
  8
0
100
AcDbLine
 10
18.59973089678115
 20
-13.77159925848144
 30
0.0
 11
17.59973089678115
 21
-13.77159925848144
 31
0.0
  0
LINE
  5
5F
330
24
100
AcDbEntity
  8
0
100
AcDbLine
 10
18.59973089678115
 20
-9.771599258481472
 30
0.0
 11
18.59973089678115
 21
-13.77159925848144
 31
0.0
  0
LINE
  5
60
330
24
100
AcDbEntity
  8
0
100
AcDbLine
 10
22.59973089678116
 20
-9.771599258481472
 30
0.0
 11
23.67152766650562
 21
-13.77159925848147
 31
0.0
  0
ARC
  5
61
330
24
100
AcDbEntity
  8
0
100
AcDbCircle
 10
22.59973089678116
 20
-7.271599258481472
 30
0.0
 40
2.5
100
AcDbArc
 50
270.0
 51
270.0000000000007
  0
LINE
  5
62
330
24
100
AcDbEntity
  8
0
100
AcDbLine
 10
28.77130377203494
 20
-12.77159925848147
 30
0.0
 11
24.43885465448463
 21
-12.77159925848144
 31
0.0
  0
LINE
  5
63
330
24
100
AcDbEntity
  8
0
100
AcDbLine
 10
3.599730896781125
 20
-4.771599258481472
 30
0.0
 11
2.599730896781125
 21
-4.771599258481472
 31
0.0
  0
LINE
  5
64
330
24
100
AcDbEntity
  8
0
100
AcDbLine
 10
22.59973089678116
 20
-8.771599258481472
 30
0.0
 11
18.59973089678115
 21
-8.771599258481472
 31
0.0
  0
LINE
  5
65
330
24
100
AcDbEntity
  8
0
100
AcDbLine
 10
22.59973089678116
 20
-5.771599258481472
 30
0.0
 11
18.59973089678115
 21
-5.771599258481472
 31
0.0
  0
LINE
  5
66
330
24
100
AcDbEntity
  8
0
100
AcDbLine
 10
22.59973089678116
 20
-4.771599258481472
 30
0.0
 11
17.59973089678115
 21
-4.771599258481472
 31
0.0
  0
LINE
  5
67
330
24
100
AcDbEntity
  8
0
100
AcDbLine
 10
18.59973089678115
 20
-5.771599258481472
 30
0.0
 11
18.59973089678115
 21
-8.771599258481472
 31
0.0
  0
ARC
  5
68
330
24
100
AcDbEntity
  8
0
100
AcDbCircle
 10
22.59973089678116
 20
-7.271599258481472
 30
0.0
 40
1.5
100
AcDbArc
 50
270.0
 51
90.0
  0
ENDBLK
  5
69
330
24
100
AcDbEntity
  8
0
100
AcDbBlockEnd
  0
BLOCK
  5
29C
330
292
100
AcDbEntity
  8
0
100
AcDbBlockBegin
  2
*D2
 70
     1
 10
0.0
 20
0.0
 30
0.0
  3
*D2
  1

  0
LINE
  5
293
330
292
100
AcDbEntity
  8
BEM
 62
     0
370
    -2
100
AcDbLine
 10
187.9999999999999
 20
310.2986949412107
 30
0.0
 11
187.9999999999999
 21
198.041675569434
 31
0.0
  0
LINE
  5
294
330
292
100
AcDbEntity
  8
BEM
 62
     0
370
    -2
100
AcDbLine
 10
262.0
 20
310.2986949412107
 30
0.0
 11
262.0
 21
198.041675569434
 31
0.0
  0
LINE
  5
295
330
292
100
AcDbEntity
  8
BEM
 62
     0
370
    -2
100
AcDbLine
 10
194.9999999999999
 20
200.041675569434
 30
0.0
 11
254.9999999999999
 21
200.041675569434
 31
0.0
  0
SOLID
  5
296
330
292
100
AcDbEntity
  8
BEM
 62
     0
100
AcDbTrace
 10
194.9999999999999
 20
201.2083422361007
 30
0.0
 11
194.9999999999999
 21
198.8750089027673
 31
0.0
 12
187.9999999999999
 22
200.041675569434
 32
0.0
 13
187.9999999999999
 23
200.041675569434
 33
0.0
  0
SOLID
  5
297
330
292
100
AcDbEntity
  8
BEM
 62
     0
100
AcDbTrace
 10
254.9999999999999
 20
201.2083422361007
 30
0.0
 11
254.9999999999999
 21
198.8750089027673
 31
0.0
 12
262.0
 22
200.041675569434
 32
0.0
 13
262.0
 23
200.041675569434
 33
0.0
  0
MTEXT
  5
298
330
292
100
AcDbEntity
  8
BEM
 62
     1
100
AcDbMText
 10
225.0
 20
206.541675569434
 30
0.0
 40
7.0
 41
0.0
 71
     5
 72
     1
  1
\A1;74
 73
     1
 44
1.0
  0
POINT
  5
299
330
292
100
AcDbEntity
  8
DEFPOINTS
 62
     0
100
AcDbPoint
 10
187.9999999999999
 20
312.2986949412107
 30
0.0
  0
POINT
  5
29A
330
292
100
AcDbEntity
  8
DEFPOINTS
 62
     0
100
AcDbPoint
 10
262.0
 20
312.2986949412107
 30
0.0
  0
POINT
  5
29B
330
292
100
AcDbEntity
  8
DEFPOINTS
 62
     0
100
AcDbPoint
 10
262.0
 20
200.041675569434
 30
0.0
  0
ENDBLK
  5
29D
330
292
100
AcDbEntity
  8
0
100
AcDbBlockEnd
  0
BLOCK
  5
2B4
330
2AA
100
AcDbEntity
  8
0
100
AcDbBlockBegin
  2
*D3
 70
     1
 10
0.0
 20
0.0
 30
0.0
  3
*D3
  1

  0
LINE
  5
2AB
330
2AA
100
AcDbEntity
  8
BEM
 62
     0
370
    -2
100
AcDbLine
 10
134.9999999999999
 20
310.2986949412107
 30
0.0
 11
134.9999999999999
 21
180.7220211520741
 31
0.0
  0
LINE
  5
2AC
330
2AA
100
AcDbEntity
  8
BEM
 62
     0
370
    -2
100
AcDbLine
 10
314.9999999999999
 20
310.2986949412107
 30
0.0
 11
314.9999999999999
 21
180.7220211520741
 31
0.0
  0
LINE
  5
2AD
330
2AA
100
AcDbEntity
  8
BEM
 62
     0
370
    -2
100
AcDbLine
 10
141.9999999999999
 20
182.7220211520741
 30
0.0
 11
308.0
 21
182.7220211520741
 31
0.0
  0
SOLID
  5
2AE
330
2AA
100
AcDbEntity
  8
BEM
 62
     0
100
AcDbTrace
 10
141.9999999999999
 20
183.8886878187408
 30
0.0
 11
141.9999999999999
 21
181.5553544854075
 31
0.0
 12
134.9999999999999
 22
182.7220211520741
 32
0.0
 13
134.9999999999999
 23
182.7220211520741
 33
0.0
  0
SOLID
  5
2AF
330
2AA
100
AcDbEntity
  8
BEM
 62
     0
100
AcDbTrace
 10
308.0
 20
183.8886878187408
 30
0.0
 11
308.0
 21
181.5553544854075
 31
0.0
 12
314.9999999999999
 22
182.7220211520741
 32
0.0
 13
314.9999999999999
 23
182.7220211520741
 33
0.0
  0
MTEXT
  5
2B0
330
2AA
100
AcDbEntity
  8
BEM
 62
     1
100
AcDbMText
 10
225.0
 20
189.2220211520741
 30
0.0
 40
7.0
 41
0.0
 71
     5
 72
     1
  1
\A1;180
 73
     1
 44
1.0
  0
POINT
  5
2B1
330
2AA
100
AcDbEntity
  8
DEFPOINTS
 62
     0
100
AcDbPoint
 10
134.9999999999999
 20
312.2986949412107
 30
0.0
  0
POINT
  5
2B2
330
2AA
100
AcDbEntity
  8
DEFPOINTS
 62
     0
100
AcDbPoint
 10
314.9999999999999
 20
312.2986949412107
 30
0.0
  0
POINT
  5
2B3
330
2AA
100
AcDbEntity
  8
DEFPOINTS
 62
     0
100
AcDbPoint
 10
314.9999999999999
 20
182.7220211520741
 30
0.0
  0
ENDBLK
  5
2B5
330
2AA
100
AcDbEntity
  8
0
100
AcDbBlockEnd
  0
BLOCK
  5
2BC
330
2B6
100
AcDbEntity
  8
0
100
AcDbBlockBegin
  2
*D4
 70
     1
 10
0.0
 20
0.0
 30
0.0
  3
*D4
  1

  0
LINE
  5
2B7
330
2B6
100
AcDbEntity
  8
BEM
 62
     0
370
    -2
100
AcDbLine
 10
300.1066155493435
 20
520.7213907471267
 30
0.0
 11
309.1395248171535
 21
500.2963001001481
 31
0.0
  0
MTEXT
  5
2B8
330
2B6
100
AcDbEntity
  8
BEM
 62
     1
100
AcDbMText
 10
309.1520809340557
 20
516.3387735208847
 30
0.0
 40
7.0
 41
0.0
 71
     5
 72
     1
  1
\A1;R3
 11
0.4044586239317933
 21
-0.9145562976259038
 31
0.0
 73
     1
 44
1.0
  0
SOLID
  5
2B9
330
2B6
100
AcDbEntity
  8
BEM
 62
     0
100
AcDbTrace
 10
310.2065071643838
 20
500.7681684947352
 30
0.0
 11
308.0725424699233
 21
499.824431705561
 31
0.0
 12
311.9707351846761
 22
493.8944060167669
 32
0.0
 13
311.9707351846761
 23
493.8944060167669
 33
0.0
  0
POINT
  5
2BA
330
2B6
100
AcDbEntity
  8
DEFPOINTS
 62
     0
100
AcDbPoint
 10
311.9707351846761
 20
493.8944060167669
 30
0.0
  0
POINT
  5
2BB
330
2B6
100
AcDbEntity
  8
DEFPOINTS
 62
     0
100
AcDbPoint
 10
310.7573593128808
 20
496.6380749096445
 30
0.0
  0
ENDBLK
  5
2BD
330
2B6
100
AcDbEntity
  8
0
100
AcDbBlockEnd
  0
BLOCK
  5
2C9
330
2BE
100
AcDbEntity
  8
0
100
AcDbBlockBegin
  2
*D5
 70
     1
 10
0.0
 20
0.0
 30
0.0
  3
*D5
  1

  0
LINE
  5
2BF
330
2BE
100
AcDbEntity
  8
BEM
 62
     0
370
    -2
100
AcDbLine
 10
278.5636011722802
 20
493.6380749096445
 30
0.0
 11
278.8002164164532
 21
493.6380749096445
 31
0.0
  0
LINE
  5
2C0
330
2BE
100
AcDbEntity
  8
BEM
 62
     0
370
    -2
100
AcDbLine
 10
276.8002164164532
 20
486.6380749096444
 30
0.0
 11
276.8002164164532
 21
479.6380749096445
 31
0.0
  0
LINE
  5
2C1
330
2BE
100
AcDbEntity
  8
BEM
 62
     0
370
    -2
100
AcDbLine
 10
276.8002164164532
 20
501.6380749096445
 30
0.0
 11
276.8002164164532
 21
515.9714082429777
 31
0.0
  0
LINE
  5
2C2
330
2BE
100
AcDbEntity
  8
BEM
 62
     0
370
    -2
100
AcDbLine
 10
276.8002164164532
 20
493.6380749096445
 30
0.0
 11
276.8002164164532
 21
494.6380749096444
 31
0.0
  0
SOLID
  5
2C3
330
2BE
100
AcDbEntity
  8
BEM
 62
     0
100
AcDbTrace
 10
275.6335497497865
 20
486.6380749096444
 30
0.0
 11
277.9668830831198
 21
486.6380749096444
 31
0.0
 12
276.8002164164532
 22
493.6380749096445
 32
0.0
 13
276.8002164164532
 23
493.6380749096445
 33
0.0
  0
SOLID
  5
2C4
330
2BE
100
AcDbEntity
  8
BEM
 62
     0
100
AcDbTrace
 10
275.6335497497865
 20
501.6380749096445
 30
0.0
 11
277.9668830831198
 21
501.6380749096445
 31
0.0
 12
276.8002164164532
 22
494.6380749096444
 32
0.0
 13
276.8002164164532
 23
494.6380749096444
 33
0.0
  0
MTEXT
  5
2C5
330
2BE
100
AcDbEntity
  8
BEM
 62
     1
100
AcDbMText
 10
270.3002164164531
 20
512.3047415763112
 30
0.0
 40
7.0
 41
0.0
 71
     5
 72
     1
  1
\A1;1
 11
0.0000000000000001
 21
1.0
 31
0.0
 73
     1
 44
1.0
  0
POINT
  5
2C6
330
2BE
100
AcDbEntity
  8
DEFPOINTS
 62
     0
100
AcDbPoint
 10
276.5636011722802
 20
493.6380749096445
 30
0.0
  0
POINT
  5
2C7
330
2BE
100
AcDbEntity
  8
DEFPOINTS
 62
     0
100
AcDbPoint
 10
276.8002164164532
 20
494.6380749096444
 30
0.0
  0
POINT
  5
2C8
330
2BE
100
AcDbEntity
  8
DEFPOINTS
 62
     0
100
AcDbPoint
 10
276.8002164164532
 20
494.6380749096444
 30
0.0
  0
ENDBLK
  5
2CA
330
2BE
100
AcDbEntity
  8
0
100
AcDbBlockEnd
  0
BLOCK
  5
2D7
330
2CB
100
AcDbEntity
  8
0
100
AcDbBlockBegin
  2
*D6
 70
     1
 10
0.0
 20
0.0
 30
0.0
  3
*D6
  1

  0
LINE
  5
2CC
330
2CB
100
AcDbEntity
  8
BEM
 62
     0
370
    -2
100
AcDbLine
 10
312.7573593128807
 20
493.6380749096445
 30
0.0
 11
376.0408906469566
 21
493.6380749096445
 31
0.0
  0
LINE
  5
2CD
330
2CB
100
AcDbEntity
  8
BEM
 62
     0
370
    -2
100
AcDbLine
 10
316.9999999999999
 20
496.6380749096445
 30
0.0
 11
376.0408906469566
 21
496.6380749096445
 31
0.0
  0
LINE
  5
2CE
330
2CB
100
AcDbEntity
  8
BEM
 62
     0
370
    -2
100
AcDbLine
 10
374.0408906469566
 20
486.6380749096444
 30
0.0
 11
374.0408906469566
 21
479.6380749096445
 31
0.0
  0
LINE
  5
2CF
330
2CB
100
AcDbEntity
  8
BEM
 62
     0
370
    -2
100
AcDbLine
 10
374.0408906469566
 20
503.6380749096444
 30
0.0
 11
374.0408906469566
 21
520.3714082429777
 31
0.0
  0
LINE
  5
2D0
330
2CB
100
AcDbEntity
  8
BEM
 62
     0
370
    -2
100
AcDbLine
 10
374.0408906469566
 20
493.6380749096445
 30
0.0
 11
374.0408906469566
 21
496.6380749096445
 31
0.0
  0
SOLID
  5
2D1
330
2CB
100
AcDbEntity
  8
BEM
 62
     0
100
AcDbTrace
 10
372.8742239802898
 20
486.6380749096444
 30
0.0
 11
375.2075573136232
 21
486.6380749096444
 31
0.0
 12
374.0408906469566
 22
493.6380749096445
 32
0.0
 13
374.0408906469566
 23
493.6380749096445
 33
0.0
  0
SOLID
  5
2D2
330
2CB
100
AcDbEntity
  8
BEM
 62
     0
100
AcDbTrace
 10
372.8742239802898
 20
503.6380749096444
 30
0.0
 11
375.2075573136232
 21
503.6380749096444
 31
0.0
 12
374.0408906469566
 22
496.6380749096445
 32
0.0
 13
374.0408906469566
 23
496.6380749096445
 33
0.0
  0
MTEXT
  5
2D3
330
2CB
100
AcDbEntity
  8
BEM
 62
     1
100
AcDbMText
 10
367.5408906469565
 20
515.5047415763111
 30
0.0
 40
7.0
 41
0.0
 71
     5
 72
     1
  1
\A1;3
 11
0.0000000000000001
 21
1.0
 31
0.0
 73
     1
 44
1.0
  0
POINT
  5
2D4
330
2CB
100
AcDbEntity
  8
DEFPOINTS
 62
     0
100
AcDbPoint
 10
310.7573593128807
 20
493.6380749096445
 30
0.0
  0
POINT
  5
2D5
330
2CB
100
AcDbEntity
  8
DEFPOINTS
 62
     0
100
AcDbPoint
 10
314.9999999999999
 20
496.6380749096445
 30
0.0
  0
POINT
  5
2D6
330
2CB
100
AcDbEntity
  8
DEFPOINTS
 62
     0
100
AcDbPoint
 10
374.0408906469566
 20
496.6380749096445
 30
0.0
  0
ENDBLK
  5
2D8
330
2CB
100
AcDbEntity
  8
0
100
AcDbBlockEnd
  0
BLOCK
  5
2FC
330
2EE
100
AcDbEntity
  8
0
100
AcDbBlockBegin
  2
*D8
 70
     1
 10
0.0
 20
0.0
 30
0.0
  3
*D8
  1

  0
LINE
  5
2FF
330
2EE
100
AcDbEntity
  8
BEM
 62
     0
370
    -2
100
AcDbLine
 10
313.9999999999999
 20
493.6380749096444
 30
0.0
 11
350.551409146584
 21
493.6380749096443
 31
0.0
  0
LINE
  5
300
330
2EE
100
AcDbEntity
  8
BEM
 62
     0
370
    -2
100
AcDbLine
 10
316.414213562373
 20
498.0522884720175
 30
0.0
 11
339.2599628318466
 21
520.8980377414912
 31
0.0
  0
ARC
  5
301
330
2EE
100
AcDbEntity
  8
BEM
 62
     0
370
    -2
100
AcDbCircle
 10
311.9999999999999
 20
493.6380749096444
 30
0.0
 40
36.55140914658413
100
AcDbArc
 50
338.0207702205684
 51
349.0103851102842
  0
ARC
  5
302
330
2EE
100
AcDbEntity
  8
BEM
 62
     0
370
    -2
100
AcDbCircle
 10
311.9999999999999
 20
493.6380749096444
 30
0.0
 40
36.55140914658413
100
AcDbArc
 50
55.9896148897158
 51
66.97922977943157
  0
ARC
  5
303
330
2EE
100
AcDbEntity
  8
BEM
 62
     0
370
    -2
100
AcDbCircle
 10
311.9999999999999
 20
493.6380749096444
 30
0.0
 40
36.55140914658413
100
AcDbArc
 50
0.0
 51
45.0
  0
SOLID
  5
304
330
2EE
100
AcDbEntity
  8
BEM
 62
     0
100
AcDbTrace
 10
346.7198146574481
 20
486.7819555452752
 30
0.0
 11
349.042426045305
 21
486.5585259468726
 31
0.0
 12
348.551409146584
 22
493.6380749096444
 32
0.0
 13
348.551409146584
 23
493.6380749096444
 33
0.0
  0
SOLID
  5
305
330
2EE
100
AcDbEntity
  8
BEM
 62
     0
100
AcDbTrace
 10
333.1869535689182
 20
524.8370226371988
 30
0.0
 11
331.7026078906518
 21
523.0366997906359
 31
0.0
 12
337.8457492694736
 22
519.483824179118
 32
0.0
 13
337.8457492694736
 23
519.483824179118
 33
0.0
  0
MTEXT
  5
306
330
2EE
100
AcDbEntity
  8
BEM
 62
     1
100
AcDbMText
 10
351.7743157562982
 20
510.113135930013
 30
0.0
 40
7.0
 41
0.0
 71
     5
 72
     1
  1
\A1;45°
 11
0.3826834323650898
 21
-0.9238795325112867
 31
0.0
 73
     1
 44
1.0
  0
POINT
  5
307
330
2EE
100
AcDbEntity
  8
DEFPOINTS
 62
     0
100
AcDbPoint
 10
347.305950081944
 20
503.0982757221148
 30
0.0
  0
POINT
  5
308
330
2EE
100
AcDbEntity
  8
DEFPOINTS
 62
     0
100
AcDbPoint
 10
139.2426406871191
 20
493.6380749096444
 30
0.0
  0
POINT
  5
309
330
2EE
100
AcDbEntity
  8
DEFPOINTS
 62
     0
100
AcDbPoint
 10
314.9999999999999
 20
496.6380749096443
 30
0.0
  0
POINT
  5
30A
330
2EE
100
AcDbEntity
  8
DEFPOINTS
 62
     0
100
AcDbPoint
 10
312.8786796564404
 20
494.5167545660848
 30
0.0
  0
POINT
  5
30B
330
2EE
100
AcDbEntity
  8
DEFPOINTS
 62
     0
100
AcDbPoint
 10
310.7573593128807
 20
493.6380749096444
 30
0.0
  0
ENDBLK
  5
2FD
330
2EE
100
AcDbEntity
  8
0
100
AcDbBlockEnd
  0
ENDSEC
  0
SECTION
  2
ENTITIES
  0
TEXT
  5
132
330
20
100
AcDbEntity
  8
TEXT
 62
     1
100
AcDbText
 10
345.0051747970853
 20
88.14901428913959
 30
0.0
 40
7.0
  1
16800070W
 41
0.8
  7
GREEKS
 72
     1
 11
368.471841463752
 21
88.14901428913959
 31
0.0
100
AcDbText
  0
LINE
  5
133
330
20
100
AcDbEntity
  8
VOLL
100
AcDbLine
 10
332.0
 20
60.0
 30
0.0
 11
410.0
 21
60.0
 31
0.0
  0
LINE
  5
134
330
20
100
AcDbEntity
  8
HILF
100
AcDbLine
 10
336.7238616296993
 20
83.77983636955827
 30
0.0
 11
404.8588839326728
 21
83.77983636955827
 31
0.0
  0
LINE
  5
135
330
20
100
AcDbEntity
  8
HILF
100
AcDbLine
 10
223.4909699289885
 20
14.89398258028314
 30
0.0
 11
404.8588839326728
 21
14.89398258028314
 31
0.0
  0
TEXT
  5
136
330
20
100
AcDbEntity
  8
TEXT
100
AcDbText
 10
336.178754957634
 20
102.3132034537136
 30
0.0
 40
5.0
  1
Zeichnungs Nr.
 41
0.8
  7
GREEKS
100
AcDbText
  0
TEXT
  5
137
330
20
100
AcDbEntity
  8
TEXT
100
AcDbText
 10
337.2400861497006
 20
52.07416177878602
 30
0.0
 40
5.0
  1
ersetzt durch:
 41
0.8
  7
GREEKS
100
AcDbText
  0
LINE
  5
138
330
20
100
AcDbEntity
  8
STEMPEL
100
AcDbLine
 10
410.0
 20
40.0
 30
0.0
 11
136.0000000000001
 21
39.99999999999997
 31
0.0
  0
LINE
  5
139
330
20
100
AcDbEntity
  8
STEMPEL
100
AcDbLine
 10
410.0
 20
80.0
 30
0.0
 11
136.0000000000001
 21
79.99999999999994
 31
0.0
  0
LINE
  5
13A
330
20
100
AcDbEntity
  8
STEMPEL
100
AcDbLine
 10
410.0
 20
110.0
 30
0.0
 11
39.99999999999997
 21
110.0
 31
0.0
  0
LINE
  5
13B
330
20
100
AcDbEntity
  8
STEMPEL
100
AcDbLine
 10
49.99999999999989
 20
10.0
 30
0.0
 11
410.0
 21
10.0
 31
0.0
  0
LINE
  5
13C
330
20
100
AcDbEntity
  8
STEMPEL
100
AcDbLine
 10
410.0
 20
10.0
 30
0.0
 11
39.99999999999989
 21
10.0
 31
0.0
  0
LINE
  5
13D
330
20
100
AcDbEntity
  8
STEMPEL
100
AcDbLine
 10
410.0
 20
584.0
 30
0.0
 11
39.99999999999989
 21
584.0
 31
0.0
  0
LINE
  5
13E
330
20
100
AcDbEntity
  8
HILF
100
AcDbLine
 10
419.9999999999999
 20
594.0000000000002
 30
0.0
 11
0.0
 21
594.0
 31
0.0
  0
LINE
  5
13F
330
20
100
AcDbEntity
  8
HILF
100
AcDbLine
 10
420.0
 20
0.0
 30
0.0
 11
0.0
 21
0.0
 31
0.0
  0
LINE
  5
140
330
20
100
AcDbEntity
  8
STEMPEL
100
AcDbLine
 10
40.0
 20
10.0
 30
0.0
 11
39.99999999999989
 21
584.0
 31
0.0
  0
LINE
  5
141
330
20
100
AcDbEntity
  8
HILF
100
AcDbLine
 10
0.0
 20
0.0
 30
0.0
 11
-0.0000000000001137
 21
594.0
 31
0.0
  0
TEXT
  5
147
330
20
100
AcDbEntity
  8
TEXT
100
AcDbText
 10
138.622109822104
 20
73.14025471151666
 30
0.0
 40
4.0
  1
2011
 41
0.8
  7
GREEKS
100
AcDbText
  0
TEXT
  5
148
330
20
100
AcDbEntity
  8
TEXT
100
AcDbText
 10
137.5836127167615
 20
63.62990369617964
 30
0.0
 40
4.0
  1
Gez.
 41
0.8
  7
GREEKS
100
AcDbText
  0
TEXT
  5
149
330
20
100
AcDbEntity
  8
TEXT
100
AcDbText
 10
137.6006777387304
 20
43.52946389649807
 30
0.0
 40
4.0
  1
Norm.
 41
0.8
  7
GREEKS
100
AcDbText
  0
TEXT
  5
14A
330
20
100
AcDbEntity
  8
TEXT
100
AcDbText
 10
137.5515086571672
 20
53.68926291428377
 30
0.0
 40
4.0
  1
Gepr.
 41
0.8
  7
GREEKS
100
AcDbText
  0
LINE
  5
14B
330
20
100
AcDbEntity
  8
HILF
100
AcDbLine
 10
136.0000000000001
 20
69.99999999999994
 30
0.0
 11
220.0
 21
69.99999999999994
 31
0.0
  0
LINE
  5
14C
330
20
100
AcDbEntity
  8
HILF
100
AcDbLine
 10
136.0000000000001
 20
59.99999999999997
 30
0.0
 11
220.0
 21
59.99999999999997
 31
0.0
  0
LINE
  5
14D
330
20
100
AcDbEntity
  8
HILF
100
AcDbLine
 10
136.0000000000001
 20
49.99999999999997
 30
0.0
 11
220.0
 21
49.99999999999997
 31
0.0
  0
LINE
  5
14E
330
20
100
AcDbEntity
  8
STEMPEL
100
AcDbLine
 10
136.0000000000001
 20
109.9999999999999
 30
0.0
 11
136.0
 21
9.999999999999971
 31
0.0
  0
LINE
  5
14F
330
20
100
AcDbEntity
  8
VOLL
100
AcDbLine
 10
114.0000000000001
 20
109.9999999999999
 30
0.0
 11
114.0
 21
9.999999999999971
 31
0.0
  0
LINE
  5
150
330
20
100
AcDbEntity
  8
VOLL
100
AcDbLine
 10
94.00000000000011
 20
109.9999999999999
 30
0.0
 11
94.0
 21
9.999999999999971
 31
0.0
  0
TEXT
  5
151
330
20
100
AcDbEntity
  8
TEXT
100
AcDbText
 10
99.92939419809751
 20
18.6715626933981
 30
0.0
 40
4.0
  1
Tag
 41
0.8
  7
GREEKS
 72
     1
 11
103.6627275314308
 21
18.6715626933981
 31
0.0
100
AcDbText
  0
TEXT
  5
152
330
20
100
AcDbEntity
  8
TEXT
100
AcDbText
 10
48.26641107045756
 20
13.65465846027192
 30
0.0
 40
4.0
  1
Index
 50
90.0
 41
0.8
  7
GREEKS
100
AcDbText
  0
LINE
  5
153
330
20
100
AcDbEntity
  8
VOLL
100
AcDbLine
 10
54.00000000000009
 20
110.0
 30
0.0
 11
53.99999999999997
 21
9.999999999999971
 31
0.0
  0
TEXT
  5
154
330
20
100
AcDbEntity
  8
TEXT
100
AcDbText
 10
62.15520289281311
 20
18.67381894984132
 30
0.0
 40
4.0
  1
Änderung
 41
0.8
  7
GREEKS
 72
     1
 11
72.89806003567026
 21
18.67381894984132
 31
0.0
100
AcDbText
  0
LINE
  5
155
330
20
100
AcDbEntity
  8
STEMPEL
100
AcDbLine
 10
135.9999999999999
 20
29.99999999999997
 30
0.0
 11
39.99999999999997
 21
29.99999999999997
 31
0.0
  0
LINE
  5
156
330
20
100
AcDbEntity
  8
HILF
100
AcDbLine
 10
40.00000000000008
 20
100.0
 30
0.0
 11
136.0000000000001
 21
100.0
 31
0.0
  0
LINE
  5
157
330
20
100
AcDbEntity
  8
HILF
100
AcDbLine
 10
40.00000000000008
 20
90.00000000000005
 30
0.0
 11
136.0000000000001
 21
90.00000000000005
 31
0.0
  0
LINE
  5
158
330
20
100
AcDbEntity
  8
HILF
100
AcDbLine
 10
40.00000000000008
 20
79.99999999999994
 30
0.0
 11
136.0000000000001
 21
79.99999999999994
 31
0.0
  0
LINE
  5
159
330
20
100
AcDbEntity
  8
HILF
100
AcDbLine
 10
40.00000000000008
 20
69.99999999999994
 30
0.0
 11
136.0000000000001
 21
69.99999999999994
 31
0.0
  0
LINE
  5
15A
330
20
100
AcDbEntity
  8
HILF
100
AcDbLine
 10
40.00000000000008
 20
59.99999999999997
 30
0.0
 11
136.0000000000001
 21
59.99999999999997
 31
0.0
  0
LINE
  5
15B
330
20
100
AcDbEntity
  8
HILF
100
AcDbLine
 10
40.00000000000008
 20
49.99999999999997
 30
0.0
 11
136.0000000000001
 21
49.99999999999997
 31
0.0
  0
LINE
  5
15C
330
20
100
AcDbEntity
  8
HILF
100
AcDbLine
 10
40.00000000000008
 20
39.99999999999997
 30
0.0
 11
136.0000000000001
 21
39.99999999999997
 31
0.0
  0
TEXT
  5
15D
330
20
100
AcDbEntity
  8
TEXT
100
AcDbText
 10
119.195705131047
 20
18.59324216966408
 30
0.0
 40
4.0
  1
Name
 41
0.8
  7
GREEKS
 72
     1
 11
125.5195146548566
 21
18.59324216966408
 31
0.0
100
AcDbText
  0
LINE
  5
15E
330
20
100
AcDbEntity
  8
HILF
100
AcDbLine
 10
31.08767135713856
 20
297.0
 30
0.0
 11
0.0000000000001137
 21
297.0
 31
0.0
  0
TEXT
  5
163
330
20
100
AcDbEntity
  8
TEXT
100
AcDbText
 10
41.85509950977674
 20
111.6719999999999
 30
0.0
 40
5.0
  1
Erstellt mit AUTOCAD 2004
 41
0.8
  7
GREEKS
100
AcDbText
  0
TEXT
  5
169
330
20
100
AcDbEntity
  8
TEXT
100
AcDbText
 10
225.1296391125315
 20
62.11580706774856
 30
0.0
 40
5.0
  1
Auslaufseite
 41
0.8
  7
GREEKS
100
AcDbText
  0
TEXT
  5
16A
330
20
100
AcDbEntity
  8
TEXT
100
AcDbText
 10
224.742238391136
 20
30.84560570193057
 30
0.0
 40
5.0
  1
Bauvorhaben
 41
0.8
  7
GREEKS
100
AcDbText
  0
TEXT
  5
16B
330
20
100
AcDbEntity
  8
TEXT
100
AcDbText
 10
225.1296391125315
 20
71.50334417585288
 30
0.0
 40
5.0
  1
für Ablaufserien A+B, E+F, G+GF
 41
0.75
  7
GREEKS
100
AcDbText
  0
TEXT
  5
16C
330
20
100
AcDbEntity
  8
TEXT
 62
     1
100
AcDbText
 10
225.5170099555928
 20
87.41748789253779
 30
0.0
 40
7.0
  1
LORO-Abdeckrosette DN70
 41
0.7
  7
GREEKS
100
AcDbText
  0
TEXT
  5
16D
330
20
100
AcDbEntity
  8
TEXT
100
AcDbText
 10
225.1296391125315
 20
51.64011943042158
 30
0.0
 40
5.0
  1
EDV-Art.Nr. 16800.070X
 41
0.8
  7
GREEKS
100
AcDbText
  0
LINE
  5
16E
330
20
100
AcDbEntity
  8
HILF
100
AcDbLine
 10
224.7736801096948
 20
84.03758247564139
 30
0.0
 11
324.8353916556311
 21
84.03758247564139
 31
0.0
  0
LINE
  5
16F
330
20
100
AcDbEntity
  8
HILF
100
AcDbLine
 10
224.7736801096948
 20
69.99999999999994
 30
0.0
 11
324.835391655631
 21
69.99999999999994
 31
0.0
  0
LINE
  5
170
330
20
100
AcDbEntity
  8
HILF
100
AcDbLine
 10
224.7736801096948
 20
59.99999999999997
 30
0.0
 11
324.835391655631
 21
59.99999999999997
 31
0.0
  0
LINE
  5
171
330
20
100
AcDbEntity
  8
HILF
100
AcDbLine
 10
224.7736801096948
 20
49.99999999999997
 30
0.0
 11
324.835391655631
 21
49.99999999999997
 31
0.0
  0
LINE
  5
172
330
20
100
AcDbEntity
  8
STEMPEL
100
AcDbLine
 10
220.0
 20
110.0
 30
0.0
 11
220.0
 21
9.999999999999971
 31
0.0
  0
INSERT
  5
173
330
20
100
AcDbEntity
  8
STEMPEL
100
AcDbBlockReference
  2
LOGO
 10
140.9955485457794
 20
45.02105276448322
 30
0.0
 41
2.0
 42
2.0
 43
2.0
  0
TEXT
  5
174
330
20
100
AcDbEntity
  8
TEXT
100
AcDbText
 10
192.4626584226295
 20
73.30961091915225
 30
0.0
 40
4.0
  1
Name
 41
0.8
  7
GREEKS
100
AcDbText
  0
TEXT
  5
175
330
20
100
AcDbEntity
  8
TEXT
100
AcDbText
 10
194.4216048581257
 20
63.0896391972351
 30
0.0
 40
4.0
  1
Koeh
 41
0.8
  7
GREEKS
 72
     1
 11
199.6787477152685
 21
63.0896391972351
 31
0.0
100
AcDbText
  0
TEXT
  5
176
330
20
100
AcDbEntity
  8
TEXT
100
AcDbText
 10
181.0451798271316
 20
90.76363841023022
 30
0.0
 40
4.0
  1
DIN ISO 2768 m
 41
0.75
  7
GREEKS
 72
     1
 11
199.6166083985602
 21
90.76363841023022
 31
0.0
100
AcDbText
  0
TEXT
  5
177
330
20
100
AcDbEntity
  8
TEXT
100
AcDbText
 10
184.2858954734051
 20
102.4184168434819
 30
0.0
 40
5.0
  1
Zul. Abw.
 41
0.8
  7
GREEKS
100
AcDbText
  0
LINE
  5
178
330
20
100
AcDbEntity
  8
VOLL
100
AcDbLine
 10
180.0000000000001
 20
109.9999999999998
 30
0.0
 11
180.0
 21
39.99999999999997
 31
0.0
  0
TEXT
  5
179
330
20
100
AcDbEntity
  8
TEXT
100
AcDbText
 10
160.7037590129979
 20
63.10765040825732
 30
0.0
 40
4.0
  1
31.03.
 41
0.8
  7
GREEKS
 72
     1
 11
167.4085209177598
 21
63.10765040825732
 31
0.0
100
AcDbText
  0
LINE
  5
17A
330
20
100
AcDbEntity
  8
VOLL
100
AcDbLine
 10
154.0000000000001
 20
79.99999999999994
 30
0.0
 11
154.0000000000001
 21
39.99999999999997
 31
0.0
  0
TEXT
  5
17B
330
20
100
AcDbEntity
  8
TEXT
 62
     1
100
AcDbText
 10
150.5006306481887
 20
88.14901428913959
 30
0.0
 40
7.0
  1
1:2
 41
0.8
  7
GREEKS
100
AcDbText
  0
TEXT
  5
17C
330
20
100
AcDbEntity
  8
TEXT
100
AcDbText
 10
162.3311673153651
 20
73.31880501229926
 30
0.0
 40
4.0
  1
Tag
 41
0.8
  7
GREEKS
100
AcDbText
  0
TEXT
  5
17D
330
20
100
AcDbEntity
  8
TEXT
100
AcDbText
 10
143.5163572150377
 20
102.4620895087088
 30
0.0
 40
5.0
  1
Maßstab
 41
0.8
  7
GREEKS
100
AcDbText
  0
TEXT
  5
17E
330
20
100
AcDbEntity
  8
TEXT
100
AcDbText
 10
224.9837501577827
 20
42.62974153022632
 30
0.0
 40
4.0
  1
16800070W.DWG
 41
0.8
  7
GREEKS
100
AcDbText
  0
TEXT
  5
17F
330
20
100
AcDbEntity
  8
TEXT
100
AcDbText
 10
224.877940380901
 20
102.5489328011779
 30
0.0
 40
5.0
  1
Benennung
 41
0.8
  7
GREEKS
100
AcDbText
  0
LINE
  5
180
330
20
100
AcDbEntity
  8
STEMPEL
100
AcDbLine
 10
332.0
 20
109.9999999999997
 30
0.0
 11
332.0
 21
40.0
 31
0.0
  0
TEXT
  5
181
330
20
100
AcDbEntity
  8
TEXT
100
AcDbText
 10
336.7238616296993
 20
73.1811823709997
 30
0.0
 40
5.0
  1
Ersatz für:
 41
0.8
  7
GREEKS
100
AcDbText
  0
TEXT
  5
182
330
20
100
AcDbEntity
  8
TEXT
 62
     1
100
AcDbText
 10
228.9647302065891
 20
132.4103533557258
 30
0.0
 40
7.0
  1
Werkstoff: 1.4301
 41
0.8
  7
GREEKS
100
AcDbText
  0
DIMENSION
  5
186
330
20
100
AcDbEntity
  8
BEM
100
AcDbDimension
  2
*D3
 10
314.9999999999999
 20
182.7220211520741
 30
0.0
 11
225.0
 21
189.2220211520741
 31
0.0
 70
    32
 71
     5
 42
180.0
  3
Standard
100
AcDbAlignedDimension
 13
134.9999999999999
 23
312.2986949412107
 33
0.0
 14
314.9999999999999
 24
312.2986949412107
 34
0.0
100
AcDbRotatedDimension
1001
ACAD
1000
DSTYLE
1002
{
1070
    40
1040
2.0
1070
    41
1040
3.5
1070
    42
1040
1.0
1070
    43
1040
7.0
1070
    44
1040
1.0
1070
    73
1070
     0
1070
    74
1070
     0
1070
    77
1070
     1
1070
    78
1070
     8
1070
    79
1070
     2
1070
   140
1040
3.5
1070
   141
1040
1.5
1070
   146
1040
0.5
1070
   147
1040
1.5
1070
   172
1070
     1
1070
   178
1070
     1
1070
   179
1070
     2
1070
   271
1070
     2
1070
   272
1070
     2
1070
   284
1070
     8
1070
   285
1070
     8
1070
   286
1070
     8
1002
}
  0
LINE
  5
187
330
20
100
AcDbEntity
  8
MITTEL
100
AcDbLine
 10
129.9999999999999
 20
312.2986949412107
 30
0.0
 11
319.9999999999999
 21
312.2986949412107
 31
0.0
  0
ARC
  5
189
330
20
100
AcDbEntity
  8
STEMPEL
100
AcDbCircle
 10
225.0
 20
312.2986949412107
 30
0.0
 40
90.0
100
AcDbArc
 50
270.1591551477672
 51
89.84084485223279
  0
ARC
  5
18A
330
20
100
AcDbEntity
  8
STEMPEL
100
AcDbCircle
 10
225.0
 20
312.2986949412107
 30
0.0
 40
88.58578643762687
100
AcDbArc
 50
270.1616959612587
 51
89.83830403874126
  0
ARC
  5
18B
330
20
100
AcDbEntity
  8
HILF
100
AcDbCircle
 10
225.0
 20
312.2986949412107
 30
0.0
 40
86.52272617761099
100
AcDbArc
 50
270.1655514734941
 51
89.83444852650583
  0
LINE
  5
18C
330
20
100
AcDbEntity
  8
STEMPEL
100
AcDbLine
 10
134.9999999999999
 20
496.6380749096445
 30
0.0
 11
224.75
 21
496.6380749096445
 31
0.0
  0
LINE
  5
18D
102
{ACAD_REACTORS
330
319
102
}
330
20
100
AcDbEntity
  8
STEMPEL
100
AcDbLine
 10
224.7499999999999
 20
494.6380749096443
 30
0.0
 11
310.7573593128807
 21
494.6380749096444
 31
0.0
  0
LINE
  5
18E
102
{ACAD_REACTORS
330
30C
330
319
102
}
330
20
100
AcDbEntity
  8
STEMPEL
100
AcDbLine
 10
139.2426406871191
 20
493.6380749096445
 30
0.0
 11
310.7573593128807
 21
493.6380749096445
 31
0.0
  0
ARC
  5
190
330
20
100
AcDbEntity
  8
STEMPEL
100
AcDbCircle
 10
139.2426406871191
 20
496.6380749096441
 30
0.0
 40
3.0
100
AcDbArc
 50
225.0000000000002
 51
270.0000000000002
  0
LINE
  5
191
330
20
100
AcDbEntity
  8
STEMPEL
100
AcDbLine
 10
134.9999999999999
 20
496.638074909644
 30
0.0
 11
137.1213203435595
 21
494.5167545660845
 31
0.0
  0
LINE
  5
192
330
20
100
AcDbEntity
  8
MITTEL
100
AcDbLine
 10
225.0
 20
407.2986949412106
 30
0.0
 11
225.0
 21
217.2986949412107
 31
0.0
  0
DIMENSION
  5
195
330
20
100
AcDbEntity
  8
BEM
100
AcDbDimension
  2
*D2
 10
262.0
 20
200.041675569434
 30
0.0
 11
225.0
 21
206.541675569434
 31
0.0
 70
    32
 71
     5
 42
74.0
  3
Standard
100
AcDbAlignedDimension
 13
187.9999999999999
 23
312.2986949412107
 33
0.0
 14
262.0
 24
312.2986949412107
 34
0.0
100
AcDbRotatedDimension
1001
ACAD
1000
DSTYLE
1002
{
1070
    40
1040
2.0
1070
    41
1040
3.5
1070
    42
1040
1.0
1070
    43
1040
7.0
1070
    44
1040
1.0
1070
    73
1070
     0
1070
    74
1070
     0
1070
    77
1070
     1
1070
    78
1070
     8
1070
    79
1070
     2
1070
   140
1040
3.5
1070
   141
1040
1.5
1070
   146
1040
0.5
1070
   147
1040
1.5
1070
   172
1070
     1
1070
   178
1070
     1
1070
   179
1070
     2
1070
   271
1070
     2
1070
   272
1070
     2
1070
   284
1070
     8
1070
   285
1070
     8
1070
   286
1070
     8
1002
}
  0
LINE
  5
198
330
20
100
AcDbEntity
  8
MITTEL
100
AcDbLine
 10
217.9999999999999
 20
257.2986949412107
 30
0.0
 11
217.9999999999999
 21
240.2986949412106
 31
0.0
  0
ARC
  5
199
330
20
100
AcDbEntity
  8
STEMPEL
100
AcDbCircle
 10
217.9999999999999
 20
248.7986949412107
 30
0.0
 40
3.5
100
AcDbArc
 50
34.84990457904642
 51
325.1500954209536
  0
LINE
  5
19A
330
20
100
AcDbEntity
  8
MITTEL
100
AcDbLine
 10
225.0
 20
248.7986949412107
 30
0.0
 11
209.4999999999999
 21
248.7986949412107
 31
0.0
  0
LINE
  5
19B
330
20
100
AcDbEntity
  8
STEMPEL
100
AcDbLine
 10
225.2499999999999
 20
246.7986949412107
 30
0.0
 11
220.8722813232689
 21
246.7986949412107
 31
0.0
  0
LINE
  5
19C
330
20
100
AcDbEntity
  8
STEMPEL
100
AcDbLine
 10
225.25
 20
250.7986949412106
 30
0.0
 11
220.8722813232689
 21
250.7986949412106
 31
0.0
  0
LINE
  5
1A3
330
20
100
AcDbEntity
  8
MITTEL
100
AcDbLine
 10
225.0
 20
501.6380749096445
 30
0.0
 11
225.0
 21
488.6380749096445
 31
0.0
  0
DIMENSION
  5
1A4
330
20
100
AcDbEntity
  8
BEM
100
AcDbDimension
  2
*D6
 10
374.0408906469566
 20
496.6380749096445
 30
0.0
 11
367.5408906469565
 21
515.5047415763111
 31
0.0
 70
    32
 71
     5
 42
3.0
  3
Standard
100
AcDbAlignedDimension
 13
310.7573593128807
 23
493.6380749096445
 33
0.0
 14
314.9999999999999
 24
496.6380749096445
 34
0.0
 50
90.0
100
AcDbRotatedDimension
1001
ACAD
1000
DSTYLE
1002
{
1070
    40
1040
2.0
1070
    41
1040
3.5
1070
    42
1040
1.0
1070
    43
1040
7.0
1070
    44
1040
1.0
1070
    73
1070
     0
1070
    74
1070
     0
1070
    77
1070
     1
1070
    78
1070
     8
1070
    79
1070
     2
1070
   140
1040
3.5
1070
   141
1040
1.5
1070
   146
1040
0.5
1070
   147
1040
1.5
1070
   172
1070
     1
1070
   178
1070
     1
1070
   179
1070
     2
1070
   271
1070
     2
1070
   272
1070
     2
1070
   284
1070
     8
1070
   285
1070
     8
1070
   286
1070
     8
1002
}
  0
DIMENSION
  5
1A5
330
20
100
AcDbEntity
  8
BEM
100
AcDbDimension
  2
*D5
 10
276.8002164164532
 20
494.6380749096444
 30
0.0
 11
270.3002164164531
 21
512.3047415763112
 31
0.0
 70
    32
 71
     5
  3
Standard
100
AcDbAlignedDimension
 13
276.5636011722802
 23
493.6380749096445
 33
0.0
 14
276.8002164164532
 24
494.6380749096444
 34
0.0
 50
90.0
100
AcDbRotatedDimension
1001
ACAD
1000
DSTYLE
1002
{
1070
    40
1040
2.0
1070
    41
1040
3.5
1070
    42
1040
1.0
1070
    43
1040
7.0
1070
    44
1040
1.0
1070
    73
1070
     0
1070
    74
1070
     0
1070
    77
1070
     1
1070
    78
1070
     8
1070
    79
1070
     2
1070
   140
1040
3.5
1070
   141
1040
1.5
1070
   146
1040
0.5
1070
   147
1040
1.5
1070
   172
1070
     1
1070
   178
1070
     1
1070
   179
1070
     2
1070
   271
1070
     2
1070
   272
1070
     2
1070
   284
1070
     8
1070
   285
1070
     8
1070
   286
1070
     8
1002
}
  0
DIMENSION
  5
1A6
330
20
100
AcDbEntity
  8
BEM
100
AcDbDimension
  2
*D4
 10
310.7573593128808
 20
496.6380749096445
 30
0.0
 11
303.2074649994873
 21
513.709792465328
 31
0.0
 70
   164
 71
     5
 42
3.0
  3
Standard
100
AcDbRadialDimension
 15
311.9707351846761
 25
493.8944060167669
 35
0.0
 40
0.0
1001
ACAD
1000
DSTYLE
1002
{
1070
    40
1040
2.0
1070
    41
1040
3.5
1070
    42
1040
1.0
1070
    43
1040
7.0
1070
    44
1040
1.0
1070
    73
1070
     0
1070
    74
1070
     0
1070
    77
1070
     1
1070
    78
1070
     8
1070
    79
1070
     2
1070
   140
1040
3.5
1070
   141
1040
1.5
1070
   146
1040
0.5
1070
   147
1040
1.5
1070
   172
1070
     1
1070
   178
1070
     1
1070
   179
1070
     2
1070
   271
1070
     2
1070
   272
1070
     2
1070
   284
1070
     8
1070
   285
1070
     8
1070
   286
1070
     8
1002
}
  0
ARC
  5
1A7
102
{ACAD_REACTORS
330
319
102
}
330
20
100
AcDbEntity
  8
STEMPEL
100
AcDbCircle
 10
310.7573593128807
 20
496.6380749096445
 30
0.0
 40
2.0
100
AcDbArc
 50
270.0
 51
315.0
  0
ARC
  5
1A8
102
{ACAD_REACTORS
330
319
102
}
330
20
100
AcDbEntity
  8
STEMPEL
100
AcDbCircle
 10
310.7573593128807
 20
496.6380749096445
 30
0.0
 40
3.0
100
AcDbArc
 50
270.0
 51
315.0
  0
LINE
  5
1A9
102
{ACAD_REACTORS
330
30C
330
319
102
}
330
20
100
AcDbEntity
  8
STEMPEL
100
AcDbLine
 10
314.9999999999999
 20
496.6380749096445
 30
0.0
 11
312.8786796564404
 21
494.5167545660849
 31
0.0
  0
LINE
  5
1AA
102
{ACAD_REACTORS
330
319
102
}
330
20
100
AcDbEntity
  8
STEMPEL
100
AcDbLine
 10
313.5857864376268
 20
496.6380749096445
 30
0.0
 11
312.171572875254
 21
495.2238613472713
 31
0.0
  0
LINE
  5
1AB
330
20
100
AcDbEntity
  8
STEMPEL
100
AcDbLine
 10
410.0
 20
110.0
 30
0.0
 11
410.0
 21
584.0
 31
0.0
  0
LINE
  5
1AC
330
20
100
AcDbEntity
  8
HILF
100
AcDbLine
 10
420.0
 20
-0.0000000000001137
 30
0.0
 11
419.9999999999999
 21
594.0
 31
0.0
  0
LINE
  5
1AE
330
20
100
AcDbEntity
  8
STEMPEL
100
AcDbLine
 10
410.0
 20
110.0
 30
0.0
 11
410.0
 21
10.0
 31
0.0
  0
LINE
  5
1AF
102
{ACAD_REACTORS
330
319
102
}
330
20
100
AcDbEntity
  8
STEMPEL
100
AcDbLine
 10
262.5
 20
494.6380749096447
 30
0.0
 11
262.5
 21
493.6380749096449
 31
0.0
  0
ARC
  5
1B2
330
20
100
AcDbEntity
  8
STEMPEL
100
AcDbCircle
 10
225.0
 20
312.2986949412107
 30
0.0
 40
37.0
100
AcDbArc
 50
270.3871365911038
 51
89.61286340889623
  0
LINE
  5
1B7
330
20
100
AcDbEntity
  8
MITTEL
100
AcDbLine
 10
220.0
 20
232.2986949412107
 30
0.0
 11
229.9999999999999
 21
232.2986949412106
 31
0.0
  0
LINE
  5
1BA
330
20
100
AcDbEntity
  8
STEMPEL
100
AcDbLine
 10
224.75
 20
246.7986949412107
 30
0.0
 11
224.75
 21
232.7986949412107
 31
0.0
  0
LINE
  5
1BB
330
20
100
AcDbEntity
  8
STEMPEL
100
AcDbLine
 10
225.2499999999999
 20
246.7986949412107
 30
0.0
 11
225.2499999999999
 21
232.7986949412107
 31
0.0
  0
LINE
  5
1BC
330
20
100
AcDbEntity
  8
STEMPEL
100
AcDbLine
 10
224.75
 20
275.2995395454452
 30
0.0
 11
224.75
 21
250.7986949412106
 31
0.0
  0
LINE
  5
1BD
330
20
100
AcDbEntity
  8
STEMPEL
100
AcDbLine
 10
225.25
 20
275.2995395454452
 30
0.0
 11
225.25
 21
250.7986949412106
 31
0.0
  0
LINE
  5
1BE
330
20
100
AcDbEntity
  8
STEMPEL
100
AcDbLine
 10
224.75
 20
232.7986949412107
 30
0.0
 11
225.2499999999999
 21
232.7986949412107
 31
0.0
  0
LINE
  5
1BF
330
20
100
AcDbEntity
  8
STEMPEL
100
AcDbLine
 10
224.75
 20
231.7986949412107
 30
0.0
 11
225.25
 21
231.7986949412107
 31
0.0
  0
LINE
  5
1C0
330
20
100
AcDbEntity
  8
STEMPEL
100
AcDbLine
 10
224.75
 20
231.7986949412107
 30
0.0
 11
224.75
 21
222.2990421641027
 31
0.0
  0
LINE
  5
1C1
330
20
100
AcDbEntity
  8
STEMPEL
100
AcDbLine
 10
225.2499999999999
 20
231.7986949412107
 30
0.0
 11
225.25
 21
222.2990421641027
 31
0.0
  0
LINE
  5
1C3
330
20
100
AcDbEntity
  8
STEMPEL
100
AcDbLine
 10
225.2499999999999
 20
392.7986949412107
 30
0.0
 11
225.25
 21
402.2983477183186
 31
0.0
  0
LINE
  5
1C4
330
20
100
AcDbEntity
  8
STEMPEL
100
AcDbLine
 10
224.75
 20
392.7986949412107
 30
0.0
 11
224.75
 21
402.2983477183186
 31
0.0
  0
LINE
  5
1C5
330
20
100
AcDbEntity
  8
STEMPEL
100
AcDbLine
 10
224.75
 20
392.7986949412107
 30
0.0
 11
225.25
 21
392.7986949412107
 31
0.0
  0
LINE
  5
1C6
330
20
100
AcDbEntity
  8
STEMPEL
100
AcDbLine
 10
224.75
 20
391.7986949412107
 30
0.0
 11
225.2499999999999
 21
391.7986949412107
 31
0.0
  0
LINE
  5
1C7
330
20
100
AcDbEntity
  8
STEMPEL
100
AcDbLine
 10
225.25
 20
349.2978503369761
 30
0.0
 11
225.25
 21
373.7986949412107
 31
0.0
  0
LINE
  5
1C8
330
20
100
AcDbEntity
  8
STEMPEL
100
AcDbLine
 10
224.75
 20
349.2978503369761
 30
0.0
 11
224.75
 21
373.7986949412107
 31
0.0
  0
LINE
  5
1C9
330
20
100
AcDbEntity
  8
STEMPEL
100
AcDbLine
 10
225.2499999999999
 20
377.7986949412106
 30
0.0
 11
225.2499999999999
 21
391.7986949412107
 31
0.0
  0
LINE
  5
1CA
330
20
100
AcDbEntity
  8
STEMPEL
100
AcDbLine
 10
224.75
 20
377.7986949412106
 30
0.0
 11
224.75
 21
391.7986949412107
 31
0.0
  0
LINE
  5
1CB
330
20
100
AcDbEntity
  8
MITTEL
100
AcDbLine
 10
220.0
 20
392.2986949412107
 30
0.0
 11
229.9999999999999
 21
392.2986949412107
 31
0.0
  0
LINE
  5
1CC
330
20
100
AcDbEntity
  8
STEMPEL
100
AcDbLine
 10
225.25
 20
373.7986949412107
 30
0.0
 11
220.8722813232689
 21
373.7986949412107
 31
0.0
  0
LINE
  5
1CD
330
20
100
AcDbEntity
  8
STEMPEL
100
AcDbLine
 10
225.2499999999999
 20
377.7986949412106
 30
0.0
 11
220.8722813232689
 21
377.7986949412106
 31
0.0
  0
LINE
  5
1CE
330
20
100
AcDbEntity
  8
MITTEL
100
AcDbLine
 10
225.0
 20
375.7986949412107
 30
0.0
 11
209.4999999999999
 21
375.7986949412107
 31
0.0
  0
ARC
  5
1CF
330
20
100
AcDbEntity
  8
STEMPEL
100
AcDbCircle
 10
217.9999999999999
 20
375.7986949412107
 30
0.0
 40
3.5
100
AcDbArc
 50
34.84990457904646
 51
325.1500954209536
  0
LINE
  5
1D0
330
20
100
AcDbEntity
  8
MITTEL
100
AcDbLine
 10
217.9999999999999
 20
367.2986949412107
 30
0.0
 11
217.9999999999999
 21
384.2986949412107
 31
0.0
  0
ARC
  5
1D1
330
20
100
AcDbEntity
  8
STEMPEL
100
AcDbCircle
 10
225.0
 20
312.2986949412107
 30
0.0
 40
37.0
100
AcDbArc
 50
90.38713659110362
 51
269.6128634088964
  0
ARC
  5
1D2
330
20
100
AcDbEntity
  8
STEMPEL
100
AcDbCircle
 10
225.0
 20
312.2986949412107
 30
0.0
 40
90.0
100
AcDbArc
 50
90.15915514776713
 51
269.8408448522328
  0
ARC
  5
1D3
330
20
100
AcDbEntity
  8
STEMPEL
100
AcDbCircle
 10
225.0
 20
312.2986949412107
 30
0.0
 40
88.58578643762687
100
AcDbArc
 50
90.16169596125873
 51
269.8383040387412
  0
ARC
  5
1D4
330
20
100
AcDbEntity
  8
HILF
100
AcDbCircle
 10
225.0
 20
312.2986949412107
 30
0.0
 40
86.52272617761099
100
AcDbArc
 50
90.16555147349412
 51
269.8344485265059
  0
LINE
  5
1D5
330
20
100
AcDbEntity
  8
STEMPEL
100
AcDbLine
 10
225.25
 20
496.6380749096446
 30
0.0
 11
225.25
 21
493.6380749096445
 31
0.0
  0
LINE
  5
1D6
330
20
100
AcDbEntity
  8
STEMPEL
100
AcDbLine
 10
224.75
 20
496.6380749096446
 30
0.0
 11
224.75
 21
493.6380749096445
 31
0.0
  0
LINE
  5
210
330
20
100
AcDbEntity
  8
TEXT
 62
     2
100
AcDbLine
 10
176.9631306787658
 20
402.8947581253353
 30
0.0
 11
225.0
 21
392.2986949412107
 31
0.0
  0
TEXT
  5
211
330
20
100
AcDbEntity
  8
TEXT
 62
     1
100
AcDbText
 10
109.4201738871645
 20
406.2746635422318
 30
0.0
 40
7.0
  1
Soll-Bruchstelle
 41
0.8
  7
GREEKS
100
AcDbText
  0
LINE
  5
212
330
20
100
AcDbEntity
  8
TEXT
 62
     2
100
AcDbLine
 10
108.6768440412664
 20
402.8947581253353
 30
0.0
 11
176.9631306787658
 21
402.8947581253353
 31
0.0
  0
TEXT
  5
213
330
20
100
AcDbEntity
  8
BEM
100
AcDbText
 10
416.5811541437437
 20
12.14804815338303
 30
0.0
 40
4.0
  1
Diese Zeichnung ist urheberrechtlich geschützt und bleibt unser Eigentum. Sie darf weder ganz noch teilweise vervielfältigt und nicht an Dritte weitergegeben werden.
 50
90.0
 41
0.8
  7
GREEKS
100
AcDbText
  0
LINE
  5
27E
102
{ACAD_REACTORS
330
319
102
}
330
20
100
AcDbEntity
  8
STEMPEL
100
AcDbLine
 10
225.25
 20
496.6380749096445
 30
0.0
 11
314.9999999999999
 21
496.6380749096445
 31
0.0
  0
DIMENSION
  5
2ED
102
{ACAD_XDICTIONARY
360
2FE
102
}
102
{ACAD_REACTORS
330
30C
102
}
330
20
100
AcDbEntity
  8
BEM
100
AcDbDimension
  2
*D8
 10
310.7573593128807
 20
493.6380749096445
 30
0.0
 11
351.7743157562981
 21
510.113135930013
 31
0.0
 70
    34
 71
     5
 42
0.7853981633974483
  3
Standard
100
AcDb2LineAngularDimension
 13
314.9999999999999
 23
496.6380749096445
 33
0.0
 14
312.8786796564404
 24
494.5167545660849
 34
0.0
 15
139.2426406871191
 25
493.6380749096445
 35
0.0
 16
347.305950081944
 26
503.0982757221148
 36
0.0
1001
ACAD
1000
DSTYLE
1002
{
1070
    40
1040
2.0
1070
    41
1040
3.5
1070
    42
1040
1.0
1070
    43
1040
7.0
1070
    44
1040
1.0
1070
    73
1070
     0
1070
    74
1070
     0
1070
    77
1070
     1
1070
    78
1070
     8
1070
    79
1070
     2
1070
   140
1040
3.5
1070
   141
1040
1.5
1070
   146
1040
0.5
1070
   147
1040
1.5
1070
   172
1070
     1
1070
   178
1070
     1
1070
   179
1070
     2
1070
   271
1070
     2
1070
   272
1070
     2
1070
   284
1070
     8
1070
   285
1070
     8
1070
   286
1070
     8
1002
}
  0
HATCH
  5
319
330
20
100
AcDbEntity
  8
SCHRAFF
100
AcDbHatch
 10
0.0
 20
0.0
 30
0.0
210
0.0
220
0.0
230
1.0
  2
_USER
 70
     0
 71
     1
 91
        1
 92
        7
 72
     1
 73
     1
 93
        8
 10
310.7573593128807
 20
493.6380749096445
 42
0.1989123673796621
 10
312.8786796564404
 20
494.5167545660849
 42
0.0
 10
315.0
 20
496.6380749096445
 42
0.0
 10
313.5857864376268
 20
496.6380749096445
 42
0.0
 10
312.171572875254
 20
495.2238613472713
 42
-0.1989123673796728
 10
310.7573593128807
 20
494.6380749096444
 42
0.0
 10
262.5
 20
494.6380749096443
 42
0.0
 10
262.5
 20
493.6380749096445
 42
0.0
 97
        8
330
1A9
330
27E
330
1AA
330
1A7
330
18D
330
1AF
330
18E
330
1A8
 75
     0
 76
     0
 52
135.0
 41
2.0
 77
     0
 78
     1
 53
135.0
 43
0.0
 44
0.0
 45
-1.414213562373095
 46
-1.414213562373094
 79
     0
 47
0.1052554475727731
 98
        1
 10
297.3712505212095
 20
493.8278722412221
  0
ENDSEC
  0
SECTION
  2
OBJECTS
  0
DICTIONARY
  5
C
330
0
100
AcDbDictionary
281
     1
  3
ACAD_COLOR
350
1B
  3
ACAD_GROUP
350
D
  3
ACAD_LAYOUT
350
19
  3
ACAD_MATERIAL
350
1A
  3
ACAD_MLINESTYLE
350
16
  3
ACAD_PLOTSETTINGS
350
18
  3
ACAD_PLOTSTYLENAME
350
E
  3
AcDbVariableDictionary
350
229
  0
DICTIONARY
  5
2FE
330
2ED
100
AcDbDictionary
280
     1
281
     1
  3
ACAD_DIMASSOC
360
30C
  0
DICTIONARY
  5
1B
102
{ACAD_REACTORS
330
C
102
}
330
C
100
AcDbDictionary
281
     1
  0
DICTIONARY
  5
D
102
{ACAD_REACTORS
330
C
102
}
330
C
100
AcDbDictionary
281
     1
  0
DICTIONARY
  5
19
102
{ACAD_REACTORS
330
C
102
}
330
C
100
AcDbDictionary
281
     1
  3
Layout1
350
1F
  3
Model
350
23
  0
DICTIONARY
  5
1A
102
{ACAD_REACTORS
330
C
102
}
330
C
100
AcDbDictionary
281
     1
  0
DICTIONARY
  5
16
102
{ACAD_REACTORS
330
C
102
}
330
C
100
AcDbDictionary
281
     1
  3
Standard
350
17
  0
DICTIONARY
  5
18
102
{ACAD_REACTORS
330
C
102
}
330
C
100
AcDbDictionary
281
     1
  0
ACDBDICTIONARYWDFLT
  5
E
102
{ACAD_REACTORS
330
C
102
}
330
C
100
AcDbDictionary
281
     1
  3
Normal
350
F
100
AcDbDictionaryWithDefault
340
F
  0
DICTIONARY
  5
229
102
{ACAD_REACTORS
330
C
102
}
330
C
100
AcDbDictionary
281
     1
  3
DIMASSOC
350
22B
  3
HIDETEXT
350
22A
  3
PROJECTNAME
350
22C
  0
DIMASSOC
  5
30C
102
{ACAD_REACTORS
330
2FE
102
}
330
2FE
100
AcDbDimAssoc
330
2ED
 90
       15
 70
     0
 71
     0
  1
AcDbOsnapPointRef
 72
    13
331
1A9
 73
     2
 91
        0
 40
0.0
 10
0.0
 20
0.0
 30
2.000000000000000E+50
 75
     0
  1
AcDbOsnapPointRef
 72
     1
331
1A9
 73
     2
 91
        0
 40
0.9999999999999998
 10
0.0
 20
0.0
 30
2.000000000000000E+50
 75
     0
  1
AcDbOsnapPointRef
 72
    13
331
18E
 73
     2
 91
        0
 40
0.0
 10
0.0
 20
0.0
 30
2.000000000000000E+50
 75
     0
  1
AcDbOsnapPointRef
 72
     1
331
18E
 73
     2
 91
        0
 40
1.0
 10
0.0
 20
0.0
 30
2.000000000000000E+50
 75
     0
  0
LAYOUT
  5
1F
102
{ACAD_REACTORS
330
19
102
}
330
19
100
AcDbPlotSettings
  1

  2
RICOH Aficio 2027 PCL 6
  4

  6

 40
0.0
 41
0.0
 42
0.0
 43
0.0
 44
0.0
 45
0.0
 46
0.0
 47
0.0
 48
0.0
 49
0.0
140
0.0
141
0.0
142
1.0
143
1.0
 70
   688
 72
     0
 73
     0
 74
     5
  7
monochrome1.ctb
 75
    16
147
1.0
 76
     0
 77
     2
 78
   300
148
0.0
149
0.0
100
AcDbLayout
  1
Layout1
 70
     0
 71
     1
 10
0.0
 20
0.0
 11
12.0
 21
9.0
 12
158.7634990033266
 22
50.00000000000001
 32
274.9684894305549
 14
1.000000000000000E+20
 24
1.000000000000000E+20
 34
1.000000000000000E+20
 15
-1.000000000000000E+20
 25
-1.000000000000000E+20
 35
-1.000000000000000E+20
146
0.0
 13
0.0
 23
0.0
 33
0.0
 16
1.0
 26
0.0
 36
0.0
 17
0.0
 27
1.0
 37
0.0
 76
     0
330
1C
  0
LAYOUT
  5
23
102
{ACAD_REACTORS
330
19
102
}
330
19
100
AcDbPlotSettings
  1

  2
RICOH Aficio 2027 PCL 6
  4
A4
  6

 40
5.027083396911621
 41
5.027085304260253
 42
5.027084350585937
 43
5.027069091796875
 44
209.9733276367187
 45
296.9259948730469
 46
0.0
 47
0.0
 48
0.0
 49
0.0
140
0.0
141
0.0
142
1.0
143
1.0
 70
 11952
 72
     0
 73
     1
 74
     0
  7
monochrome1.ctb
 75
     0
147
1.0
 76
     0
 77
     2
 78
   300
148
2300.791222438129
149
91.09677890547535
100
AcDbLayout
  1
Model
 70
     1
 71
     0
 10
0.0
 20
0.0
 11
12.0
 21
9.0
 12
0.0
 22
0.0
 32
0.0
 14
0.0
 24
0.0
 34
0.0
 15
0.0
 25
0.0
 35
0.0
146
0.0
 13
0.0
 23
0.0
 33
0.0
 16
1.0
 26
0.0
 36
0.0
 17
0.0
 27
1.0
 37
0.0
 76
     0
330
20
  0
MLINESTYLE
  5
17
102
{ACAD_REACTORS
330
16
102
}
330
16
100
AcDbMlineStyle
  2
STANDARD
 70
     0
  3

 62
   256
 51
90.0
 52
90.0
 71
     2
 49
0.5
 62
   256
  6
BYLAYER
 49
-0.5
 62
   256
  6
BYLAYER
  0
ACDBPLACEHOLDER
  5
F
102
{ACAD_REACTORS
330
E
102
}
330
E
  0
DICTIONARYVAR
  5
22B
102
{ACAD_REACTORS
330
229
102
}
330
229
100
DictionaryVariables
280
     0
  1
2
  0
DICTIONARYVAR
  5
22A
102
{ACAD_REACTORS
330
229
102
}
330
229
100
DictionaryVariables
280
     0
  1
1
  0
DICTIONARYVAR
  5
22C
102
{ACAD_REACTORS
330
229
102
}
330
229
100
DictionaryVariables
280
     0
  1

  0
ENDSEC
  0
EOF
