  0
SECTION
  2
HEADER
  9
$ACADVER
  1
AC1018
  9
$ACADMAINTVER
 70
     2
  9
$DWGCODEPAGE
  3
ANSI_1252
  9
$INSBASE
 10
0.0
 20
0.0
 30
0.0
  9
$EXTMIN
 10
-0.0000000000004547
 20
-0.0000000000000205
 30
0.0
  9
$EXTMAX
 10
594.0000000000001
 20
840.0000000000002
 30
0.0
  9
$LIMMIN
 10
0.0
 20
0.0
  9
$LIMMAX
 10
593.9999999999997
 20
840.0000000000002
  9
$ORTHOMODE
 70
     1
  9
$REGENMODE
 70
     1
  9
$FILLMODE
 70
     1
  9
$QTEXTMODE
 70
     0
  9
$MIRRTEXT
 70
     1
  9
$LTSCALE
 40
20.0
  9
$ATTMODE
 70
     1
  9
$TEXTSIZE
 40
3.5
  9
$TRACEWID
 40
0.5
  9
$TEXTSTYLE
  7
STANDARD
  9
$CLAYER
  8
STEMPEL
  9
$CELTYPE
  6
ByLayer
  9
$CECOLOR
 62
   256
  9
$CELTSCALE
 40
1.0
  9
$DISPSILH
 70
     0
  9
$DIMSCALE
 40
2.0
  9
$DIMASZ
 40
3.5
  9
$DIMEXO
 40
1.0
  9
$DIMDLI
 40
7.0
  9
$DIMRND
 40
0.0
  9
$DIMDLE
 40
0.0
  9
$DIMEXE
 40
1.0
  9
$DIMTP
 40
0.0
  9
$DIMTM
 40
0.0
  9
$DIMTXT
 40
3.5
  9
$DIMCEN
 40
1.5
  9
$DIMTSZ
 40
0.0
  9
$DIMTOL
 70
     0
  9
$DIMLIM
 70
     0
  9
$DIMTIH
 70
     0
  9
$DIMTOH
 70
     0
  9
$DIMSE1
 70
     0
  9
$DIMSE2
 70
     0
  9
$DIMTAD
 70
     1
  9
$DIMZIN
 70
     8
  9
$DIMBLK
  1

  9
$DIMASO
 70
     1
  9
$DIMSHO
 70
     0
  9
$DIMPOST
  1

  9
$DIMAPOST
  1

  9
$DIMALT
 70
     0
  9
$DIMALTD
 70
     2
  9
$DIMALTF
 40
25.4
  9
$DIMLFAC
 40
1.0
  9
$DIMTOFL
 70
     1
  9
$DIMTVP
 40
0.0
  9
$DIMTIX
 70
     0
  9
$DIMSOXD
 70
     0
  9
$DIMSAH
 70
     0
  9
$DIMBLK1
  1

  9
$DIMBLK2
  1

  9
$DIMSTYLE
  2
Standard
  9
$DIMCLRD
 70
     0
  9
$DIMCLRE
 70
     0
  9
$DIMCLRT
 70
     1
  9
$DIMTFAC
 40
0.5142857142857144
  9
$DIMGAP
 40
1.5
  9
$DIMJUST
 70
     0
  9
$DIMSD1
 70
     0
  9
$DIMSD2
 70
     0
  9
$DIMTOLJ
 70
     1
  9
$DIMTZIN
 70
     8
  9
$DIMALTZ
 70
     8
  9
$DIMALTTZ
 70
     8
  9
$DIMUPT
 70
     0
  9
$DIMDEC
 70
     2
  9
$DIMTDEC
 70
     2
  9
$DIMALTU
 70
     2
  9
$DIMALTTD
 70
     2
  9
$DIMTXSTY
  7
STANDARD
  9
$DIMAUNIT
 70
     0
  9
$DIMADEC
 70
     2
  9
$DIMALTRND
 40
0.0
  9
$DIMAZIN
 70
     2
  9
$DIMDSEP
 70
    46
  9
$DIMATFIT
 70
     3
  9
$DIMFRAC
 70
     0
  9
$DIMLDRBLK
  1

  9
$DIMLUNIT
 70
     2
  9
$DIMLWD
 70
    -2
  9
$DIMLWE
 70
    -2
  9
$DIMTMOVE
 70
     0
  9
$LUNITS
 70
     2
  9
$LUPREC
 70
     2
  9
$SKETCHINC
 40
1.0
  9
$FILLETRAD
 40
0.0
  9
$AUNITS
 70
     0
  9
$AUPREC
 70
     0
  9
$MENU
  1
ACAD
  9
$ELEVATION
 40
0.0
  9
$PELEVATION
 40
0.0
  9
$THICKNESS
 40
0.0
  9
$LIMCHECK
 70
     0
  9
$CHAMFERA
 40
0.0
  9
$CHAMFERB
 40
0.0
  9
$CHAMFERC
 40
0.0
  9
$CHAMFERD
 40
0.0
  9
$SKPOLY
 70
     0
  9
$TDCREATE
 40
2455397.823042361
  9
$TDUCREATE
 40
2455397.781375695
  9
$TDUPDATE
 40
2455996.362440405
  9
$TDUUPDATE
 40
2455996.320773738
  9
$TDINDWG
 40
0.1091069329
  9
$TDUSRTIMER
 40
0.1091069329
  9
$USRTIMER
 70
     1
  9
$ANGBASE
 50
0.0
  9
$ANGDIR
 70
     0
  9
$PDMODE
 70
     0
  9
$PDSIZE
 40
0.0
  9
$PLINEWID
 40
0.0
  9
$SPLFRAME
 70
     0
  9
$SPLINETYPE
 70
     6
  9
$SPLINESEGS
 70
     8
  9
$HANDSEED
  5
2CC3
  9
$SURFTAB1
 70
     6
  9
$SURFTAB2
 70
     6
  9
$SURFTYPE
 70
     6
  9
$SURFU
 70
     6
  9
$SURFV
 70
     6
  9
$UCSBASE
  2

  9
$UCSNAME
  2

  9
$UCSORG
 10
0.0
 20
0.0
 30
0.0
  9
$UCSXDIR
 10
1.0
 20
0.0
 30
0.0
  9
$UCSYDIR
 10
0.0
 20
1.0
 30
0.0
  9
$UCSORTHOREF
  2

  9
$UCSORTHOVIEW
 70
     0
  9
$UCSORGTOP
 10
0.0
 20
0.0
 30
0.0
  9
$UCSORGBOTTOM
 10
0.0
 20
0.0
 30
0.0
  9
$UCSORGLEFT
 10
0.0
 20
0.0
 30
0.0
  9
$UCSORGRIGHT
 10
0.0
 20
0.0
 30
0.0
  9
$UCSORGFRONT
 10
0.0
 20
0.0
 30
0.0
  9
$UCSORGBACK
 10
0.0
 20
0.0
 30
0.0
  9
$PUCSBASE
  2

  9
$PUCSNAME
  2

  9
$PUCSORG
 10
0.0
 20
0.0
 30
0.0
  9
$PUCSXDIR
 10
1.0
 20
0.0
 30
0.0
  9
$PUCSYDIR
 10
0.0
 20
1.0
 30
0.0
  9
$PUCSORTHOREF
  2

  9
$PUCSORTHOVIEW
 70
     0
  9
$PUCSORGTOP
 10
0.0
 20
0.0
 30
0.0
  9
$PUCSORGBOTTOM
 10
0.0
 20
0.0
 30
0.0
  9
$PUCSORGLEFT
 10
0.0
 20
0.0
 30
0.0
  9
$PUCSORGRIGHT
 10
0.0
 20
0.0
 30
0.0
  9
$PUCSORGFRONT
 10
0.0
 20
0.0
 30
0.0
  9
$PUCSORGBACK
 10
0.0
 20
0.0
 30
0.0
  9
$USERI1
 70
     0
  9
$USERI2
 70
     0
  9
$USERI3
 70
     0
  9
$USERI4
 70
     0
  9
$USERI5
 70
     0
  9
$USERR1
 40
0.0
  9
$USERR2
 40
0.0
  9
$USERR3
 40
0.0
  9
$USERR4
 40
0.0
  9
$USERR5
 40
0.0
  9
$WORLDVIEW
 70
     1
  9
$SHADEDGE
 70
     3
  9
$SHADEDIF
 70
    70
  9
$TILEMODE
 70
     1
  9
$MAXACTVP
 70
    16
  9
$PINSBASE
 10
0.0
 20
0.0
 30
0.0
  9
$PLIMCHECK
 70
     0
  9
$PEXTMIN
 10
1.000000000000000E+20
 20
1.000000000000000E+20
 30
1.000000000000000E+20
  9
$PEXTMAX
 10
-1.000000000000000E+20
 20
-1.000000000000000E+20
 30
-1.000000000000000E+20
  9
$PLIMMIN
 10
0.0
 20
0.0
  9
$PLIMMAX
 10
12.0
 20
9.0
  9
$UNITMODE
 70
     0
  9
$VISRETAIN
 70
     0
  9
$PLINEGEN
 70
     0
  9
$PSLTSCALE
 70
     0
  9
$TREEDEPTH
 70
  3020
  9
$CMLSTYLE
  2
Standard
  9
$CMLJUST
 70
     0
  9
$CMLSCALE
 40
1.0
  9
$PROXYGRAPHICS
 70
     1
  9
$MEASUREMENT
 70
     0
  9
$CELWEIGHT
370
    -1
  9
$ENDCAPS
280
     0
  9
$JOINSTYLE
280
     0
  9
$LWDISPLAY
290
     0
  9
$INSUNITS
 70
     0
  9
$HYPERLINKBASE
  1

  9
$STYLESHEET
  1
monochrome1.ctb
  9
$XEDIT
290
     1
  9
$CEPSNTYPE
380
     0
  9
$PSTYLEMODE
290
     1
  9
$FINGERPRINTGUID
  2
{D68B0D02-A558-11D7-B632-000102183313}
  9
$VERSIONGUID
  2
{79CCEA19-4E63-4CAF-AF5B-C28512E4C9A9}
  9
$EXTNAMES
290
     1
  9
$PSVPSCALE
 40
0.0
  9
$OLESTARTUP
290
     0
  9
$SORTENTS
280
   127
  9
$INDEXCTL
280
     0
  9
$HIDETEXT
280
     0
  9
$XCLIPFRAME
290
     0
  9
$HALOGAP
280
     0
  9
$OBSCOLOR
 70
   257
  9
$OBSLTYPE
280
     0
  9
$INTERSECTIONDISPLAY
280
     0
  9
$INTERSECTIONCOLOR
 70
   257
  9
$DIMASSOC
280
     1
  9
$PROJECTNAME
  1

  0
ENDSEC
  0
SECTION
  2
CLASSES
  0
CLASS
  1
ACDBDICTIONARYWDFLT
  2
AcDbDictionaryWithDefault
  3
ObjectDBX Classes
 90
        0
 91
        1
280
     0
281
     0
  0
CLASS
  1
DICTIONARYVAR
  2
AcDbDictionaryVar
  3
ObjectDBX Classes
 90
        0
 91
        2
280
     0
281
     0
  0
ENDSEC
  0
SECTION
  2
TABLES
  0
TABLE
  2
VPORT
  5
8
330
0
100
AcDbSymbolTable
 70
     2
  0
VPORT
  5
2CC2
330
8
100
AcDbSymbolTableRecord
100
AcDbViewportTableRecord
  2
*Active
 70
     0
 10
0.0
 20
0.0
 11
1.0
 21
1.0
 12
296.9999999999999
 22
420.0000000000001
 13
0.0
 23
0.0
 14
1.0
 24
1.0
 15
10.0
 25
10.0
 16
0.0
 26
0.0
 36
1.0
 17
0.0
 27
0.0
 37
0.0
 40
840.1202687220358
 41
1.374331550802138
 42
50.0
 43
0.0
 44
0.0
 50
0.0
 51
0.0
 71
     0
 72
  1500
 73
     1
 74
     0
 75
     0
 76
     0
 77
     0
 78
     0
281
     0
 65
     1
110
0.0
120
0.0
130
0.0
111
1.0
121
0.0
131
0.0
112
0.0
122
1.0
132
0.0
 79
     0
146
0.0
  0
ENDTAB
  0
TABLE
  2
LTYPE
  5
5
330
0
100
AcDbSymbolTable
 70
     2
  0
LTYPE
  5
13
330
5
100
AcDbSymbolTableRecord
100
AcDbLinetypeTableRecord
  2
ByBlock
 70
     0
  3

 72
    65
 73
     0
 40
0.0
  0
LTYPE
  5
14
330
5
100
AcDbSymbolTableRecord
100
AcDbLinetypeTableRecord
  2
ByLayer
 70
     0
  3

 72
    65
 73
     0
 40
0.0
  0
LTYPE
  5
15
330
5
100
AcDbSymbolTableRecord
100
AcDbLinetypeTableRecord
  2
Continuous
 70
     0
  3
Solid line
 72
    65
 73
     0
 40
0.0
  0
LTYPE
  5
25
330
5
100
AcDbSymbolTableRecord
100
AcDbLinetypeTableRecord
  2
STRICHPUNKT
 70
     0
  3
__ . __ . __ . __ . __ . __ . __ . __ . __ . __
 72
    65
 73
     4
 40
1.0
 49
0.5
 74
     0
 49
-0.25
 74
     0
 49
0.0
 74
     0
 49
-0.25
 74
     0
  0
ENDTAB
  0
TABLE
  2
LAYER
  5
2
330
0
100
AcDbSymbolTable
 70
     9
  0
LAYER
  5
10
330
2
100
AcDbSymbolTableRecord
100
AcDbLayerTableRecord
  2
0
 70
     0
 62
     7
  6
Continuous
370
    -3
390
F
  0
LAYER
  5
2A
330
2
100
AcDbSymbolTableRecord
100
AcDbLayerTableRecord
  2
VOLL
 70
     0
 62
     1
  6
Continuous
370
    -3
390
F
  0
LAYER
  5
2B
330
2
100
AcDbSymbolTableRecord
100
AcDbLayerTableRecord
  2
HILF
 70
     0
 62
     2
  6
Continuous
370
    -3
390
F
  0
LAYER
  5
2C
330
2
100
AcDbSymbolTableRecord
100
AcDbLayerTableRecord
  2
MITTEL
 70
     0
 62
     2
  6
STRICHPUNKT
370
    -3
390
F
  0
LAYER
  5
2F
330
2
100
AcDbSymbolTableRecord
100
AcDbLayerTableRecord
  2
BEM
 70
     0
 62
     7
  6
Continuous
370
    -3
390
F
  0
LAYER
  5
30
330
2
100
AcDbSymbolTableRecord
100
AcDbLayerTableRecord
  2
STEMPEL
 70
     0
 62
     3
  6
Continuous
370
    -3
390
F
  0
LAYER
  5
31
330
2
100
AcDbSymbolTableRecord
100
AcDbLayerTableRecord
  2
TEXT
 70
     0
 62
     7
  6
Continuous
370
    -3
390
F
  0
LAYER
  5
2B4
330
2
100
AcDbSymbolTableRecord
100
AcDbLayerTableRecord
  2
DEFPOINTS
 70
     0
 62
     7
  6
Continuous
290
     0
370
    -3
390
F
  0
LAYER
  5
2B5
330
2
100
AcDbSymbolTableRecord
100
AcDbLayerTableRecord
  2
SCHRAFF
 70
     0
 62
     7
  6
Continuous
370
    -3
390
F
  0
ENDTAB
  0
TABLE
  2
STYLE
  5
3
330
0
100
AcDbSymbolTable
 70
     2
  0
STYLE
  5
11
330
3
100
AcDbSymbolTableRecord
100
AcDbTextStyleTableRecord
  2
STANDARD
 70
     0
 40
0.0
 41
0.8
 50
0.0
 71
     0
 42
3.5
  3
simplex.shx
  4

  0
STYLE
  5
24
330
3
100
AcDbSymbolTableRecord
100
AcDbTextStyleTableRecord
  2
GREEKS
 70
     0
 40
0.0
 41
0.8
 50
0.0
 71
     0
 42
2.5
  3
SIMPLEX.shx
  4

  0
ENDTAB
  0
TABLE
  2
VIEW
  5
6
330
0
100
AcDbSymbolTable
 70
     0
  0
ENDTAB
  0
TABLE
  2
UCS
  5
7
330
0
100
AcDbSymbolTable
 70
     0
  0
ENDTAB
  0
TABLE
  2
APPID
  5
9
330
0
100
AcDbSymbolTable
 70
     1
  0
APPID
  5
12
330
9
100
AcDbSymbolTableRecord
100
AcDbRegAppTableRecord
  2
ACAD
 70
     0
  0
ENDTAB
  0
TABLE
  2
DIMSTYLE
  5
A
330
0
100
AcDbSymbolTable
 70
     1
100
AcDbDimStyleTable
 71
     1
340
9D
  0
DIMSTYLE
105
9D
102
{ACAD_REACTORS
330
29AA
330
29A9
330
2982
330
28A4
330
2873
330
2B4D
102
}
330
A
100
AcDbSymbolTableRecord
100
AcDbDimStyleTableRecord
  2
Standard
 70
     0
340
11
  0
ENDTAB
  0
TABLE
  2
BLOCK_RECORD
  5
1
330
0
100
AcDbSymbolTable
 70
    15
  0
BLOCK_RECORD
  5
1E
102
{ACAD_XDICTIONARY
360
A0
102
}
330
1
100
AcDbSymbolTableRecord
100
AcDbBlockTableRecord
  2
*Model_Space
340
21
  0
BLOCK_RECORD
  5
1A
102
{ACAD_XDICTIONARY
360
A2
102
}
330
1
100
AcDbSymbolTableRecord
100
AcDbBlockTableRecord
  2
*Paper_Space
340
1D
  0
BLOCK_RECORD
  5
22
330
1
100
AcDbSymbolTableRecord
100
AcDbBlockTableRecord
  2
LOGO
340
0
102
{BLKREFS
331
898
102
}
  0
BLOCK_RECORD
  5
21AB
330
1
100
AcDbSymbolTableRecord
100
AcDbBlockTableRecord
  2
*X1
340
0
102
{BLKREFS
331
29A7
102
}
  0
BLOCK_RECORD
  5
22B3
330
1
100
AcDbSymbolTableRecord
100
AcDbBlockTableRecord
  2
*X2
340
0
102
{BLKREFS
331
290D
331
29A3
102
}
  0
BLOCK_RECORD
  5
22D5
330
1
100
AcDbSymbolTableRecord
100
AcDbBlockTableRecord
  2
*X3
340
0
102
{BLKREFS
331
2926
102
}
  0
BLOCK_RECORD
  5
239D
330
1
100
AcDbSymbolTableRecord
100
AcDbBlockTableRecord
  2
*X4
340
0
102
{BLKREFS
331
29A2
102
}
  0
BLOCK_RECORD
  5
23FC
330
1
100
AcDbSymbolTableRecord
100
AcDbBlockTableRecord
  2
*X5
340
0
102
{BLKREFS
331
29A5
102
}
  0
BLOCK_RECORD
  5
2431
330
1
100
AcDbSymbolTableRecord
100
AcDbBlockTableRecord
  2
*X6
340
0
102
{BLKREFS
331
29A6
102
}
  0
BLOCK_RECORD
  5
2481
330
1
100
AcDbSymbolTableRecord
100
AcDbBlockTableRecord
  2
*X7
340
0
102
{BLKREFS
331
294F
102
}
  0
BLOCK_RECORD
  5
2562
330
1
100
AcDbSymbolTableRecord
100
AcDbBlockTableRecord
  2
*X8
340
0
102
{BLKREFS
331
29A8
102
}
  0
BLOCK_RECORD
  5
29B5
330
1
100
AcDbSymbolTableRecord
100
AcDbBlockTableRecord
  2
*D9
340
0
  0
BLOCK_RECORD
  5
29C2
330
1
100
AcDbSymbolTableRecord
100
AcDbBlockTableRecord
  2
*D10
340
0
  0
BLOCK_RECORD
  5
29F6
330
1
100
AcDbSymbolTableRecord
100
AcDbBlockTableRecord
  2
*D11
340
0
  0
BLOCK_RECORD
  5
2A03
330
1
100
AcDbSymbolTableRecord
100
AcDbBlockTableRecord
  2
*D12
340
0
  0
BLOCK_RECORD
  5
2A10
330
1
100
AcDbSymbolTableRecord
100
AcDbBlockTableRecord
  2
*D13
340
0
  0
BLOCK_RECORD
  5
2B4E
330
1
100
AcDbSymbolTableRecord
100
AcDbBlockTableRecord
  2
*D14
340
0
  0
ENDTAB
  0
ENDSEC
  0
SECTION
  2
BLOCKS
  0
BLOCK
  5
35
330
1E
100
AcDbEntity
  8
0
100
AcDbBlockBegin
  2
*Model_Space
 70
     0
 10
0.0
 20
0.0
 30
0.0
  3
*Model_Space
  1

  0
ENDBLK
  5
36
330
1E
100
AcDbEntity
  8
0
100
AcDbBlockEnd
  0
BLOCK
  5
33
330
1A
100
AcDbEntity
 67
     1
  8
0
100
AcDbBlockBegin
  2
*Paper_Space
 70
     0
 10
0.0
 20
0.0
 30
0.0
  3
*Paper_Space
  1

  0
ENDBLK
  5
34
330
1A
100
AcDbEntity
 67
     1
  8
0
100
AcDbBlockEnd
  0
BLOCK
  5
37
330
22
100
AcDbEntity
  8
0
100
AcDbBlockBegin
  2
LOGO
 70
     0
 10
0.0
 20
0.0
 30
0.0
  3
LOGO
  1

  0
ARC
  5
38
330
22
100
AcDbEntity
  8
0
100
AcDbCircle
 10
11.59973089678112
 20
-9.271599258481501
 30
0.0
 40
4.5
100
AcDbArc
 50
270.0
 51
231.0575587310159
  0
LINE
  5
39
330
22
100
AcDbEntity
  8
0
100
AcDbLine
 10
3.599730896781125
 20
-4.771599258481529
 30
0.0
 11
3.599730896781153
 21
-11.77159925848133
 31
0.0
  0
LINE
  5
3A
330
22
100
AcDbEntity
  8
0
100
AcDbLine
 10
2.599730896781125
 20
-4.771599258481529
 30
0.0
 11
2.599730896781153
 21
-11.77159925848133
 31
0.0
  0
CIRCLE
  5
3B
330
22
100
AcDbEntity
  8
0
100
AcDbCircle
 10
11.59973089678112
 20
-9.271599258481501
 30
0.0
 40
3.5
  0
ARC
  5
3C
330
22
100
AcDbEntity
  8
0
100
AcDbCircle
 10
31.59973089678115
 20
-9.271599258481472
 30
0.0
 40
4.5
100
AcDbArc
 50
270.0
 51
231.0575587310182
  0
LINE
  5
3D
330
22
100
AcDbEntity
  8
0
100
AcDbLine
 10
17.59973089678112
 20
-4.771599258481472
 30
0.0
 11
17.59973089678115
 21
-13.77159925848147
 31
0.0
  0
ARC
  5
3E
330
22
100
AcDbEntity
  8
0
100
AcDbCircle
 10
22.59973089678116
 20
-7.271599258481472
 30
0.0
 40
2.5
100
AcDbArc
 50
293.1161887722295
 51
90.0
  0
CIRCLE
  5
3F
330
22
100
AcDbEntity
  8
0
100
AcDbCircle
 10
31.59973089678115
 20
-9.271599258481472
 30
0.0
 40
3.5
  0
ARC
  5
40
330
22
100
AcDbEntity
  8
0
100
AcDbCircle
 10
4.599730896781153
 20
-11.77159925848133
 30
0.0
 40
1.0
100
AcDbArc
 50
180.0
 51
270.0
  0
ARC
  5
41
330
22
100
AcDbEntity
  8
0
100
AcDbCircle
 10
4.599730896781153
 20
-11.77159925848133
 30
0.0
 40
2.0
100
AcDbArc
 50
179.9999999999992
 51
270.0
  0
LINE
  5
42
330
22
100
AcDbEntity
  8
0
100
AcDbLine
 10
11.59973089678115
 20
-13.77159925848144
 30
0.0
 11
4.599730896781153
 21
-13.77159925848147
 31
0.0
  0
LINE
  5
43
330
22
100
AcDbEntity
  8
0
100
AcDbLine
 10
8.771303772034769
 20
-12.77159925848136
 30
0.0
 11
4.599730896781153
 21
-12.77159925848133
 31
0.0
  0
LINE
  5
44
330
22
100
AcDbEntity
  8
0
100
AcDbLine
 10
31.59973089678115
 20
-13.77159925848147
 30
0.0
 11
23.6715276665056
 21
-13.77159925848144
 31
0.0
  0
LINE
  5
45
330
22
100
AcDbEntity
  8
0
100
AcDbLine
 10
23.56565672307022
 20
-9.51278021337896
 30
0.0
 11
24.4388546544846
 21
-12.77159925848144
 31
0.0
  0
LINE
  5
46
330
22
100
AcDbEntity
  8
0
100
AcDbLine
 10
22.59973089678116
 20
-9.771599258481472
 30
0.0
 11
18.59973089678112
 21
-9.771599258481472
 31
0.0
  0
LINE
  5
47
330
22
100
AcDbEntity
  8
0
100
AcDbLine
 10
18.59973089678115
 20
-13.77159925848144
 30
0.0
 11
17.59973089678115
 21
-13.77159925848144
 31
0.0
  0
LINE
  5
48
330
22
100
AcDbEntity
  8
0
100
AcDbLine
 10
18.59973089678115
 20
-9.771599258481472
 30
0.0
 11
18.59973089678115
 21
-13.77159925848144
 31
0.0
  0
LINE
  5
49
330
22
100
AcDbEntity
  8
0
100
AcDbLine
 10
22.59973089678116
 20
-9.771599258481472
 30
0.0
 11
23.67152766650562
 21
-13.77159925848147
 31
0.0
  0
ARC
  5
4A
330
22
100
AcDbEntity
  8
0
100
AcDbCircle
 10
22.59973089678116
 20
-7.271599258481472
 30
0.0
 40
2.5
100
AcDbArc
 50
270.0
 51
270.0000000000007
  0
LINE
  5
4B
330
22
100
AcDbEntity
  8
0
100
AcDbLine
 10
28.77130377203494
 20
-12.77159925848147
 30
0.0
 11
24.43885465448463
 21
-12.77159925848144
 31
0.0
  0
LINE
  5
4C
330
22
100
AcDbEntity
  8
0
100
AcDbLine
 10
3.599730896781125
 20
-4.771599258481472
 30
0.0
 11
2.599730896781125
 21
-4.771599258481472
 31
0.0
  0
LINE
  5
4D
330
22
100
AcDbEntity
  8
0
100
AcDbLine
 10
22.59973089678116
 20
-8.771599258481472
 30
0.0
 11
18.59973089678115
 21
-8.771599258481472
 31
0.0
  0
LINE
  5
4E
330
22
100
AcDbEntity
  8
0
100
AcDbLine
 10
22.59973089678116
 20
-5.771599258481472
 30
0.0
 11
18.59973089678115
 21
-5.771599258481472
 31
0.0
  0
LINE
  5
4F
330
22
100
AcDbEntity
  8
0
100
AcDbLine
 10
22.59973089678116
 20
-4.771599258481472
 30
0.0
 11
17.59973089678115
 21
-4.771599258481472
 31
0.0
  0
LINE
  5
50
330
22
100
AcDbEntity
  8
0
100
AcDbLine
 10
18.59973089678115
 20
-5.771599258481472
 30
0.0
 11
18.59973089678115
 21
-8.771599258481472
 31
0.0
  0
ARC
  5
51
330
22
100
AcDbEntity
  8
0
100
AcDbCircle
 10
22.59973089678116
 20
-7.271599258481472
 30
0.0
 40
1.5
100
AcDbArc
 50
270.0
 51
90.0
  0
ENDBLK
  5
52
330
22
100
AcDbEntity
  8
0
100
AcDbBlockEnd
  0
BLOCK
  5
21AC
330
21AB
100
AcDbEntity
  8
0
100
AcDbBlockBegin
  2
*X1
 70
     1
 10
0.0
 20
0.0
 30
0.0
  3
*X1
  1

  0
LINE
  5
21AD
330
21AB
100
AcDbEntity
  8
0
 62
     0
100
AcDbLine
 10
349.3083498566917
 20
304.0535158607527
 30
0.0
 11
351.3083498566917
 21
306.0535158607527
 31
0.0
  0
LINE
  5
21AE
330
21AB
100
AcDbEntity
  8
0
 62
     0
100
AcDbLine
 10
458.3083498566914
 20
413.0535158607524
 30
0.0
 11
460.3083498566914
 21
415.0535158607524
 31
0.0
  0
LINE
  5
21AF
330
21AB
100
AcDbEntity
  8
0
 62
     0
100
AcDbLine
 10
346.4799227319455
 20
304.0535158607527
 30
0.0
 11
348.4799227319455
 21
306.0535158607527
 31
0.0
  0
LINE
  5
21B0
330
21AB
100
AcDbEntity
  8
0
 62
     0
100
AcDbLine
 10
455.4799227319453
 20
413.0535158607524
 30
0.0
 11
457.4799227319452
 21
415.0535158607524
 31
0.0
  0
LINE
  5
21B1
330
21AB
100
AcDbEntity
  8
0
 62
     0
100
AcDbLine
 10
343.6514956071993
 20
304.0535158607527
 30
0.0
 11
345.6514956071994
 21
306.0535158607527
 31
0.0
  0
LINE
  5
21B2
330
21AB
100
AcDbEntity
  8
0
 62
     0
100
AcDbLine
 10
452.6514956071991
 20
413.0535158607524
 30
0.0
 11
454.651495607199
 21
415.0535158607524
 31
0.0
  0
LINE
  5
21B3
330
21AB
100
AcDbEntity
  8
0
 62
     0
100
AcDbLine
 10
340.8230684824531
 20
304.0535158607527
 30
0.0
 11
342.8230684824531
 21
306.0535158607527
 31
0.0
  0
LINE
  5
21B4
330
21AB
100
AcDbEntity
  8
0
 62
     0
100
AcDbLine
 10
449.8230684824529
 20
413.0535158607524
 30
0.0
 11
451.8230684824528
 21
415.0535158607524
 31
0.0
  0
LINE
  5
21B5
330
21AB
100
AcDbEntity
  8
0
 62
     0
100
AcDbLine
 10
337.9946413577069
 20
304.0535158607527
 30
0.0
 11
339.994641357707
 21
306.0535158607527
 31
0.0
  0
LINE
  5
21B6
330
21AB
100
AcDbEntity
  8
0
 62
     0
100
AcDbLine
 10
446.9946413577067
 20
413.0535158607524
 30
0.0
 11
448.9946413577067
 21
415.0535158607524
 31
0.0
  0
LINE
  5
21B7
330
21AB
100
AcDbEntity
  8
0
 62
     0
100
AcDbLine
 10
335.1662142329608
 20
304.0535158607527
 30
0.0
 11
337.1662142329608
 21
306.0535158607527
 31
0.0
  0
LINE
  5
21B8
330
21AB
100
AcDbEntity
  8
0
 62
     0
100
AcDbLine
 10
444.1662142329605
 20
413.0535158607524
 30
0.0
 11
446.1662142329605
 21
415.0535158607524
 31
0.0
  0
LINE
  5
21B9
330
21AB
100
AcDbEntity
  8
0
 62
     0
100
AcDbLine
 10
332.3377871082146
 20
304.0535158607527
 30
0.0
 11
334.3377871082146
 21
306.0535158607527
 31
0.0
  0
LINE
  5
21BA
330
21AB
100
AcDbEntity
  8
0
 62
     0
100
AcDbLine
 10
441.3377871082143
 20
413.0535158607524
 30
0.0
 11
443.3377871082143
 21
415.0535158607524
 31
0.0
  0
LINE
  5
21BB
330
21AB
100
AcDbEntity
  8
0
 62
     0
100
AcDbLine
 10
329.5093599834684
 20
304.0535158607527
 30
0.0
 11
331.5093599834684
 21
306.0535158607527
 31
0.0
  0
LINE
  5
21BC
330
21AB
100
AcDbEntity
  8
0
 62
     0
100
AcDbLine
 10
438.5093599834681
 20
413.0535158607524
 30
0.0
 11
440.5093599834681
 21
415.0535158607524
 31
0.0
  0
LINE
  5
21BD
330
21AB
100
AcDbEntity
  8
0
 62
     0
100
AcDbLine
 10
326.6809328587222
 20
304.0535158607527
 30
0.0
 11
328.6809328587222
 21
306.0535158607527
 31
0.0
  0
LINE
  5
21BE
330
21AB
100
AcDbEntity
  8
0
 62
     0
100
AcDbLine
 10
435.6809328587219
 20
413.0535158607524
 30
0.0
 11
437.6809328587219
 21
415.0535158607524
 31
0.0
  0
LINE
  5
21BF
330
21AB
100
AcDbEntity
  8
0
 62
     0
100
AcDbLine
 10
323.852505733976
 20
304.0535158607527
 30
0.0
 11
325.8525057339761
 21
306.0535158607527
 31
0.0
  0
LINE
  5
21C0
330
21AB
100
AcDbEntity
  8
0
 62
     0
100
AcDbLine
 10
432.8525057339757
 20
413.0535158607524
 30
0.0
 11
434.8525057339757
 21
415.0535158607524
 31
0.0
  0
LINE
  5
21C1
330
21AB
100
AcDbEntity
  8
0
 62
     0
100
AcDbLine
 10
321.0240786092299
 20
304.0535158607527
 30
0.0
 11
323.0240786092299
 21
306.0535158607527
 31
0.0
  0
LINE
  5
21C2
330
21AB
100
AcDbEntity
  8
0
 62
     0
100
AcDbLine
 10
430.0240786092295
 20
413.0535158607524
 30
0.0
 11
432.0240786092295
 21
415.0535158607524
 31
0.0
  0
LINE
  5
21C3
330
21AB
100
AcDbEntity
  8
0
 62
     0
100
AcDbLine
 10
318.1956514844836
 20
304.0535158607527
 30
0.0
 11
320.1956514844837
 21
306.0535158607527
 31
0.0
  0
LINE
  5
21C4
330
21AB
100
AcDbEntity
  8
0
 62
     0
100
AcDbLine
 10
427.1956514844833
 20
413.0535158607524
 30
0.0
 11
429.1956514844834
 21
415.0535158607524
 31
0.0
  0
LINE
  5
21C5
330
21AB
100
AcDbEntity
  8
0
 62
     0
100
AcDbLine
 10
315.3672243597374
 20
304.0535158607527
 30
0.0
 11
317.3672243597374
 21
306.0535158607527
 31
0.0
  0
LINE
  5
21C6
330
21AB
100
AcDbEntity
  8
0
 62
     0
100
AcDbLine
 10
424.3672243597371
 20
413.0535158607524
 30
0.0
 11
426.3672243597372
 21
415.0535158607524
 31
0.0
  0
LINE
  5
21C7
330
21AB
100
AcDbEntity
  8
0
 62
     0
100
AcDbLine
 10
312.5387972349912
 20
304.0535158607527
 30
0.0
 11
314.5387972349912
 21
306.0535158607527
 31
0.0
  0
LINE
  5
21C8
330
21AB
100
AcDbEntity
  8
0
 62
     0
100
AcDbLine
 10
421.538797234991
 20
413.0535158607524
 30
0.0
 11
423.538797234991
 21
415.0535158607524
 31
0.0
  0
LINE
  5
21C9
330
21AB
100
AcDbEntity
  8
0
 62
     0
100
AcDbLine
 10
309.710370110245
 20
304.0535158607527
 30
0.0
 11
311.7103701102451
 21
306.0535158607527
 31
0.0
  0
LINE
  5
21CA
330
21AB
100
AcDbEntity
  8
0
 62
     0
100
AcDbLine
 10
418.6723429431794
 20
413.015488693687
 30
0.0
 11
420.7103701102448
 21
415.0535158607524
 31
0.0
  0
LINE
  5
21CB
330
21AB
100
AcDbEntity
  8
0
 62
     0
100
AcDbLine
 10
306.8819429854989
 20
304.0535158607527
 30
0.0
 11
308.8819429854989
 21
306.0535158607527
 31
0.0
  0
LINE
  5
21CC
330
21AB
100
AcDbEntity
  8
0
 62
     0
100
AcDbLine
 10
414.9204941641391
 20
412.092067039393
 30
0.0
 11
417.7564258184207
 21
414.9279986936745
 31
0.0
  0
LINE
  5
21CD
330
21AB
100
AcDbEntity
  8
0
 62
     0
100
AcDbLine
 10
304.0535158607527
 20
304.0535158607527
 30
0.0
 11
306.0535158607527
 21
306.0535158607527
 31
0.0
  0
LINE
  5
21CE
330
21AB
100
AcDbEntity
  8
0
 62
     0
100
AcDbLine
 10
409.7826034011309
 20
409.7826034011309
 30
0.0
 11
413.7701874373965
 21
413.7701874373965
 31
0.0
  0
LINE
  5
21CF
330
21AB
100
AcDbEntity
  8
0
 62
     0
100
AcDbLine
 10
301.2250887360065
 20
304.0535158607527
 30
0.0
 11
303.2250887360065
 21
306.0535158607527
 31
0.0
  0
LINE
  5
21D0
330
21AB
100
AcDbEntity
  8
0
 62
     0
100
AcDbLine
 10
404.640008628865
 20
407.4684357536112
 30
0.0
 11
408.6275926651306
 21
411.4560197898768
 31
0.0
  0
LINE
  5
21D1
330
21AB
100
AcDbEntity
  8
0
 62
     0
100
AcDbLine
 10
298.3966616112603
 20
304.0535158607527
 30
0.0
 11
300.3966616112604
 21
306.0535158607527
 31
0.0
  0
LINE
  5
21D2
330
21AB
100
AcDbEntity
  8
0
 62
     0
100
AcDbLine
 10
399.5044027733783
 20
405.1612570228706
 30
0.0
 11
403.4849978928647
 21
409.1418521423571
 31
0.0
  0
LINE
  5
21D3
330
21AB
100
AcDbEntity
  8
0
 62
     0
100
AcDbLine
 10
295.5682344865141
 20
304.0535158607527
 30
0.0
 11
297.5682344865141
 21
306.0535158607527
 31
0.0
  0
LINE
  5
21D4
330
21AB
100
AcDbEntity
  8
0
 62
     0
100
AcDbLine
 10
395.6617348372861
 20
404.1470162115246
 30
0.0
 11
398.3768338961914
 21
406.86211527043
 31
0.0
  0
LINE
  5
21D5
330
21AB
100
AcDbEntity
  8
0
 62
     0
100
AcDbLine
 10
292.7398073617679
 20
304.0535158607527
 30
0.0
 11
294.739807361768
 21
306.0535158607527
 31
0.0
  0
LINE
  5
21D6
330
21AB
100
AcDbEntity
  8
0
 62
     0
100
AcDbLine
 10
392.7398073617675
 20
404.0535158607522
 30
0.0
 11
394.7611092700457
 21
406.0748177690305
 31
0.0
  0
LINE
  5
21D7
330
21AB
100
AcDbEntity
  8
0
 62
     0
100
AcDbLine
 10
289.9113802370217
 20
304.0535158607527
 30
0.0
 11
291.9113802370218
 21
306.0535158607527
 31
0.0
  0
LINE
  5
21D8
330
21AB
100
AcDbEntity
  8
0
 62
     0
100
AcDbLine
 10
389.9113802370214
 20
404.0535158607523
 30
0.0
 11
391.9113802370214
 21
406.0535158607523
 31
0.0
  0
LINE
  5
21D9
330
21AB
100
AcDbEntity
  8
0
 62
     0
100
AcDbLine
 10
287.0829531122756
 20
304.0535158607527
 30
0.0
 11
289.0829531122756
 21
306.0535158607527
 31
0.0
  0
LINE
  5
21DA
330
21AB
100
AcDbEntity
  8
0
 62
     0
100
AcDbLine
 10
387.0829531122751
 20
404.0535158607523
 30
0.0
 11
389.0829531122752
 21
406.0535158607523
 31
0.0
  0
LINE
  5
21DB
330
21AB
100
AcDbEntity
  8
0
 62
     0
100
AcDbLine
 10
284.2545259875294
 20
304.0535158607527
 30
0.0
 11
286.2545259875294
 21
306.0535158607527
 31
0.0
  0
LINE
  5
21DC
330
21AB
100
AcDbEntity
  8
0
 62
     0
100
AcDbLine
 10
384.254525987529
 20
404.0535158607523
 30
0.0
 11
386.254525987529
 21
406.0535158607523
 31
0.0
  0
LINE
  5
21DD
330
21AB
100
AcDbEntity
  8
0
 62
     0
100
AcDbLine
 10
281.4260988627832
 20
304.0535158607527
 30
0.0
 11
283.4260988627832
 21
306.0535158607527
 31
0.0
  0
LINE
  5
21DE
330
21AB
100
AcDbEntity
  8
0
 62
     0
100
AcDbLine
 10
381.4260988627828
 20
404.0535158607523
 30
0.0
 11
383.4260988627828
 21
406.0535158607523
 31
0.0
  0
LINE
  5
21DF
330
21AB
100
AcDbEntity
  8
0
 62
     0
100
AcDbLine
 10
278.597671738037
 20
304.0535158607527
 30
0.0
 11
280.597671738037
 21
306.0535158607527
 31
0.0
  0
LINE
  5
21E0
330
21AB
100
AcDbEntity
  8
0
 62
     0
100
AcDbLine
 10
378.5976717380366
 20
404.0535158607523
 30
0.0
 11
380.5976717380366
 21
406.0535158607523
 31
0.0
  0
LINE
  5
21E1
330
21AB
100
AcDbEntity
  8
0
 62
     0
100
AcDbLine
 10
275.7692446132907
 20
304.0535158607527
 30
0.0
 11
277.7692446132908
 21
306.0535158607527
 31
0.0
  0
LINE
  5
21E2
330
21AB
100
AcDbEntity
  8
0
 62
     0
100
AcDbLine
 10
375.7692446132904
 20
404.0535158607523
 30
0.0
 11
377.7692446132904
 21
406.0535158607523
 31
0.0
  0
LINE
  5
21E3
330
21AB
100
AcDbEntity
  8
0
 62
     0
100
AcDbLine
 10
272.9408174885446
 20
304.0535158607527
 30
0.0
 11
274.9408174885447
 21
306.0535158607527
 31
0.0
  0
LINE
  5
21E4
330
21AB
100
AcDbEntity
  8
0
 62
     0
100
AcDbLine
 10
372.9408174885442
 20
404.0535158607523
 30
0.0
 11
374.9408174885443
 21
406.0535158607523
 31
0.0
  0
LINE
  5
21E5
330
21AB
100
AcDbEntity
  8
0
 62
     0
100
AcDbLine
 10
270.1123903637984
 20
304.0535158607527
 30
0.0
 11
272.1123903637984
 21
306.0535158607527
 31
0.0
  0
LINE
  5
21E6
330
21AB
100
AcDbEntity
  8
0
 62
     0
100
AcDbLine
 10
370.1123903637981
 20
404.0535158607523
 30
0.0
 11
372.1123903637981
 21
406.0535158607523
 31
0.0
  0
LINE
  5
21E7
330
21AB
100
AcDbEntity
  8
0
 62
     0
100
AcDbLine
 10
267.2839632390522
 20
304.0535158607527
 30
0.0
 11
269.2839632390523
 21
306.0535158607527
 31
0.0
  0
LINE
  5
21E8
330
21AB
100
AcDbEntity
  8
0
 62
     0
100
AcDbLine
 10
367.2839632390518
 20
404.0535158607523
 30
0.0
 11
369.2839632390519
 21
406.0535158607523
 31
0.0
  0
LINE
  5
21E9
330
21AB
100
AcDbEntity
  8
0
 62
     0
100
AcDbLine
 10
264.455536114306
 20
304.0535158607527
 30
0.0
 11
266.4555361143061
 21
306.0535158607527
 31
0.0
  0
LINE
  5
21EA
330
21AB
100
AcDbEntity
  8
0
 62
     0
100
AcDbLine
 10
364.4555361143057
 20
404.0535158607523
 30
0.0
 11
366.4555361143057
 21
406.0535158607523
 31
0.0
  0
LINE
  5
21EB
330
21AB
100
AcDbEntity
  8
0
 62
     0
100
AcDbLine
 10
261.6271089895598
 20
304.0535158607527
 30
0.0
 11
263.6271089895599
 21
306.0535158607527
 31
0.0
  0
LINE
  5
21EC
330
21AB
100
AcDbEntity
  8
0
 62
     0
100
AcDbLine
 10
361.6271089895595
 20
404.0535158607523
 30
0.0
 11
363.6271089895595
 21
406.0535158607523
 31
0.0
  0
LINE
  5
21ED
330
21AB
100
AcDbEntity
  8
0
 62
     0
100
AcDbLine
 10
258.7986818648137
 20
304.0535158607527
 30
0.0
 11
260.7986818648137
 21
306.0535158607527
 31
0.0
  0
LINE
  5
21EE
330
21AB
100
AcDbEntity
  8
0
 62
     0
100
AcDbLine
 10
358.7986818648133
 20
404.0535158607523
 30
0.0
 11
360.7986818648133
 21
406.0535158607524
 31
0.0
  0
LINE
  5
21EF
330
21AB
100
AcDbEntity
  8
0
 62
     0
100
AcDbLine
 10
255.9702547400675
 20
304.0535158607527
 30
0.0
 11
257.9702547400675
 21
306.0535158607527
 31
0.0
  0
LINE
  5
21F0
330
21AB
100
AcDbEntity
  8
0
 62
     0
100
AcDbLine
 10
355.9702547400671
 20
404.0535158607523
 30
0.0
 11
357.9702547400672
 21
406.0535158607524
 31
0.0
  0
LINE
  5
21F1
330
21AB
100
AcDbEntity
  8
0
 62
     0
100
AcDbLine
 10
253.1418276153213
 20
304.0535158607527
 30
0.0
 11
255.1418276153214
 21
306.0535158607527
 31
0.0
  0
LINE
  5
21F2
330
21AB
100
AcDbEntity
  8
0
 62
     0
100
AcDbLine
 10
353.141827615321
 20
404.0535158607523
 30
0.0
 11
355.141827615321
 21
406.0535158607524
 31
0.0
  0
LINE
  5
21F3
330
21AB
100
AcDbEntity
  8
0
 62
     0
100
AcDbLine
 10
250.3134004905751
 20
304.0535158607527
 30
0.0
 11
252.3134004905752
 21
306.0535158607528
 31
0.0
  0
LINE
  5
21F4
330
21AB
100
AcDbEntity
  8
0
 62
     0
100
AcDbLine
 10
350.3134004905748
 20
404.0535158607523
 30
0.0
 11
352.3134004905748
 21
406.0535158607524
 31
0.0
  0
LINE
  5
21F5
330
21AB
100
AcDbEntity
  8
0
 62
     0
100
AcDbLine
 10
247.4849733658289
 20
304.0535158607527
 30
0.0
 11
249.4849733658289
 21
306.0535158607528
 31
0.0
  0
LINE
  5
21F6
330
21AB
100
AcDbEntity
  8
0
 62
     0
100
AcDbLine
 10
347.4849733658286
 20
404.0535158607523
 30
0.0
 11
349.4849733658286
 21
406.0535158607524
 31
0.0
  0
LINE
  5
21F7
330
21AB
100
AcDbEntity
  8
0
 62
     0
100
AcDbLine
 10
244.6565462410827
 20
304.0535158607527
 30
0.0
 11
246.6565462410827
 21
306.0535158607528
 31
0.0
  0
LINE
  5
21F8
330
21AB
100
AcDbEntity
  8
0
 62
     0
100
AcDbLine
 10
344.6565462410824
 20
404.0535158607523
 30
0.0
 11
346.6565462410823
 21
406.0535158607524
 31
0.0
  0
LINE
  5
21F9
330
21AB
100
AcDbEntity
  8
0
 62
     0
100
AcDbLine
 10
241.8281191163365
 20
304.0535158607527
 30
0.0
 11
243.8281191163366
 21
306.0535158607528
 31
0.0
  0
LINE
  5
21FA
330
21AB
100
AcDbEntity
  8
0
 62
     0
100
AcDbLine
 10
341.8281191163362
 20
404.0535158607523
 30
0.0
 11
343.8281191163362
 21
406.0535158607524
 31
0.0
  0
LINE
  5
21FB
330
21AB
100
AcDbEntity
  8
0
 62
     0
100
AcDbLine
 10
238.9996919915903
 20
304.0535158607527
 30
0.0
 11
240.9996919915904
 21
306.0535158607528
 31
0.0
  0
LINE
  5
21FC
330
21AB
100
AcDbEntity
  8
0
 62
     0
100
AcDbLine
 10
338.99969199159
 20
404.0535158607523
 30
0.0
 11
340.99969199159
 21
406.0535158607524
 31
0.0
  0
LINE
  5
21FD
330
21AB
100
AcDbEntity
  8
0
 62
     0
100
AcDbLine
 10
236.3684292432804
 20
304.2506802371889
 30
0.0
 11
238.2145539362749
 21
306.0968049301834
 31
0.0
  0
LINE
  5
21FE
330
21AB
100
AcDbEntity
  8
0
 62
     0
100
AcDbLine
 10
336.1712648668438
 20
404.0535158607523
 30
0.0
 11
338.1712648668438
 21
406.0535158607524
 31
0.0
  0
LINE
  5
21FF
330
21AB
100
AcDbEntity
  8
0
 62
     0
100
AcDbLine
 10
233.7675496023141
 20
304.4782277209689
 30
0.0
 11
235.6136742953086
 21
306.3243524139633
 31
0.0
  0
LINE
  5
2200
330
21AB
100
AcDbEntity
  8
0
 62
     0
100
AcDbLine
 10
333.3428377420976
 20
404.0535158607523
 30
0.0
 11
335.3428377420976
 21
406.0535158607524
 31
0.0
  0
LINE
  5
2201
330
21AB
100
AcDbEntity
  8
0
 62
     0
100
AcDbLine
 10
231.1666699613478
 20
304.7057752047487
 30
0.0
 11
233.0127946543423
 21
306.5518998977432
 31
0.0
  0
LINE
  5
2202
330
21AB
100
AcDbEntity
  8
0
 62
     0
100
AcDbLine
 10
330.5144106173515
 20
404.0535158607523
 30
0.0
 11
332.5144106173515
 21
406.0535158607524
 31
0.0
  0
LINE
  5
2203
330
21AB
100
AcDbEntity
  8
0
 62
     0
100
AcDbLine
 10
228.5657903203816
 20
304.9333226885287
 30
0.0
 11
230.411915013376
 21
306.7794473815232
 31
0.0
  0
LINE
  5
2204
330
21AB
100
AcDbEntity
  8
0
 62
     0
100
AcDbLine
 10
327.6859834926053
 20
404.0535158607523
 30
0.0
 11
329.6859834926053
 21
406.0535158607524
 31
0.0
  0
LINE
  5
2205
330
21AB
100
AcDbEntity
  8
0
 62
     0
100
AcDbLine
 10
226.6220283781873
 20
305.8179878710806
 30
0.0
 11
227.8110353724097
 21
307.006994865303
 31
0.0
  0
LINE
  5
2206
330
21AB
100
AcDbEntity
  8
0
 62
     0
100
AcDbLine
 10
324.8575563678591
 20
404.0535158607523
 30
0.0
 11
326.8575563678591
 21
406.0535158607524
 31
0.0
  0
LINE
  5
2207
330
21AB
100
AcDbEntity
  8
0
 62
     0
100
AcDbLine
 10
322.0291292431129
 20
404.0535158607523
 30
0.0
 11
324.0291292431129
 21
406.0535158607524
 31
0.0
  0
LINE
  5
2208
330
21AB
100
AcDbEntity
  8
0
 62
     0
100
AcDbLine
 10
319.2007021183667
 20
404.0535158607523
 30
0.0
 11
321.2007021183667
 21
406.0535158607524
 31
0.0
  0
LINE
  5
2209
330
21AB
100
AcDbEntity
  8
0
 62
     0
100
AcDbLine
 10
316.3722749936205
 20
404.0535158607523
 30
0.0
 11
318.3722749936205
 21
406.0535158607524
 31
0.0
  0
LINE
  5
220A
330
21AB
100
AcDbEntity
  8
0
 62
     0
100
AcDbLine
 10
313.5438478688744
 20
404.0535158607524
 30
0.0
 11
315.5438478688744
 21
406.0535158607524
 31
0.0
  0
LINE
  5
220B
330
21AB
100
AcDbEntity
  8
0
 62
     0
100
AcDbLine
 10
310.7154207441281
 20
404.0535158607524
 30
0.0
 11
312.7154207441281
 21
406.0535158607524
 31
0.0
  0
LINE
  5
220C
330
21AB
100
AcDbEntity
  8
0
 62
     0
100
AcDbLine
 10
307.886993619382
 20
404.0535158607524
 30
0.0
 11
309.886993619382
 21
406.0535158607524
 31
0.0
  0
LINE
  5
220D
330
21AB
100
AcDbEntity
  8
0
 62
     0
100
AcDbLine
 10
305.0585664946358
 20
404.0535158607524
 30
0.0
 11
307.0585664946358
 21
406.0535158607524
 31
0.0
  0
LINE
  5
220E
330
21AB
100
AcDbEntity
  8
0
 62
     0
100
AcDbLine
 10
302.2301393698896
 20
404.0535158607524
 30
0.0
 11
304.2301393698896
 21
406.0535158607524
 31
0.0
  0
LINE
  5
220F
330
21AB
100
AcDbEntity
  8
0
 62
     0
100
AcDbLine
 10
299.4017122451434
 20
404.0535158607524
 30
0.0
 11
301.4017122451434
 21
406.0535158607524
 31
0.0
  0
LINE
  5
2210
330
21AB
100
AcDbEntity
  8
0
 62
     0
100
AcDbLine
 10
296.5732851203972
 20
404.0535158607524
 30
0.0
 11
298.5732851203973
 21
406.0535158607524
 31
0.0
  0
LINE
  5
2211
330
21AB
100
AcDbEntity
  8
0
 62
     0
100
AcDbLine
 10
293.7448579956511
 20
404.0535158607524
 30
0.0
 11
295.7448579956511
 21
406.0535158607524
 31
0.0
  0
LINE
  5
2212
330
21AB
100
AcDbEntity
  8
0
 62
     0
100
AcDbLine
 10
290.9164308709048
 20
404.0535158607524
 30
0.0
 11
292.9164308709049
 21
406.0535158607524
 31
0.0
  0
LINE
  5
2213
330
21AB
100
AcDbEntity
  8
0
 62
     0
100
AcDbLine
 10
288.0880037461587
 20
404.0535158607524
 30
0.0
 11
290.0880037461586
 21
406.0535158607524
 31
0.0
  0
LINE
  5
2214
330
21AB
100
AcDbEntity
  8
0
 62
     0
100
AcDbLine
 10
285.2595766214125
 20
404.0535158607524
 30
0.0
 11
287.2595766214125
 21
406.0535158607524
 31
0.0
  0
LINE
  5
2215
330
21AB
100
AcDbEntity
  8
0
 62
     0
100
AcDbLine
 10
282.4311494966663
 20
404.0535158607524
 30
0.0
 11
284.4311494966663
 21
406.0535158607525
 31
0.0
  0
LINE
  5
2216
330
21AB
100
AcDbEntity
  8
0
 62
     0
100
AcDbLine
 10
279.6027223719201
 20
404.0535158607524
 30
0.0
 11
281.6027223719201
 21
406.0535158607525
 31
0.0
  0
LINE
  5
2217
330
21AB
100
AcDbEntity
  8
0
 62
     0
100
AcDbLine
 10
276.7742952471739
 20
404.0535158607524
 30
0.0
 11
278.7742952471739
 21
406.0535158607525
 31
0.0
  0
LINE
  5
2218
330
21AB
100
AcDbEntity
  8
0
 62
     0
100
AcDbLine
 10
273.9458681224277
 20
404.0535158607524
 30
0.0
 11
275.9458681224277
 21
406.0535158607525
 31
0.0
  0
LINE
  5
2219
330
21AB
100
AcDbEntity
  8
0
 62
     0
100
AcDbLine
 10
271.1174409976816
 20
404.0535158607524
 30
0.0
 11
273.1174409976816
 21
406.0535158607525
 31
0.0
  0
LINE
  5
221A
330
21AB
100
AcDbEntity
  8
0
 62
     0
100
AcDbLine
 10
268.2890138729354
 20
404.0535158607524
 30
0.0
 11
270.2890138729354
 21
406.0535158607525
 31
0.0
  0
LINE
  5
221B
330
21AB
100
AcDbEntity
  8
0
 62
     0
100
AcDbLine
 10
265.4605867481892
 20
404.0535158607524
 30
0.0
 11
267.4605867481892
 21
406.0535158607525
 31
0.0
  0
LINE
  5
221C
330
21AB
100
AcDbEntity
  8
0
 62
     0
100
AcDbLine
 10
262.632159623443
 20
404.0535158607524
 30
0.0
 11
264.632159623443
 21
406.0535158607525
 31
0.0
  0
LINE
  5
221D
330
21AB
100
AcDbEntity
  8
0
 62
     0
100
AcDbLine
 10
259.8037324986968
 20
404.0535158607524
 30
0.0
 11
261.8037324986968
 21
406.0535158607525
 31
0.0
  0
LINE
  5
221E
330
21AB
100
AcDbEntity
  8
0
 62
     0
100
AcDbLine
 10
256.9753053739506
 20
404.0535158607524
 30
0.0
 11
258.9753053739506
 21
406.0535158607525
 31
0.0
  0
LINE
  5
221F
330
21AB
100
AcDbEntity
  8
0
 62
     0
100
AcDbLine
 10
254.1468782492044
 20
404.0535158607524
 30
0.0
 11
256.1468782492045
 21
406.0535158607525
 31
0.0
  0
LINE
  5
2220
330
21AB
100
AcDbEntity
  8
0
 62
     0
100
AcDbLine
 10
251.3184511244582
 20
404.0535158607524
 30
0.0
 11
253.3184511244582
 21
406.0535158607525
 31
0.0
  0
LINE
  5
2221
330
21AB
100
AcDbEntity
  8
0
 62
     0
100
AcDbLine
 10
248.490023999712
 20
404.0535158607524
 30
0.0
 11
250.490023999712
 21
406.0535158607525
 31
0.0
  0
LINE
  5
2222
330
21AB
100
AcDbEntity
  8
0
 62
     0
100
AcDbLine
 10
245.6615968749659
 20
404.0535158607524
 30
0.0
 11
247.6615968749659
 21
406.0535158607525
 31
0.0
  0
LINE
  5
2223
330
21AB
100
AcDbEntity
  8
0
 62
     0
100
AcDbLine
 10
242.8331697502197
 20
404.0535158607524
 30
0.0
 11
244.8331697502197
 21
406.0535158607526
 31
0.0
  0
LINE
  5
2224
330
21AB
100
AcDbEntity
  8
0
 62
     0
100
AcDbLine
 10
240.0047426254735
 20
404.0535158607524
 30
0.0
 11
242.0047426254735
 21
406.0535158607526
 31
0.0
  0
LINE
  5
2225
330
21AB
100
AcDbEntity
  8
0
 62
     0
100
AcDbLine
 10
237.0293330390123
 20
403.9065333990374
 30
0.0
 11
239.1763155007273
 21
406.0535158607526
 31
0.0
  0
LINE
  5
2226
330
21AB
100
AcDbEntity
  8
0
 62
     0
100
AcDbLine
 10
233.9297253829855
 20
403.635352867757
 30
0.0
 11
236.1298511182386
 21
405.83547860301
 31
0.0
  0
LINE
  5
2227
330
21AB
100
AcDbEntity
  8
0
 62
     0
100
AcDbLine
 10
230.8301177269589
 20
403.3641723364764
 30
0.0
 11
233.030243462212
 21
405.5642980717295
 31
0.0
  0
LINE
  5
2228
330
21AB
100
AcDbEntity
  8
0
 62
     0
100
AcDbLine
 10
227.7305100709322
 20
403.092991805196
 30
0.0
 11
229.9306358061853
 21
405.293117540449
 31
0.0
  0
LINE
  5
2229
330
21AB
100
AcDbEntity
  8
0
 62
     0
100
AcDbLine
 10
226.6220283781873
 20
404.8129372371972
 30
0.0
 11
226.8310281501586
 21
405.0219370091686
 31
0.0
  0
LINE
  5
222A
330
21AB
100
AcDbEntity
  8
0
 62
     0
100
AcDbLine
 10
352.1367769814379
 20
304.0535158607527
 30
0.0
 11
354.1367769814379
 21
306.0535158607527
 31
0.0
  0
LINE
  5
222B
330
21AB
100
AcDbEntity
  8
0
 62
     0
100
AcDbLine
 10
461.1367769814377
 20
413.0535158607524
 30
0.0
 11
463.1367769814375
 21
415.0535158607524
 31
0.0
  0
LINE
  5
222C
330
21AB
100
AcDbEntity
  8
0
 62
     0
100
AcDbLine
 10
354.9652041061841
 20
304.0535158607527
 30
0.0
 11
356.9652041061841
 21
306.0535158607527
 31
0.0
  0
LINE
  5
222D
330
21AB
100
AcDbEntity
  8
0
 62
     0
100
AcDbLine
 10
463.9652041061839
 20
413.0535158607524
 30
0.0
 11
465.9652041061838
 21
415.0535158607524
 31
0.0
  0
LINE
  5
222E
330
21AB
100
AcDbEntity
  8
0
 62
     0
100
AcDbLine
 10
357.7936312309303
 20
304.0535158607527
 30
0.0
 11
359.7936312309303
 21
306.0535158607527
 31
0.0
  0
LINE
  5
222F
330
21AB
100
AcDbEntity
  8
0
 62
     0
100
AcDbLine
 10
466.79363123093
 20
413.0535158607524
 30
0.0
 11
468.79363123093
 21
415.0535158607524
 31
0.0
  0
LINE
  5
2230
330
21AB
100
AcDbEntity
  8
0
 62
     0
100
AcDbLine
 10
360.6220583556765
 20
304.0535158607527
 30
0.0
 11
362.6220583556765
 21
306.0535158607527
 31
0.0
  0
LINE
  5
2231
330
21AB
100
AcDbEntity
  8
0
 62
     0
100
AcDbLine
 10
469.6220583556762
 20
413.0535158607524
 30
0.0
 11
471.6220583556761
 21
415.0535158607524
 31
0.0
  0
LINE
  5
2232
330
21AB
100
AcDbEntity
  8
0
 62
     0
100
AcDbLine
 10
363.4504854804227
 20
304.0535158607527
 30
0.0
 11
365.4504854804227
 21
306.0535158607527
 31
0.0
  0
LINE
  5
2233
330
21AB
100
AcDbEntity
  8
0
 62
     0
100
AcDbLine
 10
472.4504854804224
 20
413.0535158607524
 30
0.0
 11
474.4504854804223
 21
415.0535158607524
 31
0.0
  0
LINE
  5
2234
330
21AB
100
AcDbEntity
  8
0
 62
     0
100
AcDbLine
 10
366.2789126051688
 20
304.0535158607527
 30
0.0
 11
368.2789126051688
 21
306.0535158607527
 31
0.0
  0
LINE
  5
2235
330
21AB
100
AcDbEntity
  8
0
 62
     0
100
AcDbLine
 10
475.2789126051686
 20
413.0535158607524
 30
0.0
 11
477.2789126051685
 21
415.0535158607524
 31
0.0
  0
LINE
  5
2236
330
21AB
100
AcDbEntity
  8
0
 62
     0
100
AcDbLine
 10
369.1073397299151
 20
304.0535158607527
 30
0.0
 11
371.1073397299151
 21
306.0535158607527
 31
0.0
  0
LINE
  5
2237
330
21AB
100
AcDbEntity
  8
0
 62
     0
100
AcDbLine
 10
478.1073397299148
 20
413.0535158607524
 30
0.0
 11
480.1073397299147
 21
415.0535158607524
 31
0.0
  0
LINE
  5
2238
330
21AB
100
AcDbEntity
  8
0
 62
     0
100
AcDbLine
 10
371.9357668546612
 20
304.0535158607527
 30
0.0
 11
373.9357668546612
 21
306.0535158607527
 31
0.0
  0
LINE
  5
2239
330
21AB
100
AcDbEntity
  8
0
 62
     0
100
AcDbLine
 10
480.9357668546609
 20
413.0535158607524
 30
0.0
 11
482.9357668546609
 21
415.0535158607524
 31
0.0
  0
LINE
  5
223A
330
21AB
100
AcDbEntity
  8
0
 62
     0
100
AcDbLine
 10
374.7641939794074
 20
304.0535158607527
 30
0.0
 11
376.7641939794074
 21
306.0535158607527
 31
0.0
  0
LINE
  5
223B
330
21AB
100
AcDbEntity
  8
0
 62
     0
100
AcDbLine
 10
483.7641939794072
 20
413.0535158607524
 30
0.0
 11
485.7641939794071
 21
415.0535158607524
 31
0.0
  0
LINE
  5
223C
330
21AB
100
AcDbEntity
  8
0
 62
     0
100
AcDbLine
 10
377.5926211041536
 20
304.0535158607527
 30
0.0
 11
379.5926211041536
 21
306.0535158607527
 31
0.0
  0
LINE
  5
223D
330
21AB
100
AcDbEntity
  8
0
 62
     0
100
AcDbLine
 10
486.5926211041533
 20
413.0535158607524
 30
0.0
 11
488.5926211041533
 21
415.0535158607524
 31
0.0
  0
LINE
  5
223E
330
21AB
100
AcDbEntity
  8
0
 62
     0
100
AcDbLine
 10
380.4210482288998
 20
304.0535158607527
 30
0.0
 11
382.4210482288998
 21
306.0535158607527
 31
0.0
  0
LINE
  5
223F
330
21AB
100
AcDbEntity
  8
0
 62
     0
100
AcDbLine
 10
489.4210482288995
 20
413.0535158607524
 30
0.0
 11
491.4210482288995
 21
415.0535158607524
 31
0.0
  0
LINE
  5
2240
330
21AB
100
AcDbEntity
  8
0
 62
     0
100
AcDbLine
 10
383.249475353646
 20
304.0535158607527
 30
0.0
 11
385.2494753536459
 21
306.0535158607527
 31
0.0
  0
LINE
  5
2241
330
21AB
100
AcDbEntity
  8
0
 62
     0
100
AcDbLine
 10
492.2494753536457
 20
413.0535158607524
 30
0.0
 11
494.2494753536457
 21
415.0535158607524
 31
0.0
  0
LINE
  5
2242
330
21AB
100
AcDbEntity
  8
0
 62
     0
100
AcDbLine
 10
386.0779024783921
 20
304.0535158607527
 30
0.0
 11
388.0779024783922
 21
306.0535158607527
 31
0.0
  0
LINE
  5
2243
330
21AB
100
AcDbEntity
  8
0
 62
     0
100
AcDbLine
 10
495.0779024783919
 20
413.0535158607524
 30
0.0
 11
497.0779024783919
 21
415.0535158607524
 31
0.0
  0
LINE
  5
2244
330
21AB
100
AcDbEntity
  8
0
 62
     0
100
AcDbLine
 10
388.9063296031384
 20
304.0535158607527
 30
0.0
 11
390.9063296031384
 21
306.0535158607527
 31
0.0
  0
LINE
  5
2245
330
21AB
100
AcDbEntity
  8
0
 62
     0
100
AcDbLine
 10
497.9063296031381
 20
413.0535158607524
 30
0.0
 11
499.9063296031381
 21
415.0535158607524
 31
0.0
  0
LINE
  5
2246
330
21AB
100
AcDbEntity
  8
0
 62
     0
100
AcDbLine
 10
391.7347567278845
 20
304.0535158607527
 30
0.0
 11
393.7347567278846
 21
306.0535158607527
 31
0.0
  0
LINE
  5
2247
330
21AB
100
AcDbEntity
  8
0
 62
     0
100
AcDbLine
 10
500.7347567278842
 20
413.0535158607524
 30
0.0
 11
502.7347567278842
 21
415.0535158607524
 31
0.0
  0
LINE
  5
2248
330
21AB
100
AcDbEntity
  8
0
 62
     0
100
AcDbLine
 10
394.5525069372787
 20
304.0428389454006
 30
0.0
 11
396.3691558108324
 21
305.8594878189544
 31
0.0
  0
LINE
  5
2249
330
21AB
100
AcDbEntity
  8
0
 62
     0
100
AcDbLine
 10
503.5631838526305
 20
413.0535158607524
 30
0.0
 11
505.5631838526304
 21
415.0535158607524
 31
0.0
  0
LINE
  5
224A
330
21AB
100
AcDbEntity
  8
0
 62
     0
100
AcDbLine
 10
397.0178884672529
 20
303.6797933506286
 30
0.0
 11
398.6225841046853
 21
305.284488988061
 31
0.0
  0
LINE
  5
224B
330
21AB
100
AcDbEntity
  8
0
 62
     0
100
AcDbLine
 10
506.3916109773767
 20
413.0535158607524
 30
0.0
 11
508.3916109773766
 21
415.0535158607524
 31
0.0
  0
LINE
  5
224C
330
21AB
100
AcDbEntity
  8
0
 62
     0
100
AcDbLine
 10
399.1034143946948
 20
302.9368921533243
 30
0.0
 11
400.6159462705197
 21
304.4494240291492
 31
0.0
  0
LINE
  5
224D
330
21AB
100
AcDbEntity
  8
0
 62
     0
100
AcDbLine
 10
509.2200381021228
 20
413.0535158607524
 30
0.0
 11
511.2200381021228
 21
415.0535158607524
 31
0.0
  0
LINE
  5
224E
330
21AB
100
AcDbEntity
  8
0
 62
     0
100
AcDbLine
 10
401.0540537910714
 20
302.0591044249548
 30
0.0
 11
402.5665856668963
 21
303.5716363007797
 31
0.0
  0
LINE
  5
224F
330
21AB
100
AcDbEntity
  8
0
 62
     0
100
AcDbLine
 10
512.048465226869
 20
413.0535158607524
 30
0.0
 11
514.0484652268689
 21
415.0535158607524
 31
0.0
  0
LINE
  5
2250
330
21AB
100
AcDbEntity
  8
0
 62
     0
100
AcDbLine
 10
403.0046931874481
 20
301.1813166965853
 30
0.0
 11
404.5172250632729
 21
302.6938485724102
 31
0.0
  0
LINE
  5
2251
330
21AB
100
AcDbEntity
  8
0
 62
     0
100
AcDbLine
 10
514.8768923516152
 20
413.0535158607524
 30
0.0
 11
516.8768923516152
 21
415.0535158607524
 31
0.0
  0
LINE
  5
2252
330
21AB
100
AcDbEntity
  8
0
 62
     0
100
AcDbLine
 10
404.9553325838247
 20
300.3035289682157
 30
0.0
 11
406.4678644596496
 21
301.8160608440406
 31
0.0
  0
LINE
  5
2253
330
21AB
100
AcDbEntity
  8
0
 62
     0
100
AcDbLine
 10
517.7053194763614
 20
413.0535158607524
 30
0.0
 11
519.7053194763614
 21
415.0535158607524
 31
0.0
  0
LINE
  5
2254
330
21AB
100
AcDbEntity
  8
0
 62
     0
100
AcDbLine
 10
406.9059719802014
 20
299.4257412398462
 30
0.0
 11
408.4185038560263
 21
300.9382731156711
 31
0.0
  0
LINE
  5
2255
330
21AB
100
AcDbEntity
  8
0
 62
     0
100
AcDbLine
 10
520.5337466011076
 20
413.0535158607524
 30
0.0
 11
522.5337466011076
 21
415.0535158607524
 31
0.0
  0
LINE
  5
2256
330
21AB
100
AcDbEntity
  8
0
 62
     0
100
AcDbLine
 10
408.8566113765781
 20
298.5479535114767
 30
0.0
 11
410.3691432524029
 21
300.0604853873016
 31
0.0
  0
LINE
  5
2257
330
21AB
100
AcDbEntity
  8
0
 62
     0
100
AcDbLine
 10
523.3621737258538
 20
413.0535158607524
 30
0.0
 11
525.3621737258537
 21
415.0535158607524
 31
0.0
  0
LINE
  5
2258
330
21AB
100
AcDbEntity
  8
0
 62
     0
100
AcDbLine
 10
410.8072507729548
 20
297.6701657831072
 30
0.0
 11
412.3197826487796
 21
299.1826976589321
 31
0.0
  0
LINE
  5
2259
330
21AB
100
AcDbEntity
  8
0
 62
     0
100
AcDbLine
 10
526.1906008506
 20
413.0535158607524
 30
0.0
 11
528.1906008505999
 21
415.0535158607523
 31
0.0
  0
LINE
  5
225A
330
21AB
100
AcDbEntity
  8
0
 62
     0
100
AcDbLine
 10
412.7578901693314
 20
296.7923780547377
 30
0.0
 11
414.2704220451563
 21
298.3049099305625
 31
0.0
  0
LINE
  5
225B
330
21AB
100
AcDbEntity
  8
0
 62
     0
100
AcDbLine
 10
529.0190279753463
 20
413.0535158607524
 30
0.0
 11
531.0190279753461
 21
415.0535158607523
 31
0.0
  0
LINE
  5
225C
330
21AB
100
AcDbEntity
  8
0
 62
     0
100
AcDbLine
 10
414.7313155803844
 20
295.9373763410445
 30
0.0
 11
416.3138648120037
 21
297.5199255726638
 31
0.0
  0
LINE
  5
225D
330
21AB
100
AcDbEntity
  8
0
 62
     0
100
AcDbLine
 10
531.8474551000924
 20
413.0535158607524
 30
0.0
 11
533.8474551000923
 21
415.0535158607523
 31
0.0
  0
LINE
  5
225E
330
21AB
100
AcDbEntity
  8
0
 62
     0
100
AcDbLine
 10
416.9367724220433
 20
295.3144060579571
 30
0.0
 11
418.7108953935584
 21
297.0885290294723
 31
0.0
  0
LINE
  5
225F
330
21AB
100
AcDbEntity
  8
0
 62
     0
100
AcDbLine
 10
534.6758822248386
 20
413.0535158607524
 30
0.0
 11
536.6758822248384
 21
415.0535158607523
 31
0.0
  0
LINE
  5
2260
330
21AB
100
AcDbEntity
  8
0
 62
     0
100
AcDbLine
 10
419.5048415627467
 20
295.0540480739144
 30
0.0
 11
421.5043093495848
 21
297.0535158607526
 31
0.0
  0
LINE
  5
2261
330
21AB
100
AcDbEntity
  8
0
 62
     0
100
AcDbLine
 10
537.5043093495848
 20
413.0535158607524
 30
0.0
 11
539.5043093495846
 21
415.0535158607523
 31
0.0
  0
LINE
  5
2262
330
21AB
100
AcDbEntity
  8
0
 62
     0
100
AcDbLine
 10
422.3327364743311
 20
295.0535158607526
 30
0.0
 11
424.332736474331
 21
297.0535158607526
 31
0.0
  0
LINE
  5
2263
330
21AB
100
AcDbEntity
  8
0
 62
     0
100
AcDbLine
 10
540.332736474331
 20
413.0535158607524
 30
0.0
 11
542.3327364743308
 21
415.0535158607523
 31
0.0
  0
LINE
  5
2264
330
21AB
100
AcDbEntity
  8
0
 62
     0
100
AcDbLine
 10
425.1611635990773
 20
295.0535158607526
 30
0.0
 11
427.1611635990772
 21
297.0535158607526
 31
0.0
  0
LINE
  5
2265
330
21AB
100
AcDbEntity
  8
0
 62
     0
100
AcDbLine
 10
543.1611635990772
 20
413.0535158607524
 30
0.0
 11
545.161163599077
 21
415.0535158607523
 31
0.0
  0
LINE
  5
2266
330
21AB
100
AcDbEntity
  8
0
 62
     0
100
AcDbLine
 10
427.9895907238234
 20
295.0535158607526
 30
0.0
 11
429.9895907238235
 21
297.0535158607526
 31
0.0
  0
LINE
  5
2267
330
21AB
100
AcDbEntity
  8
0
 62
     0
100
AcDbLine
 10
545.9895907238233
 20
413.0535158607524
 30
0.0
 11
547.9895907238232
 21
415.0535158607523
 31
0.0
  0
LINE
  5
2268
330
21AB
100
AcDbEntity
  8
0
 62
     0
100
AcDbLine
 10
430.8180178485697
 20
295.0535158607526
 30
0.0
 11
432.8180178485696
 21
297.0535158607525
 31
0.0
  0
LINE
  5
2269
330
21AB
100
AcDbEntity
  8
0
 62
     0
100
AcDbLine
 10
548.8180178485695
 20
413.0535158607524
 30
0.0
 11
550.8180178485694
 21
415.0535158607523
 31
0.0
  0
LINE
  5
226A
330
21AB
100
AcDbEntity
  8
0
 62
     0
100
AcDbLine
 10
433.6464449733158
 20
295.0535158607526
 30
0.0
 11
435.6464449733159
 21
297.0535158607525
 31
0.0
  0
LINE
  5
226B
330
21AB
100
AcDbEntity
  8
0
 62
     0
100
AcDbLine
 10
551.6464449733157
 20
413.0535158607524
 30
0.0
 11
553.6464449733156
 21
415.0535158607523
 31
0.0
  0
LINE
  5
226C
330
21AB
100
AcDbEntity
  8
0
 62
     0
100
AcDbLine
 10
436.474872098062
 20
295.0535158607526
 30
0.0
 11
438.474872098062
 21
297.0535158607525
 31
0.0
  0
LINE
  5
226D
330
21AB
100
AcDbEntity
  8
0
 62
     0
100
AcDbLine
 10
554.4748720980619
 20
413.0535158607524
 30
0.0
 11
556.4748720980618
 21
415.0535158607523
 31
0.0
  0
LINE
  5
226E
330
21AB
100
AcDbEntity
  8
0
 62
     0
100
AcDbLine
 10
439.3032992228082
 20
295.0535158607526
 30
0.0
 11
441.3032992228082
 21
297.0535158607525
 31
0.0
  0
LINE
  5
226F
330
21AB
100
AcDbEntity
  8
0
 62
     0
100
AcDbLine
 10
557.3032992228081
 20
413.0535158607524
 30
0.0
 11
559.3032992228081
 21
415.0535158607523
 31
0.0
  0
LINE
  5
2270
330
21AB
100
AcDbEntity
  8
0
 62
     0
100
AcDbLine
 10
442.1317263475544
 20
295.0535158607526
 30
0.0
 11
444.1317263475544
 21
297.0535158607525
 31
0.0
  0
LINE
  5
2271
330
21AB
100
AcDbEntity
  8
0
 62
     0
100
AcDbLine
 10
560.1317263475542
 20
413.0535158607524
 30
0.0
 11
562.1317263475541
 21
415.0535158607523
 31
0.0
  0
LINE
  5
2272
330
21AB
100
AcDbEntity
  8
0
 62
     0
100
AcDbLine
 10
444.9601534723005
 20
295.0535158607526
 30
0.0
 11
446.9601534723006
 21
297.0535158607525
 31
0.0
  0
LINE
  5
2273
330
21AB
100
AcDbEntity
  8
0
 62
     0
100
AcDbLine
 10
562.9681035085659
 20
413.0614658970179
 30
0.0
 11
565.118021526055
 21
415.2113839145069
 31
0.0
  0
LINE
  5
2274
330
21AB
100
AcDbEntity
  8
0
 62
     0
100
AcDbLine
 10
447.7885805970467
 20
295.0535158607526
 30
0.0
 11
449.7885805970467
 21
297.0535158607525
 31
0.0
  0
LINE
  5
2275
330
21AB
100
AcDbEntity
  8
0
 62
     0
100
AcDbLine
 10
566.0482025880335
 20
413.3131378517393
 30
0.0
 11
568.5892406288387
 21
415.8541758925444
 31
0.0
  0
LINE
  5
2276
330
21AB
100
AcDbEntity
  8
0
 62
     0
100
AcDbLine
 10
450.6170077217929
 20
295.0535158607525
 30
0.0
 11
452.6170077217929
 21
297.0535158607525
 31
0.0
  0
LINE
  5
2277
330
21AB
100
AcDbEntity
  8
0
 62
     0
100
AcDbLine
 10
569.6263566770752
 20
414.0628648160348
 30
0.0
 11
573.0311915830173
 21
417.4676997219768
 31
0.0
  0
LINE
  5
2278
330
21AB
100
AcDbEntity
  8
0
 62
     0
100
AcDbLine
 10
453.4454348465391
 20
295.0535158607525
 30
0.0
 11
455.4454348465391
 21
297.0535158607525
 31
0.0
  0
LINE
  5
2279
330
21AB
100
AcDbEntity
  8
0
 62
     0
100
AcDbLine
 10
574.2058003232923
 20
415.8138813375057
 30
0.0
 11
576.2093194831837
 21
417.8174004973969
 31
0.0
  0
LINE
  5
227A
330
21AB
100
AcDbEntity
  8
0
 62
     0
100
AcDbLine
 10
456.2738619712852
 20
295.0535158607525
 30
0.0
 11
458.2738619712853
 21
297.0535158607525
 31
0.0
  0
LINE
  5
227B
330
21AB
100
AcDbEntity
  8
0
 62
     0
100
AcDbLine
 10
459.1022890960315
 20
295.0535158607525
 30
0.0
 11
461.1022890960314
 21
297.0535158607525
 31
0.0
  0
LINE
  5
227C
330
21AB
100
AcDbEntity
  8
0
 62
     0
100
AcDbLine
 10
461.9307162207777
 20
295.0535158607525
 30
0.0
 11
463.9307162207777
 21
297.0535158607525
 31
0.0
  0
LINE
  5
227D
330
21AB
100
AcDbEntity
  8
0
 62
     0
100
AcDbLine
 10
464.7591433455239
 20
295.0535158607525
 30
0.0
 11
466.7591433455238
 21
297.0535158607525
 31
0.0
  0
LINE
  5
227E
330
21AB
100
AcDbEntity
  8
0
 62
     0
100
AcDbLine
 10
467.5875704702701
 20
295.0535158607525
 30
0.0
 11
469.58757047027
 21
297.0535158607524
 31
0.0
  0
LINE
  5
227F
330
21AB
100
AcDbEntity
  8
0
 62
     0
100
AcDbLine
 10
470.4159975950163
 20
295.0535158607525
 30
0.0
 11
472.4159975950162
 21
297.0535158607524
 31
0.0
  0
LINE
  5
2280
330
21AB
100
AcDbEntity
  8
0
 62
     0
100
AcDbLine
 10
473.2444247197624
 20
295.0535158607525
 30
0.0
 11
475.2444247197624
 21
297.0535158607524
 31
0.0
  0
LINE
  5
2281
330
21AB
100
AcDbEntity
  8
0
 62
     0
100
AcDbLine
 10
476.0728518445086
 20
295.0535158607525
 30
0.0
 11
478.0728518445085
 21
297.0535158607524
 31
0.0
  0
LINE
  5
2282
330
21AB
100
AcDbEntity
  8
0
 62
     0
100
AcDbLine
 10
478.9012789692548
 20
295.0535158607525
 30
0.0
 11
480.9012789692547
 21
297.0535158607524
 31
0.0
  0
LINE
  5
2283
330
21AB
100
AcDbEntity
  8
0
 62
     0
100
AcDbLine
 10
481.729706094001
 20
295.0535158607525
 30
0.0
 11
483.7297060940009
 21
297.0535158607524
 31
0.0
  0
LINE
  5
2284
330
21AB
100
AcDbEntity
  8
0
 62
     0
100
AcDbLine
 10
484.5581332187471
 20
295.0535158607525
 30
0.0
 11
486.5581332187471
 21
297.0535158607524
 31
0.0
  0
LINE
  5
2285
330
21AB
100
AcDbEntity
  8
0
 62
     0
100
AcDbLine
 10
487.3865603434934
 20
295.0535158607524
 30
0.0
 11
489.3865603434933
 21
297.0535158607524
 31
0.0
  0
LINE
  5
2286
330
21AB
100
AcDbEntity
  8
0
 62
     0
100
AcDbLine
 10
490.2149874682395
 20
295.0535158607524
 30
0.0
 11
492.2149874682395
 21
297.0535158607524
 31
0.0
  0
LINE
  5
2287
330
21AB
100
AcDbEntity
  8
0
 62
     0
100
AcDbLine
 10
493.0434145929857
 20
295.0535158607524
 30
0.0
 11
495.0434145929857
 21
297.0535158607524
 31
0.0
  0
LINE
  5
2288
330
21AB
100
AcDbEntity
  8
0
 62
     0
100
AcDbLine
 10
495.8718417177319
 20
295.0535158607524
 30
0.0
 11
497.8718417177319
 21
297.0535158607524
 31
0.0
  0
LINE
  5
2289
330
21AB
100
AcDbEntity
  8
0
 62
     0
100
AcDbLine
 10
498.7002688424781
 20
295.0535158607524
 30
0.0
 11
500.7002688424781
 21
297.0535158607524
 31
0.0
  0
LINE
  5
228A
330
21AB
100
AcDbEntity
  8
0
 62
     0
100
AcDbLine
 10
501.5286959672242
 20
295.0535158607524
 30
0.0
 11
503.5286959672243
 21
297.0535158607524
 31
0.0
  0
LINE
  5
228B
330
21AB
100
AcDbEntity
  8
0
 62
     0
100
AcDbLine
 10
504.3571230919704
 20
295.0535158607524
 30
0.0
 11
506.3571230919705
 21
297.0535158607524
 31
0.0
  0
LINE
  5
228C
330
21AB
100
AcDbEntity
  8
0
 62
     0
100
AcDbLine
 10
507.1855502167166
 20
295.0535158607524
 30
0.0
 11
509.1855502167166
 21
297.0535158607524
 31
0.0
  0
LINE
  5
228D
330
21AB
100
AcDbEntity
  8
0
 62
     0
100
AcDbLine
 10
510.0139773414628
 20
295.0535158607524
 30
0.0
 11
512.0139773414628
 21
297.0535158607524
 31
0.0
  0
LINE
  5
228E
330
21AB
100
AcDbEntity
  8
0
 62
     0
100
AcDbLine
 10
512.8424044662089
 20
295.0535158607524
 30
0.0
 11
514.842404466209
 21
297.0535158607524
 31
0.0
  0
LINE
  5
228F
330
21AB
100
AcDbEntity
  8
0
 62
     0
100
AcDbLine
 10
515.6708315909552
 20
295.0535158607524
 30
0.0
 11
517.6708315909552
 21
297.0535158607524
 31
0.0
  0
LINE
  5
2290
330
21AB
100
AcDbEntity
  8
0
 62
     0
100
AcDbLine
 10
518.4992587157014
 20
295.0535158607524
 30
0.0
 11
520.4992587157014
 21
297.0535158607524
 31
0.0
  0
LINE
  5
2291
330
21AB
100
AcDbEntity
  8
0
 62
     0
100
AcDbLine
 10
521.3276858404476
 20
295.0535158607524
 30
0.0
 11
523.3276858404475
 21
297.0535158607524
 31
0.0
  0
LINE
  5
2292
330
21AB
100
AcDbEntity
  8
0
 62
     0
100
AcDbLine
 10
524.1561129651937
 20
295.0535158607524
 30
0.0
 11
526.1561129651937
 21
297.0535158607524
 31
0.0
  0
LINE
  5
2293
330
21AB
100
AcDbEntity
  8
0
 62
     0
100
AcDbLine
 10
526.98454008994
 20
295.0535158607524
 30
0.0
 11
528.9845400899399
 21
297.0535158607524
 31
0.0
  0
LINE
  5
2294
330
21AB
100
AcDbEntity
  8
0
 62
     0
100
AcDbLine
 10
529.8129672146862
 20
295.0535158607524
 30
0.0
 11
531.8129672146861
 21
297.0535158607524
 31
0.0
  0
LINE
  5
2295
330
21AB
100
AcDbEntity
  8
0
 62
     0
100
AcDbLine
 10
532.6413943394324
 20
295.0535158607524
 30
0.0
 11
534.6413943394322
 21
297.0535158607524
 31
0.0
  0
LINE
  5
2296
330
21AB
100
AcDbEntity
  8
0
 62
     0
100
AcDbLine
 10
535.4698214641785
 20
295.0535158607524
 30
0.0
 11
537.4698214641784
 21
297.0535158607524
 31
0.0
  0
LINE
  5
2297
330
21AB
100
AcDbEntity
  8
0
 62
     0
100
AcDbLine
 10
538.2982485889247
 20
295.0535158607524
 30
0.0
 11
540.2982485889246
 21
297.0535158607523
 31
0.0
  0
LINE
  5
2298
330
21AB
100
AcDbEntity
  8
0
 62
     0
100
AcDbLine
 10
541.1266757136709
 20
295.0535158607524
 30
0.0
 11
543.1266757136709
 21
297.0535158607523
 31
0.0
  0
LINE
  5
2299
330
21AB
100
AcDbEntity
  8
0
 62
     0
100
AcDbLine
 10
543.9551028384171
 20
295.0535158607524
 30
0.0
 11
545.9551028384169
 21
297.0535158607523
 31
0.0
  0
LINE
  5
229A
330
21AB
100
AcDbEntity
  8
0
 62
     0
100
AcDbLine
 10
546.7835299631632
 20
295.0535158607524
 30
0.0
 11
548.7835299631632
 21
297.0535158607523
 31
0.0
  0
LINE
  5
229B
330
21AB
100
AcDbEntity
  8
0
 62
     0
100
AcDbLine
 10
549.6119570879094
 20
295.0535158607524
 30
0.0
 11
551.6119570879094
 21
297.0535158607523
 31
0.0
  0
LINE
  5
229C
330
21AB
100
AcDbEntity
  8
0
 62
     0
100
AcDbLine
 10
552.4403842126556
 20
295.0535158607524
 30
0.0
 11
554.4403842126556
 21
297.0535158607523
 31
0.0
  0
LINE
  5
229D
330
21AB
100
AcDbEntity
  8
0
 62
     0
100
AcDbLine
 10
555.2688113374018
 20
295.0535158607524
 30
0.0
 11
557.2688113374018
 21
297.0535158607523
 31
0.0
  0
LINE
  5
229E
330
21AB
100
AcDbEntity
  8
0
 62
     0
100
AcDbLine
 10
558.0972384621479
 20
295.0535158607523
 30
0.0
 11
560.097238462148
 21
297.0535158607523
 31
0.0
  0
LINE
  5
229F
330
21AB
100
AcDbEntity
  8
0
 62
     0
100
AcDbLine
 10
560.9256655868941
 20
295.0535158607523
 30
0.0
 11
562.9188657386323
 21
297.0467160124904
 31
0.0
  0
LINE
  5
22A0
330
21AB
100
AcDbEntity
  8
0
 62
     0
100
AcDbLine
 10
563.7147598142842
 20
295.0141829633961
 30
0.0
 11
565.5583351490474
 21
296.8577582981595
 31
0.0
  0
LINE
  5
22A1
330
21AB
100
AcDbEntity
  8
0
 62
     0
100
AcDbLine
 10
566.2677306644089
 20
294.7387266887746
 30
0.0
 11
567.9808962300321
 21
296.4518922543979
 31
0.0
  0
LINE
  5
22A2
330
21AB
100
AcDbEntity
  8
0
 62
     0
100
AcDbLine
 10
568.605947664352
 20
294.2485165639716
 30
0.0
 11
570.2255037254652
 21
295.8680726250848
 31
0.0
  0
LINE
  5
22A3
330
21AB
100
AcDbEntity
  8
0
 62
     0
100
AcDbLine
 10
570.7666825401076
 20
293.5808243149811
 30
0.0
 11
572.3174485070561
 21
295.1315902819295
 31
0.0
  0
LINE
  5
22A4
330
21AB
100
AcDbEntity
  8
0
 62
     0
100
AcDbLine
 10
572.7739211220479
 20
292.7596357721751
 30
0.0
 11
574.2739031218451
 21
294.2596177719724
 31
0.0
  0
LINE
  5
22A5
330
21AB
100
AcDbEntity
  8
0
 62
     0
100
AcDbLine
 10
574.6436976938516
 20
291.8009852192327
 30
0.0
 11
576.1067837742131
 21
293.2640712995941
 31
0.0
  0
ENDBLK
  5
22A6
330
21AB
100
AcDbEntity
  8
0
100
AcDbBlockEnd
  0
BLOCK
  5
22B4
330
22B3
100
AcDbEntity
  8
0
100
AcDbBlockBegin
  2
*X2
 70
     1
 10
0.0
 20
0.0
 30
0.0
  3
*X2
  1

  0
LINE
  5
22B5
330
22B3
100
AcDbEntity
  8
0
 62
     0
100
AcDbLine
 10
259.5826923451695
 20
346.6906618441763
 30
0.0
 11
256.5024022820137
 21
349.7709519073322
 31
0.0
  0
LINE
  5
22B6
330
22B3
100
AcDbEntity
  8
0
 62
     0
100
AcDbLine
 10
259.3883597102319
 20
346.7435731228766
 30
0.0
 11
256.3690761783413
 21
349.7628566547672
 31
0.0
  0
LINE
  5
22B7
330
22B3
100
AcDbEntity
  8
0
 62
     0
100
AcDbLine
 10
259.179315449938
 20
346.8111960269332
 30
0.0
 11
256.4366990823979
 21
349.5538123944732
 31
0.0
  0
LINE
  5
22B8
330
22B3
100
AcDbEntity
  8
0
 62
     0
100
AcDbLine
 10
258.9505377051663
 20
346.8985524154676
 30
0.0
 11
256.5240554709323
 21
349.3250346497016
 31
0.0
  0
LINE
  5
22B9
330
22B3
100
AcDbEntity
  8
0
 62
     0
100
AcDbLine
 10
258.6929493356487
 20
347.0147194287479
 30
0.0
 11
256.6402224842126
 21
349.067446280184
 31
0.0
  0
LINE
  5
22BA
330
22B3
100
AcDbEntity
  8
0
 62
     0
100
AcDbLine
 10
258.3863749187442
 20
347.1798724894151
 30
0.0
 11
256.8053755448798
 21
348.7608718632795
 31
0.0
  0
LINE
  5
22BB
330
22B3
100
AcDbEntity
  8
0
 62
     0
100
AcDbLine
 10
257.9568561431742
 20
347.4679699087478
 30
0.0
 11
257.0934729642125
 21
348.3313530877095
 31
0.0
  0
LINE
  5
22BC
330
22B3
100
AcDbEntity
  8
0
 62
     0
100
AcDbLine
 10
259.7654422870307
 20
346.6493332585525
 30
0.0
 11
256.643823638251
 21
349.7709519073322
 31
0.0
  0
LINE
  5
22BD
330
22B3
100
AcDbEntity
  8
0
 62
     0
100
AcDbLine
 10
259.9387175716592
 20
346.6174793301612
 30
0.0
 11
256.7852449944883
 21
349.7709519073322
 31
0.0
  0
LINE
  5
22BE
330
22B3
100
AcDbEntity
  8
0
 62
     0
100
AcDbLine
 10
259.9557089524737
 20
346.741909305584
 30
0.0
 11
256.9266663507256
 21
349.7709519073322
 31
0.0
  0
LINE
  5
22BF
330
22B3
100
AcDbEntity
  8
0
 62
     0
100
AcDbLine
 10
259.9557089524737
 20
346.8833306618214
 30
0.0
 11
257.068087706963
 21
349.7709519073322
 31
0.0
  0
LINE
  5
22C0
330
22B3
100
AcDbEntity
  8
0
 62
     0
100
AcDbLine
 10
259.9557089524737
 20
347.0247520180586
 30
0.0
 11
257.2095090632002
 21
349.7709519073322
 31
0.0
  0
LINE
  5
22C1
330
22B3
100
AcDbEntity
  8
0
 62
     0
100
AcDbLine
 10
259.9557089524737
 20
347.166173374296
 30
0.0
 11
257.3509304194375
 21
349.7709519073322
 31
0.0
  0
LINE
  5
22C2
330
22B3
100
AcDbEntity
  8
0
 62
     0
100
AcDbLine
 10
259.9557089524737
 20
347.3075947305333
 30
0.0
 11
257.4923517756749
 21
349.7709519073322
 31
0.0
  0
LINE
  5
22C3
330
22B3
100
AcDbEntity
  8
0
 62
     0
100
AcDbLine
 10
259.9557089524737
 20
347.4490160867706
 30
0.0
 11
257.6337731319122
 21
349.7709519073322
 31
0.0
  0
LINE
  5
22C4
330
22B3
100
AcDbEntity
  8
0
 62
     0
100
AcDbLine
 10
259.9557089524737
 20
347.590437443008
 30
0.0
 11
257.7751944881495
 21
349.7709519073322
 31
0.0
  0
LINE
  5
22C5
330
22B3
100
AcDbEntity
  8
0
 62
     0
100
AcDbLine
 10
259.9557089524737
 20
347.7318587992452
 30
0.0
 11
257.9166158443868
 21
349.7709519073322
 31
0.0
  0
LINE
  5
22C6
330
22B3
100
AcDbEntity
  8
0
 62
     0
100
AcDbLine
 10
259.9557089524737
 20
347.8732801554825
 30
0.0
 11
258.0580372006241
 21
349.7709519073322
 31
0.0
  0
LINE
  5
22C7
330
22B3
100
AcDbEntity
  8
0
 62
     0
100
AcDbLine
 10
259.9557089524737
 20
348.0147015117199
 30
0.0
 11
258.1994585568614
 21
349.7709519073322
 31
0.0
  0
LINE
  5
22C8
330
22B3
100
AcDbEntity
  8
0
 62
     0
100
AcDbLine
 10
259.9557089524737
 20
348.1561228679571
 30
0.0
 11
258.3408799130987
 21
349.7709519073322
 31
0.0
  0
LINE
  5
22C9
330
22B3
100
AcDbEntity
  8
0
 62
     0
100
AcDbLine
 10
259.9557089524737
 20
348.2975442241945
 30
0.0
 11
258.4823012693361
 21
349.7709519073322
 31
0.0
  0
LINE
  5
22CA
330
22B3
100
AcDbEntity
  8
0
 62
     0
100
AcDbLine
 10
259.9557089524737
 20
348.4389655804317
 30
0.0
 11
258.6237226255733
 21
349.7709519073322
 31
0.0
  0
LINE
  5
22CB
330
22B3
100
AcDbEntity
  8
0
 62
     0
100
AcDbLine
 10
259.9557089524737
 20
348.5803869366691
 30
0.0
 11
258.7651439818106
 21
349.7709519073322
 31
0.0
  0
LINE
  5
22CC
330
22B3
100
AcDbEntity
  8
0
 62
     0
100
AcDbLine
 10
259.9557089524737
 20
348.7218082929064
 30
0.0
 11
258.906565338048
 21
349.7709519073322
 31
0.0
  0
LINE
  5
22CD
330
22B3
100
AcDbEntity
  8
0
 62
     0
100
AcDbLine
 10
259.9557089524737
 20
348.8632296491437
 30
0.0
 11
259.0479866942853
 21
349.7709519073322
 31
0.0
  0
LINE
  5
22CE
330
22B3
100
AcDbEntity
  8
0
 62
     0
100
AcDbLine
 10
259.9557089524737
 20
349.0046510053811
 30
0.0
 11
259.1894080505226
 21
349.7709519073322
 31
0.0
  0
LINE
  5
22CF
330
22B3
100
AcDbEntity
  8
0
 62
     0
100
AcDbLine
 10
259.9557089524737
 20
349.1460723616183
 30
0.0
 11
259.3308294067599
 21
349.7709519073322
 31
0.0
  0
LINE
  5
22D0
330
22B3
100
AcDbEntity
  8
0
 62
     0
100
AcDbLine
 10
259.9557089524737
 20
349.2874937178556
 30
0.0
 11
259.4722507629972
 21
349.7709519073322
 31
0.0
  0
LINE
  5
22D1
330
22B3
100
AcDbEntity
  8
0
 62
     0
100
AcDbLine
 10
259.9557089524737
 20
349.428915074093
 30
0.0
 11
259.6136721192345
 21
349.7709519073322
 31
0.0
  0
LINE
  5
22D2
330
22B3
100
AcDbEntity
  8
0
 62
     0
100
AcDbLine
 10
259.9557089524737
 20
349.5703364303303
 30
0.0
 11
259.7550934754718
 21
349.7709519073322
 31
0.0
  0
LINE
  5
22D3
330
22B3
100
AcDbEntity
  8
0
 62
     0
100
AcDbLine
 10
259.9557089524737
 20
349.7117577865676
 30
0.0
 11
259.8965148317091
 21
349.7709519073322
 31
0.0
  0
ENDBLK
  5
22D4
330
22B3
100
AcDbEntity
  8
0
100
AcDbBlockEnd
  0
BLOCK
  5
22D6
330
22D5
100
AcDbEntity
  8
0
100
AcDbBlockBegin
  2
*X3
 70
     1
 10
0.0
 20
0.0
 30
0.0
  3
*X3
  1

  0
LINE
  5
22D7
330
22D5
100
AcDbEntity
  8
0
 62
     0
100
AcDbLine
 10
211.9459147073443
 20
393.9
 30
0.0
 11
214.0178481495824
 21
393.9
 31
0.0
  0
LINE
  5
22D8
330
22D5
100
AcDbEntity
  8
0
 62
     0
100
AcDbLine
 10
313.9911649853376
 20
393.9
 30
0.0
 11
316.0630984275752
 21
393.9
 31
0.0
  0
LINE
  5
22D9
330
22D5
100
AcDbEntity
  8
0
 62
     0
100
AcDbLine
 10
211.9471416467981
 20
394.0
 30
0.0
 11
213.9916632899099
 21
394.0
 31
0.0
  0
LINE
  5
22DA
330
22D5
100
AcDbEntity
  8
0
 62
     0
100
AcDbLine
 10
314.01734984501
 20
394.0
 30
0.0
 11
316.0618714881214
 21
394.0
 31
0.0
  0
LINE
  5
22DB
330
22D5
100
AcDbEntity
  8
0
 62
     0
100
AcDbLine
 10
211.9497772309366
 20
394.1
 30
0.0
 11
213.9654784302375
 21
394.1
 31
0.0
  0
LINE
  5
22DC
330
22D5
100
AcDbEntity
  8
0
 62
     0
100
AcDbLine
 10
314.0435347046825
 20
394.1
 30
0.0
 11
316.0592359039829
 21
394.1
 31
0.0
  0
LINE
  5
22DD
330
22D5
100
AcDbEntity
  8
0
 62
     0
100
AcDbLine
 10
211.9538230294946
 20
394.2000000000001
 30
0.0
 11
213.939293570565
 21
394.2000000000001
 31
0.0
  0
LINE
  5
22DE
330
22D5
100
AcDbEntity
  8
0
 62
     0
100
AcDbLine
 10
314.069719564355
 20
394.2000000000001
 30
0.0
 11
316.0551901054248
 21
394.2000000000001
 31
0.0
  0
LINE
  5
22DF
330
22D5
100
AcDbEntity
  8
0
 62
     0
100
AcDbLine
 10
211.9592814566628
 20
394.3
 30
0.0
 11
213.9131087108925
 21
394.3
 31
0.0
  0
LINE
  5
22E0
330
22D5
100
AcDbEntity
  8
0
 62
     0
100
AcDbLine
 10
314.0959044240274
 20
394.3
 30
0.0
 11
316.0497316782567
 21
394.3
 31
0.0
  0
LINE
  5
22E1
330
22D5
100
AcDbEntity
  8
0
 62
     0
100
AcDbLine
 10
211.9661557783115
 20
394.4
 30
0.0
 11
213.8869238512201
 21
394.4
 31
0.0
  0
LINE
  5
22E2
330
22D5
100
AcDbEntity
  8
0
 62
     0
100
AcDbLine
 10
314.1220892836998
 20
394.4
 30
0.0
 11
316.042857356608
 21
394.4
 31
0.0
  0
LINE
  5
22E3
330
22D5
100
AcDbEntity
  8
0
 62
     0
100
AcDbLine
 10
211.9744501218066
 20
394.5
 30
0.0
 11
213.8607389915476
 21
394.5
 31
0.0
  0
LINE
  5
22E4
330
22D5
100
AcDbEntity
  8
0
 62
     0
100
AcDbLine
 10
314.1482741433723
 20
394.5
 30
0.0
 11
316.0345630131128
 21
394.5
 31
0.0
  0
LINE
  5
22E5
330
22D5
100
AcDbEntity
  8
0
 62
     0
100
AcDbLine
 10
211.9841694884878
 20
394.6
 30
0.0
 11
213.8345541318752
 21
394.6
 31
0.0
  0
LINE
  5
22E6
330
22D5
100
AcDbEntity
  8
0
 62
     0
100
AcDbLine
 10
314.1744590030448
 20
394.6
 30
0.0
 11
316.0248436464317
 21
394.6
 31
0.0
  0
LINE
  5
22E7
330
22D5
100
AcDbEntity
  8
0
 62
     0
100
AcDbLine
 10
211.9953197688949
 20
394.7
 30
0.0
 11
213.8083692722027
 21
394.7
 31
0.0
  0
LINE
  5
22E8
330
22D5
100
AcDbEntity
  8
0
 62
     0
100
AcDbLine
 10
314.2006438627173
 20
394.7
 30
0.0
 11
316.0136933660246
 21
394.7
 31
0.0
  0
LINE
  5
22E9
330
22D5
100
AcDbEntity
  8
0
 62
     0
100
AcDbLine
 10
212.0079077608556
 20
394.8
 30
0.0
 11
213.7821844125302
 21
394.8
 31
0.0
  0
LINE
  5
22EA
330
22D5
100
AcDbEntity
  8
0
 62
     0
100
AcDbLine
 10
314.2268287223897
 20
394.8
 30
0.0
 11
316.0011053740639
 21
394.8
 31
0.0
  0
LINE
  5
22EB
330
22D5
100
AcDbEntity
  8
0
 62
     0
100
AcDbLine
 10
212.0219411905622
 20
394.9
 30
0.0
 11
213.7559995528578
 21
394.9
 31
0.0
  0
LINE
  5
22EC
330
22D5
100
AcDbEntity
  8
0
 62
     0
100
AcDbLine
 10
314.2530135820622
 20
394.9
 30
0.0
 11
315.9870719443573
 21
394.9
 31
0.0
  0
LINE
  5
22ED
330
22D5
100
AcDbEntity
  8
0
 62
     0
100
AcDbLine
 10
212.0374287367952
 20
395.0
 30
0.0
 11
213.7298146931853
 21
395.0
 31
0.0
  0
LINE
  5
22EE
330
22D5
100
AcDbEntity
  8
0
 62
     0
100
AcDbLine
 10
314.2791984417347
 20
395.0
 30
0.0
 11
315.9715843981242
 21
395.0
 31
0.0
  0
LINE
  5
22EF
330
22D5
100
AcDbEntity
  8
0
 62
     0
100
AcDbLine
 10
212.0543800584727
 20
395.1
 30
0.0
 11
213.7036298335129
 21
395.1
 31
0.0
  0
LINE
  5
22F0
330
22D5
100
AcDbEntity
  8
0
 62
     0
100
AcDbLine
 10
314.3053833014071
 20
395.1
 30
0.0
 11
315.9546330764467
 21
395.1
 31
0.0
  0
LINE
  5
22F1
330
22D5
100
AcDbEntity
  8
0
 62
     0
100
AcDbLine
 10
212.0728058257364
 20
395.2
 30
0.0
 11
213.6774449738404
 21
395.2
 31
0.0
  0
LINE
  5
22F2
330
22D5
100
AcDbEntity
  8
0
 62
     0
100
AcDbLine
 10
314.3315681610795
 20
395.2
 30
0.0
 11
315.9362073091831
 21
395.2
 31
0.0
  0
LINE
  5
22F3
330
22D5
100
AcDbEntity
  8
0
 62
     0
100
AcDbLine
 10
212.0927177548137
 20
395.3
 30
0.0
 11
213.6512601141679
 21
395.3
 31
0.0
  0
LINE
  5
22F4
330
22D5
100
AcDbEntity
  8
0
 62
     0
100
AcDbLine
 10
314.357753020752
 20
395.3
 30
0.0
 11
315.9162953801058
 21
395.3
 31
0.0
  0
LINE
  5
22F5
330
22D5
100
AcDbEntity
  8
0
 62
     0
100
AcDbLine
 10
212.1141286469322
 20
395.4
 30
0.0
 11
213.6250752544955
 21
395.4
 31
0.0
  0
LINE
  5
22F6
330
22D5
100
AcDbEntity
  8
0
 62
     0
100
AcDbLine
 10
314.3839378804245
 20
395.4
 30
0.0
 11
315.8948844879873
 21
395.4
 31
0.0
  0
LINE
  5
22F7
330
22D5
100
AcDbEntity
  8
0
 62
     0
100
AcDbLine
 10
212.1370524315998
 20
395.5
 30
0.0
 11
213.598890394823
 21
395.5
 31
0.0
  0
LINE
  5
22F8
330
22D5
100
AcDbEntity
  8
0
 62
     0
100
AcDbLine
 10
314.410122740097
 20
395.5
 30
0.0
 11
315.8719607033197
 21
395.5
 31
0.0
  0
LINE
  5
22F9
330
22D5
100
AcDbEntity
  8
0
 62
     0
100
AcDbLine
 10
212.1615042146087
 20
395.6
 30
0.0
 11
213.5727055351505
 21
395.6
 31
0.0
  0
LINE
  5
22FA
330
22D5
100
AcDbEntity
  8
0
 62
     0
100
AcDbLine
 10
314.4363075997694
 20
395.6
 30
0.0
 11
315.8475089203108
 21
395.6
 31
0.0
  0
LINE
  5
22FB
330
22D5
100
AcDbEntity
  8
0
 62
     0
100
AcDbLine
 10
212.1875003311693
 20
395.7000000000001
 30
0.0
 11
213.5465206754781
 21
395.7000000000001
 31
0.0
  0
LINE
  5
22FC
330
22D5
100
AcDbEntity
  8
0
 62
     0
100
AcDbLine
 10
314.4624924594419
 20
395.7000000000001
 30
0.0
 11
315.8215128037502
 21
395.7000000000001
 31
0.0
  0
LINE
  5
22FD
330
22D5
100
AcDbEntity
  8
0
 62
     0
100
AcDbLine
 10
212.2150584046372
 20
395.8
 30
0.0
 11
213.5203358158056
 21
395.8
 31
0.0
  0
LINE
  5
22FE
330
22D5
100
AcDbEntity
  8
0
 62
     0
100
AcDbLine
 10
314.4886773191143
 20
395.8
 30
0.0
 11
315.7939547302823
 21
395.8
 31
0.0
  0
LINE
  5
22FF
330
22D5
100
AcDbEntity
  8
0
 62
     0
100
AcDbLine
 10
212.244197411357
 20
395.9000000000001
 30
0.0
 11
213.4941509561332
 21
395.9000000000001
 31
0.0
  0
LINE
  5
2300
330
22D5
100
AcDbEntity
  8
0
 62
     0
100
AcDbLine
 10
314.5148620806565
 20
395.9000000000001
 30
0.0
 11
315.7648157235624
 21
395.9000000000001
 31
0.0
  0
LINE
  5
2301
330
22D5
100
AcDbEntity
  8
0
 62
     0
100
AcDbLine
 10
212.2749377522225
 20
396.0
 30
0.0
 11
213.4683217427338
 21
396.0
 31
0.0
  0
LINE
  5
2302
330
22D5
100
AcDbEntity
  8
0
 62
     0
100
AcDbLine
 10
314.5406913921861
 20
396.0
 30
0.0
 11
315.734075382697
 21
396.0
 31
0.0
  0
LINE
  5
2303
330
22D5
100
AcDbEntity
  8
0
 62
     0
100
AcDbLine
 10
212.3073013316305
 20
396.1
 30
0.0
 11
213.4432249824537
 21
396.1
 31
0.0
  0
LINE
  5
2304
330
22D5
100
AcDbEntity
  8
0
 62
     0
100
AcDbLine
 10
314.5657881524663
 20
396.1
 30
0.0
 11
315.701711803289
 21
396.1
 31
0.0
  0
LINE
  5
2305
330
22D5
100
AcDbEntity
  8
0
 62
     0
100
AcDbLine
 10
212.3413116446054
 20
396.2000000000001
 30
0.0
 11
213.4188569920352
 21
396.2000000000001
 31
0.0
  0
LINE
  5
2306
330
22D5
100
AcDbEntity
  8
0
 62
     0
100
AcDbLine
 10
314.5901561428847
 20
396.2000000000001
 30
0.0
 11
315.6677014903141
 21
396.2000000000001
 31
0.0
  0
LINE
  5
2307
330
22D5
100
AcDbEntity
  8
0
 62
     0
100
AcDbLine
 10
212.376993872978
 20
396.3
 30
0.0
 11
213.3952141247599
 21
396.3
 31
0.0
  0
LINE
  5
2308
330
22D5
100
AcDbEntity
  8
0
 62
     0
100
AcDbLine
 10
314.61379901016
 20
396.3
 30
0.0
 11
315.6320192619414
 21
396.3
 31
0.0
  0
LINE
  5
2309
330
22D5
100
AcDbEntity
  8
0
 62
     0
100
AcDbLine
 10
212.4143749916289
 20
396.4
 30
0.0
 11
213.3722928656451
 21
396.4
 31
0.0
  0
LINE
  5
230A
330
22D5
100
AcDbEntity
  8
0
 62
     0
100
AcDbLine
 10
314.6367202692748
 20
396.4
 30
0.0
 11
315.5946381432905
 21
396.4
 31
0.0
  0
LINE
  5
230B
330
22D5
100
AcDbEntity
  8
0
 62
     0
100
AcDbLine
 10
212.4534838859559
 20
396.5
 30
0.0
 11
213.3500898286463
 21
396.5
 31
0.0
  0
LINE
  5
230C
330
22D5
100
AcDbEntity
  8
0
 62
     0
100
AcDbLine
 10
314.6589233062736
 20
396.5
 30
0.0
 11
315.5555292489636
 21
396.5
 31
0.0
  0
LINE
  5
230D
330
22D5
100
AcDbEntity
  8
0
 62
     0
100
AcDbLine
 10
212.4943514818954
 20
396.6
 30
0.0
 11
213.3286017539888
 21
396.6
 31
0.0
  0
LINE
  5
230E
330
22D5
100
AcDbEntity
  8
0
 62
     0
100
AcDbLine
 10
314.6804113809312
 20
396.6
 30
0.0
 11
315.5146616530241
 21
396.6
 31
0.0
  0
LINE
  5
230F
330
22D5
100
AcDbEntity
  8
0
 62
     0
100
AcDbLine
 10
212.5370108900289
 20
396.7
 30
0.0
 11
213.3078255056246
 21
396.7
 31
0.0
  0
LINE
  5
2310
330
22D5
100
AcDbEntity
  8
0
 62
     0
100
AcDbLine
 10
314.7011876292954
 20
396.7
 30
0.0
 11
315.4720022448905
 21
396.7
 31
0.0
  0
LINE
  5
2311
330
22D5
100
AcDbEntity
  8
0
 62
     0
100
AcDbLine
 10
212.5814975655431
 20
396.8
 30
0.0
 11
213.2877580688087
 21
396.8
 31
0.0
  0
LINE
  5
2312
330
22D5
100
AcDbEntity
  8
0
 62
     0
100
AcDbLine
 10
314.7212550661113
 20
396.8
 30
0.0
 11
315.4275155693763
 21
396.8
 31
0.0
  0
LINE
  5
2313
330
22D5
100
AcDbEntity
  8
0
 62
     0
100
AcDbLine
 10
212.6278494860882
 20
396.9
 30
0.0
 11
213.2683965477906
 21
396.9
 31
0.0
  0
LINE
  5
2314
330
22D5
100
AcDbEntity
  8
0
 62
     0
100
AcDbLine
 10
314.7406165871294
 20
396.9
 30
0.0
 11
315.3811636488313
 21
396.9
 31
0.0
  0
LINE
  5
2315
330
22D5
100
AcDbEntity
  8
0
 62
     0
100
AcDbLine
 10
212.6761073499131
 20
397.0
 30
0.0
 11
213.2497381636169
 21
397.0
 31
0.0
  0
LINE
  5
2316
330
22D5
100
AcDbEntity
  8
0
 62
     0
100
AcDbLine
 10
314.759274971303
 20
397.0
 30
0.0
 11
315.3329057850064
 21
397.0
 31
0.0
  0
LINE
  5
2317
330
22D5
100
AcDbEntity
  8
0
 62
     0
100
AcDbLine
 10
212.7263147970445
 20
397.1
 30
0.0
 11
213.2317802520404
 21
397.1
 31
0.0
  0
LINE
  5
2318
330
22D5
100
AcDbEntity
  8
0
 62
     0
100
AcDbLine
 10
314.7772328828795
 20
397.1
 30
0.0
 11
315.2826983378749
 21
397.1
 31
0.0
  0
LINE
  5
2319
330
22D5
100
AcDbEntity
  8
0
 62
     0
100
AcDbLine
 10
212.7785186567474
 20
397.2
 30
0.0
 11
213.2145202615321
 21
397.2
 31
0.0
  0
LINE
  5
231A
330
22D5
100
AcDbEntity
  8
0
 62
     0
100
AcDbLine
 10
314.7944928733878
 20
397.2
 30
0.0
 11
315.230494478172
 21
397.2
 31
0.0
  0
LINE
  5
231B
330
22D5
100
AcDbEntity
  8
0
 62
     0
100
AcDbLine
 10
212.832769225066
 20
397.3
 30
0.0
 11
213.1979557513928
 21
397.3
 31
0.0
  0
LINE
  5
231C
330
22D5
100
AcDbEntity
  8
0
 62
     0
100
AcDbLine
 10
314.8110573835272
 20
397.3
 30
0.0
 11
315.1762439098534
 21
397.3
 31
0.0
  0
LINE
  5
231D
330
22D5
100
AcDbEntity
  8
0
 62
     0
100
AcDbLine
 10
212.8891205769217
 20
397.4000000000001
 30
0.0
 11
213.1820843899606
 21
397.4000000000001
 31
0.0
  0
LINE
  5
231E
330
22D5
100
AcDbEntity
  8
0
 62
     0
100
AcDbLine
 10
314.8269287449593
 20
397.4000000000001
 30
0.0
 11
315.1198925579977
 21
397.4000000000001
 31
0.0
  0
LINE
  5
231F
330
22D5
100
AcDbEntity
  8
0
 62
     0
100
AcDbLine
 10
212.9476309180614
 20
397.5
 30
0.0
 11
213.166903952911
 21
397.5
 31
0.0
  0
LINE
  5
2320
330
22D5
100
AcDbEntity
  8
0
 62
     0
100
AcDbLine
 10
314.8421091820089
 20
397.5
 30
0.0
 11
315.061382216858
 21
397.5
 31
0.0
  0
LINE
  5
2321
330
22D5
100
AcDbEntity
  8
0
 62
     0
100
AcDbLine
 10
213.0083629831519
 20
397.6
 30
0.0
 11
213.1524123216469
 21
397.6
 31
0.0
  0
LINE
  5
2322
330
22D5
100
AcDbEntity
  8
0
 62
     0
100
AcDbLine
 10
314.856600813273
 20
397.6
 30
0.0
 11
315.0006501517674
 21
397.6
 31
0.0
  0
LINE
  5
2323
330
22D5
100
AcDbEntity
  8
0
 62
     0
100
AcDbLine
 10
213.0713844875326
 20
397.7000000000001
 30
0.0
 11
213.1386074817754
 21
397.7000000000001
 31
0.0
  0
LINE
  5
2324
330
22D5
100
AcDbEntity
  8
0
 62
     0
100
AcDbLine
 10
314.8704056531446
 20
397.7000000000001
 30
0.0
 11
314.9376286473868
 21
397.7000000000001
 31
0.0
  0
LINE
  5
2325
330
22D5
100
AcDbEntity
  8
0
 62
     0
100
AcDbLine
 10
211.9460956826138
 20
393.8
 30
0.0
 11
214.0440330092549
 21
393.8
 31
0.0
  0
LINE
  5
2326
330
22D5
100
AcDbEntity
  8
0
 62
     0
100
AcDbLine
 10
313.9649801256651
 20
393.8
 30
0.0
 11
316.0629174523057
 21
393.8
 31
0.0
  0
LINE
  5
2327
330
22D5
100
AcDbEntity
  8
0
 62
     0
100
AcDbLine
 10
211.9476846802454
 20
393.7000000000001
 30
0.0
 11
214.0702178689273
 21
393.7000000000001
 31
0.0
  0
LINE
  5
2328
330
22D5
100
AcDbEntity
  8
0
 62
     0
100
AcDbLine
 10
313.9387952659926
 20
393.7000000000001
 30
0.0
 11
316.0613284546741
 21
393.7000000000001
 31
0.0
  0
LINE
  5
2329
330
22D5
100
AcDbEntity
  8
0
 62
     0
100
AcDbLine
 10
211.9506826457977
 20
393.6
 30
0.0
 11
214.0964027285998
 21
393.6
 31
0.0
  0
LINE
  5
232A
330
22D5
100
AcDbEntity
  8
0
 62
     0
100
AcDbLine
 10
313.9126104063202
 20
393.6
 30
0.0
 11
316.0583304891218
 21
393.6
 31
0.0
  0
LINE
  5
232B
330
22D5
100
AcDbEntity
  8
0
 62
     0
100
AcDbLine
 10
211.9550913655664
 20
393.5
 30
0.0
 11
214.1225875882722
 21
393.5
 31
0.0
  0
LINE
  5
232C
330
22D5
100
AcDbEntity
  8
0
 62
     0
100
AcDbLine
 10
313.8864255466477
 20
393.5
 30
0.0
 11
316.0539217693531
 21
393.5
 31
0.0
  0
LINE
  5
232D
330
22D5
100
AcDbEntity
  8
0
 62
     0
100
AcDbLine
 10
211.9609134719158
 20
393.4000000000001
 30
0.0
 11
214.1487724479447
 21
393.4000000000001
 31
0.0
  0
LINE
  5
232E
330
22D5
100
AcDbEntity
  8
0
 62
     0
100
AcDbLine
 10
313.8602406869753
 20
393.4000000000001
 30
0.0
 11
316.0480996630037
 21
393.4000000000001
 31
0.0
  0
LINE
  5
232F
330
22D5
100
AcDbEntity
  8
0
 62
     0
100
AcDbLine
 10
211.9681524511634
 20
393.3
 30
0.0
 11
214.1749573076172
 21
393.3
 31
0.0
  0
LINE
  5
2330
330
22D5
100
AcDbEntity
  8
0
 62
     0
100
AcDbLine
 10
313.8340558273028
 20
393.3
 30
0.0
 11
316.0408606837561
 21
393.3
 31
0.0
  0
LINE
  5
2331
330
22D5
100
AcDbEntity
  8
0
 62
     0
100
AcDbLine
 10
211.9768126540731
 20
393.2
 30
0.0
 11
214.2011421672896
 21
393.2
 31
0.0
  0
LINE
  5
2332
330
22D5
100
AcDbEntity
  8
0
 62
     0
100
AcDbLine
 10
313.8078709676303
 20
393.2
 30
0.0
 11
316.0322004808463
 21
393.2
 31
0.0
  0
LINE
  5
2333
330
22D5
100
AcDbEntity
  8
0
 62
     0
100
AcDbLine
 10
211.9868993090308
 20
393.1
 30
0.0
 11
214.2273270269621
 21
393.1
 31
0.0
  0
LINE
  5
2334
330
22D5
100
AcDbEntity
  8
0
 62
     0
100
AcDbLine
 10
313.7816861079579
 20
393.1
 30
0.0
 11
316.0221138258887
 21
393.1
 31
0.0
  0
LINE
  5
2335
330
22D5
100
AcDbEntity
  8
0
 62
     0
100
AcDbLine
 10
211.9984185379947
 20
393.0
 30
0.0
 11
214.2535118866346
 21
393.0
 31
0.0
  0
LINE
  5
2336
330
22D5
100
AcDbEntity
  8
0
 62
     0
100
AcDbLine
 10
313.7555012482854
 20
393.0
 30
0.0
 11
316.0105945969247
 21
393.0
 31
0.0
  0
LINE
  5
2337
330
22D5
100
AcDbEntity
  8
0
 62
     0
100
AcDbLine
 10
212.0113773753386
 20
392.9
 30
0.0
 11
214.279696746307
 21
392.9
 31
0.0
  0
LINE
  5
2338
330
22D5
100
AcDbEntity
  8
0
 62
     0
100
AcDbLine
 10
313.729316388613
 20
392.9
 30
0.0
 11
315.9976357595809
 21
392.9
 31
0.0
  0
LINE
  5
2339
330
22D5
100
AcDbEntity
  8
0
 62
     0
100
AcDbLine
 10
212.0257837897213
 20
392.8
 30
0.0
 11
214.3058816059795
 21
392.8
 31
0.0
  0
LINE
  5
233A
330
22D5
100
AcDbEntity
  8
0
 62
     0
100
AcDbLine
 10
313.7031315289405
 20
392.8
 30
0.0
 11
315.9832293451982
 21
392.8
 31
0.0
  0
LINE
  5
233B
330
22D5
100
AcDbEntity
  8
0
 62
     0
100
AcDbLine
 10
212.0416467091473
 20
392.7000000000001
 30
0.0
 11
214.3320664656519
 21
392.7000000000001
 31
0.0
  0
LINE
  5
233C
330
22D5
100
AcDbEntity
  8
0
 62
     0
100
AcDbLine
 10
313.676946669268
 20
392.7000000000001
 30
0.0
 11
315.9673664257722
 21
392.7000000000001
 31
0.0
  0
LINE
  5
233D
330
22D5
100
AcDbEntity
  8
0
 62
     0
100
AcDbLine
 10
212.0589760494041
 20
392.6
 30
0.0
 11
214.3582513253244
 21
392.6
 31
0.0
  0
LINE
  5
233E
330
22D5
100
AcDbEntity
  8
0
 62
     0
100
AcDbLine
 10
313.6507618095956
 20
392.6
 30
0.0
 11
315.9500370855154
 21
392.6
 31
0.0
  0
LINE
  5
233F
330
22D5
100
AcDbEntity
  8
0
 62
     0
100
AcDbLine
 10
212.0777827460949
 20
392.5
 30
0.0
 11
214.3844361849969
 21
392.5
 31
0.0
  0
LINE
  5
2340
330
22D5
100
AcDbEntity
  8
0
 62
     0
100
AcDbLine
 10
313.6245769499231
 20
392.5
 30
0.0
 11
315.9312303888246
 21
392.5
 31
0.0
  0
LINE
  5
2341
330
22D5
100
AcDbEntity
  8
0
 62
     0
100
AcDbLine
 10
212.0980787905145
 20
392.4
 30
0.0
 11
214.4106210446693
 21
392.4
 31
0.0
  0
LINE
  5
2342
330
22D5
100
AcDbEntity
  8
0
 62
     0
100
AcDbLine
 10
313.5983920902506
 20
392.4
 30
0.0
 11
315.910934344405
 21
392.4
 31
0.0
  0
LINE
  5
2343
330
22D5
100
AcDbEntity
  8
0
 62
     0
100
AcDbLine
 10
212.1198772696549
 20
392.3
 30
0.0
 11
214.4368059043418
 21
392.3
 31
0.0
  0
LINE
  5
2344
330
22D5
100
AcDbEntity
  8
0
 62
     0
100
AcDbLine
 10
313.5722072305782
 20
392.3
 30
0.0
 11
315.8891358652646
 21
392.3
 31
0.0
  0
LINE
  5
2345
330
22D5
100
AcDbEntity
  8
0
 62
     0
100
AcDbLine
 10
212.1431924106635
 20
392.2
 30
0.0
 11
214.4629907640142
 21
392.2
 31
0.0
  0
LINE
  5
2346
330
22D5
100
AcDbEntity
  8
0
 62
     0
100
AcDbLine
 10
313.5460223709058
 20
392.2
 30
0.0
 11
315.8658207242559
 21
392.2
 31
0.0
  0
LINE
  5
2347
330
22D5
100
AcDbEntity
  8
0
 62
     0
100
AcDbLine
 10
212.1680396301255
 20
392.1
 30
0.0
 11
214.4891756236867
 21
392.1
 31
0.0
  0
LINE
  5
2348
330
22D5
100
AcDbEntity
  8
0
 62
     0
100
AcDbLine
 10
313.5198375112333
 20
392.1
 30
0.0
 11
315.840973504794
 21
392.1
 31
0.0
  0
LINE
  5
2349
330
22D5
100
AcDbEntity
  8
0
 62
     0
100
AcDbLine
 10
212.1944355885889
 20
392.0
 30
0.0
 11
214.5153604833592
 21
392.0
 31
0.0
  0
LINE
  5
234A
330
22D5
100
AcDbEntity
  8
0
 62
     0
100
AcDbLine
 10
313.4936526515608
 20
392.0
 30
0.0
 11
315.8145775463306
 21
392.0
 31
0.0
  0
LINE
  5
234B
330
22D5
100
AcDbEntity
  8
0
 62
     0
100
AcDbLine
 10
212.2223982508113
 20
391.9
 30
0.0
 11
214.5415453430316
 21
391.9
 31
0.0
  0
LINE
  5
234C
330
22D5
100
AcDbEntity
  8
0
 62
     0
100
AcDbLine
 10
313.4674677918884
 20
391.9
 30
0.0
 11
315.7866148841081
 21
391.9
 31
0.0
  0
LINE
  5
234D
330
22D5
100
AcDbEntity
  8
0
 62
     0
100
AcDbLine
 10
212.2519469522707
 20
391.8
 30
0.0
 11
214.5677302027041
 21
391.8
 31
0.0
  0
LINE
  5
234E
330
22D5
100
AcDbEntity
  8
0
 62
     0
100
AcDbLine
 10
313.4412829322159
 20
391.8
 30
0.0
 11
315.7570661826487
 21
391.8
 31
0.0
  0
LINE
  5
234F
330
22D5
100
AcDbEntity
  8
0
 62
     0
100
AcDbLine
 10
212.2831024725574
 20
391.7000000000001
 30
0.0
 11
214.5939150623765
 21
391.7000000000001
 31
0.0
  0
LINE
  5
2350
330
22D5
100
AcDbEntity
  8
0
 62
     0
100
AcDbLine
 10
313.4150980725434
 20
391.7000000000001
 30
0.0
 11
315.7259106623621
 21
391.7000000000001
 31
0.0
  0
LINE
  5
2351
330
22D5
100
AcDbEntity
  8
0
 62
     0
100
AcDbLine
 10
212.315887116351
 20
391.6
 30
0.0
 11
214.620099922049
 21
391.6
 31
0.0
  0
LINE
  5
2352
330
22D5
100
AcDbEntity
  8
0
 62
     0
100
AcDbLine
 10
313.3889132128709
 20
391.6
 30
0.0
 11
315.6931260185685
 21
391.6
 31
0.0
  0
LINE
  5
2353
330
22D5
100
AcDbEntity
  8
0
 62
     0
100
AcDbLine
 10
212.3503248027835
 20
391.5
 30
0.0
 11
214.6462847817215
 21
391.5
 31
0.0
  0
LINE
  5
2354
330
22D5
100
AcDbEntity
  8
0
 62
     0
100
AcDbLine
 10
313.3627283531985
 20
391.5
 30
0.0
 11
315.658688332136
 21
391.5
 31
0.0
  0
LINE
  5
2355
330
22D5
100
AcDbEntity
  8
0
 62
     0
100
AcDbLine
 10
212.3864411641034
 20
391.4000000000001
 30
0.0
 11
214.672469641394
 21
391.4000000000001
 31
0.0
  0
LINE
  5
2356
330
22D5
100
AcDbEntity
  8
0
 62
     0
100
AcDbLine
 10
313.3365434935261
 20
391.4000000000001
 30
0.0
 11
315.6225719708161
 21
391.4000000000001
 31
0.0
  0
LINE
  5
2357
330
22D5
100
AcDbEntity
  8
0
 62
     0
100
AcDbLine
 10
212.424263654688
 20
391.3
 30
0.0
 11
214.6986545010664
 21
391.3
 31
0.0
  0
LINE
  5
2358
330
22D5
100
AcDbEntity
  8
0
 62
     0
100
AcDbLine
 10
313.3103586338536
 20
391.3
 30
0.0
 11
315.5847494802315
 21
391.3
 31
0.0
  0
LINE
  5
2359
330
22D5
100
AcDbEntity
  8
0
 62
     0
100
AcDbLine
 10
212.4638216716037
 20
391.2
 30
0.0
 11
214.7248393607389
 21
391.2
 31
0.0
  0
LINE
  5
235A
330
22D5
100
AcDbEntity
  8
0
 62
     0
100
AcDbLine
 10
313.2841737741811
 20
391.2
 30
0.0
 11
315.5451914633158
 21
391.2
 31
0.0
  0
LINE
  5
235B
330
22D5
100
AcDbEntity
  8
0
 62
     0
100
AcDbLine
 10
212.5051466880937
 20
391.1000000000001
 30
0.0
 11
214.7510242204113
 21
391.1000000000001
 31
0.0
  0
LINE
  5
235C
330
22D5
100
AcDbEntity
  8
0
 62
     0
100
AcDbLine
 10
313.2579889145087
 20
391.1000000000001
 30
0.0
 11
315.5038664468257
 21
391.1000000000001
 31
0.0
  0
LINE
  5
235D
330
22D5
100
AcDbEntity
  8
0
 62
     0
100
AcDbLine
 10
212.5482724015817
 20
391.0
 30
0.0
 11
214.7772090800838
 21
391.0
 31
0.0
  0
LINE
  5
235E
330
22D5
100
AcDbEntity
  8
0
 62
     0
100
AcDbLine
 10
313.2318040548362
 20
391.0
 30
0.0
 11
315.4607407333378
 21
391.0
 31
0.0
  0
LINE
  5
235F
330
22D5
100
AcDbEntity
  8
0
 62
     0
100
AcDbLine
 10
212.5932348980247
 20
390.9
 30
0.0
 11
214.8033939397562
 21
390.9
 31
0.0
  0
LINE
  5
2360
330
22D5
100
AcDbEntity
  8
0
 62
     0
100
AcDbLine
 10
313.2056191951637
 20
390.9
 30
0.0
 11
315.4157782368947
 21
390.9
 31
0.0
  0
LINE
  5
2361
330
22D5
100
AcDbEntity
  8
0
 62
     0
100
AcDbLine
 10
212.6400728347447
 20
390.8
 30
0.0
 11
214.8295787994287
 21
390.8
 31
0.0
  0
LINE
  5
2362
330
22D5
100
AcDbEntity
  8
0
 62
     0
100
AcDbLine
 10
313.1794343354912
 20
390.8
 30
0.0
 11
315.3689403001747
 21
390.8
 31
0.0
  0
LINE
  5
2363
330
22D5
100
AcDbEntity
  8
0
 62
     0
100
AcDbLine
 10
212.6888276442056
 20
390.7
 30
0.0
 11
214.8557636591012
 21
390.7
 31
0.0
  0
LINE
  5
2364
330
22D5
100
AcDbEntity
  8
0
 62
     0
100
AcDbLine
 10
313.1532494758188
 20
390.7
 30
0.0
 11
315.3201854907138
 21
390.7
 31
0.0
  0
LINE
  5
2365
330
22D5
100
AcDbEntity
  8
0
 62
     0
100
AcDbLine
 10
212.7395437616196
 20
390.6
 30
0.0
 11
214.8819485187736
 21
390.6
 31
0.0
  0
LINE
  5
2366
330
22D5
100
AcDbEntity
  8
0
 62
     0
100
AcDbLine
 10
313.1270646161464
 20
390.6
 30
0.0
 11
315.2694693732998
 21
390.6
 31
0.0
  0
LINE
  5
2367
330
22D5
100
AcDbEntity
  8
0
 62
     0
100
AcDbLine
 10
212.792268879754
 20
390.5
 30
0.0
 11
214.9081333784461
 21
390.5
 31
0.0
  0
LINE
  5
2368
330
22D5
100
AcDbEntity
  8
0
 62
     0
100
AcDbLine
 10
313.1008797564739
 20
390.5
 30
0.0
 11
315.2167442551654
 21
390.5
 31
0.0
  0
LINE
  5
2369
330
22D5
100
AcDbEntity
  8
0
 62
     0
100
AcDbLine
 10
212.8470542348989
 20
390.4
 30
0.0
 11
214.9343182381186
 21
390.4
 31
0.0
  0
LINE
  5
236A
330
22D5
100
AcDbEntity
  8
0
 62
     0
100
AcDbLine
 10
313.0746948968014
 20
390.4
 30
0.0
 11
315.1619589000205
 21
390.4
 31
0.0
  0
LINE
  5
236B
330
22D5
100
AcDbEntity
  8
0
 62
     0
100
AcDbLine
 10
212.9039549286684
 20
390.3
 30
0.0
 11
214.960503097791
 21
390.3
 31
0.0
  0
LINE
  5
236C
330
22D5
100
AcDbEntity
  8
0
 62
     0
100
AcDbLine
 10
313.048510037129
 20
390.3
 30
0.0
 11
315.105058206251
 21
390.3
 31
0.0
  0
LINE
  5
236D
330
22D5
100
AcDbEntity
  8
0
 62
     0
100
AcDbLine
 10
212.9630302911678
 20
390.2000000000001
 30
0.0
 11
214.9866879574635
 21
390.2000000000001
 31
0.0
  0
LINE
  5
236E
330
22D5
100
AcDbEntity
  8
0
 62
     0
100
AcDbLine
 10
313.0223251774565
 20
390.2000000000001
 30
0.0
 11
315.0459828437516
 21
390.2000000000001
 31
0.0
  0
ENDBLK
  5
236F
330
22D5
100
AcDbEntity
  8
0
100
AcDbBlockEnd
  0
BLOCK
  5
239E
330
239D
100
AcDbEntity
  8
0
100
AcDbBlockBegin
  2
*X4
 70
     1
 10
0.0
 20
0.0
 30
0.0
  3
*X4
  1

  0
LINE
  5
239F
330
239D
100
AcDbEntity
  8
0
 62
     0
100
AcDbLine
 10
213.00450656746
 20
327.9321810402488
 30
0.0
 11
207.8047368935151
 21
333.1319507141937
 31
0.0
  0
LINE
  5
23A0
330
239D
100
AcDbEntity
  8
0
 62
     0
100
AcDbLine
 10
213.00450656746
 20
325.2805306107993
 30
0.0
 11
205.1530864640656
 21
333.1319507141937
 31
0.0
  0
LINE
  5
23A1
330
239D
100
AcDbEntity
  8
0
 62
     0
100
AcDbLine
 10
213.00450656746
 20
322.6288801813497
 30
0.0
 11
202.501436034616
 21
333.1319507141937
 31
0.0
  0
LINE
  5
23A2
330
239D
100
AcDbEntity
  8
0
 62
     0
100
AcDbLine
 10
213.00450656746
 20
319.9772297519002
 30
0.0
 11
200.063447886429
 21
332.9182884329312
 31
0.0
  0
LINE
  5
23A3
330
239D
100
AcDbEntity
  8
0
 62
     0
100
AcDbLine
 10
213.00450656746
 20
317.3255793224506
 30
0.0
 11
201.0736004309812
 21
329.2564854589294
 31
0.0
  0
LINE
  5
23A4
330
239D
100
AcDbEntity
  8
0
 62
     0
100
AcDbLine
 10
213.00450656746
 20
314.6739288930011
 30
0.0
 11
202.0837529755334
 21
325.5946824849277
 31
0.0
  0
LINE
  5
23A5
330
239D
100
AcDbEntity
  8
0
 62
     0
100
AcDbLine
 10
213.00450656746
 20
312.0222784635515
 30
0.0
 11
203.0939055200855
 21
321.9328795109259
 31
0.0
  0
LINE
  5
23A6
330
239D
100
AcDbEntity
  8
0
 62
     0
100
AcDbLine
 10
213.00450656746
 20
309.370628034102
 30
0.0
 11
204.1040580646377
 21
318.2710765369242
 31
0.0
  0
LINE
  5
23A7
330
239D
100
AcDbEntity
  8
0
 62
     0
100
AcDbLine
 10
213.00450656746
 20
306.7189776046524
 30
0.0
 11
205.1142106091899
 21
314.6092735629224
 31
0.0
  0
LINE
  5
23A8
330
239D
100
AcDbEntity
  8
0
 62
     0
100
AcDbLine
 10
212.9398830284692
 20
304.1319507141937
 30
0.0
 11
206.1243631537421
 21
310.9474705889208
 31
0.0
  0
LINE
  5
23A9
330
239D
100
AcDbEntity
  8
0
 62
     0
100
AcDbLine
 10
210.2882325990196
 20
304.1319507141937
 30
0.0
 11
207.1345156982943
 21
307.285667614919
 31
0.0
  0
LINE
  5
23AA
330
239D
100
AcDbEntity
  8
0
 62
     0
100
AcDbLine
 10
316.3542497770017
 20
304.1319507141936
 30
0.0
 11
315.00450656746
 21
305.4816939237353
 31
0.0
  0
LINE
  5
23AB
330
239D
100
AcDbEntity
  8
0
 62
     0
100
AcDbLine
 10
319.0059002064512
 20
304.1319507141936
 30
0.0
 11
315.00450656746
 21
308.1333443531848
 31
0.0
  0
LINE
  5
23AC
330
239D
100
AcDbEntity
  8
0
 62
     0
100
AcDbLine
 10
320.361921501177
 20
305.4275798489174
 30
0.0
 11
315.00450656746
 21
310.7849947826344
 31
0.0
  0
LINE
  5
23AD
330
239D
100
AcDbEntity
  8
0
 62
     0
100
AcDbLine
 10
320.9352513237607
 20
307.5059004557833
 30
0.0
 11
315.00450656746
 21
313.4366452120839
 31
0.0
  0
LINE
  5
23AE
330
239D
100
AcDbEntity
  8
0
 62
     0
100
AcDbLine
 10
321.5085811463443
 20
309.5842210626492
 30
0.0
 11
315.00450656746
 21
316.0882956415335
 31
0.0
  0
LINE
  5
23AF
330
239D
100
AcDbEntity
  8
0
 62
     0
100
AcDbLine
 10
322.081910968928
 20
311.6625416695151
 30
0.0
 11
315.00450656746
 21
318.739946070983
 31
0.0
  0
LINE
  5
23B0
330
239D
100
AcDbEntity
  8
0
 62
     0
100
AcDbLine
 10
322.6552407915117
 20
313.740862276381
 30
0.0
 11
315.00450656746
 21
321.3915965004326
 31
0.0
  0
LINE
  5
23B1
330
239D
100
AcDbEntity
  8
0
 62
     0
100
AcDbLine
 10
323.2285706140954
 20
315.8191828832468
 30
0.0
 11
315.00450656746
 21
324.0432469298821
 31
0.0
  0
LINE
  5
23B2
330
239D
100
AcDbEntity
  8
0
 62
     0
100
AcDbLine
 10
323.8019004366791
 20
317.8975034901127
 30
0.0
 11
315.00450656746
 21
326.6948973593317
 31
0.0
  0
LINE
  5
23B3
330
239D
100
AcDbEntity
  8
0
 62
     0
100
AcDbLine
 10
324.3752302592628
 20
319.9758240969786
 30
0.0
 11
315.00450656746
 21
329.3465477887813
 31
0.0
  0
LINE
  5
23B4
330
239D
100
AcDbEntity
  8
0
 62
     0
100
AcDbLine
 10
324.9485600818464
 20
322.0541447038444
 30
0.0
 11
316.5028473823091
 21
330.4998574033817
 31
0.0
  0
LINE
  5
23B5
330
239D
100
AcDbEntity
  8
0
 62
     0
100
AcDbLine
 10
325.5218899044301
 20
324.1324653107103
 30
0.0
 11
317.907447478558
 21
331.7469077365824
 31
0.0
  0
LINE
  5
23B6
330
239D
100
AcDbEntity
  8
0
 62
     0
100
AcDbLine
 10
326.0952197270138
 20
326.2107859175762
 30
0.0
 11
319.1740549303963
 21
333.1319507141937
 31
0.0
  0
LINE
  5
23B7
330
239D
100
AcDbEntity
  8
0
 62
     0
100
AcDbLine
 10
326.6685495495975
 20
328.2891065244421
 30
0.0
 11
321.8257053598459
 21
333.1319507141937
 31
0.0
  0
LINE
  5
23B8
330
239D
100
AcDbEntity
  8
0
 62
     0
100
AcDbLine
 10
327.2418793721812
 20
330.3674271313079
 30
0.0
 11
324.4773557892954
 21
333.1319507141937
 31
0.0
  0
LINE
  5
23B9
330
239D
100
AcDbEntity
  8
0
 62
     0
100
AcDbLine
 10
327.8152091947649
 20
332.4457477381738
 30
0.0
 11
327.129006218745
 21
333.1319507141937
 31
0.0
  0
LINE
  5
23BA
330
239D
100
AcDbEntity
  8
0
 62
     0
100
AcDbLine
 10
315.00450656746
 20
328.2627587147078
 30
0.0
 11
319.8736985669459
 21
333.1319507141937
 31
0.0
  0
LINE
  5
23BB
330
239D
100
AcDbEntity
  8
0
 62
     0
100
AcDbLine
 10
315.00450656746
 20
325.6111082852582
 30
0.0
 11
322.5253489963955
 21
333.1319507141937
 31
0.0
  0
LINE
  5
23BC
330
239D
100
AcDbEntity
  8
0
 62
     0
100
AcDbLine
 10
315.00450656746
 20
322.9594578558087
 30
0.0
 11
325.176999425845
 21
333.1319507141937
 31
0.0
  0
LINE
  5
23BD
330
239D
100
AcDbEntity
  8
0
 62
     0
100
AcDbLine
 10
315.00450656746
 20
320.3078074263591
 30
0.0
 11
327.8286498552946
 21
333.1319507141937
 31
0.0
  0
LINE
  5
23BE
330
239D
100
AcDbEntity
  8
0
 62
     0
100
AcDbLine
 10
315.00450656746
 20
317.6561569969096
 30
0.0
 11
327.0613470561137
 21
329.7129974855633
 31
0.0
  0
LINE
  5
23BF
330
239D
100
AcDbEntity
  8
0
 62
     0
100
AcDbLine
 10
315.00450656746
 20
315.00450656746
 30
0.0
 11
326.0511945115615
 21
326.0511945115615
 31
0.0
  0
LINE
  5
23C0
330
239D
100
AcDbEntity
  8
0
 62
     0
100
AcDbLine
 10
315.00450656746
 20
312.3528561380104
 30
0.0
 11
325.0410419670093
 21
322.3893915375597
 31
0.0
  0
LINE
  5
23C1
330
239D
100
AcDbEntity
  8
0
 62
     0
100
AcDbLine
 10
315.00450656746
 20
309.7012057085609
 30
0.0
 11
324.0308894224571
 21
318.727588563558
 31
0.0
  0
LINE
  5
23C2
330
239D
100
AcDbEntity
  8
0
 62
     0
100
AcDbLine
 10
315.00450656746
 20
307.0495552791113
 30
0.0
 11
323.020736877905
 21
315.0657855895563
 31
0.0
  0
LINE
  5
23C3
330
239D
100
AcDbEntity
  8
0
 62
     0
100
AcDbLine
 10
315.00450656746
 20
304.3979048496618
 30
0.0
 11
322.0105843333527
 21
311.4039826155545
 31
0.0
  0
LINE
  5
23C4
330
239D
100
AcDbEntity
  8
0
 62
     0
100
AcDbLine
 10
317.3902028614414
 20
304.1319507141936
 30
0.0
 11
321.0004317888005
 21
307.7421796415527
 31
0.0
  0
LINE
  5
23C5
330
239D
100
AcDbEntity
  8
0
 62
     0
100
AcDbLine
 10
211.3241856834593
 20
304.1319507141937
 30
0.0
 11
213.00450656746
 21
305.8122715981943
 31
0.0
  0
LINE
  5
23C6
330
239D
100
AcDbEntity
  8
0
 62
     0
100
AcDbLine
 10
208.6725352540098
 20
304.1319507141937
 30
0.0
 11
213.00450656746
 21
308.4639220276438
 31
0.0
  0
LINE
  5
23C7
330
239D
100
AcDbEntity
  8
0
 62
     0
100
AcDbLine
 10
207.5756153798059
 20
305.6866812694394
 30
0.0
 11
213.00450656746
 21
311.1155724570934
 31
0.0
  0
LINE
  5
23C8
330
239D
100
AcDbEntity
  8
0
 62
     0
100
AcDbLine
 10
207.0022855572223
 20
307.7650018763052
 30
0.0
 11
213.00450656746
 21
313.767222886543
 31
0.0
  0
LINE
  5
23C9
330
239D
100
AcDbEntity
  8
0
 62
     0
100
AcDbLine
 10
206.4289557346385
 20
309.8433224831711
 30
0.0
 11
213.00450656746
 21
316.4188733159925
 31
0.0
  0
LINE
  5
23CA
330
239D
100
AcDbEntity
  8
0
 62
     0
100
AcDbLine
 10
205.8556259120549
 20
311.921643090037
 30
0.0
 11
213.00450656746
 21
319.0705237454421
 31
0.0
  0
LINE
  5
23CB
330
239D
100
AcDbEntity
  8
0
 62
     0
100
AcDbLine
 10
205.2822960894712
 20
313.9999636969029
 30
0.0
 11
213.00450656746
 21
321.7221741748916
 31
0.0
  0
LINE
  5
23CC
330
239D
100
AcDbEntity
  8
0
 62
     0
100
AcDbLine
 10
204.7089662668875
 20
316.0782843037687
 30
0.0
 11
213.00450656746
 21
324.3738246043412
 31
0.0
  0
LINE
  5
23CD
330
239D
100
AcDbEntity
  8
0
 62
     0
100
AcDbLine
 10
204.1356364443038
 20
318.1566049106346
 30
0.0
 11
213.00450656746
 21
327.0254750337907
 31
0.0
  0
LINE
  5
23CE
330
239D
100
AcDbEntity
  8
0
 62
     0
100
AcDbLine
 10
203.5623066217202
 20
320.2349255175005
 30
0.0
 11
213.00450656746
 21
329.6771254632403
 31
0.0
  0
LINE
  5
23CF
330
239D
100
AcDbEntity
  8
0
 62
     0
100
AcDbLine
 10
202.9889767991365
 20
322.3132461243663
 30
0.0
 11
211.299765492422
 21
330.6240348176519
 31
0.0
  0
LINE
  5
23D0
330
239D
100
AcDbEntity
  8
0
 62
     0
100
AcDbLine
 10
202.4156469765528
 20
324.3915667312322
 30
0.0
 11
209.966101676876
 21
331.9420214315555
 31
0.0
  0
LINE
  5
23D1
330
239D
100
AcDbEntity
  8
0
 62
     0
100
AcDbLine
 10
201.8423171539691
 20
326.4698873380981
 30
0.0
 11
208.5043805300647
 21
333.1319507141937
 31
0.0
  0
LINE
  5
23D2
330
239D
100
AcDbEntity
  8
0
 62
     0
100
AcDbLine
 10
201.2689873313854
 20
328.548207944964
 30
0.0
 11
205.8527301006151
 21
333.1319507141937
 31
0.0
  0
LINE
  5
23D3
330
239D
100
AcDbEntity
  8
0
 62
     0
100
AcDbLine
 10
200.6956575088018
 20
330.6265285518299
 30
0.0
 11
203.2010796711656
 21
333.1319507141937
 31
0.0
  0
LINE
  5
23D4
330
239D
100
AcDbEntity
  8
0
 62
     0
100
AcDbLine
 10
200.1223276862181
 20
332.7048491586957
 30
0.0
 11
200.549429241716
 21
333.1319507141937
 31
0.0
  0
ENDBLK
  5
23D5
330
239D
100
AcDbEntity
  8
0
100
AcDbBlockEnd
  0
BLOCK
  5
23FD
330
23FC
100
AcDbEntity
  8
0
100
AcDbBlockBegin
  2
*X5
 70
     1
 10
0.0
 20
0.0
 30
0.0
  3
*X5
  1

  0
LINE
  5
23FE
330
23FC
100
AcDbEntity
  8
0
 62
     0
100
AcDbLine
 10
432.0053945194559
 20
389.5789876482631
 30
0.0
 11
432.816091093286
 21
390.3896842220932
 31
0.0
  0
LINE
  5
23FF
330
23FC
100
AcDbEntity
  8
0
 62
     0
100
AcDbLine
 10
429.3537440900061
 20
389.5789876482629
 30
0.0
 11
432.816091093286
 21
393.0413346515427
 31
0.0
  0
LINE
  5
2400
330
23FC
100
AcDbEntity
  8
0
 62
     0
100
AcDbLine
 10
424.6540971329594
 20
387.5309911206657
 30
0.0
 11
432.816091093286
 21
395.6929850809924
 31
0.0
  0
LINE
  5
2401
330
23FC
100
AcDbEntity
  8
0
 62
     0
100
AcDbLine
 10
420.8979208137657
 20
386.4264652309216
 30
0.0
 11
426.6493617877953
 21
392.1779062049512
 31
0.0
  0
LINE
  5
2402
330
23FC
100
AcDbEntity
  8
0
 62
     0
100
AcDbLine
 10
428.8160910932861
 20
394.3446355104419
 30
0.0
 11
432.816091093286
 21
398.3446355104419
 31
0.0
  0
LINE
  5
2403
330
23FC
100
AcDbEntity
  8
0
 62
     0
100
AcDbLine
 10
418.8160910932856
 20
386.996285939891
 30
0.0
 11
423.0271399392113
 21
391.2073347858166
 31
0.0
  0
LINE
  5
2404
330
23FC
100
AcDbEntity
  8
0
 62
     0
100
AcDbLine
 10
428.034644092566
 20
396.2148389391714
 30
0.0
 11
431.8987928016577
 21
400.0789876482631
 31
0.0
  0
LINE
  5
2405
330
23FC
100
AcDbEntity
  8
0
 62
     0
100
AcDbLine
 10
418.8160910932856
 20
389.6479363693405
 30
0.0
 11
419.4049180906272
 21
390.2367633666822
 31
0.0
  0
LINE
  5
2406
330
23FC
100
AcDbEntity
  8
0
 62
     0
100
AcDbLine
 10
425.7471423722079
 20
396.5789876482629
 30
0.0
 11
429.2471423722082
 21
400.0789876482631
 31
0.0
  0
LINE
  5
2407
330
23FC
100
AcDbEntity
  8
0
 62
     0
100
AcDbLine
 10
423.0954919427584
 20
396.5789876482629
 30
0.0
 11
426.5954919427586
 21
400.0789876482631
 31
0.0
  0
LINE
  5
2408
330
23FC
100
AcDbEntity
  8
0
 62
     0
100
AcDbLine
 10
420.4438415133088
 20
396.5789876482629
 30
0.0
 11
423.9438415133091
 21
400.0789876482631
 31
0.0
  0
LINE
  5
2409
330
23FC
100
AcDbEntity
  8
0
 62
     0
100
AcDbLine
 10
418.8160910932856
 20
397.6028876576892
 30
0.0
 11
421.2921910838595
 21
400.0789876482631
 31
0.0
  0
LINE
  5
240A
330
23FC
100
AcDbEntity
  8
0
 62
     0
100
AcDbLine
 10
418.8160910932859
 20
262.3687157557624
 30
0.0
 11
420.2976724681825
 21
263.8502971306589
 31
0.0
  0
LINE
  5
240B
330
23FC
100
AcDbEntity
  8
0
 62
     0
100
AcDbLine
 10
419.1015302292628
 20
260.0025044622896
 30
0.0
 11
422.4511135406596
 21
263.3520877736865
 31
0.0
  0
LINE
  5
240C
330
23FC
100
AcDbEntity
  8
0
 62
     0
100
AcDbLine
 10
421.1928209886073
 20
259.4421447921846
 30
0.0
 11
424.4532716540494
 21
262.7025954576268
 31
0.0
  0
LINE
  5
240D
330
23FC
100
AcDbEntity
  8
0
 62
     0
100
AcDbLine
 10
423.2841117479519
 20
258.8817851220797
 30
0.0
 11
426.3226316959522
 21
261.9203050700799
 31
0.0
  0
LINE
  5
240E
330
23FC
100
AcDbEntity
  8
0
 62
     0
100
AcDbLine
 10
418.8160910932859
 20
251.7621140379642
 30
0.0
 11
420.6329647035848
 21
253.5789876482629
 31
0.0
  0
LINE
  5
240F
330
23FC
100
AcDbEntity
  8
0
 62
     0
100
AcDbLine
 10
425.3754025072964
 20
258.3214254519747
 30
0.0
 11
428.0719074846017
 21
261.01793042928
 31
0.0
  0
LINE
  5
2410
330
23FC
100
AcDbEntity
  8
0
 62
     0
100
AcDbLine
 10
419.8003531131602
 20
250.0947256283888
 30
0.0
 11
423.2846151330343
 21
253.5789876482629
 31
0.0
  0
LINE
  5
2411
330
23FC
100
AcDbEntity
  8
0
 62
     0
100
AcDbLine
 10
427.4659100277842
 20
257.7602825430128
 30
0.0
 11
430.2846151330343
 21
260.5789876482629
 31
0.0
  0
LINE
  5
2412
330
23FC
100
AcDbEntity
  8
0
 62
     0
100
AcDbLine
 10
422.4362655624839
 20
250.0789876482629
 30
0.0
 11
425.9362655624839
 21
253.5789876482629
 31
0.0
  0
LINE
  5
2413
330
23FC
100
AcDbEntity
  8
0
 62
     0
100
AcDbLine
 10
428.7594234705462
 20
256.4021455563253
 30
0.0
 11
432.816091093286
 21
260.4588131790651
 31
0.0
  0
LINE
  5
2414
330
23FC
100
AcDbEntity
  8
0
 62
     0
100
AcDbLine
 10
425.0879159919334
 20
250.0789876482629
 30
0.0
 11
432.816091093286
 21
257.8071627496156
 31
0.0
  0
LINE
  5
2415
330
23FC
100
AcDbEntity
  8
0
 62
     0
100
AcDbLine
 10
427.7395664213829
 20
250.0789876482629
 30
0.0
 11
432.816091093286
 21
255.155512320166
 31
0.0
  0
LINE
  5
2416
330
23FC
100
AcDbEntity
  8
0
 62
     0
100
AcDbLine
 10
430.3912168508325
 20
250.0789876482629
 30
0.0
 11
432.816091093286
 21
252.5038618907165
 31
0.0
  0
LINE
  5
2417
330
23FC
100
AcDbEntity
  8
0
 62
     0
100
AcDbLine
 10
432.816091093286
 20
259.2646709930472
 30
0.0
 11
431.5017744380703
 21
260.5789876482629
 31
0.0
  0
LINE
  5
2418
330
23FC
100
AcDbEntity
  8
0
 62
     0
100
AcDbLine
 10
432.816091093286
 20
256.6130205635977
 30
0.0
 11
428.8501240086207
 21
260.5789876482629
 31
0.0
  0
LINE
  5
2419
330
23FC
100
AcDbEntity
  8
0
 62
     0
100
AcDbLine
 10
432.816091093286
 20
253.9613701341481
 30
0.0
 11
423.8643682591546
 21
262.9130929682796
 31
0.0
  0
LINE
  5
241A
330
23FC
100
AcDbEntity
  8
0
 62
     0
100
AcDbLine
 10
432.816091093286
 20
251.3097197046985
 30
0.0
 11
428.8091446407454
 21
255.3166661572392
 31
0.0
  0
LINE
  5
241B
330
23FC
100
AcDbEntity
  8
0
 62
     0
100
AcDbLine
 10
425.9614039627666
 20
258.164406835218
 30
0.0
 11
420.2704958388344
 21
263.8553149591502
 31
0.0
  0
LINE
  5
241C
330
23FC
100
AcDbEntity
  8
0
 62
     0
100
AcDbLine
 10
431.3951727202721
 20
250.0789876482629
 30
0.0
 11
427.7177639670484
 21
253.7563964014867
 31
0.0
  0
LINE
  5
241D
330
23FC
100
AcDbEntity
  8
0
 62
     0
100
AcDbLine
 10
422.3391821141827
 20
259.1349782543524
 30
0.0
 11
418.8160910932859
 21
262.658069275249
 31
0.0
  0
LINE
  5
241E
330
23FC
100
AcDbEntity
  8
0
 62
     0
100
AcDbLine
 10
428.7435222908225
 20
250.0789876482629
 30
0.0
 11
425.2435222908226
 21
253.5789876482629
 31
0.0
  0
LINE
  5
241F
330
23FC
100
AcDbEntity
  8
0
 62
     0
100
AcDbLine
 10
426.091871861373
 20
250.0789876482629
 30
0.0
 11
422.5918718613731
 21
253.5789876482629
 31
0.0
  0
LINE
  5
2420
330
23FC
100
AcDbEntity
  8
0
 62
     0
100
AcDbLine
 10
423.4402214319234
 20
250.0789876482629
 30
0.0
 11
419.9402214319235
 21
253.5789876482629
 31
0.0
  0
LINE
  5
2421
330
23FC
100
AcDbEntity
  8
0
 62
     0
100
AcDbLine
 10
420.7885710024739
 20
250.0789876482629
 30
0.0
 11
418.8160910932859
 21
252.0514675574509
 31
0.0
  0
LINE
  5
2422
330
23FC
100
AcDbEntity
  8
0
 62
     0
100
AcDbLine
 10
419.8695077861718
 20
386.2322227664923
 30
0.0
 11
418.8160910932856
 21
387.2856394593784
 31
0.0
  0
LINE
  5
2423
330
23FC
100
AcDbEntity
  8
0
 62
     0
100
AcDbLine
 10
422.0544440632319
 20
386.6989369188817
 30
0.0
 11
418.8160910932856
 21
389.9372898888281
 31
0.0
  0
LINE
  5
2424
330
23FC
100
AcDbEntity
  8
0
 62
     0
100
AcDbLine
 10
424.0836930844168
 20
387.3213383271464
 30
0.0
 11
420.7956283531361
 21
390.6094030584271
 31
0.0
  0
LINE
  5
2425
330
23FC
100
AcDbEntity
  8
0
 62
     0
100
AcDbLine
 10
425.9771529538479
 20
388.0795288871648
 30
0.0
 11
422.8869191124806
 21
391.1697627285321
 31
0.0
  0
LINE
  5
2426
330
23FC
100
AcDbEntity
  8
0
 62
     0
100
AcDbLine
 10
427.7484579823108
 20
388.9598742881515
 30
0.0
 11
424.9782098718251
 21
391.7301223986372
 31
0.0
  0
LINE
  5
2427
330
23FC
100
AcDbEntity
  8
0
 62
     0
100
AcDbLine
 10
420.1293446221994
 20
396.5789876482629
 30
0.0
 11
418.8160910932856
 21
397.8922411771767
 31
0.0
  0
LINE
  5
2428
330
23FC
100
AcDbEntity
  8
0
 62
     0
100
AcDbLine
 10
429.7809950516489
 20
389.578987648263
 30
0.0
 11
427.0695006311696
 21
392.2904820687422
 31
0.0
  0
LINE
  5
2429
330
23FC
100
AcDbEntity
  8
0
 62
     0
100
AcDbLine
 10
422.7809950516489
 20
396.5789876482629
 30
0.0
 11
419.5485430724671
 21
399.8114396274447
 31
0.0
  0
LINE
  5
242A
330
23FC
100
AcDbEntity
  8
0
 62
     0
100
AcDbLine
 10
432.4326454810983
 20
389.5789876482631
 30
0.0
 11
428.6252197566549
 21
393.3864133727066
 31
0.0
  0
LINE
  5
242B
330
23FC
100
AcDbEntity
  8
0
 62
     0
100
AcDbLine
 10
425.4326454810985
 20
396.5789876482629
 30
0.0
 11
421.9326454810982
 21
400.0789876482631
 31
0.0
  0
LINE
  5
242C
330
23FC
100
AcDbEntity
  8
0
 62
     0
100
AcDbLine
 10
432.816091093286
 20
391.847192465525
 30
0.0
 11
424.5842959105478
 21
400.0789876482631
 31
0.0
  0
LINE
  5
242D
330
23FC
100
AcDbEntity
  8
0
 62
     0
100
AcDbLine
 10
432.816091093286
 20
394.4988428949745
 30
0.0
 11
427.2359463399974
 21
400.0789876482631
 31
0.0
  0
LINE
  5
242E
330
23FC
100
AcDbEntity
  8
0
 62
     0
100
AcDbLine
 10
432.816091093286
 20
397.150493324424
 30
0.0
 11
429.8875967694469
 21
400.0789876482631
 31
0.0
  0
LINE
  5
242F
330
23FC
100
AcDbEntity
  8
0
 62
     0
100
AcDbLine
 10
432.816091093286
 20
399.8021437538736
 30
0.0
 11
432.5392471988965
 21
400.0789876482631
 31
0.0
  0
ENDBLK
  5
2430
330
23FC
100
AcDbEntity
  8
0
100
AcDbBlockEnd
  0
BLOCK
  5
2432
330
2431
100
AcDbEntity
  8
0
100
AcDbBlockBegin
  2
*X6
 70
     1
 10
0.0
 20
0.0
 30
0.0
  3
*X6
  1

  0
LINE
  5
2433
330
2431
100
AcDbEntity
  8
0
 62
     0
100
AcDbLine
 10
453.8646657669176
 20
383.1539876482629
 30
0.0
 11
454.5528784301013
 21
383.8422003114466
 31
0.0
  0
LINE
  5
2434
330
2431
100
AcDbEntity
  8
0
 62
     0
100
AcDbLine
 10
450.3291318609848
 20
383.1539876482629
 30
0.0
 11
452.254131860984
 21
385.078987648262
 31
0.0
  0
LINE
  5
2435
330
2431
100
AcDbEntity
  8
0
 62
     0
100
AcDbLine
 10
446.7935979550522
 20
383.1539876482629
 30
0.0
 11
448.7185979550512
 21
385.078987648262
 31
0.0
  0
LINE
  5
2436
330
2431
100
AcDbEntity
  8
0
 62
     0
100
AcDbLine
 10
443.2580640491194
 20
383.1539876482629
 30
0.0
 11
445.1830640491185
 21
385.078987648262
 31
0.0
  0
LINE
  5
2437
330
2431
100
AcDbEntity
  8
0
 62
     0
100
AcDbLine
 10
450.1830640491194
 20
390.0789876482629
 30
0.0
 11
453.316091093286
 21
393.2120146924295
 31
0.0
  0
LINE
  5
2438
330
2431
100
AcDbEntity
  8
0
 62
     0
100
AcDbLine
 10
439.7225301431866
 20
383.1539876482629
 30
0.0
 11
441.6475301431858
 21
385.078987648262
 31
0.0
  0
LINE
  5
2439
330
2431
100
AcDbEntity
  8
0
 62
     0
100
AcDbLine
 10
446.6475301431866
 20
390.0789876482629
 30
0.0
 11
453.316091093286
 21
396.7475485983623
 31
0.0
  0
LINE
  5
243A
330
2431
100
AcDbEntity
  8
0
 62
     0
100
AcDbLine
 10
436.1869962372539
 20
383.1539876482629
 30
0.0
 11
438.111996237253
 21
385.078987648262
 31
0.0
  0
LINE
  5
243B
330
2431
100
AcDbEntity
  8
0
 62
     0
100
AcDbLine
 10
449.8160910932857
 20
396.7830825042947
 30
0.0
 11
453.111996237254
 21
400.0789876482628
 31
0.0
  0
LINE
  5
243C
330
2431
100
AcDbEntity
  8
0
 62
     0
100
AcDbLine
 10
443.1119962372539
 20
390.0789876482629
 30
0.0
 11
448.1119962372539
 21
395.0789876482629
 31
0.0
  0
LINE
  5
243D
330
2431
100
AcDbEntity
  8
0
 62
     0
100
AcDbLine
 10
432.6514623313212
 20
383.1539876482629
 30
0.0
 11
436.316091093286
 21
386.8186164102277
 31
0.0
  0
LINE
  5
243E
330
2431
100
AcDbEntity
  8
0
 62
     0
100
AcDbLine
 10
439.5764623313212
 20
390.0789876482629
 30
0.0
 11
444.5764623313212
 21
395.0789876482629
 31
0.0
  0
LINE
  5
243F
330
2431
100
AcDbEntity
  8
0
 62
     0
100
AcDbLine
 10
430.8160910932859
 20
384.8541503161604
 30
0.0
 11
441.0409284253884
 21
395.0789876482629
 31
0.0
  0
LINE
  5
2440
330
2431
100
AcDbEntity
  8
0
 62
     0
100
AcDbLine
 10
430.8160910932859
 20
388.3896842220932
 30
0.0
 11
432.0053945194559
 21
389.5789876482631
 31
0.0
  0
LINE
  5
2441
330
2431
100
AcDbEntity
  8
0
 62
     0
100
AcDbLine
 10
432.816091093286
 20
390.3896842220932
 30
0.0
 11
437.5053945194557
 21
395.0789876482629
 31
0.0
  0
LINE
  5
2442
330
2431
100
AcDbEntity
  8
0
 62
     0
100
AcDbLine
 10
432.816091093286
 20
393.9252181280259
 30
0.0
 11
433.969860613523
 21
395.0789876482629
 31
0.0
  0
LINE
  5
2443
330
2431
100
AcDbEntity
  8
0
 62
     0
100
AcDbLine
 10
430.8160910932861
 20
264.6459975144474
 30
0.0
 11
433.1740812271014
 21
267.0039876482628
 31
0.0
  0
LINE
  5
2444
330
2431
100
AcDbEntity
  8
0
 62
     0
100
AcDbLine
 10
430.8160910932861
 20
261.1104636085147
 30
0.0
 11
436.7096151330342
 21
267.0039876482628
 31
0.0
  0
LINE
  5
2445
330
2431
100
AcDbEntity
  8
0
 62
     0
100
AcDbLine
 10
432.816091093286
 20
259.574929702582
 30
0.0
 11
436.316091093286
 21
263.0749297025819
 31
0.0
  0
LINE
  5
2446
330
2431
100
AcDbEntity
  8
0
 62
     0
100
AcDbLine
 10
438.3201490389681
 20
265.078987648264
 30
0.0
 11
440.2451490389669
 21
267.0039876482628
 31
0.0
  0
LINE
  5
2447
330
2431
100
AcDbEntity
  8
0
 62
     0
100
AcDbLine
 10
432.816091093286
 20
256.0393957966492
 30
0.0
 11
436.316091093286
 21
259.5393957966492
 31
0.0
  0
LINE
  5
2448
330
2431
100
AcDbEntity
  8
0
 62
     0
100
AcDbLine
 10
441.8556829449008
 20
265.078987648264
 30
0.0
 11
443.7806829448996
 21
267.0039876482628
 31
0.0
  0
LINE
  5
2449
330
2431
100
AcDbEntity
  8
0
 62
     0
100
AcDbLine
 10
432.816091093286
 20
252.5038618907165
 30
0.0
 11
436.316091093286
 21
256.0038618907165
 31
0.0
  0
LINE
  5
244A
330
2431
100
AcDbEntity
  8
0
 62
     0
100
AcDbLine
 10
445.3912168508336
 20
265.0789876482639
 30
0.0
 11
447.3162168508324
 21
267.0039876482628
 31
0.0
  0
LINE
  5
244B
330
2431
100
AcDbEntity
  8
0
 62
     0
100
AcDbLine
 10
433.9267507567653
 20
250.0789876482629
 30
0.0
 11
438.9267507567652
 21
255.0789876482629
 31
0.0
  0
LINE
  5
244C
330
2431
100
AcDbEntity
  8
0
 62
     0
100
AcDbLine
 10
448.9267507567662
 20
265.0789876482639
 30
0.0
 11
450.8517507567652
 21
267.0039876482628
 31
0.0
  0
LINE
  5
244D
330
2431
100
AcDbEntity
  8
0
 62
     0
100
AcDbLine
 10
437.4622846626979
 20
250.0789876482629
 30
0.0
 11
442.462284662698
 21
255.0789876482629
 31
0.0
  0
LINE
  5
244E
330
2431
100
AcDbEntity
  8
0
 62
     0
100
AcDbLine
 10
452.4622846626989
 20
265.0789876482639
 30
0.0
 11
454.3872846626978
 21
267.0039876482628
 31
0.0
  0
LINE
  5
244F
330
2431
100
AcDbEntity
  8
0
 62
     0
100
AcDbLine
 10
440.9978185686307
 20
250.0789876482629
 30
0.0
 11
445.9978185686306
 21
255.0789876482629
 31
0.0
  0
LINE
  5
2450
330
2431
100
AcDbEntity
  8
0
 62
     0
100
AcDbLine
 10
444.5333524745634
 20
250.0789876482629
 30
0.0
 11
449.5333524745634
 21
255.0789876482629
 31
0.0
  0
LINE
  5
2451
330
2431
100
AcDbEntity
  8
0
 62
     0
100
AcDbLine
 10
448.0688863804962
 20
250.0789876482629
 30
0.0
 11
453.0688863804961
 21
255.0789876482629
 31
0.0
  0
LINE
  5
2452
330
2431
100
AcDbEntity
  8
0
 62
     0
100
AcDbLine
 10
451.6044202864289
 20
250.0789876482629
 30
0.0
 11
453.316091093286
 21
251.79065845512
 31
0.0
  0
LINE
  5
2453
330
2431
100
AcDbEntity
  8
0
 62
     0
100
AcDbLine
 10
454.7430101276502
 20
266.5059066826282
 30
0.0
 11
454.2449291620155
 21
267.0039876482628
 31
0.0
  0
LINE
  5
2454
330
2431
100
AcDbEntity
  8
0
 62
     0
100
AcDbLine
 10
452.6343952560818
 20
265.0789876482639
 30
0.0
 11
450.7093952560827
 21
267.0039876482628
 31
0.0
  0
LINE
  5
2455
330
2431
100
AcDbEntity
  8
0
 62
     0
100
AcDbLine
 10
449.098861350149
 20
265.0789876482639
 30
0.0
 11
447.1738613501499
 21
267.0039876482628
 31
0.0
  0
LINE
  5
2456
330
2431
100
AcDbEntity
  8
0
 62
     0
100
AcDbLine
 10
445.5633274442162
 20
265.0789876482639
 30
0.0
 11
443.6383274442173
 21
267.0039876482628
 31
0.0
  0
LINE
  5
2457
330
2431
100
AcDbEntity
  8
0
 62
     0
100
AcDbLine
 10
453.316091093286
 20
253.7906900932614
 30
0.0
 11
452.0277935382845
 21
255.0789876482629
 31
0.0
  0
LINE
  5
2458
330
2431
100
AcDbEntity
  8
0
 62
     0
100
AcDbLine
 10
442.0277935382834
 20
265.078987648264
 30
0.0
 11
440.1027935382844
 21
267.0039876482628
 31
0.0
  0
LINE
  5
2459
330
2431
100
AcDbEntity
  8
0
 62
     0
100
AcDbLine
 10
453.316091093286
 20
250.2551561873287
 30
0.0
 11
448.4922596323517
 21
255.0789876482629
 31
0.0
  0
LINE
  5
245A
330
2431
100
AcDbEntity
  8
0
 62
     0
100
AcDbLine
 10
438.4922596323506
 20
265.078987648264
 30
0.0
 11
436.5672596323518
 21
267.0039876482628
 31
0.0
  0
LINE
  5
245B
330
2431
100
AcDbEntity
  8
0
 62
     0
100
AcDbLine
 10
449.956725726419
 20
250.0789876482629
 30
0.0
 11
444.956725726419
 21
255.0789876482629
 31
0.0
  0
LINE
  5
245C
330
2431
100
AcDbEntity
  8
0
 62
     0
100
AcDbLine
 10
436.316091093286
 20
263.7196222813959
 30
0.0
 11
433.031725726419
 21
267.0039876482628
 31
0.0
  0
LINE
  5
245D
330
2431
100
AcDbEntity
  8
0
 62
     0
100
AcDbLine
 10
446.4211918204863
 20
250.0789876482629
 30
0.0
 11
441.4211918204863
 21
255.0789876482629
 31
0.0
  0
LINE
  5
245E
330
2431
100
AcDbEntity
  8
0
 62
     0
100
AcDbLine
 10
436.316091093286
 20
260.1840883754631
 30
0.0
 11
430.8160910932861
 21
265.6840883754632
 31
0.0
  0
LINE
  5
245F
330
2431
100
AcDbEntity
  8
0
 62
     0
100
AcDbLine
 10
442.8856579145535
 20
250.0789876482629
 30
0.0
 11
437.8856579145534
 21
255.0789876482629
 31
0.0
  0
LINE
  5
2460
330
2431
100
AcDbEntity
  8
0
 62
     0
100
AcDbLine
 10
432.3856579145536
 20
260.5789876482629
 30
0.0
 11
430.8160910932861
 21
262.1485544695304
 31
0.0
  0
LINE
  5
2461
330
2431
100
AcDbEntity
  8
0
 62
     0
100
AcDbLine
 10
436.316091093286
 20
256.6485544695304
 30
0.0
 11
432.816091093286
 21
260.1485544695304
 31
0.0
  0
LINE
  5
2462
330
2431
100
AcDbEntity
  8
0
 62
     0
100
AcDbLine
 10
439.3501240086208
 20
250.0789876482629
 30
0.0
 11
432.816091093286
 21
256.6130205635977
 31
0.0
  0
LINE
  5
2463
330
2431
100
AcDbEntity
  8
0
 62
     0
100
AcDbLine
 10
435.8145901026881
 20
250.0789876482629
 30
0.0
 11
432.816091093286
 21
253.0774866576649
 31
0.0
  0
LINE
  5
2464
330
2431
100
AcDbEntity
  8
0
 62
     0
100
AcDbLine
 10
433.5543446221993
 20
383.1539876482629
 30
0.0
 11
430.8160910932859
 21
385.8922411771763
 31
0.0
  0
LINE
  5
2465
330
2431
100
AcDbEntity
  8
0
 62
     0
100
AcDbLine
 10
437.0898785281321
 20
383.1539876482629
 30
0.0
 11
430.8160910932859
 21
389.427775083109
 31
0.0
  0
LINE
  5
2466
330
2431
100
AcDbEntity
  8
0
 62
     0
100
AcDbLine
 10
440.6254124340647
 20
383.1539876482629
 30
0.0
 11
438.7004124340657
 21
385.078987648262
 31
0.0
  0
LINE
  5
2467
330
2431
100
AcDbEntity
  8
0
 62
     0
100
AcDbLine
 10
436.316091093286
 20
387.4633089890417
 30
0.0
 11
432.816091093286
 21
390.9633089890418
 31
0.0
  0
LINE
  5
2468
330
2431
100
AcDbEntity
  8
0
 62
     0
100
AcDbLine
 10
444.1609463399975
 20
383.1539876482629
 30
0.0
 11
442.2359463399984
 21
385.078987648262
 31
0.0
  0
LINE
  5
2469
330
2431
100
AcDbEntity
  8
0
 62
     0
100
AcDbLine
 10
437.2359463399975
 20
390.0789876482629
 30
0.0
 11
432.816091093286
 21
394.4988428949745
 31
0.0
  0
LINE
  5
246A
330
2431
100
AcDbEntity
  8
0
 62
     0
100
AcDbLine
 10
447.6964802459303
 20
383.1539876482629
 30
0.0
 11
445.7714802459312
 21
385.078987648262
 31
0.0
  0
LINE
  5
246B
330
2431
100
AcDbEntity
  8
0
 62
     0
100
AcDbLine
 10
440.7714802459302
 20
390.0789876482629
 30
0.0
 11
435.7714802459303
 21
395.0789876482629
 31
0.0
  0
LINE
  5
246C
330
2431
100
AcDbEntity
  8
0
 62
     0
100
AcDbLine
 10
451.232014151863
 20
383.1539876482629
 30
0.0
 11
449.3070141518639
 21
385.078987648262
 31
0.0
  0
LINE
  5
246D
330
2431
100
AcDbEntity
  8
0
 62
     0
100
AcDbLine
 10
444.307014151863
 20
390.0789876482629
 30
0.0
 11
439.3070141518631
 21
395.0789876482629
 31
0.0
  0
LINE
  5
246E
330
2431
100
AcDbEntity
  8
0
 62
     0
100
AcDbLine
 10
454.7675480577957
 20
383.1539876482629
 30
0.0
 11
452.8425480577967
 21
385.078987648262
 31
0.0
  0
LINE
  5
246F
330
2431
100
AcDbEntity
  8
0
 62
     0
100
AcDbLine
 10
447.8425480577958
 20
390.0789876482629
 30
0.0
 11
442.8425480577957
 21
395.0789876482629
 31
0.0
  0
LINE
  5
2470
330
2431
100
AcDbEntity
  8
0
 62
     0
100
AcDbLine
 10
451.3780819637284
 20
390.0789876482629
 30
0.0
 11
446.3780819637285
 21
395.0789876482629
 31
0.0
  0
LINE
  5
2471
330
2431
100
AcDbEntity
  8
0
 62
     0
100
AcDbLine
 10
453.316091093286
 20
391.6765124246382
 30
0.0
 11
449.8160910932855
 21
395.1765124246387
 31
0.0
  0
LINE
  5
2472
330
2431
100
AcDbEntity
  8
0
 62
     0
100
AcDbLine
 10
453.316091093286
 20
395.212046330571
 30
0.0
 11
449.8160910932859
 21
398.7120463305711
 31
0.0
  0
LINE
  5
2473
330
2431
100
AcDbEntity
  8
0
 62
     0
100
AcDbLine
 10
453.316091093286
 20
398.7475802365037
 30
0.0
 11
451.9846836815268
 21
400.0789876482628
 31
0.0
  0
ENDBLK
  5
2474
330
2431
100
AcDbEntity
  8
0
100
AcDbBlockEnd
  0
BLOCK
  5
2482
330
2481
100
AcDbEntity
  8
0
100
AcDbBlockBegin
  2
*X7
 70
     1
 10
0.0
 20
0.0
 30
0.0
  3
*X7
  1

  0
LINE
  5
2483
330
2481
100
AcDbEntity
  8
0
 62
     0
100
AcDbLine
 10
390.0444997628566
 20
274.0789876482628
 30
0.0
 11
392.0444997628566
 21
276.0789876482628
 31
0.0
  0
LINE
  5
2484
330
2481
100
AcDbEntity
  8
0
 62
     0
100
AcDbLine
 10
490.0444997628566
 20
374.0789876482629
 30
0.0
 11
492.0444997628567
 21
376.0789876482629
 31
0.0
  0
LINE
  5
2485
330
2481
100
AcDbEntity
  8
0
 62
     0
100
AcDbLine
 10
387.2160726381104
 20
274.0789876482628
 30
0.0
 11
389.2160726381104
 21
276.0789876482628
 31
0.0
  0
LINE
  5
2486
330
2481
100
AcDbEntity
  8
0
 62
     0
100
AcDbLine
 10
487.2388773377104
 20
374.1017923478628
 30
0.0
 11
489.2160726381105
 21
376.0789876482629
 31
0.0
  0
LINE
  5
2487
330
2481
100
AcDbEntity
  8
0
 62
     0
100
AcDbLine
 10
384.3876455133642
 20
274.0789876482628
 30
0.0
 11
386.3876455133643
 21
276.0789876482629
 31
0.0
  0
LINE
  5
2488
330
2481
100
AcDbEntity
  8
0
 62
     0
100
AcDbLine
 10
486.0156607859071
 20
375.7070029208057
 30
0.0
 11
486.3876455133643
 21
376.0789876482629
 31
0.0
  0
LINE
  5
2489
330
2481
100
AcDbEntity
  8
0
 62
     0
100
AcDbLine
 10
484.3876455133642
 20
374.0789876482629
 30
0.0
 11
484.8854801496059
 21
374.5768222845045
 31
0.0
  0
LINE
  5
248A
330
2481
100
AcDbEntity
  8
0
 62
     0
100
AcDbLine
 10
381.5592183886181
 20
274.0789876482628
 30
0.0
 11
383.5592183886181
 21
276.0789876482629
 31
0.0
  0
LINE
  5
248B
330
2481
100
AcDbEntity
  8
0
 62
     0
100
AcDbLine
 10
481.559218388618
 20
374.0789876482629
 30
0.0
 11
483.5592183886181
 21
376.0789876482629
 31
0.0
  0
LINE
  5
248C
330
2481
100
AcDbEntity
  8
0
 62
     0
100
AcDbLine
 10
378.7307912638718
 20
274.0789876482628
 30
0.0
 11
380.7307912638719
 21
276.0789876482629
 31
0.0
  0
LINE
  5
248D
330
2481
100
AcDbEntity
  8
0
 62
     0
100
AcDbLine
 10
478.7307912638718
 20
374.0789876482629
 30
0.0
 11
480.7307912638719
 21
376.0789876482629
 31
0.0
  0
LINE
  5
248E
330
2481
100
AcDbEntity
  8
0
 62
     0
100
AcDbLine
 10
375.9023641391256
 20
274.0789876482628
 30
0.0
 11
377.9023641391257
 21
276.0789876482629
 31
0.0
  0
LINE
  5
248F
330
2481
100
AcDbEntity
  8
0
 62
     0
100
AcDbLine
 10
475.9023641391257
 20
374.0789876482629
 30
0.0
 11
477.9023641391257
 21
376.0789876482629
 31
0.0
  0
LINE
  5
2490
330
2481
100
AcDbEntity
  8
0
 62
     0
100
AcDbLine
 10
373.0739370143794
 20
274.0789876482628
 30
0.0
 11
375.0739370143795
 21
276.0789876482629
 31
0.0
  0
LINE
  5
2491
330
2481
100
AcDbEntity
  8
0
 62
     0
100
AcDbLine
 10
473.0739370143795
 20
374.0789876482629
 30
0.0
 11
475.0739370143794
 21
376.0789876482629
 31
0.0
  0
LINE
  5
2492
330
2481
100
AcDbEntity
  8
0
 62
     0
100
AcDbLine
 10
370.2455098896332
 20
274.0789876482628
 30
0.0
 11
372.2455098896333
 21
276.0789876482629
 31
0.0
  0
LINE
  5
2493
330
2481
100
AcDbEntity
  8
0
 62
     0
100
AcDbLine
 10
470.2455098896333
 20
374.0789876482629
 30
0.0
 11
472.2455098896333
 21
376.0789876482629
 31
0.0
  0
LINE
  5
2494
330
2481
100
AcDbEntity
  8
0
 62
     0
100
AcDbLine
 10
367.4170827648871
 20
274.0789876482629
 30
0.0
 11
369.4170827648871
 21
276.0789876482629
 31
0.0
  0
LINE
  5
2495
330
2481
100
AcDbEntity
  8
0
 62
     0
100
AcDbLine
 10
467.4170827648871
 20
374.0789876482629
 30
0.0
 11
469.4170827648871
 21
376.0789876482629
 31
0.0
  0
LINE
  5
2496
330
2481
100
AcDbEntity
  8
0
 62
     0
100
AcDbLine
 10
364.5886556401409
 20
274.0789876482629
 30
0.0
 11
366.5886556401409
 21
276.0789876482629
 31
0.0
  0
LINE
  5
2497
330
2481
100
AcDbEntity
  8
0
 62
     0
100
AcDbLine
 10
464.5886556401409
 20
374.0789876482629
 30
0.0
 11
466.5886556401409
 21
376.0789876482629
 31
0.0
  0
LINE
  5
2498
330
2481
100
AcDbEntity
  8
0
 62
     0
100
AcDbLine
 10
361.7602285153947
 20
274.0789876482629
 30
0.0
 11
363.7602285153947
 21
276.0789876482629
 31
0.0
  0
LINE
  5
2499
330
2481
100
AcDbEntity
  8
0
 62
     0
100
AcDbLine
 10
461.7602285153948
 20
374.0789876482629
 30
0.0
 11
463.7602285153947
 21
376.0789876482629
 31
0.0
  0
LINE
  5
249A
330
2481
100
AcDbEntity
  8
0
 62
     0
100
AcDbLine
 10
358.9318013906485
 20
274.0789876482629
 30
0.0
 11
360.9318013906486
 21
276.0789876482629
 31
0.0
  0
LINE
  5
249B
330
2481
100
AcDbEntity
  8
0
 62
     0
100
AcDbLine
 10
458.9318013906485
 20
374.0789876482629
 30
0.0
 11
460.9318013906485
 21
376.0789876482629
 31
0.0
  0
LINE
  5
249C
330
2481
100
AcDbEntity
  8
0
 62
     0
100
AcDbLine
 10
356.1033742659024
 20
274.0789876482629
 30
0.0
 11
358.1033742659024
 21
276.0789876482629
 31
0.0
  0
LINE
  5
249D
330
2481
100
AcDbEntity
  8
0
 62
     0
100
AcDbLine
 10
456.1033742659024
 20
374.0789876482629
 30
0.0
 11
458.1033742659023
 21
376.0789876482629
 31
0.0
  0
LINE
  5
249E
330
2481
100
AcDbEntity
  8
0
 62
     0
100
AcDbLine
 10
353.2749471411561
 20
274.0789876482629
 30
0.0
 11
355.2749471411562
 21
276.0789876482629
 31
0.0
  0
LINE
  5
249F
330
2481
100
AcDbEntity
  8
0
 62
     0
100
AcDbLine
 10
453.2749471411562
 20
374.0789876482629
 30
0.0
 11
455.2749471411561
 21
376.0789876482629
 31
0.0
  0
LINE
  5
24A0
330
2481
100
AcDbEntity
  8
0
 62
     0
100
AcDbLine
 10
350.44652001641
 20
274.0789876482629
 30
0.0
 11
352.44652001641
 21
276.0789876482629
 31
0.0
  0
LINE
  5
24A1
330
2481
100
AcDbEntity
  8
0
 62
     0
100
AcDbLine
 10
450.44652001641
 20
374.0789876482629
 30
0.0
 11
452.44652001641
 21
376.0789876482629
 31
0.0
  0
LINE
  5
24A2
330
2481
100
AcDbEntity
  8
0
 62
     0
100
AcDbLine
 10
347.6180928916638
 20
274.0789876482629
 30
0.0
 11
349.6180928916638
 21
276.0789876482629
 31
0.0
  0
LINE
  5
24A3
330
2481
100
AcDbEntity
  8
0
 62
     0
100
AcDbLine
 10
447.6180928916638
 20
374.0789876482629
 30
0.0
 11
449.6180928916638
 21
376.0789876482629
 31
0.0
  0
LINE
  5
24A4
330
2481
100
AcDbEntity
  8
0
 62
     0
100
AcDbLine
 10
344.7896657669176
 20
274.0789876482629
 30
0.0
 11
346.7896657669176
 21
276.0789876482629
 31
0.0
  0
LINE
  5
24A5
330
2481
100
AcDbEntity
  8
0
 62
     0
100
AcDbLine
 10
444.7896657669176
 20
374.0789876482629
 30
0.0
 11
446.7896657669176
 21
376.0789876482629
 31
0.0
  0
LINE
  5
24A6
330
2481
100
AcDbEntity
  8
0
 62
     0
100
AcDbLine
 10
341.9612386421714
 20
274.0789876482629
 30
0.0
 11
343.9612386421714
 21
276.0789876482629
 31
0.0
  0
LINE
  5
24A7
330
2481
100
AcDbEntity
  8
0
 62
     0
100
AcDbLine
 10
441.9612386421714
 20
374.0789876482629
 30
0.0
 11
443.9612386421714
 21
376.0789876482629
 31
0.0
  0
LINE
  5
24A8
330
2481
100
AcDbEntity
  8
0
 62
     0
100
AcDbLine
 10
339.1328115174252
 20
274.0789876482629
 30
0.0
 11
341.1328115174252
 21
276.0789876482629
 31
0.0
  0
LINE
  5
24A9
330
2481
100
AcDbEntity
  8
0
 62
     0
100
AcDbLine
 10
439.1328115174252
 20
374.0789876482629
 30
0.0
 11
441.1328115174252
 21
376.0789876482629
 31
0.0
  0
LINE
  5
24AA
330
2481
100
AcDbEntity
  8
0
 62
     0
100
AcDbLine
 10
336.304384392679
 20
274.0789876482629
 30
0.0
 11
338.304384392679
 21
276.0789876482629
 31
0.0
  0
LINE
  5
24AB
330
2481
100
AcDbEntity
  8
0
 62
     0
100
AcDbLine
 10
436.304384392679
 20
374.0789876482629
 30
0.0
 11
438.3043843926791
 21
376.0789876482629
 31
0.0
  0
LINE
  5
24AC
330
2481
100
AcDbEntity
  8
0
 62
     0
100
AcDbLine
 10
333.4759572679328
 20
274.0789876482629
 30
0.0
 11
335.4759572679329
 21
276.0789876482629
 31
0.0
  0
LINE
  5
24AD
330
2481
100
AcDbEntity
  8
0
 62
     0
100
AcDbLine
 10
433.4759572679328
 20
374.0789876482629
 30
0.0
 11
435.4759572679328
 21
376.0789876482629
 31
0.0
  0
LINE
  5
24AE
330
2481
100
AcDbEntity
  8
0
 62
     0
100
AcDbLine
 10
330.6475301431867
 20
274.0789876482629
 30
0.0
 11
332.6475301431866
 21
276.0789876482629
 31
0.0
  0
LINE
  5
24AF
330
2481
100
AcDbEntity
  8
0
 62
     0
100
AcDbLine
 10
430.6475301431866
 20
374.0789876482629
 30
0.0
 11
432.6475301431866
 21
376.0789876482629
 31
0.0
  0
LINE
  5
24B0
330
2481
100
AcDbEntity
  8
0
 62
     0
100
AcDbLine
 10
327.8191030184404
 20
274.0789876482629
 30
0.0
 11
329.8191030184405
 21
276.0789876482629
 31
0.0
  0
LINE
  5
24B1
330
2481
100
AcDbEntity
  8
0
 62
     0
100
AcDbLine
 10
427.8191030184404
 20
374.0789876482629
 30
0.0
 11
429.8191030184405
 21
376.0789876482629
 31
0.0
  0
LINE
  5
24B2
330
2481
100
AcDbEntity
  8
0
 62
     0
100
AcDbLine
 10
324.9906758936943
 20
274.0789876482629
 30
0.0
 11
326.9906758936943
 21
276.0789876482629
 31
0.0
  0
LINE
  5
24B3
330
2481
100
AcDbEntity
  8
0
 62
     0
100
AcDbLine
 10
424.9906758936942
 20
374.0789876482629
 30
0.0
 11
426.9906758936943
 21
376.0789876482629
 31
0.0
  0
LINE
  5
24B4
330
2481
100
AcDbEntity
  8
0
 62
     0
100
AcDbLine
 10
322.1622487689481
 20
274.0789876482629
 30
0.0
 11
324.1622487689481
 21
276.0789876482629
 31
0.0
  0
LINE
  5
24B5
330
2481
100
AcDbEntity
  8
0
 62
     0
100
AcDbLine
 10
422.162248768948
 20
374.0789876482629
 30
0.0
 11
424.1622487689481
 21
376.0789876482629
 31
0.0
  0
LINE
  5
24B6
330
2481
100
AcDbEntity
  8
0
 62
     0
100
AcDbLine
 10
319.3338216442019
 20
274.0789876482629
 30
0.0
 11
321.3338216442019
 21
276.0789876482629
 31
0.0
  0
LINE
  5
24B7
330
2481
100
AcDbEntity
  8
0
 62
     0
100
AcDbLine
 10
419.3338216442019
 20
374.0789876482629
 30
0.0
 11
421.3338216442019
 21
376.0789876482629
 31
0.0
  0
LINE
  5
24B8
330
2481
100
AcDbEntity
  8
0
 62
     0
100
AcDbLine
 10
316.5053945194557
 20
274.0789876482629
 30
0.0
 11
318.5053945194558
 21
276.0789876482629
 31
0.0
  0
LINE
  5
24B9
330
2481
100
AcDbEntity
  8
0
 62
     0
100
AcDbLine
 10
416.5053945194556
 20
374.0789876482629
 30
0.0
 11
418.5053945194557
 21
376.0789876482629
 31
0.0
  0
LINE
  5
24BA
330
2481
100
AcDbEntity
  8
0
 62
     0
100
AcDbLine
 10
313.6769673947095
 20
274.0789876482629
 30
0.0
 11
315.6769673947096
 21
276.0789876482629
 31
0.0
  0
LINE
  5
24BB
330
2481
100
AcDbEntity
  8
0
 62
     0
100
AcDbLine
 10
413.6769673947095
 20
374.0789876482629
 30
0.0
 11
415.6769673947095
 21
376.0789876482629
 31
0.0
  0
LINE
  5
24BC
330
2481
100
AcDbEntity
  8
0
 62
     0
100
AcDbLine
 10
310.8485402699634
 20
274.0789876482629
 30
0.0
 11
312.8485402699634
 21
276.0789876482629
 31
0.0
  0
LINE
  5
24BD
330
2481
100
AcDbEntity
  8
0
 62
     0
100
AcDbLine
 10
410.8485402699633
 20
374.0789876482629
 30
0.0
 11
412.8485402699633
 21
376.0789876482629
 31
0.0
  0
LINE
  5
24BE
330
2481
100
AcDbEntity
  8
0
 62
     0
100
AcDbLine
 10
308.0201131452171
 20
274.0789876482629
 30
0.0
 11
310.0201131452172
 21
276.0789876482629
 31
0.0
  0
LINE
  5
24BF
330
2481
100
AcDbEntity
  8
0
 62
     0
100
AcDbLine
 10
408.0201131452171
 20
374.0789876482629
 30
0.0
 11
410.0201131452172
 21
376.0789876482629
 31
0.0
  0
LINE
  5
24C0
330
2481
100
AcDbEntity
  8
0
 62
     0
100
AcDbLine
 10
305.1916860204709
 20
274.0789876482629
 30
0.0
 11
307.1916860204709
 21
276.0789876482629
 31
0.0
  0
LINE
  5
24C1
330
2481
100
AcDbEntity
  8
0
 62
     0
100
AcDbLine
 10
405.1916860204709
 20
374.0789876482629
 30
0.0
 11
407.1916860204709
 21
376.0789876482629
 31
0.0
  0
LINE
  5
24C2
330
2481
100
AcDbEntity
  8
0
 62
     0
100
AcDbLine
 10
302.3632588957247
 20
274.0789876482629
 30
0.0
 11
304.3632588957248
 21
276.0789876482629
 31
0.0
  0
LINE
  5
24C3
330
2481
100
AcDbEntity
  8
0
 62
     0
100
AcDbLine
 10
402.3632588957247
 20
374.0789876482629
 30
0.0
 11
404.3632588957247
 21
376.0789876482629
 31
0.0
  0
LINE
  5
24C4
330
2481
100
AcDbEntity
  8
0
 62
     0
100
AcDbLine
 10
299.5348317709785
 20
274.0789876482629
 30
0.0
 11
301.5348317709786
 21
276.0789876482629
 31
0.0
  0
LINE
  5
24C5
330
2481
100
AcDbEntity
  8
0
 62
     0
100
AcDbLine
 10
399.5348317709786
 20
374.0789876482629
 30
0.0
 11
401.5348317709785
 21
376.0789876482629
 31
0.0
  0
LINE
  5
24C6
330
2481
100
AcDbEntity
  8
0
 62
     0
100
AcDbLine
 10
296.7064046462324
 20
274.0789876482629
 30
0.0
 11
298.7064046462324
 21
276.0789876482629
 31
0.0
  0
LINE
  5
24C7
330
2481
100
AcDbEntity
  8
0
 62
     0
100
AcDbLine
 10
396.7064046462324
 20
374.0789876482629
 30
0.0
 11
398.7064046462324
 21
376.0789876482629
 31
0.0
  0
LINE
  5
24C8
330
2481
100
AcDbEntity
  8
0
 62
     0
100
AcDbLine
 10
293.8779775214862
 20
274.0789876482629
 30
0.0
 11
295.8779775214862
 21
276.0789876482629
 31
0.0
  0
LINE
  5
24C9
330
2481
100
AcDbEntity
  8
0
 62
     0
100
AcDbLine
 10
393.8779775214862
 20
374.0789876482629
 30
0.0
 11
395.8779775214862
 21
376.0789876482629
 31
0.0
  0
LINE
  5
24CA
330
2481
100
AcDbEntity
  8
0
 62
     0
100
AcDbLine
 10
291.04955039674
 20
274.0789876482629
 30
0.0
 11
293.04955039674
 21
276.0789876482629
 31
0.0
  0
LINE
  5
24CB
330
2481
100
AcDbEntity
  8
0
 62
     0
100
AcDbLine
 10
391.04955039674
 20
374.0789876482629
 30
0.0
 11
393.04955039674
 21
376.0789876482629
 31
0.0
  0
LINE
  5
24CC
330
2481
100
AcDbEntity
  8
0
 62
     0
100
AcDbLine
 10
288.2211232719938
 20
274.0789876482629
 30
0.0
 11
290.2211232719939
 21
276.0789876482629
 31
0.0
  0
LINE
  5
24CD
330
2481
100
AcDbEntity
  8
0
 62
     0
100
AcDbLine
 10
388.2211232719938
 20
374.0789876482629
 30
0.0
 11
390.2211232719939
 21
376.0789876482629
 31
0.0
  0
LINE
  5
24CE
330
2481
100
AcDbEntity
  8
0
 62
     0
100
AcDbLine
 10
285.3926961472477
 20
274.0789876482629
 30
0.0
 11
287.3926961472477
 21
276.0789876482629
 31
0.0
  0
LINE
  5
24CF
330
2481
100
AcDbEntity
  8
0
 62
     0
100
AcDbLine
 10
385.3926961472477
 20
374.0789876482629
 30
0.0
 11
387.3926961472477
 21
376.0789876482629
 31
0.0
  0
LINE
  5
24D0
330
2481
100
AcDbEntity
  8
0
 62
     0
100
AcDbLine
 10
282.6396088456952
 20
274.1543274714567
 30
0.0
 11
284.5642690225015
 21
276.0789876482629
 31
0.0
  0
LINE
  5
24D1
330
2481
100
AcDbEntity
  8
0
 62
     0
100
AcDbLine
 10
382.5642690225014
 20
374.0789876482629
 30
0.0
 11
384.5642690225014
 21
376.0789876482629
 31
0.0
  0
LINE
  5
24D2
330
2481
100
AcDbEntity
  8
0
 62
     0
100
AcDbLine
 10
280.038729204729
 20
274.3818749552366
 30
0.0
 11
281.8778288359062
 21
276.2209745864139
 31
0.0
  0
LINE
  5
24D3
330
2481
100
AcDbEntity
  8
0
 62
     0
100
AcDbLine
 10
379.7358418977552
 20
374.0789876482629
 30
0.0
 11
381.7358418977553
 21
376.0789876482629
 31
0.0
  0
LINE
  5
24D4
330
2481
100
AcDbEntity
  8
0
 62
     0
100
AcDbLine
 10
277.4378495637628
 20
274.6094224390166
 30
0.0
 11
279.27694919494
 21
276.4485220701939
 31
0.0
  0
LINE
  5
24D5
330
2481
100
AcDbEntity
  8
0
 62
     0
100
AcDbLine
 10
376.9074147730091
 20
374.0789876482629
 30
0.0
 11
378.9074147730091
 21
376.0789876482629
 31
0.0
  0
LINE
  5
24D6
330
2481
100
AcDbEntity
  8
0
 62
     0
100
AcDbLine
 10
274.8369699227965
 20
274.8369699227965
 30
0.0
 11
276.6760695539738
 21
276.6760695539738
 31
0.0
  0
LINE
  5
24D7
330
2481
100
AcDbEntity
  8
0
 62
     0
100
AcDbLine
 10
374.0789876482629
 20
374.0789876482629
 30
0.0
 11
376.0789876482629
 21
376.0789876482629
 31
0.0
  0
LINE
  5
24D8
330
2481
100
AcDbEntity
  8
0
 62
     0
100
AcDbLine
 10
273.5007469652808
 20
276.329174090027
 30
0.0
 11
274.0751899130076
 21
276.9036170377538
 31
0.0
  0
LINE
  5
24D9
330
2481
100
AcDbEntity
  8
0
 62
     0
100
AcDbLine
 10
371.2505605235167
 20
374.0789876482629
 30
0.0
 11
373.2505605235167
 21
376.0789876482629
 31
0.0
  0
LINE
  5
24DA
330
2481
100
AcDbEntity
  8
0
 62
     0
100
AcDbLine
 10
368.4221333987705
 20
374.0789876482629
 30
0.0
 11
370.4221333987705
 21
376.0789876482629
 31
0.0
  0
LINE
  5
24DB
330
2481
100
AcDbEntity
  8
0
 62
     0
100
AcDbLine
 10
365.5937062740243
 20
374.0789876482629
 30
0.0
 11
367.5937062740243
 21
376.0789876482629
 31
0.0
  0
LINE
  5
24DC
330
2481
100
AcDbEntity
  8
0
 62
     0
100
AcDbLine
 10
362.7652791492781
 20
374.0789876482629
 30
0.0
 11
364.7652791492781
 21
376.0789876482629
 31
0.0
  0
LINE
  5
24DD
330
2481
100
AcDbEntity
  8
0
 62
     0
100
AcDbLine
 10
359.9368520245319
 20
374.0789876482629
 30
0.0
 11
361.936852024532
 21
376.0789876482629
 31
0.0
  0
LINE
  5
24DE
330
2481
100
AcDbEntity
  8
0
 62
     0
100
AcDbLine
 10
357.1084248997857
 20
374.0789876482629
 30
0.0
 11
359.1084248997857
 21
376.0789876482629
 31
0.0
  0
LINE
  5
24DF
330
2481
100
AcDbEntity
  8
0
 62
     0
100
AcDbLine
 10
354.2799977750395
 20
374.0789876482629
 30
0.0
 11
356.2799977750395
 21
376.0789876482629
 31
0.0
  0
LINE
  5
24E0
330
2481
100
AcDbEntity
  8
0
 62
     0
100
AcDbLine
 10
351.4515706502934
 20
374.0789876482629
 30
0.0
 11
353.4515706502934
 21
376.0789876482629
 31
0.0
  0
LINE
  5
24E1
330
2481
100
AcDbEntity
  8
0
 62
     0
100
AcDbLine
 10
348.6231435255472
 20
374.0789876482629
 30
0.0
 11
350.6231435255472
 21
376.0789876482629
 31
0.0
  0
LINE
  5
24E2
330
2481
100
AcDbEntity
  8
0
 62
     0
100
AcDbLine
 10
345.794716400801
 20
374.0789876482629
 30
0.0
 11
347.794716400801
 21
376.0789876482629
 31
0.0
  0
LINE
  5
24E3
330
2481
100
AcDbEntity
  8
0
 62
     0
100
AcDbLine
 10
342.9662892760548
 20
374.0789876482629
 30
0.0
 11
344.9662892760548
 21
376.0789876482629
 31
0.0
  0
LINE
  5
24E4
330
2481
100
AcDbEntity
  8
0
 62
     0
100
AcDbLine
 10
340.1378621513086
 20
374.0789876482629
 30
0.0
 11
342.1378621513087
 21
376.0789876482629
 31
0.0
  0
LINE
  5
24E5
330
2481
100
AcDbEntity
  8
0
 62
     0
100
AcDbLine
 10
337.3094350265624
 20
374.0789876482629
 30
0.0
 11
339.3094350265624
 21
376.0789876482629
 31
0.0
  0
LINE
  5
24E6
330
2481
100
AcDbEntity
  8
0
 62
     0
100
AcDbLine
 10
334.4810079018162
 20
374.0789876482629
 30
0.0
 11
336.4810079018162
 21
376.0789876482629
 31
0.0
  0
LINE
  5
24E7
330
2481
100
AcDbEntity
  8
0
 62
     0
100
AcDbLine
 10
331.65258077707
 20
374.0789876482629
 30
0.0
 11
333.65258077707
 21
376.0789876482629
 31
0.0
  0
LINE
  5
24E8
330
2481
100
AcDbEntity
  8
0
 62
     0
100
AcDbLine
 10
328.8241536523238
 20
374.0789876482629
 30
0.0
 11
330.8241536523238
 21
376.0789876482629
 31
0.0
  0
LINE
  5
24E9
330
2481
100
AcDbEntity
  8
0
 62
     0
100
AcDbLine
 10
325.9957265275776
 20
374.0789876482629
 30
0.0
 11
327.9957265275777
 21
376.0789876482629
 31
0.0
  0
LINE
  5
24EA
330
2481
100
AcDbEntity
  8
0
 62
     0
100
AcDbLine
 10
323.1672994028315
 20
374.0789876482629
 30
0.0
 11
325.1672994028315
 21
376.0789876482629
 31
0.0
  0
LINE
  5
24EB
330
2481
100
AcDbEntity
  8
0
 62
     0
100
AcDbLine
 10
320.3388722780853
 20
374.0789876482629
 30
0.0
 11
322.3388722780853
 21
376.0789876482629
 31
0.0
  0
LINE
  5
24EC
330
2481
100
AcDbEntity
  8
0
 62
     0
100
AcDbLine
 10
317.510445153339
 20
374.0789876482629
 30
0.0
 11
319.5104451533391
 21
376.0789876482629
 31
0.0
  0
LINE
  5
24ED
330
2481
100
AcDbEntity
  8
0
 62
     0
100
AcDbLine
 10
314.6820180285929
 20
374.0789876482629
 30
0.0
 11
316.6820180285929
 21
376.0789876482629
 31
0.0
  0
LINE
  5
24EE
330
2481
100
AcDbEntity
  8
0
 62
     0
100
AcDbLine
 10
311.8535909038467
 20
374.0789876482629
 30
0.0
 11
313.8535909038467
 21
376.0789876482629
 31
0.0
  0
LINE
  5
24EF
330
2481
100
AcDbEntity
  8
0
 62
     0
100
AcDbLine
 10
309.0251637791005
 20
374.0789876482629
 30
0.0
 11
311.0251637791005
 21
376.0789876482629
 31
0.0
  0
LINE
  5
24F0
330
2481
100
AcDbEntity
  8
0
 62
     0
100
AcDbLine
 10
306.1967366543543
 20
374.0789876482629
 30
0.0
 11
308.1967366543543
 21
376.0789876482629
 31
0.0
  0
LINE
  5
24F1
330
2481
100
AcDbEntity
  8
0
 62
     0
100
AcDbLine
 10
303.3683095296081
 20
374.0789876482629
 30
0.0
 11
305.3683095296082
 21
376.0789876482629
 31
0.0
  0
LINE
  5
24F2
330
2481
100
AcDbEntity
  8
0
 62
     0
100
AcDbLine
 10
300.539882404862
 20
374.0789876482629
 30
0.0
 11
302.539882404862
 21
376.0789876482629
 31
0.0
  0
LINE
  5
24F3
330
2481
100
AcDbEntity
  8
0
 62
     0
100
AcDbLine
 10
297.7114552801157
 20
374.0789876482629
 30
0.0
 11
299.7114552801158
 21
376.0789876482629
 31
0.0
  0
LINE
  5
24F4
330
2481
100
AcDbEntity
  8
0
 62
     0
100
AcDbLine
 10
294.8830281553696
 20
374.0789876482629
 30
0.0
 11
296.8830281553696
 21
376.0789876482629
 31
0.0
  0
LINE
  5
24F5
330
2481
100
AcDbEntity
  8
0
 62
     0
100
AcDbLine
 10
292.0546010306233
 20
374.0789876482629
 30
0.0
 11
294.0546010306233
 21
376.0789876482629
 31
0.0
  0
LINE
  5
24F6
330
2481
100
AcDbEntity
  8
0
 62
     0
100
AcDbLine
 10
289.2261739058771
 20
374.0789876482629
 30
0.0
 11
291.2261739058772
 21
376.0789876482629
 31
0.0
  0
LINE
  5
24F7
330
2481
100
AcDbEntity
  8
0
 62
     0
100
AcDbLine
 10
286.397746781131
 20
374.0789876482629
 30
0.0
 11
288.397746781131
 21
376.0789876482629
 31
0.0
  0
LINE
  5
24F8
330
2481
100
AcDbEntity
  8
0
 62
     0
100
AcDbLine
 10
283.5693196563848
 20
374.0789876482629
 30
0.0
 11
285.5693196563848
 21
376.0789876482629
 31
0.0
  0
LINE
  5
24F9
330
2481
100
AcDbEntity
  8
0
 62
     0
100
AcDbLine
 10
280.4762865302947
 20
373.8143816469189
 30
0.0
 11
282.6680401228889
 21
376.0061352395131
 31
0.0
  0
LINE
  5
24FA
330
2481
100
AcDbEntity
  8
0
 62
     0
100
AcDbLine
 10
277.3766788742679
 20
373.5432011156384
 30
0.0
 11
279.5684324668621
 21
375.7349547082326
 31
0.0
  0
LINE
  5
24FB
330
2481
100
AcDbEntity
  8
0
 62
     0
100
AcDbLine
 10
274.2770712182412
 20
373.2720205843579
 30
0.0
 11
276.4688248108354
 21
375.4637741769521
 31
0.0
  0
LINE
  5
24FC
330
2481
100
AcDbEntity
  8
0
 62
     0
100
AcDbLine
 10
392.8729268876028
 20
274.0789876482628
 30
0.0
 11
394.8729268876028
 21
276.0789876482628
 31
0.0
  0
LINE
  5
24FD
330
2481
100
AcDbEntity
  8
0
 62
     0
100
AcDbLine
 10
492.8729268876028
 20
374.0789876482629
 30
0.0
 11
494.8729268876029
 21
376.0789876482629
 31
0.0
  0
LINE
  5
24FE
330
2481
100
AcDbEntity
  8
0
 62
     0
100
AcDbLine
 10
395.701354012349
 20
274.0789876482628
 30
0.0
 11
397.701354012349
 21
276.0789876482628
 31
0.0
  0
LINE
  5
24FF
330
2481
100
AcDbEntity
  8
0
 62
     0
100
AcDbLine
 10
495.701354012349
 20
374.0789876482629
 30
0.0
 11
497.7013540123491
 21
376.0789876482629
 31
0.0
  0
LINE
  5
2500
330
2481
100
AcDbEntity
  8
0
 62
     0
100
AcDbLine
 10
398.5297811370951
 20
274.0789876482628
 30
0.0
 11
400.5297811370952
 21
276.0789876482628
 31
0.0
  0
LINE
  5
2501
330
2481
100
AcDbEntity
  8
0
 62
     0
100
AcDbLine
 10
498.5297811370952
 20
374.0789876482629
 30
0.0
 11
500.5297811370952
 21
376.0789876482629
 31
0.0
  0
LINE
  5
2502
330
2481
100
AcDbEntity
  8
0
 62
     0
100
AcDbLine
 10
401.3582082618413
 20
274.0789876482628
 30
0.0
 11
403.3582082618413
 21
276.0789876482628
 31
0.0
  0
LINE
  5
2503
330
2481
100
AcDbEntity
  8
0
 62
     0
100
AcDbLine
 10
501.3582082618413
 20
374.0789876482629
 30
0.0
 11
503.3582082618415
 21
376.0789876482629
 31
0.0
  0
LINE
  5
2504
330
2481
100
AcDbEntity
  8
0
 62
     0
100
AcDbLine
 10
404.1866353865875
 20
274.0789876482628
 30
0.0
 11
406.1866353865875
 21
276.0789876482628
 31
0.0
  0
LINE
  5
2505
330
2481
100
AcDbEntity
  8
0
 62
     0
100
AcDbLine
 10
504.1866353865876
 20
374.0789876482629
 30
0.0
 11
506.1866353865876
 21
376.0789876482629
 31
0.0
  0
LINE
  5
2506
330
2481
100
AcDbEntity
  8
0
 62
     0
100
AcDbLine
 10
407.0150625113337
 20
274.0789876482628
 30
0.0
 11
409.0150625113337
 21
276.0789876482628
 31
0.0
  0
LINE
  5
2507
330
2481
100
AcDbEntity
  8
0
 62
     0
100
AcDbLine
 10
507.0150625113338
 20
374.0789876482629
 30
0.0
 11
509.0150625113338
 21
376.0789876482629
 31
0.0
  0
LINE
  5
2508
330
2481
100
AcDbEntity
  8
0
 62
     0
100
AcDbLine
 10
409.8434896360799
 20
274.0789876482628
 30
0.0
 11
411.8434896360799
 21
276.0789876482628
 31
0.0
  0
LINE
  5
2509
330
2481
100
AcDbEntity
  8
0
 62
     0
100
AcDbLine
 10
509.8434896360799
 20
374.0789876482629
 30
0.0
 11
511.84348963608
 21
376.0789876482629
 31
0.0
  0
LINE
  5
250A
330
2481
100
AcDbEntity
  8
0
 62
     0
100
AcDbLine
 10
412.6719167608261
 20
274.0789876482628
 30
0.0
 11
414.671916760826
 21
276.0789876482628
 31
0.0
  0
LINE
  5
250B
330
2481
100
AcDbEntity
  8
0
 62
     0
100
AcDbLine
 10
512.6719167608261
 20
374.0789876482629
 30
0.0
 11
514.6719167608262
 21
376.0789876482629
 31
0.0
  0
LINE
  5
250C
330
2481
100
AcDbEntity
  8
0
 62
     0
100
AcDbLine
 10
415.5003438855723
 20
274.0789876482628
 30
0.0
 11
417.5003438855723
 21
276.0789876482628
 31
0.0
  0
LINE
  5
250D
330
2481
100
AcDbEntity
  8
0
 62
     0
100
AcDbLine
 10
515.5003438855723
 20
374.0789876482629
 30
0.0
 11
517.5003438855724
 21
376.0789876482629
 31
0.0
  0
LINE
  5
250E
330
2481
100
AcDbEntity
  8
0
 62
     0
100
AcDbLine
 10
418.3287710103185
 20
274.0789876482628
 30
0.0
 11
420.3287710103185
 21
276.0789876482628
 31
0.0
  0
LINE
  5
250F
330
2481
100
AcDbEntity
  8
0
 62
     0
100
AcDbLine
 10
518.3287710103185
 20
374.0789876482629
 30
0.0
 11
520.3287710103186
 21
376.0789876482629
 31
0.0
  0
LINE
  5
2510
330
2481
100
AcDbEntity
  8
0
 62
     0
100
AcDbLine
 10
421.1571981350647
 20
274.0789876482628
 30
0.0
 11
423.1571981350646
 21
276.0789876482628
 31
0.0
  0
LINE
  5
2511
330
2481
100
AcDbEntity
  8
0
 62
     0
100
AcDbLine
 10
521.1571981350647
 20
374.0789876482629
 30
0.0
 11
523.1571981350648
 21
376.0789876482629
 31
0.0
  0
LINE
  5
2512
330
2481
100
AcDbEntity
  8
0
 62
     0
100
AcDbLine
 10
423.9856252598108
 20
274.0789876482628
 30
0.0
 11
425.9856252598108
 21
276.0789876482628
 31
0.0
  0
LINE
  5
2513
330
2481
100
AcDbEntity
  8
0
 62
     0
100
AcDbLine
 10
523.9856252598109
 20
374.0789876482629
 30
0.0
 11
525.9856252598109
 21
376.0789876482629
 31
0.0
  0
LINE
  5
2514
330
2481
100
AcDbEntity
  8
0
 62
     0
100
AcDbLine
 10
426.814052384557
 20
274.0789876482628
 30
0.0
 11
428.814052384557
 21
276.0789876482628
 31
0.0
  0
LINE
  5
2515
330
2481
100
AcDbEntity
  8
0
 62
     0
100
AcDbLine
 10
526.8140523845572
 20
374.0789876482629
 30
0.0
 11
528.8140523845571
 21
376.0789876482629
 31
0.0
  0
LINE
  5
2516
330
2481
100
AcDbEntity
  8
0
 62
     0
100
AcDbLine
 10
429.6424795093032
 20
274.0789876482628
 30
0.0
 11
431.6424795093032
 21
276.0789876482628
 31
0.0
  0
LINE
  5
2517
330
2481
100
AcDbEntity
  8
0
 62
     0
100
AcDbLine
 10
529.6424795093034
 20
374.0789876482629
 30
0.0
 11
531.6424795093033
 21
376.0789876482629
 31
0.0
  0
LINE
  5
2518
330
2481
100
AcDbEntity
  8
0
 62
     0
100
AcDbLine
 10
432.4709066340494
 20
274.0789876482628
 30
0.0
 11
434.4709066340493
 21
276.0789876482628
 31
0.0
  0
LINE
  5
2519
330
2481
100
AcDbEntity
  8
0
 62
     0
100
AcDbLine
 10
532.4709066340495
 20
374.0789876482629
 30
0.0
 11
534.4709066340495
 21
376.0789876482629
 31
0.0
  0
LINE
  5
251A
330
2481
100
AcDbEntity
  8
0
 62
     0
100
AcDbLine
 10
435.2993337587956
 20
274.0789876482628
 30
0.0
 11
437.2993337587955
 21
276.0789876482628
 31
0.0
  0
LINE
  5
251B
330
2481
100
AcDbEntity
  8
0
 62
     0
100
AcDbLine
 10
535.2993337587957
 20
374.0789876482629
 30
0.0
 11
537.2993337587957
 21
376.0789876482629
 31
0.0
  0
LINE
  5
251C
330
2481
100
AcDbEntity
  8
0
 62
     0
100
AcDbLine
 10
438.1277608835417
 20
274.0789876482628
 30
0.0
 11
440.1277608835417
 21
276.0789876482628
 31
0.0
  0
LINE
  5
251D
330
2481
100
AcDbEntity
  8
0
 62
     0
100
AcDbLine
 10
538.1277608835419
 20
374.0789876482629
 30
0.0
 11
540.1277608835418
 21
376.0789876482629
 31
0.0
  0
LINE
  5
251E
330
2481
100
AcDbEntity
  8
0
 62
     0
100
AcDbLine
 10
440.956188008288
 20
274.0789876482628
 30
0.0
 11
442.9561880082879
 21
276.0789876482628
 31
0.0
  0
LINE
  5
251F
330
2481
100
AcDbEntity
  8
0
 62
     0
100
AcDbLine
 10
540.9561880082881
 20
374.0789876482629
 30
0.0
 11
542.956188008288
 21
376.0789876482629
 31
0.0
  0
LINE
  5
2520
330
2481
100
AcDbEntity
  8
0
 62
     0
100
AcDbLine
 10
443.7846151330341
 20
274.0789876482628
 30
0.0
 11
445.7846151330342
 21
276.0789876482628
 31
0.0
  0
LINE
  5
2521
330
2481
100
AcDbEntity
  8
0
 62
     0
100
AcDbLine
 10
543.7846151330343
 20
374.0789876482629
 30
0.0
 11
545.7846151330342
 21
376.0789876482629
 31
0.0
  0
LINE
  5
2522
330
2481
100
AcDbEntity
  8
0
 62
     0
100
AcDbLine
 10
446.6130422577803
 20
274.0789876482628
 30
0.0
 11
448.6130422577804
 21
276.0789876482628
 31
0.0
  0
LINE
  5
2523
330
2481
100
AcDbEntity
  8
0
 62
     0
100
AcDbLine
 10
546.6130422577804
 20
374.0789876482629
 30
0.0
 11
548.6130422577805
 21
376.0789876482629
 31
0.0
  0
LINE
  5
2524
330
2481
100
AcDbEntity
  8
0
 62
     0
100
AcDbLine
 10
449.4414693825265
 20
274.0789876482628
 30
0.0
 11
451.4414693825265
 21
276.0789876482628
 31
0.0
  0
LINE
  5
2525
330
2481
100
AcDbEntity
  8
0
 62
     0
100
AcDbLine
 10
549.4414693825266
 20
374.0789876482629
 30
0.0
 11
551.4414693825266
 21
376.0789876482629
 31
0.0
  0
LINE
  5
2526
330
2481
100
AcDbEntity
  8
0
 62
     0
100
AcDbLine
 10
452.2698965072727
 20
274.0789876482628
 30
0.0
 11
454.2698965072727
 21
276.0789876482628
 31
0.0
  0
LINE
  5
2527
330
2481
100
AcDbEntity
  8
0
 62
     0
100
AcDbLine
 10
552.2698965072728
 20
374.0789876482629
 30
0.0
 11
552.6094645146844
 21
374.4185556556745
 31
0.0
  0
LINE
  5
2528
330
2481
100
AcDbEntity
  8
0
 62
     0
100
AcDbLine
 10
455.0983236320188
 20
274.0789876482628
 30
0.0
 11
457.0983236320189
 21
276.0789876482627
 31
0.0
  0
LINE
  5
2529
330
2481
100
AcDbEntity
  8
0
 62
     0
100
AcDbLine
 10
457.926750756765
 20
274.0789876482628
 30
0.0
 11
459.9267507567651
 21
276.0789876482627
 31
0.0
  0
LINE
  5
252A
330
2481
100
AcDbEntity
  8
0
 62
     0
100
AcDbLine
 10
460.7551778815112
 20
274.0789876482628
 30
0.0
 11
462.7551778815113
 21
276.0789876482627
 31
0.0
  0
LINE
  5
252B
330
2481
100
AcDbEntity
  8
0
 62
     0
100
AcDbLine
 10
463.5836050062574
 20
274.0789876482628
 30
0.0
 11
465.5836050062574
 21
276.0789876482627
 31
0.0
  0
LINE
  5
252C
330
2481
100
AcDbEntity
  8
0
 62
     0
100
AcDbLine
 10
466.4120321310036
 20
274.0789876482628
 30
0.0
 11
468.4120321310037
 21
276.0789876482627
 31
0.0
  0
LINE
  5
252D
330
2481
100
AcDbEntity
  8
0
 62
     0
100
AcDbLine
 10
469.2404592557498
 20
274.0789876482628
 30
0.0
 11
471.2404592557498
 21
276.0789876482627
 31
0.0
  0
LINE
  5
252E
330
2481
100
AcDbEntity
  8
0
 62
     0
100
AcDbLine
 10
472.068886380496
 20
274.0789876482627
 30
0.0
 11
474.068886380496
 21
276.0789876482627
 31
0.0
  0
LINE
  5
252F
330
2481
100
AcDbEntity
  8
0
 62
     0
100
AcDbLine
 10
474.8973135052422
 20
274.0789876482627
 30
0.0
 11
476.8973135052422
 21
276.0789876482627
 31
0.0
  0
LINE
  5
2530
330
2481
100
AcDbEntity
  8
0
 62
     0
100
AcDbLine
 10
477.7257406299884
 20
274.0789876482627
 30
0.0
 11
479.7257406299884
 21
276.0789876482627
 31
0.0
  0
LINE
  5
2531
330
2481
100
AcDbEntity
  8
0
 62
     0
100
AcDbLine
 10
480.5541677547346
 20
274.0789876482627
 30
0.0
 11
482.5541677547346
 21
276.0789876482627
 31
0.0
  0
LINE
  5
2532
330
2481
100
AcDbEntity
  8
0
 62
     0
100
AcDbLine
 10
483.3825948794808
 20
274.0789876482627
 30
0.0
 11
485.3825948794807
 21
276.0789876482627
 31
0.0
  0
LINE
  5
2533
330
2481
100
AcDbEntity
  8
0
 62
     0
100
AcDbLine
 10
486.211022004227
 20
274.0789876482627
 30
0.0
 11
486.8861262952655
 21
274.7540919393014
 31
0.0
  0
LINE
  5
2534
330
2481
100
AcDbEntity
  8
0
 62
     0
100
AcDbLine
 10
488.1743941588531
 20
276.0423598028889
 30
0.0
 11
488.211022004227
 21
276.0789876482627
 31
0.0
  0
LINE
  5
2535
330
2481
100
AcDbEntity
  8
0
 62
     0
100
AcDbLine
 10
489.1889620059778
 20
274.2285005252675
 30
0.0
 11
491.0394491289731
 21
276.0789876482627
 31
0.0
  0
LINE
  5
2536
330
2481
100
AcDbEntity
  8
0
 62
     0
100
AcDbLine
 10
491.8678762537194
 20
274.0789876482628
 30
0.0
 11
493.8678762537193
 21
276.0789876482627
 31
0.0
  0
LINE
  5
2537
330
2481
100
AcDbEntity
  8
0
 62
     0
100
AcDbLine
 10
494.6963033784656
 20
274.0789876482628
 30
0.0
 11
496.6963033784655
 21
276.0789876482627
 31
0.0
  0
LINE
  5
2538
330
2481
100
AcDbEntity
  8
0
 62
     0
100
AcDbLine
 10
497.5247305032117
 20
274.0789876482628
 30
0.0
 11
499.5247305032117
 21
276.0789876482627
 31
0.0
  0
LINE
  5
2539
330
2481
100
AcDbEntity
  8
0
 62
     0
100
AcDbLine
 10
500.3531576279579
 20
274.0789876482628
 30
0.0
 11
502.3531576279579
 21
276.0789876482627
 31
0.0
  0
LINE
  5
253A
330
2481
100
AcDbEntity
  8
0
 62
     0
100
AcDbLine
 10
503.1815847527041
 20
274.0789876482628
 30
0.0
 11
505.181584752704
 21
276.0789876482627
 31
0.0
  0
LINE
  5
253B
330
2481
100
AcDbEntity
  8
0
 62
     0
100
AcDbLine
 10
506.0100118774503
 20
274.0789876482628
 30
0.0
 11
508.0100118774502
 21
276.0789876482627
 31
0.0
  0
LINE
  5
253C
330
2481
100
AcDbEntity
  8
0
 62
     0
100
AcDbLine
 10
508.8384390021965
 20
274.0789876482627
 30
0.0
 11
510.8384390021964
 21
276.0789876482627
 31
0.0
  0
LINE
  5
253D
330
2481
100
AcDbEntity
  8
0
 62
     0
100
AcDbLine
 10
511.6668661269427
 20
274.0789876482627
 30
0.0
 11
513.6668661269426
 21
276.0789876482627
 31
0.0
  0
LINE
  5
253E
330
2481
100
AcDbEntity
  8
0
 62
     0
100
AcDbLine
 10
514.4952932516888
 20
274.0789876482627
 30
0.0
 11
516.4952932516889
 21
276.0789876482627
 31
0.0
  0
LINE
  5
253F
330
2481
100
AcDbEntity
  8
0
 62
     0
100
AcDbLine
 10
517.323720376435
 20
274.0789876482627
 30
0.0
 11
519.3237203764351
 21
276.0789876482627
 31
0.0
  0
LINE
  5
2540
330
2481
100
AcDbEntity
  8
0
 62
     0
100
AcDbLine
 10
520.1521475011812
 20
274.0789876482627
 30
0.0
 11
522.1521475011813
 21
276.0789876482627
 31
0.0
  0
LINE
  5
2541
330
2481
100
AcDbEntity
  8
0
 62
     0
100
AcDbLine
 10
522.9805746259274
 20
274.0789876482627
 30
0.0
 11
524.9805746259275
 21
276.0789876482627
 31
0.0
  0
LINE
  5
2542
330
2481
100
AcDbEntity
  8
0
 62
     0
100
AcDbLine
 10
525.8090017506735
 20
274.0789876482627
 30
0.0
 11
527.8090017506736
 21
276.0789876482627
 31
0.0
  0
LINE
  5
2543
330
2481
100
AcDbEntity
  8
0
 62
     0
100
AcDbLine
 10
528.6374288754197
 20
274.0789876482627
 30
0.0
 11
530.6374288754198
 21
276.0789876482627
 31
0.0
  0
LINE
  5
2544
330
2481
100
AcDbEntity
  8
0
 62
     0
100
AcDbLine
 10
531.4658560001659
 20
274.0789876482627
 30
0.0
 11
533.465856000166
 21
276.0789876482627
 31
0.0
  0
LINE
  5
2545
330
2481
100
AcDbEntity
  8
0
 62
     0
100
AcDbLine
 10
534.2942831249122
 20
274.0789876482627
 30
0.0
 11
536.2942831249122
 21
276.0789876482627
 31
0.0
  0
LINE
  5
2546
330
2481
100
AcDbEntity
  8
0
 62
     0
100
AcDbLine
 10
537.1227102496584
 20
274.0789876482627
 30
0.0
 11
539.1227102496584
 21
276.0789876482627
 31
0.0
  0
LINE
  5
2547
330
2481
100
AcDbEntity
  8
0
 62
     0
100
AcDbLine
 10
539.9511373744045
 20
274.0789876482627
 30
0.0
 11
541.9511373744045
 21
276.0789876482627
 31
0.0
  0
LINE
  5
2548
330
2481
100
AcDbEntity
  8
0
 62
     0
100
AcDbLine
 10
542.7795644991507
 20
274.0789876482627
 30
0.0
 11
544.7795644991507
 21
276.0789876482627
 31
0.0
  0
LINE
  5
2549
330
2481
100
AcDbEntity
  8
0
 62
     0
100
AcDbLine
 10
545.6079916238969
 20
274.0789876482627
 30
0.0
 11
547.6079916238969
 21
276.0789876482627
 31
0.0
  0
LINE
  5
254A
330
2481
100
AcDbEntity
  8
0
 62
     0
100
AcDbLine
 10
548.4364187486431
 20
274.0789876482627
 30
0.0
 11
550.4364187486431
 21
276.0789876482627
 31
0.0
  0
LINE
  5
254B
330
2481
100
AcDbEntity
  8
0
 62
     0
100
AcDbLine
 10
551.2648458733893
 20
274.0789876482627
 30
0.0
 11
553.2648458733892
 21
276.0789876482627
 31
0.0
  0
LINE
  5
254C
330
2481
100
AcDbEntity
  8
0
 62
     0
100
AcDbLine
 10
554.0932729981355
 20
274.0789876482627
 30
0.0
 11
556.0932729981354
 21
276.0789876482627
 31
0.0
  0
LINE
  5
254D
330
2481
100
AcDbEntity
  8
0
 62
     0
100
AcDbLine
 10
556.9217001228817
 20
274.0789876482627
 30
0.0
 11
558.9217001228816
 21
276.0789876482627
 31
0.0
  0
LINE
  5
254E
330
2481
100
AcDbEntity
  8
0
 62
     0
100
AcDbLine
 10
559.7501272476279
 20
274.0789876482627
 30
0.0
 11
561.7501272476279
 21
276.0789876482627
 31
0.0
  0
LINE
  5
254F
330
2481
100
AcDbEntity
  8
0
 62
     0
100
AcDbLine
 10
562.5785543723741
 20
274.0789876482627
 30
0.0
 11
564.5785543723741
 21
276.0789876482627
 31
0.0
  0
LINE
  5
2550
330
2481
100
AcDbEntity
  8
0
 62
     0
100
AcDbLine
 10
565.4069814971202
 20
274.0789876482627
 30
0.0
 11
567.4069814971202
 21
276.0789876482627
 31
0.0
  0
LINE
  5
2551
330
2481
100
AcDbEntity
  8
0
 62
     0
100
AcDbLine
 10
568.2354086218664
 20
274.0789876482627
 30
0.0
 11
570.2354086218664
 21
276.0789876482627
 31
0.0
  0
LINE
  5
2552
330
2481
100
AcDbEntity
  8
0
 62
     0
100
AcDbLine
 10
571.0638357466126
 20
274.0789876482627
 30
0.0
 11
573.0638357466126
 21
276.0789876482627
 31
0.0
  0
LINE
  5
2553
330
2481
100
AcDbEntity
  8
0
 62
     0
100
AcDbLine
 10
573.8922628713588
 20
274.0789876482627
 30
0.0
 11
575.8922628713588
 21
276.0789876482627
 31
0.0
  0
LINE
  5
2554
330
2481
100
AcDbEntity
  8
0
 62
     0
100
AcDbLine
 10
576.7206899961049
 20
274.0789876482627
 30
0.0
 11
578.720689996105
 21
276.0789876482627
 31
0.0
  0
LINE
  5
2555
330
2481
100
AcDbEntity
  8
0
 62
     0
100
AcDbLine
 10
579.5491171208511
 20
274.0789876482627
 30
0.0
 11
581.5491171208512
 21
276.0789876482627
 31
0.0
  0
LINE
  5
2556
330
2481
100
AcDbEntity
  8
0
 62
     0
100
AcDbLine
 10
582.3775442455974
 20
274.0789876482627
 30
0.0
 11
584.3775442455974
 21
276.0789876482627
 31
0.0
  0
LINE
  5
2557
330
2481
100
AcDbEntity
  8
0
 62
     0
100
AcDbLine
 10
585.2059713703436
 20
274.0789876482627
 30
0.0
 11
587.2059713703436
 21
276.0789876482627
 31
0.0
  0
LINE
  5
2558
330
2481
100
AcDbEntity
  8
0
 62
     0
100
AcDbLine
 10
588.0343984950898
 20
274.0789876482627
 30
0.0
 11
590.0343984950898
 21
276.0789876482627
 31
0.0
  0
LINE
  5
2559
330
2481
100
AcDbEntity
  8
0
 62
     0
100
AcDbLine
 10
590.8628256198359
 20
274.0789876482627
 30
0.0
 11
592.862825619836
 21
276.0789876482627
 31
0.0
  0
LINE
  5
255A
330
2481
100
AcDbEntity
  8
0
 62
     0
100
AcDbLine
 10
593.6912527445821
 20
274.0789876482627
 30
0.0
 11
595.6912527445821
 21
276.0789876482627
 31
0.0
  0
LINE
  5
255B
330
2481
100
AcDbEntity
  8
0
 62
     0
100
AcDbLine
 10
596.5196798693283
 20
274.0789876482627
 30
0.0
 11
598.5196798693283
 21
276.0789876482627
 31
0.0
  0
LINE
  5
255C
330
2481
100
AcDbEntity
  8
0
 62
     0
100
AcDbLine
 10
599.3481069940745
 20
274.0789876482627
 30
0.0
 11
601.3481069940745
 21
276.0789876482627
 31
0.0
  0
LINE
  5
255D
330
2481
100
AcDbEntity
  8
0
 62
     0
100
AcDbLine
 10
602.1765341188206
 20
274.0789876482627
 30
0.0
 11
604.1765341188208
 21
276.0789876482627
 31
0.0
  0
LINE
  5
255E
330
2481
100
AcDbEntity
  8
0
 62
     0
100
AcDbLine
 10
605.0049612435668
 20
274.0789876482627
 30
0.0
 11
607.0049612435668
 21
276.0789876482627
 31
0.0
  0
LINE
  5
255F
330
2481
100
AcDbEntity
  8
0
 62
     0
100
AcDbLine
 10
607.833388368313
 20
274.0789876482627
 30
0.0
 11
609.8333883683131
 21
276.0789876482627
 31
0.0
  0
LINE
  5
2560
330
2481
100
AcDbEntity
  8
0
 62
     0
100
AcDbLine
 10
610.6618154930592
 20
274.0789876482627
 30
0.0
 11
611.816091093286
 21
275.2332632484894
 31
0.0
  0
ENDBLK
  5
2561
330
2481
100
AcDbEntity
  8
0
100
AcDbBlockEnd
  0
BLOCK
  5
2563
330
2562
100
AcDbEntity
  8
0
100
AcDbBlockBegin
  2
*X8
 70
     1
 10
0.0
 20
0.0
 30
0.0
  3
*X8
  1

  0
LINE
  5
2564
330
2562
100
AcDbEntity
  8
0
 62
     0
100
AcDbLine
 10
318.5764623313212
 20
269.0789876482629
 30
0.0
 11
321.5764623313212
 21
272.0789876482629
 31
0.0
  0
LINE
  5
2565
330
2562
100
AcDbEntity
  8
0
 62
     0
100
AcDbLine
 10
427.5764623313213
 20
378.0789876482629
 30
0.0
 11
430.5764623313213
 21
381.078987648263
 31
0.0
  0
LINE
  5
2566
330
2562
100
AcDbEntity
  8
0
 62
     0
100
AcDbLine
 10
321.5764623313212
 20
272.0789876482629
 30
0.0
 11
323.5764623313212
 21
274.0789876482629
 31
0.0
  0
LINE
  5
2567
330
2562
100
AcDbEntity
  8
0
 62
     0
100
AcDbLine
 10
425.5764623313212
 20
376.0789876482629
 30
0.0
 11
427.5764623313213
 21
378.0789876482629
 31
0.0
  0
LINE
  5
2568
330
2562
100
AcDbEntity
  8
0
 62
     0
100
AcDbLine
 10
315.0409284253885
 20
269.0789876482629
 30
0.0
 11
318.0409284253885
 21
272.0789876482629
 31
0.0
  0
LINE
  5
2569
330
2562
100
AcDbEntity
  8
0
 62
     0
100
AcDbLine
 10
424.0409284253884
 20
378.0789876482629
 30
0.0
 11
427.0409284253885
 21
381.078987648263
 31
0.0
  0
LINE
  5
256A
330
2562
100
AcDbEntity
  8
0
 62
     0
100
AcDbLine
 10
318.0409284253885
 20
272.0789876482629
 30
0.0
 11
320.0409284253885
 21
274.0789876482629
 31
0.0
  0
LINE
  5
256B
330
2562
100
AcDbEntity
  8
0
 62
     0
100
AcDbLine
 10
422.0409284253884
 20
376.0789876482629
 30
0.0
 11
424.0409284253884
 21
378.0789876482629
 31
0.0
  0
LINE
  5
256C
330
2562
100
AcDbEntity
  8
0
 62
     0
100
AcDbLine
 10
311.5053945194558
 20
269.0789876482629
 30
0.0
 11
314.5053945194557
 21
272.0789876482629
 31
0.0
  0
LINE
  5
256D
330
2562
100
AcDbEntity
  8
0
 62
     0
100
AcDbLine
 10
420.5053945194558
 20
378.0789876482629
 30
0.0
 11
423.5053945194557
 21
381.078987648263
 31
0.0
  0
LINE
  5
256E
330
2562
100
AcDbEntity
  8
0
 62
     0
100
AcDbLine
 10
314.5053945194557
 20
272.0789876482629
 30
0.0
 11
316.5053945194558
 21
274.0789876482629
 31
0.0
  0
LINE
  5
256F
330
2562
100
AcDbEntity
  8
0
 62
     0
100
AcDbLine
 10
418.5053945194558
 20
376.0789876482629
 30
0.0
 11
420.5053945194558
 21
378.0789876482629
 31
0.0
  0
LINE
  5
2570
330
2562
100
AcDbEntity
  8
0
 62
     0
100
AcDbLine
 10
307.969860613523
 20
269.0789876482629
 30
0.0
 11
310.969860613523
 21
272.0789876482629
 31
0.0
  0
LINE
  5
2571
330
2562
100
AcDbEntity
  8
0
 62
     0
100
AcDbLine
 10
416.969860613523
 20
378.0789876482629
 30
0.0
 11
419.969860613523
 21
381.078987648263
 31
0.0
  0
LINE
  5
2572
330
2562
100
AcDbEntity
  8
0
 62
     0
100
AcDbLine
 10
310.969860613523
 20
272.0789876482629
 30
0.0
 11
312.969860613523
 21
274.0789876482629
 31
0.0
  0
LINE
  5
2573
330
2562
100
AcDbEntity
  8
0
 62
     0
100
AcDbLine
 10
414.9698606135229
 20
376.0789876482629
 30
0.0
 11
416.969860613523
 21
378.0789876482629
 31
0.0
  0
LINE
  5
2574
330
2562
100
AcDbEntity
  8
0
 62
     0
100
AcDbLine
 10
304.4343267075903
 20
269.0789876482629
 30
0.0
 11
307.4343267075902
 21
272.0789876482629
 31
0.0
  0
LINE
  5
2575
330
2562
100
AcDbEntity
  8
0
 62
     0
100
AcDbLine
 10
413.4343267075903
 20
378.0789876482629
 30
0.0
 11
416.4343267075903
 21
381.078987648263
 31
0.0
  0
LINE
  5
2576
330
2562
100
AcDbEntity
  8
0
 62
     0
100
AcDbLine
 10
307.4343267075902
 20
272.0789876482629
 30
0.0
 11
309.4343267075903
 21
274.0789876482629
 31
0.0
  0
LINE
  5
2577
330
2562
100
AcDbEntity
  8
0
 62
     0
100
AcDbLine
 10
411.4343267075902
 20
376.0789876482629
 30
0.0
 11
413.4343267075903
 21
378.0789876482629
 31
0.0
  0
LINE
  5
2578
330
2562
100
AcDbEntity
  8
0
 62
     0
100
AcDbLine
 10
300.8987928016576
 20
269.0789876482629
 30
0.0
 11
303.8987928016575
 21
272.0789876482629
 31
0.0
  0
LINE
  5
2579
330
2562
100
AcDbEntity
  8
0
 62
     0
100
AcDbLine
 10
409.8987928016575
 20
378.0789876482629
 30
0.0
 11
412.8987928016575
 21
381.078987648263
 31
0.0
  0
LINE
  5
257A
330
2562
100
AcDbEntity
  8
0
 62
     0
100
AcDbLine
 10
303.8987928016575
 20
272.0789876482629
 30
0.0
 11
305.8987928016576
 21
274.0789876482629
 31
0.0
  0
LINE
  5
257B
330
2562
100
AcDbEntity
  8
0
 62
     0
100
AcDbLine
 10
407.8987928016575
 20
376.0789876482629
 30
0.0
 11
409.8987928016575
 21
378.0789876482629
 31
0.0
  0
LINE
  5
257C
330
2562
100
AcDbEntity
  8
0
 62
     0
100
AcDbLine
 10
297.3632588957248
 20
269.0789876482629
 30
0.0
 11
300.3632588957247
 21
272.0789876482629
 31
0.0
  0
LINE
  5
257D
330
2562
100
AcDbEntity
  8
0
 62
     0
100
AcDbLine
 10
406.3632588957248
 20
378.0789876482629
 30
0.0
 11
409.3632588957248
 21
381.078987648263
 31
0.0
  0
LINE
  5
257E
330
2562
100
AcDbEntity
  8
0
 62
     0
100
AcDbLine
 10
300.3632588957247
 20
272.0789876482629
 30
0.0
 11
302.3632588957248
 21
274.0789876482629
 31
0.0
  0
LINE
  5
257F
330
2562
100
AcDbEntity
  8
0
 62
     0
100
AcDbLine
 10
404.3632588957247
 20
376.0789876482629
 30
0.0
 11
406.3632588957248
 21
378.0789876482629
 31
0.0
  0
LINE
  5
2580
330
2562
100
AcDbEntity
  8
0
 62
     0
100
AcDbLine
 10
295.5007469652808
 20
270.7520096237516
 30
0.0
 11
296.8277249897921
 21
272.0789876482629
 31
0.0
  0
LINE
  5
2581
330
2562
100
AcDbEntity
  8
0
 62
     0
100
AcDbLine
 10
402.8277249897921
 20
378.0789876482629
 30
0.0
 11
405.8277249897921
 21
381.078987648263
 31
0.0
  0
LINE
  5
2582
330
2562
100
AcDbEntity
  8
0
 62
     0
100
AcDbLine
 10
296.8277249897921
 20
272.0789876482629
 30
0.0
 11
298.8277249897921
 21
274.0789876482629
 31
0.0
  0
LINE
  5
2583
330
2562
100
AcDbEntity
  8
0
 62
     0
100
AcDbLine
 10
400.827724989792
 20
376.0789876482629
 30
0.0
 11
402.8277249897921
 21
378.0789876482629
 31
0.0
  0
LINE
  5
2584
330
2562
100
AcDbEntity
  8
0
 62
     0
100
AcDbLine
 10
397.2921910838593
 20
376.0789876482629
 30
0.0
 11
399.2921910838594
 21
378.0789876482629
 31
0.0
  0
LINE
  5
2585
330
2562
100
AcDbEntity
  8
0
 62
     0
100
AcDbLine
 10
399.2921910838594
 20
378.0789876482629
 30
0.0
 11
402.2921910838594
 21
381.078987648263
 31
0.0
  0
LINE
  5
2586
330
2562
100
AcDbEntity
  8
0
 62
     0
100
AcDbLine
 10
393.7566571779266
 20
376.0789876482629
 30
0.0
 11
395.7566571779267
 21
378.0789876482629
 31
0.0
  0
LINE
  5
2587
330
2562
100
AcDbEntity
  8
0
 62
     0
100
AcDbLine
 10
395.7566571779267
 20
378.0789876482629
 30
0.0
 11
398.7566571779266
 21
381.078987648263
 31
0.0
  0
LINE
  5
2588
330
2562
100
AcDbEntity
  8
0
 62
     0
100
AcDbLine
 10
390.2211232719939
 20
376.0789876482629
 30
0.0
 11
392.2211232719939
 21
378.0789876482629
 31
0.0
  0
LINE
  5
2589
330
2562
100
AcDbEntity
  8
0
 62
     0
100
AcDbLine
 10
392.2211232719939
 20
378.0789876482629
 30
0.0
 11
395.2211232719939
 21
381.078987648263
 31
0.0
  0
LINE
  5
258A
330
2562
100
AcDbEntity
  8
0
 62
     0
100
AcDbLine
 10
386.6855893660611
 20
376.0789876482629
 30
0.0
 11
388.6855893660611
 21
378.0789876482629
 31
0.0
  0
LINE
  5
258B
330
2562
100
AcDbEntity
  8
0
 62
     0
100
AcDbLine
 10
388.6855893660611
 20
378.0789876482629
 30
0.0
 11
391.6855893660612
 21
381.078987648263
 31
0.0
  0
LINE
  5
258C
330
2562
100
AcDbEntity
  8
0
 62
     0
100
AcDbLine
 10
383.1500554601284
 20
376.0789876482629
 30
0.0
 11
385.1500554601285
 21
378.0789876482629
 31
0.0
  0
LINE
  5
258D
330
2562
100
AcDbEntity
  8
0
 62
     0
100
AcDbLine
 10
385.1500554601285
 20
378.0789876482629
 30
0.0
 11
388.1500554601284
 21
381.078987648263
 31
0.0
  0
LINE
  5
258E
330
2562
100
AcDbEntity
  8
0
 62
     0
100
AcDbLine
 10
379.6145215541956
 20
376.0789876482629
 30
0.0
 11
381.6145215541957
 21
378.0789876482629
 31
0.0
  0
LINE
  5
258F
330
2562
100
AcDbEntity
  8
0
 62
     0
100
AcDbLine
 10
381.6145215541957
 20
378.0789876482629
 30
0.0
 11
384.6145215541957
 21
381.078987648263
 31
0.0
  0
LINE
  5
2590
330
2562
100
AcDbEntity
  8
0
 62
     0
100
AcDbLine
 10
376.0789876482629
 20
376.0789876482629
 30
0.0
 11
378.0789876482629
 21
378.0789876482629
 31
0.0
  0
LINE
  5
2591
330
2562
100
AcDbEntity
  8
0
 62
     0
100
AcDbLine
 10
378.0789876482629
 20
378.0789876482629
 30
0.0
 11
381.078987648263
 21
381.078987648263
 31
0.0
  0
LINE
  5
2592
330
2562
100
AcDbEntity
  8
0
 62
     0
100
AcDbLine
 10
372.5434537423301
 20
376.0789876482629
 30
0.0
 11
374.5434537423302
 21
378.0789876482629
 31
0.0
  0
LINE
  5
2593
330
2562
100
AcDbEntity
  8
0
 62
     0
100
AcDbLine
 10
374.5434537423302
 20
378.0789876482629
 30
0.0
 11
377.5434537423302
 21
381.078987648263
 31
0.0
  0
LINE
  5
2594
330
2562
100
AcDbEntity
  8
0
 62
     0
100
AcDbLine
 10
369.0079198363974
 20
376.0789876482629
 30
0.0
 11
371.0079198363975
 21
378.0789876482629
 31
0.0
  0
LINE
  5
2595
330
2562
100
AcDbEntity
  8
0
 62
     0
100
AcDbLine
 10
371.0079198363975
 20
378.0789876482629
 30
0.0
 11
374.0079198363975
 21
381.078987648263
 31
0.0
  0
LINE
  5
2596
330
2562
100
AcDbEntity
  8
0
 62
     0
100
AcDbLine
 10
365.4723859304647
 20
376.0789876482629
 30
0.0
 11
367.4723859304647
 21
378.0789876482629
 31
0.0
  0
LINE
  5
2597
330
2562
100
AcDbEntity
  8
0
 62
     0
100
AcDbLine
 10
367.4723859304647
 20
378.0789876482629
 30
0.0
 11
370.4723859304647
 21
381.078987648263
 31
0.0
  0
LINE
  5
2598
330
2562
100
AcDbEntity
  8
0
 62
     0
100
AcDbLine
 10
361.936852024532
 20
376.0789876482629
 30
0.0
 11
363.936852024532
 21
378.0789876482629
 31
0.0
  0
LINE
  5
2599
330
2562
100
AcDbEntity
  8
0
 62
     0
100
AcDbLine
 10
363.936852024532
 20
378.0789876482629
 30
0.0
 11
366.936852024532
 21
381.078987648263
 31
0.0
  0
LINE
  5
259A
330
2562
100
AcDbEntity
  8
0
 62
     0
100
AcDbLine
 10
358.4013181185992
 20
376.0789876482629
 30
0.0
 11
360.4013181185993
 21
378.0789876482629
 31
0.0
  0
LINE
  5
259B
330
2562
100
AcDbEntity
  8
0
 62
     0
100
AcDbLine
 10
360.4013181185993
 20
378.0789876482629
 30
0.0
 11
363.4013181185992
 21
381.0789876482629
 31
0.0
  0
LINE
  5
259C
330
2562
100
AcDbEntity
  8
0
 62
     0
100
AcDbLine
 10
354.8657842126665
 20
376.0789876482629
 30
0.0
 11
356.8657842126665
 21
378.0789876482629
 31
0.0
  0
LINE
  5
259D
330
2562
100
AcDbEntity
  8
0
 62
     0
100
AcDbLine
 10
356.8657842126665
 20
378.0789876482629
 30
0.0
 11
359.8657842126665
 21
381.0789876482629
 31
0.0
  0
LINE
  5
259E
330
2562
100
AcDbEntity
  8
0
 62
     0
100
AcDbLine
 10
351.3302503067337
 20
376.0789876482629
 30
0.0
 11
353.3302503067338
 21
378.0789876482629
 31
0.0
  0
LINE
  5
259F
330
2562
100
AcDbEntity
  8
0
 62
     0
100
AcDbLine
 10
353.3302503067338
 20
378.0789876482629
 30
0.0
 11
356.3302503067338
 21
381.0789876482629
 31
0.0
  0
LINE
  5
25A0
330
2562
100
AcDbEntity
  8
0
 62
     0
100
AcDbLine
 10
347.794716400801
 20
376.0789876482629
 30
0.0
 11
349.7947164008011
 21
378.0789876482629
 31
0.0
  0
LINE
  5
25A1
330
2562
100
AcDbEntity
  8
0
 62
     0
100
AcDbLine
 10
349.7947164008011
 20
378.0789876482629
 30
0.0
 11
352.794716400801
 21
381.0789876482629
 31
0.0
  0
LINE
  5
25A2
330
2562
100
AcDbEntity
  8
0
 62
     0
100
AcDbLine
 10
344.2591824948682
 20
376.0789876482629
 30
0.0
 11
346.2591824948683
 21
378.0789876482629
 31
0.0
  0
LINE
  5
25A3
330
2562
100
AcDbEntity
  8
0
 62
     0
100
AcDbLine
 10
346.2591824948683
 20
378.0789876482629
 30
0.0
 11
349.2591824948683
 21
381.0789876482629
 31
0.0
  0
LINE
  5
25A4
330
2562
100
AcDbEntity
  8
0
 62
     0
100
AcDbLine
 10
340.7236485889356
 20
376.0789876482629
 30
0.0
 11
342.7236485889356
 21
378.0789876482629
 31
0.0
  0
LINE
  5
25A5
330
2562
100
AcDbEntity
  8
0
 62
     0
100
AcDbLine
 10
342.7236485889356
 20
378.0789876482629
 30
0.0
 11
345.7236485889355
 21
381.0789876482629
 31
0.0
  0
LINE
  5
25A6
330
2562
100
AcDbEntity
  8
0
 62
     0
100
AcDbLine
 10
337.1881146830028
 20
376.0789876482629
 30
0.0
 11
339.1881146830028
 21
378.0789876482629
 31
0.0
  0
LINE
  5
25A7
330
2562
100
AcDbEntity
  8
0
 62
     0
100
AcDbLine
 10
339.1881146830028
 20
378.0789876482629
 30
0.0
 11
342.1881146830028
 21
381.0789876482629
 31
0.0
  0
LINE
  5
25A8
330
2562
100
AcDbEntity
  8
0
 62
     0
100
AcDbLine
 10
333.65258077707
 20
376.0789876482629
 30
0.0
 11
335.65258077707
 21
378.0789876482629
 31
0.0
  0
LINE
  5
25A9
330
2562
100
AcDbEntity
  8
0
 62
     0
100
AcDbLine
 10
335.65258077707
 20
378.0789876482629
 30
0.0
 11
338.6525807770701
 21
381.0789876482629
 31
0.0
  0
LINE
  5
25AA
330
2562
100
AcDbEntity
  8
0
 62
     0
100
AcDbLine
 10
330.1170468711373
 20
376.0789876482629
 30
0.0
 11
332.1170468711374
 21
378.0789876482629
 31
0.0
  0
LINE
  5
25AB
330
2562
100
AcDbEntity
  8
0
 62
     0
100
AcDbLine
 10
332.1170468711374
 20
378.0789876482629
 30
0.0
 11
335.1170468711373
 21
381.0789876482629
 31
0.0
  0
LINE
  5
25AC
330
2562
100
AcDbEntity
  8
0
 62
     0
100
AcDbLine
 10
326.5815129652046
 20
376.0789876482629
 30
0.0
 11
328.5815129652046
 21
378.0789876482629
 31
0.0
  0
LINE
  5
25AD
330
2562
100
AcDbEntity
  8
0
 62
     0
100
AcDbLine
 10
328.5815129652046
 20
378.0789876482629
 30
0.0
 11
331.5815129652046
 21
381.0789876482629
 31
0.0
  0
LINE
  5
25AE
330
2562
100
AcDbEntity
  8
0
 62
     0
100
AcDbLine
 10
323.0459790592718
 20
376.0789876482629
 30
0.0
 11
325.0459790592719
 21
378.0789876482629
 31
0.0
  0
LINE
  5
25AF
330
2562
100
AcDbEntity
  8
0
 62
     0
100
AcDbLine
 10
325.0459790592719
 20
378.0789876482629
 30
0.0
 11
328.0459790592719
 21
381.0789876482629
 31
0.0
  0
LINE
  5
25B0
330
2562
100
AcDbEntity
  8
0
 62
     0
100
AcDbLine
 10
319.5104451533391
 20
376.0789876482629
 30
0.0
 11
321.5104451533391
 21
378.0789876482629
 31
0.0
  0
LINE
  5
25B1
330
2562
100
AcDbEntity
  8
0
 62
     0
100
AcDbLine
 10
321.5104451533391
 20
378.0789876482629
 30
0.0
 11
324.5104451533391
 21
381.0789876482629
 31
0.0
  0
LINE
  5
25B2
330
2562
100
AcDbEntity
  8
0
 62
     0
100
AcDbLine
 10
315.9749112474063
 20
376.0789876482629
 30
0.0
 11
317.9749112474064
 21
378.0789876482629
 31
0.0
  0
LINE
  5
25B3
330
2562
100
AcDbEntity
  8
0
 62
     0
100
AcDbLine
 10
317.9749112474064
 20
378.0789876482629
 30
0.0
 11
320.9749112474064
 21
381.0789876482629
 31
0.0
  0
LINE
  5
25B4
330
2562
100
AcDbEntity
  8
0
 62
     0
100
AcDbLine
 10
312.4393773414736
 20
376.0789876482629
 30
0.0
 11
314.4393773414736
 21
378.0789876482629
 31
0.0
  0
LINE
  5
25B5
330
2562
100
AcDbEntity
  8
0
 62
     0
100
AcDbLine
 10
314.4393773414736
 20
378.0789876482629
 30
0.0
 11
317.4393773414736
 21
381.0789876482629
 31
0.0
  0
LINE
  5
25B6
330
2562
100
AcDbEntity
  8
0
 62
     0
100
AcDbLine
 10
308.9038434355409
 20
376.0789876482629
 30
0.0
 11
310.9038434355409
 21
378.0789876482629
 31
0.0
  0
LINE
  5
25B7
330
2562
100
AcDbEntity
  8
0
 62
     0
100
AcDbLine
 10
310.9038434355409
 20
378.0789876482629
 30
0.0
 11
313.9038434355409
 21
381.0789876482629
 31
0.0
  0
LINE
  5
25B8
330
2562
100
AcDbEntity
  8
0
 62
     0
100
AcDbLine
 10
305.3683095296082
 20
376.0789876482629
 30
0.0
 11
307.3683095296082
 21
378.0789876482629
 31
0.0
  0
LINE
  5
25B9
330
2562
100
AcDbEntity
  8
0
 62
     0
100
AcDbLine
 10
307.3683095296082
 20
378.0789876482629
 30
0.0
 11
310.3683095296081
 21
381.0789876482629
 31
0.0
  0
LINE
  5
25BA
330
2562
100
AcDbEntity
  8
0
 62
     0
100
AcDbLine
 10
301.8327756236754
 20
376.0789876482629
 30
0.0
 11
303.8327756236754
 21
378.0789876482629
 31
0.0
  0
LINE
  5
25BB
330
2562
100
AcDbEntity
  8
0
 62
     0
100
AcDbLine
 10
303.8327756236754
 20
378.0789876482629
 30
0.0
 11
306.8327756236755
 21
381.0789876482629
 31
0.0
  0
LINE
  5
25BC
330
2562
100
AcDbEntity
  8
0
 62
     0
100
AcDbLine
 10
298.2972417177427
 20
376.0789876482629
 30
0.0
 11
300.2972417177427
 21
378.0789876482629
 31
0.0
  0
LINE
  5
25BD
330
2562
100
AcDbEntity
  8
0
 62
     0
100
AcDbLine
 10
300.2972417177427
 20
378.0789876482629
 30
0.0
 11
303.2972417177427
 21
381.0789876482629
 31
0.0
  0
LINE
  5
25BE
330
2562
100
AcDbEntity
  8
0
 62
     0
100
AcDbLine
 10
295.5007469652808
 20
376.8180268017337
 30
0.0
 11
296.76170781181
 21
378.0789876482629
 31
0.0
  0
LINE
  5
25BF
330
2562
100
AcDbEntity
  8
0
 62
     0
100
AcDbLine
 10
296.76170781181
 20
378.0789876482629
 30
0.0
 11
299.76170781181
 21
381.0789876482629
 31
0.0
  0
LINE
  5
25C0
330
2562
100
AcDbEntity
  8
0
 62
     0
100
AcDbLine
 10
295.5007469652808
 20
380.3535607076664
 30
0.0
 11
296.2261739058772
 21
381.0789876482629
 31
0.0
  0
LINE
  5
25C1
330
2562
100
AcDbEntity
  8
0
 62
     0
100
AcDbLine
 10
322.111996237254
 20
269.0789876482629
 30
0.0
 11
325.1119962372539
 21
272.0789876482629
 31
0.0
  0
LINE
  5
25C2
330
2562
100
AcDbEntity
  8
0
 62
     0
100
AcDbLine
 10
431.111996237254
 20
378.0789876482629
 30
0.0
 11
434.1119962372539
 21
381.078987648263
 31
0.0
  0
LINE
  5
25C3
330
2562
100
AcDbEntity
  8
0
 62
     0
100
AcDbLine
 10
325.1119962372539
 20
272.0789876482629
 30
0.0
 11
327.1119962372539
 21
274.0789876482629
 31
0.0
  0
LINE
  5
25C4
330
2562
100
AcDbEntity
  8
0
 62
     0
100
AcDbLine
 10
429.111996237254
 20
376.0789876482629
 30
0.0
 11
431.111996237254
 21
378.0789876482629
 31
0.0
  0
LINE
  5
25C5
330
2562
100
AcDbEntity
  8
0
 62
     0
100
AcDbLine
 10
325.6475301431867
 20
269.0789876482629
 30
0.0
 11
328.6475301431867
 21
272.0789876482629
 31
0.0
  0
LINE
  5
25C6
330
2562
100
AcDbEntity
  8
0
 62
     0
100
AcDbLine
 10
434.6475301431867
 20
378.0789876482629
 30
0.0
 11
437.6475301431868
 21
381.078987648263
 31
0.0
  0
LINE
  5
25C7
330
2562
100
AcDbEntity
  8
0
 62
     0
100
AcDbLine
 10
328.6475301431867
 20
272.0789876482629
 30
0.0
 11
330.6475301431867
 21
274.0789876482629
 31
0.0
  0
LINE
  5
25C8
330
2562
100
AcDbEntity
  8
0
 62
     0
100
AcDbLine
 10
432.6475301431867
 20
376.0789876482629
 30
0.0
 11
434.6475301431867
 21
378.0789876482629
 31
0.0
  0
LINE
  5
25C9
330
2562
100
AcDbEntity
  8
0
 62
     0
100
AcDbLine
 10
329.1830640491194
 20
269.0789876482629
 30
0.0
 11
332.1830640491194
 21
272.0789876482629
 31
0.0
  0
LINE
  5
25CA
330
2562
100
AcDbEntity
  8
0
 62
     0
100
AcDbLine
 10
438.1830640491195
 20
378.0789876482629
 30
0.0
 11
441.1830640491195
 21
381.078987648263
 31
0.0
  0
LINE
  5
25CB
330
2562
100
AcDbEntity
  8
0
 62
     0
100
AcDbLine
 10
332.1830640491194
 20
272.0789876482629
 30
0.0
 11
334.1830640491194
 21
274.0789876482629
 31
0.0
  0
LINE
  5
25CC
330
2562
100
AcDbEntity
  8
0
 62
     0
100
AcDbLine
 10
436.1830640491194
 20
376.0789876482629
 30
0.0
 11
438.1830640491195
 21
378.0789876482629
 31
0.0
  0
LINE
  5
25CD
330
2562
100
AcDbEntity
  8
0
 62
     0
100
AcDbLine
 10
332.7185979550522
 20
269.0789876482629
 30
0.0
 11
335.7185979550521
 21
272.0789876482629
 31
0.0
  0
LINE
  5
25CE
330
2562
100
AcDbEntity
  8
0
 62
     0
100
AcDbLine
 10
441.7185979550522
 20
378.0789876482629
 30
0.0
 11
444.7185979550522
 21
381.078987648263
 31
0.0
  0
LINE
  5
25CF
330
2562
100
AcDbEntity
  8
0
 62
     0
100
AcDbLine
 10
335.7185979550521
 20
272.0789876482629
 30
0.0
 11
337.7185979550522
 21
274.0789876482629
 31
0.0
  0
LINE
  5
25D0
330
2562
100
AcDbEntity
  8
0
 62
     0
100
AcDbLine
 10
439.7185979550521
 20
376.0789876482629
 30
0.0
 11
441.7185979550522
 21
378.0789876482629
 31
0.0
  0
LINE
  5
25D1
330
2562
100
AcDbEntity
  8
0
 62
     0
100
AcDbLine
 10
336.2541318609849
 20
269.0789876482629
 30
0.0
 11
339.2541318609849
 21
272.0789876482629
 31
0.0
  0
LINE
  5
25D2
330
2562
100
AcDbEntity
  8
0
 62
     0
100
AcDbLine
 10
445.254131860985
 20
378.0789876482629
 30
0.0
 11
448.2541318609849
 21
381.078987648263
 31
0.0
  0
LINE
  5
25D3
330
2562
100
AcDbEntity
  8
0
 62
     0
100
AcDbLine
 10
339.2541318609849
 20
272.0789876482629
 30
0.0
 11
341.2541318609849
 21
274.0789876482629
 31
0.0
  0
LINE
  5
25D4
330
2562
100
AcDbEntity
  8
0
 62
     0
100
AcDbLine
 10
443.2541318609849
 20
376.0789876482629
 30
0.0
 11
445.254131860985
 21
378.0789876482629
 31
0.0
  0
LINE
  5
25D5
330
2562
100
AcDbEntity
  8
0
 62
     0
100
AcDbLine
 10
339.7896657669177
 20
269.0789876482629
 30
0.0
 11
342.7896657669176
 21
272.0789876482629
 31
0.0
  0
LINE
  5
25D6
330
2562
100
AcDbEntity
  8
0
 62
     0
100
AcDbLine
 10
448.7896657669177
 20
378.0789876482629
 30
0.0
 11
451.7896657669177
 21
381.078987648263
 31
0.0
  0
LINE
  5
25D7
330
2562
100
AcDbEntity
  8
0
 62
     0
100
AcDbLine
 10
342.7896657669176
 20
272.0789876482629
 30
0.0
 11
344.7896657669176
 21
274.0789876482629
 31
0.0
  0
LINE
  5
25D8
330
2562
100
AcDbEntity
  8
0
 62
     0
100
AcDbLine
 10
446.7896657669176
 20
376.0789876482629
 30
0.0
 11
448.7896657669177
 21
378.0789876482629
 31
0.0
  0
LINE
  5
25D9
330
2562
100
AcDbEntity
  8
0
 62
     0
100
AcDbLine
 10
343.3251996728504
 20
269.0789876482629
 30
0.0
 11
346.3251996728504
 21
272.0789876482629
 31
0.0
  0
LINE
  5
25DA
330
2562
100
AcDbEntity
  8
0
 62
     0
100
AcDbLine
 10
452.3251996728505
 20
378.0789876482629
 30
0.0
 11
455.3251996728504
 21
381.078987648263
 31
0.0
  0
LINE
  5
25DB
330
2562
100
AcDbEntity
  8
0
 62
     0
100
AcDbLine
 10
346.3251996728504
 20
272.0789876482629
 30
0.0
 11
348.3251996728504
 21
274.0789876482629
 31
0.0
  0
LINE
  5
25DC
330
2562
100
AcDbEntity
  8
0
 62
     0
100
AcDbLine
 10
450.3251996728503
 20
376.0789876482629
 30
0.0
 11
452.3251996728505
 21
378.0789876482629
 31
0.0
  0
LINE
  5
25DD
330
2562
100
AcDbEntity
  8
0
 62
     0
100
AcDbLine
 10
346.8607335787831
 20
269.0789876482629
 30
0.0
 11
349.8607335787831
 21
272.0789876482629
 31
0.0
  0
LINE
  5
25DE
330
2562
100
AcDbEntity
  8
0
 62
     0
100
AcDbLine
 10
455.8607335787832
 20
378.0789876482629
 30
0.0
 11
458.8607335787831
 21
381.078987648263
 31
0.0
  0
LINE
  5
25DF
330
2562
100
AcDbEntity
  8
0
 62
     0
100
AcDbLine
 10
349.8607335787831
 20
272.0789876482629
 30
0.0
 11
351.8607335787831
 21
274.0789876482629
 31
0.0
  0
LINE
  5
25E0
330
2562
100
AcDbEntity
  8
0
 62
     0
100
AcDbLine
 10
453.8607335787831
 20
376.0789876482629
 30
0.0
 11
455.8607335787832
 21
378.0789876482629
 31
0.0
  0
LINE
  5
25E1
330
2562
100
AcDbEntity
  8
0
 62
     0
100
AcDbLine
 10
350.3962674847159
 20
269.0789876482629
 30
0.0
 11
353.3962674847158
 21
272.0789876482629
 31
0.0
  0
LINE
  5
25E2
330
2562
100
AcDbEntity
  8
0
 62
     0
100
AcDbLine
 10
459.3962674847159
 20
378.0789876482629
 30
0.0
 11
460.5007469652808
 21
379.1834671288278
 31
0.0
  0
LINE
  5
25E3
330
2562
100
AcDbEntity
  8
0
 62
     0
100
AcDbLine
 10
353.3962674847158
 20
272.0789876482629
 30
0.0
 11
355.3962674847158
 21
274.0789876482629
 31
0.0
  0
LINE
  5
25E4
330
2562
100
AcDbEntity
  8
0
 62
     0
100
AcDbLine
 10
457.3962674847158
 20
376.0789876482629
 30
0.0
 11
459.3962674847159
 21
378.0789876482629
 31
0.0
  0
LINE
  5
25E5
330
2562
100
AcDbEntity
  8
0
 62
     0
100
AcDbLine
 10
353.9318013906486
 20
269.0789876482629
 30
0.0
 11
356.9318013906486
 21
272.0789876482629
 31
0.0
  0
LINE
  5
25E6
330
2562
100
AcDbEntity
  8
0
 62
     0
100
AcDbLine
 10
356.9318013906486
 20
272.0789876482629
 30
0.0
 11
358.9318013906486
 21
274.0789876482629
 31
0.0
  0
LINE
  5
25E7
330
2562
100
AcDbEntity
  8
0
 62
     0
100
AcDbLine
 10
357.4673352965813
 20
269.0789876482629
 30
0.0
 11
360.4673352965813
 21
272.0789876482629
 31
0.0
  0
LINE
  5
25E8
330
2562
100
AcDbEntity
  8
0
 62
     0
100
AcDbLine
 10
360.4673352965813
 20
272.0789876482629
 30
0.0
 11
362.4673352965813
 21
274.0789876482629
 31
0.0
  0
LINE
  5
25E9
330
2562
100
AcDbEntity
  8
0
 62
     0
100
AcDbLine
 10
361.0028692025141
 20
269.0789876482629
 30
0.0
 11
364.002869202514
 21
272.0789876482629
 31
0.0
  0
LINE
  5
25EA
330
2562
100
AcDbEntity
  8
0
 62
     0
100
AcDbLine
 10
364.002869202514
 20
272.0789876482629
 30
0.0
 11
366.002869202514
 21
274.0789876482629
 31
0.0
  0
LINE
  5
25EB
330
2562
100
AcDbEntity
  8
0
 62
     0
100
AcDbLine
 10
364.5384031084468
 20
269.0789876482629
 30
0.0
 11
367.5384031084468
 21
272.0789876482629
 31
0.0
  0
LINE
  5
25EC
330
2562
100
AcDbEntity
  8
0
 62
     0
100
AcDbLine
 10
367.5384031084468
 20
272.0789876482629
 30
0.0
 11
369.5384031084468
 21
274.0789876482629
 31
0.0
  0
LINE
  5
25ED
330
2562
100
AcDbEntity
  8
0
 62
     0
100
AcDbLine
 10
368.0739370143796
 20
269.0789876482629
 30
0.0
 11
371.0739370143795
 21
272.0789876482629
 31
0.0
  0
LINE
  5
25EE
330
2562
100
AcDbEntity
  8
0
 62
     0
100
AcDbLine
 10
371.0739370143795
 20
272.0789876482629
 30
0.0
 11
373.0739370143795
 21
274.0789876482629
 31
0.0
  0
LINE
  5
25EF
330
2562
100
AcDbEntity
  8
0
 62
     0
100
AcDbLine
 10
371.6094709203123
 20
269.0789876482629
 30
0.0
 11
374.6094709203123
 21
272.0789876482629
 31
0.0
  0
LINE
  5
25F0
330
2562
100
AcDbEntity
  8
0
 62
     0
100
AcDbLine
 10
374.6094709203123
 20
272.0789876482629
 30
0.0
 11
376.6094709203123
 21
274.0789876482629
 31
0.0
  0
LINE
  5
25F1
330
2562
100
AcDbEntity
  8
0
 62
     0
100
AcDbLine
 10
375.1450048262451
 20
269.0789876482629
 30
0.0
 11
378.145004826245
 21
272.0789876482629
 31
0.0
  0
LINE
  5
25F2
330
2562
100
AcDbEntity
  8
0
 62
     0
100
AcDbLine
 10
378.145004826245
 20
272.0789876482629
 30
0.0
 11
380.145004826245
 21
274.0789876482629
 31
0.0
  0
LINE
  5
25F3
330
2562
100
AcDbEntity
  8
0
 62
     0
100
AcDbLine
 10
378.6805387321777
 20
269.0789876482629
 30
0.0
 11
381.6805387321778
 21
272.0789876482629
 31
0.0
  0
LINE
  5
25F4
330
2562
100
AcDbEntity
  8
0
 62
     0
100
AcDbLine
 10
381.6805387321778
 20
272.0789876482629
 30
0.0
 11
383.6805387321777
 21
274.0789876482629
 31
0.0
  0
LINE
  5
25F5
330
2562
100
AcDbEntity
  8
0
 62
     0
100
AcDbLine
 10
382.2160726381105
 20
269.0789876482629
 30
0.0
 11
385.2160726381105
 21
272.0789876482629
 31
0.0
  0
LINE
  5
25F6
330
2562
100
AcDbEntity
  8
0
 62
     0
100
AcDbLine
 10
385.2160726381105
 20
272.0789876482629
 30
0.0
 11
387.2160726381105
 21
274.0789876482629
 31
0.0
  0
LINE
  5
25F7
330
2562
100
AcDbEntity
  8
0
 62
     0
100
AcDbLine
 10
385.7516065440433
 20
269.0789876482629
 30
0.0
 11
388.7516065440432
 21
272.0789876482629
 31
0.0
  0
LINE
  5
25F8
330
2562
100
AcDbEntity
  8
0
 62
     0
100
AcDbLine
 10
388.7516065440432
 20
272.0789876482629
 30
0.0
 11
390.7516065440432
 21
274.0789876482629
 31
0.0
  0
LINE
  5
25F9
330
2562
100
AcDbEntity
  8
0
 62
     0
100
AcDbLine
 10
389.287140449976
 20
269.0789876482629
 30
0.0
 11
392.2871404499759
 21
272.0789876482629
 31
0.0
  0
LINE
  5
25FA
330
2562
100
AcDbEntity
  8
0
 62
     0
100
AcDbLine
 10
392.2871404499759
 20
272.0789876482629
 30
0.0
 11
394.2871404499759
 21
274.0789876482629
 31
0.0
  0
LINE
  5
25FB
330
2562
100
AcDbEntity
  8
0
 62
     0
100
AcDbLine
 10
392.8226743559087
 20
269.0789876482629
 30
0.0
 11
395.8226743559087
 21
272.0789876482629
 31
0.0
  0
LINE
  5
25FC
330
2562
100
AcDbEntity
  8
0
 62
     0
100
AcDbLine
 10
395.8226743559087
 20
272.0789876482629
 30
0.0
 11
397.8226743559087
 21
274.0789876482629
 31
0.0
  0
LINE
  5
25FD
330
2562
100
AcDbEntity
  8
0
 62
     0
100
AcDbLine
 10
396.3582082618415
 20
269.0789876482629
 30
0.0
 11
399.3582082618414
 21
272.0789876482629
 31
0.0
  0
LINE
  5
25FE
330
2562
100
AcDbEntity
  8
0
 62
     0
100
AcDbLine
 10
399.3582082618414
 20
272.0789876482629
 30
0.0
 11
401.3582082618413
 21
274.0789876482629
 31
0.0
  0
LINE
  5
25FF
330
2562
100
AcDbEntity
  8
0
 62
     0
100
AcDbLine
 10
399.8937421677742
 20
269.0789876482629
 30
0.0
 11
402.8937421677741
 21
272.0789876482629
 31
0.0
  0
LINE
  5
2600
330
2562
100
AcDbEntity
  8
0
 62
     0
100
AcDbLine
 10
402.8937421677741
 20
272.0789876482629
 30
0.0
 11
404.8937421677741
 21
274.0789876482629
 31
0.0
  0
LINE
  5
2601
330
2562
100
AcDbEntity
  8
0
 62
     0
100
AcDbLine
 10
403.4292760737069
 20
269.0789876482629
 30
0.0
 11
406.4292760737068
 21
272.0789876482629
 31
0.0
  0
LINE
  5
2602
330
2562
100
AcDbEntity
  8
0
 62
     0
100
AcDbLine
 10
406.4292760737068
 20
272.0789876482629
 30
0.0
 11
408.4292760737069
 21
274.0789876482629
 31
0.0
  0
LINE
  5
2603
330
2562
100
AcDbEntity
  8
0
 62
     0
100
AcDbLine
 10
406.9648099796396
 20
269.0789876482629
 30
0.0
 11
409.9648099796396
 21
272.0789876482629
 31
0.0
  0
LINE
  5
2604
330
2562
100
AcDbEntity
  8
0
 62
     0
100
AcDbLine
 10
409.9648099796396
 20
272.0789876482629
 30
0.0
 11
411.9648099796395
 21
274.0789876482629
 31
0.0
  0
LINE
  5
2605
330
2562
100
AcDbEntity
  8
0
 62
     0
100
AcDbLine
 10
410.5003438855724
 20
269.0789876482629
 30
0.0
 11
413.5003438855723
 21
272.0789876482629
 31
0.0
  0
LINE
  5
2606
330
2562
100
AcDbEntity
  8
0
 62
     0
100
AcDbLine
 10
413.5003438855723
 20
272.0789876482629
 30
0.0
 11
415.5003438855723
 21
274.0789876482629
 31
0.0
  0
LINE
  5
2607
330
2562
100
AcDbEntity
  8
0
 62
     0
100
AcDbLine
 10
414.0358777915051
 20
269.0789876482629
 30
0.0
 11
417.0358777915051
 21
272.0789876482629
 31
0.0
  0
LINE
  5
2608
330
2562
100
AcDbEntity
  8
0
 62
     0
100
AcDbLine
 10
417.0358777915051
 20
272.0789876482629
 30
0.0
 11
419.035877791505
 21
274.0789876482629
 31
0.0
  0
LINE
  5
2609
330
2562
100
AcDbEntity
  8
0
 62
     0
100
AcDbLine
 10
417.5714116974378
 20
269.0789876482629
 30
0.0
 11
420.5714116974378
 21
272.0789876482629
 31
0.0
  0
LINE
  5
260A
330
2562
100
AcDbEntity
  8
0
 62
     0
100
AcDbLine
 10
420.5714116974378
 20
272.0789876482629
 30
0.0
 11
422.5714116974378
 21
274.0789876482629
 31
0.0
  0
LINE
  5
260B
330
2562
100
AcDbEntity
  8
0
 62
     0
100
AcDbLine
 10
421.1069456033706
 20
269.0789876482629
 30
0.0
 11
424.1069456033706
 21
272.0789876482629
 31
0.0
  0
LINE
  5
260C
330
2562
100
AcDbEntity
  8
0
 62
     0
100
AcDbLine
 10
424.1069456033706
 20
272.0789876482629
 30
0.0
 11
426.1069456033705
 21
274.0789876482629
 31
0.0
  0
LINE
  5
260D
330
2562
100
AcDbEntity
  8
0
 62
     0
100
AcDbLine
 10
424.6424795093033
 20
269.0789876482629
 30
0.0
 11
427.6424795093033
 21
272.0789876482629
 31
0.0
  0
LINE
  5
260E
330
2562
100
AcDbEntity
  8
0
 62
     0
100
AcDbLine
 10
427.6424795093033
 20
272.0789876482629
 30
0.0
 11
429.6424795093033
 21
274.0789876482629
 31
0.0
  0
LINE
  5
260F
330
2562
100
AcDbEntity
  8
0
 62
     0
100
AcDbLine
 10
428.178013415236
 20
269.0789876482629
 30
0.0
 11
431.178013415236
 21
272.0789876482629
 31
0.0
  0
LINE
  5
2610
330
2562
100
AcDbEntity
  8
0
 62
     0
100
AcDbLine
 10
431.178013415236
 20
272.0789876482629
 30
0.0
 11
433.178013415236
 21
274.0789876482629
 31
0.0
  0
LINE
  5
2611
330
2562
100
AcDbEntity
  8
0
 62
     0
100
AcDbLine
 10
431.7135473211688
 20
269.0789876482629
 30
0.0
 11
434.7135473211688
 21
272.0789876482629
 31
0.0
  0
LINE
  5
2612
330
2562
100
AcDbEntity
  8
0
 62
     0
100
AcDbLine
 10
434.7135473211688
 20
272.0789876482629
 30
0.0
 11
436.7135473211687
 21
274.0789876482628
 31
0.0
  0
LINE
  5
2613
330
2562
100
AcDbEntity
  8
0
 62
     0
100
AcDbLine
 10
435.2490812271015
 20
269.0789876482629
 30
0.0
 11
438.2490812271015
 21
272.0789876482629
 31
0.0
  0
LINE
  5
2614
330
2562
100
AcDbEntity
  8
0
 62
     0
100
AcDbLine
 10
438.2490812271015
 20
272.0789876482629
 30
0.0
 11
440.2490812271015
 21
274.0789876482628
 31
0.0
  0
LINE
  5
2615
330
2562
100
AcDbEntity
  8
0
 62
     0
100
AcDbLine
 10
438.7846151330343
 20
269.0789876482629
 30
0.0
 11
441.7846151330342
 21
272.0789876482629
 31
0.0
  0
LINE
  5
2616
330
2562
100
AcDbEntity
  8
0
 62
     0
100
AcDbLine
 10
441.7846151330342
 20
272.0789876482629
 30
0.0
 11
443.7846151330342
 21
274.0789876482628
 31
0.0
  0
LINE
  5
2617
330
2562
100
AcDbEntity
  8
0
 62
     0
100
AcDbLine
 10
442.320149038967
 20
269.0789876482629
 30
0.0
 11
445.320149038967
 21
272.0789876482629
 31
0.0
  0
LINE
  5
2618
330
2562
100
AcDbEntity
  8
0
 62
     0
100
AcDbLine
 10
445.320149038967
 20
272.0789876482629
 30
0.0
 11
447.3201490389668
 21
274.0789876482628
 31
0.0
  0
LINE
  5
2619
330
2562
100
AcDbEntity
  8
0
 62
     0
100
AcDbLine
 10
445.8556829448997
 20
269.0789876482629
 30
0.0
 11
448.8556829448997
 21
272.0789876482629
 31
0.0
  0
LINE
  5
261A
330
2562
100
AcDbEntity
  8
0
 62
     0
100
AcDbLine
 10
448.8556829448997
 20
272.0789876482629
 30
0.0
 11
450.8556829448997
 21
274.0789876482628
 31
0.0
  0
LINE
  5
261B
330
2562
100
AcDbEntity
  8
0
 62
     0
100
AcDbLine
 10
449.3912168508325
 20
269.0789876482629
 30
0.0
 11
452.3912168508324
 21
272.0789876482629
 31
0.0
  0
LINE
  5
261C
330
2562
100
AcDbEntity
  8
0
 62
     0
100
AcDbLine
 10
452.3912168508324
 20
272.0789876482629
 30
0.0
 11
454.3912168508324
 21
274.0789876482628
 31
0.0
  0
LINE
  5
261D
330
2562
100
AcDbEntity
  8
0
 62
     0
100
AcDbLine
 10
452.9267507567651
 20
269.0789876482629
 30
0.0
 11
455.9267507567652
 21
272.0789876482629
 31
0.0
  0
LINE
  5
261E
330
2562
100
AcDbEntity
  8
0
 62
     0
100
AcDbLine
 10
455.9267507567652
 20
272.0789876482629
 30
0.0
 11
457.9267507567651
 21
274.0789876482628
 31
0.0
  0
LINE
  5
261F
330
2562
100
AcDbEntity
  8
0
 62
     0
100
AcDbLine
 10
456.462284662698
 20
269.0789876482629
 30
0.0
 11
459.4622846626979
 21
272.0789876482629
 31
0.0
  0
LINE
  5
2620
330
2562
100
AcDbEntity
  8
0
 62
     0
100
AcDbLine
 10
459.4622846626979
 20
272.0789876482629
 30
0.0
 11
460.5007469652807
 21
273.1174499508457
 31
0.0
  0
LINE
  5
2621
330
2562
100
AcDbEntity
  8
0
 62
     0
100
AcDbLine
 10
459.9978185686307
 20
269.0789876482629
 30
0.0
 11
460.5007469652808
 21
269.5819160449131
 31
0.0
  0
LINE
  5
2622
330
2562
100
AcDbEntity
  8
0
 62
     0
100
AcDbLine
 10
430.9567257264189
 20
269.0789876482629
 30
0.0
 11
427.956725726419
 21
272.0789876482629
 31
0.0
  0
LINE
  5
2623
330
2562
100
AcDbEntity
  8
0
 62
     0
100
AcDbLine
 10
321.956725726419
 20
378.0789876482629
 30
0.0
 11
318.9567257264191
 21
381.0789876482629
 31
0.0
  0
LINE
  5
2624
330
2562
100
AcDbEntity
  8
0
 62
     0
100
AcDbLine
 10
427.956725726419
 20
272.0789876482629
 30
0.0
 11
425.9567257264191
 21
274.0789876482628
 31
0.0
  0
LINE
  5
2625
330
2562
100
AcDbEntity
  8
0
 62
     0
100
AcDbLine
 10
323.956725726419
 20
376.0789876482629
 30
0.0
 11
321.956725726419
 21
378.0789876482629
 31
0.0
  0
LINE
  5
2626
330
2562
100
AcDbEntity
  8
0
 62
     0
100
AcDbLine
 10
427.4211918204862
 20
269.0789876482629
 30
0.0
 11
424.4211918204863
 21
272.0789876482629
 31
0.0
  0
LINE
  5
2627
330
2562
100
AcDbEntity
  8
0
 62
     0
100
AcDbLine
 10
318.4211918204863
 20
378.0789876482629
 30
0.0
 11
315.4211918204863
 21
381.0789876482629
 31
0.0
  0
LINE
  5
2628
330
2562
100
AcDbEntity
  8
0
 62
     0
100
AcDbLine
 10
424.4211918204863
 20
272.0789876482629
 30
0.0
 11
422.4211918204863
 21
274.0789876482628
 31
0.0
  0
LINE
  5
2629
330
2562
100
AcDbEntity
  8
0
 62
     0
100
AcDbLine
 10
320.4211918204864
 20
376.0789876482629
 30
0.0
 11
318.4211918204863
 21
378.0789876482629
 31
0.0
  0
LINE
  5
262A
330
2562
100
AcDbEntity
  8
0
 62
     0
100
AcDbLine
 10
423.8856579145535
 20
269.0789876482629
 30
0.0
 11
420.8856579145535
 21
272.0789876482629
 31
0.0
  0
LINE
  5
262B
330
2562
100
AcDbEntity
  8
0
 62
     0
100
AcDbLine
 10
314.8856579145536
 20
378.0789876482629
 30
0.0
 11
311.8856579145536
 21
381.0789876482629
 31
0.0
  0
LINE
  5
262C
330
2562
100
AcDbEntity
  8
0
 62
     0
100
AcDbLine
 10
420.8856579145535
 20
272.0789876482629
 30
0.0
 11
418.8856579145537
 21
274.0789876482629
 31
0.0
  0
LINE
  5
262D
330
2562
100
AcDbEntity
  8
0
 62
     0
100
AcDbLine
 10
316.8856579145536
 20
376.0789876482629
 30
0.0
 11
314.8856579145536
 21
378.0789876482629
 31
0.0
  0
LINE
  5
262E
330
2562
100
AcDbEntity
  8
0
 62
     0
100
AcDbLine
 10
420.3501240086207
 20
269.0789876482629
 30
0.0
 11
417.3501240086208
 21
272.0789876482629
 31
0.0
  0
LINE
  5
262F
330
2562
100
AcDbEntity
  8
0
 62
     0
100
AcDbLine
 10
311.3501240086208
 20
378.0789876482629
 30
0.0
 11
308.3501240086208
 21
381.0789876482629
 31
0.0
  0
LINE
  5
2630
330
2562
100
AcDbEntity
  8
0
 62
     0
100
AcDbLine
 10
417.3501240086208
 20
272.0789876482629
 30
0.0
 11
415.3501240086209
 21
274.0789876482629
 31
0.0
  0
LINE
  5
2631
330
2562
100
AcDbEntity
  8
0
 62
     0
100
AcDbLine
 10
313.3501240086209
 20
376.0789876482629
 30
0.0
 11
311.3501240086208
 21
378.0789876482629
 31
0.0
  0
LINE
  5
2632
330
2562
100
AcDbEntity
  8
0
 62
     0
100
AcDbLine
 10
416.814590102688
 20
269.0789876482629
 30
0.0
 11
413.8145901026881
 21
272.0789876482629
 31
0.0
  0
LINE
  5
2633
330
2562
100
AcDbEntity
  8
0
 62
     0
100
AcDbLine
 10
307.8145901026881
 20
378.0789876482629
 30
0.0
 11
304.8145901026881
 21
381.0789876482629
 31
0.0
  0
LINE
  5
2634
330
2562
100
AcDbEntity
  8
0
 62
     0
100
AcDbLine
 10
413.8145901026881
 20
272.0789876482629
 30
0.0
 11
411.8145901026881
 21
274.0789876482629
 31
0.0
  0
LINE
  5
2635
330
2562
100
AcDbEntity
  8
0
 62
     0
100
AcDbLine
 10
309.8145901026881
 20
376.0789876482629
 30
0.0
 11
307.8145901026881
 21
378.0789876482629
 31
0.0
  0
LINE
  5
2636
330
2562
100
AcDbEntity
  8
0
 62
     0
100
AcDbLine
 10
413.2790561967553
 20
269.0789876482629
 30
0.0
 11
410.2790561967553
 21
272.0789876482629
 31
0.0
  0
LINE
  5
2637
330
2562
100
AcDbEntity
  8
0
 62
     0
100
AcDbLine
 10
304.2790561967553
 20
378.0789876482629
 30
0.0
 11
301.2790561967553
 21
381.0789876482629
 31
0.0
  0
LINE
  5
2638
330
2562
100
AcDbEntity
  8
0
 62
     0
100
AcDbLine
 10
410.2790561967553
 20
272.0789876482629
 30
0.0
 11
408.2790561967554
 21
274.0789876482629
 31
0.0
  0
LINE
  5
2639
330
2562
100
AcDbEntity
  8
0
 62
     0
100
AcDbLine
 10
306.2790561967554
 20
376.0789876482629
 30
0.0
 11
304.2790561967553
 21
378.0789876482629
 31
0.0
  0
LINE
  5
263A
330
2562
100
AcDbEntity
  8
0
 62
     0
100
AcDbLine
 10
409.7435222908226
 20
269.0789876482629
 30
0.0
 11
406.7435222908226
 21
272.0789876482629
 31
0.0
  0
LINE
  5
263B
330
2562
100
AcDbEntity
  8
0
 62
     0
100
AcDbLine
 10
300.7435222908227
 20
378.0789876482629
 30
0.0
 11
297.7435222908227
 21
381.0789876482629
 31
0.0
  0
LINE
  5
263C
330
2562
100
AcDbEntity
  8
0
 62
     0
100
AcDbLine
 10
406.7435222908226
 20
272.0789876482629
 30
0.0
 11
404.7435222908227
 21
274.0789876482629
 31
0.0
  0
LINE
  5
263D
330
2562
100
AcDbEntity
  8
0
 62
     0
100
AcDbLine
 10
302.7435222908227
 20
376.0789876482629
 30
0.0
 11
300.7435222908227
 21
378.0789876482629
 31
0.0
  0
LINE
  5
263E
330
2562
100
AcDbEntity
  8
0
 62
     0
100
AcDbLine
 10
406.2079883848899
 20
269.0789876482629
 30
0.0
 11
403.2079883848899
 21
272.0789876482629
 31
0.0
  0
LINE
  5
263F
330
2562
100
AcDbEntity
  8
0
 62
     0
100
AcDbLine
 10
297.20798838489
 20
378.0789876482629
 30
0.0
 11
295.5007469652808
 21
379.7862290678721
 31
0.0
  0
LINE
  5
2640
330
2562
100
AcDbEntity
  8
0
 62
     0
100
AcDbLine
 10
403.2079883848899
 20
272.0789876482629
 30
0.0
 11
401.20798838489
 21
274.0789876482629
 31
0.0
  0
LINE
  5
2641
330
2562
100
AcDbEntity
  8
0
 62
     0
100
AcDbLine
 10
299.20798838489
 20
376.0789876482629
 30
0.0
 11
297.20798838489
 21
378.0789876482629
 31
0.0
  0
LINE
  5
2642
330
2562
100
AcDbEntity
  8
0
 62
     0
100
AcDbLine
 10
402.6724544789572
 20
269.0789876482629
 30
0.0
 11
399.6724544789572
 21
272.0789876482629
 31
0.0
  0
LINE
  5
2643
330
2562
100
AcDbEntity
  8
0
 62
     0
100
AcDbLine
 10
295.6724544789572
 20
376.0789876482629
 30
0.0
 11
295.5007469652808
 21
376.2506951619394
 31
0.0
  0
LINE
  5
2644
330
2562
100
AcDbEntity
  8
0
 62
     0
100
AcDbLine
 10
399.6724544789572
 20
272.0789876482629
 30
0.0
 11
397.6724544789573
 21
274.0789876482629
 31
0.0
  0
LINE
  5
2645
330
2562
100
AcDbEntity
  8
0
 62
     0
100
AcDbLine
 10
399.1369205730245
 20
269.0789876482629
 30
0.0
 11
396.1369205730245
 21
272.0789876482629
 31
0.0
  0
LINE
  5
2646
330
2562
100
AcDbEntity
  8
0
 62
     0
100
AcDbLine
 10
396.1369205730245
 20
272.0789876482629
 30
0.0
 11
394.1369205730246
 21
274.0789876482629
 31
0.0
  0
LINE
  5
2647
330
2562
100
AcDbEntity
  8
0
 62
     0
100
AcDbLine
 10
395.6013866670917
 20
269.0789876482629
 30
0.0
 11
392.6013866670917
 21
272.0789876482629
 31
0.0
  0
LINE
  5
2648
330
2562
100
AcDbEntity
  8
0
 62
     0
100
AcDbLine
 10
392.6013866670917
 20
272.0789876482629
 30
0.0
 11
390.6013866670918
 21
274.0789876482629
 31
0.0
  0
LINE
  5
2649
330
2562
100
AcDbEntity
  8
0
 62
     0
100
AcDbLine
 10
392.065852761159
 20
269.0789876482629
 30
0.0
 11
389.065852761159
 21
272.0789876482629
 31
0.0
  0
LINE
  5
264A
330
2562
100
AcDbEntity
  8
0
 62
     0
100
AcDbLine
 10
389.065852761159
 20
272.0789876482629
 30
0.0
 11
387.0658527611591
 21
274.0789876482629
 31
0.0
  0
LINE
  5
264B
330
2562
100
AcDbEntity
  8
0
 62
     0
100
AcDbLine
 10
388.5303188552263
 20
269.0789876482629
 30
0.0
 11
385.5303188552263
 21
272.0789876482629
 31
0.0
  0
LINE
  5
264C
330
2562
100
AcDbEntity
  8
0
 62
     0
100
AcDbLine
 10
385.5303188552263
 20
272.0789876482629
 30
0.0
 11
383.5303188552263
 21
274.0789876482629
 31
0.0
  0
LINE
  5
264D
330
2562
100
AcDbEntity
  8
0
 62
     0
100
AcDbLine
 10
384.9947849492935
 20
269.0789876482629
 30
0.0
 11
381.9947849492935
 21
272.0789876482629
 31
0.0
  0
LINE
  5
264E
330
2562
100
AcDbEntity
  8
0
 62
     0
100
AcDbLine
 10
381.9947849492935
 20
272.0789876482629
 30
0.0
 11
379.9947849492936
 21
274.0789876482629
 31
0.0
  0
LINE
  5
264F
330
2562
100
AcDbEntity
  8
0
 62
     0
100
AcDbLine
 10
381.4592510433608
 20
269.0789876482629
 30
0.0
 11
378.4592510433608
 21
272.0789876482629
 31
0.0
  0
LINE
  5
2650
330
2562
100
AcDbEntity
  8
0
 62
     0
100
AcDbLine
 10
378.4592510433608
 20
272.0789876482629
 30
0.0
 11
376.4592510433609
 21
274.0789876482629
 31
0.0
  0
LINE
  5
2651
330
2562
100
AcDbEntity
  8
0
 62
     0
100
AcDbLine
 10
377.923717137428
 20
269.0789876482629
 30
0.0
 11
374.9237171374281
 21
272.0789876482629
 31
0.0
  0
LINE
  5
2652
330
2562
100
AcDbEntity
  8
0
 62
     0
100
AcDbLine
 10
374.9237171374281
 20
272.0789876482629
 30
0.0
 11
372.9237171374281
 21
274.0789876482629
 31
0.0
  0
LINE
  5
2653
330
2562
100
AcDbEntity
  8
0
 62
     0
100
AcDbLine
 10
374.3881832314953
 20
269.0789876482629
 30
0.0
 11
371.3881832314953
 21
272.0789876482629
 31
0.0
  0
LINE
  5
2654
330
2562
100
AcDbEntity
  8
0
 62
     0
100
AcDbLine
 10
371.3881832314953
 20
272.0789876482629
 30
0.0
 11
369.3881832314954
 21
274.0789876482629
 31
0.0
  0
LINE
  5
2655
330
2562
100
AcDbEntity
  8
0
 62
     0
100
AcDbLine
 10
370.8526493255626
 20
269.0789876482629
 30
0.0
 11
367.8526493255626
 21
272.0789876482629
 31
0.0
  0
LINE
  5
2656
330
2562
100
AcDbEntity
  8
0
 62
     0
100
AcDbLine
 10
367.8526493255626
 20
272.0789876482629
 30
0.0
 11
365.8526493255627
 21
274.0789876482629
 31
0.0
  0
LINE
  5
2657
330
2562
100
AcDbEntity
  8
0
 62
     0
100
AcDbLine
 10
367.3171154196298
 20
269.0789876482629
 30
0.0
 11
364.3171154196298
 21
272.0789876482629
 31
0.0
  0
LINE
  5
2658
330
2562
100
AcDbEntity
  8
0
 62
     0
100
AcDbLine
 10
364.3171154196298
 20
272.0789876482629
 30
0.0
 11
362.3171154196299
 21
274.0789876482629
 31
0.0
  0
LINE
  5
2659
330
2562
100
AcDbEntity
  8
0
 62
     0
100
AcDbLine
 10
363.7815815136971
 20
269.0789876482629
 30
0.0
 11
360.7815815136971
 21
272.0789876482629
 31
0.0
  0
LINE
  5
265A
330
2562
100
AcDbEntity
  8
0
 62
     0
100
AcDbLine
 10
360.7815815136971
 20
272.0789876482629
 30
0.0
 11
358.7815815136972
 21
274.0789876482629
 31
0.0
  0
LINE
  5
265B
330
2562
100
AcDbEntity
  8
0
 62
     0
100
AcDbLine
 10
360.2460476077644
 20
269.0789876482629
 30
0.0
 11
357.2460476077643
 21
272.0789876482629
 31
0.0
  0
LINE
  5
265C
330
2562
100
AcDbEntity
  8
0
 62
     0
100
AcDbLine
 10
357.2460476077643
 20
272.0789876482629
 30
0.0
 11
355.2460476077644
 21
274.0789876482629
 31
0.0
  0
LINE
  5
265D
330
2562
100
AcDbEntity
  8
0
 62
     0
100
AcDbLine
 10
356.7105137018316
 20
269.0789876482629
 30
0.0
 11
353.7105137018317
 21
272.0789876482629
 31
0.0
  0
LINE
  5
265E
330
2562
100
AcDbEntity
  8
0
 62
     0
100
AcDbLine
 10
353.7105137018317
 20
272.0789876482629
 30
0.0
 11
351.7105137018317
 21
274.0789876482629
 31
0.0
  0
LINE
  5
265F
330
2562
100
AcDbEntity
  8
0
 62
     0
100
AcDbLine
 10
353.1749797958989
 20
269.0789876482629
 30
0.0
 11
350.1749797958989
 21
272.0789876482629
 31
0.0
  0
LINE
  5
2660
330
2562
100
AcDbEntity
  8
0
 62
     0
100
AcDbLine
 10
350.1749797958989
 20
272.0789876482629
 30
0.0
 11
348.1749797958989
 21
274.0789876482629
 31
0.0
  0
LINE
  5
2661
330
2562
100
AcDbEntity
  8
0
 62
     0
100
AcDbLine
 10
349.6394458899661
 20
269.0789876482629
 30
0.0
 11
346.6394458899662
 21
272.0789876482629
 31
0.0
  0
LINE
  5
2662
330
2562
100
AcDbEntity
  8
0
 62
     0
100
AcDbLine
 10
346.6394458899662
 20
272.0789876482629
 30
0.0
 11
344.6394458899662
 21
274.0789876482629
 31
0.0
  0
LINE
  5
2663
330
2562
100
AcDbEntity
  8
0
 62
     0
100
AcDbLine
 10
346.1039119840334
 20
269.0789876482629
 30
0.0
 11
343.1039119840334
 21
272.0789876482629
 31
0.0
  0
LINE
  5
2664
330
2562
100
AcDbEntity
  8
0
 62
     0
100
AcDbLine
 10
343.1039119840334
 20
272.0789876482629
 30
0.0
 11
341.1039119840335
 21
274.0789876482629
 31
0.0
  0
LINE
  5
2665
330
2562
100
AcDbEntity
  8
0
 62
     0
100
AcDbLine
 10
342.5683780781006
 20
269.0789876482629
 30
0.0
 11
339.5683780781007
 21
272.0789876482629
 31
0.0
  0
LINE
  5
2666
330
2562
100
AcDbEntity
  8
0
 62
     0
100
AcDbLine
 10
339.5683780781007
 20
272.0789876482629
 30
0.0
 11
337.5683780781007
 21
274.0789876482629
 31
0.0
  0
LINE
  5
2667
330
2562
100
AcDbEntity
  8
0
 62
     0
100
AcDbLine
 10
339.0328441721679
 20
269.0789876482629
 30
0.0
 11
336.0328441721679
 21
272.0789876482629
 31
0.0
  0
LINE
  5
2668
330
2562
100
AcDbEntity
  8
0
 62
     0
100
AcDbLine
 10
336.0328441721679
 20
272.0789876482629
 30
0.0
 11
334.032844172168
 21
274.0789876482629
 31
0.0
  0
LINE
  5
2669
330
2562
100
AcDbEntity
  8
0
 62
     0
100
AcDbLine
 10
335.4973102662352
 20
269.0789876482629
 30
0.0
 11
332.4973102662352
 21
272.0789876482629
 31
0.0
  0
LINE
  5
266A
330
2562
100
AcDbEntity
  8
0
 62
     0
100
AcDbLine
 10
332.4973102662352
 20
272.0789876482629
 30
0.0
 11
330.4973102662352
 21
274.0789876482629
 31
0.0
  0
LINE
  5
266B
330
2562
100
AcDbEntity
  8
0
 62
     0
100
AcDbLine
 10
331.9617763603024
 20
269.0789876482629
 30
0.0
 11
328.9617763603025
 21
272.0789876482629
 31
0.0
  0
LINE
  5
266C
330
2562
100
AcDbEntity
  8
0
 62
     0
100
AcDbLine
 10
328.9617763603025
 20
272.0789876482629
 30
0.0
 11
326.9617763603025
 21
274.0789876482629
 31
0.0
  0
LINE
  5
266D
330
2562
100
AcDbEntity
  8
0
 62
     0
100
AcDbLine
 10
328.4262424543697
 20
269.0789876482629
 30
0.0
 11
325.4262424543697
 21
272.0789876482629
 31
0.0
  0
LINE
  5
266E
330
2562
100
AcDbEntity
  8
0
 62
     0
100
AcDbLine
 10
325.4262424543697
 20
272.0789876482629
 30
0.0
 11
323.4262424543697
 21
274.0789876482629
 31
0.0
  0
LINE
  5
266F
330
2562
100
AcDbEntity
  8
0
 62
     0
100
AcDbLine
 10
324.890708548437
 20
269.0789876482629
 30
0.0
 11
321.890708548437
 21
272.0789876482629
 31
0.0
  0
LINE
  5
2670
330
2562
100
AcDbEntity
  8
0
 62
     0
100
AcDbLine
 10
321.890708548437
 20
272.0789876482629
 30
0.0
 11
319.890708548437
 21
274.0789876482629
 31
0.0
  0
LINE
  5
2671
330
2562
100
AcDbEntity
  8
0
 62
     0
100
AcDbLine
 10
321.3551746425042
 20
269.0789876482629
 30
0.0
 11
318.3551746425043
 21
272.0789876482629
 31
0.0
  0
LINE
  5
2672
330
2562
100
AcDbEntity
  8
0
 62
     0
100
AcDbLine
 10
318.3551746425043
 20
272.0789876482629
 30
0.0
 11
316.3551746425043
 21
274.0789876482629
 31
0.0
  0
LINE
  5
2673
330
2562
100
AcDbEntity
  8
0
 62
     0
100
AcDbLine
 10
317.8196407365715
 20
269.0789876482629
 30
0.0
 11
314.8196407365715
 21
272.0789876482629
 31
0.0
  0
LINE
  5
2674
330
2562
100
AcDbEntity
  8
0
 62
     0
100
AcDbLine
 10
314.8196407365715
 20
272.0789876482629
 30
0.0
 11
312.8196407365716
 21
274.0789876482629
 31
0.0
  0
LINE
  5
2675
330
2562
100
AcDbEntity
  8
0
 62
     0
100
AcDbLine
 10
314.2841068306387
 20
269.0789876482629
 30
0.0
 11
311.2841068306388
 21
272.0789876482629
 31
0.0
  0
LINE
  5
2676
330
2562
100
AcDbEntity
  8
0
 62
     0
100
AcDbLine
 10
311.2841068306388
 20
272.0789876482629
 30
0.0
 11
309.2841068306388
 21
274.0789876482629
 31
0.0
  0
LINE
  5
2677
330
2562
100
AcDbEntity
  8
0
 62
     0
100
AcDbLine
 10
310.748572924706
 20
269.0789876482629
 30
0.0
 11
307.748572924706
 21
272.0789876482629
 31
0.0
  0
LINE
  5
2678
330
2562
100
AcDbEntity
  8
0
 62
     0
100
AcDbLine
 10
307.748572924706
 20
272.0789876482629
 30
0.0
 11
305.748572924706
 21
274.0789876482629
 31
0.0
  0
LINE
  5
2679
330
2562
100
AcDbEntity
  8
0
 62
     0
100
AcDbLine
 10
307.2130390187733
 20
269.0789876482629
 30
0.0
 11
304.2130390187733
 21
272.0789876482629
 31
0.0
  0
LINE
  5
267A
330
2562
100
AcDbEntity
  8
0
 62
     0
100
AcDbLine
 10
304.2130390187733
 20
272.0789876482629
 30
0.0
 11
302.2130390187733
 21
274.0789876482629
 31
0.0
  0
LINE
  5
267B
330
2562
100
AcDbEntity
  8
0
 62
     0
100
AcDbLine
 10
303.6775051128405
 20
269.0789876482629
 30
0.0
 11
300.6775051128406
 21
272.0789876482629
 31
0.0
  0
LINE
  5
267C
330
2562
100
AcDbEntity
  8
0
 62
     0
100
AcDbLine
 10
300.6775051128406
 20
272.0789876482629
 30
0.0
 11
298.6775051128406
 21
274.0789876482629
 31
0.0
  0
LINE
  5
267D
330
2562
100
AcDbEntity
  8
0
 62
     0
100
AcDbLine
 10
300.1419712069078
 20
269.0789876482629
 30
0.0
 11
297.1419712069078
 21
272.0789876482629
 31
0.0
  0
LINE
  5
267E
330
2562
100
AcDbEntity
  8
0
 62
     0
100
AcDbLine
 10
297.1419712069078
 20
272.0789876482629
 30
0.0
 11
295.5007469652808
 21
273.72021188989
 31
0.0
  0
LINE
  5
267F
330
2562
100
AcDbEntity
  8
0
 62
     0
100
AcDbLine
 10
296.6064373009751
 20
269.0789876482629
 30
0.0
 11
295.5007469652808
 21
270.1846779839572
 31
0.0
  0
LINE
  5
2680
330
2562
100
AcDbEntity
  8
0
 62
     0
100
AcDbLine
 10
434.4922596323518
 20
269.0789876482629
 30
0.0
 11
431.4922596323517
 21
272.0789876482629
 31
0.0
  0
LINE
  5
2681
330
2562
100
AcDbEntity
  8
0
 62
     0
100
AcDbLine
 10
325.4922596323518
 20
378.0789876482629
 30
0.0
 11
322.4922596323517
 21
381.0789876482629
 31
0.0
  0
LINE
  5
2682
330
2562
100
AcDbEntity
  8
0
 62
     0
100
AcDbLine
 10
431.4922596323517
 20
272.0789876482629
 30
0.0
 11
429.4922596323519
 21
274.0789876482628
 31
0.0
  0
LINE
  5
2683
330
2562
100
AcDbEntity
  8
0
 62
     0
100
AcDbLine
 10
327.4922596323518
 20
376.0789876482629
 30
0.0
 11
325.4922596323518
 21
378.0789876482629
 31
0.0
  0
LINE
  5
2684
330
2562
100
AcDbEntity
  8
0
 62
     0
100
AcDbLine
 10
438.0277935382844
 20
269.0789876482629
 30
0.0
 11
435.0277935382845
 21
272.0789876482629
 31
0.0
  0
LINE
  5
2685
330
2562
100
AcDbEntity
  8
0
 62
     0
100
AcDbLine
 10
329.0277935382845
 20
378.0789876482629
 30
0.0
 11
326.0277935382845
 21
381.0789876482629
 31
0.0
  0
LINE
  5
2686
330
2562
100
AcDbEntity
  8
0
 62
     0
100
AcDbLine
 10
435.0277935382845
 20
272.0789876482629
 30
0.0
 11
433.0277935382846
 21
274.0789876482628
 31
0.0
  0
LINE
  5
2687
330
2562
100
AcDbEntity
  8
0
 62
     0
100
AcDbLine
 10
331.0277935382845
 20
376.0789876482629
 30
0.0
 11
329.0277935382845
 21
378.0789876482629
 31
0.0
  0
LINE
  5
2688
330
2562
100
AcDbEntity
  8
0
 62
     0
100
AcDbLine
 10
441.5633274442172
 20
269.0789876482629
 30
0.0
 11
438.5633274442172
 21
272.0789876482629
 31
0.0
  0
LINE
  5
2689
330
2562
100
AcDbEntity
  8
0
 62
     0
100
AcDbLine
 10
332.5633274442172
 20
378.0789876482629
 30
0.0
 11
329.5633274442173
 21
381.0789876482629
 31
0.0
  0
LINE
  5
268A
330
2562
100
AcDbEntity
  8
0
 62
     0
100
AcDbLine
 10
438.5633274442172
 20
272.0789876482629
 30
0.0
 11
436.5633274442173
 21
274.0789876482628
 31
0.0
  0
LINE
  5
268B
330
2562
100
AcDbEntity
  8
0
 62
     0
100
AcDbLine
 10
334.5633274442173
 20
376.0789876482629
 30
0.0
 11
332.5633274442172
 21
378.0789876482629
 31
0.0
  0
LINE
  5
268C
330
2562
100
AcDbEntity
  8
0
 62
     0
100
AcDbLine
 10
445.0988613501499
 20
269.0789876482629
 30
0.0
 11
442.0988613501499
 21
272.0789876482629
 31
0.0
  0
LINE
  5
268D
330
2562
100
AcDbEntity
  8
0
 62
     0
100
AcDbLine
 10
336.09886135015
 20
378.0789876482629
 30
0.0
 11
333.0988613501499
 21
381.0789876482629
 31
0.0
  0
LINE
  5
268E
330
2562
100
AcDbEntity
  8
0
 62
     0
100
AcDbLine
 10
442.0988613501499
 20
272.0789876482629
 30
0.0
 11
440.0988613501501
 21
274.0789876482628
 31
0.0
  0
LINE
  5
268F
330
2562
100
AcDbEntity
  8
0
 62
     0
100
AcDbLine
 10
338.09886135015
 20
376.0789876482629
 30
0.0
 11
336.09886135015
 21
378.0789876482629
 31
0.0
  0
LINE
  5
2690
330
2562
100
AcDbEntity
  8
0
 62
     0
100
AcDbLine
 10
448.6343952560827
 20
269.0789876482629
 30
0.0
 11
445.6343952560827
 21
272.0789876482629
 31
0.0
  0
LINE
  5
2691
330
2562
100
AcDbEntity
  8
0
 62
     0
100
AcDbLine
 10
339.6343952560827
 20
378.0789876482629
 30
0.0
 11
336.6343952560827
 21
381.0789876482629
 31
0.0
  0
LINE
  5
2692
330
2562
100
AcDbEntity
  8
0
 62
     0
100
AcDbLine
 10
445.6343952560827
 20
272.0789876482629
 30
0.0
 11
443.6343952560828
 21
274.0789876482628
 31
0.0
  0
LINE
  5
2693
330
2562
100
AcDbEntity
  8
0
 62
     0
100
AcDbLine
 10
341.6343952560828
 20
376.0789876482629
 30
0.0
 11
339.6343952560827
 21
378.0789876482629
 31
0.0
  0
LINE
  5
2694
330
2562
100
AcDbEntity
  8
0
 62
     0
100
AcDbLine
 10
452.1699291620154
 20
269.0789876482629
 30
0.0
 11
449.1699291620155
 21
272.0789876482629
 31
0.0
  0
LINE
  5
2695
330
2562
100
AcDbEntity
  8
0
 62
     0
100
AcDbLine
 10
343.1699291620155
 20
378.0789876482629
 30
0.0
 11
340.1699291620154
 21
381.0789876482629
 31
0.0
  0
LINE
  5
2696
330
2562
100
AcDbEntity
  8
0
 62
     0
100
AcDbLine
 10
449.1699291620155
 20
272.0789876482629
 30
0.0
 11
447.1699291620155
 21
274.0789876482628
 31
0.0
  0
LINE
  5
2697
330
2562
100
AcDbEntity
  8
0
 62
     0
100
AcDbLine
 10
345.1699291620155
 20
376.0789876482629
 30
0.0
 11
343.1699291620155
 21
378.0789876482629
 31
0.0
  0
LINE
  5
2698
330
2562
100
AcDbEntity
  8
0
 62
     0
100
AcDbLine
 10
455.7054630679481
 20
269.0789876482629
 30
0.0
 11
452.7054630679481
 21
272.0789876482629
 31
0.0
  0
LINE
  5
2699
330
2562
100
AcDbEntity
  8
0
 62
     0
100
AcDbLine
 10
346.7054630679482
 20
378.0789876482629
 30
0.0
 11
343.7054630679482
 21
381.0789876482629
 31
0.0
  0
LINE
  5
269A
330
2562
100
AcDbEntity
  8
0
 62
     0
100
AcDbLine
 10
452.7054630679481
 20
272.0789876482629
 30
0.0
 11
450.7054630679482
 21
274.0789876482628
 31
0.0
  0
LINE
  5
269B
330
2562
100
AcDbEntity
  8
0
 62
     0
100
AcDbLine
 10
348.7054630679482
 20
376.0789876482629
 30
0.0
 11
346.7054630679482
 21
378.0789876482629
 31
0.0
  0
LINE
  5
269C
330
2562
100
AcDbEntity
  8
0
 62
     0
100
AcDbLine
 10
459.2409969738809
 20
269.0789876482629
 30
0.0
 11
456.2409969738809
 21
272.0789876482629
 31
0.0
  0
LINE
  5
269D
330
2562
100
AcDbEntity
  8
0
 62
     0
100
AcDbLine
 10
350.240996973881
 20
378.0789876482629
 30
0.0
 11
347.2409969738809
 21
381.0789876482629
 31
0.0
  0
LINE
  5
269E
330
2562
100
AcDbEntity
  8
0
 62
     0
100
AcDbLine
 10
456.2409969738809
 20
272.0789876482629
 30
0.0
 11
454.2409969738811
 21
274.0789876482628
 31
0.0
  0
LINE
  5
269F
330
2562
100
AcDbEntity
  8
0
 62
     0
100
AcDbLine
 10
352.240996973881
 20
376.0789876482629
 30
0.0
 11
350.240996973881
 21
378.0789876482629
 31
0.0
  0
LINE
  5
26A0
330
2562
100
AcDbEntity
  8
0
 62
     0
100
AcDbLine
 10
460.5007469652808
 20
271.3547715627957
 30
0.0
 11
459.7765308798137
 21
272.0789876482629
 31
0.0
  0
LINE
  5
26A1
330
2562
100
AcDbEntity
  8
0
 62
     0
100
AcDbLine
 10
353.7765308798137
 20
378.0789876482629
 30
0.0
 11
350.7765308798137
 21
381.0789876482629
 31
0.0
  0
LINE
  5
26A2
330
2562
100
AcDbEntity
  8
0
 62
     0
100
AcDbLine
 10
459.7765308798137
 20
272.0789876482629
 30
0.0
 11
457.7765308798138
 21
274.0789876482628
 31
0.0
  0
LINE
  5
26A3
330
2562
100
AcDbEntity
  8
0
 62
     0
100
AcDbLine
 10
355.7765308798137
 20
376.0789876482629
 30
0.0
 11
353.7765308798137
 21
378.0789876482629
 31
0.0
  0
LINE
  5
26A4
330
2562
100
AcDbEntity
  8
0
 62
     0
100
AcDbLine
 10
359.3120647857464
 20
376.0789876482629
 30
0.0
 11
357.3120647857464
 21
378.0789876482629
 31
0.0
  0
LINE
  5
26A5
330
2562
100
AcDbEntity
  8
0
 62
     0
100
AcDbLine
 10
357.3120647857464
 20
378.0789876482629
 30
0.0
 11
354.3120647857464
 21
381.0789876482629
 31
0.0
  0
LINE
  5
26A6
330
2562
100
AcDbEntity
  8
0
 62
     0
100
AcDbLine
 10
362.8475986916792
 20
376.0789876482629
 30
0.0
 11
360.8475986916791
 21
378.0789876482629
 31
0.0
  0
LINE
  5
26A7
330
2562
100
AcDbEntity
  8
0
 62
     0
100
AcDbLine
 10
360.8475986916791
 20
378.0789876482629
 30
0.0
 11
357.8475986916791
 21
381.0789876482629
 31
0.0
  0
LINE
  5
26A8
330
2562
100
AcDbEntity
  8
0
 62
     0
100
AcDbLine
 10
366.3831325976119
 20
376.0789876482629
 30
0.0
 11
364.3831325976119
 21
378.0789876482629
 31
0.0
  0
LINE
  5
26A9
330
2562
100
AcDbEntity
  8
0
 62
     0
100
AcDbLine
 10
364.3831325976119
 20
378.0789876482629
 30
0.0
 11
361.3831325976118
 21
381.0789876482629
 31
0.0
  0
LINE
  5
26AA
330
2562
100
AcDbEntity
  8
0
 62
     0
100
AcDbLine
 10
369.9186665035447
 20
376.0789876482629
 30
0.0
 11
367.9186665035446
 21
378.0789876482629
 31
0.0
  0
LINE
  5
26AB
330
2562
100
AcDbEntity
  8
0
 62
     0
100
AcDbLine
 10
367.9186665035446
 20
378.0789876482629
 30
0.0
 11
364.9186665035446
 21
381.0789876482629
 31
0.0
  0
LINE
  5
26AC
330
2562
100
AcDbEntity
  8
0
 62
     0
100
AcDbLine
 10
373.4542004094774
 20
376.0789876482629
 30
0.0
 11
371.4542004094773
 21
378.0789876482629
 31
0.0
  0
LINE
  5
26AD
330
2562
100
AcDbEntity
  8
0
 62
     0
100
AcDbLine
 10
371.4542004094773
 20
378.0789876482629
 30
0.0
 11
368.4542004094773
 21
381.0789876482629
 31
0.0
  0
LINE
  5
26AE
330
2562
100
AcDbEntity
  8
0
 62
     0
100
AcDbLine
 10
376.9897343154101
 20
376.0789876482629
 30
0.0
 11
374.9897343154101
 21
378.0789876482629
 31
0.0
  0
LINE
  5
26AF
330
2562
100
AcDbEntity
  8
0
 62
     0
100
AcDbLine
 10
374.9897343154101
 20
378.0789876482629
 30
0.0
 11
371.9897343154101
 21
381.0789876482629
 31
0.0
  0
LINE
  5
26B0
330
2562
100
AcDbEntity
  8
0
 62
     0
100
AcDbLine
 10
380.5252682213429
 20
376.0789876482629
 30
0.0
 11
378.5252682213428
 21
378.0789876482629
 31
0.0
  0
LINE
  5
26B1
330
2562
100
AcDbEntity
  8
0
 62
     0
100
AcDbLine
 10
378.5252682213428
 20
378.0789876482629
 30
0.0
 11
375.5252682213428
 21
381.0789876482629
 31
0.0
  0
LINE
  5
26B2
330
2562
100
AcDbEntity
  8
0
 62
     0
100
AcDbLine
 10
384.0608021272757
 20
376.0789876482629
 30
0.0
 11
382.0608021272756
 21
378.0789876482629
 31
0.0
  0
LINE
  5
26B3
330
2562
100
AcDbEntity
  8
0
 62
     0
100
AcDbLine
 10
382.0608021272756
 20
378.0789876482629
 30
0.0
 11
379.0608021272756
 21
381.0789876482629
 31
0.0
  0
LINE
  5
26B4
330
2562
100
AcDbEntity
  8
0
 62
     0
100
AcDbLine
 10
387.5963360332083
 20
376.0789876482629
 30
0.0
 11
385.5963360332083
 21
378.0789876482629
 31
0.0
  0
LINE
  5
26B5
330
2562
100
AcDbEntity
  8
0
 62
     0
100
AcDbLine
 10
385.5963360332083
 20
378.0789876482629
 30
0.0
 11
382.5963360332083
 21
381.0789876482629
 31
0.0
  0
LINE
  5
26B6
330
2562
100
AcDbEntity
  8
0
 62
     0
100
AcDbLine
 10
391.1318699391411
 20
376.0789876482629
 30
0.0
 11
389.131869939141
 21
378.0789876482629
 31
0.0
  0
LINE
  5
26B7
330
2562
100
AcDbEntity
  8
0
 62
     0
100
AcDbLine
 10
389.131869939141
 20
378.0789876482629
 30
0.0
 11
386.131869939141
 21
381.0789876482629
 31
0.0
  0
LINE
  5
26B8
330
2562
100
AcDbEntity
  8
0
 62
     0
100
AcDbLine
 10
394.6674038450738
 20
376.0789876482629
 30
0.0
 11
392.6674038450737
 21
378.0789876482629
 31
0.0
  0
LINE
  5
26B9
330
2562
100
AcDbEntity
  8
0
 62
     0
100
AcDbLine
 10
392.6674038450737
 20
378.0789876482629
 30
0.0
 11
389.6674038450738
 21
381.0789876482629
 31
0.0
  0
LINE
  5
26BA
330
2562
100
AcDbEntity
  8
0
 62
     0
100
AcDbLine
 10
398.2029377510066
 20
376.0789876482629
 30
0.0
 11
396.2029377510065
 21
378.0789876482629
 31
0.0
  0
LINE
  5
26BB
330
2562
100
AcDbEntity
  8
0
 62
     0
100
AcDbLine
 10
396.2029377510065
 20
378.0789876482629
 30
0.0
 11
393.2029377510065
 21
381.0789876482629
 31
0.0
  0
LINE
  5
26BC
330
2562
100
AcDbEntity
  8
0
 62
     0
100
AcDbLine
 10
401.7384716569392
 20
376.0789876482629
 30
0.0
 11
399.7384716569392
 21
378.0789876482629
 31
0.0
  0
LINE
  5
26BD
330
2562
100
AcDbEntity
  8
0
 62
     0
100
AcDbLine
 10
399.7384716569392
 20
378.0789876482629
 30
0.0
 11
396.7384716569392
 21
381.0789876482629
 31
0.0
  0
LINE
  5
26BE
330
2562
100
AcDbEntity
  8
0
 62
     0
100
AcDbLine
 10
405.274005562872
 20
376.0789876482629
 30
0.0
 11
403.2740055628719
 21
378.0789876482629
 31
0.0
  0
LINE
  5
26BF
330
2562
100
AcDbEntity
  8
0
 62
     0
100
AcDbLine
 10
403.2740055628719
 20
378.0789876482629
 30
0.0
 11
400.2740055628719
 21
381.0789876482629
 31
0.0
  0
LINE
  5
26C0
330
2562
100
AcDbEntity
  8
0
 62
     0
100
AcDbLine
 10
408.8095394688047
 20
376.0789876482629
 30
0.0
 11
406.8095394688047
 21
378.0789876482629
 31
0.0
  0
LINE
  5
26C1
330
2562
100
AcDbEntity
  8
0
 62
     0
100
AcDbLine
 10
406.8095394688047
 20
378.0789876482629
 30
0.0
 11
403.8095394688046
 21
381.0789876482629
 31
0.0
  0
LINE
  5
26C2
330
2562
100
AcDbEntity
  8
0
 62
     0
100
AcDbLine
 10
412.3450733747374
 20
376.0789876482629
 30
0.0
 11
410.3450733747374
 21
378.0789876482629
 31
0.0
  0
LINE
  5
26C3
330
2562
100
AcDbEntity
  8
0
 62
     0
100
AcDbLine
 10
410.3450733747374
 20
378.0789876482629
 30
0.0
 11
407.3450733747375
 21
381.0789876482629
 31
0.0
  0
LINE
  5
26C4
330
2562
100
AcDbEntity
  8
0
 62
     0
100
AcDbLine
 10
415.8806072806702
 20
376.0789876482629
 30
0.0
 11
413.8806072806701
 21
378.0789876482629
 31
0.0
  0
LINE
  5
26C5
330
2562
100
AcDbEntity
  8
0
 62
     0
100
AcDbLine
 10
413.8806072806701
 20
378.0789876482629
 30
0.0
 11
410.8806072806701
 21
381.078987648263
 31
0.0
  0
LINE
  5
26C6
330
2562
100
AcDbEntity
  8
0
 62
     0
100
AcDbLine
 10
419.416141186603
 20
376.0789876482629
 30
0.0
 11
417.4161411866029
 21
378.0789876482629
 31
0.0
  0
LINE
  5
26C7
330
2562
100
AcDbEntity
  8
0
 62
     0
100
AcDbLine
 10
417.4161411866029
 20
378.0789876482629
 30
0.0
 11
414.4161411866029
 21
381.078987648263
 31
0.0
  0
LINE
  5
26C8
330
2562
100
AcDbEntity
  8
0
 62
     0
100
AcDbLine
 10
422.9516750925356
 20
376.0789876482629
 30
0.0
 11
420.9516750925356
 21
378.0789876482629
 31
0.0
  0
LINE
  5
26C9
330
2562
100
AcDbEntity
  8
0
 62
     0
100
AcDbLine
 10
420.9516750925356
 20
378.0789876482629
 30
0.0
 11
417.9516750925357
 21
381.078987648263
 31
0.0
  0
LINE
  5
26CA
330
2562
100
AcDbEntity
  8
0
 62
     0
100
AcDbLine
 10
426.4872089984685
 20
376.0789876482629
 30
0.0
 11
424.4872089984684
 21
378.0789876482629
 31
0.0
  0
LINE
  5
26CB
330
2562
100
AcDbEntity
  8
0
 62
     0
100
AcDbLine
 10
424.4872089984684
 20
378.0789876482629
 30
0.0
 11
421.4872089984683
 21
381.078987648263
 31
0.0
  0
LINE
  5
26CC
330
2562
100
AcDbEntity
  8
0
 62
     0
100
AcDbLine
 10
430.0227429044012
 20
376.0789876482629
 30
0.0
 11
428.022742904401
 21
378.0789876482629
 31
0.0
  0
LINE
  5
26CD
330
2562
100
AcDbEntity
  8
0
 62
     0
100
AcDbLine
 10
428.022742904401
 20
378.0789876482629
 30
0.0
 11
425.0227429044011
 21
381.078987648263
 31
0.0
  0
LINE
  5
26CE
330
2562
100
AcDbEntity
  8
0
 62
     0
100
AcDbLine
 10
433.5582768103339
 20
376.0789876482629
 30
0.0
 11
431.5582768103339
 21
378.0789876482629
 31
0.0
  0
LINE
  5
26CF
330
2562
100
AcDbEntity
  8
0
 62
     0
100
AcDbLine
 10
431.5582768103339
 20
378.0789876482629
 30
0.0
 11
428.5582768103338
 21
381.078987648263
 31
0.0
  0
LINE
  5
26D0
330
2562
100
AcDbEntity
  8
0
 62
     0
100
AcDbLine
 10
437.0938107162666
 20
376.0789876482629
 30
0.0
 11
435.0938107162666
 21
378.0789876482629
 31
0.0
  0
LINE
  5
26D1
330
2562
100
AcDbEntity
  8
0
 62
     0
100
AcDbLine
 10
435.0938107162666
 20
378.0789876482629
 30
0.0
 11
432.0938107162666
 21
381.078987648263
 31
0.0
  0
LINE
  5
26D2
330
2562
100
AcDbEntity
  8
0
 62
     0
100
AcDbLine
 10
440.6293446221994
 20
376.0789876482629
 30
0.0
 11
438.6293446221993
 21
378.0789876482629
 31
0.0
  0
LINE
  5
26D3
330
2562
100
AcDbEntity
  8
0
 62
     0
100
AcDbLine
 10
438.6293446221993
 20
378.0789876482629
 30
0.0
 11
435.6293446221993
 21
381.078987648263
 31
0.0
  0
LINE
  5
26D4
330
2562
100
AcDbEntity
  8
0
 62
     0
100
AcDbLine
 10
444.1648785281321
 20
376.0789876482629
 30
0.0
 11
442.1648785281321
 21
378.0789876482629
 31
0.0
  0
LINE
  5
26D5
330
2562
100
AcDbEntity
  8
0
 62
     0
100
AcDbLine
 10
442.1648785281321
 20
378.0789876482629
 30
0.0
 11
439.164878528132
 21
381.078987648263
 31
0.0
  0
LINE
  5
26D6
330
2562
100
AcDbEntity
  8
0
 62
     0
100
AcDbLine
 10
447.7004124340648
 20
376.0789876482629
 30
0.0
 11
445.7004124340648
 21
378.0789876482629
 31
0.0
  0
LINE
  5
26D7
330
2562
100
AcDbEntity
  8
0
 62
     0
100
AcDbLine
 10
445.7004124340648
 20
378.0789876482629
 30
0.0
 11
442.7004124340648
 21
381.078987648263
 31
0.0
  0
LINE
  5
26D8
330
2562
100
AcDbEntity
  8
0
 62
     0
100
AcDbLine
 10
451.2359463399976
 20
376.0789876482629
 30
0.0
 11
449.2359463399975
 21
378.0789876482629
 31
0.0
  0
LINE
  5
26D9
330
2562
100
AcDbEntity
  8
0
 62
     0
100
AcDbLine
 10
449.2359463399975
 20
378.0789876482629
 30
0.0
 11
446.2359463399975
 21
381.078987648263
 31
0.0
  0
LINE
  5
26DA
330
2562
100
AcDbEntity
  8
0
 62
     0
100
AcDbLine
 10
454.7714802459303
 20
376.0789876482629
 30
0.0
 11
452.7714802459303
 21
378.0789876482629
 31
0.0
  0
LINE
  5
26DB
330
2562
100
AcDbEntity
  8
0
 62
     0
100
AcDbLine
 10
452.7714802459303
 20
378.0789876482629
 30
0.0
 11
449.7714802459302
 21
381.078987648263
 31
0.0
  0
LINE
  5
26DC
330
2562
100
AcDbEntity
  8
0
 62
     0
100
AcDbLine
 10
458.307014151863
 20
376.0789876482629
 30
0.0
 11
456.307014151863
 21
378.0789876482629
 31
0.0
  0
LINE
  5
26DD
330
2562
100
AcDbEntity
  8
0
 62
     0
100
AcDbLine
 10
456.307014151863
 20
378.0789876482629
 30
0.0
 11
453.307014151863
 21
381.078987648263
 31
0.0
  0
LINE
  5
26DE
330
2562
100
AcDbEntity
  8
0
 62
     0
100
AcDbLine
 10
460.5007469652806
 20
377.4207887407781
 30
0.0
 11
459.8425480577957
 21
378.0789876482629
 31
0.0
  0
LINE
  5
26DF
330
2562
100
AcDbEntity
  8
0
 62
     0
100
AcDbLine
 10
459.8425480577957
 20
378.0789876482629
 30
0.0
 11
456.8425480577957
 21
381.078987648263
 31
0.0
  0
LINE
  5
26E0
330
2562
100
AcDbEntity
  8
0
 62
     0
100
AcDbLine
 10
460.5007469652806
 20
380.9563226467107
 30
0.0
 11
460.3780819637285
 21
381.078987648263
 31
0.0
  0
ENDBLK
  5
26E1
330
2562
100
AcDbEntity
  8
0
100
AcDbBlockEnd
  0
BLOCK
  5
29C0
330
29B5
100
AcDbEntity
  8
0
100
AcDbBlockBegin
  2
*D9
 70
     1
 10
0.0
 20
0.0
 30
0.0
  3
*D9
  1

  0
LINE
  5
2C92
330
29B5
100
AcDbEntity
  8
BEM
 62
     0
370
    -2
100
AcDbLine
 10
199.1789970357293
 20
790.3927018193138
 30
0.0
 11
129.5638008386676
 21
790.3927018193138
 31
0.0
  0
LINE
  5
2C93
330
29B5
100
AcDbEntity
  8
BEM
 62
     0
370
    -2
100
AcDbLine
 10
149.8857528736541
 20
550.2662374086662
 30
0.0
 11
129.5638008386675
 21
550.2662374086662
 31
0.0
  0
LINE
  5
2C94
330
29B5
100
AcDbEntity
  8
BEM
 62
     0
370
    -2
100
AcDbLine
 10
131.5638008386676
 20
783.3927018193137
 30
0.0
 11
131.5638008386675
 21
557.2662374086662
 31
0.0
  0
SOLID
  5
2C95
330
29B5
100
AcDbEntity
  8
BEM
 62
     0
100
AcDbTrace
 10
130.3971341720009
 20
783.3927018193137
 30
0.0
 11
132.7304675053342
 21
783.3927018193137
 31
0.0
 12
131.5638008386676
 22
790.3927018193138
 32
0.0
 13
131.5638008386676
 23
790.3927018193138
 33
0.0
  0
SOLID
  5
2C96
330
29B5
100
AcDbEntity
  8
BEM
 62
     0
100
AcDbTrace
 10
130.3971341720008
 20
557.2662374086662
 30
0.0
 11
132.7304675053342
 21
557.2662374086662
 31
0.0
 12
131.5638008386675
 22
550.2662374086662
 32
0.0
 13
131.5638008386675
 23
550.2662374086662
 33
0.0
  0
MTEXT
  5
2C97
330
29B5
100
AcDbEntity
  8
BEM
 62
     1
100
AcDbMText
 10
125.0638008386674
 20
670.32946961399
 30
0.0
 40
7.0
 41
0.0
 71
     5
 72
     1
  1
\A1;460
 11
0.0000000000000001
 21
1.0
 31
0.0
 73
     1
 44
1.0
  0
POINT
  5
2C98
330
29B5
100
AcDbEntity
  8
DEFPOINTS
 62
     0
100
AcDbPoint
 10
201.1789970357294
 20
790.3927018193138
 30
0.0
  0
POINT
  5
2C99
330
29B5
100
AcDbEntity
  8
DEFPOINTS
 62
     0
100
AcDbPoint
 10
151.8857528736541
 20
550.2662374086662
 30
0.0
  0
POINT
  5
2C9A
330
29B5
100
AcDbEntity
  8
DEFPOINTS
 62
     0
100
AcDbPoint
 10
131.5638008386675
 20
550.2662374086662
 30
0.0
  0
ENDBLK
  5
29C1
330
29B5
100
AcDbEntity
  8
0
100
AcDbBlockEnd
  0
BLOCK
  5
29CD
330
29C2
100
AcDbEntity
  8
0
100
AcDbBlockBegin
  2
*D10
 70
     1
 10
0.0
 20
0.0
 30
0.0
  3
*D10
  1

  0
LINE
  5
2BE1
330
29C2
100
AcDbEntity
  8
BEM
 62
     0
370
    -2
100
AcDbLine
 10
205.8857528736539
 20
82.2662374086658
 30
0.0
 11
205.8857528736539
 21
47.6129698077766
 31
0.0
  0
LINE
  5
2BE2
330
29C2
100
AcDbEntity
  8
BEM
 62
     0
370
    -2
100
AcDbLine
 10
307.8857528736537
 20
82.26623740866671
 30
0.0
 11
307.8857528736537
 21
47.6129698077766
 31
0.0
  0
LINE
  5
2BE3
330
29C2
100
AcDbEntity
  8
BEM
 62
     0
370
    -2
100
AcDbLine
 10
212.8857528736539
 20
49.6129698077766
 30
0.0
 11
300.8857528736537
 21
49.6129698077766
 31
0.0
  0
SOLID
  5
2BE4
330
29C2
100
AcDbEntity
  8
BEM
 62
     0
100
AcDbTrace
 10
212.8857528736539
 20
50.77963647444327
 30
0.0
 11
212.8857528736539
 21
48.44630314110994
 31
0.0
 12
205.8857528736539
 22
49.6129698077766
 32
0.0
 13
205.8857528736539
 23
49.6129698077766
 33
0.0
  0
SOLID
  5
2BE5
330
29C2
100
AcDbEntity
  8
BEM
 62
     0
100
AcDbTrace
 10
300.8857528736537
 20
50.77963647444327
 30
0.0
 11
300.8857528736537
 21
48.44630314110994
 31
0.0
 12
307.8857528736537
 22
49.6129698077766
 32
0.0
 13
307.8857528736537
 23
49.6129698077766
 33
0.0
  0
MTEXT
  5
2BE6
330
29C2
100
AcDbEntity
  8
BEM
 62
     1
100
AcDbMText
 10
256.8857528736538
 20
56.11296980777661
 30
0.0
 40
7.0
 41
0.0
 71
     5
 72
     1
  1
\A1;%%C102
 73
     1
 44
1.0
  0
POINT
  5
2BE7
330
29C2
100
AcDbEntity
  8
DEFPOINTS
 62
     0
100
AcDbPoint
 10
205.8857528736539
 20
84.26623740866579
 30
0.0
  0
POINT
  5
2BE8
330
29C2
100
AcDbEntity
  8
DEFPOINTS
 62
     0
100
AcDbPoint
 10
307.8857528736537
 20
84.26623740866672
 30
0.0
  0
POINT
  5
2BE9
330
29C2
100
AcDbEntity
  8
DEFPOINTS
 62
     0
100
AcDbPoint
 10
307.8857528736537
 20
49.6129698077766
 30
0.0
  0
ENDBLK
  5
29CE
330
29C2
100
AcDbEntity
  8
0
100
AcDbBlockEnd
  0
BLOCK
  5
2A01
330
29F6
100
AcDbEntity
  8
0
100
AcDbBlockBegin
  2
*D11
 70
     1
 10
0.0
 20
0.0
 30
0.0
  3
*D11
  1

  0
LINE
  5
2BCF
330
29F6
100
AcDbEntity
  8
BEM
 62
     0
370
    -2
100
AcDbLine
 10
197.8857528736545
 20
779.7879503567425
 30
0.0
 11
197.8857528736545
 21
801.7035066835838
 31
0.0
  0
LINE
  5
2BD0
330
29F6
100
AcDbEntity
  8
BEM
 62
     0
370
    -2
100
AcDbLine
 10
315.8857528736544
 20
779.7879503567425
 30
0.0
 11
315.8857528736544
 21
801.7035066835838
 31
0.0
  0
LINE
  5
2BD1
330
29F6
100
AcDbEntity
  8
BEM
 62
     0
370
    -2
100
AcDbLine
 10
204.8857528736545
 20
799.7035066835837
 30
0.0
 11
308.8857528736544
 21
799.7035066835837
 31
0.0
  0
SOLID
  5
2BD2
330
29F6
100
AcDbEntity
  8
BEM
 62
     0
100
AcDbTrace
 10
204.8857528736545
 20
800.8701733502503
 30
0.0
 11
204.8857528736545
 21
798.5368400169171
 31
0.0
 12
197.8857528736545
 22
799.7035066835837
 32
0.0
 13
197.8857528736545
 23
799.7035066835837
 33
0.0
  0
SOLID
  5
2BD3
330
29F6
100
AcDbEntity
  8
BEM
 62
     0
100
AcDbTrace
 10
308.8857528736544
 20
800.8701733502503
 30
0.0
 11
308.8857528736544
 21
798.5368400169171
 31
0.0
 12
315.8857528736544
 22
799.7035066835837
 32
0.0
 13
315.8857528736544
 23
799.7035066835837
 33
0.0
  0
MTEXT
  5
2BD4
330
29F6
100
AcDbEntity
  8
BEM
 62
     1
100
AcDbMText
 10
256.8857528736544
 20
806.2035066835838
 30
0.0
 40
7.0
 41
0.0
 71
     5
 72
     1
  1
\A1;%%C118
 73
     1
 44
1.0
  0
POINT
  5
2BD5
330
29F6
100
AcDbEntity
  8
DEFPOINTS
 62
     0
100
AcDbPoint
 10
197.8857528736545
 20
777.7879503567426
 30
0.0
  0
POINT
  5
2BD6
330
29F6
100
AcDbEntity
  8
DEFPOINTS
 62
     0
100
AcDbPoint
 10
315.8857528736544
 20
777.7879503567426
 30
0.0
  0
POINT
  5
2BD7
330
29F6
100
AcDbEntity
  8
DEFPOINTS
 62
     0
100
AcDbPoint
 10
315.8857528736544
 20
799.7035066835837
 30
0.0
  0
ENDBLK
  5
2A02
330
29F6
100
AcDbEntity
  8
0
100
AcDbBlockEnd
  0
BLOCK
  5
2A0E
330
2A03
100
AcDbEntity
  8
0
100
AcDbBlockBegin
  2
*D12
 70
     1
 10
0.0
 20
0.0
 30
0.0
  3
*D12
  1

  0
LINE
  5
2C6D
330
2A03
100
AcDbEntity
  8
BEM
 62
     0
370
    -2
100
AcDbLine
 10
151.8857528736541
 20
546.2662374086662
 30
0.0
 11
151.8857528736541
 21
497.3566899544112
 31
0.0
  0
LINE
  5
2C6E
330
2A03
100
AcDbEntity
  8
BEM
 62
     0
370
    -2
100
AcDbLine
 10
361.8857528736541
 20
546.2662374086662
 30
0.0
 11
361.8857528736541
 21
497.3566899544112
 31
0.0
  0
LINE
  5
2C6F
330
2A03
100
AcDbEntity
  8
BEM
 62
     0
370
    -2
100
AcDbLine
 10
158.8857528736541
 20
499.3566899544112
 30
0.0
 11
354.8857528736542
 21
499.3566899544112
 31
0.0
  0
SOLID
  5
2C70
330
2A03
100
AcDbEntity
  8
BEM
 62
     0
100
AcDbTrace
 10
158.8857528736541
 20
500.5233566210779
 30
0.0
 11
158.8857528736541
 21
498.1900232877444
 31
0.0
 12
151.8857528736541
 22
499.3566899544112
 32
0.0
 13
151.8857528736541
 23
499.3566899544112
 33
0.0
  0
SOLID
  5
2C71
330
2A03
100
AcDbEntity
  8
BEM
 62
     0
100
AcDbTrace
 10
354.8857528736542
 20
500.5233566210779
 30
0.0
 11
354.8857528736542
 21
498.1900232877444
 31
0.0
 12
361.8857528736541
 22
499.3566899544112
 32
0.0
 13
361.8857528736541
 23
499.3566899544112
 33
0.0
  0
MTEXT
  5
2C72
330
2A03
100
AcDbEntity
  8
BEM
 62
     1
100
AcDbMText
 10
256.8857528736542
 20
505.8566899544111
 30
0.0
 40
7.0
 41
0.0
 71
     5
 72
     1
  1
\A1;%%C210
 73
     1
 44
1.0
  0
POINT
  5
2C73
330
2A03
100
AcDbEntity
  8
DEFPOINTS
 62
     0
100
AcDbPoint
 10
151.8857528736541
 20
548.2662374086662
 30
0.0
  0
POINT
  5
2C74
330
2A03
100
AcDbEntity
  8
DEFPOINTS
 62
     0
100
AcDbPoint
 10
361.8857528736541
 20
548.2662374086662
 30
0.0
  0
POINT
  5
2C75
330
2A03
100
AcDbEntity
  8
DEFPOINTS
 62
     0
100
AcDbPoint
 10
361.8857528736541
 20
499.3566899544112
 30
0.0
  0
ENDBLK
  5
2A0F
330
2A03
100
AcDbEntity
  8
0
100
AcDbBlockEnd
  0
BLOCK
  5
2A1B
330
2A10
100
AcDbEntity
  8
0
100
AcDbBlockBegin
  2
*D13
 70
     1
 10
0.0
 20
0.0
 30
0.0
  3
*D13
  1

  0
LINE
  5
2C9B
330
2A10
100
AcDbEntity
  8
BEM
 62
     0
370
    -2
100
AcDbLine
 10
149.8857528736541
 20
550.2662374086662
 30
0.0
 11
129.5638008386675
 21
550.2662374086662
 31
0.0
  0
LINE
  5
2C9C
330
2A10
100
AcDbEntity
  8
BEM
 62
     0
370
    -2
100
AcDbLine
 10
179.8857528736541
 20
446.7662374086662
 30
0.0
 11
129.5638008386675
 21
446.7662374086662
 31
0.0
  0
LINE
  5
2C9D
330
2A10
100
AcDbEntity
  8
BEM
 62
     0
370
    -2
100
AcDbLine
 10
131.5638008386675
 20
543.2662374086662
 30
0.0
 11
131.5638008386675
 21
453.7662374086663
 31
0.0
  0
SOLID
  5
2C9E
330
2A10
100
AcDbEntity
  8
BEM
 62
     0
100
AcDbTrace
 10
130.3971341720009
 20
543.2662374086662
 30
0.0
 11
132.7304675053342
 21
543.2662374086662
 31
0.0
 12
131.5638008386675
 22
550.2662374086662
 32
0.0
 13
131.5638008386675
 23
550.2662374086662
 33
0.0
  0
SOLID
  5
2C9F
330
2A10
100
AcDbEntity
  8
BEM
 62
     0
100
AcDbTrace
 10
130.3971341720009
 20
453.7662374086663
 30
0.0
 11
132.7304675053342
 21
453.7662374086663
 31
0.0
 12
131.5638008386675
 22
446.7662374086662
 32
0.0
 13
131.5638008386675
 23
446.7662374086662
 33
0.0
  0
MTEXT
  5
2CA0
330
2A10
100
AcDbEntity
  8
BEM
 62
     1
100
AcDbMText
 10
125.0638008386675
 20
498.5162374086662
 30
0.0
 40
7.0
 41
0.0
 71
     5
 72
     1
  1
\A1;min.150-max.250
 11
0.0000000000000001
 21
1.0
 31
0.0
 73
     1
 44
1.0
  0
POINT
  5
2CA1
330
2A10
100
AcDbEntity
  8
DEFPOINTS
 62
     0
100
AcDbPoint
 10
151.8857528736541
 20
550.2662374086662
 30
0.0
  0
POINT
  5
2CA2
330
2A10
100
AcDbEntity
  8
DEFPOINTS
 62
     0
100
AcDbPoint
 10
181.8857528736541
 20
446.7662374086662
 30
0.0
  0
POINT
  5
2CA3
330
2A10
100
AcDbEntity
  8
DEFPOINTS
 62
     0
100
AcDbPoint
 10
131.5638008386675
 20
446.7662374086662
 30
0.0
  0
ENDBLK
  5
2A1C
330
2A10
100
AcDbEntity
  8
0
100
AcDbBlockEnd
  0
BLOCK
  5
2B58
330
2B4E
100
AcDbEntity
  8
0
100
AcDbBlockBegin
  2
*D14
 70
     1
 10
0.0
 20
0.0
 30
0.0
  3
*D14
  1

  0
LINE
  5
2C89
330
2B4E
100
AcDbEntity
  8
BEM
 62
     0
370
    -2
100
AcDbLine
 10
204.9356168359647
 20
72.26623740866611
 30
0.0
 11
129.5638008386675
 21
72.26623740866613
 31
0.0
  0
LINE
  5
2C8A
330
2B4E
100
AcDbEntity
  8
BEM
 62
     0
370
    -2
100
AcDbLine
 10
190.3857528736538
 20
422.2662374086659
 30
0.0
 11
129.5638008386676
 21
422.2662374086659
 31
0.0
  0
LINE
  5
2C8B
330
2B4E
100
AcDbEntity
  8
BEM
 62
     0
370
    -2
100
AcDbLine
 10
131.5638008386675
 20
79.26623740866613
 30
0.0
 11
131.5638008386676
 21
415.2662374086658
 31
0.0
  0
SOLID
  5
2C8C
330
2B4E
100
AcDbEntity
  8
BEM
 62
     0
100
AcDbTrace
 10
130.3971341720008
 20
79.26623740866613
 30
0.0
 11
132.7304675053342
 21
79.26623740866613
 31
0.0
 12
131.5638008386675
 22
72.26623740866613
 32
0.0
 13
131.5638008386675
 23
72.26623740866613
 33
0.0
  0
SOLID
  5
2C8D
330
2B4E
100
AcDbEntity
  8
BEM
 62
     0
100
AcDbTrace
 10
130.3971341720009
 20
415.2662374086658
 30
0.0
 11
132.7304675053342
 21
415.2662374086658
 31
0.0
 12
131.5638008386676
 22
422.2662374086659
 32
0.0
 13
131.5638008386676
 23
422.2662374086659
 33
0.0
  0
MTEXT
  5
2C8E
330
2B4E
100
AcDbEntity
  8
BEM
 62
     1
100
AcDbMText
 10
125.0638008386675
 20
247.266237408666
 30
0.0
 40
7.0
 41
0.0
 71
     5
 72
     1
  1
\A1;350
 11
0.0000000000000001
 21
1.0
 31
0.0
 73
     1
 44
1.0
  0
POINT
  5
2C8F
330
2B4E
100
AcDbEntity
  8
DEFPOINTS
 62
     0
100
AcDbPoint
 10
206.9356168359647
 20
72.26623740866611
 30
0.0
  0
POINT
  5
2C90
330
2B4E
100
AcDbEntity
  8
DEFPOINTS
 62
     0
100
AcDbPoint
 10
192.3857528736538
 20
422.2662374086659
 30
0.0
  0
POINT
  5
2C91
330
2B4E
100
AcDbEntity
  8
DEFPOINTS
 62
     0
100
AcDbPoint
 10
131.5638008386676
 20
422.2662374086659
 30
0.0
  0
ENDBLK
  5
2B59
330
2B4E
100
AcDbEntity
  8
0
100
AcDbBlockEnd
  0
ENDSEC
  0
SECTION
  2
ENTITIES
  0
TEXT
  5
8F
330
1E
100
AcDbEntity
  8
VOLL
100
AcDbText
 10
78.07675471698113
 20
31.02594776470585
 30
0.0
 40
1.8
  1

  7
GREEKS
100
AcDbText
  0
LINE
  5
855
330
1E
100
AcDbEntity
  8
STEMPEL
100
AcDbLine
 10
483.9999999999998
 20
830.0
 30
0.0
 11
483.9999999999998
 21
470.0000000000001
 31
0.0
  0
LINE
  5
856
330
1E
100
AcDbEntity
  8
STEMPEL
100
AcDbLine
 10
483.9999999999998
 20
566.0000000000002
 30
0.0
 11
583.9999999999998
 21
566.0000000000001
 31
0.0
  0
LINE
  5
857
330
1E
100
AcDbEntity
  8
STEMPEL
100
AcDbLine
 10
483.9999999999998
 20
650.0
 30
0.0
 11
583.9999999999998
 21
650.0
 31
0.0
  0
LINE
  5
858
330
1E
100
AcDbEntity
  8
STEMPEL
100
AcDbLine
 10
484.0
 20
752.0000000000001
 30
0.0
 11
553.9999999999998
 21
752.0000000000001
 31
0.0
  0
LINE
  5
859
330
1E
100
AcDbEntity
  8
STEMPEL
100
AcDbLine
 10
563.9999999999998
 20
566.0
 30
0.0
 11
563.9999999999997
 21
470.0000000000001
 31
0.0
  0
LINE
  5
85A
330
1E
100
AcDbEntity
  8
STEMPEL
100
AcDbLine
 10
553.9999999999998
 20
830.0
 30
0.0
 11
553.9999999999999
 21
566.0000000000002
 31
0.0
  0
LINE
  5
85B
330
1E
100
AcDbEntity
  8
STEMPEL
100
AcDbLine
 10
513.9999999999997
 20
830.0
 30
0.0
 11
513.9999999999998
 21
566.0000000000002
 31
0.0
  0
LINE
  5
85C
330
1E
100
AcDbEntity
  8
VOLL
100
AcDbLine
 10
483.9999999999998
 20
484.0000000000002
 30
0.0
 11
583.9999999999998
 21
484.0000000000001
 31
0.0
  0
LINE
  5
85D
330
1E
100
AcDbEntity
  8
VOLL
100
AcDbLine
 10
483.9999999999998
 20
524.0000000000001
 30
0.0
 11
583.9999999999998
 21
524.0000000000001
 31
0.0
  0
LINE
  5
85E
330
1E
100
AcDbEntity
  8
VOLL
100
AcDbLine
 10
483.9999999999998
 20
544.0000000000002
 30
0.0
 11
583.9999999999998
 21
544.0000000000001
 31
0.0
  0
LINE
  5
85F
330
1E
100
AcDbEntity
  8
VOLL
100
AcDbLine
 10
513.9999999999998
 20
584.0000000000002
 30
0.0
 11
553.9999999999999
 21
584.0000000000002
 31
0.0
  0
LINE
  5
860
330
1E
100
AcDbEntity
  8
VOLL
100
AcDbLine
 10
484.0
 20
610.0000000000002
 30
0.0
 11
553.9999999999999
 21
610.0000000000001
 31
0.0
  0
LINE
  5
861
330
1E
100
AcDbEntity
  8
HILF
100
AcDbLine
 10
493.9999999999997
 20
470.0000000000001
 30
0.0
 11
493.9999999999997
 21
566.0000000000002
 31
0.0
  0
LINE
  5
862
330
1E
100
AcDbEntity
  8
HILF
100
AcDbLine
 10
503.9999999999998
 20
470.0000000000001
 30
0.0
 11
503.9999999999998
 21
566.0000000000002
 31
0.0
  0
LINE
  5
863
330
1E
100
AcDbEntity
  8
HILF
100
AcDbLine
 10
513.9999999999998
 20
470.0000000000001
 30
0.0
 11
513.9999999999998
 21
566.0000000000002
 31
0.0
  0
LINE
  5
864
330
1E
100
AcDbEntity
  8
HILF
100
AcDbLine
 10
523.9999999999999
 20
470.0000000000001
 30
0.0
 11
523.9999999999999
 21
566.0000000000002
 31
0.0
  0
LINE
  5
865
330
1E
100
AcDbEntity
  8
HILF
100
AcDbLine
 10
533.9999999999998
 20
470.0000000000001
 30
0.0
 11
533.9999999999998
 21
566.0000000000002
 31
0.0
  0
LINE
  5
866
330
1E
100
AcDbEntity
  8
HILF
100
AcDbLine
 10
543.9999999999997
 20
470.0000000000001
 30
0.0
 11
543.9999999999998
 21
566.0000000000002
 31
0.0
  0
LINE
  5
867
330
1E
100
AcDbEntity
  8
HILF
100
AcDbLine
 10
553.9999999999998
 20
470.0000000000001
 30
0.0
 11
553.9999999999999
 21
566.0000000000002
 31
0.0
  0
LINE
  5
868
330
1E
100
AcDbEntity
  8
HILF
100
AcDbLine
 10
523.9999999999999
 20
566.0000000000002
 30
0.0
 11
523.9999999999999
 21
650.0
 31
0.0
  0
LINE
  5
869
330
1E
100
AcDbEntity
  8
HILF
100
AcDbLine
 10
533.9999999999998
 20
566.0000000000002
 30
0.0
 11
533.9999999999998
 21
650.0
 31
0.0
  0
LINE
  5
86A
330
1E
100
AcDbEntity
  8
HILF
100
AcDbLine
 10
543.9999999999998
 20
566.0000000000002
 30
0.0
 11
543.9999999999998
 21
650.0
 31
0.0
  0
LINE
  5
86B
330
1E
100
AcDbEntity
  8
HILF
100
AcDbLine
 10
509.9624175243584
 20
654.7736801096948
 30
0.0
 11
509.9624175243584
 21
744.8353916556311
 31
0.0
  0
LINE
  5
86C
330
1E
100
AcDbEntity
  8
HILF
100
AcDbLine
 10
523.9999999999999
 20
654.7736801096948
 30
0.0
 11
523.9999999999999
 21
744.835391655631
 31
0.0
  0
LINE
  5
86D
330
1E
100
AcDbEntity
  8
HILF
100
AcDbLine
 10
533.9999999999998
 20
654.7736801096948
 30
0.0
 11
533.9999999999998
 21
744.835391655631
 31
0.0
  0
LINE
  5
86E
330
1E
100
AcDbEntity
  8
HILF
100
AcDbLine
 10
543.9999999999998
 20
654.7736801096948
 30
0.0
 11
543.9999999999998
 21
744.835391655631
 31
0.0
  0
LINE
  5
86F
330
1E
100
AcDbEntity
  8
VOLL
100
AcDbLine
 10
533.9999999999998
 20
752.0000000000001
 30
0.0
 11
533.9999999999998
 21
830.0
 31
0.0
  0
LINE
  5
870
330
1E
100
AcDbEntity
  8
HILF
100
AcDbLine
 10
510.2201636304415
 20
756.7238616296994
 30
0.0
 11
510.2201636304415
 21
824.8588839326728
 31
0.0
  0
LINE
  5
871
330
1E
100
AcDbEntity
  8
HILF
100
AcDbLine
 10
579.1060174197166
 20
653.4909699289886
 30
0.0
 11
579.1060174197166
 21
824.8588839326728
 31
0.0
  0
TEXT
  5
872
330
1E
100
AcDbEntity
  8
TEXT
100
AcDbText
 10
575.3261810501585
 20
492.7826069847976
 30
0.0
 40
4.0
  1
Änderung
 50
90.0
 41
0.8
  7
GREEKS
 72
     1
 11
575.3261810501585
 21
503.5254641276548
 31
0.0
100
AcDbText
  0
TEXT
  5
873
330
1E
100
AcDbEntity
  8
TEXT
100
AcDbText
 10
491.537910491291
 20
573.5163572150378
 30
0.0
 40
5.0
  1
Maßstab
 50
90.0
 41
0.8
  7
GREEKS
100
AcDbText
  0
TEXT
  5
874
330
1E
100
AcDbEntity
  8
TEXT
100
AcDbText
 10
491.5815831565179
 20
614.2858954734053
 30
0.0
 40
5.0
  1
Zul. Abw.
 50
90.0
 41
0.8
  7
GREEKS
100
AcDbText
  0
TEXT
  5
875
330
1E
100
AcDbEntity
  8
TEXT
100
AcDbText
 10
491.4510671988218
 20
654.8779403809011
 30
0.0
 40
5.0
  1
Benennung
 50
90.0
 41
0.8
  7
GREEKS
100
AcDbText
  0
TEXT
  5
876
330
1E
100
AcDbEntity
  8
TEXT
100
AcDbText
 10
491.6867965462862
 20
756.1787549576341
 30
0.0
 40
5.0
  1
Zeichnungs Nr.
 50
90.0
 41
0.8
  7
GREEKS
100
AcDbText
  0
TEXT
  5
877
330
1E
100
AcDbEntity
  8
TEXT
100
AcDbText
 10
563.1543942980693
 20
654.742238391136
 30
0.0
 40
5.0
  1
Bauvorhaben
 50
90.0
 41
0.8
  7
GREEKS
100
AcDbText
  0
TEXT
  5
878
330
1E
100
AcDbEntity
  8
TEXT
100
AcDbText
 10
520.8188176290001
 20
756.7238616296994
 30
0.0
 40
5.0
  1
Ersatz für:
 50
90.0
 41
0.8
  7
GREEKS
100
AcDbText
  0
TEXT
  5
879
330
1E
100
AcDbEntity
  8
TEXT
100
AcDbText
 10
580.3453415397278
 20
478.2664110704577
 30
0.0
 40
4.0
  1
Index
 50
180.0
 41
0.8
  7
GREEKS
100
AcDbText
  0
TEXT
  5
87A
330
1E
100
AcDbEntity
  8
TEXT
100
AcDbText
 10
575.3284373066017
 20
530.0571803261056
 30
0.0
 40
4.0
  1
Tag
 50
90.0
 41
0.8
  7
GREEKS
 72
     1
 11
575.3284373066017
 21
533.7905136594389
 31
0.0
100
AcDbText
  0
TEXT
  5
87B
330
1E
100
AcDbEntity
  8
TEXT
100
AcDbText
 10
575.4067578303358
 20
548.6614567187548
 30
0.0
 40
4.0
  1
Name
 50
90.0
 41
0.8
  7
GREEKS
 72
     1
 11
575.4067578303358
 21
554.9852662425642
 31
0.0
100
AcDbText
  0
TEXT
  5
87C
330
1E
100
AcDbEntity
  8
TEXT
100
AcDbText
 10
520.6811949877005
 20
592.3311673153651
 30
0.0
 40
4.0
  1
Tag
 50
90.0
 41
0.8
  7
GREEKS
100
AcDbText
  0
TEXT
  5
87D
330
1E
100
AcDbEntity
  8
TEXT
100
AcDbText
 10
520.6903890808475
 20
622.4626584226296
 30
0.0
 40
4.0
  1
Name
 50
90.0
 41
0.8
  7
GREEKS
100
AcDbText
  0
TEXT
  5
87E
330
1E
100
AcDbEntity
  8
TEXT
100
AcDbText
 10
530.3700963038202
 20
567.5836127167616
 30
0.0
 40
4.0
  1
Gez.
 50
90.0
 41
0.8
  7
GREEKS
100
AcDbText
  0
TEXT
  5
87F
330
1E
100
AcDbEntity
  8
TEXT
100
AcDbText
 10
540.310737085716
 20
567.5515086571673
 30
0.0
 40
4.0
  1
Gepr.
 50
90.0
 41
0.8
  7
GREEKS
100
AcDbText
  0
TEXT
  5
880
330
1E
100
AcDbEntity
  8
TEXT
100
AcDbText
 10
550.4705361035018
 20
567.6006777387304
 30
0.0
 40
4.0
  1
Norm.
 50
90.0
 41
0.8
  7
GREEKS
100
AcDbText
  0
LINE
  5
881
330
1E
100
AcDbEntity
  8
STEMPEL
100
AcDbLine
 10
583.9999999999998
 20
480.0
 30
0.0
 11
583.9999999999998
 21
830.0
 31
0.0
  0
TEXT
  5
882
330
1E
100
AcDbEntity
  8
TEXT
100
AcDbText
 10
541.9258382212137
 20
757.2400861497007
 30
0.0
 40
5.0
  1
ersetzt durch:
 50
90.0
 41
0.8
  7
GREEKS
100
AcDbText
  0
LINE
  5
883
330
1E
100
AcDbEntity
  8
STEMPEL
100
AcDbLine
 10
583.9999999999998
 20
830.0
 30
0.0
 11
583.9999999999998
 21
40.00000000000011
 31
0.0
  0
LINE
  5
884
330
1E
100
AcDbEntity
  8
STEMPEL
100
AcDbLine
 10
583.9999999999998
 20
830.0
 30
0.0
 11
9.999999999999772
 21
830.0
 31
0.0
  0
LINE
  5
885
330
1E
100
AcDbEntity
  8
STEMPEL
100
AcDbLine
 10
583.9999999999998
 20
470.0000000000001
 30
0.0
 11
483.9999999999998
 21
470.0000000000001
 31
0.0
  0
LINE
  5
886
330
1E
100
AcDbEntity
  8
STEMPEL
100
AcDbLine
 10
9.999999999999772
 20
830.0
 30
0.0
 11
9.999999999999772
 21
40.00000000000003
 31
0.0
  0
LINE
  5
887
330
1E
100
AcDbEntity
  8
HILF
100
AcDbLine
 10
-0.0000000000004547
 20
840.0
 30
0.0
 11
0.0
 21
-0.0000000000000205
 31
0.0
  0
LINE
  5
888
330
1E
100
AcDbEntity
  8
HILF
100
AcDbLine
 10
593.9999999999997
 20
840.0000000000002
 30
0.0
 11
593.9999999999997
 21
0.0000000000001137
 31
0.0
  0
LINE
  5
889
330
1E
100
AcDbEntity
  8
HILF
100
AcDbLine
 10
296.9999999999999
 20
31.08767135713863
 30
0.0
 11
296.9999999999999
 21
0.0000000000001887
 31
0.0
  0
TEXT
  5
88A
330
1E
100
AcDbEntity
  8
TEXT
100
AcDbText
 10
520.8597452884832
 20
568.622109822104
 30
0.0
 40
4.0
  1
2012
 50
90.0
 41
0.8
  7
GREEKS
100
AcDbText
  0
LINE
  5
88B
330
1E
100
AcDbEntity
  8
HILF
100
AcDbLine
 10
593.9999999999998
 20
840.0000000000002
 30
0.0
 11
-0.0000000000002274
 21
840.0
 31
0.0
  0
TEXT
  5
88C
330
1E
100
AcDbEntity
  8
VOLL
100
AcDbText
 10
531.948104470588
 20
156.1535094339624
 30
0.0
 40
3.6
  1

 50
90.0
  7
GREEKS
100
AcDbText
  0
TEXT
  5
88D
330
1E
100
AcDbEntity
  8
TEXT
100
AcDbText
 10
482.3279999999998
 20
471.8550995097769
 30
0.0
 40
5.0
  1
Erstellt mit AUTOCAD 2004
 50
90.0
 41
0.8
  7
GREEKS
100
AcDbText
  0
TEXT
  5
88E
330
1E
100
AcDbEntity
  8
TEXT
100
AcDbText
 10
530.9103608027647
 20
624.4216048581258
 30
0.0
 40
4.0
  1
Koeh
 50
90.0
 41
0.8
  7
GREEKS
 72
     1
 11
530.9103608027647
 21
629.6787477152687
 31
0.0
100
AcDbText
  0
TEXT
  5
88F
330
1E
100
AcDbEntity
  8
TEXT
 62
     1
100
AcDbText
 10
505.8509857108602
 20
768.3132494462936
 30
0.0
 40
7.0
  1
16749100W
 50
90.0
 41
0.8
  7
GREEKS
 72
     1
 11
505.8509857108602
 21
791.246582779627
 31
0.0
100
AcDbText
  0
TEXT
  5
890
330
1E
100
AcDbEntity
  8
TEXT
 62
     1
100
AcDbText
 10
505.8509857108602
 20
580.5006306481888
 30
0.0
 40
7.0
  1
1:2
 50
90.0
 41
0.8
  7
GREEKS
100
AcDbText
  0
TEXT
  5
891
330
1E
100
AcDbEntity
  8
TEXT
100
AcDbText
 10
530.8923495917424
 20
590.3989971082362
 30
0.0
 40
4.0
  1
09.03.
 50
90.0
 41
0.8
  7
GREEKS
 72
     1
 11
530.8923495917424
 21
597.40852091776
 31
0.0
100
AcDbText
  0
TEXT
  5
892
330
1E
100
AcDbEntity
  8
TEXT
 62
     1
100
AcDbText
 10
506.582512107462
 20
654.4942536306288
 30
0.0
 40
7.0
  1
Balkondirektablauf DN100
 50
90.0
 41
0.6700000000000001
  7
GREEKS
100
AcDbText
  0
TEXT
  5
893
330
1E
100
AcDbEntity
  8
TEXT
100
AcDbText
 10
522.4966558241469
 20
655.1296391125316
 30
0.0
 40
5.0
  1
für untere Balkon kurz
 50
90.0
 41
0.8
  7
GREEKS
100
AcDbText
  0
TEXT
  5
895
330
1E
100
AcDbEntity
  8
TEXT
100
AcDbText
 10
542.3598805695782
 20
655.1296391125316
 30
0.0
 40
5.0
  1
EDV-Art.Nr. 16749.100X
 50
90.0
 41
0.8
  7
GREEKS
100
AcDbText
  0
TEXT
  5
896
330
1E
100
AcDbEntity
  8
TEXT
100
AcDbText
 10
551.3702584697734
 20
654.9837501577827
 30
0.0
 40
4.0
  1
16749100W.DWG
 50
90.0
 41
0.8
  7
GREEKS
100
AcDbText
  0
TEXT
  5
897
330
1E
100
AcDbEntity
  8
TEXT
100
AcDbText
 10
503.2363615897696
 20
612.626132208084
 30
0.0
 40
4.0
  1
DIN EN1123-2
 50
90.0
 41
0.8
  7
GREEKS
 72
     1
 11
503.2363615897696
 21
629.6166083985602
 31
0.0
100
AcDbText
  0
INSERT
  5
898
330
1E
100
AcDbEntity
  8
STEMPEL
100
AcDbBlockReference
  2
LOGO
 10
548.9789472355165
 20
570.9955485457795
 30
0.0
 41
2.0
 42
2.0
 43
2.0
 50
90.0
  0
LINE
  5
899
330
1E
100
AcDbEntity
  8
HILF
100
AcDbLine
 10
593.9999999999997
 20
0.0000000000001137
 30
0.0
 11
0.0
 21
-0.0000000000000205
 31
0.0
  0
LINE
  5
89A
330
1E
100
AcDbEntity
  8
STEMPEL
100
AcDbLine
 10
583.9999999999998
 20
40.00000000000011
 30
0.0
 11
9.999999999999772
 21
40.00000000000003
 31
0.0
  0
LINE
  5
89B
330
1E
100
AcDbEntity
  8
HILF
 62
     7
100
AcDbLine
 10
594.0000000000001
 20
460.0000000000001
 30
0.0
 11
583.9999999999998
 21
460.0000000000001
 31
0.0
  0
LINE
  5
89C
330
1E
100
AcDbEntity
  8
HILF
 62
     7
100
AcDbLine
 10
9.999999999999772
 20
460.0
 30
0.0
 11
-0.0000000000001137
 21
460.0
 31
0.0
  0
TEXT
  5
89D
330
1E
100
AcDbEntity
  8
BEM
100
AcDbText
 10
583.8320989200111
 20
837.3022923857167
 30
0.0
 40
4.0
  1
Diese Zeichnung ist urheberrechtlich geschützt und bleibt unser Eigentum. Sie darf weder ganz noch teilweise verfielfältigt und nicht an Dritte weitergegeben werden.
 50
180.0
 41
0.8
  7
GREEKS
100
AcDbText
  0
LINE
  5
14BE
330
1E
100
AcDbEntity
  8
TEXT
 62
     2
100
AcDbLine
 10
355.2806679131577
 20
691.4750621472087
 30
0.0
 11
279.9485381368618
 21
657.7698379505752
 31
0.0
  0
TEXT
  5
14C1
330
1E
100
AcDbEntity
  8
TEXT
 62
     1
100
AcDbText
 10
356.7362614362056
 20
695.2245790751442
 30
0.0
 40
7.0
  1
Ablaufkörper
 41
0.8
  7
GREEKS
100
AcDbText
  0
TEXT
  5
14C2
330
1E
100
AcDbEntity
  8
TEXT
 62
     1
100
AcDbText
 10
356.7362614362056
 20
680.2018865705913
 30
0.0
 40
7.0
  1
EDV-Art.Nr.16714.100X
 41
0.8
  7
GREEKS
100
AcDbText
  0
LINE
  5
14C3
330
1E
100
AcDbEntity
  8
TEXT
 62
     2
100
AcDbLine
 10
455.4064919963948
 20
691.4750621472088
 30
0.0
 11
355.2806679131577
 21
691.4750621472088
 31
0.0
  0
LINE
  5
158B
330
1E
100
AcDbEntity
  8
TEXT
 62
     2
100
AcDbLine
 10
370.6580899889214
 20
187.7200091924628
 30
0.0
 11
290.8385049925125
 21
213.2927883403222
 31
0.0
  0
LINE
  5
1592
330
1E
100
AcDbEntity
  8
TEXT
 62
     2
100
AcDbLine
 10
470.7839140721587
 20
187.7200091924627
 30
0.0
 11
370.6580899889214
 21
187.7200091924628
 31
0.0
  0
TEXT
  5
1593
330
1E
100
AcDbEntity
  8
TEXT
 62
     1
100
AcDbText
 10
372.1136835119692
 20
179.3750814578755
 30
0.0
 40
7.0
  1
EDV-Art.Nr.16720.100X
 41
0.8
  7
GREEKS
100
AcDbText
  0
TEXT
  5
1594
330
1E
100
AcDbEntity
  8
TEXT
 62
     1
100
AcDbText
 10
372.1136835119693
 20
191.4695261203983
 30
0.0
 40
7.0
  1
Fallrohr
 41
0.8
  7
GREEKS
100
AcDbText
  0
TEXT
  5
178A
330
1E
100
AcDbEntity
  8
TEXT
100
AcDbText
 10
532.4966558241469
 20
655.1296391125316
 30
0.0
 40
5.0
  1
DEckenstärke 150-250mm
 50
90.0
 41
0.8
  7
GREEKS
100
AcDbText
  0
TEXT
  5
2190
330
1E
100
AcDbEntity
  8
TEXT
 62
     1
100
AcDbText
 10
243.0802687586552
 20
132.5102292060552
 30
0.0
 40
7.0
  1
DN100
 50
90.0
 41
0.8
  7
GREEKS
 72
     1
 11
243.0802687586552
 21
144.9102292060552
 31
0.0
100
AcDbText
  0
LINE
  5
2860
330
1E
100
AcDbEntity
  8
STEMPEL
100
AcDbLine
 10
201.1789970357294
 20
790.3927018193138
 30
0.0
 11
200.2280581977383
 21
788.3534069002601
 31
0.0
  0
ARC
  5
2861
330
1E
100
AcDbEntity
  8
STEMPEL
100
AcDbCircle
 10
222.8857528736544
 20
777.7879503567426
 30
0.0
 40
25.0
100
AcDbArc
 50
155.0000000000006
 51
180.0
  0
LINE
  5
2862
330
1E
100
AcDbEntity
  8
STEMPEL
100
AcDbLine
 10
197.8857528736545
 20
777.7879503567426
 30
0.0
 11
197.8857528736545
 21
759.6257018193134
 31
0.0
  0
ARC
  5
2863
330
1E
100
AcDbEntity
  8
STEMPEL
100
AcDbCircle
 10
189.8857528736544
 20
742.8927018193137
 30
0.0
 40
12.0
100
AcDbArc
 50
0.0
 51
26.88777065901872
  0
LINE
  5
2864
330
1E
100
AcDbEntity
  8
STEMPEL
100
AcDbLine
 10
201.8857528736547
 20
742.8927018193137
 30
0.0
 11
201.8857528736546
 21
698.2998898720794
 31
0.0
  0
LINE
  5
2865
330
1E
100
AcDbEntity
  8
STEMPEL
100
AcDbLine
 10
201.8857528736546
 20
696.2998898720784
 30
0.0
 11
201.8857528736545
 21
637.1937262856135
 31
0.0
  0
LINE
  5
2866
330
1E
100
AcDbEntity
  8
STEMPEL
100
AcDbLine
 10
151.8857528736541
 20
550.2662374086662
 30
0.0
 11
151.8857528736541
 21
548.2662374086662
 31
0.0
  0
LINE
  5
2867
330
1E
100
AcDbEntity
  8
STEMPEL
100
AcDbLine
 10
192.8857528736541
 20
548.2662374086662
 30
0.0
 11
200.8857528736541
 21
519.2662374086662
 31
0.0
  0
LINE
  5
2868
330
1E
100
AcDbEntity
  8
STEMPEL
100
AcDbLine
 10
181.8857528736541
 20
443.2662374086662
 30
0.0
 11
186.8857528736541
 21
443.2662374086658
 31
0.0
  0
LINE
  5
2869
330
1E
100
AcDbEntity
  8
STEMPEL
100
AcDbLine
 10
181.8857528736541
 20
443.2662374086662
 30
0.0
 11
186.8857528736541
 21
443.2662374086658
 31
0.0
  0
LINE
  5
286A
330
1E
100
AcDbEntity
  8
STEMPEL
100
AcDbLine
 10
181.8857528736541
 20
446.7662374086662
 30
0.0
 11
181.8857528736541
 21
443.2662374086662
 31
0.0
  0
LINE
  5
286B
330
1E
100
AcDbEntity
  8
STEMPEL
100
AcDbLine
 10
181.8857528736541
 20
443.2662374086662
 30
0.0
 11
186.8857528736541
 21
443.2662374086658
 31
0.0
  0
LINE
  5
286C
330
1E
100
AcDbEntity
  8
STEMPEL
100
AcDbLine
 10
181.8857528736541
 20
443.2662374086662
 30
0.0
 11
181.8857528736541
 21
446.7662374086662
 31
0.0
  0
LINE
  5
286D
330
1E
100
AcDbEntity
  8
STEMPEL
100
AcDbLine
 10
200.8857528736541
 20
450.2662374086662
 30
0.0
 11
200.385752873655
 21
450.2662374086662
 31
0.0
  0
LINE
  5
286E
330
1E
100
AcDbEntity
  8
STEMPEL
100
AcDbLine
 10
198.8107528736541
 20
448.691237408665
 30
0.0
 11
196.885752873655
 21
446.7662374086662
 31
0.0
  0
LINE
  5
286F
330
1E
100
AcDbEntity
  8
STEMPEL
100
AcDbLine
 10
200.385752873655
 20
450.2662374086662
 30
0.0
 11
198.8107528736541
 21
448.691237408665
 31
0.0
  0
LINE
  5
2870
330
1E
100
AcDbEntity
  8
STEMPEL
100
AcDbLine
 10
200.8857528736541
 20
450.2662374086662
 30
0.0
 11
200.385752873655
 21
450.2662374086662
 31
0.0
  0
LINE
  5
2871
330
1E
100
AcDbEntity
  8
STEMPEL
100
AcDbLine
 10
198.8107528736541
 20
448.691237408665
 30
0.0
 11
196.885752873655
 21
446.7662374086662
 31
0.0
  0
LINE
  5
2872
330
1E
100
AcDbEntity
  8
STEMPEL
100
AcDbLine
 10
181.8857528736541
 20
446.7662374086662
 30
0.0
 11
196.885752873655
 21
446.7662374086662
 31
0.0
  0
DIMENSION
  5
2873
330
1E
100
AcDbEntity
  8
BEM
100
AcDbDimension
  2
*D13
 10
131.5638008386675
 20
446.7662374086662
 30
0.0
 11
125.0638008386675
 21
498.5162374086662
 31
0.0
 70
    32
  1
min.150-max.250
 71
     5
 42
103.4999999999999
  3
Standard
100
AcDbAlignedDimension
 13
151.8857528736541
 23
550.2662374086662
 33
0.0
 14
181.8857528736541
 24
446.7662374086662
 34
0.0
 50
90.0
100
AcDbRotatedDimension
1001
ACAD
1000
DSTYLE
1002
{
1070
    40
1040
2.0
1070
    41
1040
3.5
1070
    42
1040
1.0
1070
    43
1040
7.0
1070
    44
1040
1.0
1070
    73
1070
     0
1070
    74
1070
     0
1070
    77
1070
     1
1070
    78
1070
     8
1070
    79
1070
     2
1070
   140
1040
3.5
1070
   141
1040
1.5
1070
   146
1040
0.5142857142857144
1070
   147
1040
1.5
1070
   172
1070
     1
1070
   178
1070
     1
1070
   179
1070
     2
1070
   271
1070
     2
1070
   272
1070
     2
1070
   284
1070
     8
1070
   285
1070
     8
1070
   286
1070
     8
1002
}
  0
LINE
  5
2877
330
1E
100
AcDbEntity
  8
STEMPEL
100
AcDbLine
 10
186.8857528736539
 20
426.2662374086662
 30
0.0
 11
181.8857528736539
 21
426.2662374086662
 31
0.0
  0
POINT
  5
2878
330
1E
100
AcDbEntity
  8
STEMPEL
100
AcDbPoint
 10
185.7422727012833
 20
421.4742396458023
 30
0.0
  0
LINE
  5
2879
330
1E
100
AcDbEntity
  8
STEMPEL
100
AcDbLine
 10
185.3857528736541
 20
420.3662374086661
 30
0.0
 11
185.3857528736541
 21
412.2662374086663
 31
0.0
  0
LINE
  5
287A
330
1E
100
AcDbEntity
  8
STEMPEL
100
AcDbLine
 10
187.285752873654
 20
422.2662374086662
 30
0.0
 11
187.7483396721827
 21
422.2662374086662
 31
0.0
  0
ARC
  5
287B
330
1E
100
AcDbEntity
  8
STEMPEL
100
AcDbCircle
 10
187.285752873654
 20
420.3662374086662
 30
0.0
 40
1.9
100
AcDbArc
 50
90.0
 51
180.0
  0
LINE
  5
287C
330
1E
100
AcDbEntity
  8
STEMPEL
100
AcDbLine
 10
181.8857528736539
 20
413.2662374086658
 30
0.0
 11
182.8857528736539
 21
412.2662374086657
 31
0.0
  0
LINE
  5
287D
330
1E
100
AcDbEntity
  8
STEMPEL
100
AcDbLine
 10
181.8857528736539
 20
426.2662374086662
 30
0.0
 11
181.8857528736539
 21
413.2662374086658
 31
0.0
  0
LINE
  5
287E
330
1E
100
AcDbEntity
  8
STEMPEL
100
AcDbLine
 10
200.8857528736541
 20
422.2662374086662
 30
0.0
 11
192.3857528736539
 21
422.2662374086662
 31
0.0
  0
LINE
  5
287F
330
1E
100
AcDbEntity
  8
STEMPEL
100
AcDbLine
 10
198.8107528736541
 20
424.2662374086662
 30
0.0
 11
200.8857528736541
 21
424.2662374086662
 31
0.0
  0
LINE
  5
2880
330
1E
100
AcDbEntity
  8
STEMPEL
100
AcDbLine
 10
192.3857528736541
 20
424.2662374086662
 30
0.0
 11
198.8107528736541
 21
424.2662374086662
 31
0.0
  0
LINE
  5
2881
330
1E
100
AcDbEntity
  8
STEMPEL
100
AcDbLine
 10
198.8107528736541
 20
424.2662374086662
 30
0.0
 11
200.8857528736541
 21
424.2662374086662
 31
0.0
  0
LINE
  5
2882
330
1E
100
AcDbEntity
  8
STEMPEL
100
AcDbLine
 10
196.885752873655
 20
429.7662374086662
 30
0.0
 11
191.8857528736541
 21
429.7662374086662
 31
0.0
  0
LINE
  5
2883
330
1E
100
AcDbEntity
  8
STEMPEL
100
AcDbLine
 10
192.3857528736541
 20
424.2662374086662
 30
0.0
 11
198.8107528736541
 21
424.2662374086662
 31
0.0
  0
LINE
  5
2884
330
1E
100
AcDbEntity
  8
STEMPEL
100
AcDbLine
 10
192.3857528736541
 20
426.2662374086662
 30
0.0
 11
192.3857528736541
 21
424.2662374086662
 31
0.0
  0
LINE
  5
2885
330
1E
100
AcDbEntity
  8
STEMPEL
100
AcDbLine
 10
191.8857528736541
 20
429.7662374086662
 30
0.0
 11
196.885752873655
 21
429.7662374086662
 31
0.0
  0
LINE
  5
2886
330
1E
100
AcDbEntity
  8
STEMPEL
100
AcDbLine
 10
192.3857528736541
 20
424.2662374086662
 30
0.0
 11
192.3857528736541
 21
426.2662374086662
 31
0.0
  0
LINE
  5
2887
330
1E
100
AcDbEntity
  8
STEMPEL
100
AcDbLine
 10
193.0862216548673
 20
421.2063049626472
 30
0.0
 11
194.7822591573645
 21
422.2662374086662
 31
0.0
  0
ARC
  5
2888
330
1E
100
AcDbEntity
  8
STEMPEL
100
AcDbCircle
 10
171.8857528736541
 20
407.9571493874118
 30
0.0
 40
27.0
100
AcDbArc
 50
0.0
 51
32.00317268118462
  0
ARC
  5
2889
330
1E
100
AcDbEntity
  8
STEMPEL
100
AcDbCircle
 10
171.8857528736541
 20
407.9571493874118
 30
0.0
 40
25.0
100
AcDbArc
 50
0.0
 51
32.00317268118462
  0
POINT
  5
288A
330
1E
100
AcDbEntity
  8
STEMPEL
100
AcDbPoint
 10
191.8857528736541
 20
412.2662374086663
 30
0.0
  0
POINT
  5
288B
330
1E
100
AcDbEntity
  8
STEMPEL
100
AcDbPoint
 10
189.5835987421321
 20
420.8579935943608
 30
0.0
  0
POINT
  5
288C
330
1E
100
AcDbEntity
  8
STEMPEL
100
AcDbPoint
 10
191.8857528736541
 20
412.2662374086657
 30
0.0
  0
LINE
  5
288D
330
1E
100
AcDbEntity
  8
STEMPEL
100
AcDbLine
 10
189.5835987421321
 20
420.8579935943608
 30
0.0
 11
191.8857528736541
 21
412.2662374086663
 31
0.0
  0
LINE
  5
288E
330
1E
100
AcDbEntity
  8
STEMPEL
100
AcDbLine
 10
192.3857528736539
 20
426.2662374086658
 30
0.0
 11
192.3857528736541
 21
422.2662374086658
 31
0.0
  0
ARC
  5
288F
330
1E
100
AcDbEntity
  8
STEMPEL
100
AcDbCircle
 10
171.0751181674882
 20
409.1950152615077
 30
0.0
 40
25.0
100
AcDbArc
 50
7.056548564393372
 51
31.52354387398621
  0
LINE
  5
2890
330
1E
100
AcDbEntity
  8
STEMPEL
100
AcDbLine
 10
186.8857528736541
 20
426.2662374086662
 30
0.0
 11
192.3857528736541
 21
426.2662374086662
 31
0.0
  0
LINE
  5
2891
330
1E
100
AcDbEntity
  8
STEMPEL
100
AcDbLine
 10
182.2616950906576
 20
426.2662374086662
 30
0.0
 11
192.3857528736541
 21
426.2662374086662
 31
0.0
  0
LINE
  5
2892
330
1E
100
AcDbEntity
  8
STEMPEL
100
AcDbLine
 10
196.5115880965472
 20
412.2662374086657
 30
0.0
 11
182.8857528736539
 21
412.2662374086657
 31
0.0
  0
ARC
  5
2893
330
1E
100
AcDbEntity
  8
STEMPEL
100
AcDbCircle
 10
187.7483396721827
 20
420.3662374086662
 30
0.0
 40
1.9
100
AcDbArc
 50
15.00000000000115
 51
90.0
  0
ARC
  5
2894
330
1E
100
AcDbEntity
  8
STEMPEL
100
AcDbCircle
 10
210.8857528736539
 20
265.2711230522726
 30
0.0
 40
14.0
100
AcDbArc
 50
180.0
 51
204.2277453179511
  0
ARC
  5
2895
330
1E
100
AcDbEntity
  8
STEMPEL
100
AcDbCircle
 10
210.8857528736539
 20
265.2711230522726
 30
0.0
 40
12.0
100
AcDbArc
 50
180.0
 51
204.2277453179511
  0
LINE
  5
2896
330
1E
100
AcDbEntity
  8
STEMPEL
100
AcDbLine
 10
196.8857528736539
 20
265.2711230522725
 30
0.0
 11
196.8857528736541
 21
407.9571493874118
 31
0.0
  0
LINE
  5
2897
330
1E
100
AcDbEntity
  8
STEMPEL
100
AcDbLine
 10
198.8857528736539
 20
265.2711230522725
 30
0.0
 11
198.8857528736539
 21
407.9571493874118
 31
0.0
  0
LINE
  5
2899
330
1E
100
AcDbEntity
  8
HILF
100
AcDbLine
 10
198.8107528736541
 20
424.2662374086662
 30
0.0
 11
198.8107528736541
 21
448.691237408665
 31
0.0
  0
LINE
  5
289A
330
1E
100
AcDbEntity
  8
STEMPEL
100
AcDbLine
 10
200.8857528736541
 20
453.9508932806609
 30
0.0
 11
200.8857528736541
 21
288.9508932806609
 31
0.0
  0
LINE
  5
289B
330
1E
100
AcDbEntity
  8
STEMPEL
100
AcDbLine
 10
186.8857528736541
 20
443.2662374086658
 30
0.0
 11
186.8857528736541
 21
426.2662374086662
 31
0.0
  0
LINE
  5
289C
330
1E
100
AcDbEntity
  8
STEMPEL
100
AcDbLine
 10
186.8857528736541
 20
443.2662374086658
 30
0.0
 11
186.8857528736541
 21
426.2662374086662
 31
0.0
  0
LINE
  5
289D
330
1E
100
AcDbEntity
  8
STEMPEL
100
AcDbLine
 10
191.8857528736541
 20
429.7662374086662
 30
0.0
 11
191.8857528736541
 21
446.7662374086662
 31
0.0
  0
LINE
  5
289E
330
1E
100
AcDbEntity
  8
STEMPEL
100
AcDbLine
 10
196.885752873655
 20
446.7662374086662
 30
0.0
 11
196.885752873655
 21
429.7662374086662
 31
0.0
  0
LINE
  5
289F
330
1E
100
AcDbEntity
  8
STEMPEL
100
AcDbLine
 10
198.8107528736541
 20
424.2662374086662
 30
0.0
 11
198.8107528736541
 21
448.691237408665
 31
0.0
  0
LINE
  5
28A0
330
1E
100
AcDbEntity
  8
STEMPEL
100
AcDbLine
 10
191.8857528736541
 20
429.7662374086662
 30
0.0
 11
191.8857528736541
 21
446.7662374086662
 31
0.0
  0
LINE
  5
28A1
330
1E
100
AcDbEntity
  8
STEMPEL
100
AcDbLine
 10
196.885752873655
 20
429.7662374086662
 30
0.0
 11
196.885752873655
 21
446.7662374086662
 31
0.0
  0
LINE
  5
28A2
330
1E
100
AcDbEntity
  8
STEMPEL
100
AcDbLine
 10
186.8857528736541
 20
443.2662374086658
 30
0.0
 11
186.8857528736541
 21
426.2662374086662
 31
0.0
  0
LINE
  5
28A3
330
1E
100
AcDbEntity
  8
STEMPEL
100
AcDbLine
 10
182.2616950906576
 20
443.2662374086662
 30
0.0
 11
182.2616950906576
 21
426.2662374086662
 31
0.0
  0
DIMENSION
  5
28A4
330
1E
100
AcDbEntity
  8
BEM
100
AcDbDimension
  2
*D9
 10
131.5638008386675
 20
550.2662374086662
 30
0.0
 11
125.0638008386674
 21
670.32946961399
 31
0.0
 70
    32
  1
460
 71
     5
 42
240.1264644106475
  3
Standard
100
AcDbAlignedDimension
 13
201.1789970357294
 23
790.3927018193138
 33
0.0
 14
151.8857528736541
 24
550.2662374086662
 34
0.0
 50
90.0
100
AcDbRotatedDimension
1001
ACAD
1000
DSTYLE
1002
{
1070
    40
1040
2.0
1070
    41
1040
3.5
1070
    42
1040
1.0
1070
    43
1040
7.0
1070
    44
1040
1.0
1070
    73
1070
     0
1070
    74
1070
     0
1070
    77
1070
     1
1070
    78
1070
     8
1070
    79
1070
     2
1070
   140
1040
3.5
1070
   141
1040
1.5
1070
   146
1040
0.5142857142857144
1070
   147
1040
1.5
1070
   172
1070
     1
1070
   178
1070
     1
1070
   179
1070
     2
1070
   271
1070
     2
1070
   272
1070
     2
1070
   284
1070
     8
1070
   285
1070
     8
1070
   286
1070
     8
1002
}
  0
ARC
  5
28A5
330
1E
100
AcDbEntity
  8
STEMPEL
100
AcDbCircle
 10
222.8857528736544
 20
759.6257018193134
 30
0.0
 40
24.99990931069965
100
AcDbArc
 50
180.0
 51
206.8877706590188
  0
LINE
  5
28A6
330
1E
100
AcDbEntity
  8
STEMPEL
100
AcDbLine
 10
315.8857528736544
 20
777.7879503567426
 30
0.0
 11
315.8857528736544
 21
759.6257018193134
 31
0.0
  0
LINE
  5
28A7
330
1E
100
AcDbEntity
  8
STEMPEL
100
AcDbLine
 10
312.5925087115795
 20
790.3927018193138
 30
0.0
 11
313.5434475495706
 21
788.3534069002601
 31
0.0
  0
ARC
  5
28A8
330
1E
100
AcDbEntity
  8
STEMPEL
100
AcDbCircle
 10
290.8857528736544
 20
777.7879503567426
 30
0.0
 40
25.0
100
AcDbArc
 50
0.0
 51
24.99999999999272
  0
ARC
  5
28A9
330
1E
100
AcDbEntity
  8
SCHRAFF
100
AcDbCircle
 10
211.9304101666719
 20
608.9971416550143
 30
0.0
 40
7.103346273795855
100
AcDbArc
 50
146.4776558506138
 51
211.6838577275708
  0
ARC
  5
28AA
330
1E
100
AcDbEntity
  8
SCHRAFF
100
AcDbCircle
 10
223.2683840633379
 20
608.1109995470237
 30
0.0
 40
8.717801077182686
100
AcDbArc
 50
146.5206905241454
 51
199.0453524624751
  0
ARC
  5
28AB
330
1E
100
AcDbEntity
  8
SCHRAFF
100
AcDbCircle
 10
218.8377249624616
 20
608.1109995470237
 30
0.0
 40
8.717801077182686
100
AcDbArc
 50
146.5206905241454
 51
199.0453524624751
  0
LINE
  5
28AC
330
1E
100
AcDbEntity
  8
STEMPEL
100
AcDbLine
 10
205.8857528736544
 20
605.2662374086662
 30
0.0
 11
205.8857528736544
 21
597.9607990620093
 31
0.0
  0
LINE
  5
28AD
330
1E
100
AcDbEntity
  8
STEMPEL
100
AcDbLine
 10
206.3749697921484
 20
611.0359192034284
 30
0.0
 11
207.8857528736541
 21
605.2662374086662
 31
0.0
  0
ARC
  5
28AE
330
1E
100
AcDbEntity
  8
STEMPEL
100
AcDbCircle
 10
220.8857528736542
 20
614.8355473906958
 30
0.0
 40
15.0
100
AcDbArc
 50
180.0
 51
194.6733816365808
  0
ARC
  5
28AF
330
1E
100
AcDbEntity
  8
STEMPEL
100
AcDbCircle
 10
197.8857528736544
 20
624.232244888798
 30
0.0
 40
8.0
100
AcDbArc
 50
0.0
 51
34.30115275678971
  0
LINE
  5
28B0
330
1E
100
AcDbEntity
  8
STEMPEL
100
AcDbLine
 10
205.8857528736545
 20
624.232244888798
 30
0.0
 11
205.8857528736545
 21
614.8355473906958
 31
0.0
  0
LINE
  5
28B1
330
1E
100
AcDbEntity
  8
STEMPEL
100
AcDbLine
 10
205.8857528736543
 20
620.2662374086663
 30
0.0
 11
205.8857528736543
 21
614.8355473906958
 31
0.0
  0
ARC
  5
28B2
330
1E
100
AcDbEntity
  8
SCHRAFF
100
AcDbCircle
 10
240.4371900865239
 20
608.1109995470237
 30
0.0
 40
8.717801077182686
100
AcDbArc
 50
146.5206905241454
 51
199.0453524624751
  0
ARC
  5
28B3
330
1E
100
AcDbEntity
  8
SCHRAFF
100
AcDbCircle
 10
236.2834461758071
 20
608.1109995470237
 30
0.0
 40
8.717801077182686
100
AcDbArc
 50
146.5206905241454
 51
199.0453524624751
  0
ARC
  5
28B4
330
1E
100
AcDbEntity
  8
SCHRAFF
100
AcDbCircle
 10
232.1297022650901
 20
608.1109995470237
 30
0.0
 40
8.717801077182686
100
AcDbArc
 50
146.5206905241454
 51
199.0453524624751
  0
ARC
  5
28B5
330
1E
100
AcDbEntity
  8
SCHRAFF
100
AcDbCircle
 10
227.8375007592936
 20
608.1109995470237
 30
0.0
 40
8.717801077182686
100
AcDbArc
 50
146.5206905241454
 51
199.0453524624751
  0
ARC
  5
28B6
330
1E
100
AcDbEntity
  8
SCHRAFF
100
AcDbCircle
 10
245.0063067824796
 20
608.1109995470237
 30
0.0
 40
8.717801077182686
100
AcDbArc
 50
146.5206905241454
 51
199.0453524624751
  0
ARC
  5
28B7
330
1E
100
AcDbEntity
  8
SCHRAFF
100
AcDbCircle
 10
253.4522521989932
 20
608.1109995470237
 30
0.0
 40
8.717801077182686
100
AcDbArc
 50
146.5206905241454
 51
199.0453524624751
  0
ARC
  5
28B8
330
1E
100
AcDbEntity
  8
SCHRAFF
100
AcDbCircle
 10
249.2985082882762
 20
608.1109995470237
 30
0.0
 40
8.717801077182686
100
AcDbArc
 50
146.5206905241454
 51
199.0453524624751
  0
ARC
  5
28B9
330
1E
100
AcDbEntity
  8
SCHRAFF
100
AcDbCircle
 10
265.9134839311439
 20
608.1109995470237
 30
0.0
 40
8.717801077182686
100
AcDbArc
 50
146.5206905241454
 51
199.0453524624751
  0
ARC
  5
28BA
330
1E
100
AcDbEntity
  8
SCHRAFF
100
AcDbCircle
 10
261.759740020427
 20
608.1109995470237
 30
0.0
 40
8.717801077182686
100
AcDbArc
 50
146.5206905241454
 51
199.0453524624751
  0
ARC
  5
28BB
330
1E
100
AcDbEntity
  8
SCHRAFF
100
AcDbCircle
 10
257.6059961097101
 20
608.1109995470237
 30
0.0
 40
8.717801077182686
100
AcDbArc
 50
146.5206905241454
 51
199.0453524624751
  0
LINE
  5
28BC
330
1E
100
AcDbEntity
  8
HILF
100
AcDbLine
 10
207.7707572232615
 20
612.9200508783774
 30
0.0
 11
256.8857528736544
 21
612.9200508783774
 31
0.0
  0
LINE
  5
28BD
330
1E
100
AcDbEntity
  8
STEMPEL
100
AcDbLine
 10
210.0431060921605
 20
597.0273037443575
 30
0.0
 11
211.9083016902648
 21
589.9041202656771
 31
0.0
  0
LINE
  5
28BE
102
{ACAD_REACTORS
330
2CB9
102
}
330
1E
100
AcDbEntity
  8
STEMPEL
100
AcDbLine
 10
216.8857528736544
 20
544.4758336280933
 30
0.0
 11
216.8857528736542
 21
530.2662374086662
 31
0.0
  0
LINE
  5
28BF
102
{ACAD_REACTORS
330
2CB9
102
}
330
1E
100
AcDbEntity
  8
STEMPEL
100
AcDbLine
 10
214.8857528736544
 20
544.7538905436113
 30
0.0
 11
214.8857528736542
 21
530.2662374086662
 31
0.0
  0
LWPOLYLINE
  5
28C0
330
1E
100
AcDbEntity
  8
STEMPEL
100
AcDbPolyline
 90
        4
 70
     0
 43
0.0
 10
209.938538891556
 20
555.2662374086662
 42
0.034526994685778
 10
210.0801271157918
 20
553.2182828109825
 42
0.0464276344868177
 10
210.429755055515
 20
551.7307035027333
 42
0.0569648930389204
 10
210.8061175895853
 20
550.9259141914676
 42
0.2262769562435221
  0
LWPOLYLINE
  5
28C1
330
1E
100
AcDbEntity
  8
STEMPEL
100
AcDbPolyline
 90
        5
 70
     0
 43
0.0
 10
209.7678967155787
 20
550.2662374086662
 42
0.1946374076670043
 10
210.4676955537586
 20
550.549377886899
 42
0.0996739220583098
 10
211.2813915876647
 20
551.7307035027333
 42
0.0573087403535078
 10
211.7293332477623
 20
553.2318656046045
 42
0.0439013926780003
 10
211.9083016902648
 20
555.2662374086662
 42
0.0439013926779672
  0
LWPOLYLINE
  5
28C2
330
1E
100
AcDbEntity
  8
STEMPEL
100
AcDbPolyline
 90
        5
 70
     0
 43
0.0
 10
208.0814673666139
 20
555.2662374086662
 42
0.0347164163935535
 10
208.2238170984067
 20
553.218529401086
 42
0.046657234759923
 10
208.5754110869336
 20
551.7307035027333
 42
0.0897609786521566
 10
209.2471040782423
 20
550.5137772622552
 42
0.2255649566365662
 10
209.7678967155787
 20
550.2662374086662
 42
0.2255649566364823
  0
LINE
  5
28C3
330
1E
100
AcDbEntity
  8
STEMPEL
100
AcDbLine
 10
209.938538891556
 20
555.2662374086662
 30
0.0
 11
209.938538891556
 21
595.2662374086663
 31
0.0
  0
LINE
  5
28C4
330
1E
100
AcDbEntity
  8
STEMPEL
100
AcDbLine
 10
208.0814673666139
 20
555.2662374086662
 30
0.0
 11
208.0814673666139
 21
595.2662374086663
 31
0.0
  0
LINE
  5
28C5
330
1E
100
AcDbEntity
  8
STEMPEL
100
AcDbLine
 10
211.9083016902648
 20
555.2662374086662
 30
0.0
 11
211.9083016902648
 21
595.2662374086663
 31
0.0
  0
LINE
  5
28C6
330
1E
100
AcDbEntity
  8
STEMPEL
100
AcDbLine
 10
217.461502077869
 20
555.2662374086662
 30
0.0
 11
217.461502077869
 21
595.2662374086663
 31
0.0
  0
LINE
  5
28C7
330
1E
100
AcDbEntity
  8
HILF
100
AcDbLine
 10
224.5325698897343
 20
582.3437996184607
 30
0.0
 11
218.8828430884935
 21
582.3437996184607
 31
0.0
  0
LWPOLYLINE
  5
28C8
330
1E
100
AcDbEntity
  8
STEMPEL
100
AcDbPolyline
 90
        5
 70
     0
 43
0.0
 10
218.8828430884935
 20
555.2662374086662
 42
0.0678714651261374
 10
219.1540205032318
 20
553.2777122915685
 42
0.0801414130830183
 10
219.8654053816056
 20
551.7307035027333
 42
0.1070947598812462
 10
221.0306377227941
 20
550.6087728094621
 42
0.0641139117469334
 10
221.5652028805534
 20
550.366812407296
 42
0.1391609519102831
  0
LWPOLYLINE
  5
28C9
330
1E
100
AcDbEntity
  8
STEMPEL
100
AcDbPolyline
 90
        5
 70
     0
 43
0.0
 10
220.8233070331405
 20
550.2662374086662
 42
0.1280001435432668
 10
222.1817929183992
 20
550.6198030172186
 42
0.1062214317046736
 10
223.4461519522413
 20
551.7307035027333
 42
0.0852403443595585
 10
224.2362464074529
 20
553.2930830691052
 42
0.0746701075953954
 10
224.5325698897343
 20
555.2662374086662
 42
0.0746701075953857
  0
LINE
  5
28CA
330
1E
100
AcDbEntity
  8
STEMPEL
100
AcDbLine
 10
218.8828430884935
 20
555.2662374086662
 30
0.0
 11
218.8828430884935
 21
595.2662374086663
 31
0.0
  0
LINE
  5
28CB
330
1E
100
AcDbEntity
  8
STEMPEL
100
AcDbLine
 10
224.5325698897343
 20
555.2662374086662
 30
0.0
 11
224.5325698897343
 21
595.2662374086663
 31
0.0
  0
LINE
  5
28CC
330
1E
100
AcDbEntity
  8
STEMPEL
100
AcDbLine
 10
232.8435215910586
 20
555.2662374086662
 30
0.0
 11
232.8435215910586
 21
595.2662374086663
 31
0.0
  0
LWPOLYLINE
  5
28CD
330
1E
100
AcDbEntity
  8
STEMPEL
100
AcDbPolyline
 90
        5
 70
     0
 43
0.0
 10
217.461502077869
 20
555.2662374086662
 42
0.0680091074726458
 10
217.7331932448358
 20
553.2780145035498
 42
0.0802506873074188
 10
218.4461519522413
 20
551.7307035027333
 42
0.1070861376092301
 10
219.6133851429997
 20
550.609015560814
 42
0.1389193076588219
 10
220.8233070331405
 20
550.2662374086662
 42
0.1389193076588268
  0
LINE
  5
28CE
330
1E
100
AcDbEntity
  8
STEMPEL
100
AcDbLine
 10
205.8857528736541
 20
548.2662374086662
 30
0.0
 11
205.8857528736541
 21
479.1702954590043
 31
0.0
  0
LINE
  5
28CF
330
1E
100
AcDbEntity
  8
STEMPEL
100
AcDbLine
 10
207.8857528736541
 20
545.9941650967699
 30
0.0
 11
207.8857528736541
 21
480.7058119838615
 31
0.0
  0
LINE
  5
28D0
330
1E
100
AcDbEntity
  8
HILF
100
AcDbLine
 10
242.0823169161715
 20
582.3437996184607
 30
0.0
 11
233.6127458029864
 21
582.3437996184607
 31
0.0
  0
LWPOLYLINE
  5
28D1
330
1E
100
AcDbEntity
  8
STEMPEL
100
AcDbPolyline
 90
        5
 70
     0
 43
0.0
 10
233.6127458029864
 20
555.2662374086662
 42
0.0898400221833224
 10
233.9634398398873
 20
553.3302210522552
 42
0.0944770720223859
 10
234.937068023075
 20
551.7307035027333
 42
0.1018709584481127
 10
236.4267393038183
 20
550.638694278452
 42
0.107796033393048
 10
238.1342646877649
 20
550.2662374086662
 42
0.107796033393061
  0
LWPOLYLINE
  5
28D2
330
1E
100
AcDbEntity
  8
STEMPEL
100
AcDbPolyline
 90
        5
 70
     0
 43
0.0
 10
237.3688978230346
 20
550.2662374086662
 42
0.1038718110768174
 10
239.1590049023555
 20
550.6421768810928
 42
0.100559581367275
 10
240.7017884263658
 20
551.7307035027333
 42
0.0962044251214297
 10
241.7194397892515
 20
553.3392461231382
 42
0.0933361443398568
 10
242.0823169161715
 20
555.2662374086662
 42
0.0933361443398714
  0
LINE
  5
28D3
330
1E
100
AcDbEntity
  8
STEMPEL
100
AcDbLine
 10
233.6127458029862
 20
555.2662374086662
 30
0.0
 11
233.6127458029864
 21
595.2662374086663
 31
0.0
  0
LINE
  5
28D4
330
1E
100
AcDbEntity
  8
STEMPEL
100
AcDbLine
 10
242.0823169161715
 20
555.2662374086662
 30
0.0
 11
242.0823169161715
 21
595.2662374086663
 31
0.0
  0
LINE
  5
28D5
330
1E
100
AcDbEntity
  8
HILF
100
AcDbLine
 10
261.8857528736544
 20
582.3437996184607
 30
0.0
 11
251.8857528736542
 21
582.3437996184607
 31
0.0
  0
ARC
  5
28D6
330
1E
100
AcDbEntity
  8
STEMPEL
100
AcDbCircle
 10
256.8857528736542
 20
555.2662374086662
 30
0.0
 40
5.0
100
AcDbArc
 50
180.0
 51
0.0
  0
LINE
  5
28D7
330
1E
100
AcDbEntity
  8
STEMPEL
100
AcDbLine
 10
261.8857528736544
 20
555.2662374086662
 30
0.0
 11
261.8857528736544
 21
595.2662374086663
 31
0.0
  0
LINE
  5
28D8
330
1E
100
AcDbEntity
  8
STEMPEL
100
AcDbLine
 10
251.8857528736542
 20
555.2662374086662
 30
0.0
 11
251.8857528736542
 21
595.2662374086663
 31
0.0
  0
LWPOLYLINE
  5
28D9
330
1E
100
AcDbEntity
  8
STEMPEL
100
AcDbPolyline
 90
        5
 70
     0
 43
0.0
 10
232.8435215910586
 20
555.2662374086662
 42
0.0899106392812953
 10
233.1944630075406
 20
553.3304018064686
 42
0.0945134029505367
 10
234.1689736019841
 20
551.7307035027333
 42
0.1018453269126725
 10
235.6597125466064
 20
550.6387673952048
 42
0.1077144041550089
 10
237.3688978230346
 20
550.2662374086662
 42
0.1077144041550036
  0
LINE
  5
28DA
330
1E
100
AcDbEntity
  8
STEMPEL
100
AcDbLine
 10
205.8857528736541
 20
605.2662374086662
 30
0.0
 11
205.8857528736541
 21
550.2662374086662
 31
0.0
  0
LWPOLYLINE
  5
28DB
330
1E
100
AcDbEntity
  8
STEMPEL
100
AcDbPolyline
 90
        4
 70
     0
 43
0.0
 10
210.8061175895853
 20
599.6065606258643
 42
0.056964893038902
 10
210.429755055515
 20
598.8017713145986
 42
0.0464276344868347
 10
210.0801271157918
 20
597.3141920063494
 42
0.0345269946857819
 10
209.938538891556
 20
595.2662374086663
 42
0.0345269946857709
  0
LWPOLYLINE
  5
28DC
330
1E
100
AcDbEntity
  8
STEMPEL
100
AcDbPolyline
 90
        5
 70
     0
 43
0.0
 10
221.5652028805534
 20
600.1656624100364
 42
0.0641139117469442
 10
221.0306377227941
 20
599.9237020078699
 42
0.1070947598812344
 10
219.8654053816056
 20
598.8017713145986
 42
0.0801414130830311
 10
219.1540205032318
 20
597.2547625257634
 42
0.0678714651261309
 10
218.8828430884935
 20
595.2662374086663
 42
0.0678714651260952
  0
LWPOLYLINE
  5
28DD
330
1E
100
AcDbEntity
  8
STEMPEL
100
AcDbPolyline
 90
        5
 70
     0
 43
0.0
 10
238.1342646877649
 20
600.2662374086662
 42
0.1077960333930359
 10
236.4267393038183
 20
599.89378053888
 42
0.1018709584481094
 10
234.937068023075
 20
598.8017713145986
 42
0.0944770720223779
 10
233.9634398398873
 20
597.2022537650773
 42
0.0898400221833202
 10
233.6127458029864
 20
595.2662374086663
 42
0.0898400221833173
  0
LWPOLYLINE
  5
28DE
330
1E
100
AcDbEntity
  8
STEMPEL
100
AcDbPolyline
 90
        5
 70
     0
 43
0.0
 10
209.7678967155787
 20
600.2662374086662
 42
0.2255649566364823
 10
209.247104078242
 20
600.0186975550773
 42
0.0897609786521186
 10
208.5754110869336
 20
598.8017713145986
 42
0.046657234759922
 10
208.2238170984067
 20
597.313945416246
 42
0.0347164163935399
 10
208.0814673666139
 20
595.2662374086663
 42
0.0347164163935555
  0
LWPOLYLINE
  5
28DF
330
1E
100
AcDbEntity
  8
STEMPEL
100
AcDbPolyline
 90
        5
 70
     0
 43
0.0
 10
211.9083016902648
 20
595.2662374086663
 42
0.043901392678008
 10
211.7293332477623
 20
597.3006092127279
 42
0.0573087403534992
 10
211.2813915876647
 20
598.8017713145986
 42
0.0996739220583098
 10
210.4676955537586
 20
599.9830969304334
 42
0.1946374076670043
 10
209.7678967155787
 20
600.2662374086662
 42
0.194637407667019
  0
LWPOLYLINE
  5
28E0
330
1E
100
AcDbEntity
  8
STEMPEL
100
AcDbPolyline
 90
        5
 70
     0
 43
0.0
 10
220.8233070331405
 20
600.2662374086662
 42
0.1389193076588204
 10
219.6133851429997
 20
599.923459256518
 42
0.1070861376092292
 10
218.4461519522413
 20
598.8017713145986
 42
0.0802506873074274
 10
217.7331932448358
 20
597.2544603137825
 42
0.0680091074726524
 10
217.461502077869
 20
595.2662374086663
 42
0.0680091074726542
  0
LWPOLYLINE
  5
28E1
330
1E
100
AcDbEntity
  8
STEMPEL
100
AcDbPolyline
 90
        5
 70
     0
 43
0.0
 10
224.5325698897343
 20
595.2662374086663
 42
0.0746701075953814
 10
224.2362464074531
 20
597.2393917482272
 42
0.0852403443595439
 10
223.4461519522413
 20
598.8017713145986
 42
0.106221431704672
 10
222.1817929183992
 20
599.9126718001138
 42
0.1280001435432521
 10
220.8233070331405
 20
600.2662374086662
 42
0.1280001435432617
  0
LWPOLYLINE
  5
28E2
330
1E
100
AcDbEntity
  8
STEMPEL
100
AcDbPolyline
 90
        5
 70
     0
 43
0.0
 10
242.0823169161715
 20
595.2662374086663
 42
0.0933361443398535
 10
241.7194397892515
 20
597.1932286941937
 42
0.0962044251214492
 10
240.7017884263658
 20
598.8017713145986
 42
0.1005595813672714
 10
239.1590049023555
 20
599.8902979362392
 42
0.1038718110768053
 10
237.3688978230346
 20
600.2662374086662
 42
0.1038718110768142
  0
LWPOLYLINE
  5
28E3
330
1E
100
AcDbEntity
  8
STEMPEL
100
AcDbPolyline
 90
        5
 70
     0
 43
0.0
 10
237.3688978230346
 20
600.2662374086662
 42
0.1077144041550071
 10
235.6597125466067
 20
599.8937074221271
 42
0.1018453269126967
 10
234.1689736019841
 20
598.8017713145986
 42
0.0945134029505288
 10
233.1944630075406
 20
597.2020730108638
 42
0.0899106392812926
 10
232.8435215910586
 20
595.2662374086663
 42
0.0899106392813071
  0
ARC
  5
28E4
330
1E
100
AcDbEntity
  8
STEMPEL
100
AcDbCircle
 10
256.8857528736542
 20
595.2662374086663
 30
0.0
 40
5.0
100
AcDbArc
 50
0.0
 51
180.0
  0
ARC
  5
28E5
330
1E
100
AcDbEntity
  8
SCHRAFF
100
AcDbCircle
 10
274.7748021328962
 20
608.1109995470237
 30
0.0
 40
8.717801077182686
100
AcDbArc
 50
146.5206905241454
 51
199.0453524624751
  0
ARC
  5
28E6
330
1E
100
AcDbEntity
  8
SCHRAFF
100
AcDbCircle
 10
278.9285460436131
 20
608.1109995470237
 30
0.0
 40
8.717801077182686
100
AcDbArc
 50
146.5206905241454
 51
199.0453524624751
  0
ARC
  5
28E7
330
1E
100
AcDbEntity
  8
SCHRAFF
100
AcDbCircle
 10
283.08228995433
 20
608.1109995470237
 30
0.0
 40
8.717801077182686
100
AcDbArc
 50
146.5206905241454
 51
199.0453524624751
  0
ARC
  5
28E8
330
1E
100
AcDbEntity
  8
SCHRAFF
100
AcDbCircle
 10
288.0667767591369
 20
608.1109995470237
 30
0.0
 40
8.717801077182686
100
AcDbArc
 50
146.5206905241454
 51
199.0453524624751
  0
ARC
  5
28E9
330
1E
100
AcDbEntity
  8
SCHRAFF
100
AcDbCircle
 10
292.497435860013
 20
608.1109995470237
 30
0.0
 40
8.717801077182686
100
AcDbArc
 50
146.5206905241454
 51
199.0453524624751
  0
ARC
  5
28EA
330
1E
100
AcDbEntity
  8
SCHRAFF
100
AcDbCircle
 10
297.6203856126751
 20
608.1109995470237
 30
0.0
 40
8.717801077182686
100
AcDbArc
 50
146.5206905241454
 51
199.0453524624751
  0
ARC
  5
28EB
330
1E
100
AcDbEntity
  8
STEMPEL
100
AcDbCircle
 10
323.8857528736544
 20
742.8927018193137
 30
0.0
 40
12.0
100
AcDbArc
 50
153.1122293409812
 51
180.0
  0
LINE
  5
28EC
330
1E
100
AcDbEntity
  8
STEMPEL
100
AcDbLine
 10
311.8857528736544
 20
742.8927018193137
 30
0.0
 11
311.8857528736544
 21
707.9274712153314
 31
0.0
  0
ARC
  5
28ED
330
1E
100
AcDbEntity
  8
SCHRAFF
100
AcDbCircle
 10
312.296944218876
 20
608.1109995470237
 30
0.0
 40
8.717801077182686
100
AcDbArc
 50
146.5206905241454
 51
186.1472812129197
  0
ARC
  5
28EE
330
1E
100
AcDbEntity
  8
SCHRAFF
100
AcDbCircle
 10
302.4664201751784
 20
608.1109995470237
 30
0.0
 40
8.717801077182686
100
AcDbArc
 50
146.5206905241454
 51
199.0453524624751
  0
ARC
  5
28EF
330
1E
100
AcDbEntity
  8
SCHRAFF
100
AcDbCircle
 10
307.4509096563727
 20
608.1109995470237
 30
0.0
 40
8.717801077182686
100
AcDbArc
 50
146.5206905241454
 51
199.0453524624751
  0
LWPOLYLINE
  5
28F0
330
1E
100
AcDbEntity
  8
STEMPEL
100
AcDbPolyline
 90
        2
 70
     0
 43
0.0
 10
292.9481987141683
 20
600.2662374086662
 42
-0.1025533367124252
 10
293.8651186008631
 20
600.0761720682057
 42
-0.1070861376092292
  0
ARC
  5
28F1
330
1E
100
AcDbEntity
  8
SCHRAFF
100
AcDbCircle
 10
301.8410955806369
 20
608.9971416550143
 30
0.0
 40
7.103346273795855
100
AcDbArc
 50
328.3161422724292
 51
33.52234414938621
  0
LINE
  5
28F2
330
1E
100
AcDbEntity
  8
STEMPEL
100
AcDbLine
 10
307.8857528736544
 20
605.2662374086662
 30
0.0
 11
307.8857528736544
 21
597.9607990620093
 31
0.0
  0
ARC
  5
28F3
330
1E
100
AcDbEntity
  8
STEMPEL
100
AcDbCircle
 10
292.8857528736541
 20
614.8355473906958
 30
0.0
 40
15.0
100
AcDbArc
 50
345.3266183634192
 51
0.0
  0
ARC
  5
28F4
330
1E
100
AcDbEntity
  8
STEMPEL
100
AcDbCircle
 10
315.8857528736544
 20
624.232244888798
 30
0.0
 40
8.0
100
AcDbArc
 50
145.6988472432103
 51
180.0
  0
ARC
  5
28F5
330
1E
100
AcDbEntity
  8
STEMPEL
100
AcDbCircle
 10
296.8857528736544
 20
637.1937262856135
 30
0.0
 40
15.0
100
AcDbArc
 50
325.6988472432103
 51
0.0
  0
LINE
  5
28F6
330
1E
100
AcDbEntity
  8
STEMPEL
100
AcDbLine
 10
307.8857528736544
 20
624.232244888798
 30
0.0
 11
307.8857528736544
 21
614.8355473906958
 31
0.0
  0
LINE
  5
28F7
330
1E
100
AcDbEntity
  8
STEMPEL
100
AcDbLine
 10
307.8857528736542
 20
605.2662374086662
 30
0.0
 11
305.8857528736544
 21
605.2662374086662
 31
0.0
  0
LINE
  5
28F8
330
1E
100
AcDbEntity
  8
STEMPEL
100
AcDbLine
 10
311.8857528736544
 20
705.9274712153319
 30
0.0
 11
311.8857528736544
 21
637.1937262856135
 31
0.0
  0
LWPOLYLINE
  5
28F9
330
1E
100
AcDbEntity
  8
STEMPEL
100
AcDbPolyline
 90
        3
 70
     0
 43
0.0
 10
292.2063028667551
 20
600.1656624100364
 42
-0.0641139117469442
 10
292.7408680245142
 20
599.9237020078699
 42
-0.0510333567642585
 10
293.3575269876144
 20
599.4499627880818
 42
-0.0801414130830311
  0
LWPOLYLINE
  5
28FA
330
1E
100
AcDbEntity
  8
STEMPEL
100
AcDbPolyline
 90
        5
 70
     0
 43
0.0
 10
276.4026079242738
 20
550.2662374086662
 42
-0.1038718110768174
 10
274.6125008449533
 20
550.6421768810928
 42
-0.100559581367275
 10
273.0697173209426
 20
551.7307035027333
 42
-0.0962044251214297
 10
272.0520659580568
 20
553.3392461231382
 42
-0.0933361443398568
 10
271.6891888311372
 20
555.2662374086662
 42
-0.0933361443398714
  0
LINE
  5
28FB
330
1E
100
AcDbEntity
  8
STEMPEL
100
AcDbLine
 10
271.6891888311372
 20
555.2662374086662
 30
0.0
 11
271.6891888311372
 21
595.2662374086663
 31
0.0
  0
LINE
  5
28FC
330
1E
100
AcDbEntity
  8
STEMPEL
100
AcDbLine
 10
289.238935857574
 20
592.1478053090709
 30
0.0
 11
289.2389358575742
 21
595.2662374086663
 31
0.0
  0
LINE
  5
28FD
330
1E
100
AcDbEntity
  8
STEMPEL
100
AcDbLine
 10
280.92798415625
 20
555.2662374086662
 30
0.0
 11
280.92798415625
 21
595.2662374086663
 31
0.0
  0
LINE
  5
28FE
330
1E
100
AcDbEntity
  8
STEMPEL
100
AcDbLine
 10
280.1587599443221
 20
555.2662374086662
 30
0.0
 11
280.1587599443221
 21
595.2662374086663
 31
0.0
  0
LWPOLYLINE
  5
28FF
330
1E
100
AcDbEntity
  8
STEMPEL
100
AcDbPolyline
 90
        5
 70
     0
 43
0.0
 10
280.92798415625
 20
555.2662374086662
 42
-0.0899106392812953
 10
280.5770427397677
 20
553.3304018064686
 42
-0.0945134029505367
 10
279.6025321453246
 20
551.7307035027333
 42
-0.1018453269126725
 10
278.1117932007021
 20
550.6387673952048
 42
-0.1077144041550089
 10
276.4026079242738
 20
550.2662374086662
 42
-0.1077144041550036
  0
LWPOLYLINE
  5
2900
330
1E
100
AcDbEntity
  8
STEMPEL
100
AcDbPolyline
 90
        5
 70
     0
 43
0.0
 10
280.1587599443221
 20
555.2662374086662
 42
-0.0898400221833224
 10
279.8080659074214
 20
553.3302210522552
 42
-0.0944770720223859
 10
278.8344377242335
 20
551.7307035027333
 42
-0.1018709584481127
 10
277.3447664434905
 20
550.638694278452
 42
-0.107796033393048
 10
275.6372410595436
 20
550.2662374086662
 42
-0.107796033393061
  0
LINE
  5
2901
330
1E
100
AcDbEntity
  8
HILF
100
AcDbLine
 10
280.1587599443221
 20
582.3437996184607
 30
0.0
 11
271.6891888311372
 21
582.3437996184607
 31
0.0
  0
ARC
  5
2902
102
{ACAD_REACTORS
330
2CB9
102
}
330
1E
100
AcDbEntity
  8
STEMPEL
100
AcDbCircle
 10
306.8857528736544
 20
581.3222014785578
 30
0.0
 40
10.0
100
AcDbArc
 50
165.3266183634192
 51
180.0
  0
LWPOLYLINE
  5
2903
330
1E
100
AcDbEntity
  8
STEMPEL
100
AcDbPolyline
 90
        2
 70
     0
 43
0.0
 10
303.8327842801014
 20
595.339953501933
 42
-0.0012383684691459
 10
303.8329668557524
 20
595.2662374086663
 42
-0.0345269946857751
  0
ARC
  5
2904
102
{ACAD_REACTORS
330
2CB9
102
}
330
1E
100
AcDbEntity
  8
STEMPEL
100
AcDbCircle
 10
306.8857528736544
 20
581.3222014785578
 30
0.0
 40
8.0
100
AcDbArc
 50
165.3266183634192
 51
180.0
  0
LWPOLYLINE
  5
2905
330
1E
100
AcDbEntity
  8
STEMPEL
100
AcDbPolyline
 90
        4
 70
     0
 43
0.0
 10
301.8632040570435
 20
555.2662374086662
 42
0.0439013926780182
 10
302.042172499546
 20
553.231865604604
 42
0.0573087403535062
 10
302.490114159644
 20
551.7307035027333
 42
0.0645744498616765
 10
302.9653881577235
 20
550.9259141914676
 42
0.1946374076670043
  0
LWPOLYLINE
  5
2906
330
1E
100
AcDbEntity
  8
STEMPEL
100
AcDbPolyline
 90
        5
 70
     0
 43
0.0
 10
300.0061325321015
 20
555.2662374086662
 42
0.044088717934643
 10
300.1858411699711
 20
553.2321646808018
 42
0.0575157024409206
 10
300.6357701910626
 20
551.7307035027333
 42
0.099824494906065
 10
301.4522915325729
 20
550.5500113633288
 42
0.1940745864117619
 10
302.1558499667074
 20
550.2662374086662
 42
0.1940745864117183
  0
LWPOLYLINE
  5
2907
330
1E
100
AcDbEntity
  8
STEMPEL
100
AcDbPolyline
 90
        5
 70
     0
 43
0.0
 10
302.1558499667074
 20
550.2662374086662
 42
0.2262769562435402
 10
302.6730732349151
 20
550.51294032259
 42
0.0894997721685157
 10
303.3417506917938
 20
551.7307035027333
 42
0.0464276344868311
 10
303.6913786315165
 20
553.2182828109831
 42
0.0345269946857776
 10
303.8329668557524
 20
555.2662374086662
 42
0.0345269946857751
  0
LINE
  5
2908
102
{ACAD_REACTORS
330
2CB9
102
}
330
1E
100
AcDbEntity
  8
STEMPEL
100
AcDbLine
 10
296.8857528736544
 20
581.3222014785578
 30
0.0
 11
296.8857528736544
 21
530.2662374086662
 31
0.0
  0
LINE
  5
2909
330
1E
100
AcDbEntity
  8
STEMPEL
100
AcDbLine
 10
300.0061325321015
 20
555.2662374086662
 30
0.0
 11
300.0061325321017
 21
586.2331032648162
 31
0.0
  0
LINE
  5
290A
330
1E
100
AcDbEntity
  8
STEMPEL
100
AcDbLine
 10
303.8329668557524
 20
555.2662374086662
 30
0.0
 11
303.8329668557524
 21
595.2662374086663
 31
0.0
  0
LINE
  5
290B
330
1E
100
AcDbEntity
  8
STEMPEL
100
AcDbLine
 10
301.8632040570435
 20
555.2662374086662
 30
0.0
 11
301.8632040570435
 21
592.4655916123752
 31
0.0
  0
LINE
  5
290C
102
{ACAD_REACTORS
330
2CB9
102
}
330
1E
100
AcDbEntity
  8
STEMPEL
100
AcDbLine
 10
298.8857528736544
 20
581.3222014785578
 30
0.0
 11
298.8857528736544
 21
530.2662374086662
 31
0.0
  0
INSERT
  5
290D
330
1E
100
AcDbEntity
  8
SCHRAFF
100
AcDbBlockReference
  2
*X2
 10
567.8414618261278
 20
198.4952855013339
 30
0.0
 41
-1.0
1001
ACAD
1000
HATCH
1002
{
1070
    16
1000
_U,I
1040
0.1
1040
2.356194490192344
1070
     0
1002
}
  0
ARC
  5
290E
330
1E
100
AcDbEntity
  8
SCHRAFF
100
AcDbCircle
 10
307.1800515284233
 20
549.5311927435741
 30
0.0
 40
4.477140827639991
100
AcDbArc
 50
279.0689661314388
 51
343.5883554091556
  0
LINE
  5
290F
330
1E
100
AcDbEntity
  8
STEMPEL
100
AcDbLine
 10
307.8857528736544
 20
519.2662374086662
 30
0.0
 11
312.8857528736544
 21
519.2662374086662
 31
0.0
  0
LINE
  5
2910
330
1E
100
AcDbEntity
  8
STEMPEL
100
AcDbLine
 10
320.8857528736542
 20
548.2662374086662
 30
0.0
 11
312.8857528736544
 21
519.2662374086662
 31
0.0
  0
LINE
  5
2911
330
1E
100
AcDbEntity
  8
STEMPEL
100
AcDbLine
 10
312.8857528736542
 20
453.9508932806611
 30
0.0
 11
307.8857528736544
 21
453.9508932806609
 31
0.0
  0
LINE
  5
2912
330
1E
100
AcDbEntity
  8
STEMPEL
100
AcDbLine
 10
316.8857528736532
 20
446.7662374086658
 30
0.0
 11
314.9607528736542
 21
448.691237408665
 31
0.0
  0
LINE
  5
2913
330
1E
100
AcDbEntity
  8
STEMPEL
100
AcDbLine
 10
314.9607528736542
 20
448.691237408665
 30
0.0
 11
313.385752873653
 21
450.2662374086662
 31
0.0
  0
LINE
  5
2914
330
1E
100
AcDbEntity
  8
STEMPEL
100
AcDbLine
 10
316.8857528736532
 20
446.7662374086658
 30
0.0
 11
314.9607528736542
 21
448.691237408665
 31
0.0
  0
LINE
  5
2915
330
1E
100
AcDbEntity
  8
STEMPEL
100
AcDbLine
 10
313.385752873653
 20
450.2662374086662
 30
0.0
 11
312.8857528736542
 21
450.2662374086662
 31
0.0
  0
LINE
  5
2916
330
1E
100
AcDbEntity
  8
STEMPEL
100
AcDbLine
 10
314.9607528736542
 20
448.691237408665
 30
0.0
 11
313.385752873653
 21
450.2662374086662
 31
0.0
  0
LINE
  5
2917
330
1E
100
AcDbEntity
  8
HILF
100
AcDbLine
 10
295.9293179016174
 20
582.3437996184607
 30
0.0
 11
286.2000461075968
 21
582.3437996184607
 31
0.0
  0
LINE
  5
2918
102
{ACAD_REACTORS
330
2CB9
102
}
330
1E
100
AcDbEntity
  8
STEMPEL
100
AcDbLine
 10
304.4139950494152
 20
607.541102484392
 30
0.0
 11
297.2118974859836
 21
583.8552869367358
 31
0.0
  0
LWPOLYLINE
  5
2919
330
1E
100
AcDbEntity
  8
STEMPEL
100
AcDbPolyline
 90
        2
 70
     0
 43
0.0
 10
303.5533079522366
 20
598.1377225408187
 42
-0.0485809373212443
 10
303.8329668557524
 20
595.2662374086663
 42
-0.0345269946857751
  0
LINE
  5
291A
102
{ACAD_REACTORS
330
2CB9
102
}
330
1E
100
AcDbEntity
  8
STEMPEL
100
AcDbLine
 10
307.3965359551603
 20
611.0359192034284
 30
0.0
 11
299.1466685635178
 21
583.3486698451001
 31
0.0
  0
LINE
  5
291B
330
1E
100
AcDbEntity
  8
STEMPEL
100
AcDbLine
 10
305.8857528736544
 20
605.2662374086662
 30
0.0
 11
305.8857528736544
 21
481.6049261129826
 31
0.0
  0
LWPOLYLINE
  5
291C
330
1E
100
AcDbEntity
  8
STEMPEL
100
AcDbPolyline
 90
        5
 70
     0
 43
0.0
 10
271.6891888311372
 20
595.2662374086663
 42
-0.0933361443398535
 10
272.0520659580568
 20
597.1932286941937
 42
-0.0962044251214492
 10
273.0697173209426
 20
598.8017713145986
 42
-0.1005595813672714
 10
274.6125008449533
 20
599.8902979362392
 42
-0.1038718110768053
 10
276.4026079242738
 20
600.2662374086662
 42
-0.1038718110768142
  0
LWPOLYLINE
  5
291D
330
1E
100
AcDbEntity
  8
STEMPEL
100
AcDbPolyline
 90
        5
 70
     0
 43
0.0
 10
276.4026079242738
 20
600.2662374086662
 42
-0.1077144041550071
 10
278.1117932007016
 20
599.8937074221271
 42
-0.1018453269126967
 10
279.6025321453246
 20
598.8017713145986
 42
-0.0945134029505288
 10
280.5770427397677
 20
597.2020730108638
 42
-0.0899106392812926
 10
280.92798415625
 20
595.2662374086663
 42
-0.0899106392813071
  0
LWPOLYLINE
  5
291E
330
1E
100
AcDbEntity
  8
STEMPEL
100
AcDbPolyline
 90
        5
 70
     0
 43
0.0
 10
275.6372410595436
 20
600.2662374086662
 42
-0.1077960333930359
 10
277.3447664434903
 20
599.89378053888
 42
-0.1018709584481094
 10
278.8344377242335
 20
598.8017713145986
 42
-0.0944770720223779
 10
279.8080659074214
 20
597.2022537650773
 42
-0.0898400221833202
 10
280.1587599443221
 20
595.2662374086663
 42
-0.0898400221833173
  0
LWPOLYLINE
  5
291F
330
1E
100
AcDbEntity
  8
STEMPEL
100
AcDbPolyline
 90
        5
 70
     0
 43
0.0
 10
289.2389358575742
 20
595.2662374086663
 42
-0.0746701075953814
 10
289.5352593398554
 20
597.2393917482272
 42
-0.0852403443595439
 10
290.325353795067
 20
598.8017713145986
 42
-0.106221431704672
 10
291.5897128289095
 20
599.9126718001138
 42
-0.1280001435432521
 10
292.9481987141683
 20
600.2662374086662
 42
-0.1280001435432617
  0
LINE
  5
2920
102
{ACAD_REACTORS
330
2CA9
102
}
330
1E
100
AcDbEntity
  8
STEMPEL
100
AcDbLine
 10
307.8857528736544
 20
605.2662374086662
 30
0.0
 11
307.8857528736544
 21
482.7266036707264
 31
0.0
  0
LINE
  5
2921
330
1E
100
AcDbEntity
  8
HILF
  6
Continuous
100
AcDbLine
 10
256.8857528736542
 20
612.9200508783774
 30
0.0
 11
306.0007485240469
 21
612.9200508783774
 31
0.0
  0
LINE
  5
2922
330
1E
100
AcDbEntity
  8
HILF
100
AcDbLine
 10
204.0571816516675
 20
635.0895018673532
 30
0.0
 11
309.7143240956413
 21
635.0895018673532
 31
0.0
  0
LINE
  5
2923
330
1E
100
AcDbEntity
  8
HILF
100
AcDbLine
 10
207.7707572232615
 20
625.7444251056531
 30
0.0
 11
306.0007485240469
 21
625.7444251056531
 31
0.0
  0
LWPOLYLINE
  5
2924
330
1E
100
AcDbEntity
  8
HILF
100
AcDbPolyline
 90
        7
 70
     0
 43
0.0
 10
205.8857528736541
 20
479.1702954590043
 42
-0.0929512992936797
 10
225.9872964440042
 20
489.8871173289864
 42
-0.1154029691580267
 10
244.3691038579102
 20
491.26174337886
 42
-0.1381456708875928
 10
262.5133538853963
 20
482.9469941530308
 42
0.1494847871479613
 10
279.5020501677277
 20
475.6139872472813
 42
0.0892966141021285
 10
292.6693982891318
 20
476.5029615441619
 42
0.0714800800702472
 10
307.8857528736544
 20
482.7266036707264
  0
LWPOLYLINE
  5
2925
330
1E
100
AcDbEntity
  8
HILF
100
AcDbPolyline
 90
        7
 70
     0
 43
0.0
 10
205.8857528736541
 20
477.1702954590036
 42
-0.0929512992936809
 10
225.9872964440042
 20
487.8871173289865
 42
-0.1154029691580267
 10
244.3691038579102
 20
489.26174337886
 42
-0.1381456708875928
 10
262.5133538853963
 20
480.9469941530307
 42
0.1494847871479613
 10
279.5020501677277
 20
473.6139872472813
 42
0.0892966141021285
 10
292.6693982891318
 20
474.502961544162
 42
0.071480080070248
 10
307.8857528736544
 20
480.7266036707272
  0
INSERT
  5
2926
330
1E
100
AcDbEntity
  8
SCHRAFF
100
AcDbBlockReference
  2
*X3
 10
-7.118753693805729
 20
215.1342866944724
 30
0.0
1001
ACAD
1000
HATCH
1002
{
1070
    16
1000
_U,I
1040
0.1
1040
0.0
1070
     0
1002
}
  0
ARC
  5
2927
330
1E
100
AcDbEntity
  8
SCHRAFF
100
AcDbCircle
 10
270.4826006270996
 20
608.1109995470237
 30
0.0
 40
8.717801077182686
100
AcDbArc
 50
146.5206905241454
 51
199.0453524624751
  0
LINE
  5
2928
330
1E
100
AcDbEntity
  8
STEMPEL
100
AcDbLine
 10
300.2539265605219
 20
605.2662374086662
 30
0.0
 11
205.8857528736544
 21
605.2662374086662
 31
0.0
  0
LINE
  5
2929
102
{ACAD_REACTORS
330
2CB9
102
}
330
1E
100
AcDbEntity
  8
STEMPEL
100
AcDbLine
 10
298.8857528736544
 20
530.2662374086662
 30
0.0
 11
214.8857528736542
 21
530.2662374086662
 31
0.0
  0
LWPOLYLINE
  5
292A
102
{ACAD_REACTORS
330
2CB9
102
}
330
1E
100
AcDbEntity
  8
HILF
100
AcDbPolyline
 90
       49
 70
     0
 43
0.0
 10
306.7669332270741
 20
608.6314658820747
 10
303.1965447778596
 20
606.9769298991505
 10
299.4147632701645
 20
604.7783894334693
 10
296.4216831954225
 20
602.5691848027849
 10
294.0985793984867
 20
600.3641896677899
 10
292.3267267242102
 20
598.1782776891764
 10
290.9874000174468
 20
596.0263225276366
 10
289.9618741230495
 20
593.9231978438638
 10
289.1314238858711
 20
591.8837772985503
 10
288.3966438428558
 20
589.9151703171473
 10
287.7354072993082
 20
587.9934293841406
 10
287.1449072526236
 20
586.0868427487743
 10
286.6223367001974
 20
584.163698660293
 10
286.1648886394248
 20
582.1922853679406
 10
285.7697560677011
 20
580.1408911209623
 10
285.4341319824214
 20
577.9778041686022
 10
285.1552093809812
 20
575.6713127601042
 10
284.9268128552919
 20
573.2039707538074
 10
284.7292933753304
 20
570.6153944444272
 10
284.5396335055891
 20
567.9594657357743
 10
284.3348158105616
 20
565.2900665316583
 10
284.09182285474
 20
562.6610787358895
 10
283.7876372026176
 20
560.126384252278
 10
283.3992414186873
 20
557.739864984634
 10
282.9036180674423
 20
555.5554028367683
 10
282.2813052526094
 20
553.6150930460312
 10
281.5270632348554
 20
551.9138841839413
 10
280.6392078140809
 20
550.4349381555575
 10
279.6160547901866
 20
549.1614168659394
 10
278.4559199630733
 20
548.0764822201467
 10
277.1571191326418
 20
547.1632961232385
 10
275.7179680987927
 20
546.4050204802738
 10
274.1367826614271
 20
545.7848171963123
 10
272.4048143257189
 20
545.2854739986933
 10
270.4850574179361
 20
544.8882819038776
 10
268.3334419696191
 20
544.5741577506059
 10
265.9058980123088
 20
544.3240183776192
 10
263.1583555775467
 20
544.118780623658
 10
260.046744696873
 20
543.9393613274632
 10
256.5269954018293
 20
543.7666773277761
 10
252.5550377239558
 20
543.5816454633372
 10
248.0998373873131
 20
543.3788793340027
 10
243.1825028860355
 20
543.2077795840932
 10
237.837178406777
 20
543.1314436190445
 10
232.0980081361915
 20
543.2129688442923
 10
225.9991362609328
 20
543.5154526652723
 10
219.5747069676543
 20
544.1019924874203
 10
212.8588644430104
 20
545.0356857161728
 10
205.8857528736541
 20
546.3796297569647
  0
POINT
  5
292B
330
1E
100
AcDbEntity
  8
STEMPEL
100
AcDbPoint
 10
206.7606395089135
 20
266.9508932806609
 30
0.0
  0
LINE
  5
292C
330
1E
100
AcDbEntity
  8
STEMPEL
100
AcDbLine
 10
207.8857528736541
 20
276.9508932806609
 30
0.0
 11
208.7606395089135
 21
266.9508932806609
 31
0.0
  0
LINE
  5
292D
330
1E
100
AcDbEntity
  8
STEMPEL
100
AcDbLine
 10
205.8857528736541
 20
276.9508932806609
 30
0.0
 11
206.7606395089135
 21
266.9508932806609
 31
0.0
  0
ARC
  5
292E
330
1E
100
AcDbEntity
  8
STEMPEL
100
AcDbCircle
 10
193.8857528736541
 20
239.6906211427177
 30
0.0
 40
14.0
100
AcDbArc
 50
0.0
 51
24.22774531795116
  0
ARC
  5
292F
330
1E
100
AcDbEntity
  8
STEMPEL
100
AcDbCircle
 10
193.8857528736541
 20
239.6906211427177
 30
0.0
 40
12.0
100
AcDbArc
 50
0.0
 51
24.22774531795116
  0
LINE
  5
2930
330
1E
100
AcDbEntity
  8
STEMPEL
100
AcDbLine
 10
321.3857528736542
 20
424.2662374086662
 30
0.0
 11
321.3857528736542
 21
426.2662374086662
 31
0.0
  0
LINE
  5
2931
330
1E
100
AcDbEntity
  8
STEMPEL
100
AcDbLine
 10
314.9607528736542
 20
424.2662374086662
 30
0.0
 11
321.3857528736542
 21
424.2662374086662
 31
0.0
  0
LINE
  5
2932
330
1E
100
AcDbEntity
  8
STEMPEL
100
AcDbLine
 10
312.8857528736542
 20
424.2662374086662
 30
0.0
 11
314.9607528736542
 21
424.2662374086662
 31
0.0
  0
LINE
  5
2933
330
1E
100
AcDbEntity
  8
STEMPEL
100
AcDbLine
 10
321.3857528736542
 20
424.2662374086662
 30
0.0
 11
321.3857528736542
 21
426.2662374086662
 31
0.0
  0
LINE
  5
2934
330
1E
100
AcDbEntity
  8
STEMPEL
100
AcDbLine
 10
314.9607528736542
 20
424.2662374086662
 30
0.0
 11
321.3857528736542
 21
424.2662374086662
 31
0.0
  0
LINE
  5
2935
330
1E
100
AcDbEntity
  8
STEMPEL
100
AcDbLine
 10
321.3857528736542
 20
424.2662374086662
 30
0.0
 11
321.3857528736542
 21
426.2662374086662
 31
0.0
  0
LINE
  5
2936
330
1E
100
AcDbEntity
  8
STEMPEL
100
AcDbLine
 10
320.6852840924407
 20
421.2063049626472
 30
0.0
 11
318.9892465899436
 21
422.2662374086662
 31
0.0
  0
ARC
  5
2937
330
1E
100
AcDbEntity
  8
STEMPEL
100
AcDbCircle
 10
341.8857528736542
 20
407.9571493874118
 30
0.0
 40
25.0
100
AcDbArc
 50
147.9968273188154
 51
180.0
  0
ARC
  5
2938
330
1E
100
AcDbEntity
  8
STEMPEL
100
AcDbCircle
 10
341.8857528736542
 20
407.9571493874118
 30
0.0
 40
27.0
100
AcDbArc
 50
147.9968273188154
 51
180.0
  0
LINE
  5
2939
330
1E
100
AcDbEntity
  8
STEMPEL
100
AcDbLine
 10
321.3857528736542
 20
422.2662374086658
 30
0.0
 11
312.8857528736542
 21
422.2662374086658
 31
0.0
  0
POINT
  5
293A
330
1E
100
AcDbEntity
  8
STEMPEL
100
AcDbPoint
 10
318.216752246934
 20
414.2692101699562
 30
0.0
  0
POINT
  5
293B
330
1E
100
AcDbEntity
  8
STEMPEL
100
AcDbPoint
 10
321.8857528736541
 20
412.2662374086663
 30
0.0
  0
ARC
  5
293C
330
1E
100
AcDbEntity
  8
STEMPEL
100
AcDbCircle
 10
342.6963875798199
 20
409.1950152615077
 30
0.0
 40
25.0
100
AcDbArc
 50
148.4764561260138
 51
172.9434514356065
  0
LINE
  5
293D
330
1E
100
AcDbEntity
  8
STEMPEL
100
AcDbLine
 10
321.3857528736542
 20
426.2662374086658
 30
0.0
 11
321.3857528736542
 21
422.2662374086658
 31
0.0
  0
LINE
  5
293E
330
1E
100
AcDbEntity
  8
STEMPEL
100
AcDbLine
 10
312.8857528736542
 20
288.9508932806609
 30
0.0
 11
307.8857528736542
 21
288.9508932806609
 31
0.0
  0
LINE
  5
293F
330
1E
100
AcDbEntity
  8
STEMPEL
100
AcDbLine
 10
305.8857528736542
 20
276.9508932806609
 30
0.0
 11
305.0108662383948
 21
266.9508932806609
 31
0.0
  0
ARC
  5
2940
330
1E
100
AcDbEntity
  8
STEMPEL
100
AcDbCircle
 10
319.8857528736537
 20
239.6906211427177
 30
0.0
 40
14.0
100
AcDbArc
 50
155.7722546820488
 51
180.0
  0
LINE
  5
2941
330
1E
100
AcDbEntity
  8
STEMPEL
100
AcDbLine
 10
315.6526539461054
 20
259.5260175696692
 30
0.0
 11
308.9426948115524
 21
244.614997270663
 31
0.0
  0
ARC
  5
2942
330
1E
100
AcDbEntity
  8
STEMPEL
100
AcDbCircle
 10
302.8857528736539
 20
265.2711230522726
 30
0.0
 40
14.0
100
AcDbArc
 50
335.7722546820489
 51
0.0
  0
ARC
  5
2943
330
1E
100
AcDbEntity
  8
STEMPEL
100
AcDbCircle
 10
302.8857528736539
 20
265.2711230522724
 30
0.0
 40
12.0
100
AcDbArc
 50
335.7722546820489
 51
0.0
  0
ARC
  5
2944
330
1E
100
AcDbEntity
  8
STEMPEL
100
AcDbCircle
 10
319.8857528736537
 20
239.6906211427177
 30
0.0
 40
12.0
100
AcDbArc
 50
155.7722546820488
 51
180.0
  0
LINE
  5
2945
330
1E
100
AcDbEntity
  8
STEMPEL
100
AcDbLine
 10
307.8857528736542
 20
276.9508932806609
 30
0.0
 11
307.0108662383948
 21
266.9508932806609
 31
0.0
  0
LINE
  5
2946
330
1E
100
AcDbEntity
  8
STEMPEL
100
AcDbLine
 10
313.8288109357552
 20
260.3467469243267
 30
0.0
 11
307.1188518012022
 21
245.4357266253207
 31
0.0
  0
LINE
  5
2947
330
1E
100
AcDbEntity
  8
STEMPEL
100
AcDbLine
 10
316.8857528736539
 20
265.2711230522725
 30
0.0
 11
316.8857528736542
 21
407.9571493874116
 31
0.0
  0
LINE
  5
2948
330
1E
100
AcDbEntity
  8
STEMPEL
100
AcDbLine
 10
314.8857528736539
 20
265.2711230522723
 30
0.0
 11
314.8857528736542
 21
407.9571493874116
 31
0.0
  0
LINE
  5
2949
330
1E
100
AcDbEntity
  8
HILF
100
AcDbLine
 10
303.8327320400952
 20
276.9508932806609
 30
0.0
 11
209.2875787163189
 21
276.9508932806609
 31
0.0
  0
LINE
  5
294A
330
1E
100
AcDbEntity
  8
HILF
100
AcDbLine
 10
304.0944197807644
 20
242.266237408666
 30
0.0
 11
209.6770859665435
 21
242.266237408666
 31
0.0
  0
LINE
  5
294B
330
1E
100
AcDbEntity
  8
STEMPEL
100
AcDbLine
 10
307.0108662383948
 20
266.9508932806609
 30
0.0
 11
206.7606395089135
 21
266.9508932806609
 31
0.0
  0
LINE
  5
294C
330
1E
100
AcDbEntity
  8
HILF
100
AcDbLine
 10
314.9607528736542
 20
424.2662374086662
 30
0.0
 11
314.9607528736542
 21
448.691237408665
 31
0.0
  0
LINE
  5
294D
330
1E
100
AcDbEntity
  8
HILF
100
AcDbLine
 10
309.8857528736541
 20
453.9508932806611
 30
0.0
 11
309.8857528736541
 21
288.9508932806609
 31
0.0
  0
LINE
  5
294E
330
1E
100
AcDbEntity
  8
HILF
100
AcDbLine
 10
203.8857528736542
 20
453.9508932806609
 30
0.0
 11
203.8857528736542
 21
288.9508932806609
 31
0.0
  0
INSERT
  5
294F
330
1E
100
AcDbEntity
  8
SCHRAFF
100
AcDbBlockReference
  2
*X7
 10
581.964740521917
 20
-6.549853684619847
 30
0.0
 50
90.0
1001
ACAD
1000
HATCH
1002
{
1070
    16
1000
_U,I
1040
2.0
1040
0.7853981633974483
1070
     0
1002
}
  0
LINE
  5
2950
330
1E
100
AcDbEntity
  8
STEMPEL
100
AcDbLine
 10
205.8857528736541
 20
477.1702954590036
 30
0.0
 11
205.8857528736541
 21
276.9508932806609
 31
0.0
  0
LINE
  5
2951
330
1E
100
AcDbEntity
  8
STEMPEL
100
AcDbLine
 10
207.8857528736541
 20
478.7058119838611
 30
0.0
 11
207.8857528736541
 21
276.9508932806609
 31
0.0
  0
LINE
  5
2952
330
1E
100
AcDbEntity
  8
STEMPEL
100
AcDbLine
 10
307.8857528736544
 20
480.7266036707272
 30
0.0
 11
307.8857528736542
 21
276.9508932806609
 31
0.0
  0
LINE
  5
2953
330
1E
100
AcDbEntity
  8
STEMPEL
100
AcDbLine
 10
305.8857528736544
 20
479.604926112983
 30
0.0
 11
305.8857528736542
 21
276.9508932806609
 31
0.0
  0
LWPOLYLINE
  5
2954
330
1E
100
AcDbEntity
  8
STEMPEL
100
AcDbPolyline
 90
        5
 70
     0
 43
0.0
 10
312.8857528736542
 20
424.2662374086662
 10
314.9607528736542
 20
424.2662374086662
 10
314.9607528736542
 20
448.691237408665
 10
313.385752873653
 20
450.2662374086662
 10
312.8857528736542
 20
450.2662374086662
  0
LINE
  5
2955
330
1E
100
AcDbEntity
  8
STEMPEL
100
AcDbLine
 10
312.8857528736542
 20
453.9508932806611
 30
0.0
 11
312.8857528736542
 21
288.9508932806609
 31
0.0
  0
LINE
  5
2956
330
1E
100
AcDbEntity
  8
STEMPEL
100
AcDbLine
 10
314.9607528736542
 20
448.691237408665
 30
0.0
 11
314.9607528736542
 21
424.2662374086662
 31
0.0
  0
LINE
  5
2957
330
1E
100
AcDbEntity
  8
STEMPEL
100
AcDbLine
 10
316.885752873653
 20
429.7662374086662
 30
0.0
 11
316.8857528736532
 21
446.7662374086658
 31
0.0
  0
LINE
  5
2958
330
1E
100
AcDbEntity
  8
STEMPEL
100
AcDbLine
 10
314.9607528736542
 20
424.2662374086662
 30
0.0
 11
314.9607528736542
 21
448.691237408665
 31
0.0
  0
LINE
  5
2959
330
1E
100
AcDbEntity
  8
STEMPEL
100
AcDbLine
 10
314.9607528736542
 20
448.691237408665
 30
0.0
 11
314.9607528736542
 21
424.2662374086662
 31
0.0
  0
LINE
  5
295A
330
1E
100
AcDbEntity
  8
STEMPEL
100
AcDbLine
 10
316.885752873653
 20
429.7662374086662
 30
0.0
 11
316.8857528736532
 21
446.7662374086658
 31
0.0
  0
LINE
  5
295B
330
1E
100
AcDbEntity
  8
STEMPEL
100
AcDbLine
 10
314.9607528736542
 20
424.2662374086662
 30
0.0
 11
314.9607528736542
 21
448.691237408665
 31
0.0
  0
LINE
  5
295C
330
1E
100
AcDbEntity
  8
STEMPEL
100
AcDbLine
 10
316.885752873653
 20
429.7662374086662
 30
0.0
 11
316.8857528736532
 21
446.7662374086658
 31
0.0
  0
LINE
  5
295D
102
{ACAD_REACTORS
330
2CA9
102
}
330
1E
100
AcDbEntity
  8
STEMPEL
100
AcDbLine
 10
361.8857528736541
 20
550.2662374086662
 30
0.0
 11
361.8857528736541
 21
548.2662374086662
 31
0.0
  0
LINE
  5
295E
330
1E
100
AcDbEntity
  8
STEMPEL
100
AcDbLine
 10
331.8857528736542
 20
446.7662374086662
 30
0.0
 11
326.8857528736542
 21
446.7662374086662
 31
0.0
  0
LINE
  5
295F
330
1E
100
AcDbEntity
  8
STEMPEL
100
AcDbLine
 10
331.8857528736542
 20
446.7662374086662
 30
0.0
 11
326.8857528736542
 21
446.7662374086662
 31
0.0
  0
ARC
  5
2963
330
1E
100
AcDbEntity
  8
STEMPEL
100
AcDbCircle
 10
326.0231660751253
 20
420.3662374086662
 30
0.0
 40
1.9
100
AcDbArc
 50
90.0
 51
164.9999999999988
  0
ARC
  5
2964
330
1E
100
AcDbEntity
  8
STEMPEL
100
AcDbCircle
 10
326.4857528736541
 20
420.3662374086662
 30
0.0
 40
1.9
100
AcDbArc
 50
0.0
 51
90.0
  0
LINE
  5
2965
330
1E
100
AcDbEntity
  8
STEMPEL
100
AcDbLine
 10
326.4857528736541
 20
422.2662374086662
 30
0.0
 11
326.0231660751253
 21
422.2662374086662
 31
0.0
  0
LINE
  5
2966
330
1E
100
AcDbEntity
  8
STEMPEL
100
AcDbLine
 10
328.3857528736541
 20
420.3662374086661
 30
0.0
 11
328.3857528736541
 21
412.2662374086663
 31
0.0
  0
LINE
  5
2967
330
1E
100
AcDbEntity
  8
STEMPEL
100
AcDbLine
 10
331.8857528736542
 20
413.2662374086662
 30
0.0
 11
330.8857528736542
 21
412.2662374086663
 31
0.0
  0
LINE
  5
2968
330
1E
100
AcDbEntity
  8
STEMPEL
100
AcDbLine
 10
331.8857528736542
 20
426.2662374086658
 30
0.0
 11
331.8857528736542
 21
413.2662374086662
 31
0.0
  0
LINE
  5
2969
330
1E
100
AcDbEntity
  8
STEMPEL
100
AcDbLine
 10
326.8857528736542
 20
446.7662374086662
 30
0.0
 11
326.8857528736542
 21
429.7662374086662
 31
0.0
  0
LINE
  5
296A
330
1E
100
AcDbEntity
  8
STEMPEL
100
AcDbLine
 10
331.8857528736542
 20
426.2662374086662
 30
0.0
 11
331.8857528736542
 21
446.7662374086662
 31
0.0
  0
LINE
  5
296B
330
1E
100
AcDbEntity
  8
STEMPEL
100
AcDbLine
 10
326.8857528736542
 20
446.7662374086662
 30
0.0
 11
326.8857528736542
 21
429.7662374086662
 31
0.0
  0
LINE
  5
296C
330
1E
100
AcDbEntity
  8
STEMPEL
100
AcDbLine
 10
331.8857528736542
 20
426.2662374086662
 30
0.0
 11
331.8857528736542
 21
446.7662374086662
 31
0.0
  0
LINE
  5
296D
330
1E
100
AcDbEntity
  8
STEMPEL
100
AcDbLine
 10
326.8857528736542
 20
429.7662374086662
 30
0.0
 11
326.8857528736542
 21
446.7662374086662
 31
0.0
  0
LINE
  5
296E
330
1E
100
AcDbEntity
  8
STEMPEL
100
AcDbLine
 10
331.8857528736542
 20
426.2662374086662
 30
0.0
 11
331.8857528736542
 21
446.7662374086662
 31
0.0
  0
LINE
  5
2971
102
{ACAD_REACTORS
330
2CA9
102
}
330
1E
100
AcDbEntity
  8
STEMPEL
100
AcDbLine
 10
361.8857528736541
 20
548.2662374086662
 30
0.0
 11
307.8857528736542
 21
548.2662374086662
 31
0.0
  0
LINE
  5
2972
102
{ACAD_REACTORS
330
2CA9
102
}
330
1E
100
AcDbEntity
  8
STEMPEL
100
AcDbLine
 10
361.8857528736541
 20
550.2662374086662
 30
0.0
 11
307.8857528736542
 21
550.2662374086662
 31
0.0
  0
LINE
  5
2973
330
1E
100
AcDbEntity
  8
STEMPEL
100
AcDbLine
 10
321.3857528736542
 20
426.2662374086662
 30
0.0
 11
331.8857528736542
 21
426.2662374086662
 31
0.0
  0
LINE
  5
2974
330
1E
100
AcDbEntity
  8
STEMPEL
100
AcDbLine
 10
326.8857528736542
 20
429.7662374086662
 30
0.0
 11
316.885752873653
 21
429.7662374086662
 31
0.0
  0
LINE
  5
2975
330
1E
100
AcDbEntity
  8
STEMPEL
100
AcDbLine
 10
326.8857528736542
 20
429.7662374086662
 30
0.0
 11
316.885752873653
 21
429.7662374086662
 31
0.0
  0
LINE
  5
2976
330
1E
100
AcDbEntity
  8
STEMPEL
100
AcDbLine
 10
321.3857528736542
 20
426.2662374086662
 30
0.0
 11
331.8857528736542
 21
426.2662374086662
 31
0.0
  0
LINE
  5
2977
330
1E
100
AcDbEntity
  8
STEMPEL
100
AcDbLine
 10
316.885752873653
 20
429.7662374086662
 30
0.0
 11
326.8857528736542
 21
429.7662374086662
 31
0.0
  0
LINE
  5
2978
330
1E
100
AcDbEntity
  8
STEMPEL
100
AcDbLine
 10
316.885752873653
 20
446.7662374086662
 30
0.0
 11
331.8857528736542
 21
446.7662374086662
 31
0.0
  0
LINE
  5
2979
330
1E
100
AcDbEntity
  8
STEMPEL
100
AcDbLine
 10
321.3857528736542
 20
426.2662374086662
 30
0.0
 11
331.8857528736542
 21
426.2662374086662
 31
0.0
  0
LINE
  5
297A
330
1E
100
AcDbEntity
  8
STEMPEL
100
AcDbLine
 10
324.1879070051759
 20
420.8579935943608
 30
0.0
 11
321.8857528736541
 21
412.2662374086663
 31
0.0
  0
LINE
  5
297B
330
1E
100
AcDbEntity
  8
STEMPEL
100
AcDbLine
 10
331.8857528736542
 20
426.2662374086658
 30
0.0
 11
321.3857528736542
 21
426.2662374086658
 31
0.0
  0
LINE
  5
297C
330
1E
100
AcDbEntity
  8
STEMPEL
100
AcDbLine
 10
330.8857528736542
 20
412.2662374086663
 30
0.0
 11
317.2599176507611
 21
412.2662374086663
 31
0.0
  0
LINE
  5
297D
330
1E
100
AcDbEntity
  8
STEMPEL
100
AcDbLine
 10
207.8857528736539
 20
84.35355929448315
 30
0.0
 11
208.9432565110517
 21
72.26623740866603
 31
0.0
  0
LINE
  5
297E
330
1E
100
AcDbEntity
  8
STEMPEL
100
AcDbLine
 10
205.8857528736539
 20
84.26623740866579
 30
0.0
 11
206.9356168359647
 21
72.26623740866603
 31
0.0
  0
LINE
  5
297F
330
1E
100
AcDbEntity
  8
STEMPEL
100
AcDbLine
 10
305.8857528736537
 20
84.35355929448361
 30
0.0
 11
304.8282492362559
 21
72.26623740866603
 31
0.0
  0
LINE
  5
2980
330
1E
100
AcDbEntity
  8
STEMPEL
100
AcDbLine
 10
307.8857528736537
 20
84.26623740866672
 30
0.0
 11
306.8358889113426
 21
72.26623740866603
 31
0.0
  0
LINE
  5
2981
330
1E
100
AcDbEntity
  8
HILF
100
AcDbLine
 10
304.0944197807641
 20
84.26623740866602
 30
0.0
 11
209.6770859665432
 21
84.26623740866602
 31
0.0
  0
DIMENSION
  5
2982
330
1E
100
AcDbEntity
  8
BEM
100
AcDbDimension
  2
*D10
 10
307.8857528736537
 20
49.6129698077766
 30
0.0
 11
256.8857528736538
 21
56.11296980777661
 31
0.0
 70
    32
  1
%%C<>
 71
     5
 42
101.9999999999998
  3
Standard
100
AcDbAlignedDimension
 13
205.8857528736539
 23
84.26623740866579
 33
0.0
 14
307.8857528736537
 24
84.26623740866672
 34
0.0
 50
180.0
100
AcDbRotatedDimension
1001
ACAD
1000
DSTYLE
1002
{
1070
    40
1040
2.0
1070
    41
1040
3.5
1070
    42
1040
1.0
1070
    43
1040
7.0
1070
    44
1040
1.0
1070
    73
1070
     0
1070
    74
1070
     0
1070
    77
1070
     1
1070
    78
1070
     8
1070
    79
1070
     2
1070
   140
1040
3.5
1070
   141
1040
1.5
1070
   146
1040
0.5142857142857144
1070
   147
1040
1.5
1070
   172
1070
     1
1070
   178
1070
     1
1070
   179
1070
     2
1070
   271
1070
     2
1070
   272
1070
     2
1070
   284
1070
     8
1070
   285
1070
     8
1070
   286
1070
     8
1002
}
  0
LINE
  5
2983
330
1E
100
AcDbEntity
  8
STEMPEL
100
AcDbLine
 10
306.8358889113426
 20
72.26623740866603
 30
0.0
 11
206.9356168359647
 21
72.26623740866603
 31
0.0
  0
LINE
  5
2984
330
1E
100
AcDbEntity
  8
MITTEL
100
AcDbLine
 10
256.8857528736537
 20
67.26623740866603
 30
0.0
 11
256.8857528736542
 21
495.8081577598363
 31
0.0
  0
LINE
  5
2986
330
1E
100
AcDbEntity
  8
STEMPEL
100
AcDbLine
 10
305.8857528736537
 20
84.35355929448361
 30
0.0
 11
305.8857528736537
 21
239.6906211427177
 31
0.0
  0
LINE
  5
2987
330
1E
100
AcDbEntity
  8
STEMPEL
100
AcDbLine
 10
307.8857528736537
 20
84.26623740866672
 30
0.0
 11
307.8857528736537
 21
239.6906211427177
 31
0.0
  0
LINE
  5
2988
330
1E
100
AcDbEntity
  8
STEMPEL
100
AcDbLine
 10
207.8857528736539
 20
84.35355929448315
 30
0.0
 11
207.8857528736541
 21
239.6906211427177
 31
0.0
  0
LINE
  5
2989
330
1E
100
AcDbEntity
  8
STEMPEL
100
AcDbLine
 10
205.8857528736539
 20
84.26623740866579
 30
0.0
 11
205.8857528736541
 21
239.6906211427177
 31
0.0
  0
LINE
  5
298A
330
1E
100
AcDbEntity
  8
MITTEL
100
AcDbLine
 10
256.8857528736544
 20
795.3927018193137
 30
0.0
 11
256.8857528736542
 21
513.3255978525439
 31
0.0
  0
ARC
  5
298D
330
1E
100
AcDbEntity
  8
STEMPEL
100
AcDbCircle
 10
290.8857528736544
 20
759.6257018193134
 30
0.0
 40
24.99990931069965
100
AcDbArc
 50
333.1122293409813
 51
0.0
  0
POLYLINE
  5
298E
330
1E
100
AcDbEntity
  8
HILF
100
AcDb2dPolyline
 66
     1
 10
0.0
 20
0.0
 30
0.0
 70
     2
  0
VERTEX
  5
298F
330
298E
100
AcDbEntity
  8
HILF
100
AcDbVertex
100
AcDb2dVertex
 10
201.8857528736545
 20
698.2998898720794
 30
0.0
 42
-0.1146798215756195
  0
VERTEX
  5
2990
330
298E
100
AcDbEntity
  8
HILF
100
AcDbVertex
100
AcDb2dVertex
 10
225.9872964440042
 20
712.5120134659425
 30
0.0
 42
-0.1154029691580267
 70
     1
  0
VERTEX
  5
2991
330
298E
100
AcDbEntity
  8
HILF
100
AcDbVertex
100
AcDb2dVertex
 10
244.3691038579102
 20
713.8866395158161
 30
0.0
 42
-0.1381456708875928
  0
VERTEX
  5
2992
330
298E
100
AcDbEntity
  8
HILF
100
AcDbVertex
100
AcDb2dVertex
 10
262.5133538853963
 20
705.5718902899869
 30
0.0
 42
0.1494847871479613
 70
     1
  0
VERTEX
  5
2993
330
298E
100
AcDbEntity
  8
HILF
100
AcDbVertex
100
AcDb2dVertex
 10
279.5020501677277
 20
698.2388833842374
 30
0.0
 42
0.0892966141021285
  0
VERTEX
  5
2994
330
298E
100
AcDbEntity
  8
HILF
100
AcDbVertex
100
AcDb2dVertex
 10
292.6693982891316
 20
699.127857681118
 30
0.0
 42
0.0922055876646653
 70
     1
  0
VERTEX
  5
2995
330
298E
100
AcDbEntity
  8
HILF
100
AcDbVertex
100
AcDb2dVertex
 10
311.8857528736544
 20
707.9274712153314
 30
0.0
  0
SEQEND
  5
2996
330
298E
100
AcDbEntity
  8
HILF
  0
POLYLINE
  5
2997
330
1E
100
AcDbEntity
  8
HILF
100
AcDb2dPolyline
 66
     1
 10
0.0
 20
0.0
 30
0.0
 70
     2
  0
VERTEX
  5
2998
330
2997
100
AcDbEntity
  8
HILF
100
AcDbVertex
100
AcDb2dVertex
 10
201.8857528736545
 20
696.2998898720784
 30
0.0
 42
-0.1146798215756212
  0
VERTEX
  5
2999
330
2997
100
AcDbEntity
  8
HILF
100
AcDbVertex
100
AcDb2dVertex
 10
225.9872964440042
 20
710.5120134659426
 30
0.0
 42
-0.1154029691580267
 70
     1
  0
VERTEX
  5
299A
330
2997
100
AcDbEntity
  8
HILF
100
AcDbVertex
100
AcDb2dVertex
 10
244.3691038579102
 20
711.886639515816
 30
0.0
 42
-0.1381456708875928
  0
VERTEX
  5
299B
330
2997
100
AcDbEntity
  8
HILF
100
AcDbVertex
100
AcDb2dVertex
 10
262.5133538853963
 20
703.5718902899868
 30
0.0
 42
0.1494847871479613
 70
     1
  0
VERTEX
  5
299C
330
2997
100
AcDbEntity
  8
HILF
100
AcDbVertex
100
AcDb2dVertex
 10
279.5020501677277
 20
696.2388833842374
 30
0.0
 42
0.0892966141021285
  0
VERTEX
  5
299D
330
2997
100
AcDbEntity
  8
HILF
100
AcDbVertex
100
AcDb2dVertex
 10
292.6693982891316
 20
697.127857681118
 30
0.0
 42
0.0922055876646665
 70
     1
  0
VERTEX
  5
299E
330
2997
100
AcDbEntity
  8
HILF
100
AcDbVertex
100
AcDb2dVertex
 10
311.8857528736544
 20
705.9274712153319
 30
0.0
  0
SEQEND
  5
299F
330
2997
100
AcDbEntity
  8
HILF
  0
LINE
  5
29A0
330
1E
100
AcDbEntity
  8
HILF
100
AcDbLine
 10
203.6403843430775
 20
745.5023211671029
 30
0.0
 11
310.1311214042314
 21
745.5023211671032
 31
0.0
  0
LINE
  5
29A1
330
1E
100
AcDbEntity
  8
HILF
100
AcDbLine
 10
312.4236070489307
 20
262.266237408666
 30
0.0
 11
201.3478986983771
 21
262.2662374086663
 31
0.0
  0
INSERT
  5
29A2
330
1E
100
AcDbEntity
  8
SCHRAFF
100
AcDbBlockReference
  2
*X4
 10
-7.118753693805729
 20
215.1342866944724
 30
0.0
1001
ACAD
1000
HATCH
1002
{
1070
    16
1000
NET,I
1040
15.0
1040
2.356194490192344
1002
}
  0
INSERT
  5
29A3
330
1E
100
AcDbEntity
  8
SCHRAFF
100
AcDbBlockReference
  2
*X2
 10
-54.06995607881959
 20
198.4952855013339
 30
0.0
1001
ACAD
1000
HATCH
1002
{
1070
    16
1000
_U,I
1040
0.1
1040
2.356194490192344
1070
     0
1002
}
  0
ARC
  5
29A4
330
1E
100
AcDbEntity
  8
SCHRAFF
100
AcDbCircle
 10
206.591454218885
 20
549.5311927435741
 30
0.0
 40
4.477140827639991
100
AcDbArc
 50
196.4116445908444
 51
260.9310338685613
  0
INSERT
  5
29A5
330
1E
100
AcDbEntity
  8
SCHRAFF
100
AcDbBlockReference
  2
*X5
 10
581.964740521917
 20
-6.549853684619847
 30
0.0
 50
90.0
1001
ACAD
1000
HATCH
1002
{
1070
    16
1000
NET,I
1040
15.0
1040
0.7853981633974483
1002
}
  0
INSERT
  5
29A6
330
1E
100
AcDbEntity
  8
SCHRAFF
100
AcDbBlockReference
  2
*X6
 10
581.964740521917
 20
-6.549853684619847
 30
0.0
 50
90.0
1001
ACAD
1000
HATCH
1002
{
1070
    16
1000
NET,I
1040
20.0
1040
0.7853981633974483
1002
}
  0
INSERT
  5
29A7
330
1E
100
AcDbEntity
  8
SCHRAFF
100
AcDbBlockReference
  2
*X1
 10
611.9392687344063
 20
-154.3557909695214
 30
0.0
 50
90.0
1001
ACAD
1000
HATCH
1002
{
1070
    16
1000
_U,I
1040
2.0
1040
0.7853981633974483
1070
     0
1002
}
  0
INSERT
  5
29A8
330
1E
100
AcDbEntity
  8
SCHRAFF
100
AcDbBlockReference
  2
*X8
 10
581.964740521917
 20
-6.549853684619847
 30
0.0
 50
90.0
1001
ACAD
1000
HATCH
1002
{
1070
    16
1000
NET,I
1040
20.0
1040
0.7853981633974483
1002
}
  0
DIMENSION
  5
29A9
330
1E
100
AcDbEntity
  8
BEM
100
AcDbDimension
  2
*D11
 10
315.8857528736544
 20
799.7035066835837
 30
0.0
 11
256.8857528736544
 21
806.2035066835838
 31
0.0
 70
    32
  1
%%C<>
 71
     5
 42
117.9999999999999
  3
Standard
100
AcDbAlignedDimension
 13
197.8857528736545
 23
777.7879503567426
 33
0.0
 14
315.8857528736544
 24
777.7879503567426
 34
0.0
100
AcDbRotatedDimension
1001
ACAD
1000
DSTYLE
1002
{
1070
    40
1040
2.0
1070
    41
1040
3.5
1070
    42
1040
1.0
1070
    43
1040
7.0
1070
    44
1040
1.0
1070
    73
1070
     0
1070
    74
1070
     0
1070
    77
1070
     1
1070
    78
1070
     8
1070
    79
1070
     2
1070
   140
1040
3.5
1070
   141
1040
1.5
1070
   146
1040
0.5142857142857144
1070
   147
1040
1.5
1070
   172
1070
     1
1070
   178
1070
     1
1070
   179
1070
     2
1070
   271
1070
     2
1070
   272
1070
     2
1070
   284
1070
     8
1070
   285
1070
     8
1070
   286
1070
     8
1002
}
  0
DIMENSION
  5
29AA
330
1E
100
AcDbEntity
  8
BEM
100
AcDbDimension
  2
*D12
 10
361.8857528736541
 20
499.3566899544112
 30
0.0
 11
256.8857528736542
 21
505.8566899544111
 31
0.0
 70
    32
  1
%%C<>
 71
     5
 42
210.0
  3
Standard
100
AcDbAlignedDimension
 13
151.8857528736541
 23
548.2662374086662
 33
0.0
 14
361.8857528736541
 24
548.2662374086662
 34
0.0
100
AcDbRotatedDimension
1001
ACAD
1000
DSTYLE
1002
{
1070
    40
1040
2.0
1070
    41
1040
3.5
1070
    42
1040
1.0
1070
    43
1040
7.0
1070
    44
1040
1.0
1070
    73
1070
     0
1070
    74
1070
     0
1070
    77
1070
     1
1070
    78
1070
     8
1070
    79
1070
     2
1070
   140
1040
3.5
1070
   141
1040
1.5
1070
   146
1040
0.5142857142857144
1070
   147
1040
1.5
1070
   172
1070
     1
1070
   178
1070
     1
1070
   179
1070
     2
1070
   271
1070
     2
1070
   272
1070
     2
1070
   284
1070
     8
1070
   285
1070
     8
1070
   286
1070
     8
1002
}
  0
LINE
  5
29AB
330
1E
100
AcDbEntity
  8
STEMPEL
100
AcDbLine
 10
205.8857528736541
 20
453.9508932806609
 30
0.0
 11
200.8857528736541
 21
453.9508932806609
 31
0.0
  0
LINE
  5
29AC
330
1E
100
AcDbEntity
  8
STEMPEL
100
AcDbLine
 10
201.1789970357294
 20
790.3927018193138
 30
0.0
 11
312.5925087115795
 21
790.3927018193138
 31
0.0
  0
ARC
  5
29AD
330
1E
100
AcDbEntity
  8
STEMPEL
100
AcDbCircle
 10
216.8857528736546
 20
637.1937262856135
 30
0.0
 40
15.0
100
AcDbArc
 50
180.0
 51
214.3011527567897
  0
LINE
  5
29AE
330
1E
100
AcDbEntity
  8
STEMPEL
100
AcDbLine
 10
205.8857528736541
 20
288.9508932806609
 30
0.0
 11
200.8857528736541
 21
288.9508932806609
 31
0.0
  0
LINE
  5
29AF
330
1E
100
AcDbEntity
  8
STEMPEL
100
AcDbLine
 10
205.8857528736541
 20
519.2662374086662
 30
0.0
 11
200.8857528736541
 21
519.2662374086662
 31
0.0
  0
LINE
  5
29B0
330
1E
100
AcDbEntity
  8
STEMPEL
100
AcDbLine
 10
278.6588276715518
 20
548.2662374086662
 30
0.0
 11
151.8857528736541
 21
548.2662374086662
 31
0.0
  0
LINE
  5
29B1
330
1E
100
AcDbEntity
  8
STEMPEL
100
AcDbLine
 10
280.5036728365956
 20
550.2662374086662
 30
0.0
 11
151.8857528736541
 21
550.2662374086662
 31
0.0
  0
LINE
  5
29B2
330
1E
100
AcDbEntity
  8
STEMPEL
100
AcDbLine
 10
312.5925087115793
 20
790.3927018193138
 30
0.0
 11
201.1789970357294
 21
790.3927018193138
 31
0.0
  0
LINE
  5
29B3
330
1E
100
AcDbEntity
  8
STEMPEL
100
AcDbLine
 10
199.9426948115526
 20
260.3467469243269
 30
0.0
 11
206.6526539461056
 21
245.435726625321
 31
0.0
  0
LINE
  5
29B4
330
1E
100
AcDbEntity
  8
STEMPEL
100
AcDbLine
 10
198.1188518012024
 20
259.5260175696694
 30
0.0
 11
204.8288109357554
 21
244.6149972706633
 31
0.0
  0
DIMENSION
  5
2B4D
330
1E
100
AcDbEntity
  8
BEM
100
AcDbDimension
  2
*D14
 10
131.5638008386676
 20
422.2662374086659
 30
0.0
 11
125.0638008386675
 21
247.266237408666
 31
0.0
 70
    32
 71
     5
 42
349.9999999999998
  3
Standard
100
AcDbAlignedDimension
 13
206.9356168359647
 23
72.26623740866611
 33
0.0
 14
192.3857528736538
 24
422.2662374086659
 34
0.0
 50
90.0
100
AcDbRotatedDimension
1001
ACAD
1000
DSTYLE
1002
{
1070
    40
1040
2.0
1070
    41
1040
3.5
1070
    42
1040
1.0
1070
    43
1040
7.0
1070
    44
1040
1.0
1070
    73
1070
     0
1070
    74
1070
     0
1070
    77
1070
     1
1070
    78
1070
     8
1070
    79
1070
     2
1070
   140
1040
3.5
1070
   141
1040
1.5
1070
   146
1040
0.5142857142857144
1070
   147
1040
1.5
1070
   172
1070
     1
1070
   178
1070
     1
1070
   179
1070
     2
1070
   271
1070
     2
1070
   272
1070
     2
1070
   284
1070
     8
1070
   285
1070
     8
1070
   286
1070
     8
1002
}
  0
HATCH
  5
2CA9
330
1E
100
AcDbEntity
  8
SCHRAFF
100
AcDbHatch
 10
0.0
 20
0.0
 30
0.0
210
0.0
220
0.0
230
1.0
  2
_USER
 70
     0
 71
     1
 91
        1
 92
        7
 72
     0
 73
     1
 93
        4
 10
307.8857528736544
 20
550.2662374086662
 10
307.8857528736544
 20
548.2662374086662
 10
361.8857528736542
 20
548.2662374086662
 10
361.8857528736541
 20
550.2662374086662
 97
        4
330
2972
330
2920
330
2971
330
295D
 75
     0
 76
     0
 52
45.0
 41
2.0
 77
     0
 78
     1
 53
45.0
 43
0.0
 44
0.0
 45
-1.414213562373094
 46
1.414213562373095
 79
     0
 47
0.1277022311740728
 98
        1
 10
324.2383587472614
 20
549.4592704659266
  0
HATCH
  5
2CB9
330
1E
100
AcDbEntity
  8
SCHRAFF
100
AcDbHatch
 10
0.0
 20
0.0
 30
0.0
210
0.0
220
0.0
230
1.0
  2
_USER
 70
     0
 71
     1
 91
        2
 92
        7
 72
     1
 73
     1
 93
        8
 10
296.8857528736544
 20
530.2662374086662
 42
0.0
 10
298.8857528736544
 20
530.2662374086662
 42
0.0
 10
298.8857528736544
 20
581.3222014785578
 42
-0.0641123317365854
 10
299.1466685635178
 20
583.3486698451001
 42
0.0
 10
306.6661776442602
 20
608.5847752377324
 42
0.0
 10
304.4139950494152
 20
607.541102484392
 42
0.0
 10
297.2118974859836
 20
583.8552869367358
 42
0.064112331736594
 10
296.8857528736544
 20
581.3222014785576
 42
0.0
 97
        8
330
2904
330
291A
330
292A
330
2918
330
2902
330
2908
330
2929
330
290C
 92
        7
 72
     0
 73
     1
 93
        4
 10
216.8857528736544
 20
544.4758336280934
 10
214.8857528736543
 20
544.753890543611
 10
214.8857528736542
 20
530.2662374086662
 10
216.8857528736542
 20
530.2662374086662
 97
        4
330
292A
330
28BF
330
2929
330
28BE
 75
     0
 76
     0
 52
45.0
 41
2.0
 77
     0
 78
     1
 53
45.0
 43
0.0
 44
0.0
 45
-1.414213562373094
 46
1.414213562373095
 79
     0
 47
0.2287944914257079
 98
        2
 10
297.3994563397014
 20
559.7735098039061
 10
216.1478647665608
 20
537.5804444880445
  0
ENDSEC
  0
SECTION
  2
OBJECTS
  0
DICTIONARY
  5
C
330
0
100
AcDbDictionary
281
     1
  3
ACAD_COLOR
350
DF
  3
ACAD_GROUP
350
D
  3
ACAD_LAYOUT
350
19
  3
ACAD_MATERIAL
350
DE
  3
ACAD_MLINESTYLE
350
16
  3
ACAD_PLOTSETTINGS
350
18
  3
ACAD_PLOTSTYLENAME
350
E
  3
AcDbVariableDictionary
350
EA
  0
DICTIONARY
  5
A0
330
1E
100
AcDbDictionary
280
     1
281
     1
  3
ACAD_LAYOUTSELFREF
360
D4
  0
DICTIONARY
  5
A2
330
1A
100
AcDbDictionary
280
     1
281
     1
  3
ACAD_LAYOUTSELFREF
360
D3
  0
DICTIONARY
  5
DF
102
{ACAD_REACTORS
330
C
102
}
330
C
100
AcDbDictionary
281
     1
  0
DICTIONARY
  5
D
102
{ACAD_REACTORS
330
C
102
}
330
C
100
AcDbDictionary
281
     1
  0
DICTIONARY
  5
19
102
{ACAD_REACTORS
330
C
102
}
330
C
100
AcDbDictionary
281
     1
  3
Layout1
350
1D
  3
Model
350
21
  0
DICTIONARY
  5
DE
102
{ACAD_REACTORS
330
C
102
}
330
C
100
AcDbDictionary
281
     1
  0
DICTIONARY
  5
16
102
{ACAD_REACTORS
330
C
102
}
330
C
100
AcDbDictionary
281
     1
  3
Standard
350
17
  0
DICTIONARY
  5
18
102
{ACAD_REACTORS
330
C
102
}
330
C
100
AcDbDictionary
281
     1
  0
ACDBDICTIONARYWDFLT
  5
E
102
{ACAD_REACTORS
330
C
102
}
330
C
100
AcDbDictionary
281
     1
  3
Normal
350
F
100
AcDbDictionaryWithDefault
340
F
  0
DICTIONARY
  5
EA
102
{ACAD_REACTORS
330
C
102
}
330
C
100
AcDbDictionary
281
     1
  3
DIMASSOC
350
EB
  3
PROJECTNAME
350
EC
  0
XRECORD
  5
D4
102
{ACAD_REACTORS
330
A0
102
}
330
A0
100
AcDbXrecord
280
     1
340
1E
  0
XRECORD
  5
D3
102
{ACAD_REACTORS
330
A2
102
}
330
A2
100
AcDbXrecord
280
     1
340
1A
  0
LAYOUT
  5
1D
102
{ACAD_REACTORS
330
19
102
}
330
19
100
AcDbPlotSettings
  1

  2
\\NT_WORK01\HP LaserJet 5000 PCL 6
  4

  6

 40
0.0
 41
0.0
 42
0.0
 43
0.0
 44
0.0
 45
0.0
 46
0.0
 47
0.0
 48
0.0
 49
0.0
140
0.0
141
0.0
142
1.0
143
1.0
 70
   688
 72
     0
 73
     0
 74
     5
  7
monochrome1.ctb
 75
    16
147
1.0
 76
     0
 77
     2
 78
   300
148
0.0
149
0.0
100
AcDbLayout
  1
Layout1
 70
     0
 71
     1
 10
0.0
 20
0.0
 11
12.0
 21
9.0
 12
0.0
 22
0.0
 32
0.0
 14
1.000000000000000E+20
 24
1.000000000000000E+20
 34
1.000000000000000E+20
 15
-1.000000000000000E+20
 25
-1.000000000000000E+20
 35
-1.000000000000000E+20
146
0.0
 13
0.0
 23
0.0
 33
0.0
 16
1.0
 26
0.0
 36
0.0
 17
0.0
 27
1.0
 37
0.0
 76
     0
330
1A
  0
LAYOUT
  5
21
102
{ACAD_REACTORS
330
19
102
}
330
19
100
AcDbPlotSettings
  1

  2
none_device
  4
Letter_(8.50_x_11.00_Inches)
  6

 40
6.349999904632568
 41
6.349999904632568
 42
6.350006103515625
 43
6.350006103515625
 44
215.8999938964844
 45
279.3999938964844
 46
0.0
 47
0.0
 48
0.0
 49
0.0
140
0.0
141
0.0
142
1.0
143
1.0
 70
 11952
 72
     0
 73
     1
 74
     0
  7

 75
     0
147
1.0
 76
     0
 77
     2
 78
   300
148
3251.566150932968
149
127.4457819382556
100
AcDbLayout
  1
Model
 70
     1
 71
     0
 10
0.0
 20
0.0
 11
12.0
 21
9.0
 12
0.0
 22
0.0
 32
0.0
 14
0.0
 24
0.0
 34
0.0
 15
0.0
 25
0.0
 35
0.0
146
0.0
 13
0.0
 23
0.0
 33
0.0
 16
1.0
 26
0.0
 36
0.0
 17
0.0
 27
1.0
 37
0.0
 76
     0
330
1E
  0
MLINESTYLE
  5
17
102
{ACAD_REACTORS
330
16
102
}
330
16
100
AcDbMlineStyle
  2
STANDARD
 70
     0
  3

 62
   256
 51
90.0
 52
90.0
 71
     2
 49
0.5
 62
   256
  6
BYLAYER
 49
-0.5
 62
   256
  6
BYLAYER
  0
ACDBPLACEHOLDER
  5
F
102
{ACAD_REACTORS
330
E
102
}
330
E
  0
DICTIONARYVAR
  5
EB
102
{ACAD_REACTORS
330
EA
102
}
330
EA
100
DictionaryVariables
280
     0
  1
1
  0
DICTIONARYVAR
  5
EC
102
{ACAD_REACTORS
330
EA
102
}
330
EA
100
DictionaryVariables
280
     0
  1

  0
ENDSEC
  0
EOF
