  0
SECTION
  2
HEADER
  9
$ACADVER
  1
AC1018
  9
$ACADMAINTVER
 70
     2
  9
$DWGCODEPAGE
  3
ANSI_1252
  9
$INSBASE
 10
0.0
 20
0.0
 30
0.0
  9
$EXTMIN
 10
-0.0000000000004547
 20
-0.0000000000000205
 30
0.0
  9
$EXTMAX
 10
594.0000000000001
 20
840.0000000000002
 30
0.0
  9
$LIMMIN
 10
0.0
 20
0.0
  9
$LIMMAX
 10
593.9999999999997
 20
840.0000000000002
  9
$ORTHOMODE
 70
     1
  9
$REGENMODE
 70
     1
  9
$FILLMODE
 70
     1
  9
$QTEXTMODE
 70
     0
  9
$MIRRTEXT
 70
     1
  9
$LTSCALE
 40
20.0
  9
$ATTMODE
 70
     1
  9
$TEXTSIZE
 40
3.5
  9
$TRACEWID
 40
0.5
  9
$TEXTSTYLE
  7
STANDARD
  9
$CLAYER
  8
SCHRAFF
  9
$CELTYPE
  6
ByLayer
  9
$CECOLOR
 62
   256
  9
$CELTSCALE
 40
1.0
  9
$DISPSILH
 70
     0
  9
$DIMSCALE
 40
2.0
  9
$DIMASZ
 40
3.5
  9
$DIMEXO
 40
1.0
  9
$DIMDLI
 40
7.0
  9
$DIMRND
 40
0.0
  9
$DIMDLE
 40
0.0
  9
$DIMEXE
 40
1.0
  9
$DIMTP
 40
0.0
  9
$DIMTM
 40
0.0
  9
$DIMTXT
 40
3.5
  9
$DIMCEN
 40
1.5
  9
$DIMTSZ
 40
0.0
  9
$DIMTOL
 70
     0
  9
$DIMLIM
 70
     0
  9
$DIMTIH
 70
     0
  9
$DIMTOH
 70
     0
  9
$DIMSE1
 70
     0
  9
$DIMSE2
 70
     0
  9
$DIMTAD
 70
     1
  9
$DIMZIN
 70
     8
  9
$DIMBLK
  1

  9
$DIMASO
 70
     1
  9
$DIMSHO
 70
     0
  9
$DIMPOST
  1

  9
$DIMAPOST
  1

  9
$DIMALT
 70
     0
  9
$DIMALTD
 70
     2
  9
$DIMALTF
 40
25.4
  9
$DIMLFAC
 40
1.0
  9
$DIMTOFL
 70
     1
  9
$DIMTVP
 40
0.0
  9
$DIMTIX
 70
     0
  9
$DIMSOXD
 70
     0
  9
$DIMSAH
 70
     0
  9
$DIMBLK1
  1

  9
$DIMBLK2
  1

  9
$DIMSTYLE
  2
Standard
  9
$DIMCLRD
 70
     0
  9
$DIMCLRE
 70
     0
  9
$DIMCLRT
 70
     1
  9
$DIMTFAC
 40
0.5142857142857144
  9
$DIMGAP
 40
1.5
  9
$DIMJUST
 70
     0
  9
$DIMSD1
 70
     0
  9
$DIMSD2
 70
     0
  9
$DIMTOLJ
 70
     1
  9
$DIMTZIN
 70
     8
  9
$DIMALTZ
 70
     8
  9
$DIMALTTZ
 70
     8
  9
$DIMUPT
 70
     0
  9
$DIMDEC
 70
     2
  9
$DIMTDEC
 70
     2
  9
$DIMALTU
 70
     2
  9
$DIMALTTD
 70
     2
  9
$DIMTXSTY
  7
STANDARD
  9
$DIMAUNIT
 70
     0
  9
$DIMADEC
 70
     2
  9
$DIMALTRND
 40
0.0
  9
$DIMAZIN
 70
     2
  9
$DIMDSEP
 70
    46
  9
$DIMATFIT
 70
     3
  9
$DIMFRAC
 70
     0
  9
$DIMLDRBLK
  1

  9
$DIMLUNIT
 70
     2
  9
$DIMLWD
 70
    -2
  9
$DIMLWE
 70
    -2
  9
$DIMTMOVE
 70
     0
  9
$LUNITS
 70
     2
  9
$LUPREC
 70
     2
  9
$SKETCHINC
 40
1.0
  9
$FILLETRAD
 40
0.0
  9
$AUNITS
 70
     0
  9
$AUPREC
 70
     0
  9
$MENU
  1
ACAD
  9
$ELEVATION
 40
0.0
  9
$PELEVATION
 40
0.0
  9
$THICKNESS
 40
0.0
  9
$LIMCHECK
 70
     0
  9
$CHAMFERA
 40
0.0
  9
$CHAMFERB
 40
0.0
  9
$CHAMFERC
 40
0.0
  9
$CHAMFERD
 40
0.0
  9
$SKPOLY
 70
     0
  9
$TDCREATE
 40
2455397.823042361
  9
$TDUCREATE
 40
2455397.781375695
  9
$TDUPDATE
 40
2455996.362547026
  9
$TDUUPDATE
 40
2455996.320880359
  9
$TDINDWG
 40
0.1030787616
  9
$TDUSRTIMER
 40
0.1030787616
  9
$USRTIMER
 70
     1
  9
$ANGBASE
 50
0.0
  9
$ANGDIR
 70
     0
  9
$PDMODE
 70
     0
  9
$PDSIZE
 40
0.0
  9
$PLINEWID
 40
0.0
  9
$SPLFRAME
 70
     0
  9
$SPLINETYPE
 70
     6
  9
$SPLINESEGS
 70
     8
  9
$HANDSEED
  5
1F99
  9
$SURFTAB1
 70
     6
  9
$SURFTAB2
 70
     6
  9
$SURFTYPE
 70
     6
  9
$SURFU
 70
     6
  9
$SURFV
 70
     6
  9
$UCSBASE
  2

  9
$UCSNAME
  2

  9
$UCSORG
 10
0.0
 20
0.0
 30
0.0
  9
$UCSXDIR
 10
1.0
 20
0.0
 30
0.0
  9
$UCSYDIR
 10
0.0
 20
1.0
 30
0.0
  9
$UCSORTHOREF
  2

  9
$UCSORTHOVIEW
 70
     0
  9
$UCSORGTOP
 10
0.0
 20
0.0
 30
0.0
  9
$UCSORGBOTTOM
 10
0.0
 20
0.0
 30
0.0
  9
$UCSORGLEFT
 10
0.0
 20
0.0
 30
0.0
  9
$UCSORGRIGHT
 10
0.0
 20
0.0
 30
0.0
  9
$UCSORGFRONT
 10
0.0
 20
0.0
 30
0.0
  9
$UCSORGBACK
 10
0.0
 20
0.0
 30
0.0
  9
$PUCSBASE
  2

  9
$PUCSNAME
  2

  9
$PUCSORG
 10
0.0
 20
0.0
 30
0.0
  9
$PUCSXDIR
 10
1.0
 20
0.0
 30
0.0
  9
$PUCSYDIR
 10
0.0
 20
1.0
 30
0.0
  9
$PUCSORTHOREF
  2

  9
$PUCSORTHOVIEW
 70
     0
  9
$PUCSORGTOP
 10
0.0
 20
0.0
 30
0.0
  9
$PUCSORGBOTTOM
 10
0.0
 20
0.0
 30
0.0
  9
$PUCSORGLEFT
 10
0.0
 20
0.0
 30
0.0
  9
$PUCSORGRIGHT
 10
0.0
 20
0.0
 30
0.0
  9
$PUCSORGFRONT
 10
0.0
 20
0.0
 30
0.0
  9
$PUCSORGBACK
 10
0.0
 20
0.0
 30
0.0
  9
$USERI1
 70
     0
  9
$USERI2
 70
     0
  9
$USERI3
 70
     0
  9
$USERI4
 70
     0
  9
$USERI5
 70
     0
  9
$USERR1
 40
0.0
  9
$USERR2
 40
0.0
  9
$USERR3
 40
0.0
  9
$USERR4
 40
0.0
  9
$USERR5
 40
0.0
  9
$WORLDVIEW
 70
     1
  9
$SHADEDGE
 70
     3
  9
$SHADEDIF
 70
    70
  9
$TILEMODE
 70
     1
  9
$MAXACTVP
 70
    16
  9
$PINSBASE
 10
0.0
 20
0.0
 30
0.0
  9
$PLIMCHECK
 70
     0
  9
$PEXTMIN
 10
1.000000000000000E+20
 20
1.000000000000000E+20
 30
1.000000000000000E+20
  9
$PEXTMAX
 10
-1.000000000000000E+20
 20
-1.000000000000000E+20
 30
-1.000000000000000E+20
  9
$PLIMMIN
 10
0.0
 20
0.0
  9
$PLIMMAX
 10
12.0
 20
9.0
  9
$UNITMODE
 70
     0
  9
$VISRETAIN
 70
     0
  9
$PLINEGEN
 70
     0
  9
$PSLTSCALE
 70
     0
  9
$TREEDEPTH
 70
  3020
  9
$CMLSTYLE
  2
Standard
  9
$CMLJUST
 70
     0
  9
$CMLSCALE
 40
1.0
  9
$PROXYGRAPHICS
 70
     1
  9
$MEASUREMENT
 70
     0
  9
$CELWEIGHT
370
    -1
  9
$ENDCAPS
280
     0
  9
$JOINSTYLE
280
     0
  9
$LWDISPLAY
290
     0
  9
$INSUNITS
 70
     0
  9
$HYPERLINKBASE
  1

  9
$STYLESHEET
  1
monochrome1.ctb
  9
$XEDIT
290
     1
  9
$CEPSNTYPE
380
     0
  9
$PSTYLEMODE
290
     1
  9
$FINGERPRINTGUID
  2
{D68B0D02-A558-11D7-B632-000102183313}
  9
$VERSIONGUID
  2
{A3E11AB2-3DD5-4D71-9072-F74CF4FACFFA}
  9
$EXTNAMES
290
     1
  9
$PSVPSCALE
 40
0.0
  9
$OLESTARTUP
290
     0
  9
$SORTENTS
280
   127
  9
$INDEXCTL
280
     0
  9
$HIDETEXT
280
     0
  9
$XCLIPFRAME
290
     0
  9
$HALOGAP
280
     0
  9
$OBSCOLOR
 70
   257
  9
$OBSLTYPE
280
     0
  9
$INTERSECTIONDISPLAY
280
     0
  9
$INTERSECTIONCOLOR
 70
   257
  9
$DIMASSOC
280
     1
  9
$PROJECTNAME
  1

  0
ENDSEC
  0
SECTION
  2
CLASSES
  0
CLASS
  1
ACDBDICTIONARYWDFLT
  2
AcDbDictionaryWithDefault
  3
ObjectDBX Classes
 90
        0
 91
        1
280
     0
281
     0
  0
CLASS
  1
DICTIONARYVAR
  2
AcDbDictionaryVar
  3
ObjectDBX Classes
 90
        0
 91
        2
280
     0
281
     0
  0
ENDSEC
  0
SECTION
  2
TABLES
  0
TABLE
  2
VPORT
  5
8
330
0
100
AcDbSymbolTable
 70
     2
  0
VPORT
  5
1F98
330
8
100
AcDbSymbolTableRecord
100
AcDbViewportTableRecord
  2
*Active
 70
     0
 10
0.0
 20
0.0
 11
1.0
 21
1.0
 12
426.1443850267379
 22
420.0000000000001
 13
0.0
 23
0.0
 14
1.0
 24
1.0
 15
10.0
 25
10.0
 16
0.0
 26
0.0
 36
1.0
 17
0.0
 27
0.0
 37
0.0
 40
840.3567201478361
 41
1.374331550802139
 42
50.0
 43
0.0
 44
0.0
 50
0.0
 51
0.0
 71
     0
 72
  1500
 73
     1
 74
     0
 75
     0
 76
     0
 77
     0
 78
     0
281
     0
 65
     1
110
0.0
120
0.0
130
0.0
111
1.0
121
0.0
131
0.0
112
0.0
122
1.0
132
0.0
 79
     0
146
0.0
  0
ENDTAB
  0
TABLE
  2
LTYPE
  5
5
330
0
100
AcDbSymbolTable
 70
     2
  0
LTYPE
  5
13
330
5
100
AcDbSymbolTableRecord
100
AcDbLinetypeTableRecord
  2
ByBlock
 70
     0
  3

 72
    65
 73
     0
 40
0.0
  0
LTYPE
  5
14
330
5
100
AcDbSymbolTableRecord
100
AcDbLinetypeTableRecord
  2
ByLayer
 70
     0
  3

 72
    65
 73
     0
 40
0.0
  0
LTYPE
  5
15
330
5
100
AcDbSymbolTableRecord
100
AcDbLinetypeTableRecord
  2
Continuous
 70
     0
  3
Solid line
 72
    65
 73
     0
 40
0.0
  0
LTYPE
  5
25
330
5
100
AcDbSymbolTableRecord
100
AcDbLinetypeTableRecord
  2
STRICHPUNKT
 70
     0
  3
__ . __ . __ . __ . __ . __ . __ . __ . __ . __
 72
    65
 73
     4
 40
1.0
 49
0.5
 74
     0
 49
-0.25
 74
     0
 49
0.0
 74
     0
 49
-0.25
 74
     0
  0
ENDTAB
  0
TABLE
  2
LAYER
  5
2
330
0
100
AcDbSymbolTable
 70
     9
  0
LAYER
  5
10
330
2
100
AcDbSymbolTableRecord
100
AcDbLayerTableRecord
  2
0
 70
     0
 62
     7
  6
Continuous
370
    -3
390
F
  0
LAYER
  5
2A
330
2
100
AcDbSymbolTableRecord
100
AcDbLayerTableRecord
  2
VOLL
 70
     0
 62
     1
  6
Continuous
370
    -3
390
F
  0
LAYER
  5
2B
330
2
100
AcDbSymbolTableRecord
100
AcDbLayerTableRecord
  2
HILF
 70
     0
 62
     2
  6
Continuous
370
    -3
390
F
  0
LAYER
  5
2C
330
2
100
AcDbSymbolTableRecord
100
AcDbLayerTableRecord
  2
MITTEL
 70
     0
 62
     2
  6
STRICHPUNKT
370
    -3
390
F
  0
LAYER
  5
2F
330
2
100
AcDbSymbolTableRecord
100
AcDbLayerTableRecord
  2
BEM
 70
     0
 62
     7
  6
Continuous
370
    -3
390
F
  0
LAYER
  5
30
330
2
100
AcDbSymbolTableRecord
100
AcDbLayerTableRecord
  2
STEMPEL
 70
     0
 62
     3
  6
Continuous
370
    -3
390
F
  0
LAYER
  5
31
330
2
100
AcDbSymbolTableRecord
100
AcDbLayerTableRecord
  2
TEXT
 70
     0
 62
     7
  6
Continuous
370
    -3
390
F
  0
LAYER
  5
2B4
330
2
100
AcDbSymbolTableRecord
100
AcDbLayerTableRecord
  2
DEFPOINTS
 70
     0
 62
     7
  6
Continuous
290
     0
370
    -3
390
F
  0
LAYER
  5
2B5
330
2
100
AcDbSymbolTableRecord
100
AcDbLayerTableRecord
  2
SCHRAFF
 70
     0
 62
     7
  6
Continuous
370
    -3
390
F
  0
ENDTAB
  0
TABLE
  2
STYLE
  5
3
330
0
100
AcDbSymbolTable
 70
     2
  0
STYLE
  5
11
330
3
100
AcDbSymbolTableRecord
100
AcDbTextStyleTableRecord
  2
STANDARD
 70
     0
 40
0.0
 41
0.8
 50
0.0
 71
     0
 42
3.5
  3
simplex.shx
  4

  0
STYLE
  5
24
330
3
100
AcDbSymbolTableRecord
100
AcDbTextStyleTableRecord
  2
GREEKS
 70
     0
 40
0.0
 41
0.8
 50
0.0
 71
     0
 42
2.5
  3
SIMPLEX.shx
  4

  0
ENDTAB
  0
TABLE
  2
VIEW
  5
6
330
0
100
AcDbSymbolTable
 70
     0
  0
ENDTAB
  0
TABLE
  2
UCS
  5
7
330
0
100
AcDbSymbolTable
 70
     0
  0
ENDTAB
  0
TABLE
  2
APPID
  5
9
330
0
100
AcDbSymbolTable
 70
     1
  0
APPID
  5
12
330
9
100
AcDbSymbolTableRecord
100
AcDbRegAppTableRecord
  2
ACAD
 70
     0
  0
ENDTAB
  0
TABLE
  2
DIMSTYLE
  5
A
330
0
100
AcDbSymbolTable
 70
     1
100
AcDbDimStyleTable
 71
     1
340
9D
  0
DIMSTYLE
105
9D
102
{ACAD_REACTORS
330
1D75
330
1D6B
330
1D2F
330
1CE5
330
1C50
102
}
330
A
100
AcDbSymbolTableRecord
100
AcDbDimStyleTableRecord
  2
Standard
 70
     0
340
11
  0
ENDTAB
  0
TABLE
  2
BLOCK_RECORD
  5
1
330
0
100
AcDbSymbolTable
 70
    16
  0
BLOCK_RECORD
  5
1E
102
{ACAD_XDICTIONARY
360
A0
102
}
330
1
100
AcDbSymbolTableRecord
100
AcDbBlockTableRecord
  2
*Model_Space
340
21
  0
BLOCK_RECORD
  5
1A
102
{ACAD_XDICTIONARY
360
A2
102
}
330
1
100
AcDbSymbolTableRecord
100
AcDbBlockTableRecord
  2
*Paper_Space
340
1D
  0
BLOCK_RECORD
  5
22
330
1
100
AcDbSymbolTableRecord
100
AcDbBlockTableRecord
  2
LOGO
340
0
102
{BLKREFS
331
898
102
}
  0
BLOCK_RECORD
  5
1788
330
1
100
AcDbSymbolTableRecord
100
AcDbBlockTableRecord
  2
*X1
340
0
102
{BLKREFS
331
1C6C
102
}
  0
BLOCK_RECORD
  5
179D
330
1
100
AcDbSymbolTableRecord
100
AcDbBlockTableRecord
  2
*X2
340
0
102
{BLKREFS
331
1C7C
102
}
  0
BLOCK_RECORD
  5
1802
330
1
100
AcDbSymbolTableRecord
100
AcDbBlockTableRecord
  2
*X3
340
0
102
{BLKREFS
331
1C4A
102
}
  0
BLOCK_RECORD
  5
18D3
330
1
100
AcDbSymbolTableRecord
100
AcDbBlockTableRecord
  2
*X4
340
0
102
{BLKREFS
331
1D6A
102
}
  0
BLOCK_RECORD
  5
1954
330
1
100
AcDbSymbolTableRecord
100
AcDbBlockTableRecord
  2
*X5
340
0
102
{BLKREFS
331
1D0F
102
}
  0
BLOCK_RECORD
  5
1975
330
1
100
AcDbSymbolTableRecord
100
AcDbBlockTableRecord
  2
*X6
340
0
102
{BLKREFS
331
1D06
102
}
  0
BLOCK_RECORD
  5
198F
330
1
100
AcDbSymbolTableRecord
100
AcDbBlockTableRecord
  2
*X7
340
0
102
{BLKREFS
331
1D1F
102
}
  0
BLOCK_RECORD
  5
19F4
330
1
100
AcDbSymbolTableRecord
100
AcDbBlockTableRecord
  2
*X8
340
0
102
{BLKREFS
331
1D05
102
}
  0
BLOCK_RECORD
  5
1A10
330
1
100
AcDbSymbolTableRecord
100
AcDbBlockTableRecord
  2
*X9
340
0
102
{BLKREFS
331
1CFE
102
}
  0
BLOCK_RECORD
  5
1A42
330
1
100
AcDbSymbolTableRecord
100
AcDbBlockTableRecord
  2
*X10
340
0
102
{BLKREFS
331
1CE4
102
}
  0
BLOCK_RECORD
  5
1D78
330
1
100
AcDbSymbolTableRecord
100
AcDbBlockTableRecord
  2
*D11
340
0
  0
BLOCK_RECORD
  5
1D85
330
1
100
AcDbSymbolTableRecord
100
AcDbBlockTableRecord
  2
*D12
340
0
  0
BLOCK_RECORD
  5
1D92
330
1
100
AcDbSymbolTableRecord
100
AcDbBlockTableRecord
  2
*D13
340
0
  0
BLOCK_RECORD
  5
1D9F
330
1
100
AcDbSymbolTableRecord
100
AcDbBlockTableRecord
  2
*D14
340
0
  0
BLOCK_RECORD
  5
1DAC
330
1
100
AcDbSymbolTableRecord
100
AcDbBlockTableRecord
  2
*D15
340
0
  0
ENDTAB
  0
ENDSEC
  0
SECTION
  2
BLOCKS
  0
BLOCK
  5
35
330
1E
100
AcDbEntity
  8
0
100
AcDbBlockBegin
  2
*Model_Space
 70
     0
 10
0.0
 20
0.0
 30
0.0
  3
*Model_Space
  1

  0
ENDBLK
  5
36
330
1E
100
AcDbEntity
  8
0
100
AcDbBlockEnd
  0
BLOCK
  5
33
330
1A
100
AcDbEntity
 67
     1
  8
0
100
AcDbBlockBegin
  2
*Paper_Space
 70
     0
 10
0.0
 20
0.0
 30
0.0
  3
*Paper_Space
  1

  0
ENDBLK
  5
34
330
1A
100
AcDbEntity
 67
     1
  8
0
100
AcDbBlockEnd
  0
BLOCK
  5
37
330
22
100
AcDbEntity
  8
0
100
AcDbBlockBegin
  2
LOGO
 70
     0
 10
0.0
 20
0.0
 30
0.0
  3
LOGO
  1

  0
ARC
  5
38
330
22
100
AcDbEntity
  8
0
100
AcDbCircle
 10
11.59973089678112
 20
-9.271599258481501
 30
0.0
 40
4.5
100
AcDbArc
 50
270.0
 51
231.0575587310159
  0
LINE
  5
39
330
22
100
AcDbEntity
  8
0
100
AcDbLine
 10
3.599730896781125
 20
-4.771599258481529
 30
0.0
 11
3.599730896781153
 21
-11.77159925848133
 31
0.0
  0
LINE
  5
3A
330
22
100
AcDbEntity
  8
0
100
AcDbLine
 10
2.599730896781125
 20
-4.771599258481529
 30
0.0
 11
2.599730896781153
 21
-11.77159925848133
 31
0.0
  0
CIRCLE
  5
3B
330
22
100
AcDbEntity
  8
0
100
AcDbCircle
 10
11.59973089678112
 20
-9.271599258481501
 30
0.0
 40
3.5
  0
ARC
  5
3C
330
22
100
AcDbEntity
  8
0
100
AcDbCircle
 10
31.59973089678115
 20
-9.271599258481472
 30
0.0
 40
4.5
100
AcDbArc
 50
270.0
 51
231.0575587310182
  0
LINE
  5
3D
330
22
100
AcDbEntity
  8
0
100
AcDbLine
 10
17.59973089678112
 20
-4.771599258481472
 30
0.0
 11
17.59973089678115
 21
-13.77159925848147
 31
0.0
  0
ARC
  5
3E
330
22
100
AcDbEntity
  8
0
100
AcDbCircle
 10
22.59973089678116
 20
-7.271599258481472
 30
0.0
 40
2.5
100
AcDbArc
 50
293.1161887722295
 51
90.0
  0
CIRCLE
  5
3F
330
22
100
AcDbEntity
  8
0
100
AcDbCircle
 10
31.59973089678115
 20
-9.271599258481472
 30
0.0
 40
3.5
  0
ARC
  5
40
330
22
100
AcDbEntity
  8
0
100
AcDbCircle
 10
4.599730896781153
 20
-11.77159925848133
 30
0.0
 40
1.0
100
AcDbArc
 50
180.0
 51
270.0
  0
ARC
  5
41
330
22
100
AcDbEntity
  8
0
100
AcDbCircle
 10
4.599730896781153
 20
-11.77159925848133
 30
0.0
 40
2.0
100
AcDbArc
 50
179.9999999999992
 51
270.0
  0
LINE
  5
42
330
22
100
AcDbEntity
  8
0
100
AcDbLine
 10
11.59973089678115
 20
-13.77159925848144
 30
0.0
 11
4.599730896781153
 21
-13.77159925848147
 31
0.0
  0
LINE
  5
43
330
22
100
AcDbEntity
  8
0
100
AcDbLine
 10
8.771303772034769
 20
-12.77159925848136
 30
0.0
 11
4.599730896781153
 21
-12.77159925848133
 31
0.0
  0
LINE
  5
44
330
22
100
AcDbEntity
  8
0
100
AcDbLine
 10
31.59973089678115
 20
-13.77159925848147
 30
0.0
 11
23.6715276665056
 21
-13.77159925848144
 31
0.0
  0
LINE
  5
45
330
22
100
AcDbEntity
  8
0
100
AcDbLine
 10
23.56565672307022
 20
-9.51278021337896
 30
0.0
 11
24.4388546544846
 21
-12.77159925848144
 31
0.0
  0
LINE
  5
46
330
22
100
AcDbEntity
  8
0
100
AcDbLine
 10
22.59973089678116
 20
-9.771599258481472
 30
0.0
 11
18.59973089678112
 21
-9.771599258481472
 31
0.0
  0
LINE
  5
47
330
22
100
AcDbEntity
  8
0
100
AcDbLine
 10
18.59973089678115
 20
-13.77159925848144
 30
0.0
 11
17.59973089678115
 21
-13.77159925848144
 31
0.0
  0
LINE
  5
48
330
22
100
AcDbEntity
  8
0
100
AcDbLine
 10
18.59973089678115
 20
-9.771599258481472
 30
0.0
 11
18.59973089678115
 21
-13.77159925848144
 31
0.0
  0
LINE
  5
49
330
22
100
AcDbEntity
  8
0
100
AcDbLine
 10
22.59973089678116
 20
-9.771599258481472
 30
0.0
 11
23.67152766650562
 21
-13.77159925848147
 31
0.0
  0
ARC
  5
4A
330
22
100
AcDbEntity
  8
0
100
AcDbCircle
 10
22.59973089678116
 20
-7.271599258481472
 30
0.0
 40
2.5
100
AcDbArc
 50
270.0
 51
270.0000000000007
  0
LINE
  5
4B
330
22
100
AcDbEntity
  8
0
100
AcDbLine
 10
28.77130377203494
 20
-12.77159925848147
 30
0.0
 11
24.43885465448463
 21
-12.77159925848144
 31
0.0
  0
LINE
  5
4C
330
22
100
AcDbEntity
  8
0
100
AcDbLine
 10
3.599730896781125
 20
-4.771599258481472
 30
0.0
 11
2.599730896781125
 21
-4.771599258481472
 31
0.0
  0
LINE
  5
4D
330
22
100
AcDbEntity
  8
0
100
AcDbLine
 10
22.59973089678116
 20
-8.771599258481472
 30
0.0
 11
18.59973089678115
 21
-8.771599258481472
 31
0.0
  0
LINE
  5
4E
330
22
100
AcDbEntity
  8
0
100
AcDbLine
 10
22.59973089678116
 20
-5.771599258481472
 30
0.0
 11
18.59973089678115
 21
-5.771599258481472
 31
0.0
  0
LINE
  5
4F
330
22
100
AcDbEntity
  8
0
100
AcDbLine
 10
22.59973089678116
 20
-4.771599258481472
 30
0.0
 11
17.59973089678115
 21
-4.771599258481472
 31
0.0
  0
LINE
  5
50
330
22
100
AcDbEntity
  8
0
100
AcDbLine
 10
18.59973089678115
 20
-5.771599258481472
 30
0.0
 11
18.59973089678115
 21
-8.771599258481472
 31
0.0
  0
ARC
  5
51
330
22
100
AcDbEntity
  8
0
100
AcDbCircle
 10
22.59973089678116
 20
-7.271599258481472
 30
0.0
 40
1.5
100
AcDbArc
 50
270.0
 51
90.0
  0
ENDBLK
  5
52
330
22
100
AcDbEntity
  8
0
100
AcDbBlockEnd
  0
BLOCK
  5
1789
330
1788
100
AcDbEntity
  8
0
100
AcDbBlockBegin
  2
*X1
 70
     1
 10
0.0
 20
0.0
 30
0.0
  3
*X1
  1

  0
LINE
  5
178A
330
1788
100
AcDbEntity
  8
0
 62
     0
100
AcDbLine
 10
185.0
 20
393.1
 30
0.0
 11
186.3092944051313
 21
393.1
 31
0.0
  0
LINE
  5
178B
330
1788
100
AcDbEntity
  8
0
 62
     0
100
AcDbLine
 10
185.0
 20
393.2
 30
0.0
 11
186.384705712159
 21
393.2
 31
0.0
  0
LINE
  5
178C
330
1788
100
AcDbEntity
  8
0
 62
     0
100
AcDbLine
 10
185.0
 20
393.3
 30
0.0
 11
186.4521212303382
 21
393.3
 31
0.0
  0
LINE
  5
178D
330
1788
100
AcDbEntity
  8
0
 62
     0
100
AcDbLine
 10
185.0
 20
393.4000000000001
 30
0.0
 11
186.5123424217142
 21
393.4000000000001
 31
0.0
  0
LINE
  5
178E
330
1788
100
AcDbEntity
  8
0
 62
     0
100
AcDbLine
 10
185.0
 20
393.5
 30
0.0
 11
186.5659967452162
 21
393.5
 31
0.0
  0
LINE
  5
178F
330
1788
100
AcDbEntity
  8
0
 62
     0
100
AcDbLine
 10
185.0
 20
393.6
 30
0.0
 11
186.6135830068877
 21
393.6
 31
0.0
  0
LINE
  5
1790
330
1788
100
AcDbEntity
  8
0
 62
     0
100
AcDbLine
 10
185.0
 20
393.7000000000001
 30
0.0
 11
186.655502058055
 21
393.7000000000001
 31
0.0
  0
LINE
  5
1791
330
1788
100
AcDbEntity
  8
0
 62
     0
100
AcDbLine
 10
185.0
 20
393.8
 30
0.0
 11
186.6920781905767
 21
393.8
 31
0.0
  0
LINE
  5
1792
330
1788
100
AcDbEntity
  8
0
 62
     0
100
AcDbLine
 10
185.0
 20
393.9
 30
0.0
 11
186.7235743983727
 21
393.9
 31
0.0
  0
LINE
  5
1793
330
1788
100
AcDbEntity
  8
0
 62
     0
100
AcDbLine
 10
185.0
 20
394.0
 30
0.0
 11
186.7502034575977
 21
394.0
 31
0.0
  0
LINE
  5
1794
330
1788
100
AcDbEntity
  8
0
 62
     0
100
AcDbLine
 10
185.0
 20
393.0
 30
0.0
 11
186.2248423780445
 21
393.0
 31
0.0
  0
LINE
  5
1795
330
1788
100
AcDbEntity
  8
0
 62
     0
100
AcDbLine
 10
185.0
 20
392.9
 30
0.0
 11
186.1299499173385
 21
392.9
 31
0.0
  0
LINE
  5
1796
330
1788
100
AcDbEntity
  8
0
 62
     0
100
AcDbLine
 10
185.0
 20
392.8
 30
0.0
 11
186.0226736974946
 21
392.8
 31
0.0
  0
LINE
  5
1797
330
1788
100
AcDbEntity
  8
0
 62
     0
100
AcDbLine
 10
185.0
 20
392.7000000000001
 30
0.0
 11
185.9001818762345
 21
392.7000000000001
 31
0.0
  0
LINE
  5
1798
330
1788
100
AcDbEntity
  8
0
 62
     0
100
AcDbLine
 10
185.0
 20
392.6
 30
0.0
 11
185.7580580298832
 21
392.6
 31
0.0
  0
LINE
  5
1799
330
1788
100
AcDbEntity
  8
0
 62
     0
100
AcDbLine
 10
185.0
 20
392.5
 30
0.0
 11
185.5886805451021
 21
392.5
 31
0.0
  0
LINE
  5
179A
330
1788
100
AcDbEntity
  8
0
 62
     0
100
AcDbLine
 10
185.0
 20
392.4
 30
0.0
 11
185.3764900821786
 21
392.4
 31
0.0
  0
LINE
  5
179B
330
1788
100
AcDbEntity
  8
0
 62
     0
100
AcDbLine
 10
185.0
 20
392.3
 30
0.0
 11
185.0764189883935
 21
392.3
 31
0.0
  0
ENDBLK
  5
179C
330
1788
100
AcDbEntity
  8
0
100
AcDbBlockEnd
  0
BLOCK
  5
179E
330
179D
100
AcDbEntity
  8
0
100
AcDbBlockBegin
  2
*X2
 70
     1
 10
0.0
 20
0.0
 30
0.0
  3
*X2
  1

  0
LINE
  5
179F
330
179D
100
AcDbEntity
  8
0
 62
     0
100
AcDbLine
 10
345.2758150318406
 20
355.8824167496388
 30
0.0
 11
354.5495326962139
 21
365.1561344140122
 31
0.0
  0
LINE
  5
17A0
330
179D
100
AcDbEntity
  8
0
 62
     0
100
AcDbLine
 10
345.2758150318406
 20
357.6501837026052
 30
0.0
 11
355.014734525942
 21
367.3891031967065
 31
0.0
  0
LINE
  5
17A1
330
179D
100
AcDbEntity
  8
0
 62
     0
100
AcDbLine
 10
345.2758150318406
 20
359.4179506555716
 30
0.0
 11
355.47993635567
 21
369.6220719794009
 31
0.0
  0
LINE
  5
17A2
330
179D
100
AcDbEntity
  8
0
 62
     0
100
AcDbLine
 10
345.2758150318406
 20
361.185717608538
 30
0.0
 11
355.9451381853979
 21
371.8550407620953
 31
0.0
  0
LINE
  5
17A3
330
179D
100
AcDbEntity
  8
0
 62
     0
100
AcDbLine
 10
345.2758150318406
 20
362.9534845615043
 30
0.0
 11
355.7646200953566
 21
373.4422896250202
 31
0.0
  0
LINE
  5
17A4
330
179D
100
AcDbEntity
  8
0
 62
     0
100
AcDbLine
 10
345.2758150318406
 20
364.7212515144707
 30
0.0
 11
353.9968531423902
 21
373.4422896250202
 31
0.0
  0
LINE
  5
17A5
330
179D
100
AcDbEntity
  8
0
 62
     0
100
AcDbLine
 10
345.2758150318406
 20
366.4890184674371
 30
0.0
 11
352.2290861894238
 21
373.4422896250202
 31
0.0
  0
LINE
  5
17A6
330
179D
100
AcDbEntity
  8
0
 62
     0
100
AcDbLine
 10
345.2758150318406
 20
368.2567854204034
 30
0.0
 11
350.4613192364574
 21
373.4422896250202
 31
0.0
  0
LINE
  5
17A7
330
179D
100
AcDbEntity
  8
0
 62
     0
100
AcDbLine
 10
345.2758150318406
 20
370.0245523733698
 30
0.0
 11
348.693552283491
 21
373.4422896250202
 31
0.0
  0
LINE
  5
17A8
330
179D
100
AcDbEntity
  8
0
 62
     0
100
AcDbLine
 10
345.2758150318406
 20
354.1146497966725
 30
0.0
 11
354.084330866486
 21
362.9231656313178
 31
0.0
  0
LINE
  5
17A9
330
179D
100
AcDbEntity
  8
0
 62
     0
100
AcDbLine
 10
345.2758150318406
 20
352.3468828437061
 30
0.0
 11
353.6191290367579
 21
360.6901968486234
 31
0.0
  0
LINE
  5
17AA
330
179D
100
AcDbEntity
  8
0
 62
     0
100
AcDbLine
 10
345.2758150318406
 20
350.5791158907397
 30
0.0
 11
353.15392720703
 21
358.4572280659291
 31
0.0
  0
LINE
  5
17AB
330
179D
100
AcDbEntity
  8
0
 62
     0
100
AcDbLine
 10
345.9067557190875
 20
349.4422896250203
 30
0.0
 11
352.688725377302
 21
356.2242592832348
 31
0.0
  0
LINE
  5
17AC
330
179D
100
AcDbEntity
  8
0
 62
     0
100
AcDbLine
 10
347.6745226720538
 20
349.4422896250203
 30
0.0
 11
352.223523547574
 21
353.9912905005404
 31
0.0
  0
LINE
  5
17AD
330
179D
100
AcDbEntity
  8
0
 62
     0
100
AcDbLine
 10
349.4422896250203
 20
349.4422896250203
 30
0.0
 11
351.758321717846
 21
351.758321717846
 31
0.0
  0
LINE
  5
17AE
330
179D
100
AcDbEntity
  8
0
 62
     0
100
AcDbLine
 10
351.2100565779866
 20
349.4422896250203
 30
0.0
 11
351.293119888118
 21
349.5253529351517
 31
0.0
  0
LINE
  5
17AF
330
179D
100
AcDbEntity
  8
0
 62
     0
100
AcDbLine
 10
352.9868857966026
 20
357.6554292958776
 30
0.0
 11
345.2758150318406
 21
365.3665000606395
 31
0.0
  0
LINE
  5
17B0
330
179D
100
AcDbEntity
  8
0
 62
     0
100
AcDbLine
 10
352.6820983909187
 20
356.1924497485951
 30
0.0
 11
345.2758150318406
 21
363.5987331076731
 31
0.0
  0
LINE
  5
17B1
330
179D
100
AcDbEntity
  8
0
 62
     0
100
AcDbLine
 10
352.3773109852348
 20
354.7294702013126
 30
0.0
 11
345.2758150318406
 21
361.8309661547068
 31
0.0
  0
LINE
  5
17B2
330
179D
100
AcDbEntity
  8
0
 62
     0
100
AcDbLine
 10
352.072523579551
 20
353.2664906540301
 30
0.0
 11
345.2758150318406
 21
360.0631992017404
 31
0.0
  0
LINE
  5
17B3
330
179D
100
AcDbEntity
  8
0
 62
     0
100
AcDbLine
 10
351.7677361738671
 20
351.8035111067475
 30
0.0
 11
345.2758150318406
 21
358.295432248774
 31
0.0
  0
LINE
  5
17B4
330
179D
100
AcDbEntity
  8
0
 62
     0
100
AcDbLine
 10
351.4629487681833
 20
350.340531559465
 30
0.0
 11
345.2758150318406
 21
356.5276652958076
 31
0.0
  0
LINE
  5
17B5
330
179D
100
AcDbEntity
  8
0
 62
     0
100
AcDbLine
 10
350.5934237496617
 20
349.4422896250203
 30
0.0
 11
345.2758150318406
 21
354.7598983428413
 31
0.0
  0
LINE
  5
17B6
330
179D
100
AcDbEntity
  8
0
 62
     0
100
AcDbLine
 10
348.8256567966953
 20
349.4422896250203
 30
0.0
 11
345.2758150318406
 21
352.9921313898749
 31
0.0
  0
LINE
  5
17B7
330
179D
100
AcDbEntity
  8
0
 62
     0
100
AcDbLine
 10
347.057889843729
 20
349.4422896250203
 30
0.0
 11
345.2758150318406
 21
351.2243644369086
 31
0.0
  0
LINE
  5
17B8
330
179D
100
AcDbEntity
  8
0
 62
     0
100
AcDbLine
 10
345.2901228907626
 20
349.4422896250203
 30
0.0
 11
345.2758150318406
 21
349.4565974839422
 31
0.0
  0
LINE
  5
17B9
330
179D
100
AcDbEntity
  8
0
 62
     0
100
AcDbLine
 10
353.2916732022864
 20
359.1184088431601
 30
0.0
 11
345.2758150318406
 21
367.1342670136059
 31
0.0
  0
LINE
  5
17BA
330
179D
100
AcDbEntity
  8
0
 62
     0
100
AcDbLine
 10
353.5964606079703
 20
360.5813883904426
 30
0.0
 11
345.2758150318406
 21
368.9020339665723
 31
0.0
  0
LINE
  5
17BB
330
179D
100
AcDbEntity
  8
0
 62
     0
100
AcDbLine
 10
353.9012480136542
 20
362.0443679377251
 30
0.0
 11
345.2758150318406
 21
370.6698009195386
 31
0.0
  0
LINE
  5
17BC
330
179D
100
AcDbEntity
  8
0
 62
     0
100
AcDbLine
 10
354.206035419338
 20
363.5073474850076
 30
0.0
 11
345.8477309577821
 21
371.8656519465636
 31
0.0
  0
LINE
  5
17BD
330
179D
100
AcDbEntity
  8
0
 62
     0
100
AcDbLine
 10
354.5108228250219
 20
364.9703270322901
 30
0.0
 11
346.7580462258258
 21
372.7231036314862
 31
0.0
  0
LINE
  5
17BE
330
179D
100
AcDbEntity
  8
0
 62
     0
100
AcDbLine
 10
354.8156102307057
 20
366.4333065795727
 30
0.0
 11
347.8066271852582
 21
373.4422896250202
 31
0.0
  0
LINE
  5
17BF
330
179D
100
AcDbEntity
  8
0
 62
     0
100
AcDbLine
 10
355.1203976363896
 20
367.8962861268552
 30
0.0
 11
349.5743941382245
 21
373.4422896250202
 31
0.0
  0
LINE
  5
17C0
330
179D
100
AcDbEntity
  8
0
 62
     0
100
AcDbLine
 10
355.4251850420734
 20
369.3592656741377
 30
0.0
 11
351.3421610911909
 21
373.4422896250202
 31
0.0
  0
LINE
  5
17C1
330
179D
100
AcDbEntity
  8
0
 62
     0
100
AcDbLine
 10
355.7299724477573
 20
370.8222452214202
 30
0.0
 11
353.1099280441572
 21
373.4422896250202
 31
0.0
  0
LINE
  5
17C2
330
179D
100
AcDbEntity
  8
0
 62
     0
100
AcDbLine
 10
356.0347598534411
 20
372.2852247687027
 30
0.0
 11
354.8776949971236
 21
373.4422896250202
 31
0.0
  0
ENDBLK
  5
17C3
330
179D
100
AcDbEntity
  8
0
100
AcDbBlockEnd
  0
BLOCK
  5
1803
330
1802
100
AcDbEntity
  8
0
100
AcDbBlockBegin
  2
*X3
 70
     1
 10
0.0
 20
0.0
 30
0.0
  3
*X3
  1

  0
LINE
  5
1804
330
1802
100
AcDbEntity
  8
0
 62
     0
100
AcDbLine
 10
265.0707046856155
 20
355.2268192869004
 30
0.0
 11
272.2758150318406
 21
362.4319296331254
 31
0.0
  0
LINE
  5
1805
330
1802
100
AcDbEntity
  8
0
 62
     0
100
AcDbLine
 10
264.7659172799317
 20
356.6897988341829
 30
0.0
 11
272.2758150318406
 21
364.1996965860918
 31
0.0
  0
LINE
  5
1806
330
1802
100
AcDbEntity
  8
0
 62
     0
100
AcDbLine
 10
264.4611298742479
 20
358.1527783814654
 30
0.0
 11
272.2758150318406
 21
365.9674635390582
 31
0.0
  0
LINE
  5
1807
330
1802
100
AcDbEntity
  8
0
 62
     0
100
AcDbLine
 10
264.156342468564
 20
359.6157579287479
 30
0.0
 11
272.1253838867669
 21
367.5847993469508
 31
0.0
  0
LINE
  5
1808
330
1802
100
AcDbEntity
  8
0
 62
     0
100
AcDbLine
 10
263.8515550628802
 20
361.0787374760304
 30
0.0
 11
270.3504666901519
 21
367.5776491033021
 31
0.0
  0
LINE
  5
1809
330
1802
100
AcDbEntity
  8
0
 62
     0
100
AcDbLine
 10
263.5467676571963
 20
362.5417170233129
 30
0.0
 11
268.5786663837637
 21
367.5736157498803
 31
0.0
  0
LINE
  5
180A
330
1802
100
AcDbEntity
  8
0
 62
     0
100
AcDbLine
 10
263.2419802515124
 20
364.0046965705955
 30
0.0
 11
266.808303208615
 21
367.571019527698
 31
0.0
  0
LINE
  5
180B
330
1802
100
AcDbEntity
  8
0
 62
     0
100
AcDbLine
 10
262.9371928458286
 20
365.4676761178779
 30
0.0
 11
265.0393499431122
 21
367.5698332151615
 31
0.0
  0
LINE
  5
180C
330
1802
100
AcDbEntity
  8
0
 62
     0
100
AcDbLine
 10
262.6324054401447
 20
366.9306556651605
 30
0.0
 11
263.2712152339617
 21
367.5694654589774
 31
0.0
  0
LINE
  5
180D
330
1802
100
AcDbEntity
  8
0
 62
     0
100
AcDbLine
 10
265.3754920912994
 20
353.7638397396179
 30
0.0
 11
272.2758150318406
 21
360.664162680159
 31
0.0
  0
LINE
  5
180E
330
1802
100
AcDbEntity
  8
0
 62
     0
100
AcDbLine
 10
265.6802794969833
 20
352.3008601923353
 30
0.0
 11
272.2758150318406
 21
358.8963957271927
 31
0.0
  0
LINE
  5
180F
330
1802
100
AcDbEntity
  8
0
 62
     0
100
AcDbLine
 10
265.9850669026671
 20
350.8378806450529
 30
0.0
 11
272.2758150318406
 21
357.1286287742263
 31
0.0
  0
LINE
  5
1810
330
1802
100
AcDbEntity
  8
0
 62
     0
100
AcDbLine
 10
266.3572428356009
 20
349.4422896250203
 30
0.0
 11
272.2758150318406
 21
355.36086182126
 31
0.0
  0
LINE
  5
1811
330
1802
100
AcDbEntity
  8
0
 62
     0
100
AcDbLine
 10
268.1250097885672
 20
349.4422896250203
 30
0.0
 11
272.2758150318406
 21
353.5930948682936
 31
0.0
  0
LINE
  5
1812
330
1802
100
AcDbEntity
  8
0
 62
     0
100
AcDbLine
 10
269.8927767415336
 20
349.4422896250203
 30
0.0
 11
272.2758150318406
 21
351.8253279153273
 31
0.0
  0
LINE
  5
1813
330
1802
100
AcDbEntity
  8
0
 62
     0
100
AcDbLine
 10
271.6605436945
 20
349.4422896250203
 30
0.0
 11
272.2758150318406
 21
350.0575609623609
 31
0.0
  0
LINE
  5
1814
330
1802
100
AcDbEntity
  8
0
 62
     0
100
AcDbLine
 10
272.2758150318406
 20
353.5136863182539
 30
0.0
 11
263.6254474809896
 21
362.1640538691049
 31
0.0
  0
LINE
  5
1815
330
1802
100
AcDbEntity
  8
0
 62
     0
100
AcDbLine
 10
272.2758150318406
 20
351.7459193652875
 30
0.0
 11
264.0906493107176
 21
359.9310850864106
 31
0.0
  0
LINE
  5
1816
330
1802
100
AcDbEntity
  8
0
 62
     0
100
AcDbLine
 10
272.2758150318406
 20
349.9781524123211
 30
0.0
 11
264.5558511404456
 21
357.6981163037162
 31
0.0
  0
LINE
  5
1817
330
1802
100
AcDbEntity
  8
0
 62
     0
100
AcDbLine
 10
271.0439108661752
 20
349.4422896250203
 30
0.0
 11
265.0210529701736
 21
355.4651475210218
 31
0.0
  0
LINE
  5
1818
330
1802
100
AcDbEntity
  8
0
 62
     0
100
AcDbLine
 10
269.2761439132088
 20
349.4422896250203
 30
0.0
 11
265.4862547999016
 21
353.2321787383275
 31
0.0
  0
LINE
  5
1819
330
1802
100
AcDbEntity
  8
0
 62
     0
100
AcDbLine
 10
267.5083769602425
 20
349.4422896250203
 30
0.0
 11
265.9514566296296
 21
350.9992099556331
 31
0.0
  0
LINE
  5
181A
330
1802
100
AcDbEntity
  8
0
 62
     0
100
AcDbLine
 10
272.2758150318406
 20
355.2814532712202
 30
0.0
 11
263.1602456512616
 21
364.3970226517993
 31
0.0
  0
LINE
  5
181B
330
1802
100
AcDbEntity
  8
0
 62
     0
100
AcDbLine
 10
272.2758150318406
 20
357.0492202241866
 30
0.0
 11
262.6950438215336
 21
366.6299914344937
 31
0.0
  0
LINE
  5
181C
330
1802
100
AcDbEntity
  8
0
 62
     0
100
AcDbLine
 10
272.2758150318406
 20
358.816987177153
 30
0.0
 11
263.5232843219035
 21
367.5695178870902
 31
0.0
  0
LINE
  5
181D
330
1802
100
AcDbEntity
  8
0
 62
     0
100
AcDbLine
 10
272.2758150318406
 20
360.5847541301193
 30
0.0
 11
265.2906836716339
 21
367.5698854903262
 31
0.0
  0
LINE
  5
181E
330
1802
100
AcDbEntity
  8
0
 62
     0
100
AcDbLine
 10
272.2758150318406
 20
362.3525210830857
 30
0.0
 11
267.0569519460198
 21
367.5713841689066
 31
0.0
  0
LINE
  5
181F
330
1802
100
AcDbEntity
  8
0
 62
     0
100
AcDbLine
 10
272.2758150318406
 20
364.1202880360521
 30
0.0
 11
268.8221302803278
 21
367.5739727875649
 31
0.0
  0
LINE
  5
1820
330
1802
100
AcDbEntity
  8
0
 62
     0
100
AcDbLine
 10
272.2758150318406
 20
365.8880549890184
 30
0.0
 11
270.585274993666
 21
367.5785950271932
 31
0.0
  0
ENDBLK
  5
1821
330
1802
100
AcDbEntity
  8
0
100
AcDbBlockEnd
  0
BLOCK
  5
18D4
330
18D3
100
AcDbEntity
  8
0
100
AcDbBlockBegin
  2
*X4
 70
     1
 10
0.0
 20
0.0
 30
0.0
  3
*X4
  1

  0
LINE
  5
18D5
330
18D3
100
AcDbEntity
  8
0
 62
     0
100
AcDbLine
 10
164.8343025922801
 20
222.6
 30
0.0
 11
167.9697043475556
 21
222.6
 31
0.0
  0
LINE
  5
18D6
330
18D3
100
AcDbEntity
  8
0
 62
     0
100
AcDbLine
 10
164.9047907403175
 20
222.7
 30
0.0
 11
168.1697043475556
 21
222.7
 31
0.0
  0
LINE
  5
18D7
330
18D3
100
AcDbEntity
  8
0
 62
     0
100
AcDbLine
 10
164.9797802569385
 20
222.8
 30
0.0
 11
168.3697043475556
 21
222.8
 31
0.0
  0
LINE
  5
18D8
330
18D3
100
AcDbEntity
  8
0
 62
     0
100
AcDbLine
 10
165.0595833618161
 20
222.9
 30
0.0
 11
168.5697043475556
 21
222.9
 31
0.0
  0
LINE
  5
18D9
330
18D3
100
AcDbEntity
  8
0
 62
     0
100
AcDbLine
 10
165.1445649188855
 20
223.0
 30
0.0
 11
168.7697043475556
 21
223.0
 31
0.0
  0
LINE
  5
18DA
330
18D3
100
AcDbEntity
  8
0
 62
     0
100
AcDbLine
 10
165.2351552571325
 20
223.1
 30
0.0
 11
168.9697043475556
 21
223.1
 31
0.0
  0
LINE
  5
18DB
330
18D3
100
AcDbEntity
  8
0
 62
     0
100
AcDbLine
 10
165.3318673929381
 20
223.2
 30
0.0
 11
169.1697043475556
 21
223.2
 31
0.0
  0
LINE
  5
18DC
330
18D3
100
AcDbEntity
  8
0
 62
     0
100
AcDbLine
 10
165.4353206583142
 20
223.3
 30
0.0
 11
169.3697043475556
 21
223.3
 31
0.0
  0
LINE
  5
18DD
330
18D3
100
AcDbEntity
  8
0
 62
     0
100
AcDbLine
 10
165.546273919725
 20
223.4
 30
0.0
 11
169.5697043475556
 21
223.4
 31
0.0
  0
LINE
  5
18DE
330
18D3
100
AcDbEntity
  8
0
 62
     0
100
AcDbLine
 10
165.6656736368377
 20
223.5
 30
0.0
 11
169.7697043475556
 21
223.5
 31
0.0
  0
LINE
  5
18DF
330
18D3
100
AcDbEntity
  8
0
 62
     0
100
AcDbLine
 10
165.7947257957781
 20
223.6
 30
0.0
 11
169.9697043475556
 21
223.6
 31
0.0
  0
LINE
  5
18E0
330
18D3
100
AcDbEntity
  8
0
 62
     0
100
AcDbLine
 10
165.9350080908235
 20
223.7
 30
0.0
 11
170.1697043475556
 21
223.7
 31
0.0
  0
LINE
  5
18E1
330
18D3
100
AcDbEntity
  8
0
 62
     0
100
AcDbLine
 10
166.0886539605325
 20
223.8
 30
0.0
 11
170.3697043475556
 21
223.8
 31
0.0
  0
LINE
  5
18E2
330
18D3
100
AcDbEntity
  8
0
 62
     0
100
AcDbLine
 10
166.2586744884473
 20
223.9
 30
0.0
 11
170.3470637717072
 21
223.9
 31
0.0
  0
LINE
  5
18E3
330
18D3
100
AcDbEntity
  8
0
 62
     0
100
AcDbLine
 10
166.4495708139136
 20
224.0
 30
0.0
 11
170.1561674462409
 21
224.0
 31
0.0
  0
LINE
  5
18E4
330
18D3
100
AcDbEntity
  8
0
 62
     0
100
AcDbLine
 10
166.6686422289031
 20
224.1
 30
0.0
 11
169.9370960312514
 21
224.1
 31
0.0
  0
LINE
  5
18E5
330
18D3
100
AcDbEntity
  8
0
 62
     0
100
AcDbLine
 10
166.929304249794
 20
224.2
 30
0.0
 11
169.6764340103605
 21
224.2
 31
0.0
  0
LINE
  5
18E6
330
18D3
100
AcDbEntity
  8
0
 62
     0
100
AcDbLine
 10
167.2623580075159
 20
224.3
 30
0.0
 11
169.3433802526386
 21
224.3
 31
0.0
  0
LINE
  5
18E7
330
18D3
100
AcDbEntity
  8
0
 62
     0
100
AcDbLine
 10
167.7942963112988
 20
224.4
 30
0.0
 11
168.8114419488558
 21
224.4
 31
0.0
  0
LINE
  5
18E8
330
18D3
100
AcDbEntity
  8
0
 62
     0
100
AcDbLine
 10
164.8326355583662
 20
149.4
 30
0.0
 11
167.9648213268927
 21
149.4
 31
0.0
  0
LINE
  5
18E9
330
18D3
100
AcDbEntity
  8
0
 62
     0
100
AcDbLine
 10
164.9030173303478
 20
149.3
 30
0.0
 11
168.1648213268927
 21
149.3
 31
0.0
  0
LINE
  5
18EA
330
18D3
100
AcDbEntity
  8
0
 62
     0
100
AcDbLine
 10
164.9778934191861
 20
149.2
 30
0.0
 11
168.3648213268927
 21
149.2
 31
0.0
  0
LINE
  5
18EB
330
18D3
100
AcDbEntity
  8
0
 62
     0
100
AcDbLine
 10
165.0575748913512
 20
149.1
 30
0.0
 11
168.5648213268927
 21
149.1
 31
0.0
  0
LINE
  5
18EC
330
18D3
100
AcDbEntity
  8
0
 62
     0
100
AcDbLine
 10
165.1424251875589
 20
149.0
 30
0.0
 11
168.7648213268927
 21
149.0
 31
0.0
  0
LINE
  5
18ED
330
18D3
100
AcDbEntity
  8
0
 62
     0
100
AcDbLine
 10
165.2328728545594
 20
148.9
 30
0.0
 11
168.9648213268927
 21
148.9
 31
0.0
  0
LINE
  5
18EE
330
18D3
100
AcDbEntity
  8
0
 62
     0
100
AcDbLine
 10
165.3294286397384
 20
148.8
 30
0.0
 11
169.1648213268927
 21
148.8
 31
0.0
  0
LINE
  5
18EF
330
18D3
100
AcDbEntity
  8
0
 62
     0
100
AcDbLine
 10
165.4327089311547
 20
148.7
 30
0.0
 11
169.3648213268927
 21
148.7
 31
0.0
  0
LINE
  5
18F0
330
18D3
100
AcDbEntity
  8
0
 62
     0
100
AcDbLine
 10
165.5434686906029
 20
148.6
 30
0.0
 11
169.5648213268927
 21
148.6
 31
0.0
  0
LINE
  5
18F1
330
18D3
100
AcDbEntity
  8
0
 62
     0
100
AcDbLine
 10
165.6626490628737
 20
148.5
 30
0.0
 11
169.7648213268927
 21
148.5
 31
0.0
  0
LINE
  5
18F2
330
18D3
100
AcDbEntity
  8
0
 62
     0
100
AcDbLine
 10
165.7914485716767
 20
148.4
 30
0.0
 11
169.9648213268927
 21
148.4
 31
0.0
  0
LINE
  5
18F3
330
18D3
100
AcDbEntity
  8
0
 62
     0
100
AcDbLine
 10
165.9314340289097
 20
148.3
 30
0.0
 11
170.1648213268927
 21
148.3
 31
0.0
  0
LINE
  5
18F4
330
18D3
100
AcDbEntity
  8
0
 62
     0
100
AcDbLine
 10
166.084722233016
 20
148.2
 30
0.0
 11
170.3648213268927
 21
148.2
 31
0.0
  0
LINE
  5
18F5
330
18D3
100
AcDbEntity
  8
0
 62
     0
100
AcDbLine
 10
166.2542972190049
 20
148.1
 30
0.0
 11
170.3514410411496
 21
148.1
 31
0.0
  0
LINE
  5
18F6
330
18D3
100
AcDbEntity
  8
0
 62
     0
100
AcDbLine
 10
166.4446123951971
 20
148.0
 30
0.0
 11
170.1611258649574
 21
148.0
 31
0.0
  0
LINE
  5
18F7
330
18D3
100
AcDbEntity
  8
0
 62
     0
100
AcDbLine
 10
166.6628723890378
 20
147.9
 30
0.0
 11
169.9428658711167
 21
147.9
 31
0.0
  0
LINE
  5
18F8
330
18D3
100
AcDbEntity
  8
0
 62
     0
100
AcDbLine
 10
166.9222676204038
 20
147.8
 30
0.0
 11
169.6834706397507
 21
147.8
 31
0.0
  0
LINE
  5
18F9
330
18D3
100
AcDbEntity
  8
0
 62
     0
100
AcDbLine
 10
167.2528540128502
 20
147.7
 30
0.0
 11
169.3528842473043
 21
147.7
 31
0.0
  0
LINE
  5
18FA
330
18D3
100
AcDbEntity
  8
0
 62
     0
100
AcDbLine
 10
167.7746618182216
 20
147.6
 30
0.0
 11
168.831076441933
 21
147.6
 31
0.0
  0
ENDBLK
  5
18FB
330
18D3
100
AcDbEntity
  8
0
100
AcDbBlockEnd
  0
BLOCK
  5
1955
330
1954
100
AcDbEntity
  8
0
100
AcDbBlockBegin
  2
*X5
 70
     1
 10
0.0
 20
0.0
 30
0.0
  3
*X5
  1

  0
LINE
  5
1956
330
1954
100
AcDbEntity
  8
0
 62
     0
100
AcDbLine
 10
98.32652192506678
 20
340.0796824105926
 30
0.0
 11
96.72652192506676
 21
341.6796824105927
 31
0.0
  0
LINE
  5
1957
330
1954
100
AcDbEntity
  8
0
 62
     0
100
AcDbLine
 10
96.91230836269369
 20
340.0796824105926
 30
0.0
 11
95.31230836269367
 21
341.6796824105927
 31
0.0
  0
LINE
  5
1958
330
1954
100
AcDbEntity
  8
0
 62
     0
100
AcDbLine
 10
95.4980948003206
 20
340.0796824105926
 30
0.0
 11
93.89809480032058
 21
341.6796824105927
 31
0.0
  0
LINE
  5
1959
330
1954
100
AcDbEntity
  8
0
 62
     0
100
AcDbLine
 10
94.0838812379475
 20
340.0796824105926
 30
0.0
 11
92.48388123794747
 21
341.6796824105927
 31
0.0
  0
LINE
  5
195A
330
1954
100
AcDbEntity
  8
0
 62
     0
100
AcDbLine
 10
92.66966767557441
 20
340.0796824105926
 30
0.0
 11
91.06966767557437
 21
341.6796824105927
 31
0.0
  0
LINE
  5
195B
330
1954
100
AcDbEntity
  8
0
 62
     0
100
AcDbLine
 10
91.2554541132013
 20
340.0796824105926
 30
0.0
 11
89.65545411320128
 21
341.6796824105927
 31
0.0
  0
LINE
  5
195C
330
1954
100
AcDbEntity
  8
0
 62
     0
100
AcDbLine
 10
89.84124055082821
 20
340.0796824105926
 30
0.0
 11
88.24124055082819
 21
341.6796824105927
 31
0.0
  0
LINE
  5
195D
330
1954
100
AcDbEntity
  8
0
 62
     0
100
AcDbLine
 10
88.42702698845512
 20
340.0796824105926
 30
0.0
 11
86.82702698845508
 21
341.6796824105927
 31
0.0
  0
LINE
  5
195E
330
1954
100
AcDbEntity
  8
0
 62
     0
100
AcDbLine
 10
87.01281342608202
 20
340.0796824105926
 30
0.0
 11
85.41281342608199
 21
341.6796824105927
 31
0.0
  0
LINE
  5
195F
330
1954
100
AcDbEntity
  8
0
 62
     0
100
AcDbLine
 10
85.59859986370893
 20
340.0796824105926
 30
0.0
 11
83.9985998637089
 21
341.6796824105927
 31
0.0
  0
LINE
  5
1960
330
1954
100
AcDbEntity
  8
0
 62
     0
100
AcDbLine
 10
84.18438630133584
 20
340.0796824105926
 30
0.0
 11
82.5843863013358
 21
341.6796824105927
 31
0.0
  0
LINE
  5
1961
330
1954
100
AcDbEntity
  8
0
 62
     0
100
AcDbLine
 10
82.77017273896275
 20
340.0796824105926
 30
0.0
 11
81.17017273896271
 21
341.6796824105927
 31
0.0
  0
LINE
  5
1962
330
1954
100
AcDbEntity
  8
0
 62
     0
100
AcDbLine
 10
81.35595917658966
 20
340.0796824105926
 30
0.0
 11
79.75595917658961
 21
341.6796824105927
 31
0.0
  0
LINE
  5
1963
330
1954
100
AcDbEntity
  8
0
 62
     0
100
AcDbLine
 10
79.94174561421655
 20
340.0796824105926
 30
0.0
 11
78.34174561421652
 21
341.6796824105927
 31
0.0
  0
LINE
  5
1964
330
1954
100
AcDbEntity
  8
0
 62
     0
100
AcDbLine
 10
78.52753205184346
 20
340.0796824105926
 30
0.0
 11
78.14250730173276
 21
340.4647071607033
 31
0.0
  0
LINE
  5
1965
330
1954
100
AcDbEntity
  8
0
 62
     0
100
AcDbLine
 10
99.74073548743989
 20
340.0796824105926
 30
0.0
 11
98.14073548743985
 21
341.6796824105927
 31
0.0
  0
LINE
  5
1966
330
1954
100
AcDbEntity
  8
0
 62
     0
100
AcDbLine
 10
101.154949049813
 20
340.0796824105926
 30
0.0
 11
99.55494904981295
 21
341.6796824105927
 31
0.0
  0
LINE
  5
1967
330
1954
100
AcDbEntity
  8
0
 62
     0
100
AcDbLine
 10
102.569162612186
 20
340.0796824105926
 30
0.0
 11
100.969162612186
 21
341.6796824105927
 31
0.0
  0
LINE
  5
1968
330
1954
100
AcDbEntity
  8
0
 62
     0
100
AcDbLine
 10
103.9833761745591
 20
340.0796824105926
 30
0.0
 11
102.3833761745591
 21
341.6796824105927
 31
0.0
  0
LINE
  5
1969
330
1954
100
AcDbEntity
  8
0
 62
     0
100
AcDbLine
 10
105.3975897369322
 20
340.0796824105926
 30
0.0
 11
103.7975897369322
 21
341.6796824105927
 31
0.0
  0
LINE
  5
196A
330
1954
100
AcDbEntity
  8
0
 62
     0
100
AcDbLine
 10
106.8118032993053
 20
340.0796824105926
 30
0.0
 11
105.2118032993053
 21
341.6796824105927
 31
0.0
  0
LINE
  5
196B
330
1954
100
AcDbEntity
  8
0
 62
     0
100
AcDbLine
 10
108.2260168616784
 20
340.0796824105926
 30
0.0
 11
106.6260168616784
 21
341.6796824105927
 31
0.0
  0
LINE
  5
196C
330
1954
100
AcDbEntity
  8
0
 62
     0
100
AcDbLine
 10
109.6402304240515
 20
340.0796824105926
 30
0.0
 11
108.0402304240515
 21
341.6796824105927
 31
0.0
  0
LINE
  5
196D
330
1954
100
AcDbEntity
  8
0
 62
     0
100
AcDbLine
 10
111.0544439864246
 20
340.0796824105926
 30
0.0
 11
109.4544439864246
 21
341.6796824105927
 31
0.0
  0
LINE
  5
196E
330
1954
100
AcDbEntity
  8
0
 62
     0
100
AcDbLine
 10
112.4686575487977
 20
340.0796824105926
 30
0.0
 11
110.8686575487977
 21
341.6796824105927
 31
0.0
  0
LINE
  5
196F
330
1954
100
AcDbEntity
  8
0
 62
     0
100
AcDbLine
 10
113.8828711111708
 20
340.0796824105926
 30
0.0
 11
112.2828711111708
 21
341.6796824105927
 31
0.0
  0
LINE
  5
1970
330
1954
100
AcDbEntity
  8
0
 62
     0
100
AcDbLine
 10
115.2970846735439
 20
340.0796824105926
 30
0.0
 11
113.6970846735439
 21
341.6796824105927
 31
0.0
  0
LINE
  5
1971
330
1954
100
AcDbEntity
  8
0
 62
     0
100
AcDbLine
 10
116.711298235917
 20
340.0796824105926
 30
0.0
 11
115.111298235917
 21
341.6796824105927
 31
0.0
  0
LINE
  5
1972
330
1954
100
AcDbEntity
  8
0
 62
     0
100
AcDbLine
 10
117.7563800548464
 20
340.4488141540364
 30
0.0
 11
116.5255117982901
 21
341.6796824105927
 31
0.0
  0
LINE
  5
1973
330
1954
100
AcDbEntity
  8
0
 62
     0
100
AcDbLine
 10
118.0382400948668
 20
341.581167676389
 30
0.0
 11
117.9397253606632
 21
341.6796824105927
 31
0.0
  0
ENDBLK
  5
1974
330
1954
100
AcDbEntity
  8
0
100
AcDbBlockEnd
  0
BLOCK
  5
1976
330
1975
100
AcDbEntity
  8
0
100
AcDbBlockBegin
  2
*X6
 70
     1
 10
0.0
 20
0.0
 30
0.0
  3
*X6
  1

  0
LINE
  5
1977
330
1975
100
AcDbEntity
  8
0
 62
     0
100
AcDbLine
 10
92.10702762106242
 20
348.0796824105926
 30
0.0
 11
93.70702762106244
 21
349.6796824105926
 31
0.0
  0
LINE
  5
1978
330
1975
100
AcDbEntity
  8
0
 62
     0
100
AcDbLine
 10
90.69281405868933
 20
348.0796824105926
 30
0.0
 11
92.29281405868935
 21
349.6796824105926
 31
0.0
  0
LINE
  5
1979
330
1975
100
AcDbEntity
  8
0
 62
     0
100
AcDbLine
 10
89.27860049631624
 20
348.0796824105926
 30
0.0
 11
90.87860049631624
 21
349.6796824105926
 31
0.0
  0
LINE
  5
197A
330
1975
100
AcDbEntity
  8
0
 62
     0
100
AcDbLine
 10
87.86438693394314
 20
348.0796824105926
 30
0.0
 11
89.46438693394314
 21
349.6796824105926
 31
0.0
  0
LINE
  5
197B
330
1975
100
AcDbEntity
  8
0
 62
     0
100
AcDbLine
 10
86.45017337157005
 20
348.0796824105926
 30
0.0
 11
88.05017337157005
 21
349.6796824105926
 31
0.0
  0
LINE
  5
197C
330
1975
100
AcDbEntity
  8
0
 62
     0
100
AcDbLine
 10
85.03595980919694
 20
348.0796824105926
 30
0.0
 11
86.63595980919696
 21
349.6796824105926
 31
0.0
  0
LINE
  5
197D
330
1975
100
AcDbEntity
  8
0
 62
     0
100
AcDbLine
 10
83.62174624682385
 20
348.0796824105926
 30
0.0
 11
85.22174624682387
 21
349.6796824105926
 31
0.0
  0
LINE
  5
197E
330
1975
100
AcDbEntity
  8
0
 62
     0
100
AcDbLine
 10
82.20753268445076
 20
348.0796824105926
 30
0.0
 11
83.80753268445076
 21
349.6796824105926
 31
0.0
  0
LINE
  5
197F
330
1975
100
AcDbEntity
  8
0
 62
     0
100
AcDbLine
 10
80.79331912207766
 20
348.0796824105926
 30
0.0
 11
82.39331912207767
 21
349.6796824105926
 31
0.0
  0
LINE
  5
1980
330
1975
100
AcDbEntity
  8
0
 62
     0
100
AcDbLine
 10
79.37910555970457
 20
348.0796824105926
 30
0.0
 11
80.97910555970457
 21
349.6796824105926
 31
0.0
  0
LINE
  5
1981
330
1975
100
AcDbEntity
  8
0
 62
     0
100
AcDbLine
 10
77.96489199733146
 20
348.0796824105926
 30
0.0
 11
79.56489199733148
 21
349.6796824105926
 31
0.0
  0
LINE
  5
1982
330
1975
100
AcDbEntity
  8
0
 62
     0
100
AcDbLine
 10
76.84254242827638
 20
348.3715464039106
 30
0.0
 11
78.15067843495839
 21
349.6796824105926
 31
0.0
  0
LINE
  5
1983
330
1975
100
AcDbEntity
  8
0
 62
     0
100
AcDbLine
 10
93.52124118343551
 20
348.0796824105926
 30
0.0
 11
95.12124118343553
 21
349.6796824105926
 31
0.0
  0
LINE
  5
1984
330
1975
100
AcDbEntity
  8
0
 62
     0
100
AcDbLine
 10
94.9354547458086
 20
348.0796824105926
 30
0.0
 11
96.53545474580862
 21
349.6796824105926
 31
0.0
  0
LINE
  5
1985
330
1975
100
AcDbEntity
  8
0
 62
     0
100
AcDbLine
 10
96.34966830818171
 20
348.0796824105926
 30
0.0
 11
97.94966830818173
 21
349.6796824105926
 31
0.0
  0
LINE
  5
1986
330
1975
100
AcDbEntity
  8
0
 62
     0
100
AcDbLine
 10
97.76388187055481
 20
348.0796824105926
 30
0.0
 11
99.36388187055483
 21
349.6796824105926
 31
0.0
  0
LINE
  5
1987
330
1975
100
AcDbEntity
  8
0
 62
     0
100
AcDbLine
 10
99.1780954329279
 20
348.0796824105926
 30
0.0
 11
100.7780954329279
 21
349.6796824105926
 31
0.0
  0
LINE
  5
1988
330
1975
100
AcDbEntity
  8
0
 62
     0
100
AcDbLine
 10
100.592308995301
 20
348.0796824105926
 30
0.0
 11
102.192308995301
 21
349.6796824105926
 31
0.0
  0
LINE
  5
1989
330
1975
100
AcDbEntity
  8
0
 62
     0
100
AcDbLine
 10
102.0065225576741
 20
348.0796824105926
 30
0.0
 11
103.6065225576741
 21
349.6796824105926
 31
0.0
  0
LINE
  5
198A
330
1975
100
AcDbEntity
  8
0
 62
     0
100
AcDbLine
 10
103.4207361200472
 20
348.0796824105926
 30
0.0
 11
105.1155498908704
 21
349.7744961814158
 31
0.0
  0
LINE
  5
198B
330
1975
100
AcDbEntity
  8
0
 62
     0
100
AcDbLine
 10
104.880075022532
 20
348.1248077507044
 30
0.0
 11
107.5835786764524
 21
350.8283114046248
 31
0.0
  0
LINE
  5
198C
330
1975
100
AcDbEntity
  8
0
 62
     0
100
AcDbLine
 10
108.9584754274995
 20
352.2032081556718
 30
0.0
 11
109.1082458716688
 21
352.3529785998412
 31
0.0
  0
LINE
  5
198D
330
1975
100
AcDbEntity
  8
0
 62
     0
100
AcDbLine
 10
106.7399516680622
 20
348.5704708338615
 30
0.0
 11
109.8840302165105
 21
351.7145493823097
 31
0.0
  0
ENDBLK
  5
198E
330
1975
100
AcDbEntity
  8
0
100
AcDbBlockEnd
  0
BLOCK
  5
1990
330
198F
100
AcDbEntity
  8
0
100
AcDbBlockBegin
  2
*X7
 70
     1
 10
0.0
 20
0.0
 30
0.0
  3
*X7
  1

  0
LINE
  5
1991
330
198F
100
AcDbEntity
  8
0
 62
     0
100
AcDbLine
 10
95.96007594826735
 20
341.6796824105926
 30
0.0
 11
98.34357594826737
 21
344.0631824105926
 31
0.0
  0
LINE
  5
1992
330
198F
100
AcDbEntity
  8
0
 62
     0
100
AcDbLine
 10
98.34357594826736
 20
344.0631824105926
 30
0.0
 11
100.4600759482674
 21
346.1796824105927
 31
0.0
  0
LINE
  5
1993
330
198F
100
AcDbEntity
  8
0
 62
     0
100
AcDbLine
 10
94.19230899530099
 20
341.6796824105926
 30
0.0
 11
96.57580899530101
 21
344.0631824105926
 31
0.0
  0
LINE
  5
1994
330
198F
100
AcDbEntity
  8
0
 62
     0
100
AcDbLine
 10
96.57580899530099
 20
344.0631824105926
 30
0.0
 11
98.69230899530101
 21
346.1796824105927
 31
0.0
  0
LINE
  5
1995
330
198F
100
AcDbEntity
  8
0
 62
     0
100
AcDbLine
 10
92.42454204233462
 20
341.6796824105926
 30
0.0
 11
94.80804204233463
 21
344.0631824105926
 31
0.0
  0
LINE
  5
1996
330
198F
100
AcDbEntity
  8
0
 62
     0
100
AcDbLine
 10
94.80804204233463
 20
344.0631824105926
 30
0.0
 11
96.92454204233465
 21
346.1796824105927
 31
0.0
  0
LINE
  5
1997
330
198F
100
AcDbEntity
  8
0
 62
     0
100
AcDbLine
 10
90.65677508936826
 20
341.6796824105926
 30
0.0
 11
93.04027508936826
 21
344.0631824105926
 31
0.0
  0
LINE
  5
1998
330
198F
100
AcDbEntity
  8
0
 62
     0
100
AcDbLine
 10
93.04027508936824
 20
344.0631824105926
 30
0.0
 11
95.15677508936828
 21
346.1796824105927
 31
0.0
  0
LINE
  5
1999
330
198F
100
AcDbEntity
  8
0
 62
     0
100
AcDbLine
 10
88.88900813640189
 20
341.6796824105926
 30
0.0
 11
91.27250813640189
 21
344.0631824105926
 31
0.0
  0
LINE
  5
199A
330
198F
100
AcDbEntity
  8
0
 62
     0
100
AcDbLine
 10
91.27250813640188
 20
344.0631824105926
 30
0.0
 11
93.38900813640192
 21
346.1796824105927
 31
0.0
  0
LINE
  5
199B
330
198F
100
AcDbEntity
  8
0
 62
     0
100
AcDbLine
 10
87.12124118343551
 20
341.6796824105926
 30
0.0
 11
89.50474118343553
 21
344.0631824105926
 31
0.0
  0
LINE
  5
199C
330
198F
100
AcDbEntity
  8
0
 62
     0
100
AcDbLine
 10
89.50474118343551
 20
344.0631824105926
 30
0.0
 11
91.62124118343554
 21
346.1796824105927
 31
0.0
  0
LINE
  5
199D
330
198F
100
AcDbEntity
  8
0
 62
     0
100
AcDbLine
 10
85.35347423046914
 20
341.6796824105926
 30
0.0
 11
87.73697423046916
 21
344.0631824105926
 31
0.0
  0
LINE
  5
199E
330
198F
100
AcDbEntity
  8
0
 62
     0
100
AcDbLine
 10
87.73697423046915
 20
344.0631824105926
 30
0.0
 11
89.85347423046917
 21
346.1796824105927
 31
0.0
  0
LINE
  5
199F
330
198F
100
AcDbEntity
  8
0
 62
     0
100
AcDbLine
 10
83.58570727750278
 20
341.6796824105926
 30
0.0
 11
85.96920727750278
 21
344.0631824105926
 31
0.0
  0
LINE
  5
19A0
330
198F
100
AcDbEntity
  8
0
 62
     0
100
AcDbLine
 10
85.96920727750278
 20
344.0631824105926
 30
0.0
 11
88.0857072775028
 21
346.1796824105927
 31
0.0
  0
LINE
  5
19A1
330
198F
100
AcDbEntity
  8
0
 62
     0
100
AcDbLine
 10
81.81794032453641
 20
341.6796824105926
 30
0.0
 11
84.20144032453642
 21
344.0631824105926
 31
0.0
  0
LINE
  5
19A2
330
198F
100
AcDbEntity
  8
0
 62
     0
100
AcDbLine
 10
84.2014403245364
 20
344.0631824105926
 30
0.0
 11
86.31794032453644
 21
346.1796824105927
 31
0.0
  0
LINE
  5
19A3
330
198F
100
AcDbEntity
  8
0
 62
     0
100
AcDbLine
 10
80.05017337157005
 20
341.6796824105926
 30
0.0
 11
82.43367337157005
 21
344.0631824105926
 31
0.0
  0
LINE
  5
19A4
330
198F
100
AcDbEntity
  8
0
 62
     0
100
AcDbLine
 10
82.43367337157003
 20
344.0631824105926
 30
0.0
 11
84.55017337157007
 21
346.1796824105927
 31
0.0
  0
LINE
  5
19A5
330
198F
100
AcDbEntity
  8
0
 62
     0
100
AcDbLine
 10
78.28240641860367
 20
341.6796824105926
 30
0.0
 11
80.66590641860369
 21
344.0631824105926
 31
0.0
  0
LINE
  5
19A6
330
198F
100
AcDbEntity
  8
0
 62
     0
100
AcDbLine
 10
80.66590641860367
 20
344.0631824105926
 30
0.0
 11
82.78240641860369
 21
346.1796824105927
 31
0.0
  0
LINE
  5
19A7
330
198F
100
AcDbEntity
  8
0
 62
     0
100
AcDbLine
 10
77.50338122615875
 20
342.6684241711141
 30
0.0
 11
78.89813946563731
 21
344.0631824105926
 31
0.0
  0
LINE
  5
19A8
330
198F
100
AcDbEntity
  8
0
 62
     0
100
AcDbLine
 10
78.8981394656373
 20
344.0631824105926
 30
0.0
 11
81.01463946563733
 21
346.1796824105927
 31
0.0
  0
LINE
  5
19A9
330
198F
100
AcDbEntity
  8
0
 62
     0
100
AcDbLine
 10
77.20079087976269
 20
344.1336007776844
 30
0.0
 11
79.24687251267096
 21
346.1796824105927
 31
0.0
  0
LINE
  5
19AA
330
198F
100
AcDbEntity
  8
0
 62
     0
100
AcDbLine
 10
76.98218385195419
 20
345.6827607028423
 30
0.0
 11
77.47910555970459
 21
346.1796824105927
 31
0.0
  0
LINE
  5
19AB
330
198F
100
AcDbEntity
  8
0
 62
     0
100
AcDbLine
 10
97.72784290123373
 20
341.6796824105926
 30
0.0
 11
100.1113429012337
 21
344.0631824105926
 31
0.0
  0
LINE
  5
19AC
330
198F
100
AcDbEntity
  8
0
 62
     0
100
AcDbLine
 10
100.1113429012337
 20
344.0631824105926
 30
0.0
 11
102.2278429012337
 21
346.1796824105927
 31
0.0
  0
LINE
  5
19AD
330
198F
100
AcDbEntity
  8
0
 62
     0
100
AcDbLine
 10
99.4956098542001
 20
341.6796824105926
 30
0.0
 11
101.8791098542001
 21
344.0631824105926
 31
0.0
  0
LINE
  5
19AE
330
198F
100
AcDbEntity
  8
0
 62
     0
100
AcDbLine
 10
101.8791098542001
 20
344.0631824105926
 30
0.0
 11
103.9956098542001
 21
346.1796824105927
 31
0.0
  0
LINE
  5
19AF
330
198F
100
AcDbEntity
  8
0
 62
     0
100
AcDbLine
 10
101.2633768071664
 20
341.6796824105926
 30
0.0
 11
103.6468768071665
 21
344.0631824105926
 31
0.0
  0
LINE
  5
19B0
330
198F
100
AcDbEntity
  8
0
 62
     0
100
AcDbLine
 10
103.6468768071664
 20
344.0631824105926
 30
0.0
 11
105.7633768071665
 21
346.1796824105927
 31
0.0
  0
LINE
  5
19B1
330
198F
100
AcDbEntity
  8
0
 62
     0
100
AcDbLine
 10
103.0311437601328
 20
341.6796824105926
 30
0.0
 11
105.4146437601328
 21
344.0631824105926
 31
0.0
  0
LINE
  5
19B2
330
198F
100
AcDbEntity
  8
0
 62
     0
100
AcDbLine
 10
105.4146437601328
 20
344.0631824105926
 30
0.0
 11
107.5311437601328
 21
346.1796824105927
 31
0.0
  0
LINE
  5
19B3
330
198F
100
AcDbEntity
  8
0
 62
     0
100
AcDbLine
 10
104.7989107130992
 20
341.6796824105926
 30
0.0
 11
107.1824107130992
 21
344.0631824105926
 31
0.0
  0
LINE
  5
19B4
330
198F
100
AcDbEntity
  8
0
 62
     0
100
AcDbLine
 10
107.1824107130992
 20
344.0631824105926
 30
0.0
 11
109.2989107130992
 21
346.1796824105927
 31
0.0
  0
LINE
  5
19B5
330
198F
100
AcDbEntity
  8
0
 62
     0
100
AcDbLine
 10
106.5666776660656
 20
341.6796824105926
 30
0.0
 11
108.9501776660656
 21
344.0631824105926
 31
0.0
  0
LINE
  5
19B6
330
198F
100
AcDbEntity
  8
0
 62
     0
100
AcDbLine
 10
108.9501776660656
 20
344.0631824105926
 30
0.0
 11
111.0666776660656
 21
346.1796824105927
 31
0.0
  0
LINE
  5
19B7
330
198F
100
AcDbEntity
  8
0
 62
     0
100
AcDbLine
 10
108.3344446190319
 20
341.6796824105926
 30
0.0
 11
110.7179446190319
 21
344.0631824105926
 31
0.0
  0
LINE
  5
19B8
330
198F
100
AcDbEntity
  8
0
 62
     0
100
AcDbLine
 10
110.7179446190319
 20
344.0631824105926
 30
0.0
 11
112.834444619032
 21
346.1796824105927
 31
0.0
  0
LINE
  5
19B9
330
198F
100
AcDbEntity
  8
0
 62
     0
100
AcDbLine
 10
110.1022115719983
 20
341.6796824105926
 30
0.0
 11
112.4857115719983
 21
344.0631824105926
 31
0.0
  0
LINE
  5
19BA
330
198F
100
AcDbEntity
  8
0
 62
     0
100
AcDbLine
 10
112.4857115719983
 20
344.0631824105926
 30
0.0
 11
114.6022115719983
 21
346.1796824105927
 31
0.0
  0
LINE
  5
19BB
330
198F
100
AcDbEntity
  8
0
 62
     0
100
AcDbLine
 10
111.8699785249646
 20
341.6796824105926
 30
0.0
 11
114.2534785249647
 21
344.0631824105926
 31
0.0
  0
LINE
  5
19BC
330
198F
100
AcDbEntity
  8
0
 62
     0
100
AcDbLine
 10
114.2534785249647
 20
344.0631824105926
 30
0.0
 11
116.3699785249647
 21
346.1796824105927
 31
0.0
  0
LINE
  5
19BD
330
198F
100
AcDbEntity
  8
0
 62
     0
100
AcDbLine
 10
113.637745477931
 20
341.6796824105926
 30
0.0
 11
116.021245477931
 21
344.0631824105926
 31
0.0
  0
LINE
  5
19BE
330
198F
100
AcDbEntity
  8
0
 62
     0
100
AcDbLine
 10
116.021245477931
 20
344.0631824105926
 30
0.0
 11
118.137745477931
 21
346.1796824105927
 31
0.0
  0
LINE
  5
19BF
330
198F
100
AcDbEntity
  8
0
 62
     0
100
AcDbLine
 10
115.4055124308974
 20
341.6796824105926
 30
0.0
 11
117.7890124308974
 21
344.0631824105926
 31
0.0
  0
LINE
  5
19C0
330
198F
100
AcDbEntity
  8
0
 62
     0
100
AcDbLine
 10
117.7890124308974
 20
344.0631824105926
 30
0.0
 11
118.9116744153807
 21
345.1858443950759
 31
0.0
  0
LINE
  5
19C1
330
198F
100
AcDbEntity
  8
0
 62
     0
100
AcDbLine
 10
117.1732793838638
 20
341.6796824105926
 30
0.0
 11
118.3518187585331
 21
342.8582217852619
 31
0.0
  0
LINE
  5
19C2
330
198F
100
AcDbEntity
  8
0
 62
     0
100
AcDbLine
 10
100.2620558309995
 20
341.6796824105926
 30
0.0
 11
97.87855583099954
 21
344.0631824105926
 31
0.0
  0
LINE
  5
19C3
330
198F
100
AcDbEntity
  8
0
 62
     0
100
AcDbLine
 10
97.87855583099956
 20
344.0631824105926
 30
0.0
 11
95.76205583099953
 21
346.1796824105927
 31
0.0
  0
LINE
  5
19C4
330
198F
100
AcDbEntity
  8
0
 62
     0
100
AcDbLine
 10
98.49428887803318
 20
341.6796824105926
 30
0.0
 11
96.11078887803317
 21
344.0631824105926
 31
0.0
  0
LINE
  5
19C5
330
198F
100
AcDbEntity
  8
0
 62
     0
100
AcDbLine
 10
96.11078887803319
 20
344.0631824105926
 30
0.0
 11
93.99428887803315
 21
346.1796824105927
 31
0.0
  0
LINE
  5
19C6
330
198F
100
AcDbEntity
  8
0
 62
     0
100
AcDbLine
 10
96.72652192506681
 20
341.6796824105926
 30
0.0
 11
94.34302192506681
 21
344.0631824105926
 31
0.0
  0
LINE
  5
19C7
330
198F
100
AcDbEntity
  8
0
 62
     0
100
AcDbLine
 10
94.34302192506683
 20
344.0631824105926
 30
0.0
 11
92.22652192506679
 21
346.1796824105927
 31
0.0
  0
LINE
  5
19C8
330
198F
100
AcDbEntity
  8
0
 62
     0
100
AcDbLine
 10
94.95875497210043
 20
341.6796824105926
 30
0.0
 11
92.57525497210044
 21
344.0631824105926
 31
0.0
  0
LINE
  5
19C9
330
198F
100
AcDbEntity
  8
0
 62
     0
100
AcDbLine
 10
92.57525497210044
 20
344.0631824105926
 30
0.0
 11
90.45875497210042
 21
346.1796824105927
 31
0.0
  0
LINE
  5
19CA
330
198F
100
AcDbEntity
  8
0
 62
     0
100
AcDbLine
 10
93.19098801913407
 20
341.6796824105926
 30
0.0
 11
90.80748801913406
 21
344.0631824105926
 31
0.0
  0
LINE
  5
19CB
330
198F
100
AcDbEntity
  8
0
 62
     0
100
AcDbLine
 10
90.80748801913408
 20
344.0631824105926
 30
0.0
 11
88.69098801913406
 21
346.1796824105927
 31
0.0
  0
LINE
  5
19CC
330
198F
100
AcDbEntity
  8
0
 62
     0
100
AcDbLine
 10
91.4232210661677
 20
341.6796824105926
 30
0.0
 11
89.0397210661677
 21
344.0631824105926
 31
0.0
  0
LINE
  5
19CD
330
198F
100
AcDbEntity
  8
0
 62
     0
100
AcDbLine
 10
89.03972106616771
 20
344.0631824105926
 30
0.0
 11
86.92322106616769
 21
346.1796824105927
 31
0.0
  0
LINE
  5
19CE
330
198F
100
AcDbEntity
  8
0
 62
     0
100
AcDbLine
 10
89.65545411320134
 20
341.6796824105926
 30
0.0
 11
87.27195411320133
 21
344.0631824105926
 31
0.0
  0
LINE
  5
19CF
330
198F
100
AcDbEntity
  8
0
 62
     0
100
AcDbLine
 10
87.27195411320135
 20
344.0631824105926
 30
0.0
 11
85.15545411320131
 21
346.1796824105927
 31
0.0
  0
LINE
  5
19D0
330
198F
100
AcDbEntity
  8
0
 62
     0
100
AcDbLine
 10
87.88768716023495
 20
341.6796824105926
 30
0.0
 11
85.50418716023497
 21
344.0631824105926
 31
0.0
  0
LINE
  5
19D1
330
198F
100
AcDbEntity
  8
0
 62
     0
100
AcDbLine
 10
85.50418716023498
 20
344.0631824105926
 30
0.0
 11
83.38768716023494
 21
346.1796824105927
 31
0.0
  0
LINE
  5
19D2
330
198F
100
AcDbEntity
  8
0
 62
     0
100
AcDbLine
 10
86.11992020726859
 20
341.6796824105926
 30
0.0
 11
83.7364202072686
 21
344.0631824105926
 31
0.0
  0
LINE
  5
19D3
330
198F
100
AcDbEntity
  8
0
 62
     0
100
AcDbLine
 10
83.7364202072686
 20
344.0631824105926
 30
0.0
 11
81.61992020726856
 21
346.1796824105927
 31
0.0
  0
LINE
  5
19D4
330
198F
100
AcDbEntity
  8
0
 62
     0
100
AcDbLine
 10
84.35215325430222
 20
341.6796824105926
 30
0.0
 11
81.96865325430222
 21
344.0631824105926
 31
0.0
  0
LINE
  5
19D5
330
198F
100
AcDbEntity
  8
0
 62
     0
100
AcDbLine
 10
81.96865325430223
 20
344.0631824105926
 30
0.0
 11
79.85215325430219
 21
346.1796824105927
 31
0.0
  0
LINE
  5
19D6
330
198F
100
AcDbEntity
  8
0
 62
     0
100
AcDbLine
 10
82.58438630133586
 20
341.6796824105926
 30
0.0
 11
80.20088630133585
 21
344.0631824105926
 31
0.0
  0
LINE
  5
19D7
330
198F
100
AcDbEntity
  8
0
 62
     0
100
AcDbLine
 10
80.20088630133587
 20
344.0631824105926
 30
0.0
 11
78.08438630133583
 21
346.1796824105927
 31
0.0
  0
LINE
  5
19D8
330
198F
100
AcDbEntity
  8
0
 62
     0
100
AcDbLine
 10
80.81661934836949
 20
341.6796824105926
 30
0.0
 11
78.43311934836949
 21
344.0631824105926
 31
0.0
  0
LINE
  5
19D9
330
198F
100
AcDbEntity
  8
0
 62
     0
100
AcDbLine
 10
78.4331193483695
 20
344.0631824105926
 30
0.0
 11
77.00349110837217
 21
345.4928106505899
 31
0.0
  0
LINE
  5
19DA
330
198F
100
AcDbEntity
  8
0
 62
     0
100
AcDbLine
 10
79.04885239540312
 20
341.6796824105926
 30
0.0
 11
77.34355006899922
 21
343.3849847369965
 31
0.0
  0
LINE
  5
19DB
330
198F
100
AcDbEntity
  8
0
 62
     0
100
AcDbLine
 10
102.0298227839659
 20
341.6796824105926
 30
0.0
 11
99.64632278396592
 21
344.0631824105926
 31
0.0
  0
LINE
  5
19DC
330
198F
100
AcDbEntity
  8
0
 62
     0
100
AcDbLine
 10
99.64632278396592
 20
344.0631824105926
 30
0.0
 11
97.5298227839659
 21
346.1796824105927
 31
0.0
  0
LINE
  5
19DD
330
198F
100
AcDbEntity
  8
0
 62
     0
100
AcDbLine
 10
103.7975897369322
 20
341.6796824105926
 30
0.0
 11
101.4140897369323
 21
344.0631824105926
 31
0.0
  0
LINE
  5
19DE
330
198F
100
AcDbEntity
  8
0
 62
     0
100
AcDbLine
 10
101.4140897369323
 20
344.0631824105926
 30
0.0
 11
99.29758973693227
 21
346.1796824105927
 31
0.0
  0
LINE
  5
19DF
330
198F
100
AcDbEntity
  8
0
 62
     0
100
AcDbLine
 10
105.5653566898986
 20
341.6796824105926
 30
0.0
 11
103.1818566898986
 21
344.0631824105926
 31
0.0
  0
LINE
  5
19E0
330
198F
100
AcDbEntity
  8
0
 62
     0
100
AcDbLine
 10
103.1818566898986
 20
344.0631824105926
 30
0.0
 11
101.0653566898986
 21
346.1796824105927
 31
0.0
  0
LINE
  5
19E1
330
198F
100
AcDbEntity
  8
0
 62
     0
100
AcDbLine
 10
107.333123642865
 20
341.6796824105926
 30
0.0
 11
104.949623642865
 21
344.0631824105926
 31
0.0
  0
LINE
  5
19E2
330
198F
100
AcDbEntity
  8
0
 62
     0
100
AcDbLine
 10
104.949623642865
 20
344.0631824105926
 30
0.0
 11
102.833123642865
 21
346.1796824105927
 31
0.0
  0
LINE
  5
19E3
330
198F
100
AcDbEntity
  8
0
 62
     0
100
AcDbLine
 10
109.1008905958314
 20
341.6796824105926
 30
0.0
 11
106.7173905958314
 21
344.0631824105926
 31
0.0
  0
LINE
  5
19E4
330
198F
100
AcDbEntity
  8
0
 62
     0
100
AcDbLine
 10
106.7173905958314
 20
344.0631824105926
 30
0.0
 11
104.6008905958313
 21
346.1796824105927
 31
0.0
  0
LINE
  5
19E5
330
198F
100
AcDbEntity
  8
0
 62
     0
100
AcDbLine
 10
110.8686575487977
 20
341.6796824105926
 30
0.0
 11
108.4851575487977
 21
344.0631824105926
 31
0.0
  0
LINE
  5
19E6
330
198F
100
AcDbEntity
  8
0
 62
     0
100
AcDbLine
 10
108.4851575487977
 20
344.0631824105926
 30
0.0
 11
106.3686575487977
 21
346.1796824105927
 31
0.0
  0
LINE
  5
19E7
330
198F
100
AcDbEntity
  8
0
 62
     0
100
AcDbLine
 10
112.6364245017641
 20
341.6796824105926
 30
0.0
 11
110.2529245017641
 21
344.0631824105926
 31
0.0
  0
LINE
  5
19E8
330
198F
100
AcDbEntity
  8
0
 62
     0
100
AcDbLine
 10
110.2529245017641
 20
344.0631824105926
 30
0.0
 11
108.1364245017641
 21
346.1796824105927
 31
0.0
  0
LINE
  5
19E9
330
198F
100
AcDbEntity
  8
0
 62
     0
100
AcDbLine
 10
114.4041914547305
 20
341.6796824105926
 30
0.0
 11
112.0206914547305
 21
344.0631824105926
 31
0.0
  0
LINE
  5
19EA
330
198F
100
AcDbEntity
  8
0
 62
     0
100
AcDbLine
 10
112.0206914547305
 20
344.0631824105926
 30
0.0
 11
109.9041914547305
 21
346.1796824105927
 31
0.0
  0
LINE
  5
19EB
330
198F
100
AcDbEntity
  8
0
 62
     0
100
AcDbLine
 10
116.1719584076968
 20
341.6796824105926
 30
0.0
 11
113.7884584076968
 21
344.0631824105926
 31
0.0
  0
LINE
  5
19EC
330
198F
100
AcDbEntity
  8
0
 62
     0
100
AcDbLine
 10
113.7884584076969
 20
344.0631824105926
 30
0.0
 11
111.6719584076968
 21
346.1796824105927
 31
0.0
  0
LINE
  5
19ED
330
198F
100
AcDbEntity
  8
0
 62
     0
100
AcDbLine
 10
117.9397253606632
 20
341.6796824105926
 30
0.0
 11
115.5562253606632
 21
344.0631824105926
 31
0.0
  0
LINE
  5
19EE
330
198F
100
AcDbEntity
  8
0
 62
     0
100
AcDbLine
 10
115.5562253606632
 20
344.0631824105926
 30
0.0
 11
113.4397253606632
 21
346.1796824105927
 31
0.0
  0
LINE
  5
19EF
330
198F
100
AcDbEntity
  8
0
 62
     0
100
AcDbLine
 10
118.3865126779004
 20
343.0006620463218
 30
0.0
 11
117.3239923136296
 21
344.0631824105926
 31
0.0
  0
LINE
  5
19F0
330
198F
100
AcDbEntity
  8
0
 62
     0
100
AcDbLine
 10
117.3239923136296
 20
344.0631824105926
 30
0.0
 11
115.2074923136296
 21
346.1796824105927
 31
0.0
  0
LINE
  5
19F1
330
198F
100
AcDbEntity
  8
0
 62
     0
100
AcDbLine
 10
118.7302538595879
 20
344.4246878176007
 30
0.0
 11
116.9752592665959
 21
346.1796824105927
 31
0.0
  0
LINE
  5
19F2
330
198F
100
AcDbEntity
  8
0
 62
     0
100
AcDbLine
 10
119.0694324165659
 20
345.853276213589
 30
0.0
 11
118.7430262195623
 21
346.1796824105927
 31
0.0
  0
ENDBLK
  5
19F3
330
198F
100
AcDbEntity
  8
0
100
AcDbBlockEnd
  0
BLOCK
  5
19F5
330
19F4
100
AcDbEntity
  8
0
100
AcDbBlockBegin
  2
*X8
 70
     1
 10
0.0
 20
0.0
 30
0.0
  3
*X8
  1

  0
LINE
  5
19F6
330
19F4
100
AcDbEntity
  8
0
 62
     0
100
AcDbLine
 10
99.32659152853659
 20
351.2333823262441
 30
0.0
 11
103.2728916128851
 21
355.1796824105927
 31
0.0
  0
LINE
  5
19F7
330
19F4
100
AcDbEntity
  8
0
 62
     0
100
AcDbLine
 10
107.1846763163772
 20
359.0914671140847
 30
0.0
 11
111.3265915285366
 21
363.2333823262441
 31
0.0
  0
LINE
  5
19F8
330
19F4
100
AcDbEntity
  8
0
 62
     0
100
AcDbLine
 10
99.32659152853659
 20
353.8850327556937
 30
0.0
 11
100.6212411834354
 21
355.1796824105925
 31
0.0
  0
LINE
  5
19F9
330
19F4
100
AcDbEntity
  8
0
 62
     0
100
AcDbLine
 10
106.065714678643
 20
360.6241559058001
 30
0.0
 11
110.4739163559861
 21
365.0323575831432
 31
0.0
  0
LINE
  5
19FA
330
19F4
100
AcDbEntity
  8
0
 62
     0
100
AcDbLine
 10
103.969590753986
 20
361.1796824105927
 30
0.0
 11
107.969590753986
 21
365.1796824105927
 31
0.0
  0
LINE
  5
19FB
330
19F4
100
AcDbEntity
  8
0
 62
     0
100
AcDbLine
 10
101.3179403245364
 20
361.1796824105927
 30
0.0
 11
105.3179403245364
 21
365.1796824105927
 31
0.0
  0
LINE
  5
19FC
330
19F4
100
AcDbEntity
  8
0
 62
     0
100
AcDbLine
 10
99.32659152853659
 20
361.8399840440424
 30
0.0
 11
102.6662898950869
 21
365.1796824105927
 31
0.0
  0
LINE
  5
19FD
330
19F4
100
AcDbEntity
  8
0
 62
     0
100
AcDbLine
 10
99.32659152853659
 20
364.4916344734919
 30
0.0
 11
100.0146394656373
 21
365.1796824105927
 31
0.0
  0
LINE
  5
19FE
330
19F4
100
AcDbEntity
  8
0
 62
     0
100
AcDbLine
 10
100.9245420423346
 20
350.1796824105927
 30
0.0
 11
111.3265915285366
 21
360.5817318967946
 31
0.0
  0
LINE
  5
19FF
330
19F4
100
AcDbEntity
  8
0
 62
     0
100
AcDbLine
 10
103.5761924717842
 20
350.1796824105927
 30
0.0
 11
111.3265915285367
 21
357.9300814673451
 31
0.0
  0
LINE
  5
1A00
330
19F4
100
AcDbEntity
  8
0
 62
     0
100
AcDbLine
 10
106.6376597012022
 20
350.5894992105611
 30
0.0
 11
110.0484274314153
 21
354.0002669407741
 31
0.0
  0
LINE
  5
1A01
330
19F4
100
AcDbEntity
  8
0
 62
     0
100
AcDbLine
 10
110.9778429012336
 20
354.9296824105925
 30
0.0
 11
111.3265915285367
 21
355.2784310378956
 31
0.0
  0
LINE
  5
1A02
330
19F4
100
AcDbEntity
  8
0
 62
     0
100
AcDbLine
 10
109.0589369927018
 20
352.3282377315203
 30
0.0
 11
105.8132345407556
 21
355.5739401834665
 31
0.0
  0
LINE
  5
1A03
330
19F4
100
AcDbEntity
  8
0
 62
     0
100
AcDbLine
 10
100.2074923136295
 20
361.1796824105927
 30
0.0
 11
99.32659152853659
 21
362.0605831956857
 31
0.0
  0
LINE
  5
1A04
330
19F4
100
AcDbEntity
  8
0
 62
     0
100
AcDbLine
 10
107.6416792361339
 20
351.0938450586387
 30
0.0
 11
103.55584188418
 21
355.1796824105927
 31
0.0
  0
LINE
  5
1A05
330
19F4
100
AcDbEntity
  8
0
 62
     0
100
AcDbLine
 10
105.7610433732839
 20
350.3228304920392
 30
0.0
 11
100.9041914547305
 21
355.1796824105925
 31
0.0
  0
LINE
  5
1A06
330
19F4
100
AcDbEntity
  8
0
 62
     0
100
AcDbLine
 10
103.2525410252809
 20
350.1796824105927
 30
0.0
 11
99.32659152853659
 21
354.105631907337
 31
0.0
  0
LINE
  5
1A07
330
19F4
100
AcDbEntity
  8
0
 62
     0
100
AcDbLine
 10
100.6008905958313
 20
350.1796824105927
 30
0.0
 11
99.32659152853659
 21
351.4539814778874
 31
0.0
  0
LINE
  5
1A08
330
19F4
100
AcDbEntity
  8
0
 62
     0
100
AcDbLine
 10
110.0456553250022
 20
353.9931698286695
 30
0.0
 11
107.0709524963788
 21
356.967872657293
 31
0.0
  0
LINE
  5
1A09
330
19F4
100
AcDbEntity
  8
0
 62
     0
100
AcDbLine
 10
102.8591427430791
 20
361.1796824105927
 30
0.0
 11
99.32659152853659
 21
364.7122336251352
 31
0.0
  0
LINE
  5
1A0A
330
19F4
100
AcDbEntity
  8
0
 62
     0
100
AcDbLine
 10
111.3265915285367
 20
355.3638840545846
 30
0.0
 11
106.7695686116381
 21
359.9209069714832
 31
0.0
  0
LINE
  5
1A0B
330
19F4
100
AcDbEntity
  8
0
 62
     0
100
AcDbLine
 10
106.0678160894271
 20
360.6226594936942
 30
0.0
 11
101.5107931725286
 21
365.1796824105927
 31
0.0
  0
LINE
  5
1A0C
330
19F4
100
AcDbEntity
  8
0
 62
     0
100
AcDbLine
 10
111.3265915285367
 20
358.0155344840342
 30
0.0
 11
104.1624436019782
 21
365.1796824105927
 31
0.0
  0
LINE
  5
1A0D
330
19F4
100
AcDbEntity
  8
0
 62
     0
100
AcDbLine
 10
111.3265915285366
 20
360.6671849134838
 30
0.0
 11
106.8140940314277
 21
365.1796824105927
 31
0.0
  0
LINE
  5
1A0E
330
19F4
100
AcDbEntity
  8
0
 62
     0
100
AcDbLine
 10
111.3265915285366
 20
363.3188353429334
 30
0.0
 11
109.4657444608773
 21
365.1796824105927
 31
0.0
  0
ENDBLK
  5
1A0F
330
19F4
100
AcDbEntity
  8
0
100
AcDbBlockEnd
  0
BLOCK
  5
1A11
330
1A10
100
AcDbEntity
  8
0
100
AcDbBlockBegin
  2
*X9
 70
     1
 10
0.0
 20
0.0
 30
0.0
  3
*X9
  1

  0
LINE
  5
1A12
330
1A10
100
AcDbEntity
  8
0
 62
     0
100
AcDbLine
 10
110.3265915285367
 20
347.2073632260301
 30
0.0
 11
114.8265915285366
 21
351.70736322603
 31
0.0
  0
LINE
  5
1A13
330
1A10
100
AcDbEntity
  8
0
 62
     0
100
AcDbLine
 10
110.3265915285367
 20
350.7428971319628
 30
0.0
 11
114.8265915285366
 21
355.2428971319628
 31
0.0
  0
LINE
  5
1A14
330
1A10
100
AcDbEntity
  8
0
 62
     0
100
AcDbLine
 10
119.7633768071664
 20
360.1796824105926
 30
0.0
 11
122.5325612558795
 21
362.9488668593056
 31
0.0
  0
LINE
  5
1A15
330
1A10
100
AcDbEntity
  8
0
 62
     0
100
AcDbLine
 10
110.3265915285367
 20
354.2784310378956
 30
0.0
 11
110.7278429012336
 21
354.6796824105925
 31
0.0
  0
LINE
  5
1A16
330
1A10
100
AcDbEntity
  8
0
 62
     0
100
AcDbLine
 10
116.2278429012337
 20
360.1796824105926
 30
0.0
 11
121.2278429012337
 21
365.1796824105927
 31
0.0
  0
LINE
  5
1A17
330
1A10
100
AcDbEntity
  8
0
 62
     0
100
AcDbLine
 10
111.3265915285367
 20
355.2784310378956
 30
0.0
 11
114.8265915285366
 21
358.7784310378955
 31
0.0
  0
LINE
  5
1A18
330
1A10
100
AcDbEntity
  8
0
 62
     0
100
AcDbLine
 10
111.3265915285367
 20
358.8139649438283
 30
0.0
 11
117.692308995301
 21
365.1796824105927
 31
0.0
  0
LINE
  5
1A19
330
1A10
100
AcDbEntity
  8
0
 62
     0
100
AcDbLine
 10
111.3265915285366
 20
362.349498849761
 30
0.0
 11
114.1567750893683
 21
365.1796824105927
 31
0.0
  0
LINE
  5
1A1A
330
1A10
100
AcDbEntity
  8
0
 62
     0
100
AcDbLine
 10
112.834444619032
 20
346.1796824105927
 30
0.0
 11
116.8344446190319
 21
350.1796824105926
 31
0.0
  0
LINE
  5
1A1B
330
1A10
100
AcDbEntity
  8
0
 62
     0
100
AcDbLine
 10
116.3699785249647
 20
346.1796824105927
 30
0.0
 11
119.9732916576705
 21
349.7829955432985
 31
0.0
  0
LINE
  5
1A1C
330
1A10
100
AcDbEntity
  8
0
 62
     0
100
AcDbLine
 10
120.059271705192
 20
350.166737783862
 30
0.0
 11
120.0463270784615
 21
350.1796824105926
 31
0.0
  0
LINE
  5
1A1D
330
1A10
100
AcDbEntity
  8
0
 62
     0
100
AcDbLine
 10
114.8265915285366
 20
355.3994179605175
 30
0.0
 11
111.3265915285367
 21
358.8994179605174
 31
0.0
  0
LINE
  5
1A1E
330
1A10
100
AcDbEntity
  8
0
 62
     0
100
AcDbLine
 10
119.4040165705387
 20
347.2864590125826
 30
0.0
 11
116.5107931725287
 21
350.1796824105926
 31
0.0
  0
LINE
  5
1A1F
330
1A10
100
AcDbEntity
  8
0
 62
     0
100
AcDbLine
 10
114.8265915285366
 20
351.8638840545847
 30
0.0
 11
111.3265915285367
 21
355.3638840545846
 31
0.0
  0
LINE
  5
1A20
330
1A10
100
AcDbEntity
  8
0
 62
     0
100
AcDbLine
 10
116.9752592665959
 20
346.1796824105927
 30
0.0
 11
110.3265915285367
 21
352.8283501486519
 31
0.0
  0
LINE
  5
1A21
330
1A10
100
AcDbEntity
  8
0
 62
     0
100
AcDbLine
 10
113.4397253606632
 20
346.1796824105927
 30
0.0
 11
110.3265915285367
 21
349.2928162427191
 31
0.0
  0
LINE
  5
1A22
330
1A10
100
AcDbEntity
  8
0
 62
     0
100
AcDbLine
 10
114.8265915285366
 20
358.9349518664502
 30
0.0
 11
111.3265915285366
 21
362.4349518664502
 31
0.0
  0
LINE
  5
1A23
330
1A10
100
AcDbEntity
  8
0
 62
     0
100
AcDbLine
 10
117.1173948903269
 20
360.1796824105926
 30
0.0
 11
112.1173948903269
 21
365.1796824105927
 31
0.0
  0
LINE
  5
1A24
330
1A10
100
AcDbEntity
  8
0
 62
     0
100
AcDbLine
 10
120.6529287962597
 20
360.1796824105926
 30
0.0
 11
115.6529287962596
 21
365.1796824105927
 31
0.0
  0
LINE
  5
1A25
330
1A10
100
AcDbEntity
  8
0
 62
     0
100
AcDbLine
 10
122.3741045002656
 20
361.9940406125194
 30
0.0
 11
119.1884627021924
 21
365.1796824105927
 31
0.0
  0
LINE
  5
1A26
330
1A10
100
AcDbEntity
  8
0
 62
     0
100
AcDbLine
 10
122.8655580827428
 20
365.0381209359749
 30
0.0
 11
122.7239966081251
 21
365.1796824105927
 31
0.0
  0
ENDBLK
  5
1A27
330
1A10
100
AcDbEntity
  8
0
100
AcDbBlockEnd
  0
BLOCK
  5
1A43
330
1A42
100
AcDbEntity
  8
0
100
AcDbBlockBegin
  2
*X10
 70
     1
 10
0.0
 20
0.0
 30
0.0
  3
*X10
  1

  0
LINE
  5
1A44
330
1A42
100
AcDbEntity
  8
0
 62
     0
100
AcDbLine
 10
621.3855008616011
 20
357.1
 30
0.0
 11
621.952837657994
 21
357.1
 31
0.0
  0
LINE
  5
1A45
330
1A42
100
AcDbEntity
  8
0
 62
     0
100
AcDbLine
 10
621.3855008616011
 20
357.2
 30
0.0
 11
622.2275853999396
 21
357.2
 31
0.0
  0
LINE
  5
1A46
330
1A42
100
AcDbEntity
  8
0
 62
     0
100
AcDbLine
 10
621.3855008616011
 20
357.3
 30
0.0
 11
622.5023331418849
 21
357.3
 31
0.0
  0
LINE
  5
1A47
330
1A42
100
AcDbEntity
  8
0
 62
     0
100
AcDbLine
 10
621.3855008616011
 20
357.4
 30
0.0
 11
622.7770808838305
 21
357.4
 31
0.0
  0
LINE
  5
1A48
330
1A42
100
AcDbEntity
  8
0
 62
     0
100
AcDbLine
 10
621.3855008616011
 20
357.5
 30
0.0
 11
623.0518286257758
 21
357.5
 31
0.0
  0
LINE
  5
1A49
330
1A42
100
AcDbEntity
  8
0
 62
     0
100
AcDbLine
 10
621.3855008616011
 20
357.6
 30
0.0
 11
623.3265763677215
 21
357.6
 31
0.0
  0
LINE
  5
1A4A
330
1A42
100
AcDbEntity
  8
0
 62
     0
100
AcDbLine
 10
621.3855008616011
 20
357.7
 30
0.0
 11
623.6013241096669
 21
357.7
 31
0.0
  0
LINE
  5
1A4B
330
1A42
100
AcDbEntity
  8
0
 62
     0
100
AcDbLine
 10
621.3855008616011
 20
357.8
 30
0.0
 11
623.8760718516123
 21
357.8
 31
0.0
  0
LINE
  5
1A4C
330
1A42
100
AcDbEntity
  8
0
 62
     0
100
AcDbLine
 10
621.3855008616011
 20
357.9000000000001
 30
0.0
 11
624.1508195935579
 21
357.9000000000001
 31
0.0
  0
LINE
  5
1A4D
330
1A42
100
AcDbEntity
  8
0
 62
     0
100
AcDbLine
 10
621.3855008616011
 20
358.0
 30
0.0
 11
624.4256792652675
 21
358.0
 31
0.0
  0
LINE
  5
1A4E
330
1A42
100
AcDbEntity
  8
0
 62
     0
100
AcDbLine
 10
621.3855008616011
 20
358.1
 30
0.0
 11
624.7140281929834
 21
358.1
 31
0.0
  0
LINE
  5
1A4F
330
1A42
100
AcDbEntity
  8
0
 62
     0
100
AcDbLine
 10
621.3855008616011
 20
358.2000000000001
 30
0.0
 11
625.029099290387
 21
358.2000000000001
 31
0.0
  0
LINE
  5
1A50
330
1A42
100
AcDbEntity
  8
0
 62
     0
100
AcDbLine
 10
621.3855008616011
 20
358.3
 30
0.0
 11
625.3789713065508
 21
358.3
 31
0.0
  0
LINE
  5
1A51
330
1A42
100
AcDbEntity
  8
0
 62
     0
100
AcDbLine
 10
621.3855008616011
 20
358.4
 30
0.0
 11
625.7770189608443
 21
358.4
 31
0.0
  0
LINE
  5
1A52
330
1A42
100
AcDbEntity
  8
0
 62
     0
100
AcDbLine
 10
621.3855008616011
 20
358.5
 30
0.0
 11
626.2486357488231
 21
358.5
 31
0.0
  0
LINE
  5
1A53
330
1A42
100
AcDbEntity
  8
0
 62
     0
100
AcDbLine
 10
621.3855008616011
 20
358.6
 30
0.0
 11
626.8559067066075
 21
358.6
 31
0.0
  0
LINE
  5
1A54
330
1A42
100
AcDbEntity
  8
0
 62
     0
100
AcDbLine
 10
621.3855008616011
 20
358.7000000000001
 30
0.0
 11
626.8603378347465
 21
358.7000000000001
 31
0.0
  0
LINE
  5
1A55
330
1A42
100
AcDbEntity
  8
0
 62
     0
100
AcDbLine
 10
618.6828119335638
 20
358.8
 30
0.0
 11
626.702007117026
 21
358.8
 31
0.0
  0
LINE
  5
1A56
330
1A42
100
AcDbEntity
  8
0
 62
     0
100
AcDbLine
 10
618.8502591765314
 20
358.9
 30
0.0
 11
626.5345598740583
 21
358.9
 31
0.0
  0
LINE
  5
1A57
330
1A42
100
AcDbEntity
  8
0
 62
     0
100
AcDbLine
 10
619.0280725105825
 20
359.0
 30
0.0
 11
626.3567465400073
 21
359.0
 31
0.0
  0
LINE
  5
1A58
330
1A42
100
AcDbEntity
  8
0
 62
     0
100
AcDbLine
 10
619.217843046973
 20
359.1
 30
0.0
 11
626.1669760036168
 21
359.1
 31
0.0
  0
LINE
  5
1A59
330
1A42
100
AcDbEntity
  8
0
 62
     0
100
AcDbLine
 10
619.4216514071874
 20
359.2
 30
0.0
 11
625.9631676434024
 21
359.2
 31
0.0
  0
LINE
  5
1A5A
330
1A42
100
AcDbEntity
  8
0
 62
     0
100
AcDbLine
 10
619.6423103265715
 20
359.3
 30
0.0
 11
625.7425087240183
 21
359.3
 31
0.0
  0
LINE
  5
1A5B
330
1A42
100
AcDbEntity
  8
0
 62
     0
100
AcDbLine
 10
619.8837885866596
 20
359.4
 30
0.0
 11
625.5010304639301
 21
359.4
 31
0.0
  0
LINE
  5
1A5C
330
1A42
100
AcDbEntity
  8
0
 62
     0
100
AcDbLine
 10
620.15201624239
 20
359.5
 30
0.0
 11
625.2328028081998
 21
359.5
 31
0.0
  0
LINE
  5
1A5D
330
1A42
100
AcDbEntity
  8
0
 62
     0
100
AcDbLine
 10
620.4565999433501
 20
359.6
 30
0.0
 11
624.9282191072397
 21
359.6
 31
0.0
  0
LINE
  5
1A5E
330
1A42
100
AcDbEntity
  8
0
 62
     0
100
AcDbLine
 10
620.8151532983501
 20
359.7
 30
0.0
 11
624.5696657522396
 21
359.7
 31
0.0
  0
LINE
  5
1A5F
330
1A42
100
AcDbEntity
  8
0
 62
     0
100
AcDbLine
 10
621.2678613876418
 20
359.8
 30
0.0
 11
624.116957662948
 21
359.8
 31
0.0
  0
LINE
  5
1A60
330
1A42
100
AcDbEntity
  8
0
 62
     0
100
AcDbLine
 10
621.9750645236548
 20
359.9
 30
0.0
 11
623.4097545269349
 21
359.9
 31
0.0
  0
LINE
  5
1A61
330
1A42
100
AcDbEntity
  8
0
 62
     0
100
AcDbLine
 10
621.3855008616014
 20
287.5
 30
0.0
 11
621.4767408390624
 21
287.5
 31
0.0
  0
LINE
  5
1A62
330
1A42
100
AcDbEntity
  8
0
 62
     0
100
AcDbLine
 10
621.3855008616014
 20
287.4
 30
0.0
 11
621.7514885810078
 21
287.4
 31
0.0
  0
LINE
  5
1A63
330
1A42
100
AcDbEntity
  8
0
 62
     0
100
AcDbLine
 10
621.3855008616014
 20
287.3
 30
0.0
 11
622.0262363229534
 21
287.3
 31
0.0
  0
LINE
  5
1A64
330
1A42
100
AcDbEntity
  8
0
 62
     0
100
AcDbLine
 10
621.3855008616014
 20
287.2
 30
0.0
 11
622.3009840648988
 21
287.2
 31
0.0
  0
LINE
  5
1A65
330
1A42
100
AcDbEntity
  8
0
 62
     0
100
AcDbLine
 10
621.3855008616014
 20
287.1
 30
0.0
 11
622.5757318068442
 21
287.1
 31
0.0
  0
LINE
  5
1A66
330
1A42
100
AcDbEntity
  8
0
 62
     0
100
AcDbLine
 10
621.3855008616014
 20
287.0
 30
0.0
 11
622.8504795487898
 21
287.0
 31
0.0
  0
LINE
  5
1A67
330
1A42
100
AcDbEntity
  8
0
 62
     0
100
AcDbLine
 10
621.3855008616014
 20
286.9
 30
0.0
 11
623.1252272907352
 21
286.9
 31
0.0
  0
LINE
  5
1A68
330
1A42
100
AcDbEntity
  8
0
 62
     0
100
AcDbLine
 10
621.3855008616014
 20
286.8
 30
0.0
 11
623.3999750326806
 21
286.8
 31
0.0
  0
LINE
  5
1A69
330
1A42
100
AcDbEntity
  8
0
 62
     0
100
AcDbLine
 10
621.3855008616014
 20
286.7
 30
0.0
 11
623.6747227746263
 21
286.7
 31
0.0
  0
LINE
  5
1A6A
330
1A42
100
AcDbEntity
  8
0
 62
     0
100
AcDbLine
 10
621.3855008616014
 20
286.6
 30
0.0
 11
623.9494705165716
 21
286.6
 31
0.0
  0
LINE
  5
1A6B
330
1A42
100
AcDbEntity
  8
0
 62
     0
100
AcDbLine
 10
621.3855008616014
 20
286.5
 30
0.0
 11
624.2242182585171
 21
286.5
 31
0.0
  0
LINE
  5
1A6C
330
1A42
100
AcDbEntity
  8
0
 62
     0
100
AcDbLine
 10
621.3855008616014
 20
286.4
 30
0.0
 11
624.5004318936373
 21
286.4
 31
0.0
  0
LINE
  5
1A6D
330
1A42
100
AcDbEntity
  8
0
 62
     0
100
AcDbLine
 10
621.3855008616014
 20
286.3
 30
0.0
 11
624.7953119248116
 21
286.3
 31
0.0
  0
LINE
  5
1A6E
330
1A42
100
AcDbEntity
  8
0
 62
     0
100
AcDbLine
 10
621.3855008616014
 20
286.2
 30
0.0
 11
625.1187334098769
 21
286.2
 31
0.0
  0
LINE
  5
1A6F
330
1A42
100
AcDbEntity
  8
0
 62
     0
100
AcDbLine
 10
621.3855008616014
 20
286.1
 30
0.0
 11
625.479847492503
 21
286.1
 31
0.0
  0
LINE
  5
1A70
330
1A42
100
AcDbEntity
  8
0
 62
     0
100
AcDbLine
 10
621.3855008616014
 20
286.0
 30
0.0
 11
625.8942696854289
 21
286.0
 31
0.0
  0
LINE
  5
1A71
330
1A42
100
AcDbEntity
  8
0
 62
     0
100
AcDbLine
 10
621.3855008616014
 20
285.9
 30
0.0
 11
626.3932060900526
 21
285.9
 31
0.0
  0
LINE
  5
1A72
330
1A42
100
AcDbEntity
  8
0
 62
     0
100
AcDbLine
 10
621.3855008616014
 20
285.8
 30
0.0
 11
626.9711696535647
 21
285.8
 31
0.0
  0
LINE
  5
1A73
330
1A42
100
AcDbEntity
  8
0
 62
     0
100
AcDbLine
 10
618.5659471536862
 20
285.7
 30
0.0
 11
626.8188718969035
 21
285.7
 31
0.0
  0
LINE
  5
1A74
330
1A42
100
AcDbEntity
  8
0
 62
     0
100
AcDbLine
 10
618.7266063061052
 20
285.6
 30
0.0
 11
626.6582127444845
 21
285.6
 31
0.0
  0
LINE
  5
1A75
330
1A42
100
AcDbEntity
  8
0
 62
     0
100
AcDbLine
 10
618.8966884288014
 20
285.5
 30
0.0
 11
626.4881306217883
 21
285.5
 31
0.0
  0
LINE
  5
1A76
330
1A42
100
AcDbEntity
  8
0
 62
     0
100
AcDbLine
 10
619.0775233429376
 20
285.4
 30
0.0
 11
626.3072957076522
 21
285.4
 31
0.0
  0
LINE
  5
1A77
330
1A42
100
AcDbEntity
  8
0
 62
     0
100
AcDbLine
 10
619.2708155136639
 20
285.3
 30
0.0
 11
626.1140035369258
 21
285.3
 31
0.0
  0
LINE
  5
1A78
330
1A42
100
AcDbEntity
  8
0
 62
     0
100
AcDbLine
 10
619.4788120007967
 20
285.2
 30
0.0
 11
625.906007049793
 21
285.2
 31
0.0
  0
LINE
  5
1A79
330
1A42
100
AcDbEntity
  8
0
 62
     0
100
AcDbLine
 10
619.7045821342811
 20
285.1
 30
0.0
 11
625.6802369163087
 21
285.1
 31
0.0
  0
LINE
  5
1A7A
330
1A42
100
AcDbEntity
  8
0
 62
     0
100
AcDbLine
 10
619.9525160989873
 20
285.0
 30
0.0
 11
625.4323029516025
 21
285.0
 31
0.0
  0
LINE
  5
1A7B
330
1A42
100
AcDbEntity
  8
0
 62
     0
100
AcDbLine
 10
620.2292977826905
 20
284.9
 30
0.0
 11
625.1555212678993
 21
284.9
 31
0.0
  0
LINE
  5
1A7C
330
1A42
100
AcDbEntity
  8
0
 62
     0
100
AcDbLine
 10
620.5460584529894
 20
284.8
 30
0.0
 11
624.8387605976004
 21
284.8
 31
0.0
  0
LINE
  5
1A7D
330
1A42
100
AcDbEntity
  8
0
 62
     0
100
AcDbLine
 10
620.9241543416131
 20
284.7
 30
0.0
 11
624.4606647089767
 21
284.7
 31
0.0
  0
LINE
  5
1A7E
330
1A42
100
AcDbEntity
  8
0
 62
     0
100
AcDbLine
 10
621.4170155219964
 20
284.6
 30
0.0
 11
623.9678035285934
 21
284.6
 31
0.0
  0
LINE
  5
1A7F
330
1A42
100
AcDbEntity
  8
0
 62
     0
100
AcDbLine
 10
622.3660150818968
 20
284.5
 30
0.0
 11
623.0188039686929
 21
284.5
 31
0.0
  0
ENDBLK
  5
1A80
330
1A42
100
AcDbEntity
  8
0
100
AcDbBlockEnd
  0
BLOCK
  5
1D83
330
1D78
100
AcDbEntity
  8
0
100
AcDbBlockBegin
  2
*D11
 70
     1
 10
0.0
 20
0.0
 30
0.0
  3
*D11
  1

  0
LINE
  5
1F47
330
1D78
100
AcDbEntity
  8
BEM
 62
     0
370
    -2
100
AcDbLine
 10
209.0837881704536
 20
793.802132732515
 30
0.0
 11
139.4541912484955
 21
793.802132732515
 31
0.0
  0
LINE
  5
1F48
330
1D78
100
AcDbEntity
  8
BEM
 62
     0
370
    -2
100
AcDbLine
 10
157.3491854987288
 20
562.4516880755145
 30
0.0
 11
139.4541912484954
 21
562.4516880755145
 31
0.0
  0
LINE
  5
1F49
330
1D78
100
AcDbEntity
  8
BEM
 62
     0
370
    -2
100
AcDbLine
 10
141.4541912484955
 20
786.802132732515
 30
0.0
 11
141.4541912484954
 21
569.4516880755145
 31
0.0
  0
SOLID
  5
1F4A
330
1D78
100
AcDbEntity
  8
BEM
 62
     0
100
AcDbTrace
 10
140.2875245818288
 20
786.802132732515
 30
0.0
 11
142.6208579151622
 21
786.802132732515
 31
0.0
 12
141.4541912484955
 22
793.802132732515
 32
0.0
 13
141.4541912484955
 23
793.802132732515
 33
0.0
  0
SOLID
  5
1F4B
330
1D78
100
AcDbEntity
  8
BEM
 62
     0
100
AcDbTrace
 10
140.2875245818288
 20
569.4516880755145
 30
0.0
 11
142.6208579151621
 21
569.4516880755145
 31
0.0
 12
141.4541912484954
 22
562.4516880755145
 32
0.0
 13
141.4541912484954
 23
562.4516880755145
 33
0.0
  0
MTEXT
  5
1F4C
330
1D78
100
AcDbEntity
  8
BEM
 62
     1
100
AcDbMText
 10
134.9541912484954
 20
678.1269104040148
 30
0.0
 40
7.0
 41
0.0
 71
     5
 72
     1
  1
\A1;460
 11
0.0000000000000001
 21
1.0
 31
0.0
 73
     1
 44
1.0
  0
POINT
  5
1F4D
330
1D78
100
AcDbEntity
  8
DEFPOINTS
 62
     0
100
AcDbPoint
 10
211.0837881704537
 20
793.802132732515
 30
0.0
  0
POINT
  5
1F4E
330
1D78
100
AcDbEntity
  8
DEFPOINTS
 62
     0
100
AcDbPoint
 10
159.3491854987288
 20
562.4516880755145
 30
0.0
  0
POINT
  5
1F4F
330
1D78
100
AcDbEntity
  8
DEFPOINTS
 62
     0
100
AcDbPoint
 10
141.4541912484954
 20
562.4516880755145
 30
0.0
  0
ENDBLK
  5
1D84
330
1D78
100
AcDbEntity
  8
0
100
AcDbBlockEnd
  0
BLOCK
  5
1D90
330
1D85
100
AcDbEntity
  8
0
100
AcDbBlockBegin
  2
*D12
 70
     1
 10
0.0
 20
0.0
 30
0.0
  3
*D12
  1

  0
LINE
  5
1F23
330
1D85
100
AcDbEntity
  8
BEM
 62
     0
370
    -2
100
AcDbLine
 10
159.3491854987288
 20
558.451688075515
 30
0.0
 11
159.3491854987288
 21
505.6907290656613
 31
0.0
  0
LINE
  5
1F24
330
1D85
100
AcDbEntity
  8
BEM
 62
     0
370
    -2
100
AcDbLine
 10
342.3491854987287
 20
558.451688075515
 30
0.0
 11
342.3491854987287
 21
505.6907290656613
 31
0.0
  0
LINE
  5
1F25
330
1D85
100
AcDbEntity
  8
BEM
 62
     0
370
    -2
100
AcDbLine
 10
166.3491854987288
 20
507.6907290656613
 30
0.0
 11
335.3491854987287
 21
507.6907290656613
 31
0.0
  0
SOLID
  5
1F26
330
1D85
100
AcDbEntity
  8
BEM
 62
     0
100
AcDbTrace
 10
166.3491854987288
 20
508.857395732328
 30
0.0
 11
166.3491854987288
 21
506.5240623989947
 31
0.0
 12
159.3491854987288
 22
507.6907290656613
 32
0.0
 13
159.3491854987288
 23
507.6907290656613
 33
0.0
  0
SOLID
  5
1F27
330
1D85
100
AcDbEntity
  8
BEM
 62
     0
100
AcDbTrace
 10
335.3491854987287
 20
508.857395732328
 30
0.0
 11
335.3491854987287
 21
506.5240623989947
 31
0.0
 12
342.3491854987287
 22
507.6907290656613
 32
0.0
 13
342.3491854987287
 23
507.6907290656613
 33
0.0
  0
MTEXT
  5
1F28
330
1D85
100
AcDbEntity
  8
BEM
 62
     1
100
AcDbMText
 10
250.8491854987288
 20
514.1907290656613
 30
0.0
 40
7.0
 41
0.0
 71
     5
 72
     1
  1
\A1;%%c183
 73
     1
 44
1.0
  0
POINT
  5
1F29
330
1D85
100
AcDbEntity
  8
DEFPOINTS
 62
     0
100
AcDbPoint
 10
159.3491854987288
 20
560.4516880755149
 30
0.0
  0
POINT
  5
1F2A
330
1D85
100
AcDbEntity
  8
DEFPOINTS
 62
     0
100
AcDbPoint
 10
342.3491854987287
 20
560.4516880755149
 30
0.0
  0
POINT
  5
1F2B
330
1D85
100
AcDbEntity
  8
DEFPOINTS
 62
     0
100
AcDbPoint
 10
342.3491854987287
 20
507.6907290656613
 30
0.0
  0
ENDBLK
  5
1D91
330
1D85
100
AcDbEntity
  8
0
100
AcDbBlockEnd
  0
BLOCK
  5
1D9D
330
1D92
100
AcDbEntity
  8
0
100
AcDbBlockBegin
  2
*D13
 70
     1
 10
0.0
 20
0.0
 30
0.0
  3
*D13
  1

  0
LINE
  5
1F3E
330
1D92
100
AcDbEntity
  8
BEM
 62
     0
370
    -2
100
AcDbLine
 10
213.2240721339879
 20
86.13096656742255
 30
0.0
 11
139.1850520247943
 21
86.13096656742255
 31
0.0
  0
LINE
  5
1F3F
330
1D92
100
AcDbEntity
  8
BEM
 62
     0
370
    -2
100
AcDbLine
 10
199.0991854987286
 20
390.951688075515
 30
0.0
 11
139.1850520247943
 21
390.951688075515
 31
0.0
  0
LINE
  5
1F40
330
1D92
100
AcDbEntity
  8
BEM
 62
     0
370
    -2
100
AcDbLine
 10
141.1850520247943
 20
93.13096656742256
 30
0.0
 11
141.1850520247943
 21
383.951688075515
 31
0.0
  0
SOLID
  5
1F41
330
1D92
100
AcDbEntity
  8
BEM
 62
     0
100
AcDbTrace
 10
140.0183853581276
 20
93.13096656742256
 30
0.0
 11
142.3517186914609
 21
93.13096656742256
 31
0.0
 12
141.1850520247943
 22
86.13096656742255
 32
0.0
 13
141.1850520247943
 23
86.13096656742255
 33
0.0
  0
SOLID
  5
1F42
330
1D92
100
AcDbEntity
  8
BEM
 62
     0
100
AcDbTrace
 10
140.0183853581277
 20
383.951688075515
 30
0.0
 11
142.351718691461
 21
383.951688075515
 31
0.0
 12
141.1850520247943
 22
390.951688075515
 32
0.0
 13
141.1850520247943
 23
390.951688075515
 33
0.0
  0
MTEXT
  5
1F43
330
1D92
100
AcDbEntity
  8
BEM
 62
     1
100
AcDbMText
 10
134.6850520247943
 20
238.5413273214688
 30
0.0
 40
7.0
 41
0.0
 71
     5
 72
     1
  1
\A1;350
 11
0.0000000000000001
 21
1.0
 31
0.0
 73
     1
 44
1.0
  0
POINT
  5
1F44
330
1D92
100
AcDbEntity
  8
DEFPOINTS
 62
     0
100
AcDbPoint
 10
215.2240721339879
 20
86.13096656742255
 30
0.0
  0
POINT
  5
1F45
330
1D92
100
AcDbEntity
  8
DEFPOINTS
 62
     0
100
AcDbPoint
 10
201.0991854987286
 20
390.951688075515
 30
0.0
  0
POINT
  5
1F46
330
1D92
100
AcDbEntity
  8
DEFPOINTS
 62
     0
100
AcDbPoint
 10
141.1850520247943
 20
390.951688075515
 30
0.0
  0
ENDBLK
  5
1D9E
330
1D92
100
AcDbEntity
  8
0
100
AcDbBlockEnd
  0
BLOCK
  5
1DAA
330
1D9F
100
AcDbEntity
  8
0
100
AcDbBlockBegin
  2
*D14
 70
     1
 10
0.0
 20
0.0
 30
0.0
  3
*D14
  1

  0
LINE
  5
1E9E
330
1D9F
100
AcDbEntity
  8
BEM
 62
     0
370
    -2
100
AcDbLine
 10
287.3491854987287
 20
94.13096656742254
 30
0.0
 11
287.3491854987287
 21
64.50519955393736
 31
0.0
  0
LINE
  5
1E9F
330
1D9F
100
AcDbEntity
  8
BEM
 62
     0
370
    -2
100
AcDbLine
 10
214.3491854987287
 20
94.13096656742254
 30
0.0
 11
214.3491854987287
 21
64.50519955393736
 31
0.0
  0
LINE
  5
1EA0
330
1D9F
100
AcDbEntity
  8
BEM
 62
     0
370
    -2
100
AcDbLine
 10
280.3491854987287
 20
66.50519955393736
 30
0.0
 11
221.3491854987287
 21
66.50519955393736
 31
0.0
  0
SOLID
  5
1EA1
330
1D9F
100
AcDbEntity
  8
BEM
 62
     0
100
AcDbTrace
 10
280.3491854987287
 20
67.67186622060403
 30
0.0
 11
280.3491854987287
 21
65.33853288727069
 31
0.0
 12
287.3491854987287
 22
66.50519955393736
 32
0.0
 13
287.3491854987287
 23
66.50519955393736
 33
0.0
  0
SOLID
  5
1EA2
330
1D9F
100
AcDbEntity
  8
BEM
 62
     0
100
AcDbTrace
 10
221.3491854987287
 20
67.67186622060403
 30
0.0
 11
221.3491854987287
 21
65.33853288727069
 31
0.0
 12
214.3491854987287
 22
66.50519955393736
 32
0.0
 13
214.3491854987287
 23
66.50519955393736
 33
0.0
  0
MTEXT
  5
1EA3
330
1D9F
100
AcDbEntity
  8
BEM
 62
     1
100
AcDbMText
 10
250.8491854987287
 20
73.00519955393736
 30
0.0
 40
7.0
 41
0.0
 71
     5
 72
     1
  1
\A1;%%C73
 73
     1
 44
1.0
  0
POINT
  5
1EA4
330
1D9F
100
AcDbEntity
  8
DEFPOINTS
 62
     0
100
AcDbPoint
 10
287.3491854987287
 20
96.13096656742255
 30
0.0
  0
POINT
  5
1EA5
330
1D9F
100
AcDbEntity
  8
DEFPOINTS
 62
     0
100
AcDbPoint
 10
214.3491854987287
 20
96.13096656742255
 30
0.0
  0
POINT
  5
1EA6
330
1D9F
100
AcDbEntity
  8
DEFPOINTS
 62
     0
100
AcDbPoint
 10
214.3491854987287
 20
66.50519955393736
 30
0.0
  0
ENDBLK
  5
1DAB
330
1D9F
100
AcDbEntity
  8
0
100
AcDbBlockEnd
  0
BLOCK
  5
1DB7
330
1DAC
100
AcDbEntity
  8
0
100
AcDbBlockBegin
  2
*D15
 70
     1
 10
0.0
 20
0.0
 30
0.0
  3
*D15
  1

  0
LINE
  5
1F35
330
1DAC
100
AcDbEntity
  8
BEM
 62
     0
370
    -2
100
AcDbLine
 10
157.3491854987288
 20
562.4516880755145
 30
0.0
 11
139.4541912484955
 21
562.4516880755145
 31
0.0
  0
LINE
  5
1F36
330
1DAC
100
AcDbEntity
  8
BEM
 62
     0
370
    -2
100
AcDbLine
 10
188.8491854987288
 20
412.4516880755147
 30
0.0
 11
139.4541912484954
 21
412.4516880755147
 31
0.0
  0
LINE
  5
1F37
330
1DAC
100
AcDbEntity
  8
BEM
 62
     0
370
    -2
100
AcDbLine
 10
141.4541912484955
 20
555.4516880755145
 30
0.0
 11
141.4541912484954
 21
419.4516880755148
 31
0.0
  0
SOLID
  5
1F38
330
1DAC
100
AcDbEntity
  8
BEM
 62
     0
100
AcDbTrace
 10
140.2875245818288
 20
555.4516880755145
 30
0.0
 11
142.6208579151621
 21
555.4516880755145
 31
0.0
 12
141.4541912484955
 22
562.4516880755145
 32
0.0
 13
141.4541912484955
 23
562.4516880755145
 33
0.0
  0
SOLID
  5
1F39
330
1DAC
100
AcDbEntity
  8
BEM
 62
     0
100
AcDbTrace
 10
140.2875245818288
 20
419.4516880755148
 30
0.0
 11
142.6208579151621
 21
419.4516880755148
 31
0.0
 12
141.4541912484954
 22
412.4516880755147
 32
0.0
 13
141.4541912484954
 23
412.4516880755147
 33
0.0
  0
MTEXT
  5
1F3A
330
1DAC
100
AcDbEntity
  8
BEM
 62
     1
100
AcDbMText
 10
134.9541912484954
 20
487.4516880755146
 30
0.0
 40
7.0
 41
0.0
 71
     5
 72
     1
  1
\A1;min.150-max.250
 11
0.0000000000000001
 21
1.0
 31
0.0
 73
     1
 44
1.0
  0
POINT
  5
1F3B
330
1DAC
100
AcDbEntity
  8
DEFPOINTS
 62
     0
100
AcDbPoint
 10
159.3491854987288
 20
562.4516880755145
 30
0.0
  0
POINT
  5
1F3C
330
1DAC
100
AcDbEntity
  8
DEFPOINTS
 62
     0
100
AcDbPoint
 10
190.8491854987288
 20
412.4516880755147
 30
0.0
  0
POINT
  5
1F3D
330
1DAC
100
AcDbEntity
  8
DEFPOINTS
 62
     0
100
AcDbPoint
 10
141.4541912484954
 20
412.4516880755147
 30
0.0
  0
ENDBLK
  5
1DB8
330
1DAC
100
AcDbEntity
  8
0
100
AcDbBlockEnd
  0
ENDSEC
  0
SECTION
  2
ENTITIES
  0
TEXT
  5
8F
330
1E
100
AcDbEntity
  8
VOLL
100
AcDbText
 10
78.07675471698113
 20
31.02594776470585
 30
0.0
 40
1.8
  1

  7
GREEKS
100
AcDbText
  0
LINE
  5
855
330
1E
100
AcDbEntity
  8
STEMPEL
100
AcDbLine
 10
483.9999999999998
 20
830.0
 30
0.0
 11
483.9999999999998
 21
470.0000000000001
 31
0.0
  0
LINE
  5
856
330
1E
100
AcDbEntity
  8
STEMPEL
100
AcDbLine
 10
483.9999999999998
 20
566.0000000000002
 30
0.0
 11
583.9999999999998
 21
566.0000000000001
 31
0.0
  0
LINE
  5
857
330
1E
100
AcDbEntity
  8
STEMPEL
100
AcDbLine
 10
483.9999999999998
 20
650.0
 30
0.0
 11
583.9999999999998
 21
650.0
 31
0.0
  0
LINE
  5
858
330
1E
100
AcDbEntity
  8
STEMPEL
100
AcDbLine
 10
484.0
 20
752.0000000000001
 30
0.0
 11
553.9999999999998
 21
752.0000000000001
 31
0.0
  0
LINE
  5
859
330
1E
100
AcDbEntity
  8
STEMPEL
100
AcDbLine
 10
563.9999999999998
 20
566.0
 30
0.0
 11
563.9999999999997
 21
470.0000000000001
 31
0.0
  0
LINE
  5
85A
330
1E
100
AcDbEntity
  8
STEMPEL
100
AcDbLine
 10
553.9999999999998
 20
830.0
 30
0.0
 11
553.9999999999999
 21
566.0000000000002
 31
0.0
  0
LINE
  5
85B
330
1E
100
AcDbEntity
  8
STEMPEL
100
AcDbLine
 10
513.9999999999997
 20
830.0
 30
0.0
 11
513.9999999999998
 21
566.0000000000002
 31
0.0
  0
LINE
  5
85C
330
1E
100
AcDbEntity
  8
VOLL
100
AcDbLine
 10
483.9999999999998
 20
484.0000000000002
 30
0.0
 11
583.9999999999998
 21
484.0000000000001
 31
0.0
  0
LINE
  5
85D
330
1E
100
AcDbEntity
  8
VOLL
100
AcDbLine
 10
483.9999999999998
 20
524.0000000000001
 30
0.0
 11
583.9999999999998
 21
524.0000000000001
 31
0.0
  0
LINE
  5
85E
330
1E
100
AcDbEntity
  8
VOLL
100
AcDbLine
 10
483.9999999999998
 20
544.0000000000002
 30
0.0
 11
583.9999999999998
 21
544.0000000000001
 31
0.0
  0
LINE
  5
85F
330
1E
100
AcDbEntity
  8
VOLL
100
AcDbLine
 10
513.9999999999998
 20
584.0000000000002
 30
0.0
 11
553.9999999999999
 21
584.0000000000002
 31
0.0
  0
LINE
  5
860
330
1E
100
AcDbEntity
  8
VOLL
100
AcDbLine
 10
484.0
 20
610.0000000000002
 30
0.0
 11
553.9999999999999
 21
610.0000000000001
 31
0.0
  0
LINE
  5
861
330
1E
100
AcDbEntity
  8
HILF
100
AcDbLine
 10
493.9999999999997
 20
470.0000000000001
 30
0.0
 11
493.9999999999997
 21
566.0000000000002
 31
0.0
  0
LINE
  5
862
330
1E
100
AcDbEntity
  8
HILF
100
AcDbLine
 10
503.9999999999998
 20
470.0000000000001
 30
0.0
 11
503.9999999999998
 21
566.0000000000002
 31
0.0
  0
LINE
  5
863
330
1E
100
AcDbEntity
  8
HILF
100
AcDbLine
 10
513.9999999999998
 20
470.0000000000001
 30
0.0
 11
513.9999999999998
 21
566.0000000000002
 31
0.0
  0
LINE
  5
864
330
1E
100
AcDbEntity
  8
HILF
100
AcDbLine
 10
523.9999999999999
 20
470.0000000000001
 30
0.0
 11
523.9999999999999
 21
566.0000000000002
 31
0.0
  0
LINE
  5
865
330
1E
100
AcDbEntity
  8
HILF
100
AcDbLine
 10
533.9999999999998
 20
470.0000000000001
 30
0.0
 11
533.9999999999998
 21
566.0000000000002
 31
0.0
  0
LINE
  5
866
330
1E
100
AcDbEntity
  8
HILF
100
AcDbLine
 10
543.9999999999997
 20
470.0000000000001
 30
0.0
 11
543.9999999999998
 21
566.0000000000002
 31
0.0
  0
LINE
  5
867
330
1E
100
AcDbEntity
  8
HILF
100
AcDbLine
 10
553.9999999999998
 20
470.0000000000001
 30
0.0
 11
553.9999999999999
 21
566.0000000000002
 31
0.0
  0
LINE
  5
868
330
1E
100
AcDbEntity
  8
HILF
100
AcDbLine
 10
523.9999999999999
 20
566.0000000000002
 30
0.0
 11
523.9999999999999
 21
650.0
 31
0.0
  0
LINE
  5
869
330
1E
100
AcDbEntity
  8
HILF
100
AcDbLine
 10
533.9999999999998
 20
566.0000000000002
 30
0.0
 11
533.9999999999998
 21
650.0
 31
0.0
  0
LINE
  5
86A
330
1E
100
AcDbEntity
  8
HILF
100
AcDbLine
 10
543.9999999999998
 20
566.0000000000002
 30
0.0
 11
543.9999999999998
 21
650.0
 31
0.0
  0
LINE
  5
86B
330
1E
100
AcDbEntity
  8
HILF
100
AcDbLine
 10
509.9624175243584
 20
654.7736801096948
 30
0.0
 11
509.9624175243584
 21
744.8353916556311
 31
0.0
  0
LINE
  5
86C
330
1E
100
AcDbEntity
  8
HILF
100
AcDbLine
 10
523.9999999999999
 20
654.7736801096948
 30
0.0
 11
523.9999999999999
 21
744.835391655631
 31
0.0
  0
LINE
  5
86D
330
1E
100
AcDbEntity
  8
HILF
100
AcDbLine
 10
533.9999999999998
 20
654.7736801096948
 30
0.0
 11
533.9999999999998
 21
744.835391655631
 31
0.0
  0
LINE
  5
86E
330
1E
100
AcDbEntity
  8
HILF
100
AcDbLine
 10
543.9999999999998
 20
654.7736801096948
 30
0.0
 11
543.9999999999998
 21
744.835391655631
 31
0.0
  0
LINE
  5
86F
330
1E
100
AcDbEntity
  8
VOLL
100
AcDbLine
 10
533.9999999999998
 20
752.0000000000001
 30
0.0
 11
533.9999999999998
 21
830.0
 31
0.0
  0
LINE
  5
870
330
1E
100
AcDbEntity
  8
HILF
100
AcDbLine
 10
510.2201636304415
 20
756.7238616296994
 30
0.0
 11
510.2201636304415
 21
824.8588839326728
 31
0.0
  0
LINE
  5
871
330
1E
100
AcDbEntity
  8
HILF
100
AcDbLine
 10
579.1060174197166
 20
653.4909699289886
 30
0.0
 11
579.1060174197166
 21
824.8588839326728
 31
0.0
  0
TEXT
  5
872
330
1E
100
AcDbEntity
  8
TEXT
100
AcDbText
 10
575.3261810501585
 20
492.7826069847976
 30
0.0
 40
4.0
  1
Änderung
 50
90.0
 41
0.8
  7
GREEKS
 72
     1
 11
575.3261810501585
 21
503.5254641276548
 31
0.0
100
AcDbText
  0
TEXT
  5
873
330
1E
100
AcDbEntity
  8
TEXT
100
AcDbText
 10
491.537910491291
 20
573.5163572150378
 30
0.0
 40
5.0
  1
Maßstab
 50
90.0
 41
0.8
  7
GREEKS
100
AcDbText
  0
TEXT
  5
874
330
1E
100
AcDbEntity
  8
TEXT
100
AcDbText
 10
491.5815831565179
 20
614.2858954734053
 30
0.0
 40
5.0
  1
Zul. Abw.
 50
90.0
 41
0.8
  7
GREEKS
100
AcDbText
  0
TEXT
  5
875
330
1E
100
AcDbEntity
  8
TEXT
100
AcDbText
 10
491.4510671988218
 20
654.8779403809011
 30
0.0
 40
5.0
  1
Benennung
 50
90.0
 41
0.8
  7
GREEKS
100
AcDbText
  0
TEXT
  5
876
330
1E
100
AcDbEntity
  8
TEXT
100
AcDbText
 10
491.6867965462862
 20
756.1787549576341
 30
0.0
 40
5.0
  1
Zeichnungs Nr.
 50
90.0
 41
0.8
  7
GREEKS
100
AcDbText
  0
TEXT
  5
877
330
1E
100
AcDbEntity
  8
TEXT
100
AcDbText
 10
563.1543942980693
 20
654.742238391136
 30
0.0
 40
5.0
  1
Bauvorhaben
 50
90.0
 41
0.8
  7
GREEKS
100
AcDbText
  0
TEXT
  5
878
330
1E
100
AcDbEntity
  8
TEXT
100
AcDbText
 10
520.8188176290001
 20
756.7238616296994
 30
0.0
 40
5.0
  1
Ersatz für:
 50
90.0
 41
0.8
  7
GREEKS
100
AcDbText
  0
TEXT
  5
879
330
1E
100
AcDbEntity
  8
TEXT
100
AcDbText
 10
580.3453415397278
 20
478.2664110704577
 30
0.0
 40
4.0
  1
Index
 50
180.0
 41
0.8
  7
GREEKS
100
AcDbText
  0
TEXT
  5
87A
330
1E
100
AcDbEntity
  8
TEXT
100
AcDbText
 10
575.3284373066017
 20
530.0571803261056
 30
0.0
 40
4.0
  1
Tag
 50
90.0
 41
0.8
  7
GREEKS
 72
     1
 11
575.3284373066017
 21
533.7905136594389
 31
0.0
100
AcDbText
  0
TEXT
  5
87B
330
1E
100
AcDbEntity
  8
TEXT
100
AcDbText
 10
575.4067578303358
 20
548.6614567187548
 30
0.0
 40
4.0
  1
Name
 50
90.0
 41
0.8
  7
GREEKS
 72
     1
 11
575.4067578303358
 21
554.9852662425642
 31
0.0
100
AcDbText
  0
TEXT
  5
87C
330
1E
100
AcDbEntity
  8
TEXT
100
AcDbText
 10
520.6811949877005
 20
592.3311673153651
 30
0.0
 40
4.0
  1
Tag
 50
90.0
 41
0.8
  7
GREEKS
100
AcDbText
  0
TEXT
  5
87D
330
1E
100
AcDbEntity
  8
TEXT
100
AcDbText
 10
520.6903890808475
 20
622.4626584226296
 30
0.0
 40
4.0
  1
Name
 50
90.0
 41
0.8
  7
GREEKS
100
AcDbText
  0
TEXT
  5
87E
330
1E
100
AcDbEntity
  8
TEXT
100
AcDbText
 10
530.3700963038202
 20
567.5836127167616
 30
0.0
 40
4.0
  1
Gez.
 50
90.0
 41
0.8
  7
GREEKS
100
AcDbText
  0
TEXT
  5
87F
330
1E
100
AcDbEntity
  8
TEXT
100
AcDbText
 10
540.310737085716
 20
567.5515086571673
 30
0.0
 40
4.0
  1
Gepr.
 50
90.0
 41
0.8
  7
GREEKS
100
AcDbText
  0
TEXT
  5
880
330
1E
100
AcDbEntity
  8
TEXT
100
AcDbText
 10
550.4705361035018
 20
567.6006777387304
 30
0.0
 40
4.0
  1
Norm.
 50
90.0
 41
0.8
  7
GREEKS
100
AcDbText
  0
LINE
  5
881
330
1E
100
AcDbEntity
  8
STEMPEL
100
AcDbLine
 10
583.9999999999998
 20
480.0
 30
0.0
 11
583.9999999999998
 21
830.0
 31
0.0
  0
TEXT
  5
882
330
1E
100
AcDbEntity
  8
TEXT
100
AcDbText
 10
541.9258382212137
 20
757.2400861497007
 30
0.0
 40
5.0
  1
ersetzt durch:
 50
90.0
 41
0.8
  7
GREEKS
100
AcDbText
  0
LINE
  5
883
330
1E
100
AcDbEntity
  8
STEMPEL
100
AcDbLine
 10
583.9999999999998
 20
830.0
 30
0.0
 11
583.9999999999998
 21
40.00000000000011
 31
0.0
  0
LINE
  5
884
330
1E
100
AcDbEntity
  8
STEMPEL
100
AcDbLine
 10
583.9999999999998
 20
830.0
 30
0.0
 11
9.999999999999772
 21
830.0
 31
0.0
  0
LINE
  5
885
330
1E
100
AcDbEntity
  8
STEMPEL
100
AcDbLine
 10
583.9999999999998
 20
470.0000000000001
 30
0.0
 11
483.9999999999998
 21
470.0000000000001
 31
0.0
  0
LINE
  5
886
330
1E
100
AcDbEntity
  8
STEMPEL
100
AcDbLine
 10
9.999999999999772
 20
830.0
 30
0.0
 11
9.999999999999772
 21
40.00000000000003
 31
0.0
  0
LINE
  5
887
330
1E
100
AcDbEntity
  8
HILF
100
AcDbLine
 10
-0.0000000000004547
 20
840.0
 30
0.0
 11
0.0
 21
-0.0000000000000205
 31
0.0
  0
LINE
  5
888
330
1E
100
AcDbEntity
  8
HILF
100
AcDbLine
 10
593.9999999999997
 20
840.0000000000002
 30
0.0
 11
593.9999999999997
 21
0.0000000000001137
 31
0.0
  0
LINE
  5
889
330
1E
100
AcDbEntity
  8
HILF
100
AcDbLine
 10
296.9999999999999
 20
31.08767135713863
 30
0.0
 11
296.9999999999999
 21
0.0000000000001887
 31
0.0
  0
TEXT
  5
88A
330
1E
100
AcDbEntity
  8
TEXT
100
AcDbText
 10
520.8597452884832
 20
568.622109822104
 30
0.0
 40
4.0
  1
2012
 50
90.0
 41
0.8
  7
GREEKS
100
AcDbText
  0
LINE
  5
88B
330
1E
100
AcDbEntity
  8
HILF
100
AcDbLine
 10
593.9999999999998
 20
840.0000000000002
 30
0.0
 11
-0.0000000000002274
 21
840.0
 31
0.0
  0
TEXT
  5
88C
330
1E
100
AcDbEntity
  8
VOLL
100
AcDbText
 10
531.948104470588
 20
156.1535094339624
 30
0.0
 40
3.6
  1

 50
90.0
  7
GREEKS
100
AcDbText
  0
TEXT
  5
88D
330
1E
100
AcDbEntity
  8
TEXT
100
AcDbText
 10
482.3279999999998
 20
471.8550995097769
 30
0.0
 40
5.0
  1
Erstellt mit AUTOCAD 2004
 50
90.0
 41
0.8
  7
GREEKS
100
AcDbText
  0
TEXT
  5
88E
330
1E
100
AcDbEntity
  8
TEXT
100
AcDbText
 10
530.9103608027647
 20
624.4216048581258
 30
0.0
 40
4.0
  1
Koeh
 50
90.0
 41
0.8
  7
GREEKS
 72
     1
 11
530.9103608027647
 21
629.6787477152687
 31
0.0
100
AcDbText
  0
TEXT
  5
88F
330
1E
100
AcDbEntity
  8
TEXT
 62
     1
100
AcDbText
 10
505.8509857108602
 20
767.7799161129603
 30
0.0
 40
7.0
  1
16749070W
 50
90.0
 41
0.8
  7
GREEKS
 72
     1
 11
505.8509857108602
 21
791.246582779627
 31
0.0
100
AcDbText
  0
TEXT
  5
890
330
1E
100
AcDbEntity
  8
TEXT
 62
     1
100
AcDbText
 10
505.8509857108602
 20
580.5006306481888
 30
0.0
 40
7.0
  1
1:2
 50
90.0
 41
0.8
  7
GREEKS
100
AcDbText
  0
TEXT
  5
891
330
1E
100
AcDbEntity
  8
TEXT
100
AcDbText
 10
530.8923495917424
 20
590.3989971082362
 30
0.0
 40
4.0
  1
09.03.
 50
90.0
 41
0.8
  7
GREEKS
 72
     1
 11
530.8923495917424
 21
597.40852091776
 31
0.0
100
AcDbText
  0
TEXT
  5
892
330
1E
100
AcDbEntity
  8
TEXT
 62
     1
100
AcDbText
 10
506.582512107462
 20
654.4942536306288
 30
0.0
 40
7.0
  1
Balkondirektablauf DN70
 50
90.0
 41
0.7
  7
GREEKS
100
AcDbText
  0
TEXT
  5
893
330
1E
100
AcDbEntity
  8
TEXT
100
AcDbText
 10
522.4966558241469
 20
655.1296391125316
 30
0.0
 40
5.0
  1
für untere Balkon kurz
 50
90.0
 41
0.8
  7
GREEKS
100
AcDbText
  0
TEXT
  5
895
330
1E
100
AcDbEntity
  8
TEXT
100
AcDbText
 10
542.3598805695782
 20
655.1296391125316
 30
0.0
 40
5.0
  1
EDV-Art.Nr. 16749.070X
 50
90.0
 41
0.8
  7
GREEKS
100
AcDbText
  0
TEXT
  5
896
330
1E
100
AcDbEntity
  8
TEXT
100
AcDbText
 10
551.3702584697734
 20
654.9837501577827
 30
0.0
 40
4.0
  1
16749070W.DWG
 50
90.0
 41
0.8
  7
GREEKS
100
AcDbText
  0
TEXT
  5
897
330
1E
100
AcDbEntity
  8
TEXT
100
AcDbText
 10
503.2363615897696
 20
612.626132208084
 30
0.0
 40
4.0
  1
DIN EN1123-2
 50
90.0
 41
0.8
  7
GREEKS
 72
     1
 11
503.2363615897696
 21
629.6166083985602
 31
0.0
100
AcDbText
  0
INSERT
  5
898
330
1E
100
AcDbEntity
  8
STEMPEL
100
AcDbBlockReference
  2
LOGO
 10
548.9789472355165
 20
570.9955485457795
 30
0.0
 41
2.0
 42
2.0
 43
2.0
 50
90.0
  0
LINE
  5
899
330
1E
100
AcDbEntity
  8
HILF
100
AcDbLine
 10
593.9999999999997
 20
0.0000000000001137
 30
0.0
 11
0.0
 21
-0.0000000000000205
 31
0.0
  0
LINE
  5
89A
330
1E
100
AcDbEntity
  8
STEMPEL
100
AcDbLine
 10
583.9999999999998
 20
40.00000000000011
 30
0.0
 11
9.999999999999772
 21
40.00000000000003
 31
0.0
  0
LINE
  5
89B
330
1E
100
AcDbEntity
  8
HILF
 62
     7
100
AcDbLine
 10
594.0000000000001
 20
460.0000000000001
 30
0.0
 11
583.9999999999998
 21
460.0000000000001
 31
0.0
  0
LINE
  5
89C
330
1E
100
AcDbEntity
  8
HILF
 62
     7
100
AcDbLine
 10
9.999999999999772
 20
460.0
 30
0.0
 11
-0.0000000000001137
 21
460.0
 31
0.0
  0
TEXT
  5
89D
330
1E
100
AcDbEntity
  8
BEM
100
AcDbText
 10
583.8320989200111
 20
837.3022923857167
 30
0.0
 40
4.0
  1
Diese Zeichnung ist urheberrechtlich geschützt und bleibt unser Eigentum. Sie darf weder ganz noch teilweise verfielfältigt und nicht an Dritte weitergegeben werden.
 50
180.0
 41
0.8
  7
GREEKS
100
AcDbText
  0
LINE
  5
14BE
330
1E
100
AcDbEntity
  8
TEXT
 62
     2
100
AcDbLine
 10
350.4842607748228
 20
701.0098002138159
 30
0.0
 11
275.1521309985269
 21
667.3045760171824
 31
0.0
  0
TEXT
  5
14C1
330
1E
100
AcDbEntity
  8
TEXT
 62
     1
100
AcDbText
 10
351.9398542978708
 20
704.7593171417513
 30
0.0
 40
7.0
  1
Ablaufkörper
 41
0.8
  7
GREEKS
100
AcDbText
  0
TEXT
  5
14C2
330
1E
100
AcDbEntity
  8
TEXT
 62
     1
100
AcDbText
 10
351.9398542978708
 20
689.7366246371984
 30
0.0
 40
7.0
  1
EDV-Art.Nr.16714.070X
 41
0.8
  7
GREEKS
100
AcDbText
  0
LINE
  5
14C3
330
1E
100
AcDbEntity
  8
TEXT
 62
     2
100
AcDbLine
 10
450.6100848580599
 20
701.009800213816
 30
0.0
 11
350.4842607748228
 21
701.009800213816
 31
0.0
  0
LINE
  5
158B
330
1E
100
AcDbEntity
  8
TEXT
 62
     2
100
AcDbLine
 10
353.8138084947659
 20
298.8090704577305
 30
0.0
 11
273.9942234983571
 21
324.3818496055899
 31
0.0
  0
LINE
  5
1592
330
1E
100
AcDbEntity
  8
TEXT
 62
     2
100
AcDbLine
 10
453.9396325780033
 20
298.8090704577304
 30
0.0
 11
353.8138084947659
 21
298.8090704577305
 31
0.0
  0
TEXT
  5
1593
330
1E
100
AcDbEntity
  8
TEXT
 62
     1
100
AcDbText
 10
355.2694020178137
 20
290.4641427231432
 30
0.0
 40
7.0
  1
EDV-Art.Nr.16720.070X
 41
0.8
  7
GREEKS
100
AcDbText
  0
TEXT
  5
1594
330
1E
100
AcDbEntity
  8
TEXT
 62
     1
100
AcDbText
 10
355.2694020178138
 20
302.558587385666
 30
0.0
 40
7.0
  1
Fallrohr
 41
0.8
  7
GREEKS
100
AcDbText
  0
TEXT
  5
1728
330
1E
100
AcDbEntity
  8
TEXT
 62
     1
100
AcDbText
 10
241.2288410737644
 20
134.3220275145935
 30
0.0
 40
7.0
  1
DN70
 50
90.0
 41
0.8
  7
GREEKS
100
AcDbText
  0
ARC
  5
1C18
330
1E
100
AcDbEntity
  8
STEMPEL
100
AcDbCircle
 10
233.7491854987286
 20
783.2532103253961
 30
0.0
 40
25.0
100
AcDbArc
 50
155.0418036876904
 51
180.0
  0
ARC
  5
1C19
330
1E
100
AcDbEntity
  8
STEMPEL
100
AcDbCircle
 10
199.2491854987286
 20
760.802132732515
 30
0.0
 40
12.0
100
AcDbArc
 50
0.0
 51
21.1831543930358
  0
ARC
  5
1C1A
330
1E
100
AcDbEntity
  8
STEMPEL
100
AcDbCircle
 10
233.7491854987286
 20
774.1721327325149
 30
0.0
 40
25.00009324312574
100
AcDbArc
 50
179.8435140456656
 51
201.1831543930358
  0
LINE
  5
1C1B
330
1E
100
AcDbEntity
  8
STEMPEL
100
AcDbLine
 10
208.7491854987287
 20
783.2532103253961
 30
0.0
 11
208.7491854987287
 21
774.1038526843213
 31
0.0
  0
LINE
  5
1C1C
330
1E
100
AcDbEntity
  8
STEMPEL
100
AcDbLine
 10
211.2491854987288
 20
760.802132732515
 30
0.0
 11
211.2491854987288
 21
709.5859122740698
 31
0.0
  0
ARC
  5
1C1D
330
1E
100
AcDbEntity
  8
STEMPEL
100
AcDbCircle
 10
206.3491854987287
 20
637.1450884109458
 30
0.0
 40
8.0
100
AcDbArc
 50
0.0
 51
32.32806412216361
  0
LINE
  5
1C1E
330
1E
100
AcDbEntity
  8
STEMPEL
100
AcDbLine
 10
215.0728740492978
 20
620.4633701241082
 30
0.0
 11
216.16903667006
 21
617.4516880755145
 31
0.0
  0
ARC
  5
1C1F
330
1E
100
AcDbEntity
  8
SCHRAFF
100
AcDbCircle
 10
214.7269934283051
 20
618.9935458950485
 30
0.0
 40
7.443040393312843
100
AcDbArc
 50
323.1956235832001
 51
36.80437641679991
  0
ARC
  5
1C20
330
1E
100
AcDbEntity
  8
SCHRAFF
100
AcDbCircle
 10
220.786310688931
 20
618.7585967392083
 30
0.0
 40
7.657442013147875
100
AcDbArc
 50
145.9018102810813
 51
212.7926072625275
  0
ARC
  5
1C21
330
1E
100
AcDbEntity
  8
SCHRAFF
100
AcDbCircle
 10
208.6944620868912
 20
618.9935458950485
 30
0.0
 40
7.443040393312843
100
AcDbArc
 50
323.1956235832001
 51
36.80437641679991
  0
ARC
  5
1C22
330
1E
100
AcDbEntity
  8
STEMPEL
100
AcDbCircle
 10
226.3491854987287
 20
624.5676118440164
 30
0.0
 40
12.0
100
AcDbArc
 50
180.0
 51
200.0000000000026
  0
ARC
  5
1C23
330
1E
100
AcDbEntity
  8
SCHRAFF
100
AcDbCircle
 10
226.7920561111325
 20
618.9935458950485
 30
0.0
 40
7.443040393312843
100
AcDbArc
 50
323.1956235832001
 51
36.80437641679991
  0
ARC
  5
1C24
330
1E
100
AcDbEntity
  8
SCHRAFF
100
AcDbCircle
 10
220.7595247697186
 20
618.9935458950485
 30
0.0
 40
7.443040393312843
100
AcDbArc
 50
323.1956235832001
 51
36.80437641679991
  0
LINE
  5
1C25
330
1E
100
AcDbEntity
  8
STEMPEL
100
AcDbLine
 10
214.3491854987287
 20
637.1450884109458
 30
0.0
 11
214.3491854987287
 21
624.5676118440164
 31
0.0
  0
ARC
  5
1C26
330
1E
100
AcDbEntity
  8
SCHRAFF
100
AcDbCircle
 10
238.8571187939599
 20
618.9935458950485
 30
0.0
 40
7.443040393312843
100
AcDbArc
 50
323.1956235832001
 51
36.80437641679991
  0
ARC
  5
1C27
330
1E
100
AcDbEntity
  8
SCHRAFF
100
AcDbCircle
 10
232.8245874525462
 20
618.9935458950485
 30
0.0
 40
7.443040393312843
100
AcDbArc
 50
323.1956235832001
 51
36.80437641679991
  0
ARC
  5
1C28
330
1E
100
AcDbEntity
  8
SCHRAFF
100
AcDbCircle
 10
250.9221814767873
 20
618.9935458950485
 30
0.0
 40
7.443040393312843
100
AcDbArc
 50
323.1956235832001
 51
36.80437641679991
  0
ARC
  5
1C29
330
1E
100
AcDbEntity
  8
SCHRAFF
100
AcDbCircle
 10
244.8896501353736
 20
618.9935458950485
 30
0.0
 40
7.443040393312843
100
AcDbArc
 50
323.1956235832001
 51
36.80437641679991
  0
ARC
  5
1C2A
330
1E
100
AcDbEntity
  8
STEMPEL
100
AcDbCircle
 10
223.2491854987286
 20
647.8404144929318
 30
0.0
 40
12.0
100
AcDbArc
 50
180.0
 51
212.3280641221636
  0
LINE
  5
1C2B
330
1E
100
AcDbEntity
  8
STEMPEL
100
AcDbLine
 10
159.3491854987288
 20
560.4516880755149
 30
0.0
 11
159.3491854987288
 21
562.4516880755145
 31
0.0
  0
LWPOLYLINE
  5
1C2C
330
1E
100
AcDbEntity
  8
STEMPEL
100
AcDbPolyline
 90
        5
 70
     0
 43
0.0
 10
220.2363176099884
 20
612.2612442968889
 42
0.0340277875279253
 10
220.0901599879835
 20
612.1558471832458
 42
0.1041580259530588
 10
219.1689211575467
 20
610.9940892743939
 42
0.0648500088297205
 10
218.6439165494007
 20
609.477943505221
 42
0.0510027945188002
 10
218.4366881105134
 20
607.4516880755145
 42
0.0510027945188098
  0
LWPOLYLINE
  5
1C2D
330
1E
100
AcDbEntity
  8
STEMPEL
100
AcDbPolyline
 90
        9
 70
     0
 43
0.0
 10
222.0372468810065
 20
607.4516880755145
 42
0.0510111269016906
 10
221.8300206943813
 20
609.4775887823966
 42
0.0648584830741748
 10
221.3050138339731
 20
610.9934953273209
 42
0.1041619196622654
 10
220.3838065070899
 20
612.1550352685603
 42
0.174928943450854
 10
219.5372468810065
 20
612.4605599263304
 42
0.174928943450854
 10
218.6906872549234
 20
612.1550352685603
 42
0.104161919662265
 10
217.7694799280402
 20
610.9934953273209
 42
0.0648584830741578
 10
217.2444730676316
 20
609.4775887823966
 42
0.0510111269016863
 10
217.0372468810064
 20
607.4516880755145
 42
0.0510111269016738
  0
LINE
  5
1C2E
330
1E
100
AcDbEntity
  8
STEMPEL
100
AcDbLine
 10
218.8245018855146
 20
610.1558573579049
 30
0.0
 11
222.0372468810065
 21
601.3289130283249
 31
0.0
  0
LWPOLYLINE
  5
1C2F
330
1E
100
AcDbEntity
  8
STEMPEL
100
AcDbPolyline
 90
        5
 70
     0
 43
0.0
 10
233.0151786392021
 20
612.4303512818087
 42
0.0881939002362183
 10
231.8514255729105
 20
612.0869400788465
 42
0.1041583937666652
 10
230.4646107297112
 20
610.9872219814474
 42
0.0906557867322456
 10
229.5754657408702
 20
609.4049454246992
 42
0.082976372916389
 10
229.2490700605863
 20
607.4516880755145
 42
0.0829763729163673
  0
LWPOLYLINE
  5
1C30
330
1E
100
AcDbEntity
  8
STEMPEL
100
AcDbPolyline
 90
        5
 70
     0
 43
0.0
 10
232.5991854987287
 20
612.4516880755145
 42
0.116044809117607
 10
231.0479999818781
 20
612.0867597511406
 42
0.1041136907849951
 10
229.65897666511
 20
610.9872219814474
 42
0.0907446640652515
 10
228.7680292126515
 20
609.4045794578451
 42
0.0831249348283856
 10
228.4411022900158
 20
607.4516880755145
 42
0.0831249348283806
  0
LWPOLYLINE
  5
1C31
330
1E
100
AcDbEntity
  8
STEMPEL
100
AcDbPolyline
 90
        5
 70
     0
 43
0.0
 10
237.1013563278598
 20
607.4516880755145
 42
0.0894856039465815
 10
236.7519046644657
 20
609.3886106269997
 42
0.0942938265008356
 10
235.7827010220676
 20
610.9872219814474
 42
0.1019990275861884
 10
234.2983851217309
 20
612.0795999592705
 42
0.1082072415965859
 10
232.5991854987287
 20
612.4516880755145
 42
0.1082072415965768
  0
LINE
  5
1C32
102
{ACAD_REACTORS
330
1F8E
102
}
330
1E
100
AcDbEntity
  8
STEMPEL
100
AcDbLine
 10
222.8491854987287
 20
554.6814451654754
 30
0.0
 11
222.8491854987287
 21
552.4516880755145
 31
0.0
  0
LINE
  5
1C33
102
{ACAD_REACTORS
330
1F8E
102
}
330
1E
100
AcDbEntity
  8
STEMPEL
100
AcDbLine
 10
224.4491854987286
 20
554.7265614144207
 30
0.0
 11
224.4491854987286
 21
552.4516880755145
 31
0.0
  0
LWPOLYLINE
  5
1C35
330
1E
100
AcDbEntity
  8
STEMPEL
100
AcDbPolyline
 90
        5
 70
     0
 43
0.0
 10
229.2490700605863
 20
567.4516880755147
 42
0.082976372916373
 10
229.5754657408702
 20
565.4984307263303
 42
0.0906557867322319
 10
230.4646107297112
 20
563.9161541695821
 42
0.1041583937666244
 10
231.8514255729105
 20
562.816436072183
 42
0.0881939002361597
 10
233.0151786392016
 20
562.4730248692208
 42
0.1162388648590112
  0
LWPOLYLINE
  5
1C36
330
1E
100
AcDbEntity
  8
STEMPEL
100
AcDbPolyline
 90
        5
 70
     0
 43
0.0
 10
228.4411022900158
 20
567.4516880755147
 42
0.0831249348283902
 10
228.7680292126515
 20
565.4987966931844
 42
0.0907446640652638
 10
229.65897666511
 20
563.9161541695821
 42
0.1041136907849957
 10
231.0479999818781
 20
562.816616399889
 42
0.1160448091175973
 10
232.5991854987287
 20
562.4516880755147
 42
0.1160448091175801
  0
LWPOLYLINE
  5
1C37
330
1E
100
AcDbEntity
  8
STEMPEL
100
AcDbPolyline
 90
        5
 70
     0
 43
0.0
 10
218.4366881105134
 20
567.4516880755145
 42
0.0448625346001936
 10
218.6194514274657
 20
565.4188617925769
 42
0.058366107133556
 10
219.0776002140369
 20
563.9161541695821
 42
0.1004267118962066
 10
219.9057688167504
 20
562.7380434708443
 42
0.0646530356134273
 10
220.1236647057658
 20
562.579580581681
 42
0.1917760145803905
  0
LWPOLYLINE
  5
1C38
330
1E
100
AcDbEntity
  8
STEMPEL
100
AcDbPolyline
 90
        9
 70
     0
 43
0.0
 10
217.0372468810064
 20
567.4516880755145
 42
0.0510111269016863
 10
217.2444730676316
 20
565.4257873686328
 42
0.0648584830741578
 10
217.7694799280402
 20
563.9098808237085
 42
0.1041619196622498
 10
218.6906872549234
 20
562.7483408824686
 42
0.1749289434508429
 10
219.5372468810065
 20
562.442816224699
 42
0.174928943450854
 10
220.3838065070899
 20
562.7483408824686
 42
0.104161919662265
 10
221.3050138339731
 20
563.9098808237085
 42
0.0648584830741701
 10
221.8300206943818
 20
565.4257873686328
 42
0.051011126901681
 10
222.0372468810065
 20
567.4516880755147
 42
0.0510111269017003
  0
ARC
  5
1C39
330
1E
100
AcDbEntity
  8
STEMPEL
100
AcDbCircle
 10
250.8491854987287
 20
567.4516880755147
 30
0.0
 40
5.0
100
AcDbArc
 50
270.0
 51
0.0
  0
ARC
  5
1C3A
330
1E
100
AcDbEntity
  8
STEMPEL
100
AcDbCircle
 10
250.8491854987287
 20
567.4516880755147
 30
0.0
 40
5.0
100
AcDbArc
 50
180.0
 51
270.0
  0
LWPOLYLINE
  5
1C3B
330
1E
100
AcDbEntity
  8
STEMPEL
100
AcDbPolyline
 90
        5
 70
     0
 43
0.0
 10
232.5991854987287
 20
562.4516880755147
 42
0.1082072415965644
 10
234.2983851217309
 20
562.8237761917585
 42
0.1019990275861814
 10
235.7827010220676
 20
563.9161541695821
 42
0.0942938265008525
 10
236.7519046644657
 20
565.5147655240297
 42
0.089485603946596
 10
237.1013563278602
 20
567.4516880755147
 42
0.0894856039465907
  0
LINE
  5
1C3C
330
1E
100
AcDbEntity
  8
STEMPEL
100
AcDbLine
 10
255.8491854987287
 20
607.4516880755145
 30
0.0
 11
255.8491854987287
 21
567.4516880755147
 31
0.0
  0
LINE
  5
1C3D
330
1E
100
AcDbEntity
  8
STEMPEL
100
AcDbLine
 10
229.2490700605863
 20
607.4516880755145
 30
0.0
 11
229.2490700605863
 21
567.4516880755147
 31
0.0
  0
LINE
  5
1C3E
330
1E
100
AcDbEntity
  8
STEMPEL
100
AcDbLine
 10
218.4366881105134
 20
607.4516880755145
 30
0.0
 11
218.4366881105134
 21
567.4516880755145
 31
0.0
  0
LINE
  5
1C3F
330
1E
100
AcDbEntity
  8
STEMPEL
100
AcDbLine
 10
217.0372468810064
 20
607.4516880755145
 30
0.0
 11
217.0372468810064
 21
567.4516880755147
 31
0.0
  0
LINE
  5
1C40
330
1E
100
AcDbEntity
  8
STEMPEL
100
AcDbLine
 10
222.0372468810065
 20
607.4516880755145
 30
0.0
 11
222.0372468810065
 21
567.4516880755147
 31
0.0
  0
LINE
  5
1C41
330
1E
100
AcDbEntity
  8
STEMPEL
100
AcDbLine
 10
228.4411022900158
 20
607.4516880755145
 30
0.0
 11
228.4411022900158
 21
567.4516880755147
 31
0.0
  0
LINE
  5
1C42
330
1E
100
AcDbEntity
  8
STEMPEL
100
AcDbLine
 10
237.1013563278598
 20
607.4516880755145
 30
0.0
 11
237.1013563278602
 21
567.4516880755147
 31
0.0
  0
LINE
  5
1C43
330
1E
100
AcDbEntity
  8
STEMPEL
100
AcDbLine
 10
245.8491854987287
 20
607.4516880755145
 30
0.0
 11
245.8491854987287
 21
567.4516880755147
 31
0.0
  0
LINE
  5
1C44
330
1E
100
AcDbEntity
  8
STEMPEL
100
AcDbLine
 10
256.3687119644544
 20
562.4516880755147
 30
0.0
 11
159.3491854987288
 21
562.4516880755145
 31
0.0
  0
LINE
  5
1C45
330
1E
100
AcDbEntity
  8
STEMPEL
100
AcDbLine
 10
253.8256862920482
 20
560.4516880755145
 30
0.0
 11
159.3491854987288
 21
560.4516880755149
 31
0.0
  0
LINE
  5
1C46
330
1E
100
AcDbEntity
  8
STEMPEL
100
AcDbLine
 10
214.3491854987287
 20
617.4516880755145
 30
0.0
 11
214.3491854987287
 21
562.4516880755145
 31
0.0
  0
ARC
  5
1C47
330
1E
100
AcDbEntity
  8
STEMPEL
100
AcDbCircle
 10
250.8491854987287
 20
607.4516880755145
 30
0.0
 40
5.0
100
AcDbArc
 50
0.0
 51
90.0
  0
ARC
  5
1C48
330
1E
100
AcDbEntity
  8
STEMPEL
100
AcDbCircle
 10
250.8491854987287
 20
607.4516880755145
 30
0.0
 40
5.0
100
AcDbArc
 50
90.0
 51
180.0
  0
LINE
  5
1C49
330
1E
100
AcDbEntity
  8
STEMPEL
100
AcDbLine
 10
214.3491854987287
 20
536.4516880755149
 30
0.0
 11
208.3491854987288
 21
536.4516880755149
 31
0.0
  0
INSERT
  5
1C4A
330
1E
100
AcDbEntity
  8
SCHRAFF
100
AcDbBlockReference
  2
*X3
 10
-57.92662953311185
 20
187.0093984504947
 30
0.0
1001
ACAD
1000
HATCH
1002
{
1070
    16
1000
NET,I
1040
10.0
1040
0.7853981633974483
1002
}
  0
LINE
  5
1C4C
102
{ACAD_REACTORS
330
1F73
102
}
330
1E
100
AcDbEntity
  8
STEMPEL
100
AcDbLine
 10
215.9491854987286
 20
554.5917164960378
 30
0.0
 11
215.9491854987286
 21
528.4667725262911
 31
0.0
  0
LINE
  5
1C4D
102
{ACAD_REACTORS
330
1F73
102
}
330
1E
100
AcDbEntity
  8
STEMPEL
100
AcDbLine
 10
214.3491854987287
 20
554.5787033691467
 30
0.0
 11
214.3491854987287
 21
440.4516880755148
 31
0.0
  0
LINE
  5
1C4E
330
1E
100
AcDbEntity
  8
STEMPEL
100
AcDbLine
 10
203.3491854987289
 20
560.4516880755149
 30
0.0
 11
208.3491854987288
 21
536.4516880755149
 31
0.0
  0
LINE
  5
1C4F
330
1E
100
AcDbEntity
  8
MITTEL
100
AcDbLine
 10
250.849185498729
 20
798.802132732515
 30
0.0
 11
250.8491854987287
 21
521.1838976107124
 31
0.0
  0
DIMENSION
  5
1C50
330
1E
100
AcDbEntity
  8
BEM
100
AcDbDimension
  2
*D11
 10
141.4541912484954
 20
562.4516880755145
 30
0.0
 11
134.9541912484954
 21
678.1269104040148
 31
0.0
 70
    32
  1
460
 71
     5
 42
231.3504446570005
  3
Standard
100
AcDbAlignedDimension
 13
211.0837881704537
 23
793.802132732515
 33
0.0
 14
159.3491854987288
 24
562.4516880755145
 34
0.0
 50
90.0
100
AcDbRotatedDimension
1001
ACAD
1000
DSTYLE
1002
{
1070
    40
1040
2.0
1070
    41
1040
3.5
1070
    42
1040
1.0
1070
    43
1040
7.0
1070
    44
1040
1.0
1070
    73
1070
     0
1070
    74
1070
     0
1070
    77
1070
     1
1070
    78
1070
     8
1070
    79
1070
     2
1070
   140
1040
3.5
1070
   141
1040
1.5
1070
   146
1040
0.5142857142857144
1070
   147
1040
1.5
1070
   172
1070
     1
1070
   178
1070
     1
1070
   179
1070
     2
1070
   271
1070
     2
1070
   272
1070
     2
1070
   284
1070
     8
1070
   285
1070
     8
1070
   286
1070
     8
1002
}
  0
LINE
  5
1C51
330
1E
100
AcDbEntity
  8
STEMPEL
100
AcDbLine
 10
211.2491854987288
 20
704.5859122740698
 30
0.0
 11
211.2491854987288
 21
647.8404144929318
 31
0.0
  0
ARC
  5
1C52
330
1E
100
AcDbEntity
  8
STEMPEL
100
AcDbCircle
 10
267.9491854987286
 20
783.2532103253961
 30
0.0
 40
25.0
100
AcDbArc
 50
0.0
 51
24.95819631230365
  0
ARC
  5
1C53
330
1E
100
AcDbEntity
  8
STEMPEL
100
AcDbCircle
 10
302.4491854987287
 20
760.802132732515
 30
0.0
 40
12.0
100
AcDbArc
 50
158.8168456069642
 51
180.0
  0
ARC
  5
1C54
330
1E
100
AcDbEntity
  8
STEMPEL
100
AcDbCircle
 10
267.9491854987286
 20
774.1721327325149
 30
0.0
 40
25.00009324312574
100
AcDbArc
 50
338.8168456069642
 51
0.1564859543278008
  0
LINE
  5
1C55
330
1E
100
AcDbEntity
  8
STEMPEL
100
AcDbLine
 10
292.9491854987288
 20
783.2532103253961
 30
0.0
 11
292.9491854987288
 21
774.1038526843213
 31
0.0
  0
LINE
  5
1C56
330
1E
100
AcDbEntity
  8
STEMPEL
100
AcDbLine
 10
290.4491854987286
 20
760.802132732515
 30
0.0
 11
290.4491854987286
 21
709.58591227407
 31
0.0
  0
ARC
  5
1C57
330
1E
100
AcDbEntity
  8
SCHRAFF
100
AcDbCircle
 10
262.9872441596149
 20
618.9935458950485
 30
0.0
 40
7.443040393312843
100
AcDbArc
 50
323.1956235832001
 51
36.80437641679991
  0
ARC
  5
1C58
330
1E
100
AcDbEntity
  8
SCHRAFF
100
AcDbCircle
 10
256.9547128182009
 20
618.9935458950485
 30
0.0
 40
7.443040393312843
100
AcDbArc
 50
323.1956235832001
 51
36.80437641679991
  0
ARC
  5
1C59
330
1E
100
AcDbEntity
  8
SCHRAFF
100
AcDbCircle
 10
275.0523068424422
 20
618.9935458950485
 30
0.0
 40
7.443040393312843
100
AcDbArc
 50
27.64507366279751
 51
36.80437641679991
  0
ARC
  5
1C5A
330
1E
100
AcDbEntity
  8
SCHRAFF
100
AcDbCircle
 10
269.0197755010286
 20
618.9935458950485
 30
0.0
 40
7.443040393312843
100
AcDbArc
 50
348.2048117016968
 51
36.80437641679991
  0
ARC
  5
1C5B
330
1E
100
AcDbEntity
  8
STEMPEL
100
AcDbCircle
 10
295.3491854987287
 20
637.1450884109458
 30
0.0
 40
8.0
100
AcDbArc
 50
147.6719358778364
 51
180.0
  0
LINE
  5
1C5C
102
{ACAD_REACTORS
330
1F8E
102
}
330
1E
100
AcDbEntity
  8
STEMPEL
100
AcDbLine
 10
285.7491854987288
 20
625.0345302848691
 30
0.0
 11
285.7491854987288
 21
624.5676118440164
 31
0.0
  0
LINE
  5
1C5D
102
{ACAD_REACTORS
330
1F73
102
}
330
1E
100
AcDbEntity
  8
STEMPEL
100
AcDbLine
 10
287.3491854987287
 20
617.451688075515
 30
0.0
 11
285.5293343273979
 21
617.451688075515
 31
0.0
  0
ARC
  5
1C5E
330
1E
100
AcDbEntity
  8
SCHRAFF
100
AcDbCircle
 10
280.9120603085264
 20
618.7585967392083
 30
0.0
 40
7.657442013147875
100
AcDbArc
 50
327.2073927374725
 51
34.0981897189187
  0
ARC
  5
1C5F
102
{ACAD_REACTORS
330
1F8E
102
}
330
1E
100
AcDbEntity
  8
STEMPEL
100
AcDbCircle
 10
275.3491854987287
 20
624.5676118440164
 30
0.0
 40
12.0
100
AcDbArc
 50
339.9999999999974
 51
0.0
  0
ARC
  5
1C60
102
{ACAD_REACTORS
330
1F8E
102
}
330
1E
100
AcDbEntity
  8
STEMPEL
100
AcDbCircle
 10
275.3491854987287
 20
624.5676118440164
 30
0.0
 40
10.4
100
AcDbArc
 50
339.9999999999974
 51
0.0
  0
LINE
  5
1C61
102
{ACAD_REACTORS
330
1F8E
102
}
330
1E
100
AcDbEntity
  8
STEMPEL
100
AcDbLine
 10
287.3491854987287
 20
637.1450884109458
 30
0.0
 11
287.3491854987287
 21
624.5676118440164
 31
0.0
  0
ARC
  5
1C62
330
1E
100
AcDbEntity
  8
STEMPEL
100
AcDbCircle
 10
278.4491854987286
 20
647.8404144929318
 30
0.0
 40
12.0
100
AcDbArc
 50
327.6719358778364
 51
0.0
  0
LWPOLYLINE
  5
1C63
330
1E
100
AcDbEntity
  8
STEMPEL
100
AcDbPolyline
 90
        4
 70
     0
 43
0.0
 10
268.6831923582556
 20
612.4303512818087
 42
-0.0881939002362183
 10
269.8469454245469
 20
612.0869400788465
 42
-0.1041583937666652
 10
271.2337602677462
 20
610.9872219814474
 42
-0.0251436189823858
 10
271.5376805757856
 20
610.5811527294645
 42
-0.082976372916389
  0
LWPOLYLINE
  5
1C64
330
1E
100
AcDbEntity
  8
STEMPEL
100
AcDbPolyline
 90
        3
 70
     0
 43
0.0
 10
269.0991854987287
 20
612.4516880755145
 42
-0.116044809117607
 10
270.6503710155798
 20
612.0867597511406
 42
-0.0866977466030354
 10
271.8418668885265
 20
611.208726132434
 42
-0.0907446640652515
  0
LWPOLYLINE
  5
1C65
330
1E
100
AcDbEntity
  8
STEMPEL
100
AcDbPolyline
 90
        5
 70
     0
 43
0.0
 10
264.5970146695977
 20
607.4516880755145
 42
-0.0894856039465815
 10
264.9464663329918
 20
609.3886106269997
 42
-0.0942938265008356
 10
265.9156699753899
 20
610.9872219814474
 42
-0.1019990275861884
 10
267.3999858757268
 20
612.0795999592705
 42
-0.1082072415965859
 10
269.0991854987287
 20
612.4516880755145
 42
-0.1082072415965768
  0
LWPOLYLINE
  5
1C66
330
1E
100
AcDbEntity
  8
STEMPEL
100
AcDbPolyline
 90
        4
 70
     0
 43
0.0
 10
283.4447367371204
 20
611.7243032675783
 42
-0.0611600535747248
 10
283.9288910694172
 20
610.9934953273209
 42
-0.0648584830741578
 10
284.4538979298259
 20
609.4775887823966
 42
-0.0510111269016863
 10
284.661124116451
 20
607.4516880755145
 42
-0.0510111269016738
  0
ARC
  5
1C67
102
{ACAD_REACTORS
330
1F8E
102
}
330
1E
100
AcDbEntity
  8
STEMPEL
100
AcDbCircle
 10
286.8491854987287
 20
597.6875141644828
 30
0.0
 40
9.599999999999999
100
AcDbArc
 50
159.9999999999974
 51
180.0
  0
ARC
  5
1C68
102
{ACAD_REACTORS
330
1F8E
102
}
330
1E
100
AcDbEntity
  8
STEMPEL
100
AcDbCircle
 10
286.8491854987287
 20
597.6875141644828
 30
0.0
 40
8.0
100
AcDbArc
 50
159.9999999999974
 51
180.0
  0
LINE
  5
1C69
330
1E
100
AcDbEntity
  8
STEMPEL
100
AcDbLine
 10
264.5970146695977
 20
607.4516880755145
 30
0.0
 11
264.5970146695977
 21
584.0005621606139
 31
0.0
  0
LWPOLYLINE
  5
1C6A
330
1E
100
AcDbEntity
  8
STEMPEL
100
AcDbPolyline
 90
        9
 70
     0
 43
0.0
 10
284.661124116451
 20
567.4516880755145
 42
-0.0510111269016863
 10
284.4538979298259
 20
565.4257873686328
 42
-0.0648584830741578
 10
283.9288910694172
 20
563.9098808237085
 42
-0.1041619196622498
 10
283.0076837425342
 20
562.7483408824686
 42
-0.1749289434508429
 10
282.161124116451
 20
562.442816224699
 42
-0.174928943450854
 10
281.3145644903675
 20
562.7483408824686
 42
-0.104161919662265
 10
280.3933571634843
 20
563.9098808237085
 42
-0.0648584830741701
 10
279.8683503030761
 20
565.4257873686328
 42
-0.051011126901681
 10
279.661124116451
 20
567.4516880755147
 42
-0.0510111269017003
  0
LWPOLYLINE
  5
1C6B
330
1E
100
AcDbEntity
  8
STEMPEL
100
AcDbPolyline
 90
        5
 70
     0
 43
0.0
 10
281.0605653459575
 20
567.4516880755145
 42
0.0448625346001936
 10
281.24332866291
 20
565.4188617925769
 42
0.058366107133556
 10
281.701477449481
 20
563.9161541695821
 42
0.1004267118962066
 10
282.5296460521947
 20
562.7380434708443
 42
0.0646530356134273
 10
282.7475419412099
 20
562.579580581681
 42
0.1917760145803905
  0
INSERT
  5
1C6C
330
1E
100
AcDbEntity
  8
SCHRAFF
100
AcDbBlockReference
  2
*X1
 10
102.3491854987287
 20
166.3839250429594
 30
0.0
1001
ACAD
1000
HATCH
1002
{
1070
    16
1000
_U,I
1040
0.1
1040
0.0
1070
     0
1002
}
  0
ARC
  5
1C6D
330
1E
100
AcDbEntity
  8
SCHRAFF
100
AcDbCircle
 10
286.8434137425418
 20
560.931124484764
 30
0.0
 40
2.321389970326955
100
AcDbArc
 50
282.5842247085263
 51
348.0809281192454
  0
LINE
  5
1C6E
102
{ACAD_REACTORS
330
1F8E
102
}
330
1E
100
AcDbEntity
  8
STEMPEL
100
AcDbLine
 10
277.2491854987288
 20
597.6875141644828
 30
0.0
 11
277.2491854987288
 21
552.4516880755145
 31
0.0
  0
LINE
  5
1C6F
330
1E
100
AcDbEntity
  8
STEMPEL
100
AcDbLine
 10
279.661124116451
 20
601.3289130283249
 30
0.0
 11
279.661124116451
 21
567.4516880755147
 31
0.0
  0
LINE
  5
1C70
330
1E
100
AcDbEntity
  8
STEMPEL
100
AcDbLine
 10
284.661124116451
 20
607.4516880755145
 30
0.0
 11
284.661124116451
 21
567.4516880755147
 31
0.0
  0
LINE
  5
1C71
330
1E
100
AcDbEntity
  8
STEMPEL
100
AcDbLine
 10
281.0605653459575
 20
605.1738462062482
 30
0.0
 11
281.0605653459575
 21
567.4516880755145
 31
0.0
  0
LINE
  5
1C72
102
{ACAD_REACTORS
330
1F8E
102
}
330
1E
100
AcDbEntity
  8
STEMPEL
100
AcDbLine
 10
278.8491854987287
 20
597.6875141644828
 30
0.0
 11
278.8491854987287
 21
552.4516880755145
 31
0.0
  0
LINE
  5
1C73
102
{ACAD_REACTORS
330
1F55
102
}
330
1E
100
AcDbEntity
  8
STEMPEL
100
AcDbLine
 10
342.3491854987287
 20
562.4516880755145
 30
0.0
 11
342.3491854987287
 21
560.4516880755149
 31
0.0
  0
LINE
  5
1C75
102
{ACAD_REACTORS
330
1F55
330
1F73
102
}
330
1E
100
AcDbEntity
  8
STEMPEL
100
AcDbLine
 10
342.3491854987287
 20
562.4516880755145
 30
0.0
 11
285.7491854987287
 21
562.4516880755144
 31
0.0
  0
LINE
  5
1C76
102
{ACAD_REACTORS
330
1F55
102
}
330
1E
100
AcDbEntity
  8
STEMPEL
100
AcDbLine
 10
342.3491854987287
 20
560.4516880755149
 30
0.0
 11
287.3491854987287
 21
560.4516880755148
 31
0.0
  0
LINE
  5
1C78
102
{ACAD_REACTORS
330
1F8E
102
}
330
1E
100
AcDbEntity
  8
STEMPEL
100
AcDbLine
 10
286.6254969481597
 20
620.4633701241082
 30
0.0
 11
279.3316445324417
 21
600.423675311088
 31
0.0
  0
LINE
  5
1C79
102
{ACAD_REACTORS
330
1F8E
102
}
330
1E
100
AcDbEntity
  8
STEMPEL
100
AcDbLine
 10
285.1219887549023
 20
621.0106023534295
 30
0.0
 11
277.8281363391839
 21
600.9709075404091
 31
0.0
  0
LINE
  5
1C7B
330
1E
100
AcDbEntity
  8
STEMPEL
100
AcDbLine
 10
293.3491854987287
 20
536.4516880755149
 30
0.0
 11
287.3491854987287
 21
536.4516880755149
 31
0.0
  0
INSERT
  5
1C7C
330
1E
100
AcDbEntity
  8
SCHRAFF
100
AcDbBlockReference
  2
*X2
 10
-57.92662953311185
 20
187.0093984504947
 30
0.0
1001
ACAD
1000
HATCH
1002
{
1070
    16
1000
NET,I
1040
10.0
1040
0.7853981633974483
1002
}
  0
LINE
  5
1C7E
102
{ACAD_REACTORS
330
1F55
330
1F73
102
}
330
1E
100
AcDbEntity
  8
STEMPEL
100
AcDbLine
 10
287.3491854987287
 20
617.451688075515
 30
0.0
 11
287.3491854987287
 21
440.4516880755148
 31
0.0
  0
LINE
  5
1C7F
102
{ACAD_REACTORS
330
1F73
102
}
330
1E
100
AcDbEntity
  8
STEMPEL
100
AcDbLine
 10
285.7491854987288
 20
617.451688075515
 30
0.0
 11
285.7491854987288
 21
529.3496106051007
 31
0.0
  0
LINE
  5
1C80
330
1E
100
AcDbEntity
  8
STEMPEL
100
AcDbLine
 10
298.3491854987287
 20
560.4516880755149
 30
0.0
 11
293.3491854987287
 21
536.4516880755149
 31
0.0
  0
LINE
  5
1C84
330
1E
100
AcDbEntity
  8
STEMPEL
100
AcDbLine
 10
290.4491854987286
 20
704.58591227407
 30
0.0
 11
290.4491854987286
 21
647.8404144929318
 31
0.0
  0
POLYLINE
  5
1C85
102
{ACAD_REACTORS
330
1F73
102
}
330
1E
100
AcDbEntity
  8
HILF
100
AcDb2dPolyline
 66
     1
 10
0.0
 20
0.0
 30
0.0
 70
     2
  0
VERTEX
  5
1C86
330
1C85
100
AcDbEntity
  8
HILF
100
AcDbVertex
100
AcDb2dVertex
 10
214.3491854987287
 20
529.3256553857218
 30
0.0
 42
0.0737382671189256
  0
VERTEX
  5
1C87
330
1C85
100
AcDbEntity
  8
HILF
100
AcDbVertex
100
AcDb2dVertex
 10
223.433032625843
 20
525.7735335050356
 30
0.0
 42
0.0987609047239987
 70
     1
  0
VERTEX
  5
1C88
330
1C85
100
AcDbEntity
  8
HILF
100
AcDbVertex
100
AcDb2dVertex
 10
230.7437068963377
 20
525.5639336075183
 30
0.0
 42
0.0733477648717543
  0
VERTEX
  5
1C89
330
1C85
100
AcDbEntity
  8
HILF
100
AcDbVertex
100
AcDb2dVertex
 10
237.7513023433689
 20
527.8446738304746
 30
0.0
 42
-0.096956435124545
 70
     1
  0
VERTEX
  5
1C8A
330
1C85
100
AcDbEntity
  8
HILF
100
AcDbVertex
100
AcDb2dVertex
 10
243.1490900932804
 20
529.3256553857218
 30
0.0
 42
-0.1045620848282413
  0
VERTEX
  5
1C8B
330
1C85
100
AcDbEntity
  8
HILF
100
AcDbVertex
100
AcDb2dVertex
 10
251.5822160850682
 20
528.1896894731244
 30
0.0
 42
0.0936516773699781
 70
     1
  0
VERTEX
  5
1C8C
330
1C85
100
AcDbEntity
  8
HILF
100
AcDbVertex
100
AcDb2dVertex
 10
260.9481195841661
 20
526.721387938614
 30
0.0
 42
0.0962094171233353
  0
VERTEX
  5
1C8D
330
1C85
100
AcDbEntity
  8
HILF
100
AcDbVertex
100
AcDb2dVertex
 10
270.0946928991425
 20
528.7963574912923
 30
0.0
 42
-0.0987919873376594
 70
     1
  0
VERTEX
  5
1C8E
330
1C85
100
AcDbEntity
  8
HILF
100
AcDbVertex
100
AcDb2dVertex
 10
279.0168333274139
 20
530.7724685017342
 30
0.0
 42
-0.0649632304289429
  0
VERTEX
  5
1C8F
330
1C85
100
AcDbEntity
  8
HILF
100
AcDbVertex
100
AcDb2dVertex
 10
282.0769632546214
 20
530.4384425113039
 30
0.0
 42
-0.0360117806784646
 70
     1
  0
VERTEX
  5
1C90
330
1C85
100
AcDbEntity
  8
HILF
100
AcDbVertex
100
AcDb2dVertex
 10
287.3491854987287
 20
528.7469282201741
 30
0.0
  0
SEQEND
  5
1C91
330
1C85
100
AcDbEntity
  8
HILF
  0
LINE
  5
1CAC
330
1E
100
AcDbEntity
  8
HILF
100
AcDbLine
 10
285.8774303788227
 20
638.7090113465583
 30
0.0
 11
215.8209406186347
 21
638.7090113465578
 31
0.0
  0
LINE
  5
1CAD
330
1E
100
AcDbEntity
  8
HILF
100
AcDbLine
 10
288.6918811099377
 20
646.0384193164331
 30
0.0
 11
213.0064898875198
 21
646.0384193164331
 31
0.0
  0
LINE
  5
1CAE
330
1E
100
AcDbEntity
  8
HILF
100
AcDbLine
 10
288.899236186305
 20
761.9678400846187
 30
0.0
 11
212.7991348111523
 21
761.9678400846187
 31
0.0
  0
LINE
  5
1CAF
330
1E
100
AcDbEntity
  8
HILF
100
AcDbLine
 10
216.1667070869721
 20
622.4516880755145
 30
0.0
 11
283.8910159001057
 21
622.4516880755145
 31
0.0
  0
POLYLINE
  5
1CB0
102
{ACAD_REACTORS
330
1F73
330
1F8E
102
}
330
1E
100
AcDbEntity
  8
HILF
100
AcDb2dPolyline
 66
     1
 10
0.0
 20
0.0
 30
0.0
 70
     4
 75
     6
  0
VERTEX
  5
1CB1
330
1CB0
100
AcDbEntity
  8
HILF
100
AcDbVertex
100
AcDb2dVertex
 10
287.3491854987287
 20
626.0083329829107
 30
0.0
 70
    16
  0
VERTEX
  5
1CB2
330
1CB0
100
AcDbEntity
  8
HILF
100
AcDbVertex
100
AcDb2dVertex
 10
287.3491854987287
 20
626.0083329829107
 30
0.0
 70
     8
  0
VERTEX
  5
1CB3
330
1CB0
100
AcDbEntity
  8
HILF
100
AcDbVertex
100
AcDb2dVertex
 10
282.0233717440062
 20
622.7669006056507
 30
0.0
 70
     8
  0
VERTEX
  5
1CB4
330
1CB0
100
AcDbEntity
  8
HILF
100
AcDbVertex
100
AcDb2dVertex
 10
277.7443365088481
 20
619.1437154241145
 30
0.0
 70
     8
  0
VERTEX
  5
1CB5
330
1CB0
100
AcDbEntity
  8
HILF
100
AcDbVertex
100
AcDb2dVertex
 10
274.3776171575941
 20
615.231869323261
 30
0.0
 70
     8
  0
VERTEX
  5
1CB6
330
1CB0
100
AcDbEntity
  8
HILF
100
AcDbVertex
100
AcDb2dVertex
 10
271.7887510545843
 20
611.1244541880487
 30
0.0
 70
     8
  0
VERTEX
  5
1CB7
330
1CB0
100
AcDbEntity
  8
HILF
100
AcDbVertex
100
AcDb2dVertex
 10
269.8432755641577
 20
606.9145619034361
 30
0.0
 70
     8
  0
VERTEX
  5
1CB8
330
1CB0
100
AcDbEntity
  8
HILF
100
AcDbVertex
100
AcDb2dVertex
 10
268.4067280506543
 20
602.6952843543817
 30
0.0
 70
     8
  0
VERTEX
  5
1CB9
330
1CB0
100
AcDbEntity
  8
HILF
100
AcDbVertex
100
AcDb2dVertex
 10
267.3446458784142
 20
598.5597134258441
 30
0.0
 70
     8
  0
VERTEX
  5
1CBA
330
1CB0
100
AcDbEntity
  8
HILF
100
AcDbVertex
100
AcDb2dVertex
 10
266.5225664117768
 20
594.6009410027818
 30
0.0
 70
     8
  0
VERTEX
  5
1CBB
330
1CB0
100
AcDbEntity
  8
HILF
100
AcDbVertex
100
AcDb2dVertex
 10
265.824039952659
 20
590.8939648151788
 30
0.0
 70
     8
  0
VERTEX
  5
1CBC
330
1CB0
100
AcDbEntity
  8
HILF
100
AcDbVertex
100
AcDb2dVertex
 10
265.2046685532846
 20
587.4414059731214
 30
0.0
 70
     8
  0
VERTEX
  5
1CBD
330
1CB0
100
AcDbEntity
  8
HILF
100
AcDbVertex
100
AcDb2dVertex
 10
264.6380672034547
 20
584.227791431721
 30
0.0
 70
     8
  0
VERTEX
  5
1CBE
330
1CB0
100
AcDbEntity
  8
HILF
100
AcDbVertex
100
AcDb2dVertex
 10
264.0978508929709
 20
581.2376481460887
 30
0.0
 70
     8
  0
VERTEX
  5
1CBF
330
1CB0
100
AcDbEntity
  8
HILF
100
AcDbVertex
100
AcDb2dVertex
 10
263.5576346116334
 20
578.4555030713367
 30
0.0
 70
     8
  0
VERTEX
  5
1CC0
330
1CB0
100
AcDbEntity
  8
HILF
100
AcDbVertex
100
AcDb2dVertex
 10
262.9910333492439
 20
575.8658831625764
 30
0.0
 70
     8
  0
VERTEX
  5
1CC1
330
1CB0
100
AcDbEntity
  8
HILF
100
AcDbVertex
100
AcDb2dVertex
 10
262.3716620956029
 20
573.4533153749191
 30
0.0
 70
     8
  0
VERTEX
  5
1CC2
330
1CB0
100
AcDbEntity
  8
HILF
100
AcDbVertex
100
AcDb2dVertex
 10
261.673135840512
 20
571.2023266634765
 30
0.0
 70
     8
  0
VERTEX
  5
1CC3
330
1CB0
100
AcDbEntity
  8
HILF
100
AcDbVertex
100
AcDb2dVertex
 10
260.8722831307912
 20
569.1003610333901
 30
0.0
 70
     8
  0
VERTEX
  5
1CC4
330
1CB0
100
AcDbEntity
  8
HILF
100
AcDbVertex
100
AcDb2dVertex
 10
259.9587867413388
 20
567.146530689922
 30
0.0
 70
     8
  0
VERTEX
  5
1CC5
330
1CB0
100
AcDbEntity
  8
HILF
100
AcDbVertex
100
AcDb2dVertex
 10
258.9255430040721
 20
565.3428648883639
 30
0.0
 70
     8
  0
VERTEX
  5
1CC6
330
1CB0
100
AcDbEntity
  8
HILF
100
AcDbVertex
100
AcDb2dVertex
 10
257.7654482509083
 20
563.6913928840081
 30
0.0
 70
     8
  0
VERTEX
  5
1CC7
330
1CB0
100
AcDbEntity
  8
HILF
100
AcDbVertex
100
AcDb2dVertex
 10
256.4713988137655
 20
562.1941439321463
 30
0.0
 70
     8
  0
VERTEX
  5
1CC8
330
1CB0
100
AcDbEntity
  8
HILF
100
AcDbVertex
100
AcDb2dVertex
 10
255.0362910245608
 20
560.8531472880708
 30
0.0
 70
     8
  0
VERTEX
  5
1CC9
330
1CB0
100
AcDbEntity
  8
HILF
100
AcDbVertex
100
AcDb2dVertex
 10
253.4530212152112
 20
559.6704322070734
 30
0.0
 70
     8
  0
VERTEX
  5
1CCA
330
1CB0
100
AcDbEntity
  8
HILF
100
AcDbVertex
100
AcDb2dVertex
 10
251.7144857176352
 20
558.6480279444463
 30
0.0
 70
     8
  0
VERTEX
  5
1CCB
330
1CB0
100
AcDbEntity
  8
HILF
100
AcDbVertex
100
AcDb2dVertex
 10
249.8151248513659
 20
557.7850044305132
 30
0.0
 70
     8
  0
VERTEX
  5
1CCC
330
1CB0
100
AcDbEntity
  8
HILF
100
AcDbVertex
100
AcDb2dVertex
 10
247.7555548864048
 20
557.0685942957279
 30
0.0
 70
     8
  0
VERTEX
  5
1CCD
330
1CB0
100
AcDbEntity
  8
HILF
100
AcDbVertex
100
AcDb2dVertex
 10
245.5379360803695
 20
556.4830708455756
 30
0.0
 70
     8
  0
VERTEX
  5
1CCE
330
1CB0
100
AcDbEntity
  8
HILF
100
AcDbVertex
100
AcDb2dVertex
 10
243.1644286908781
 20
556.0127073855414
 30
0.0
 70
     8
  0
VERTEX
  5
1CCF
330
1CB0
100
AcDbEntity
  8
HILF
100
AcDbVertex
100
AcDb2dVertex
 10
240.6371929755478
 20
555.6417772211114
 30
0.0
 70
     8
  0
VERTEX
  5
1CD0
330
1CB0
100
AcDbEntity
  8
HILF
100
AcDbVertex
100
AcDb2dVertex
 10
237.9583891919967
 20
555.3545536577703
 30
0.0
 70
     8
  0
VERTEX
  5
1CD1
330
1CB0
100
AcDbEntity
  8
HILF
100
AcDbVertex
100
AcDb2dVertex
 10
235.1301775978425
 20
555.1353100010037
 30
0.0
 70
     8
  0
VERTEX
  5
1CD2
330
1CB0
100
AcDbEntity
  8
HILF
100
AcDbVertex
100
AcDb2dVertex
 10
232.1547184507029
 20
554.968319556297
 30
0.0
 70
     8
  0
VERTEX
  5
1CD3
330
1CB0
100
AcDbEntity
  8
HILF
100
AcDbVertex
100
AcDb2dVertex
 10
229.0366395076075
 20
554.8397157757729
 30
0.0
 70
     8
  0
VERTEX
  5
1CD4
330
1CB0
100
AcDbEntity
  8
HILF
100
AcDbVertex
100
AcDb2dVertex
 10
225.7904385232348
 20
554.7430726981008
 30
0.0
 70
     8
  0
VERTEX
  5
1CD5
330
1CB0
100
AcDbEntity
  8
HILF
100
AcDbVertex
100
AcDb2dVertex
 10
222.4330807516749
 20
554.6738245085875
 30
0.0
 70
     8
  0
VERTEX
  5
1CD6
330
1CB0
100
AcDbEntity
  8
HILF
100
AcDbVertex
100
AcDb2dVertex
 10
218.9815314470177
 20
554.6274053925404
 30
0.0
 70
     8
  0
VERTEX
  5
1CD7
330
1CB0
100
AcDbEntity
  8
HILF
100
AcDbVertex
100
AcDb2dVertex
 10
215.4527558633536
 20
554.5992495352659
 30
0.0
 70
     8
  0
VERTEX
  5
1CD8
330
1CB0
100
AcDbEntity
  8
HILF
100
AcDbVertex
100
AcDb2dVertex
 10
211.8637192547728
 20
554.5847911220707
 30
0.0
 70
     8
  0
VERTEX
  5
1CD9
330
1CB0
100
AcDbEntity
  8
HILF
100
AcDbVertex
100
AcDb2dVertex
 10
208.2313868753656
 20
554.5794643382621
 30
0.0
 70
     8
  0
VERTEX
  5
1CDA
330
1CB0
100
AcDbEntity
  8
HILF
100
AcDbVertex
100
AcDb2dVertex
 10
204.572723979222
 20
554.5787033691467
 30
0.0
 70
     8
  0
VERTEX
  5
1CDB
330
1CB0
100
AcDbEntity
  8
HILF
100
AcDbVertex
100
AcDb2dVertex
 10
271.6317884505741
 20
617.9562653914367
 30
0.0
 70
    16
  0
VERTEX
  5
1CDC
330
1CB0
100
AcDbEntity
  8
HILF
100
AcDbVertex
100
AcDb2dVertex
 10
265.3968056657229
 20
591.7221101714871
 30
0.0
 70
    16
  0
VERTEX
  5
1CDD
330
1CB0
100
AcDbEntity
  8
HILF
100
AcDbVertex
100
AcDb2dVertex
 10
262.7988959647696
 20
569.6438623293306
 30
0.0
 70
    16
  0
VERTEX
  5
1CDE
330
1CB0
100
AcDbEntity
  8
HILF
100
AcDbVertex
100
AcDb2dVertex
 10
253.4464255182706
 20
556.9164004920499
 30
0.0
 70
    16
  0
VERTEX
  5
1CDF
330
1CB0
100
AcDbEntity
  8
HILF
100
AcDbVertex
100
AcDb2dVertex
 10
233.7023162679582
 20
554.5787033691467
 30
0.0
 70
    16
  0
VERTEX
  5
1CE0
330
1CB0
100
AcDbEntity
  8
HILF
100
AcDbVertex
100
AcDb2dVertex
 10
214.3491854987287
 20
554.5787033691467
 30
0.0
 70
    16
  0
VERTEX
  5
1CE1
330
1CB0
100
AcDbEntity
  8
HILF
100
AcDbVertex
100
AcDb2dVertex
 10
204.572723979222
 20
554.5787033691467
 30
0.0
 70
    16
  0
SEQEND
  5
1CE2
330
1CB0
100
AcDbEntity
  8
HILF
  0
INSERT
  5
1CE4
330
1E
100
AcDbEntity
  8
SCHRAFF
100
AcDbBlockReference
  2
*X10
 10
573.0625429633687
 20
-3.933812786086491
 30
0.0
 50
90.0
1001
ACAD
1000
HATCH
1002
{
1070
    16
1000
_U,I
1040
0.1
1040
0.0
1070
     0
1002
}
  0
DIMENSION
  5
1CE5
330
1E
100
AcDbEntity
  8
BEM
100
AcDbDimension
  2
*D12
 10
342.3491854987287
 20
507.6907290656613
 30
0.0
 11
250.8491854987288
 21
514.1907290656613
 31
0.0
 70
    32
  1
%%c<>
 71
     5
 42
182.9999999999999
  3
Standard
100
AcDbAlignedDimension
 13
159.3491854987288
 23
560.4516880755149
 33
0.0
 14
342.3491854987287
 24
560.4516880755149
 34
0.0
 50
180.0
100
AcDbRotatedDimension
1001
ACAD
1000
DSTYLE
1002
{
1070
    40
1040
2.0
1070
    41
1040
3.5
1070
    42
1040
1.0
1070
    43
1040
7.0
1070
    44
1040
1.0
1070
    73
1070
     0
1070
    74
1070
     0
1070
    77
1070
     1
1070
    78
1070
     8
1070
    79
1070
     2
1070
   140
1040
3.5
1070
   141
1040
1.5
1070
   146
1040
0.5142857142857144
1070
   147
1040
1.5
1070
   172
1070
     1
1070
   178
1070
     1
1070
   179
1070
     2
1070
   271
1070
     2
1070
   272
1070
     2
1070
   284
1070
     8
1070
   285
1070
     8
1070
   286
1070
     8
1002
}
  0
LINE
  5
1CE6
330
1E
100
AcDbEntity
  8
STEMPEL
100
AcDbLine
 10
276.2880979272388
 20
617.451688075515
 30
0.0
 11
214.3491854987287
 21
617.4516880755145
 31
0.0
  0
LINE
  5
1CE7
102
{ACAD_REACTORS
330
1F8E
102
}
330
1E
100
AcDbEntity
  8
STEMPEL
100
AcDbLine
 10
222.8491854987287
 20
552.4516880755145
 30
0.0
 11
278.8491854987287
 21
552.4516880755145
 31
0.0
  0
LINE
  5
1CE8
330
1E
100
AcDbEntity
  8
STEMPEL
100
AcDbLine
 10
211.0837881704537
 20
793.802132732515
 30
0.0
 11
290.6145828270039
 21
793.802132732515
 31
0.0
  0
LINE
  5
1CE9
330
1E
100
AcDbEntity
  8
STEMPEL
100
AcDbLine
 10
291.8491854987287
 20
440.4516880755148
 30
0.0
 11
209.8491854987289
 21
440.4516880755148
 31
0.0
  0
LINE
  5
1CEA
330
1E
100
AcDbEntity
  8
STEMPEL
100
AcDbLine
 10
205.8491854987289
 20
412.4516880755147
 30
0.0
 11
209.3491854987288
 21
415.9516880755147
 31
0.0
  0
LINE
  5
1CEB
330
1E
100
AcDbEntity
  8
STEMPEL
100
AcDbLine
 10
203.4522390386229
 20
408.9516880755147
 30
0.0
 11
203.4522390386229
 21
401.2126121520448
 31
0.0
  0
LINE
  5
1CEC
330
1E
100
AcDbEntity
  8
STEMPEL
100
AcDbLine
 10
206.6550116745696
 20
408.9516880755147
 30
0.0
 11
206.6550116745694
 21
400.5062712876297
 31
0.0
  0
POINT
  5
1CED
330
1E
100
AcDbEntity
  8
STEMPEL
100
AcDbPoint
 10
197.8491854987288
 20
387.951688075515
 30
0.0
  0
LINE
  5
1CEE
330
1E
100
AcDbEntity
  8
STEMPEL
100
AcDbLine
 10
190.8491854987288
 20
390.951688075515
 30
0.0
 11
191.8491854987288
 21
391.951688075515
 31
0.0
  0
LINE
  5
1CEF
330
1E
100
AcDbEntity
  8
BEM
100
AcDbLine
 10
204.6785229274036
 20
390.951688075515
 30
0.0
 11
204.6785229274036
 21
390.951688075515
 31
0.0
  0
LINE
  5
1CF0
330
1E
100
AcDbEntity
  8
STEMPEL
100
AcDbLine
 10
209.8491854987289
 20
390.951688075515
 30
0.0
 11
201.0991854987288
 21
390.951688075515
 31
0.0
  0
ARC
  5
1CF1
330
1E
100
AcDbEntity
  8
STEMPEL
100
AcDbCircle
 10
200.3491854987287
 20
384.6782079225673
 30
0.0
 40
7.599999999999999
100
AcDbArc
 50
0.0
 51
50.79235077003635
  0
ARC
  5
1CF2
330
1E
100
AcDbEntity
  8
STEMPEL
100
AcDbCircle
 10
200.3491854987287
 20
384.6782079225673
 30
0.0
 40
6.0
100
AcDbArc
 50
0.0
 51
50.99999999999926
  0
LINE
  5
1CF3
330
1E
100
AcDbEntity
  8
STEMPEL
100
AcDbLine
 10
203.6618203108404
 20
389.7162465392723
 30
0.0
 11
204.1251078450281
 21
389.3410836913088
 31
0.0
  0
LINE
  5
1CF4
330
1E
100
AcDbEntity
  8
STEMPEL
100
AcDbLine
 10
204.6785229274036
 20
390.951688075515
 30
0.0
 11
205.153394439871
 21
390.5671447068996
 31
0.0
  0
LINE
  5
1CF5
330
1E
100
AcDbEntity
  8
STEMPEL
100
AcDbLine
 10
203.6618203108404
 20
389.7162465392723
 30
0.0
 11
204.6785229274036
 21
390.951688075515
 31
0.0
  0
LINE
  5
1CF6
330
1E
100
AcDbEntity
  8
STEMPEL
100
AcDbLine
 10
201.3491854987289
 20
390.951688075515
 30
0.0
 11
209.8491854987289
 21
390.951688075515
 31
0.0
  0
ARC
  5
1CF7
330
1E
100
AcDbEntity
  8
STEMPEL
100
AcDbCircle
 10
199.8491854987287
 20
385.0833407783621
 30
0.0
 40
6.0
100
AcDbArc
 50
0.0
 51
77.97530081943556
  0
LINE
  5
1CF8
330
1E
100
AcDbEntity
  8
STEMPEL
100
AcDbLine
 10
201.0991854987288
 20
391.951688075515
 30
0.0
 11
201.0991854987288
 21
390.951688075515
 31
0.0
  0
LINE
  5
1CF9
330
1E
100
AcDbEntity
  8
STEMPEL
100
AcDbLine
 10
201.3491854987289
 20
390.951688075515
 30
0.0
 11
201.3491854987289
 21
391.951688075515
 31
0.0
  0
LINE
  5
1CFA
330
1E
100
AcDbEntity
  8
STEMPEL
100
AcDbLine
 10
201.3491854987289
 20
391.951688075515
 30
0.0
 11
191.8491854987288
 21
391.951688075515
 31
0.0
  0
ARC
  5
1CFB
330
1E
100
AcDbEntity
  8
STEMPEL
100
AcDbCircle
 10
197.8491854987287
 20
384.951688075515
 30
0.0
 40
3.0
100
AcDbArc
 50
0.0
 51
180.0
  0
LINE
  5
1CFC
330
1E
100
AcDbEntity
  8
STEMPEL
100
AcDbLine
 10
205.8491854987289
 20
395.451688075515
 30
0.0
 11
195.8491854987288
 21
395.451688075515
 31
0.0
  0
LINE
  5
1CFD
330
1E
100
AcDbEntity
  8
STEMPEL
100
AcDbLine
 10
190.8491854987288
 20
391.951688075515
 30
0.0
 11
201.3491854987289
 21
391.951688075515
 31
0.0
  0
INSERT
  5
1CFE
330
1E
100
AcDbEntity
  8
SCHRAFF
100
AcDbBlockReference
  2
*X9
 10
556.0288679093214
 20
280.6250965469784
 30
0.0
 50
90.0
1001
ACAD
1000
HATCH
1002
{
1070
    16
1000
NET,I
1040
20.0
1040
0.7853981633974483
1002
}
  0
LINE
  5
1CFF
330
1E
100
AcDbEntity
  8
STEMPEL
100
AcDbLine
 10
195.8491854987288
 20
395.451688075515
 30
0.0
 11
195.8491854987288
 21
402.6872246454034
 31
0.0
  0
LINE
  5
1D00
330
1E
100
AcDbEntity
  8
STEMPEL
100
AcDbLine
 10
205.8491854987289
 20
400.6872615193183
 30
0.0
 11
205.8491854987289
 21
395.451688075515
 31
0.0
  0
LINE
  5
1D01
330
1E
100
AcDbEntity
  8
STEMPEL
100
AcDbLine
 10
190.8491854987288
 20
391.951688075515
 30
0.0
 11
190.8491854987288
 21
412.4516880755147
 31
0.0
  0
POINT
  5
1D02
330
1E
100
AcDbEntity
  8
STEMPEL
100
AcDbPoint
 10
190.8491854987288
 20
379.951688075515
 30
0.0
  0
LINE
  5
1D03
330
1E
100
AcDbEntity
  8
STEMPEL
100
AcDbLine
 10
200.8491854987288
 20
380.951688075515
 30
0.0
 11
201.8491854987289
 21
379.951688075515
 31
0.0
  0
LINE
  5
1D04
330
1E
100
AcDbEntity
  8
STEMPEL
100
AcDbLine
 10
206.3491854987288
 20
379.951688075515
 30
0.0
 11
190.8491854987288
 21
379.951688075515
 31
0.0
  0
INSERT
  5
1D05
330
1E
100
AcDbEntity
  8
SCHRAFF
100
AcDbBlockReference
  2
*X8
 10
556.0288679093214
 20
280.6250965469784
 30
0.0
 50
90.0
1001
ACAD
1000
HATCH
1002
{
1070
    16
1000
NET,I
1040
15.0
1040
0.7853981633974483
1002
}
  0
INSERT
  5
1D06
330
1E
100
AcDbEntity
  8
SCHRAFF
100
AcDbBlockReference
  2
*X6
 10
556.0288679093214
 20
280.6250965469784
 30
0.0
 50
90.0
1001
ACAD
1000
HATCH
1002
{
1070
    16
1000
_U,I
1040
1.0
1040
0.7853981633974483
1070
     0
1002
}
  0
LINE
  5
1D07
330
1E
100
AcDbEntity
  8
STEMPEL
100
AcDbLine
 10
207.9491854987288
 20
357.4682475694559
 30
0.0
 11
207.9491854987288
 21
384.6782079225673
 31
0.0
  0
LINE
  5
1D08
330
1E
100
AcDbEntity
  8
STEMPEL
100
AcDbLine
 10
209.8491854987289
 20
399.7712304440984
 30
0.0
 11
209.8491854987289
 21
357.5587315394991
 31
0.0
  0
LINE
  5
1D09
330
1E
100
AcDbEntity
  8
STEMPEL
100
AcDbLine
 10
205.8491854987289
 20
385.0833407783621
 30
0.0
 11
205.8491854987289
 21
379.951688075515
 31
0.0
  0
LINE
  5
1D0A
330
1E
100
AcDbEntity
  8
STEMPEL
100
AcDbLine
 10
194.8491854987288
 20
384.951688075515
 30
0.0
 11
194.8491854987288
 21
379.9516880755148
 31
0.0
  0
LINE
  5
1D0B
330
1E
100
AcDbEntity
  8
STEMPEL
100
AcDbLine
 10
200.8491854987288
 20
384.951688075515
 30
0.0
 11
200.8491854987288
 21
380.951688075515
 31
0.0
  0
LINE
  5
1D0C
330
1E
100
AcDbEntity
  8
STEMPEL
100
AcDbLine
 10
190.8491854987288
 20
390.9516880755148
 30
0.0
 11
190.8491854987288
 21
379.951688075515
 31
0.0
  0
LINE
  5
1D0D
330
1E
100
AcDbEntity
  8
STEMPEL
100
AcDbLine
 10
214.058840756421
 20
408.9516880755147
 30
0.0
 11
214.058840756421
 21
398.7593026277279
 31
0.0
  0
LINE
  5
1D0E
330
1E
100
AcDbEntity
  8
HILF
100
AcDbLine
 10
211.9656854987288
 20
399.268622191043
 30
0.0
 11
211.9656854987288
 21
357.8382737446962
 31
0.0
  0
INSERT
  5
1D0F
330
1E
100
AcDbEntity
  8
SCHRAFF
100
AcDbBlockReference
  2
*X5
 10
556.0288679093214
 20
280.6250965469784
 30
0.0
 50
90.0
1001
ACAD
1000
HATCH
1002
{
1070
    16
1000
_U,I
1040
1.0
1040
2.356194490192344
1070
     0
1002
}
  0
LINE
  5
1D10
330
1E
100
AcDbEntity
  8
STEMPEL
100
AcDbLine
 10
214.3491854987287
 20
398.6876888894538
 30
0.0
 11
214.3491854987287
 21
358.3871434609562
 31
0.0
  0
LINE
  5
1D11
330
1E
100
AcDbEntity
  8
STEMPEL
100
AcDbLine
 10
215.9491854987286
 20
398.2888182061186
 30
0.0
 11
215.9491854987286
 21
358.9030801828313
 31
0.0
  0
POLYLINE
  5
1D12
330
1E
100
AcDbEntity
  8
HILF
100
AcDb2dPolyline
 66
     1
 10
0.0
 20
0.0
 30
0.0
 70
     2
  0
VERTEX
  5
1D13
330
1D12
100
AcDbEntity
  8
HILF
100
AcDbVertex
100
AcDb2dVertex
 10
190.8491854987287
 20
403.5125375653042
 30
0.0
 42
-0.0076954051048613
  0
VERTEX
  5
1D14
330
1D12
100
AcDbEntity
  8
HILF
100
AcDbVertex
100
AcDb2dVertex
 10
198.160609395012
 20
402.2690558525471
 30
0.0
 42
-0.0083555681589485
 70
     1
  0
VERTEX
  5
1D15
330
1D12
100
AcDbEntity
  8
HILF
100
AcDbVertex
100
AcDb2dVertex
 10
204.8542112707687
 20
400.9082707611447
 30
0.0
 42
-0.0103428526815329
  0
VERTEX
  5
1D16
330
1D12
100
AcDbEntity
  8
HILF
100
AcDbVertex
100
AcDb2dVertex
 10
220.5775905953665
 20
397.0944958445416
 30
0.0
 42
-0.0398860559348747
 70
     1
  0
VERTEX
  5
1D17
330
1D12
100
AcDbEntity
  8
HILF
100
AcDbVertex
100
AcDb2dVertex
 10
224.5410151853982
 20
395.6997346056738
 30
0.0
 42
-0.2255303876895125
  0
VERTEX
  5
1D18
330
1D12
100
AcDbEntity
  8
HILF
100
AcDbVertex
100
AcDb2dVertex
 10
226.7569078498311
 20
393.1167651642978
 30
0.0
 42
-0.0642567056688984
 70
     1
  0
VERTEX
  5
1D19
330
1D12
100
AcDbEntity
  8
HILF
100
AcDbVertex
100
AcDb2dVertex
 10
228.3165664910034
 20
381.8103082539539
 30
0.0
 42
-0.071563200119874
  0
VERTEX
  5
1D1A
330
1D12
100
AcDbEntity
  8
HILF
100
AcDbVertex
100
AcDb2dVertex
 10
227.1175355801918
 20
372.92538794023
 30
0.0
 42
-0.0715557847621289
 70
     1
  0
VERTEX
  5
1D1B
330
1D12
100
AcDbEntity
  8
HILF
100
AcDbVertex
100
AcDb2dVertex
 10
223.4622869191996
 20
364.7378894246114
 30
0.0
 42
-0.1532639128688667
  0
VERTEX
  5
1D1C
330
1D12
100
AcDbEntity
  8
HILF
100
AcDbVertex
100
AcDb2dVertex
 10
217.1372490270069
 20
359.3683422540525
 30
0.0
 42
-0.1149931053672608
 70
     1
  0
VERTEX
  5
1D1D
330
1D12
100
AcDbEntity
  8
HILF
100
AcDbVertex
100
AcDb2dVertex
 10
206.3491854987287
 20
357.5083435218779
 30
0.0
  0
SEQEND
  5
1D1E
330
1D12
100
AcDbEntity
  8
HILF
  0
INSERT
  5
1D1F
330
1E
100
AcDbEntity
  8
SCHRAFF
100
AcDbBlockReference
  2
*X7
 10
556.0288679093214
 20
280.6250965469784
 30
0.0
 50
90.0
1001
ACAD
1000
HATCH
1002
{
1070
    16
1000
NET,I
1040
10.0
1040
0.7853981633974483
1002
}
  0
LINE
  5
1D20
330
1E
100
AcDbEntity
  8
STEMPEL
100
AcDbLine
 10
203.4522390386229
 20
408.9516880755147
 30
0.0
 11
214.058840756421
 21
408.9516880755147
 31
0.0
  0
ARC
  5
1D21
330
1E
100
AcDbEntity
  8
STEMPEL
100
AcDbCircle
 10
218.3491854987287
 20
233.7845038055125
 30
0.0
 40
12.0
100
AcDbArc
 50
180.0
 51
206.5650511770794
  0
ARC
  5
1D22
330
1E
100
AcDbEntity
  8
SCHRAFF
100
AcDbCircle
 10
216.6180501644312
 20
215.4872943683681
 30
0.0
 40
4.200983067013757
100
AcDbArc
 50
149.2540993634774
 51
237.3109518135994
  0
ARC
  5
1D23
330
1E
100
AcDbEntity
  8
SCHRAFF
100
AcDbCircle
 10
214.1815318511326
 20
214.951688075515
 30
0.0
 40
4.092156872248212
100
AcDbArc
 50
309.6038684905059
 51
50.39613150949411
  0
ARC
  5
1D24
330
1E
100
AcDbEntity
  8
SCHRAFF
100
AcDbCircle
 10
226.24659453396
 20
214.951688075515
 30
0.0
 40
4.092156872248212
100
AcDbArc
 50
309.6038684905059
 51
50.39613150949411
  0
ARC
  5
1D25
330
1E
100
AcDbEntity
  8
SCHRAFF
100
AcDbCircle
 10
220.2140631925463
 20
214.951688075515
 30
0.0
 40
4.092156872248212
100
AcDbArc
 50
309.6038684905059
 51
50.39613150949411
  0
ARC
  5
1D26
330
1E
100
AcDbEntity
  8
SCHRAFF
100
AcDbCircle
 10
238.3116572167876
 20
214.951688075515
 30
0.0
 40
4.092156872248212
100
AcDbArc
 50
309.6038684905059
 51
50.39613150949411
  0
ARC
  5
1D27
330
1E
100
AcDbEntity
  8
SCHRAFF
100
AcDbCircle
 10
256.4092512410287
 20
214.951688075515
 30
0.0
 40
4.092156872248212
100
AcDbArc
 50
309.6038684905059
 51
50.39613150949411
  0
ARC
  5
1D28
330
1E
100
AcDbEntity
  8
SCHRAFF
100
AcDbCircle
 10
250.3767198996147
 20
214.951688075515
 30
0.0
 40
4.092156872248212
100
AcDbArc
 50
309.6038684905059
 51
50.39613150949411
  0
ARC
  5
1D29
330
1E
100
AcDbEntity
  8
SCHRAFF
100
AcDbCircle
 10
244.3441885582013
 20
214.951688075515
 30
0.0
 40
4.092156872248212
100
AcDbArc
 50
309.6038684905059
 51
50.39613150949411
  0
ARC
  5
1D2A
330
1E
100
AcDbEntity
  8
SCHRAFF
100
AcDbCircle
 10
232.2791258753739
 20
214.951688075515
 30
0.0
 40
4.092156872248212
100
AcDbArc
 50
309.6038684905059
 51
50.39613150949411
  0
LINE
  5
1D2B
330
1E
100
AcDbEntity
  8
STEMPEL
100
AcDbLine
 10
214.3491854987287
 20
167.6394727925183
 30
0.0
 11
214.3491854987287
 21
214.951688075515
 31
0.0
  0
LINE
  5
1D2C
330
1E
100
AcDbEntity
  8
STEMPEL
100
AcDbLine
 10
214.3491854987287
 20
214.951688075515
 30
0.0
 11
207.6160592067297
 21
228.4179406595129
 31
0.0
  0
LINE
  5
1D2D
330
1E
100
AcDbEntity
  8
STEMPEL
100
AcDbLine
 10
206.3491854987287
 20
233.7845038055125
 30
0.0
 11
206.3491854987288
 21
384.6782079225673
 31
0.0
  0
LINE
  5
1D2E
330
1E
100
AcDbEntity
  8
STEMPEL
100
AcDbLine
 10
215.2240721339879
 20
86.13096656742255
 30
0.0
 11
214.3491854987287
 21
96.13096656742255
 31
0.0
  0
DIMENSION
  5
1D2F
330
1E
100
AcDbEntity
  8
BEM
100
AcDbDimension
  2
*D13
 10
141.1850520247943
 20
390.951688075515
 30
0.0
 11
134.6850520247943
 21
238.5413273214688
 31
0.0
 70
    32
  1
350
 71
     5
 42
304.8207215080925
  3
Standard
100
AcDbAlignedDimension
 13
215.2240721339879
 23
86.13096656742255
 33
0.0
 14
201.0991854987286
 24
390.951688075515
 34
0.0
 50
90.0
100
AcDbRotatedDimension
1001
ACAD
1000
DSTYLE
1002
{
1070
    40
1040
2.0
1070
    41
1040
3.5
1070
    42
1040
1.0
1070
    43
1040
7.0
1070
    44
1040
1.0
1070
    73
1070
     0
1070
    74
1070
     0
1070
    77
1070
     1
1070
    78
1070
     8
1070
    79
1070
     2
1070
   140
1040
3.5
1070
   141
1040
1.5
1070
   146
1040
0.5142857142857144
1070
   147
1040
1.5
1070
   172
1070
     1
1070
   178
1070
     1
1070
   179
1070
     2
1070
   271
1070
     2
1070
   272
1070
     2
1070
   284
1070
     8
1070
   285
1070
     8
1070
   286
1070
     8
1002
}
  0
LINE
  5
1D30
330
1E
100
AcDbEntity
  8
STEMPEL
100
AcDbLine
 10
214.3491854987287
 20
96.13096656742255
 30
0.0
 11
214.3491854987287
 21
162.6394727925183
 31
0.0
  0
POINT
  5
1D31
330
1E
100
AcDbEntity
  8
STEMPEL
100
AcDbPoint
 10
292.3491854987288
 20
415.9516880755149
 30
0.0
  0
POINT
  5
1D32
330
1E
100
AcDbEntity
  8
STEMPEL
100
AcDbPoint
 10
289.944185498729
 20
415.9516880755149
 30
0.0
  0
LINE
  5
1D33
330
1E
100
AcDbEntity
  8
STEMPEL
100
AcDbLine
 10
295.8491854987287
 20
412.451688075515
 30
0.0
 11
292.3491854987288
 21
415.9516880755149
 31
0.0
  0
LINE
  5
1D34
330
1E
100
AcDbEntity
  8
STEMPEL
100
AcDbLine
 10
298.2461319588347
 20
408.951688075515
 30
0.0
 11
287.6395302410365
 21
408.951688075515
 31
0.0
  0
LINE
  5
1D35
330
1E
100
AcDbEntity
  8
STEMPEL
100
AcDbLine
 10
298.2461319588347
 20
408.951688075515
 30
0.0
 11
298.2461319588347
 21
391.951688075515
 31
0.0
  0
LINE
  5
1D36
330
1E
100
AcDbEntity
  8
STEMPEL
100
AcDbLine
 10
295.0433593228879
 20
408.951688075515
 30
0.0
 11
295.0433593228879
 21
391.951688075515
 31
0.0
  0
LINE
  5
1D37
330
1E
100
AcDbEntity
  8
STEMPEL
100
AcDbLine
 10
287.6395302410365
 20
408.951688075515
 30
0.0
 11
287.6395302410365
 21
391.951688075515
 31
0.0
  0
POINT
  5
1D38
330
1E
100
AcDbEntity
  8
STEMPEL
100
AcDbPoint
 10
310.8491854987287
 20
412.451688075515
 30
0.0
  0
POINT
  5
1D39
330
1E
100
AcDbEntity
  8
STEMPEL
100
AcDbPoint
 10
310.8491854987287
 20
391.9516880755148
 30
0.0
  0
LINE
  5
1D3A
330
1E
100
AcDbEntity
  8
STEMPEL
100
AcDbLine
 10
310.8491854987287
 20
390.951688075515
 30
0.0
 11
309.8491854987287
 21
391.951688075515
 31
0.0
  0
LINE
  5
1D3B
330
1E
100
AcDbEntity
  8
STEMPEL
100
AcDbLine
 10
310.8491854987287
 20
391.9516880755148
 30
0.0
 11
310.8491854987287
 21
412.451688075515
 31
0.0
  0
LINE
  5
1D3C
330
1E
100
AcDbEntity
  8
STEMPEL
100
AcDbLine
 10
310.8491854987287
 20
390.951688075515
 30
0.0
 11
310.8491854987287
 21
379.951688075515
 31
0.0
  0
LINE
  5
1D3D
330
1E
100
AcDbEntity
  8
STEMPEL
100
AcDbLine
 10
300.3491854987287
 20
391.9516880755148
 30
0.0
 11
310.8491854987287
 21
391.9516880755148
 31
0.0
  0
ARC
  5
1D3F
330
1E
100
AcDbEntity
  8
STEMPEL
100
AcDbCircle
 10
283.3491854987287
 20
233.7845038055123
 30
0.0
 40
12.0
100
AcDbArc
 50
333.4349488229205
 51
0.0
  0
ARC
  5
1D40
330
1E
100
AcDbEntity
  8
SCHRAFF
100
AcDbCircle
 10
268.474313923856
 20
214.951688075515
 30
0.0
 40
4.092156872248212
100
AcDbArc
 50
309.6038684905059
 51
50.39613150949411
  0
ARC
  5
1D41
330
1E
100
AcDbEntity
  8
SCHRAFF
100
AcDbCircle
 10
262.4417825824423
 20
214.951688075515
 30
0.0
 40
4.092156872248212
100
AcDbArc
 50
309.6038684905059
 51
50.39613150949411
  0
ARC
  5
1D42
330
1E
100
AcDbEntity
  8
SCHRAFF
100
AcDbCircle
 10
274.5068452652697
 20
214.951688075515
 30
0.0
 40
4.092156872248212
100
AcDbArc
 50
309.6038684905059
 51
50.39613150949411
  0
ARC
  5
1D43
330
1E
100
AcDbEntity
  8
SCHRAFF
100
AcDbCircle
 10
280.5393766066834
 20
214.951688075515
 30
0.0
 40
4.092156872248212
100
AcDbArc
 50
309.6038684905059
 51
50.39613150949411
  0
ARC
  5
1D44
330
1E
100
AcDbEntity
  8
SCHRAFF
100
AcDbCircle
 10
285.0803208330262
 20
215.4872943683681
 30
0.0
 40
4.200983067013757
100
AcDbArc
 50
302.6890481864006
 51
30.74590063652254
  0
LINE
  5
1D45
330
1E
100
AcDbEntity
  8
STEMPEL
100
AcDbLine
 10
287.3491854987287
 20
165.3101772609347
 30
0.0
 11
287.3491854987287
 21
214.951688075515
 31
0.0
  0
LINE
  5
1D46
330
1E
100
AcDbEntity
  8
STEMPEL
100
AcDbLine
 10
287.3491854987287
 20
214.951688075515
 30
0.0
 11
294.082311790728
 21
228.4179406595129
 31
0.0
  0
LINE
  5
1D4A
330
1E
100
AcDbEntity
  8
STEMPEL
100
AcDbLine
 10
295.3491854987287
 20
233.7845038055123
 30
0.0
 11
295.3491854987287
 21
379.951688075515
 31
0.0
  0
POINT
  5
1D4B
330
1E
100
AcDbEntity
  8
STEMPEL
100
AcDbPoint
 10
286.4742988634694
 20
86.13096656742255
 30
0.0
  0
LINE
  5
1D4C
330
1E
100
AcDbEntity
  8
STEMPEL
100
AcDbLine
 10
286.4742988634694
 20
86.13096656742255
 30
0.0
 11
287.3491854987287
 21
96.13096656742255
 31
0.0
  0
LINE
  5
1D4D
330
1E
100
AcDbEntity
  8
STEMPEL
100
AcDbLine
 10
287.3491854987287
 20
96.13096656742255
 30
0.0
 11
287.3491854987287
 21
160.3101772609348
 31
0.0
  0
LINE
  5
1D4E
330
1E
100
AcDbEntity
  8
HILF
100
AcDbLine
 10
291.6807612824495
 20
230.951688075515
 30
0.0
 11
210.0176097150081
 21
230.951688075515
 31
0.0
  0
LINE
  5
1D4F
330
1E
100
AcDbEntity
  8
HILF
100
AcDbLine
 10
284.1369620185901
 20
96.13096656742255
 30
0.0
 11
217.5614089788673
 21
96.13096656742255
 31
0.0
  0
INSERT
  5
1D6A
330
1E
100
AcDbEntity
  8
SCHRAFF
100
AcDbBlockReference
  2
*X4
 10
436.8479647435631
 20
47.18442523829071
 30
0.0
 50
90.0
1001
ACAD
1000
HATCH
1002
{
1070
    16
1000
_U,I
1040
0.1
1040
0.0
1070
     0
1002
}
  0
DIMENSION
  5
1D6B
330
1E
100
AcDbEntity
  8
BEM
100
AcDbDimension
  2
*D14
 10
214.3491854987287
 20
66.50519955393736
 30
0.0
 11
250.8491854987287
 21
73.00519955393736
 31
0.0
 70
    32
  1
%%C<>
 71
     5
 42
73.0
  3
Standard
100
AcDbAlignedDimension
 13
287.3491854987287
 23
96.13096656742255
 33
0.0
 14
214.3491854987287
 24
96.13096656742255
 34
0.0
 50
180.0
100
AcDbRotatedDimension
1001
ACAD
1000
DSTYLE
1002
{
1070
    40
1040
2.0
1070
    41
1040
3.5
1070
    42
1040
1.0
1070
    43
1040
7.0
1070
    44
1040
1.0
1070
    73
1070
     0
1070
    74
1070
     0
1070
    77
1070
     1
1070
    78
1070
     8
1070
    79
1070
     2
1070
   140
1040
3.5
1070
   141
1040
1.5
1070
   146
1040
0.5142857142857144
1070
   147
1040
1.5
1070
   172
1070
     1
1070
   178
1070
     1
1070
   179
1070
     2
1070
   271
1070
     2
1070
   272
1070
     2
1070
   284
1070
     8
1070
   285
1070
     8
1070
   286
1070
     8
1002
}
  0
LINE
  5
1D6C
330
1E
100
AcDbEntity
  8
STEMPEL
100
AcDbLine
 10
287.3491854987287
 20
214.951688075515
 30
0.0
 11
214.3491854987287
 21
214.951688075515
 31
0.0
  0
LINE
  5
1D6D
330
1E
100
AcDbEntity
  8
STEMPEL
100
AcDbLine
 10
286.4742988634694
 20
86.13096656742255
 30
0.0
 11
215.2240721339879
 21
86.13096656742255
 31
0.0
  0
LINE
  5
1D6E
330
1E
100
AcDbEntity
  8
STEMPEL
100
AcDbLine
 10
310.8491854987287
 20
379.951688075515
 30
0.0
 11
228.2779222827107
 21
379.951688075515
 31
0.0
  0
LINE
  5
1D6F
330
1E
100
AcDbEntity
  8
STEMPEL
100
AcDbLine
 10
309.8491854987287
 20
391.951688075515
 30
0.0
 11
227.0567912512788
 21
391.951688075515
 31
0.0
  0
LINE
  5
1D70
330
1E
100
AcDbEntity
  8
STEMPEL
100
AcDbLine
 10
190.8491854987288
 20
412.4516880755147
 30
0.0
 11
310.8491854987287
 21
412.4516880755147
 31
0.0
  0
LINE
  5
1D71
330
1E
100
AcDbEntity
  8
STEMPEL
100
AcDbLine
 10
209.3491854987288
 20
415.9516880755147
 30
0.0
 11
292.3491854987288
 21
415.9516880755149
 31
0.0
  0
LINE
  5
1D72
330
1E
100
AcDbEntity
  8
MITTEL
100
AcDbLine
 10
250.8491854987287
 20
502.0858305595593
 30
0.0
 11
250.8491854987287
 21
81.13096656742255
 31
0.0
  0
LINE
  5
1D73
330
1E
100
AcDbEntity
  8
HILF
100
AcDbLine
 10
289.7326854987286
 20
440.4516880755148
 30
0.0
 11
289.7326854987286
 21
415.9516880755149
 31
0.0
  0
LINE
  5
1D74
330
1E
100
AcDbEntity
  8
HILF
100
AcDbLine
 10
211.9656854987288
 20
440.4516880755148
 30
0.0
 11
211.9656854987288
 21
415.9516880755147
 31
0.0
  0
DIMENSION
  5
1D75
330
1E
100
AcDbEntity
  8
BEM
100
AcDbDimension
  2
*D15
 10
141.4541912484954
 20
412.4516880755147
 30
0.0
 11
134.9541912484954
 21
487.4516880755146
 31
0.0
 70
    32
  1
min.150-max.250
 71
     5
 42
149.9999999999997
  3
Standard
100
AcDbAlignedDimension
 13
159.3491854987288
 23
562.4516880755145
 33
0.0
 14
190.8491854987288
 24
412.4516880755147
 34
0.0
 50
90.0
100
AcDbRotatedDimension
1001
ACAD
1000
DSTYLE
1002
{
1070
    40
1040
2.0
1070
    41
1040
3.5
1070
    42
1040
1.0
1070
    43
1040
7.0
1070
    44
1040
1.0
1070
    73
1070
     0
1070
    74
1070
     0
1070
    77
1070
     1
1070
    78
1070
     8
1070
    79
1070
     2
1070
   140
1040
3.5
1070
   141
1040
1.5
1070
   146
1040
0.5142857142857144
1070
   147
1040
1.5
1070
   172
1070
     1
1070
   178
1070
     1
1070
   179
1070
     2
1070
   271
1070
     2
1070
   272
1070
     2
1070
   284
1070
     8
1070
   285
1070
     8
1070
   286
1070
     8
1002
}
  0
LINE
  5
1D76
330
1E
100
AcDbEntity
  8
STEMPEL
100
AcDbLine
 10
291.8491854987287
 20
440.4516880755148
 30
0.0
 11
291.8491854987287
 21
415.9516880755149
 31
0.0
  0
LINE
  5
1D77
330
1E
100
AcDbEntity
  8
STEMPEL
100
AcDbLine
 10
209.8491854987289
 20
440.4516880755148
 30
0.0
 11
209.8491854987289
 21
415.9516880755147
 31
0.0
  0
SPLINE
  5
1E91
330
1E
100
AcDbEntity
  8
HILF
100
AcDbSpline
210
0.0
220
0.0
230
1.0
 70
     8
 71
     3
 72
    11
 73
     7
 74
     0
 42
0.0000000001
 43
0.0000000001
 40
3.197314516965035
 40
3.197314516965035
 40
3.197314516965035
 40
3.197314516965035
 40
20.42155723739019
 40
40.84311447478024
 40
61.26467171217031
 40
78.48891443259535
 40
78.48891443259535
 40
78.48891443259535
 40
78.48891443259535
 10
214.3491854987286
 20
162.6394727925182
 30
0.0
 10
219.9158521653954
 20
164.6963712975154
 30
0.0
 10
232.0825188320621
 20
168.5834108853127
 30
0.0
 10
250.8491854987286
 20
161.4748250267262
 30
0.0
 10
269.6158521653954
 20
154.3662391681405
 30
0.0
 10
281.782518832062
 20
158.2532787559378
 30
0.0
 10
287.3491854987287
 20
160.3101772609347
 30
0.0
  0
SPLINE
  5
1E92
330
1E
100
AcDbEntity
  8
HILF
100
AcDbSpline
210
0.0
220
0.0
230
1.0
 70
     8
 71
     3
 72
    11
 73
     7
 74
     0
 42
0.0000000001
 43
0.0000000001
 40
3.197314516965035
 40
3.197314516965035
 40
3.197314516965035
 40
3.197314516965035
 40
20.42155723739019
 40
40.84311447478024
 40
61.26467171217031
 40
78.48891443259535
 40
78.48891443259535
 40
78.48891443259535
 40
78.48891443259535
 10
214.3491854987286
 20
167.6394727925182
 30
0.0
 10
219.9158521653954
 20
169.6963712975153
 30
0.0
 10
232.0825188320621
 20
173.5834108853127
 30
0.0
 10
250.8491854987286
 20
166.4748250267262
 30
0.0
 10
269.6158521653954
 20
159.3662391681404
 30
0.0
 10
281.782518832062
 20
163.2532787559377
 30
0.0
 10
287.3491854987287
 20
165.3101772609347
 30
0.0
  0
SPLINE
  5
1E93
330
1E
100
AcDbEntity
  8
HILF
100
AcDbSpline
210
0.0
220
0.0
230
1.0
 70
     8
 71
     3
 72
    11
 73
     7
 74
     5
 42
0.0000000001
 43
0.0000000001
 44
0.0000000001
 40
0.0
 40
0.0
 40
0.0
 40
0.0
 40
20.42155723739011
 40
40.84311447478022
 40
61.26467171217028
 40
81.68622894956037
 40
81.68622894956037
 40
81.68622894956037
 40
81.68622894956037
 10
211.2491854987288
 20
709.5859122740698
 30
0.0
 10
217.8491854987288
 20
712.0859122740698
 30
0.0
 10
231.0491854987287
 20
717.0859122740701
 30
0.0
 10
250.8491854987287
 20
709.5859122740697
 30
0.0
 10
270.6491854987287
 20
702.08591227407
 30
0.0
 10
283.8491854987287
 20
707.0859122740699
 30
0.0
 10
290.4491854987286
 20
709.58591227407
 30
0.0
 11
211.2491854987288
 21
709.5859122740698
 31
0.0
 11
231.0491854987288
 21
714.58591227407
 31
0.0
 11
250.8491854987287
 21
709.5859122740698
 31
0.0
 11
270.6491854987287
 21
704.5859122740698
 31
0.0
 11
290.4491854987286
 21
709.58591227407
 31
0.0
  0
SPLINE
  5
1E94
330
1E
100
AcDbEntity
  8
HILF
100
AcDbSpline
210
0.0
220
0.0
230
1.0
 70
     8
 71
     3
 72
    11
 73
     7
 74
     5
 42
0.0000000001
 43
0.0000000001
 44
0.0000000001
 40
0.0
 40
0.0
 40
0.0
 40
0.0
 40
20.42155723739011
 40
40.84311447478022
 40
61.26467171217028
 40
81.68622894956037
 40
81.68622894956037
 40
81.68622894956037
 40
81.68622894956037
 10
211.2491854987288
 20
704.5859122740698
 30
0.0
 10
217.8491854987288
 20
707.0859122740698
 30
0.0
 10
231.0491854987287
 20
712.0859122740701
 30
0.0
 10
250.8491854987287
 20
704.5859122740698
 30
0.0
 10
270.6491854987287
 20
697.0859122740698
 30
0.0
 10
283.8491854987287
 20
702.08591227407
 30
0.0
 10
290.4491854987286
 20
704.58591227407
 30
0.0
 11
211.2491854987288
 21
704.5859122740698
 31
0.0
 11
231.0491854987288
 21
709.5859122740701
 31
0.0
 11
250.8491854987287
 21
704.5859122740698
 31
0.0
 11
270.6491854987287
 21
699.5859122740698
 31
0.0
 11
290.4491854987286
 21
704.58591227407
 31
0.0
  0
TEXT
  5
1EC2
330
1E
100
AcDbEntity
  8
TEXT
100
AcDbText
 10
532.4966558241469
 20
655.1296391125316
 30
0.0
 40
5.0
  1
Deckenstärke 150-250mm
 50
90.0
 41
0.8
  7
GREEKS
100
AcDbText
  0
HATCH
  5
1F55
330
1E
100
AcDbEntity
  8
SCHRAFF
100
AcDbHatch
 10
0.0
 20
0.0
 30
0.0
210
0.0
220
0.0
230
1.0
  2
_USER
 70
     0
 71
     1
 91
        1
 92
        7
 72
     0
 73
     1
 93
        4
 10
342.3491854987288
 20
562.4516880755145
 10
287.3491854987288
 20
562.4516880755145
 10
287.3491854987289
 20
560.4516880755148
 10
342.3491854987288
 20
560.4516880755149
 97
        4
330
1C75
330
1C7E
330
1C76
330
1C73
 75
     0
 76
     0
 52
135.0
 41
2.0
 77
     0
 78
     1
 53
135.0
 43
0.0
 44
0.0
 45
-1.414213562373095
 46
-1.414213562373094
 79
     0
 47
0.2136777764757221
 98
        1
 10
303.2026595494476
 20
561.5362054483234
  0
LINE
  5
1F62
102
{ACAD_REACTORS
330
1F73
102
}
330
1E
100
AcDbEntity
  8
STEMPEL
100
AcDbLine
 10
285.7491854987288
 20
612.4516880755144
 30
0.0
 11
287.3491854987287
 21
612.4516880755144
 31
0.0
  0
HATCH
  5
1F73
330
1E
100
AcDbEntity
  8
SCHRAFF
100
AcDbHatch
 10
0.0
 20
0.0
 30
0.0
210
0.0
220
0.0
230
1.0
  2
_USER
 70
     0
 71
     1
 91
        3
 92
        7
 72
     0
 73
     1
 93
        4
 10
287.3491854987287
 20
617.4516880755149
 10
285.7491854987288
 20
617.4516880755151
 10
285.7491854987288
 20
612.4516880755145
 10
287.3491854987288
 20
612.4516880755144
 97
        4
330
1C5D
330
1C7F
330
1F62
330
1C7E
 92
        7
 72
     1
 73
     1
 93
        4
 10
287.3491854987288
 20
562.4516880755144
 42
0.0
 10
285.7491854987288
 20
562.4516880755144
 42
0.0
 10
285.7491854987288
 20
529.3496106051004
 42
-0.0111070266384298
 10
287.3491854987287
 20
528.7469282201741
 42
0.0
 97
        4
330
1C75
330
1C7F
330
1C85
330
1C7E
 92
        7
 72
     1
 73
     1
 93
        5
 10
215.9491854987286
 20
554.6032105131259
 42
0.0
 10
215.4527558633481
 20
554.5992495352659
 42
0.0
 10
214.3491854987288
 20
554.5948038084422
 42
0.0
 10
214.3491854987288
 20
529.3256553857218
 42
0.0136570098287412
 10
215.9491854987286
 20
528.4667725262909
 42
0.0
 97
        4
330
1CB0
330
1C4D
330
1C85
330
1C4C
 75
     0
 76
     0
 52
45.0
 41
2.0
 77
     0
 78
     1
 53
45.0
 43
0.0
 44
0.0
 45
-1.414213562373094
 46
1.414213562373095
 79
     0
 47
0.1920083620798834
 98
        3
 10
286.2786180971962
 20
614.7883341960891
 10
286.2786180971962
 20
554.6897171034266
 10
215.2096791356275
 20
544.5132737831886
  0
HATCH
  5
1F8E
330
1E
100
AcDbEntity
  8
SCHRAFF
100
AcDbHatch
 10
0.0
 20
0.0
 30
0.0
210
0.0
220
0.0
230
1.0
  2
_USER
 70
     0
 71
     1
 91
        2
 92
        7
 72
     1
 73
     1
 93
       12
 10
278.8491854987287
 20
597.6875141644828
 42
-0.0874886635259253
 10
279.3316445324417
 20
600.423675311088
 42
0.0
 10
286.6254969481597
 20
620.4633701241082
 42
0.0874886635259297
 10
287.3491854987287
 20
624.5676118440164
 42
0.0
 10
287.3491854987288
 20
626.0083329829109
 42
0.0
 10
285.7491854987287
 20
625.0345302848692
 42
0.0
 10
285.7491854987288
 20
624.5676118440164
 42
-0.0874886635259208
 10
285.1219887549024
 20
621.0106023534295
 42
0.0
 10
277.8281363391839
 20
600.9709075404091
 42
0.0874886635259127
 10
277.2491854987288
 20
597.6875141644831
 42
0.0
 10
277.2491854987288
 20
552.4516880755145
 42
0.0
 10
278.8491854987287
 20
552.4516880755144
 42
0.0
 97
       12
330
1C68
330
1C78
330
1C5F
330
1C61
330
1CB0
330
1C5C
330
1C60
330
1C79
330
1C67
330
1C6E
330
1CE7
330
1C72
 92
        7
 72
     0
 73
     1
 93
        4
 10
224.4491854987287
 20
554.7154082816324
 10
222.8491854987287
 20
554.6824070018284
 10
222.8491854987287
 20
552.4516880755145
 10
224.4491854987286
 20
552.4516880755144
 97
        4
330
1CB0
330
1C32
330
1CE7
330
1C33
 75
     0
 76
     0
 52
135.0
 41
2.0
 77
     0
 78
     1
 53
135.0
 43
0.0
 44
0.0
 45
-1.414213562373095
 46
-1.414213562373094
 79
     0
 47
0.2409888270775417
 98
        3
 10
223.5892665593588
 20
553.5983759633491
 10
277.798631649116
 20
584.9582379328717
 10
223.3153438642371
 20
552.906723454877
  0
ENDSEC
  0
SECTION
  2
OBJECTS
  0
DICTIONARY
  5
C
330
0
100
AcDbDictionary
281
     1
  3
ACAD_COLOR
350
DF
  3
ACAD_GROUP
350
D
  3
ACAD_LAYOUT
350
19
  3
ACAD_MATERIAL
350
DE
  3
ACAD_MLINESTYLE
350
16
  3
ACAD_PLOTSETTINGS
350
18
  3
ACAD_PLOTSTYLENAME
350
E
  3
AcDbVariableDictionary
350
EA
  0
DICTIONARY
  5
A0
330
1E
100
AcDbDictionary
280
     1
281
     1
  3
ACAD_LAYOUTSELFREF
360
D4
  0
DICTIONARY
  5
A2
330
1A
100
AcDbDictionary
280
     1
281
     1
  3
ACAD_LAYOUTSELFREF
360
D3
  0
DICTIONARY
  5
DF
102
{ACAD_REACTORS
330
C
102
}
330
C
100
AcDbDictionary
281
     1
  0
DICTIONARY
  5
D
102
{ACAD_REACTORS
330
C
102
}
330
C
100
AcDbDictionary
281
     1
  0
DICTIONARY
  5
19
102
{ACAD_REACTORS
330
C
102
}
330
C
100
AcDbDictionary
281
     1
  3
Layout1
350
1D
  3
Model
350
21
  0
DICTIONARY
  5
DE
102
{ACAD_REACTORS
330
C
102
}
330
C
100
AcDbDictionary
281
     1
  0
DICTIONARY
  5
16
102
{ACAD_REACTORS
330
C
102
}
330
C
100
AcDbDictionary
281
     1
  3
Standard
350
17
  0
DICTIONARY
  5
18
102
{ACAD_REACTORS
330
C
102
}
330
C
100
AcDbDictionary
281
     1
  0
ACDBDICTIONARYWDFLT
  5
E
102
{ACAD_REACTORS
330
C
102
}
330
C
100
AcDbDictionary
281
     1
  3
Normal
350
F
100
AcDbDictionaryWithDefault
340
F
  0
DICTIONARY
  5
EA
102
{ACAD_REACTORS
330
C
102
}
330
C
100
AcDbDictionary
281
     1
  3
DIMASSOC
350
EB
  3
PROJECTNAME
350
EC
  0
XRECORD
  5
D4
102
{ACAD_REACTORS
330
A0
102
}
330
A0
100
AcDbXrecord
280
     1
340
1E
  0
XRECORD
  5
D3
102
{ACAD_REACTORS
330
A2
102
}
330
A2
100
AcDbXrecord
280
     1
340
1A
  0
LAYOUT
  5
1D
102
{ACAD_REACTORS
330
19
102
}
330
19
100
AcDbPlotSettings
  1

  2
\\NT_WORK01\HP LaserJet 5000 PCL 6
  4

  6

 40
0.0
 41
0.0
 42
0.0
 43
0.0
 44
0.0
 45
0.0
 46
0.0
 47
0.0
 48
0.0
 49
0.0
140
0.0
141
0.0
142
1.0
143
1.0
 70
   688
 72
     0
 73
     0
 74
     5
  7

 75
    16
147
1.0
 76
     0
 77
     2
 78
   300
148
0.0
149
0.0
100
AcDbLayout
  1
Layout1
 70
     0
 71
     1
 10
0.0
 20
0.0
 11
12.0
 21
9.0
 12
0.0
 22
0.0
 32
0.0
 14
1.000000000000000E+20
 24
1.000000000000000E+20
 34
1.000000000000000E+20
 15
-1.000000000000000E+20
 25
-1.000000000000000E+20
 35
-1.000000000000000E+20
146
0.0
 13
0.0
 23
0.0
 33
0.0
 16
1.0
 26
0.0
 36
0.0
 17
0.0
 27
1.0
 37
0.0
 76
     0
330
1A
  0
LAYOUT
  5
21
102
{ACAD_REACTORS
330
19
102
}
330
19
100
AcDbPlotSettings
  1

  2
none_device
  4
Letter_(8.50_x_11.00_Inches)
  6

 40
6.349999904632568
 41
6.349999904632568
 42
6.350006103515625
 43
6.350006103515625
 44
215.8999938964844
 45
279.3999938964844
 46
0.0
 47
0.0
 48
0.0
 49
0.0
140
0.0
141
0.0
142
1.0
143
1.0
 70
 11952
 72
     0
 73
     1
 74
     0
  7

 75
     0
147
1.0
 76
     0
 77
     2
 78
   300
148
3251.566150932968
149
127.4457819382556
100
AcDbLayout
  1
Model
 70
     1
 71
     0
 10
0.0
 20
0.0
 11
12.0
 21
9.0
 12
0.0
 22
0.0
 32
0.0
 14
0.0
 24
0.0
 34
0.0
 15
0.0
 25
0.0
 35
0.0
146
0.0
 13
0.0
 23
0.0
 33
0.0
 16
1.0
 26
0.0
 36
0.0
 17
0.0
 27
1.0
 37
0.0
 76
     0
330
1E
  0
MLINESTYLE
  5
17
102
{ACAD_REACTORS
330
16
102
}
330
16
100
AcDbMlineStyle
  2
STANDARD
 70
     0
  3

 62
   256
 51
90.0
 52
90.0
 71
     2
 49
0.5
 62
   256
  6
BYLAYER
 49
-0.5
 62
   256
  6
BYLAYER
  0
ACDBPLACEHOLDER
  5
F
102
{ACAD_REACTORS
330
E
102
}
330
E
  0
DICTIONARYVAR
  5
EB
102
{ACAD_REACTORS
330
EA
102
}
330
EA
100
DictionaryVariables
280
     0
  1
1
  0
DICTIONARYVAR
  5
EC
102
{ACAD_REACTORS
330
EA
102
}
330
EA
100
DictionaryVariables
280
     0
  1

  0
ENDSEC
  0
EOF
