  0
SECTION
  2
HEADER
  9
$ACADVER
  1
AC1018
  9
$ACADMAINTVER
 70
     2
  9
$DWGCODEPAGE
  3
ANSI_1252
  9
$INSBASE
 10
0.0
 20
0.0
 30
0.0
  9
$EXTMIN
 10
-0.0000000000004547
 20
-0.0000000000000205
 30
0.0
  9
$EXTMAX
 10
594.0000000000001
 20
840.0000000000002
 30
0.0
  9
$LIMMIN
 10
0.0
 20
0.0
  9
$LIMMAX
 10
593.9999999999997
 20
840.0000000000002
  9
$ORTHOMODE
 70
     1
  9
$REGENMODE
 70
     1
  9
$FILLMODE
 70
     1
  9
$QTEXTMODE
 70
     0
  9
$MIRRTEXT
 70
     1
  9
$LTSCALE
 40
20.0
  9
$ATTMODE
 70
     1
  9
$TEXTSIZE
 40
3.5
  9
$TRACEWID
 40
0.5
  9
$TEXTSTYLE
  7
STANDARD
  9
$CLAYER
  8
STEMPEL
  9
$CELTYPE
  6
ByLayer
  9
$CECOLOR
 62
   256
  9
$CELTSCALE
 40
1.0
  9
$DISPSILH
 70
     0
  9
$DIMSCALE
 40
2.0
  9
$DIMASZ
 40
3.5
  9
$DIMEXO
 40
1.0
  9
$DIMDLI
 40
7.0
  9
$DIMRND
 40
0.0
  9
$DIMDLE
 40
0.0
  9
$DIMEXE
 40
1.0
  9
$DIMTP
 40
0.0
  9
$DIMTM
 40
0.0
  9
$DIMTXT
 40
3.5
  9
$DIMCEN
 40
1.5
  9
$DIMTSZ
 40
0.0
  9
$DIMTOL
 70
     0
  9
$DIMLIM
 70
     0
  9
$DIMTIH
 70
     0
  9
$DIMTOH
 70
     0
  9
$DIMSE1
 70
     0
  9
$DIMSE2
 70
     0
  9
$DIMTAD
 70
     1
  9
$DIMZIN
 70
     8
  9
$DIMBLK
  1

  9
$DIMASO
 70
     1
  9
$DIMSHO
 70
     0
  9
$DIMPOST
  1

  9
$DIMAPOST
  1

  9
$DIMALT
 70
     0
  9
$DIMALTD
 70
     2
  9
$DIMALTF
 40
25.4
  9
$DIMLFAC
 40
1.0
  9
$DIMTOFL
 70
     1
  9
$DIMTVP
 40
0.0
  9
$DIMTIX
 70
     0
  9
$DIMSOXD
 70
     0
  9
$DIMSAH
 70
     0
  9
$DIMBLK1
  1

  9
$DIMBLK2
  1

  9
$DIMSTYLE
  2
Standard
  9
$DIMCLRD
 70
     0
  9
$DIMCLRE
 70
     0
  9
$DIMCLRT
 70
     1
  9
$DIMTFAC
 40
0.5142857142857144
  9
$DIMGAP
 40
1.5
  9
$DIMJUST
 70
     0
  9
$DIMSD1
 70
     0
  9
$DIMSD2
 70
     0
  9
$DIMTOLJ
 70
     1
  9
$DIMTZIN
 70
     8
  9
$DIMALTZ
 70
     8
  9
$DIMALTTZ
 70
     8
  9
$DIMUPT
 70
     0
  9
$DIMDEC
 70
     2
  9
$DIMTDEC
 70
     2
  9
$DIMALTU
 70
     2
  9
$DIMALTTD
 70
     2
  9
$DIMTXSTY
  7
STANDARD
  9
$DIMAUNIT
 70
     0
  9
$DIMADEC
 70
     2
  9
$DIMALTRND
 40
0.0
  9
$DIMAZIN
 70
     2
  9
$DIMDSEP
 70
    46
  9
$DIMATFIT
 70
     3
  9
$DIMFRAC
 70
     0
  9
$DIMLDRBLK
  1

  9
$DIMLUNIT
 70
     2
  9
$DIMLWD
 70
    -2
  9
$DIMLWE
 70
    -2
  9
$DIMTMOVE
 70
     0
  9
$LUNITS
 70
     2
  9
$LUPREC
 70
     2
  9
$SKETCHINC
 40
1.0
  9
$FILLETRAD
 40
0.0
  9
$AUNITS
 70
     0
  9
$AUPREC
 70
     0
  9
$MENU
  1
ACAD
  9
$ELEVATION
 40
0.0
  9
$PELEVATION
 40
0.0
  9
$THICKNESS
 40
0.0
  9
$LIMCHECK
 70
     0
  9
$CHAMFERA
 40
0.0
  9
$CHAMFERB
 40
0.0
  9
$CHAMFERC
 40
0.0
  9
$CHAMFERD
 40
0.0
  9
$SKPOLY
 70
     0
  9
$TDCREATE
 40
2455397.823042361
  9
$TDUCREATE
 40
2455397.781375695
  9
$TDUPDATE
 40
2455996.362033970
  9
$TDUUPDATE
 40
2455996.320367303
  9
$TDINDWG
 40
0.0713125579
  9
$TDUSRTIMER
 40
0.0713125579
  9
$USRTIMER
 70
     1
  9
$ANGBASE
 50
0.0
  9
$ANGDIR
 70
     0
  9
$PDMODE
 70
     0
  9
$PDSIZE
 40
0.0
  9
$PLINEWID
 40
0.0
  9
$SPLFRAME
 70
     0
  9
$SPLINETYPE
 70
     6
  9
$SPLINESEGS
 70
     8
  9
$HANDSEED
  5
1047
  9
$SURFTAB1
 70
     6
  9
$SURFTAB2
 70
     6
  9
$SURFTYPE
 70
     6
  9
$SURFU
 70
     6
  9
$SURFV
 70
     6
  9
$UCSBASE
  2

  9
$UCSNAME
  2

  9
$UCSORG
 10
0.0
 20
0.0
 30
0.0
  9
$UCSXDIR
 10
1.0
 20
0.0
 30
0.0
  9
$UCSYDIR
 10
0.0
 20
1.0
 30
0.0
  9
$UCSORTHOREF
  2

  9
$UCSORTHOVIEW
 70
     0
  9
$UCSORGTOP
 10
0.0
 20
0.0
 30
0.0
  9
$UCSORGBOTTOM
 10
0.0
 20
0.0
 30
0.0
  9
$UCSORGLEFT
 10
0.0
 20
0.0
 30
0.0
  9
$UCSORGRIGHT
 10
0.0
 20
0.0
 30
0.0
  9
$UCSORGFRONT
 10
0.0
 20
0.0
 30
0.0
  9
$UCSORGBACK
 10
0.0
 20
0.0
 30
0.0
  9
$PUCSBASE
  2

  9
$PUCSNAME
  2

  9
$PUCSORG
 10
0.0
 20
0.0
 30
0.0
  9
$PUCSXDIR
 10
1.0
 20
0.0
 30
0.0
  9
$PUCSYDIR
 10
0.0
 20
1.0
 30
0.0
  9
$PUCSORTHOREF
  2

  9
$PUCSORTHOVIEW
 70
     0
  9
$PUCSORGTOP
 10
0.0
 20
0.0
 30
0.0
  9
$PUCSORGBOTTOM
 10
0.0
 20
0.0
 30
0.0
  9
$PUCSORGLEFT
 10
0.0
 20
0.0
 30
0.0
  9
$PUCSORGRIGHT
 10
0.0
 20
0.0
 30
0.0
  9
$PUCSORGFRONT
 10
0.0
 20
0.0
 30
0.0
  9
$PUCSORGBACK
 10
0.0
 20
0.0
 30
0.0
  9
$USERI1
 70
     0
  9
$USERI2
 70
     0
  9
$USERI3
 70
     0
  9
$USERI4
 70
     0
  9
$USERI5
 70
     0
  9
$USERR1
 40
0.0
  9
$USERR2
 40
0.0
  9
$USERR3
 40
0.0
  9
$USERR4
 40
0.0
  9
$USERR5
 40
0.0
  9
$WORLDVIEW
 70
     1
  9
$SHADEDGE
 70
     3
  9
$SHADEDIF
 70
    70
  9
$TILEMODE
 70
     1
  9
$MAXACTVP
 70
    16
  9
$PINSBASE
 10
0.0
 20
0.0
 30
0.0
  9
$PLIMCHECK
 70
     0
  9
$PEXTMIN
 10
1.000000000000000E+20
 20
1.000000000000000E+20
 30
1.000000000000000E+20
  9
$PEXTMAX
 10
-1.000000000000000E+20
 20
-1.000000000000000E+20
 30
-1.000000000000000E+20
  9
$PLIMMIN
 10
0.0
 20
0.0
  9
$PLIMMAX
 10
12.0
 20
9.0
  9
$UNITMODE
 70
     0
  9
$VISRETAIN
 70
     0
  9
$PLINEGEN
 70
     0
  9
$PSLTSCALE
 70
     0
  9
$TREEDEPTH
 70
  3020
  9
$CMLSTYLE
  2
Standard
  9
$CMLJUST
 70
     0
  9
$CMLSCALE
 40
1.0
  9
$PROXYGRAPHICS
 70
     1
  9
$MEASUREMENT
 70
     0
  9
$CELWEIGHT
370
    -1
  9
$ENDCAPS
280
     0
  9
$JOINSTYLE
280
     0
  9
$LWDISPLAY
290
     0
  9
$INSUNITS
 70
     0
  9
$HYPERLINKBASE
  1

  9
$STYLESHEET
  1
monochrome1.ctb
  9
$XEDIT
290
     1
  9
$CEPSNTYPE
380
     0
  9
$PSTYLEMODE
290
     1
  9
$FINGERPRINTGUID
  2
{D68B0D02-A558-11D7-B632-000102183313}
  9
$VERSIONGUID
  2
{2D856AFA-89BF-40C5-919D-2B3C27868AA6}
  9
$EXTNAMES
290
     1
  9
$PSVPSCALE
 40
0.0
  9
$OLESTARTUP
290
     0
  9
$SORTENTS
280
   127
  9
$INDEXCTL
280
     0
  9
$HIDETEXT
280
     0
  9
$XCLIPFRAME
290
     0
  9
$HALOGAP
280
     0
  9
$OBSCOLOR
 70
   257
  9
$OBSLTYPE
280
     0
  9
$INTERSECTIONDISPLAY
280
     0
  9
$INTERSECTIONCOLOR
 70
   257
  9
$DIMASSOC
280
     1
  9
$PROJECTNAME
  1

  0
ENDSEC
  0
SECTION
  2
CLASSES
  0
CLASS
  1
ACDBDICTIONARYWDFLT
  2
AcDbDictionaryWithDefault
  3
ObjectDBX Classes
 90
        0
 91
        1
280
     0
281
     0
  0
CLASS
  1
DICTIONARYVAR
  2
AcDbDictionaryVar
  3
ObjectDBX Classes
 90
        0
 91
        2
280
     0
281
     0
  0
ENDSEC
  0
SECTION
  2
TABLES
  0
TABLE
  2
VPORT
  5
8
330
0
100
AcDbSymbolTable
 70
     2
  0
VPORT
  5
1046
330
8
100
AcDbSymbolTableRecord
100
AcDbViewportTableRecord
  2
*Active
 70
     0
 10
0.0
 20
0.0
 11
1.0
 21
1.0
 12
296.9999999999999
 22
420.0000000000001
 13
0.0
 23
0.0
 14
1.0
 24
1.0
 15
10.0
 25
10.0
 16
0.0
 26
0.0
 36
1.0
 17
0.0
 27
0.0
 37
0.0
 40
840.4556681029598
 41
1.374331550802138
 42
50.0
 43
0.0
 44
0.0
 50
0.0
 51
0.0
 71
     0
 72
  1500
 73
     1
 74
     0
 75
     0
 76
     0
 77
     0
 78
     0
281
     0
 65
     1
110
0.0
120
0.0
130
0.0
111
1.0
121
0.0
131
0.0
112
0.0
122
1.0
132
0.0
 79
     0
146
0.0
  0
ENDTAB
  0
TABLE
  2
LTYPE
  5
5
330
0
100
AcDbSymbolTable
 70
     2
  0
LTYPE
  5
13
330
5
100
AcDbSymbolTableRecord
100
AcDbLinetypeTableRecord
  2
ByBlock
 70
     0
  3

 72
    65
 73
     0
 40
0.0
  0
LTYPE
  5
14
330
5
100
AcDbSymbolTableRecord
100
AcDbLinetypeTableRecord
  2
ByLayer
 70
     0
  3

 72
    65
 73
     0
 40
0.0
  0
LTYPE
  5
15
330
5
100
AcDbSymbolTableRecord
100
AcDbLinetypeTableRecord
  2
Continuous
 70
     0
  3
Solid line
 72
    65
 73
     0
 40
0.0
  0
LTYPE
  5
25
330
5
100
AcDbSymbolTableRecord
100
AcDbLinetypeTableRecord
  2
STRICHPUNKT
 70
     0
  3
__ . __ . __ . __ . __ . __ . __ . __ . __ . __
 72
    65
 73
     4
 40
1.0
 49
0.5
 74
     0
 49
-0.25
 74
     0
 49
0.0
 74
     0
 49
-0.25
 74
     0
  0
ENDTAB
  0
TABLE
  2
LAYER
  5
2
330
0
100
AcDbSymbolTable
 70
     9
  0
LAYER
  5
10
330
2
100
AcDbSymbolTableRecord
100
AcDbLayerTableRecord
  2
0
 70
     0
 62
     7
  6
Continuous
370
    -3
390
F
  0
LAYER
  5
2A
330
2
100
AcDbSymbolTableRecord
100
AcDbLayerTableRecord
  2
VOLL
 70
     0
 62
     1
  6
Continuous
370
    -3
390
F
  0
LAYER
  5
2B
330
2
100
AcDbSymbolTableRecord
100
AcDbLayerTableRecord
  2
HILF
 70
     0
 62
     2
  6
Continuous
370
    -3
390
F
  0
LAYER
  5
2C
330
2
100
AcDbSymbolTableRecord
100
AcDbLayerTableRecord
  2
MITTEL
 70
     0
 62
     2
  6
STRICHPUNKT
370
    -3
390
F
  0
LAYER
  5
2F
330
2
100
AcDbSymbolTableRecord
100
AcDbLayerTableRecord
  2
BEM
 70
     0
 62
     7
  6
Continuous
370
    -3
390
F
  0
LAYER
  5
30
330
2
100
AcDbSymbolTableRecord
100
AcDbLayerTableRecord
  2
STEMPEL
 70
     0
 62
     3
  6
Continuous
370
    -3
390
F
  0
LAYER
  5
31
330
2
100
AcDbSymbolTableRecord
100
AcDbLayerTableRecord
  2
TEXT
 70
     0
 62
     7
  6
Continuous
370
    -3
390
F
  0
LAYER
  5
2B4
330
2
100
AcDbSymbolTableRecord
100
AcDbLayerTableRecord
  2
DEFPOINTS
 70
     0
 62
     7
  6
Continuous
290
     0
370
    -3
390
F
  0
LAYER
  5
2B5
330
2
100
AcDbSymbolTableRecord
100
AcDbLayerTableRecord
  2
SCHRAFF
 70
     0
 62
     7
  6
Continuous
370
    -3
390
F
  0
ENDTAB
  0
TABLE
  2
STYLE
  5
3
330
0
100
AcDbSymbolTable
 70
     2
  0
STYLE
  5
11
330
3
100
AcDbSymbolTableRecord
100
AcDbTextStyleTableRecord
  2
STANDARD
 70
     0
 40
0.0
 41
0.8
 50
0.0
 71
     0
 42
3.5
  3
simplex.shx
  4

  0
STYLE
  5
24
330
3
100
AcDbSymbolTableRecord
100
AcDbTextStyleTableRecord
  2
GREEKS
 70
     0
 40
0.0
 41
0.8
 50
0.0
 71
     0
 42
2.5
  3
SIMPLEX.shx
  4

  0
ENDTAB
  0
TABLE
  2
VIEW
  5
6
330
0
100
AcDbSymbolTable
 70
     0
  0
ENDTAB
  0
TABLE
  2
UCS
  5
7
330
0
100
AcDbSymbolTable
 70
     0
  0
ENDTAB
  0
TABLE
  2
APPID
  5
9
330
0
100
AcDbSymbolTable
 70
     1
  0
APPID
  5
12
330
9
100
AcDbSymbolTableRecord
100
AcDbRegAppTableRecord
  2
ACAD
 70
     0
  0
ENDTAB
  0
TABLE
  2
DIMSTYLE
  5
A
330
0
100
AcDbSymbolTable
 70
     1
100
AcDbDimStyleTable
 71
     1
340
9D
  0
DIMSTYLE
105
9D
102
{ACAD_REACTORS
330
EBE
330
EA6
330
E9D
330
E5B
330
F96
102
}
330
A
100
AcDbSymbolTableRecord
100
AcDbDimStyleTableRecord
  2
Standard
 70
     0
340
11
  0
ENDTAB
  0
TABLE
  2
BLOCK_RECORD
  5
1
330
0
100
AcDbSymbolTable
 70
    13
  0
BLOCK_RECORD
  5
1E
102
{ACAD_XDICTIONARY
360
A0
102
}
330
1
100
AcDbSymbolTableRecord
100
AcDbBlockTableRecord
  2
*Model_Space
340
21
  0
BLOCK_RECORD
  5
1A
102
{ACAD_XDICTIONARY
360
A2
102
}
330
1
100
AcDbSymbolTableRecord
100
AcDbBlockTableRecord
  2
*Paper_Space
340
1D
  0
BLOCK_RECORD
  5
22
330
1
100
AcDbSymbolTableRecord
100
AcDbBlockTableRecord
  2
LOGO
340
0
102
{BLKREFS
331
898
102
}
  0
BLOCK_RECORD
  5
8BC
330
1
100
AcDbSymbolTableRecord
100
AcDbBlockTableRecord
  2
*X1
340
0
102
{BLKREFS
331
EB9
102
}
  0
BLOCK_RECORD
  5
8F2
330
1
100
AcDbSymbolTableRecord
100
AcDbBlockTableRecord
  2
*X2
340
0
102
{BLKREFS
331
E1B
331
E60
102
}
  0
BLOCK_RECORD
  5
914
330
1
100
AcDbSymbolTableRecord
100
AcDbBlockTableRecord
  2
*X3
340
0
102
{BLKREFS
331
EBF
102
}
  0
BLOCK_RECORD
  5
A91
330
1
100
AcDbSymbolTableRecord
100
AcDbBlockTableRecord
  2
*X4
340
0
102
{BLKREFS
331
EC0
102
}
  0
BLOCK_RECORD
  5
ACB
330
1
100
AcDbSymbolTableRecord
100
AcDbBlockTableRecord
  2
*X5
340
0
102
{BLKREFS
331
EC1
102
}
  0
BLOCK_RECORD
  5
B10
330
1
100
AcDbSymbolTableRecord
100
AcDbBlockTableRecord
  2
*X6
340
0
102
{BLKREFS
331
EC2
102
}
  0
BLOCK_RECORD
  5
C6F
330
1
100
AcDbSymbolTableRecord
100
AcDbBlockTableRecord
  2
*X7
340
0
102
{BLKREFS
331
EC3
102
}
  0
BLOCK_RECORD
  5
EC5
330
1
100
AcDbSymbolTableRecord
100
AcDbBlockTableRecord
  2
*D8
340
0
  0
BLOCK_RECORD
  5
ED1
330
1
100
AcDbSymbolTableRecord
100
AcDbBlockTableRecord
  2
*D9
340
0
  0
BLOCK_RECORD
  5
EDD
330
1
100
AcDbSymbolTableRecord
100
AcDbBlockTableRecord
  2
*D10
340
0
  0
BLOCK_RECORD
  5
EE9
330
1
100
AcDbSymbolTableRecord
100
AcDbBlockTableRecord
  2
*D11
340
0
  0
BLOCK_RECORD
  5
F97
330
1
100
AcDbSymbolTableRecord
100
AcDbBlockTableRecord
  2
*D12
340
0
  0
ENDTAB
  0
ENDSEC
  0
SECTION
  2
BLOCKS
  0
BLOCK
  5
35
330
1E
100
AcDbEntity
  8
0
100
AcDbBlockBegin
  2
*Model_Space
 70
     0
 10
0.0
 20
0.0
 30
0.0
  3
*Model_Space
  1

  0
ENDBLK
  5
36
330
1E
100
AcDbEntity
  8
0
100
AcDbBlockEnd
  0
BLOCK
  5
33
330
1A
100
AcDbEntity
 67
     1
  8
0
100
AcDbBlockBegin
  2
*Paper_Space
 70
     0
 10
0.0
 20
0.0
 30
0.0
  3
*Paper_Space
  1

  0
ENDBLK
  5
34
330
1A
100
AcDbEntity
 67
     1
  8
0
100
AcDbBlockEnd
  0
BLOCK
  5
37
330
22
100
AcDbEntity
  8
0
100
AcDbBlockBegin
  2
LOGO
 70
     0
 10
0.0
 20
0.0
 30
0.0
  3
LOGO
  1

  0
ARC
  5
38
330
22
100
AcDbEntity
  8
0
100
AcDbCircle
 10
11.59973089678112
 20
-9.271599258481501
 30
0.0
 40
4.5
100
AcDbArc
 50
270.0
 51
231.0575587310159
  0
LINE
  5
39
330
22
100
AcDbEntity
  8
0
100
AcDbLine
 10
3.599730896781125
 20
-4.771599258481529
 30
0.0
 11
3.599730896781153
 21
-11.77159925848133
 31
0.0
  0
LINE
  5
3A
330
22
100
AcDbEntity
  8
0
100
AcDbLine
 10
2.599730896781125
 20
-4.771599258481529
 30
0.0
 11
2.599730896781153
 21
-11.77159925848133
 31
0.0
  0
CIRCLE
  5
3B
330
22
100
AcDbEntity
  8
0
100
AcDbCircle
 10
11.59973089678112
 20
-9.271599258481501
 30
0.0
 40
3.5
  0
ARC
  5
3C
330
22
100
AcDbEntity
  8
0
100
AcDbCircle
 10
31.59973089678115
 20
-9.271599258481472
 30
0.0
 40
4.5
100
AcDbArc
 50
270.0
 51
231.0575587310182
  0
LINE
  5
3D
330
22
100
AcDbEntity
  8
0
100
AcDbLine
 10
17.59973089678112
 20
-4.771599258481472
 30
0.0
 11
17.59973089678115
 21
-13.77159925848147
 31
0.0
  0
ARC
  5
3E
330
22
100
AcDbEntity
  8
0
100
AcDbCircle
 10
22.59973089678116
 20
-7.271599258481472
 30
0.0
 40
2.5
100
AcDbArc
 50
293.1161887722295
 51
90.0
  0
CIRCLE
  5
3F
330
22
100
AcDbEntity
  8
0
100
AcDbCircle
 10
31.59973089678115
 20
-9.271599258481472
 30
0.0
 40
3.5
  0
ARC
  5
40
330
22
100
AcDbEntity
  8
0
100
AcDbCircle
 10
4.599730896781153
 20
-11.77159925848133
 30
0.0
 40
1.0
100
AcDbArc
 50
180.0
 51
270.0
  0
ARC
  5
41
330
22
100
AcDbEntity
  8
0
100
AcDbCircle
 10
4.599730896781153
 20
-11.77159925848133
 30
0.0
 40
2.0
100
AcDbArc
 50
179.9999999999992
 51
270.0
  0
LINE
  5
42
330
22
100
AcDbEntity
  8
0
100
AcDbLine
 10
11.59973089678115
 20
-13.77159925848144
 30
0.0
 11
4.599730896781153
 21
-13.77159925848147
 31
0.0
  0
LINE
  5
43
330
22
100
AcDbEntity
  8
0
100
AcDbLine
 10
8.771303772034769
 20
-12.77159925848136
 30
0.0
 11
4.599730896781153
 21
-12.77159925848133
 31
0.0
  0
LINE
  5
44
330
22
100
AcDbEntity
  8
0
100
AcDbLine
 10
31.59973089678115
 20
-13.77159925848147
 30
0.0
 11
23.6715276665056
 21
-13.77159925848144
 31
0.0
  0
LINE
  5
45
330
22
100
AcDbEntity
  8
0
100
AcDbLine
 10
23.56565672307022
 20
-9.51278021337896
 30
0.0
 11
24.4388546544846
 21
-12.77159925848144
 31
0.0
  0
LINE
  5
46
330
22
100
AcDbEntity
  8
0
100
AcDbLine
 10
22.59973089678116
 20
-9.771599258481472
 30
0.0
 11
18.59973089678112
 21
-9.771599258481472
 31
0.0
  0
LINE
  5
47
330
22
100
AcDbEntity
  8
0
100
AcDbLine
 10
18.59973089678115
 20
-13.77159925848144
 30
0.0
 11
17.59973089678115
 21
-13.77159925848144
 31
0.0
  0
LINE
  5
48
330
22
100
AcDbEntity
  8
0
100
AcDbLine
 10
18.59973089678115
 20
-9.771599258481472
 30
0.0
 11
18.59973089678115
 21
-13.77159925848144
 31
0.0
  0
LINE
  5
49
330
22
100
AcDbEntity
  8
0
100
AcDbLine
 10
22.59973089678116
 20
-9.771599258481472
 30
0.0
 11
23.67152766650562
 21
-13.77159925848147
 31
0.0
  0
ARC
  5
4A
330
22
100
AcDbEntity
  8
0
100
AcDbCircle
 10
22.59973089678116
 20
-7.271599258481472
 30
0.0
 40
2.5
100
AcDbArc
 50
270.0
 51
270.0000000000007
  0
LINE
  5
4B
330
22
100
AcDbEntity
  8
0
100
AcDbLine
 10
28.77130377203494
 20
-12.77159925848147
 30
0.0
 11
24.43885465448463
 21
-12.77159925848144
 31
0.0
  0
LINE
  5
4C
330
22
100
AcDbEntity
  8
0
100
AcDbLine
 10
3.599730896781125
 20
-4.771599258481472
 30
0.0
 11
2.599730896781125
 21
-4.771599258481472
 31
0.0
  0
LINE
  5
4D
330
22
100
AcDbEntity
  8
0
100
AcDbLine
 10
22.59973089678116
 20
-8.771599258481472
 30
0.0
 11
18.59973089678115
 21
-8.771599258481472
 31
0.0
  0
LINE
  5
4E
330
22
100
AcDbEntity
  8
0
100
AcDbLine
 10
22.59973089678116
 20
-5.771599258481472
 30
0.0
 11
18.59973089678115
 21
-5.771599258481472
 31
0.0
  0
LINE
  5
4F
330
22
100
AcDbEntity
  8
0
100
AcDbLine
 10
22.59973089678116
 20
-4.771599258481472
 30
0.0
 11
17.59973089678115
 21
-4.771599258481472
 31
0.0
  0
LINE
  5
50
330
22
100
AcDbEntity
  8
0
100
AcDbLine
 10
18.59973089678115
 20
-5.771599258481472
 30
0.0
 11
18.59973089678115
 21
-8.771599258481472
 31
0.0
  0
ARC
  5
51
330
22
100
AcDbEntity
  8
0
100
AcDbCircle
 10
22.59973089678116
 20
-7.271599258481472
 30
0.0
 40
1.5
100
AcDbArc
 50
270.0
 51
90.0
  0
ENDBLK
  5
52
330
22
100
AcDbEntity
  8
0
100
AcDbBlockEnd
  0
BLOCK
  5
8BD
330
8BC
100
AcDbEntity
  8
0
100
AcDbBlockBegin
  2
*X1
 70
     1
 10
0.0
 20
0.0
 30
0.0
  3
*X1
  1

  0
LINE
  5
8BE
330
8BC
100
AcDbEntity
  8
0
 62
     0
100
AcDbLine
 10
602.5173954927715
 20
419.5535158607524
 30
0.0
 11
604.8049302901249
 21
421.8410506581057
 31
0.0
  0
LINE
  5
8BF
330
8BC
100
AcDbEntity
  8
0
 62
     0
100
AcDbLine
 10
598.7194595378634
 20
418.4072303352938
 30
0.0
 11
604.8049302901249
 21
424.4927010875553
 31
0.0
  0
LINE
  5
8C0
330
8BC
100
AcDbEntity
  8
0
 62
     0
100
AcDbLine
 10
594.4413966087479
 20
416.7808178356279
 30
0.0
 11
604.8049302901249
 21
427.1443515170049
 31
0.0
  0
LINE
  5
8C1
330
8BC
100
AcDbEntity
  8
0
 62
     0
100
AcDbLine
 10
591.1008726461354
 20
416.091944302465
 30
0.0
 11
596.6208024540215
 21
421.611874110351
 31
0.0
  0
LINE
  5
8C2
330
8BC
100
AcDbEntity
  8
0
 62
     0
100
AcDbLine
 10
600.5726958459256
 20
425.5637675022551
 30
0.0
 11
604.804930290125
 21
429.7960019464545
 31
0.0
  0
LINE
  5
8C3
330
8BC
100
AcDbEntity
  8
0
 62
     0
100
AcDbLine
 10
590.8049302901247
 20
418.4476523759038
 30
0.0
 11
592.9985806054374
 21
420.6413026912166
 31
0.0
  0
LINE
  5
8C4
330
8BC
100
AcDbEntity
  8
0
 62
     0
100
AcDbLine
 10
598.9107847552706
 20
426.5535068410497
 30
0.0
 11
602.4107937749735
 21
430.0535158607526
 31
0.0
  0
LINE
  5
8C5
330
8BC
100
AcDbEntity
  8
0
 62
     0
100
AcDbLine
 10
596.2591433455236
 20
426.5535158607522
 30
0.0
 11
599.7591433455239
 21
430.0535158607526
 31
0.0
  0
LINE
  5
8C6
330
8BC
100
AcDbEntity
  8
0
 62
     0
100
AcDbLine
 10
593.607492916074
 20
426.5535158607522
 30
0.0
 11
597.1074929160744
 21
430.0535158607526
 31
0.0
  0
LINE
  5
8C7
330
8BC
100
AcDbEntity
  8
0
 62
     0
100
AcDbLine
 10
590.9558424866245
 20
426.5535158607522
 30
0.0
 11
594.4558424866248
 21
430.0535158607526
 31
0.0
  0
LINE
  5
8C8
330
8BC
100
AcDbEntity
  8
0
 62
     0
100
AcDbLine
 10
590.8049302901249
 20
293.820082191775
 30
0.0
 11
591.0118703967746
 21
294.0270222984247
 31
0.0
  0
LINE
  5
8C9
330
8BC
100
AcDbEntity
  8
0
 62
     0
100
AcDbLine
 10
590.8049302901249
 20
291.1684317623255
 30
0.0
 11
593.2607598591954
 21
293.6242613313959
 31
0.0
  0
LINE
  5
8CA
330
8BC
100
AcDbEntity
  8
0
 62
     0
100
AcDbLine
 10
592.0169146007343
 20
289.7287656434853
 30
0.0
 11
595.3444124749376
 21
293.0562635176886
 31
0.0
  0
LINE
  5
8CB
330
8BC
100
AcDbEntity
  8
0
 62
     0
100
AcDbLine
 10
594.1082053600789
 20
289.1684059733803
 30
0.0
 11
597.2858522493275
 21
292.3460528626291
 31
0.0
  0
LINE
  5
8CC
330
8BC
100
AcDbEntity
  8
0
 62
     0
100
AcDbLine
 10
590.8049302901249
 20
283.2134804739768
 30
0.0
 11
591.1449656769004
 21
283.5535158607523
 31
0.0
  0
LINE
  5
8CD
330
8BC
100
AcDbEntity
  8
0
 62
     0
100
AcDbLine
 10
596.1994961194234
 20
288.6080463032753
 30
0.0
 11
599.1007045546243
 21
291.5092547384763
 31
0.0
  0
LINE
  5
8CE
330
8BC
100
AcDbEntity
  8
0
 62
     0
100
AcDbLine
 10
591.0507731982375
 20
280.8076729526398
 30
0.0
 11
593.79661610635
 21
283.5535158607523
 31
0.0
  0
LINE
  5
8CF
330
8BC
100
AcDbEntity
  8
0
 62
     0
100
AcDbLine
 10
598.2907868787679
 20
288.0476866331704
 30
0.0
 11
600.7966161063499
 21
290.5535158607523
 31
0.0
  0
LINE
  5
8D0
330
8BC
100
AcDbEntity
  8
0
 62
     0
100
AcDbLine
 10
592.9482665357995
 20
280.0535158607523
 30
0.0
 11
596.4482665357995
 21
283.5535158607523
 31
0.0
  0
LINE
  5
8D1
330
8BC
100
AcDbEntity
  8
0
 62
     0
100
AcDbLine
 10
600.200570992669
 20
287.3058203176218
 30
0.0
 11
603.4482665357995
 21
290.5535158607523
 31
0.0
  0
LINE
  5
8D2
330
8BC
100
AcDbEntity
  8
0
 62
     0
100
AcDbLine
 10
595.5999169652491
 20
280.0535158607523
 30
0.0
 11
599.1111402582104
 21
283.5647391537136
 31
0.0
  0
LINE
  5
8D3
330
8BC
100
AcDbEntity
  8
0
 62
     0
100
AcDbLine
 10
600.7937069971636
 20
285.2473058926669
 30
0.0
 11
604.8049302901247
 21
289.2585291856279
 31
0.0
  0
LINE
  5
8D4
330
8BC
100
AcDbEntity
  8
0
 62
     0
100
AcDbLine
 10
598.2515673946986
 20
280.0535158607523
 30
0.0
 11
604.8049302901247
 21
286.6068787561784
 31
0.0
  0
LINE
  5
8D5
330
8BC
100
AcDbEntity
  8
0
 62
     0
100
AcDbLine
 10
600.9032178241482
 20
280.0535158607523
 30
0.0
 11
604.8049302901247
 21
283.9552283267289
 31
0.0
  0
LINE
  5
8D6
330
8BC
100
AcDbEntity
  8
0
 62
     0
100
AcDbLine
 10
603.5548682535977
 20
280.0535158607523
 30
0.0
 11
604.8049302901247
 21
281.3035778972793
 31
0.0
  0
LINE
  5
8D7
330
8BC
100
AcDbEntity
  8
0
 62
     0
100
AcDbLine
 10
604.8049302901247
 20
288.8012644343746
 30
0.0
 11
603.052678863747
 21
290.5535158607523
 31
0.0
  0
LINE
  5
8D8
330
8BC
100
AcDbEntity
  8
0
 62
     0
100
AcDbLine
 10
604.8049302901247
 20
286.1496140049251
 30
0.0
 11
599.8365170458705
 21
291.1180272491792
 31
0.0
  0
LINE
  5
8D9
330
8BC
100
AcDbEntity
  8
0
 62
     0
100
AcDbLine
 10
604.8049302901247
 20
283.4979635754755
 30
0.0
 11
595.2013945752232
 21
293.1014992903771
 31
0.0
  0
LINE
  5
8DA
330
8BC
100
AcDbEntity
  8
0
 62
     0
100
AcDbLine
 10
604.8049302901247
 20
280.846313146026
 30
0.0
 11
600.7291102345288
 21
284.9221332016219
 31
0.0
  0
LINE
  5
8DB
330
8BC
100
AcDbEntity
  8
0
 62
     0
100
AcDbLine
 10
597.3520131369975
 20
288.2992302991533
 30
0.0
 11
591.7298045065929
 21
293.9214389295578
 31
0.0
  0
LINE
  5
8DC
330
8BC
100
AcDbEntity
  8
0
 62
     0
100
AcDbLine
 10
602.9460771459488
 20
280.0535158607523
 30
0.0
 11
599.3845462250812
 21
283.6150467816199
 31
0.0
  0
LINE
  5
8DD
330
8BC
100
AcDbEntity
  8
0
 62
     0
100
AcDbLine
 10
593.7297912884134
 20
289.2698017182878
 30
0.0
 11
590.8049302901249
 21
292.1946627165762
 31
0.0
  0
LINE
  5
8DE
330
8BC
100
AcDbEntity
  8
0
 62
     0
100
AcDbLine
 10
600.2944267164992
 20
280.0535158607523
 30
0.0
 11
596.7944267164993
 21
283.5535158607523
 31
0.0
  0
LINE
  5
8DF
330
8BC
100
AcDbEntity
  8
0
 62
     0
100
AcDbLine
 10
597.6427762870497
 20
280.0535158607523
 30
0.0
 11
594.1427762870497
 21
283.5535158607523
 31
0.0
  0
LINE
  5
8E0
330
8BC
100
AcDbEntity
  8
0
 62
     0
100
AcDbLine
 10
594.9911258576001
 20
280.0535158607523
 30
0.0
 11
591.4911258576002
 21
283.5535158607523
 31
0.0
  0
LINE
  5
8E1
330
8BC
100
AcDbEntity
  8
0
 62
     0
100
AcDbLine
 10
592.3394754281506
 20
280.0535158607523
 30
0.0
 11
590.8049302901249
 21
281.588060998778
 31
0.0
  0
LINE
  5
8E2
330
8BC
100
AcDbEntity
  8
0
 62
     0
100
AcDbLine
 10
591.4806294352026
 20
416.1465337556274
 30
0.0
 11
590.8049302901247
 21
416.8222329007054
 31
0.0
  0
LINE
  5
8E3
330
8BC
100
AcDbEntity
  8
0
 62
     0
100
AcDbLine
 10
593.6938134623432
 20
416.5850001579365
 30
0.0
 11
590.8049302901247
 21
419.473883330155
 31
0.0
  0
LINE
  5
8E4
330
8BC
100
AcDbEntity
  8
0
 62
     0
100
AcDbLine
 10
595.7471930905286
 20
417.1832709592006
 30
0.0
 11
592.4390792853849
 21
420.4913847643443
 31
0.0
  0
LINE
  5
8E5
330
8BC
100
AcDbEntity
  8
0
 62
     0
100
AcDbLine
 10
597.662003480223
 20
417.9201109989557
 30
0.0
 11
594.5303700447294
 21
421.0517444344493
 31
0.0
  0
LINE
  5
8E6
330
8BC
100
AcDbEntity
  8
0
 62
     0
100
AcDbLine
 10
599.4527378328902
 20
418.7810270757382
 30
0.0
 11
596.6216608040739
 21
421.6121041045544
 31
0.0
  0
LINE
  5
8E7
330
8BC
100
AcDbEntity
  8
0
 62
     0
100
AcDbLine
 10
591.680249047876
 20
426.5535158607522
 30
0.0
 11
590.8049302901247
 21
427.4288346185037
 31
0.0
  0
LINE
  5
8E8
330
8BC
100
AcDbEntity
  8
0
 62
     0
100
AcDbLine
 10
601.3318994773255
 20
419.5535158607523
 30
0.0
 11
598.7129515634185
 21
422.1724637746594
 31
0.0
  0
LINE
  5
8E9
330
8BC
100
AcDbEntity
  8
0
 62
     0
100
AcDbLine
 10
594.3318994773256
 20
426.5535158607522
 30
0.0
 11
591.318414883725
 21
429.5670004543528
 31
0.0
  0
LINE
  5
8EA
330
8BC
100
AcDbEntity
  8
0
 62
     0
100
AcDbLine
 10
603.9835499067751
 20
419.5535158607524
 30
0.0
 11
600.4508011026894
 21
423.086264664838
 31
0.0
  0
LINE
  5
8EB
330
8BC
100
AcDbEntity
  8
0
 62
     0
100
AcDbLine
 10
596.9835499067751
 20
426.5535158607522
 30
0.0
 11
593.4835499067749
 21
430.0535158607526
 31
0.0
  0
LINE
  5
8EC
330
8BC
100
AcDbEntity
  8
0
 62
     0
100
AcDbLine
 10
604.8049302901249
 20
421.3837859068521
 30
0.0
 11
600.4946920983478
 21
425.6940240986291
 31
0.0
  0
LINE
  5
8ED
330
8BC
100
AcDbEntity
  8
0
 62
     0
100
AcDbLine
 10
599.9454385280017
 20
426.2432776689752
 30
0.0
 11
596.1352003362244
 21
430.0535158607526
 31
0.0
  0
LINE
  5
8EE
330
8BC
100
AcDbEntity
  8
0
 62
     0
100
AcDbLine
 10
604.8049302901249
 20
424.0354363363016
 30
0.0
 11
598.786850765674
 21
430.0535158607526
 31
0.0
  0
LINE
  5
8EF
330
8BC
100
AcDbEntity
  8
0
 62
     0
100
AcDbLine
 10
604.8049302901249
 20
426.6870867657512
 30
0.0
 11
601.4385011951236
 21
430.0535158607526
 31
0.0
  0
LINE
  5
8F0
330
8BC
100
AcDbEntity
  8
0
 62
     0
100
AcDbLine
 10
604.8049302901249
 20
429.3387371952007
 30
0.0
 11
604.0901516245732
 21
430.0535158607526
 31
0.0
  0
ENDBLK
  5
8F1
330
8BC
100
AcDbEntity
  8
0
100
AcDbBlockEnd
  0
BLOCK
  5
8F3
330
8F2
100
AcDbEntity
  8
0
100
AcDbBlockBegin
  2
*X2
 70
     1
 10
0.0
 20
0.0
 30
0.0
  3
*X2
  1

  0
LINE
  5
8F4
330
8F2
100
AcDbEntity
  8
0
 62
     0
100
AcDbLine
 10
259.5826923451695
 20
346.6906618441763
 30
0.0
 11
256.5024022820137
 21
349.7709519073322
 31
0.0
  0
LINE
  5
8F5
330
8F2
100
AcDbEntity
  8
0
 62
     0
100
AcDbLine
 10
259.3883597102319
 20
346.7435731228766
 30
0.0
 11
256.3690761783413
 21
349.7628566547672
 31
0.0
  0
LINE
  5
8F6
330
8F2
100
AcDbEntity
  8
0
 62
     0
100
AcDbLine
 10
259.179315449938
 20
346.8111960269332
 30
0.0
 11
256.4366990823979
 21
349.5538123944732
 31
0.0
  0
LINE
  5
8F7
330
8F2
100
AcDbEntity
  8
0
 62
     0
100
AcDbLine
 10
258.9505377051663
 20
346.8985524154676
 30
0.0
 11
256.5240554709323
 21
349.3250346497016
 31
0.0
  0
LINE
  5
8F8
330
8F2
100
AcDbEntity
  8
0
 62
     0
100
AcDbLine
 10
258.6929493356487
 20
347.0147194287479
 30
0.0
 11
256.6402224842126
 21
349.067446280184
 31
0.0
  0
LINE
  5
8F9
330
8F2
100
AcDbEntity
  8
0
 62
     0
100
AcDbLine
 10
258.3863749187442
 20
347.1798724894151
 30
0.0
 11
256.8053755448798
 21
348.7608718632795
 31
0.0
  0
LINE
  5
8FA
330
8F2
100
AcDbEntity
  8
0
 62
     0
100
AcDbLine
 10
257.9568561431742
 20
347.4679699087478
 30
0.0
 11
257.0934729642125
 21
348.3313530877095
 31
0.0
  0
LINE
  5
8FB
330
8F2
100
AcDbEntity
  8
0
 62
     0
100
AcDbLine
 10
259.7654422870307
 20
346.6493332585525
 30
0.0
 11
256.643823638251
 21
349.7709519073322
 31
0.0
  0
LINE
  5
8FC
330
8F2
100
AcDbEntity
  8
0
 62
     0
100
AcDbLine
 10
259.9387175716592
 20
346.6174793301612
 30
0.0
 11
256.7852449944883
 21
349.7709519073322
 31
0.0
  0
LINE
  5
8FD
330
8F2
100
AcDbEntity
  8
0
 62
     0
100
AcDbLine
 10
259.9557089524737
 20
346.741909305584
 30
0.0
 11
256.9266663507256
 21
349.7709519073322
 31
0.0
  0
LINE
  5
8FE
330
8F2
100
AcDbEntity
  8
0
 62
     0
100
AcDbLine
 10
259.9557089524737
 20
346.8833306618214
 30
0.0
 11
257.068087706963
 21
349.7709519073322
 31
0.0
  0
LINE
  5
8FF
330
8F2
100
AcDbEntity
  8
0
 62
     0
100
AcDbLine
 10
259.9557089524737
 20
347.0247520180586
 30
0.0
 11
257.2095090632002
 21
349.7709519073322
 31
0.0
  0
LINE
  5
900
330
8F2
100
AcDbEntity
  8
0
 62
     0
100
AcDbLine
 10
259.9557089524737
 20
347.166173374296
 30
0.0
 11
257.3509304194375
 21
349.7709519073322
 31
0.0
  0
LINE
  5
901
330
8F2
100
AcDbEntity
  8
0
 62
     0
100
AcDbLine
 10
259.9557089524737
 20
347.3075947305333
 30
0.0
 11
257.4923517756749
 21
349.7709519073322
 31
0.0
  0
LINE
  5
902
330
8F2
100
AcDbEntity
  8
0
 62
     0
100
AcDbLine
 10
259.9557089524737
 20
347.4490160867706
 30
0.0
 11
257.6337731319122
 21
349.7709519073322
 31
0.0
  0
LINE
  5
903
330
8F2
100
AcDbEntity
  8
0
 62
     0
100
AcDbLine
 10
259.9557089524737
 20
347.590437443008
 30
0.0
 11
257.7751944881495
 21
349.7709519073322
 31
0.0
  0
LINE
  5
904
330
8F2
100
AcDbEntity
  8
0
 62
     0
100
AcDbLine
 10
259.9557089524737
 20
347.7318587992452
 30
0.0
 11
257.9166158443868
 21
349.7709519073322
 31
0.0
  0
LINE
  5
905
330
8F2
100
AcDbEntity
  8
0
 62
     0
100
AcDbLine
 10
259.9557089524737
 20
347.8732801554825
 30
0.0
 11
258.0580372006241
 21
349.7709519073322
 31
0.0
  0
LINE
  5
906
330
8F2
100
AcDbEntity
  8
0
 62
     0
100
AcDbLine
 10
259.9557089524737
 20
348.0147015117199
 30
0.0
 11
258.1994585568614
 21
349.7709519073322
 31
0.0
  0
LINE
  5
907
330
8F2
100
AcDbEntity
  8
0
 62
     0
100
AcDbLine
 10
259.9557089524737
 20
348.1561228679571
 30
0.0
 11
258.3408799130987
 21
349.7709519073322
 31
0.0
  0
LINE
  5
908
330
8F2
100
AcDbEntity
  8
0
 62
     0
100
AcDbLine
 10
259.9557089524737
 20
348.2975442241945
 30
0.0
 11
258.4823012693361
 21
349.7709519073322
 31
0.0
  0
LINE
  5
909
330
8F2
100
AcDbEntity
  8
0
 62
     0
100
AcDbLine
 10
259.9557089524737
 20
348.4389655804317
 30
0.0
 11
258.6237226255733
 21
349.7709519073322
 31
0.0
  0
LINE
  5
90A
330
8F2
100
AcDbEntity
  8
0
 62
     0
100
AcDbLine
 10
259.9557089524737
 20
348.5803869366691
 30
0.0
 11
258.7651439818106
 21
349.7709519073322
 31
0.0
  0
LINE
  5
90B
330
8F2
100
AcDbEntity
  8
0
 62
     0
100
AcDbLine
 10
259.9557089524737
 20
348.7218082929064
 30
0.0
 11
258.906565338048
 21
349.7709519073322
 31
0.0
  0
LINE
  5
90C
330
8F2
100
AcDbEntity
  8
0
 62
     0
100
AcDbLine
 10
259.9557089524737
 20
348.8632296491437
 30
0.0
 11
259.0479866942853
 21
349.7709519073322
 31
0.0
  0
LINE
  5
90D
330
8F2
100
AcDbEntity
  8
0
 62
     0
100
AcDbLine
 10
259.9557089524737
 20
349.0046510053811
 30
0.0
 11
259.1894080505226
 21
349.7709519073322
 31
0.0
  0
LINE
  5
90E
330
8F2
100
AcDbEntity
  8
0
 62
     0
100
AcDbLine
 10
259.9557089524737
 20
349.1460723616183
 30
0.0
 11
259.3308294067599
 21
349.7709519073322
 31
0.0
  0
LINE
  5
90F
330
8F2
100
AcDbEntity
  8
0
 62
     0
100
AcDbLine
 10
259.9557089524737
 20
349.2874937178556
 30
0.0
 11
259.4722507629972
 21
349.7709519073322
 31
0.0
  0
LINE
  5
910
330
8F2
100
AcDbEntity
  8
0
 62
     0
100
AcDbLine
 10
259.9557089524737
 20
349.428915074093
 30
0.0
 11
259.6136721192345
 21
349.7709519073322
 31
0.0
  0
LINE
  5
911
330
8F2
100
AcDbEntity
  8
0
 62
     0
100
AcDbLine
 10
259.9557089524737
 20
349.5703364303303
 30
0.0
 11
259.7550934754718
 21
349.7709519073322
 31
0.0
  0
LINE
  5
912
330
8F2
100
AcDbEntity
  8
0
 62
     0
100
AcDbLine
 10
259.9557089524737
 20
349.7117577865676
 30
0.0
 11
259.8965148317091
 21
349.7709519073322
 31
0.0
  0
ENDBLK
  5
913
330
8F2
100
AcDbEntity
  8
0
100
AcDbBlockEnd
  0
BLOCK
  5
915
330
914
100
AcDbEntity
  8
0
100
AcDbBlockBegin
  2
*X3
 70
     1
 10
0.0
 20
0.0
 30
0.0
  3
*X3
  1

  0
LINE
  5
916
330
914
100
AcDbEntity
  8
0
 62
     0
100
AcDbLine
 10
267.6377493722038
 20
358.1517519778907
 30
0.0
 11
264.6377493722039
 21
361.1517519778906
 31
0.0
  0
LINE
  5
917
330
914
100
AcDbEntity
  8
0
 62
     0
100
AcDbLine
 10
158.6377493722039
 20
467.1517519778906
 30
0.0
 11
155.6377493722039
 21
470.1517519778906
 31
0.0
  0
LINE
  5
918
330
914
100
AcDbEntity
  8
0
 62
     0
100
AcDbLine
 10
264.6377493722039
 20
361.1517519778906
 30
0.0
 11
262.6377493722037
 21
363.1517519778908
 31
0.0
  0
LINE
  5
919
330
914
100
AcDbEntity
  8
0
 62
     0
100
AcDbLine
 10
160.6377493722039
 20
465.1517519778906
 30
0.0
 11
158.6377493722039
 21
467.1517519778906
 31
0.0
  0
LINE
  5
91A
330
914
100
AcDbEntity
  8
0
 62
     0
100
AcDbLine
 10
267.6377493722038
 20
354.616218071958
 30
0.0
 11
264.6377493722039
 21
357.6162180719578
 31
0.0
  0
LINE
  5
91B
330
914
100
AcDbEntity
  8
0
 62
     0
100
AcDbLine
 10
158.6377493722039
 20
463.6162180719579
 30
0.0
 11
155.6377493722039
 21
466.6162180719578
 31
0.0
  0
LINE
  5
91C
330
914
100
AcDbEntity
  8
0
 62
     0
100
AcDbLine
 10
264.6377493722039
 20
357.6162180719578
 30
0.0
 11
262.6377493722037
 21
359.6162180719581
 31
0.0
  0
LINE
  5
91D
330
914
100
AcDbEntity
  8
0
 62
     0
100
AcDbLine
 10
160.6377493722039
 20
461.6162180719578
 30
0.0
 11
158.6377493722039
 21
463.6162180719579
 31
0.0
  0
LINE
  5
91E
330
914
100
AcDbEntity
  8
0
 62
     0
100
AcDbLine
 10
267.6377493722038
 20
351.0806841660252
 30
0.0
 11
264.6377493722039
 21
354.0806841660252
 31
0.0
  0
LINE
  5
91F
330
914
100
AcDbEntity
  8
0
 62
     0
100
AcDbLine
 10
158.6377493722039
 20
460.0806841660251
 30
0.0
 11
155.6377493722039
 21
463.0806841660251
 31
0.0
  0
LINE
  5
920
330
914
100
AcDbEntity
  8
0
 62
     0
100
AcDbLine
 10
264.6377493722039
 20
354.0806841660252
 30
0.0
 11
262.6377493722037
 21
356.0806841660254
 31
0.0
  0
LINE
  5
921
330
914
100
AcDbEntity
  8
0
 62
     0
100
AcDbLine
 10
160.6377493722039
 20
458.0806841660251
 30
0.0
 11
158.6377493722039
 21
460.0806841660251
 31
0.0
  0
LINE
  5
922
330
914
100
AcDbEntity
  8
0
 62
     0
100
AcDbLine
 10
267.6377493722038
 20
347.5451502600925
 30
0.0
 11
264.6377493722039
 21
350.5451502600924
 31
0.0
  0
LINE
  5
923
330
914
100
AcDbEntity
  8
0
 62
     0
100
AcDbLine
 10
158.6377493722039
 20
456.5451502600924
 30
0.0
 11
155.6377493722039
 21
459.5451502600924
 31
0.0
  0
LINE
  5
924
330
914
100
AcDbEntity
  8
0
 62
     0
100
AcDbLine
 10
264.6377493722039
 20
350.5451502600924
 30
0.0
 11
262.6377493722037
 21
352.5451502600926
 31
0.0
  0
LINE
  5
925
330
914
100
AcDbEntity
  8
0
 62
     0
100
AcDbLine
 10
160.6377493722039
 20
454.5451502600924
 30
0.0
 11
158.6377493722039
 21
456.5451502600924
 31
0.0
  0
LINE
  5
926
330
914
100
AcDbEntity
  8
0
 62
     0
100
AcDbLine
 10
267.6377493722038
 20
344.0096163541597
 30
0.0
 11
264.6377493722039
 21
347.0096163541597
 31
0.0
  0
LINE
  5
927
330
914
100
AcDbEntity
  8
0
 62
     0
100
AcDbLine
 10
158.6377493722039
 20
453.0096163541596
 30
0.0
 11
155.6377493722039
 21
456.0096163541596
 31
0.0
  0
LINE
  5
928
330
914
100
AcDbEntity
  8
0
 62
     0
100
AcDbLine
 10
264.6377493722039
 20
347.0096163541597
 30
0.0
 11
262.6377493722037
 21
349.0096163541599
 31
0.0
  0
LINE
  5
929
330
914
100
AcDbEntity
  8
0
 62
     0
100
AcDbLine
 10
160.6377493722039
 20
451.0096163541597
 30
0.0
 11
158.6377493722039
 21
453.0096163541596
 31
0.0
  0
LINE
  5
92A
330
914
100
AcDbEntity
  8
0
 62
     0
100
AcDbLine
 10
267.6377493722038
 20
340.474082448227
 30
0.0
 11
264.6377493722039
 21
343.4740824482269
 31
0.0
  0
LINE
  5
92B
330
914
100
AcDbEntity
  8
0
 62
     0
100
AcDbLine
 10
158.6377493722039
 20
449.474082448227
 30
0.0
 11
155.6377493722039
 21
452.4740824482269
 31
0.0
  0
LINE
  5
92C
330
914
100
AcDbEntity
  8
0
 62
     0
100
AcDbLine
 10
264.6377493722039
 20
343.4740824482269
 30
0.0
 11
262.6377493722037
 21
345.4740824482271
 31
0.0
  0
LINE
  5
92D
330
914
100
AcDbEntity
  8
0
 62
     0
100
AcDbLine
 10
160.6377493722039
 20
447.4740824482268
 30
0.0
 11
158.6377493722039
 21
449.474082448227
 31
0.0
  0
LINE
  5
92E
330
914
100
AcDbEntity
  8
0
 62
     0
100
AcDbLine
 10
267.6377493722038
 20
336.9385485422943
 30
0.0
 11
264.6377493722039
 21
339.9385485422942
 31
0.0
  0
LINE
  5
92F
330
914
100
AcDbEntity
  8
0
 62
     0
100
AcDbLine
 10
158.6377493722038
 20
445.9385485422941
 30
0.0
 11
155.6377493722039
 21
448.9385485422942
 31
0.0
  0
LINE
  5
930
330
914
100
AcDbEntity
  8
0
 62
     0
100
AcDbLine
 10
264.6377493722039
 20
339.9385485422942
 30
0.0
 11
262.6377493722037
 21
341.9385485422944
 31
0.0
  0
LINE
  5
931
330
914
100
AcDbEntity
  8
0
 62
     0
100
AcDbLine
 10
160.6377493722039
 20
443.9385485422942
 30
0.0
 11
158.6377493722038
 21
445.9385485422941
 31
0.0
  0
LINE
  5
932
330
914
100
AcDbEntity
  8
0
 62
     0
100
AcDbLine
 10
267.6377493722038
 20
333.4030146363616
 30
0.0
 11
264.6377493722039
 21
336.4030146363614
 31
0.0
  0
LINE
  5
933
330
914
100
AcDbEntity
  8
0
 62
     0
100
AcDbLine
 10
158.6377493722038
 20
442.4030146363614
 30
0.0
 11
155.6377493722039
 21
445.4030146363614
 31
0.0
  0
LINE
  5
934
330
914
100
AcDbEntity
  8
0
 62
     0
100
AcDbLine
 10
264.6377493722039
 20
336.4030146363614
 30
0.0
 11
262.6377493722037
 21
338.4030146363617
 31
0.0
  0
LINE
  5
935
330
914
100
AcDbEntity
  8
0
 62
     0
100
AcDbLine
 10
160.6377493722039
 20
440.4030146363614
 30
0.0
 11
158.6377493722038
 21
442.4030146363614
 31
0.0
  0
LINE
  5
936
330
914
100
AcDbEntity
  8
0
 62
     0
100
AcDbLine
 10
264.4045964272448
 20
333.1006336753879
 30
0.0
 11
262.6377493722037
 21
334.867480730429
 31
0.0
  0
LINE
  5
937
330
914
100
AcDbEntity
  8
0
 62
     0
100
AcDbLine
 10
158.6377493722038
 20
438.8674807304287
 30
0.0
 11
155.6377493722039
 21
441.8674807304287
 31
0.0
  0
LINE
  5
938
330
914
100
AcDbEntity
  8
0
 62
     0
100
AcDbLine
 10
160.6377493722039
 20
436.8674807304286
 30
0.0
 11
158.6377493722038
 21
438.8674807304287
 31
0.0
  0
LINE
  5
939
330
914
100
AcDbEntity
  8
0
 62
     0
100
AcDbLine
 10
160.6377493722039
 20
433.3319468244959
 30
0.0
 11
158.6377493722038
 21
435.331946824496
 31
0.0
  0
LINE
  5
93A
330
914
100
AcDbEntity
  8
0
 62
     0
100
AcDbLine
 10
158.6377493722038
 20
435.331946824496
 30
0.0
 11
155.6377493722039
 21
438.331946824496
 31
0.0
  0
LINE
  5
93B
330
914
100
AcDbEntity
  8
0
 62
     0
100
AcDbLine
 10
160.6377493722039
 20
429.7964129185632
 30
0.0
 11
158.6377493722038
 21
431.7964129185632
 31
0.0
  0
LINE
  5
93C
330
914
100
AcDbEntity
  8
0
 62
     0
100
AcDbLine
 10
158.6377493722038
 20
431.7964129185632
 30
0.0
 11
155.6377493722038
 21
434.7964129185633
 31
0.0
  0
LINE
  5
93D
330
914
100
AcDbEntity
  8
0
 62
     0
100
AcDbLine
 10
160.6377493722039
 20
426.2608790126305
 30
0.0
 11
158.6377493722038
 21
428.2608790126305
 31
0.0
  0
LINE
  5
93E
330
914
100
AcDbEntity
  8
0
 62
     0
100
AcDbLine
 10
158.6377493722038
 20
428.2608790126305
 30
0.0
 11
155.6377493722038
 21
431.2608790126305
 31
0.0
  0
LINE
  5
93F
330
914
100
AcDbEntity
  8
0
 62
     0
100
AcDbLine
 10
160.6377493722039
 20
422.7253451066977
 30
0.0
 11
158.6377493722038
 21
424.7253451066978
 31
0.0
  0
LINE
  5
940
330
914
100
AcDbEntity
  8
0
 62
     0
100
AcDbLine
 10
158.6377493722038
 20
424.7253451066978
 30
0.0
 11
155.6377493722038
 21
427.7253451066977
 31
0.0
  0
LINE
  5
941
330
914
100
AcDbEntity
  8
0
 62
     0
100
AcDbLine
 10
160.6377493722039
 20
419.189811200765
 30
0.0
 11
158.6377493722038
 21
421.189811200765
 31
0.0
  0
LINE
  5
942
330
914
100
AcDbEntity
  8
0
 62
     0
100
AcDbLine
 10
158.6377493722038
 20
421.189811200765
 30
0.0
 11
155.6377493722038
 21
424.1898112007651
 31
0.0
  0
LINE
  5
943
330
914
100
AcDbEntity
  8
0
 62
     0
100
AcDbLine
 10
160.6377493722039
 20
415.6542772948323
 30
0.0
 11
158.6377493722038
 21
417.6542772948323
 31
0.0
  0
LINE
  5
944
330
914
100
AcDbEntity
  8
0
 62
     0
100
AcDbLine
 10
158.6377493722038
 20
417.6542772948323
 30
0.0
 11
155.6377493722038
 21
420.6542772948322
 31
0.0
  0
LINE
  5
945
330
914
100
AcDbEntity
  8
0
 62
     0
100
AcDbLine
 10
160.6377493722039
 20
412.1187433888995
 30
0.0
 11
158.6377493722038
 21
414.1187433888996
 31
0.0
  0
LINE
  5
946
330
914
100
AcDbEntity
  8
0
 62
     0
100
AcDbLine
 10
158.6377493722038
 20
414.1187433888996
 30
0.0
 11
155.6377493722038
 21
417.1187433888995
 31
0.0
  0
LINE
  5
947
330
914
100
AcDbEntity
  8
0
 62
     0
100
AcDbLine
 10
160.6377493722039
 20
408.5832094829668
 30
0.0
 11
158.6377493722038
 21
410.5832094829668
 31
0.0
  0
LINE
  5
948
330
914
100
AcDbEntity
  8
0
 62
     0
100
AcDbLine
 10
158.6377493722038
 20
410.5832094829668
 30
0.0
 11
155.6377493722038
 21
413.5832094829668
 31
0.0
  0
LINE
  5
949
330
914
100
AcDbEntity
  8
0
 62
     0
100
AcDbLine
 10
160.6377493722039
 20
405.047675577034
 30
0.0
 11
158.6377493722038
 21
407.0476755770341
 31
0.0
  0
LINE
  5
94A
330
914
100
AcDbEntity
  8
0
 62
     0
100
AcDbLine
 10
158.6377493722038
 20
407.0476755770341
 30
0.0
 11
155.6377493722038
 21
410.047675577034
 31
0.0
  0
LINE
  5
94B
330
914
100
AcDbEntity
  8
0
 62
     0
100
AcDbLine
 10
160.6377493722039
 20
401.5121416711013
 30
0.0
 11
158.6377493722038
 21
403.5121416711014
 31
0.0
  0
LINE
  5
94C
330
914
100
AcDbEntity
  8
0
 62
     0
100
AcDbLine
 10
158.6377493722038
 20
403.5121416711014
 30
0.0
 11
155.6377493722038
 21
406.5121416711013
 31
0.0
  0
LINE
  5
94D
330
914
100
AcDbEntity
  8
0
 62
     0
100
AcDbLine
 10
160.6377493722039
 20
397.9766077651686
 30
0.0
 11
158.6377493722038
 21
399.9766077651687
 31
0.0
  0
LINE
  5
94E
330
914
100
AcDbEntity
  8
0
 62
     0
100
AcDbLine
 10
158.6377493722038
 20
399.9766077651687
 30
0.0
 11
155.6377493722038
 21
402.9766077651686
 31
0.0
  0
LINE
  5
94F
330
914
100
AcDbEntity
  8
0
 62
     0
100
AcDbLine
 10
160.6377493722039
 20
394.4410738592359
 30
0.0
 11
158.6377493722038
 21
396.4410738592359
 31
0.0
  0
LINE
  5
950
330
914
100
AcDbEntity
  8
0
 62
     0
100
AcDbLine
 10
158.6377493722038
 20
396.4410738592359
 30
0.0
 11
155.6377493722038
 21
399.4410738592359
 31
0.0
  0
LINE
  5
951
330
914
100
AcDbEntity
  8
0
 62
     0
100
AcDbLine
 10
160.6377493722039
 20
390.9055399533031
 30
0.0
 11
158.6377493722038
 21
392.9055399533032
 31
0.0
  0
LINE
  5
952
330
914
100
AcDbEntity
  8
0
 62
     0
100
AcDbLine
 10
158.6377493722038
 20
392.9055399533032
 30
0.0
 11
155.6377493722038
 21
395.9055399533032
 31
0.0
  0
LINE
  5
953
330
914
100
AcDbEntity
  8
0
 62
     0
100
AcDbLine
 10
160.6377493722039
 20
387.3700060473704
 30
0.0
 11
158.6377493722038
 21
389.3700060473705
 31
0.0
  0
LINE
  5
954
330
914
100
AcDbEntity
  8
0
 62
     0
100
AcDbLine
 10
158.6377493722038
 20
389.3700060473705
 30
0.0
 11
155.6377493722038
 21
392.3700060473704
 31
0.0
  0
LINE
  5
955
330
914
100
AcDbEntity
  8
0
 62
     0
100
AcDbLine
 10
160.6377493722039
 20
383.8344721414376
 30
0.0
 11
158.6377493722038
 21
385.8344721414377
 31
0.0
  0
LINE
  5
956
330
914
100
AcDbEntity
  8
0
 62
     0
100
AcDbLine
 10
158.6377493722038
 20
385.8344721414377
 30
0.0
 11
155.6377493722038
 21
388.8344721414377
 31
0.0
  0
LINE
  5
957
330
914
100
AcDbEntity
  8
0
 62
     0
100
AcDbLine
 10
160.6377493722039
 20
380.2989382355049
 30
0.0
 11
158.6377493722038
 21
382.298938235505
 31
0.0
  0
LINE
  5
958
330
914
100
AcDbEntity
  8
0
 62
     0
100
AcDbLine
 10
158.6377493722038
 20
382.298938235505
 30
0.0
 11
155.6377493722038
 21
385.298938235505
 31
0.0
  0
LINE
  5
959
330
914
100
AcDbEntity
  8
0
 62
     0
100
AcDbLine
 10
160.6377493722039
 20
376.7634043295722
 30
0.0
 11
158.6377493722038
 21
378.7634043295723
 31
0.0
  0
LINE
  5
95A
330
914
100
AcDbEntity
  8
0
 62
     0
100
AcDbLine
 10
158.6377493722038
 20
378.7634043295723
 30
0.0
 11
155.6377493722038
 21
381.7634043295722
 31
0.0
  0
LINE
  5
95B
330
914
100
AcDbEntity
  8
0
 62
     0
100
AcDbLine
 10
160.6377493722039
 20
373.2278704236394
 30
0.0
 11
158.6377493722038
 21
375.2278704236395
 31
0.0
  0
LINE
  5
95C
330
914
100
AcDbEntity
  8
0
 62
     0
100
AcDbLine
 10
158.6377493722038
 20
375.2278704236395
 30
0.0
 11
155.6377493722038
 21
378.2278704236395
 31
0.0
  0
LINE
  5
95D
330
914
100
AcDbEntity
  8
0
 62
     0
100
AcDbLine
 10
160.6377493722039
 20
369.6923365177067
 30
0.0
 11
158.6377493722038
 21
371.6923365177068
 31
0.0
  0
LINE
  5
95E
330
914
100
AcDbEntity
  8
0
 62
     0
100
AcDbLine
 10
158.6377493722038
 20
371.6923365177068
 30
0.0
 11
155.6377493722038
 21
374.6923365177067
 31
0.0
  0
LINE
  5
95F
330
914
100
AcDbEntity
  8
0
 62
     0
100
AcDbLine
 10
160.6377493722039
 20
366.156802611774
 30
0.0
 11
158.6377493722038
 21
368.156802611774
 31
0.0
  0
LINE
  5
960
330
914
100
AcDbEntity
  8
0
 62
     0
100
AcDbLine
 10
158.6377493722038
 20
368.156802611774
 30
0.0
 11
155.6377493722038
 21
371.156802611774
 31
0.0
  0
LINE
  5
961
330
914
100
AcDbEntity
  8
0
 62
     0
100
AcDbLine
 10
160.6377493722039
 20
362.6212687058412
 30
0.0
 11
158.6377493722038
 21
364.6212687058413
 31
0.0
  0
LINE
  5
962
330
914
100
AcDbEntity
  8
0
 62
     0
100
AcDbLine
 10
158.6377493722038
 20
364.6212687058413
 30
0.0
 11
155.6377493722038
 21
367.6212687058413
 31
0.0
  0
LINE
  5
963
330
914
100
AcDbEntity
  8
0
 62
     0
100
AcDbLine
 10
160.6377493722039
 20
359.0857347999085
 30
0.0
 11
158.6377493722038
 21
361.0857347999086
 31
0.0
  0
LINE
  5
964
330
914
100
AcDbEntity
  8
0
 62
     0
100
AcDbLine
 10
158.6377493722038
 20
361.0857347999086
 30
0.0
 11
155.6377493722038
 21
364.0857347999086
 31
0.0
  0
LINE
  5
965
330
914
100
AcDbEntity
  8
0
 62
     0
100
AcDbLine
 10
160.6377493722039
 20
355.5502008939757
 30
0.0
 11
158.6377493722038
 21
357.5502008939758
 31
0.0
  0
LINE
  5
966
330
914
100
AcDbEntity
  8
0
 62
     0
100
AcDbLine
 10
158.6377493722038
 20
357.5502008939758
 30
0.0
 11
155.6377493722038
 21
360.5502008939758
 31
0.0
  0
LINE
  5
967
330
914
100
AcDbEntity
  8
0
 62
     0
100
AcDbLine
 10
160.6377493722039
 20
352.014666988043
 30
0.0
 11
158.6377493722038
 21
354.0146669880431
 31
0.0
  0
LINE
  5
968
330
914
100
AcDbEntity
  8
0
 62
     0
100
AcDbLine
 10
158.6377493722038
 20
354.0146669880431
 30
0.0
 11
155.6377493722038
 21
357.0146669880431
 31
0.0
  0
LINE
  5
969
330
914
100
AcDbEntity
  8
0
 62
     0
100
AcDbLine
 10
160.6377493722039
 20
348.4791330821102
 30
0.0
 11
158.6377493722038
 21
350.4791330821104
 31
0.0
  0
LINE
  5
96A
330
914
100
AcDbEntity
  8
0
 62
     0
100
AcDbLine
 10
158.6377493722038
 20
350.4791330821104
 30
0.0
 11
155.6377493722038
 21
353.4791330821104
 31
0.0
  0
LINE
  5
96B
330
914
100
AcDbEntity
  8
0
 62
     0
100
AcDbLine
 10
160.6377493722039
 20
344.9435991761776
 30
0.0
 11
158.6377493722038
 21
346.9435991761776
 31
0.0
  0
LINE
  5
96C
330
914
100
AcDbEntity
  8
0
 62
     0
100
AcDbLine
 10
158.6377493722038
 20
346.9435991761776
 30
0.0
 11
155.6377493722038
 21
349.9435991761776
 31
0.0
  0
LINE
  5
96D
330
914
100
AcDbEntity
  8
0
 62
     0
100
AcDbLine
 10
160.6377493722039
 20
341.4080652702448
 30
0.0
 11
158.6377493722038
 21
343.4080652702449
 31
0.0
  0
LINE
  5
96E
330
914
100
AcDbEntity
  8
0
 62
     0
100
AcDbLine
 10
158.6377493722038
 20
343.4080652702449
 30
0.0
 11
155.6377493722038
 21
346.4080652702449
 31
0.0
  0
LINE
  5
96F
330
914
100
AcDbEntity
  8
0
 62
     0
100
AcDbLine
 10
160.6377493722039
 20
337.8725313643121
 30
0.0
 11
158.6377493722038
 21
339.8725313643122
 31
0.0
  0
LINE
  5
970
330
914
100
AcDbEntity
  8
0
 62
     0
100
AcDbLine
 10
158.6377493722038
 20
339.8725313643122
 30
0.0
 11
155.6377493722038
 21
342.8725313643121
 31
0.0
  0
LINE
  5
971
330
914
100
AcDbEntity
  8
0
 62
     0
100
AcDbLine
 10
160.6377493722039
 20
334.3369974583793
 30
0.0
 11
158.6377493722038
 21
336.3369974583794
 31
0.0
  0
LINE
  5
972
330
914
100
AcDbEntity
  8
0
 62
     0
100
AcDbLine
 10
158.6377493722038
 20
336.3369974583794
 30
0.0
 11
155.6377493722038
 21
339.3369974583794
 31
0.0
  0
LINE
  5
973
330
914
100
AcDbEntity
  8
0
 62
     0
100
AcDbLine
 10
158.3385792492625
 20
333.1006336753879
 30
0.0
 11
155.6377493722038
 21
335.8014635524467
 31
0.0
  0
LINE
  5
974
330
914
100
AcDbEntity
  8
0
 62
     0
100
AcDbLine
 10
267.6377493722038
 20
361.6872858838235
 30
0.0
 11
264.6377493722039
 21
364.6872858838233
 31
0.0
  0
LINE
  5
975
330
914
100
AcDbEntity
  8
0
 62
     0
100
AcDbLine
 10
158.6377493722039
 20
470.6872858838234
 30
0.0
 11
155.6377493722039
 21
473.6872858838233
 31
0.0
  0
LINE
  5
976
330
914
100
AcDbEntity
  8
0
 62
     0
100
AcDbLine
 10
264.6377493722039
 20
364.6872858838233
 30
0.0
 11
262.6377493722037
 21
366.6872858838236
 31
0.0
  0
LINE
  5
977
330
914
100
AcDbEntity
  8
0
 62
     0
100
AcDbLine
 10
160.6377493722039
 20
468.6872858838233
 30
0.0
 11
158.6377493722039
 21
470.6872858838234
 31
0.0
  0
LINE
  5
978
330
914
100
AcDbEntity
  8
0
 62
     0
100
AcDbLine
 10
267.6377493722038
 20
365.2228197897561
 30
0.0
 11
264.6377493722039
 21
368.2228197897561
 31
0.0
  0
LINE
  5
979
330
914
100
AcDbEntity
  8
0
 62
     0
100
AcDbLine
 10
158.6377493722039
 20
474.2228197897561
 30
0.0
 11
155.6377493722039
 21
477.222819789756
 31
0.0
  0
LINE
  5
97A
330
914
100
AcDbEntity
  8
0
 62
     0
100
AcDbLine
 10
264.6377493722039
 20
368.2228197897561
 30
0.0
 11
262.6377493722037
 21
370.2228197897563
 31
0.0
  0
LINE
  5
97B
330
914
100
AcDbEntity
  8
0
 62
     0
100
AcDbLine
 10
160.6377493722039
 20
472.222819789756
 30
0.0
 11
158.6377493722039
 21
474.2228197897561
 31
0.0
  0
LINE
  5
97C
330
914
100
AcDbEntity
  8
0
 62
     0
100
AcDbLine
 10
267.6377493722038
 20
368.7583536956889
 30
0.0
 11
264.6377493722039
 21
371.7583536956888
 31
0.0
  0
LINE
  5
97D
330
914
100
AcDbEntity
  8
0
 62
     0
100
AcDbLine
 10
158.6377493722039
 20
477.7583536956888
 30
0.0
 11
155.6377493722039
 21
480.7583536956888
 31
0.0
  0
LINE
  5
97E
330
914
100
AcDbEntity
  8
0
 62
     0
100
AcDbLine
 10
264.6377493722039
 20
371.7583536956888
 30
0.0
 11
262.6377493722037
 21
373.758353695689
 31
0.0
  0
LINE
  5
97F
330
914
100
AcDbEntity
  8
0
 62
     0
100
AcDbLine
 10
160.6377493722039
 20
475.7583536956888
 30
0.0
 11
158.6377493722039
 21
477.7583536956888
 31
0.0
  0
LINE
  5
980
330
914
100
AcDbEntity
  8
0
 62
     0
100
AcDbLine
 10
267.6377493722038
 20
372.2938876016216
 30
0.0
 11
264.6377493722039
 21
375.2938876016216
 31
0.0
  0
LINE
  5
981
330
914
100
AcDbEntity
  8
0
 62
     0
100
AcDbLine
 10
158.6377493722039
 20
481.2938876016215
 30
0.0
 11
155.6377493722039
 21
484.2938876016216
 31
0.0
  0
LINE
  5
982
330
914
100
AcDbEntity
  8
0
 62
     0
100
AcDbLine
 10
264.6377493722039
 20
375.2938876016216
 30
0.0
 11
262.6377493722037
 21
377.2938876016218
 31
0.0
  0
LINE
  5
983
330
914
100
AcDbEntity
  8
0
 62
     0
100
AcDbLine
 10
160.6377493722039
 20
479.2938876016215
 30
0.0
 11
158.6377493722039
 21
481.2938876016215
 31
0.0
  0
LINE
  5
984
330
914
100
AcDbEntity
  8
0
 62
     0
100
AcDbLine
 10
267.6377493722038
 20
375.8294215075543
 30
0.0
 11
264.6377493722039
 21
378.8294215075543
 31
0.0
  0
LINE
  5
985
330
914
100
AcDbEntity
  8
0
 62
     0
100
AcDbLine
 10
158.6377493722039
 20
484.8294215075543
 30
0.0
 11
155.6377493722039
 21
487.8294215075542
 31
0.0
  0
LINE
  5
986
330
914
100
AcDbEntity
  8
0
 62
     0
100
AcDbLine
 10
264.6377493722039
 20
378.8294215075543
 30
0.0
 11
262.6377493722037
 21
380.8294215075545
 31
0.0
  0
LINE
  5
987
330
914
100
AcDbEntity
  8
0
 62
     0
100
AcDbLine
 10
160.6377493722039
 20
482.8294215075542
 30
0.0
 11
158.6377493722039
 21
484.8294215075543
 31
0.0
  0
LINE
  5
988
330
914
100
AcDbEntity
  8
0
 62
     0
100
AcDbLine
 10
267.6377493722038
 20
379.3649554134871
 30
0.0
 11
264.6377493722039
 21
382.364955413487
 31
0.0
  0
LINE
  5
989
330
914
100
AcDbEntity
  8
0
 62
     0
100
AcDbLine
 10
158.6377493722039
 20
488.364955413487
 30
0.0
 11
155.6377493722039
 21
491.3649554134869
 31
0.0
  0
LINE
  5
98A
330
914
100
AcDbEntity
  8
0
 62
     0
100
AcDbLine
 10
264.6377493722039
 20
382.364955413487
 30
0.0
 11
262.6377493722037
 21
384.3649554134873
 31
0.0
  0
LINE
  5
98B
330
914
100
AcDbEntity
  8
0
 62
     0
100
AcDbLine
 10
160.6377493722039
 20
486.364955413487
 30
0.0
 11
158.6377493722039
 21
488.364955413487
 31
0.0
  0
LINE
  5
98C
330
914
100
AcDbEntity
  8
0
 62
     0
100
AcDbLine
 10
267.6377493722038
 20
382.9004893194198
 30
0.0
 11
264.6377493722039
 21
385.9004893194198
 31
0.0
  0
LINE
  5
98D
330
914
100
AcDbEntity
  8
0
 62
     0
100
AcDbLine
 10
158.6377493722039
 20
491.9004893194197
 30
0.0
 11
155.6377493722039
 21
494.9004893194198
 31
0.0
  0
LINE
  5
98E
330
914
100
AcDbEntity
  8
0
 62
     0
100
AcDbLine
 10
264.6377493722039
 20
385.9004893194198
 30
0.0
 11
262.6377493722037
 21
387.90048931942
 31
0.0
  0
LINE
  5
98F
330
914
100
AcDbEntity
  8
0
 62
     0
100
AcDbLine
 10
160.6377493722039
 20
489.9004893194197
 30
0.0
 11
158.6377493722039
 21
491.9004893194197
 31
0.0
  0
LINE
  5
990
330
914
100
AcDbEntity
  8
0
 62
     0
100
AcDbLine
 10
267.6377493722038
 20
386.4360232253526
 30
0.0
 11
264.6377493722039
 21
389.4360232253525
 31
0.0
  0
LINE
  5
991
330
914
100
AcDbEntity
  8
0
 62
     0
100
AcDbLine
 10
158.6377493722039
 20
495.4360232253525
 30
0.0
 11
155.9731389221685
 21
498.1006336753879
 31
0.0
  0
LINE
  5
992
330
914
100
AcDbEntity
  8
0
 62
     0
100
AcDbLine
 10
264.6377493722039
 20
389.4360232253525
 30
0.0
 11
262.6377493722037
 21
391.4360232253528
 31
0.0
  0
LINE
  5
993
330
914
100
AcDbEntity
  8
0
 62
     0
100
AcDbLine
 10
160.6377493722039
 20
493.4360232253525
 30
0.0
 11
158.6377493722039
 21
495.4360232253525
 31
0.0
  0
LINE
  5
994
330
914
100
AcDbEntity
  8
0
 62
     0
100
AcDbLine
 10
267.6377493722038
 20
389.9715571312853
 30
0.0
 11
264.6377493722039
 21
392.9715571312852
 31
0.0
  0
LINE
  5
995
330
914
100
AcDbEntity
  8
0
 62
     0
100
AcDbLine
 10
160.6377493722039
 20
496.9715571312852
 30
0.0
 11
159.5086728281013
 21
498.1006336753877
 31
0.0
  0
LINE
  5
996
330
914
100
AcDbEntity
  8
0
 62
     0
100
AcDbLine
 10
264.6377493722039
 20
392.9715571312852
 30
0.0
 11
262.6377493722037
 21
394.9715571312855
 31
0.0
  0
LINE
  5
997
330
914
100
AcDbEntity
  8
0
 62
     0
100
AcDbLine
 10
267.6377493722038
 20
393.5070910372181
 30
0.0
 11
264.6377493722039
 21
396.507091037218
 31
0.0
  0
LINE
  5
998
330
914
100
AcDbEntity
  8
0
 62
     0
100
AcDbLine
 10
264.6377493722039
 20
396.507091037218
 30
0.0
 11
262.6377493722037
 21
398.5070910372182
 31
0.0
  0
LINE
  5
999
330
914
100
AcDbEntity
  8
0
 62
     0
100
AcDbLine
 10
267.6377493722038
 20
397.0426249431508
 30
0.0
 11
264.6377493722039
 21
400.0426249431507
 31
0.0
  0
LINE
  5
99A
330
914
100
AcDbEntity
  8
0
 62
     0
100
AcDbLine
 10
264.6377493722039
 20
400.0426249431507
 30
0.0
 11
262.6377493722037
 21
402.0426249431509
 31
0.0
  0
LINE
  5
99B
330
914
100
AcDbEntity
  8
0
 62
     0
100
AcDbLine
 10
267.6377493722039
 20
400.5781588490835
 30
0.0
 11
264.6377493722039
 21
403.5781588490834
 31
0.0
  0
LINE
  5
99C
330
914
100
AcDbEntity
  8
0
 62
     0
100
AcDbLine
 10
264.6377493722039
 20
403.5781588490834
 30
0.0
 11
262.6377493722037
 21
405.5781588490837
 31
0.0
  0
LINE
  5
99D
330
914
100
AcDbEntity
  8
0
 62
     0
100
AcDbLine
 10
267.6377493722039
 20
404.1136927550162
 30
0.0
 11
264.6377493722039
 21
407.1136927550162
 31
0.0
  0
LINE
  5
99E
330
914
100
AcDbEntity
  8
0
 62
     0
100
AcDbLine
 10
264.6377493722039
 20
407.1136927550162
 30
0.0
 11
262.6377493722037
 21
409.1136927550164
 31
0.0
  0
LINE
  5
99F
330
914
100
AcDbEntity
  8
0
 62
     0
100
AcDbLine
 10
267.6377493722039
 20
407.649226660949
 30
0.0
 11
264.6377493722039
 21
410.6492266609489
 31
0.0
  0
LINE
  5
9A0
330
914
100
AcDbEntity
  8
0
 62
     0
100
AcDbLine
 10
264.6377493722039
 20
410.6492266609489
 30
0.0
 11
262.6377493722037
 21
412.6492266609491
 31
0.0
  0
LINE
  5
9A1
330
914
100
AcDbEntity
  8
0
 62
     0
100
AcDbLine
 10
267.6377493722039
 20
411.1847605668817
 30
0.0
 11
264.6377493722039
 21
414.1847605668816
 31
0.0
  0
LINE
  5
9A2
330
914
100
AcDbEntity
  8
0
 62
     0
100
AcDbLine
 10
264.6377493722039
 20
414.1847605668816
 30
0.0
 11
262.6377493722037
 21
416.1847605668818
 31
0.0
  0
LINE
  5
9A3
330
914
100
AcDbEntity
  8
0
 62
     0
100
AcDbLine
 10
267.6377493722039
 20
414.7202944728143
 30
0.0
 11
264.6377493722039
 21
417.7202944728143
 31
0.0
  0
LINE
  5
9A4
330
914
100
AcDbEntity
  8
0
 62
     0
100
AcDbLine
 10
264.6377493722039
 20
417.7202944728143
 30
0.0
 11
262.6377493722037
 21
419.7202944728145
 31
0.0
  0
LINE
  5
9A5
330
914
100
AcDbEntity
  8
0
 62
     0
100
AcDbLine
 10
267.6377493722039
 20
418.2558283787471
 30
0.0
 11
264.6377493722039
 21
421.2558283787471
 31
0.0
  0
LINE
  5
9A6
330
914
100
AcDbEntity
  8
0
 62
     0
100
AcDbLine
 10
264.6377493722039
 20
421.2558283787471
 30
0.0
 11
262.6377493722037
 21
423.2558283787473
 31
0.0
  0
LINE
  5
9A7
330
914
100
AcDbEntity
  8
0
 62
     0
100
AcDbLine
 10
267.6377493722039
 20
421.7913622846798
 30
0.0
 11
264.6377493722039
 21
424.7913622846797
 31
0.0
  0
LINE
  5
9A8
330
914
100
AcDbEntity
  8
0
 62
     0
100
AcDbLine
 10
264.6377493722039
 20
424.7913622846797
 30
0.0
 11
262.6377493722037
 21
426.7913622846799
 31
0.0
  0
LINE
  5
9A9
330
914
100
AcDbEntity
  8
0
 62
     0
100
AcDbLine
 10
267.6377493722039
 20
425.3268961906125
 30
0.0
 11
264.6377493722039
 21
428.3268961906125
 31
0.0
  0
LINE
  5
9AA
330
914
100
AcDbEntity
  8
0
 62
     0
100
AcDbLine
 10
264.6377493722039
 20
428.3268961906125
 30
0.0
 11
262.6377493722037
 21
430.3268961906128
 31
0.0
  0
LINE
  5
9AB
330
914
100
AcDbEntity
  8
0
 62
     0
100
AcDbLine
 10
267.6377493722039
 20
428.8624300965452
 30
0.0
 11
264.6377493722039
 21
431.8624300965452
 31
0.0
  0
LINE
  5
9AC
330
914
100
AcDbEntity
  8
0
 62
     0
100
AcDbLine
 10
264.6377493722039
 20
431.8624300965452
 30
0.0
 11
262.6377493722037
 21
433.8624300965455
 31
0.0
  0
LINE
  5
9AD
330
914
100
AcDbEntity
  8
0
 62
     0
100
AcDbLine
 10
267.6377493722039
 20
432.397964002478
 30
0.0
 11
264.6377493722039
 21
435.397964002478
 31
0.0
  0
LINE
  5
9AE
330
914
100
AcDbEntity
  8
0
 62
     0
100
AcDbLine
 10
264.6377493722039
 20
435.397964002478
 30
0.0
 11
262.6377493722037
 21
437.3979640024782
 31
0.0
  0
LINE
  5
9AF
330
914
100
AcDbEntity
  8
0
 62
     0
100
AcDbLine
 10
267.6377493722039
 20
435.9334979084108
 30
0.0
 11
264.6377493722039
 21
438.9334979084107
 31
0.0
  0
LINE
  5
9B0
330
914
100
AcDbEntity
  8
0
 62
     0
100
AcDbLine
 10
264.6377493722039
 20
438.9334979084107
 30
0.0
 11
262.6377493722037
 21
440.933497908411
 31
0.0
  0
LINE
  5
9B1
330
914
100
AcDbEntity
  8
0
 62
     0
100
AcDbLine
 10
267.6377493722039
 20
439.4690318143434
 30
0.0
 11
264.6377493722039
 21
442.4690318143435
 31
0.0
  0
LINE
  5
9B2
330
914
100
AcDbEntity
  8
0
 62
     0
100
AcDbLine
 10
264.6377493722039
 20
442.4690318143435
 30
0.0
 11
262.6377493722037
 21
444.4690318143437
 31
0.0
  0
LINE
  5
9B3
330
914
100
AcDbEntity
  8
0
 62
     0
100
AcDbLine
 10
267.6377493722039
 20
443.0045657202763
 30
0.0
 11
264.6377493722039
 21
446.0045657202762
 31
0.0
  0
LINE
  5
9B4
330
914
100
AcDbEntity
  8
0
 62
     0
100
AcDbLine
 10
264.6377493722039
 20
446.0045657202762
 30
0.0
 11
262.6377493722037
 21
448.0045657202764
 31
0.0
  0
LINE
  5
9B5
330
914
100
AcDbEntity
  8
0
 62
     0
100
AcDbLine
 10
267.6377493722039
 20
446.5400996262089
 30
0.0
 11
264.6377493722039
 21
449.5400996262089
 31
0.0
  0
LINE
  5
9B6
330
914
100
AcDbEntity
  8
0
 62
     0
100
AcDbLine
 10
264.6377493722039
 20
449.5400996262089
 30
0.0
 11
262.6377493722037
 21
451.5400996262092
 31
0.0
  0
LINE
  5
9B7
330
914
100
AcDbEntity
  8
0
 62
     0
100
AcDbLine
 10
267.6377493722039
 20
450.0756335321417
 30
0.0
 11
264.6377493722039
 21
453.0756335321417
 31
0.0
  0
LINE
  5
9B8
330
914
100
AcDbEntity
  8
0
 62
     0
100
AcDbLine
 10
264.6377493722039
 20
453.0756335321417
 30
0.0
 11
262.6377493722037
 21
455.0756335321419
 31
0.0
  0
LINE
  5
9B9
330
914
100
AcDbEntity
  8
0
 62
     0
100
AcDbLine
 10
267.6377493722039
 20
453.6111674380745
 30
0.0
 11
264.6377493722039
 21
456.6111674380744
 31
0.0
  0
LINE
  5
9BA
330
914
100
AcDbEntity
  8
0
 62
     0
100
AcDbLine
 10
264.6377493722039
 20
456.6111674380744
 30
0.0
 11
262.6377493722037
 21
458.6111674380746
 31
0.0
  0
LINE
  5
9BB
330
914
100
AcDbEntity
  8
0
 62
     0
100
AcDbLine
 10
267.6377493722039
 20
457.1467013440072
 30
0.0
 11
264.6377493722039
 21
460.1467013440071
 31
0.0
  0
LINE
  5
9BC
330
914
100
AcDbEntity
  8
0
 62
     0
100
AcDbLine
 10
264.6377493722039
 20
460.1467013440071
 30
0.0
 11
262.6377493722037
 21
462.1467013440073
 31
0.0
  0
LINE
  5
9BD
330
914
100
AcDbEntity
  8
0
 62
     0
100
AcDbLine
 10
267.6377493722039
 20
460.6822352499399
 30
0.0
 11
264.6377493722039
 21
463.6822352499399
 31
0.0
  0
LINE
  5
9BE
330
914
100
AcDbEntity
  8
0
 62
     0
100
AcDbLine
 10
264.6377493722039
 20
463.6822352499399
 30
0.0
 11
262.6377493722037
 21
465.6822352499402
 31
0.0
  0
LINE
  5
9BF
330
914
100
AcDbEntity
  8
0
 62
     0
100
AcDbLine
 10
267.6377493722039
 20
464.2177691558726
 30
0.0
 11
264.6377493722039
 21
467.2177691558726
 31
0.0
  0
LINE
  5
9C0
330
914
100
AcDbEntity
  8
0
 62
     0
100
AcDbLine
 10
264.6377493722039
 20
467.2177691558726
 30
0.0
 11
262.6377493722037
 21
469.2177691558728
 31
0.0
  0
LINE
  5
9C1
330
914
100
AcDbEntity
  8
0
 62
     0
100
AcDbLine
 10
267.6377493722039
 20
467.7533030618054
 30
0.0
 11
264.6377493722039
 21
470.7533030618054
 31
0.0
  0
LINE
  5
9C2
330
914
100
AcDbEntity
  8
0
 62
     0
100
AcDbLine
 10
264.6377493722039
 20
470.7533030618054
 30
0.0
 11
262.6377493722037
 21
472.7533030618056
 31
0.0
  0
LINE
  5
9C3
330
914
100
AcDbEntity
  8
0
 62
     0
100
AcDbLine
 10
267.6377493722039
 20
471.2888369677381
 30
0.0
 11
264.6377493722039
 21
474.288836967738
 31
0.0
  0
LINE
  5
9C4
330
914
100
AcDbEntity
  8
0
 62
     0
100
AcDbLine
 10
264.6377493722039
 20
474.288836967738
 30
0.0
 11
262.6377493722037
 21
476.2888369677383
 31
0.0
  0
LINE
  5
9C5
330
914
100
AcDbEntity
  8
0
 62
     0
100
AcDbLine
 10
267.6377493722039
 20
474.8243708736708
 30
0.0
 11
264.6377493722039
 21
477.8243708736709
 31
0.0
  0
LINE
  5
9C6
330
914
100
AcDbEntity
  8
0
 62
     0
100
AcDbLine
 10
264.6377493722039
 20
477.8243708736709
 30
0.0
 11
262.6377493722037
 21
479.8243708736711
 31
0.0
  0
LINE
  5
9C7
330
914
100
AcDbEntity
  8
0
 62
     0
100
AcDbLine
 10
267.6377493722039
 20
478.3599047796036
 30
0.0
 11
264.6377493722039
 21
481.3599047796036
 31
0.0
  0
LINE
  5
9C8
330
914
100
AcDbEntity
  8
0
 62
     0
100
AcDbLine
 10
264.6377493722039
 20
481.3599047796036
 30
0.0
 11
262.6377493722037
 21
483.3599047796038
 31
0.0
  0
LINE
  5
9C9
330
914
100
AcDbEntity
  8
0
 62
     0
100
AcDbLine
 10
267.6377493722039
 20
481.8954386855363
 30
0.0
 11
264.6377493722039
 21
484.8954386855363
 31
0.0
  0
LINE
  5
9CA
330
914
100
AcDbEntity
  8
0
 62
     0
100
AcDbLine
 10
264.6377493722039
 20
484.8954386855363
 30
0.0
 11
262.6377493722037
 21
486.8954386855365
 31
0.0
  0
LINE
  5
9CB
330
914
100
AcDbEntity
  8
0
 62
     0
100
AcDbLine
 10
267.6377493722039
 20
485.430972591469
 30
0.0
 11
264.6377493722039
 21
488.4309725914691
 31
0.0
  0
LINE
  5
9CC
330
914
100
AcDbEntity
  8
0
 62
     0
100
AcDbLine
 10
264.6377493722039
 20
488.4309725914691
 30
0.0
 11
262.6377493722037
 21
490.4309725914693
 31
0.0
  0
LINE
  5
9CD
330
914
100
AcDbEntity
  8
0
 62
     0
100
AcDbLine
 10
267.6377493722039
 20
488.9665064974018
 30
0.0
 11
264.6377493722039
 21
491.9665064974018
 31
0.0
  0
LINE
  5
9CE
330
914
100
AcDbEntity
  8
0
 62
     0
100
AcDbLine
 10
264.6377493722039
 20
491.9665064974018
 30
0.0
 11
262.6377493722037
 21
493.966506497402
 31
0.0
  0
LINE
  5
9CF
330
914
100
AcDbEntity
  8
0
 62
     0
100
AcDbLine
 10
267.6377493722039
 20
492.5020404033345
 30
0.0
 11
264.6377493722039
 21
495.5020404033345
 31
0.0
  0
LINE
  5
9D0
330
914
100
AcDbEntity
  8
0
 62
     0
100
AcDbLine
 10
264.6377493722039
 20
495.5020404033345
 30
0.0
 11
262.6377493722037
 21
497.5020404033347
 31
0.0
  0
LINE
  5
9D1
330
914
100
AcDbEntity
  8
0
 62
     0
100
AcDbLine
 10
267.6377493722039
 20
496.0375743092673
 30
0.0
 11
265.5746900060834
 21
498.1006336753877
 31
0.0
  0
LINE
  5
9D2
330
914
100
AcDbEntity
  8
0
 62
     0
100
AcDbLine
 10
155.6377493722038
 20
357.1631820103699
 30
0.0
 11
158.6377493722038
 21
360.1631820103698
 31
0.0
  0
LINE
  5
9D3
330
914
100
AcDbEntity
  8
0
 62
     0
100
AcDbLine
 10
264.6377493722039
 20
466.1631820103699
 30
0.0
 11
267.6377493722039
 21
469.1631820103699
 31
0.0
  0
LINE
  5
9D4
330
914
100
AcDbEntity
  8
0
 62
     0
100
AcDbLine
 10
158.6377493722038
 20
360.1631820103698
 30
0.0
 11
160.6377493722039
 21
362.1631820103699
 31
0.0
  0
LINE
  5
9D5
330
914
100
AcDbEntity
  8
0
 62
     0
100
AcDbLine
 10
262.6377493722037
 20
464.1631820103697
 30
0.0
 11
264.6377493722039
 21
466.1631820103699
 31
0.0
  0
LINE
  5
9D6
330
914
100
AcDbEntity
  8
0
 62
     0
100
AcDbLine
 10
155.6377493722038
 20
353.6276481044371
 30
0.0
 11
158.6377493722038
 21
356.6276481044371
 31
0.0
  0
LINE
  5
9D7
330
914
100
AcDbEntity
  8
0
 62
     0
100
AcDbLine
 10
264.6377493722039
 20
462.6276481044372
 30
0.0
 11
267.6377493722039
 21
465.6276481044371
 31
0.0
  0
LINE
  5
9D8
330
914
100
AcDbEntity
  8
0
 62
     0
100
AcDbLine
 10
158.6377493722038
 20
356.6276481044371
 30
0.0
 11
160.6377493722039
 21
358.6276481044373
 31
0.0
  0
LINE
  5
9D9
330
914
100
AcDbEntity
  8
0
 62
     0
100
AcDbLine
 10
262.6377493722037
 20
460.6276481044369
 30
0.0
 11
264.6377493722039
 21
462.6276481044372
 31
0.0
  0
LINE
  5
9DA
330
914
100
AcDbEntity
  8
0
 62
     0
100
AcDbLine
 10
155.6377493722038
 20
350.0921141985044
 30
0.0
 11
158.6377493722038
 21
353.0921141985043
 31
0.0
  0
LINE
  5
9DB
330
914
100
AcDbEntity
  8
0
 62
     0
100
AcDbLine
 10
264.6377493722039
 20
459.0921141985044
 30
0.0
 11
267.6377493722039
 21
462.0921141985045
 31
0.0
  0
LINE
  5
9DC
330
914
100
AcDbEntity
  8
0
 62
     0
100
AcDbLine
 10
158.6377493722038
 20
353.0921141985043
 30
0.0
 11
160.6377493722039
 21
355.0921141985045
 31
0.0
  0
LINE
  5
9DD
330
914
100
AcDbEntity
  8
0
 62
     0
100
AcDbLine
 10
262.6377493722037
 20
457.0921141985042
 30
0.0
 11
264.6377493722039
 21
459.0921141985044
 31
0.0
  0
LINE
  5
9DE
330
914
100
AcDbEntity
  8
0
 62
     0
100
AcDbLine
 10
155.6377493722038
 20
346.5565802925717
 30
0.0
 11
158.6377493722038
 21
349.5565802925716
 31
0.0
  0
LINE
  5
9DF
330
914
100
AcDbEntity
  8
0
 62
     0
100
AcDbLine
 10
264.6377493722039
 20
455.5565802925717
 30
0.0
 11
267.6377493722039
 21
458.5565802925716
 31
0.0
  0
LINE
  5
9E0
330
914
100
AcDbEntity
  8
0
 62
     0
100
AcDbLine
 10
158.6377493722038
 20
349.5565802925716
 30
0.0
 11
160.6377493722039
 21
351.5565802925717
 31
0.0
  0
LINE
  5
9E1
330
914
100
AcDbEntity
  8
0
 62
     0
100
AcDbLine
 10
262.6377493722037
 20
453.5565802925715
 30
0.0
 11
264.6377493722039
 21
455.5565802925717
 31
0.0
  0
LINE
  5
9E2
330
914
100
AcDbEntity
  8
0
 62
     0
100
AcDbLine
 10
155.6377493722038
 20
343.0210463866389
 30
0.0
 11
158.6377493722038
 21
346.0210463866389
 31
0.0
  0
LINE
  5
9E3
330
914
100
AcDbEntity
  8
0
 62
     0
100
AcDbLine
 10
264.6377493722039
 20
452.021046386639
 30
0.0
 11
267.6377493722039
 21
455.021046386639
 31
0.0
  0
LINE
  5
9E4
330
914
100
AcDbEntity
  8
0
 62
     0
100
AcDbLine
 10
158.6377493722038
 20
346.0210463866389
 30
0.0
 11
160.6377493722039
 21
348.021046386639
 31
0.0
  0
LINE
  5
9E5
330
914
100
AcDbEntity
  8
0
 62
     0
100
AcDbLine
 10
262.6377493722037
 20
450.0210463866388
 30
0.0
 11
264.6377493722039
 21
452.021046386639
 31
0.0
  0
LINE
  5
9E6
330
914
100
AcDbEntity
  8
0
 62
     0
100
AcDbLine
 10
155.6377493722038
 20
339.4855124807062
 30
0.0
 11
158.6377493722038
 21
342.4855124807061
 31
0.0
  0
LINE
  5
9E7
330
914
100
AcDbEntity
  8
0
 62
     0
100
AcDbLine
 10
264.6377493722039
 20
448.4855124807062
 30
0.0
 11
267.6377493722039
 21
451.4855124807062
 31
0.0
  0
LINE
  5
9E8
330
914
100
AcDbEntity
  8
0
 62
     0
100
AcDbLine
 10
158.6377493722038
 20
342.4855124807061
 30
0.0
 11
160.6377493722039
 21
344.4855124807063
 31
0.0
  0
LINE
  5
9E9
330
914
100
AcDbEntity
  8
0
 62
     0
100
AcDbLine
 10
262.6377493722037
 20
446.485512480706
 30
0.0
 11
264.6377493722039
 21
448.4855124807062
 31
0.0
  0
LINE
  5
9EA
330
914
100
AcDbEntity
  8
0
 62
     0
100
AcDbLine
 10
155.6377493722038
 20
335.9499785747734
 30
0.0
 11
158.6377493722038
 21
338.9499785747734
 31
0.0
  0
LINE
  5
9EB
330
914
100
AcDbEntity
  8
0
 62
     0
100
AcDbLine
 10
264.6377493722039
 20
444.9499785747735
 30
0.0
 11
267.6377493722039
 21
447.9499785747734
 31
0.0
  0
LINE
  5
9EC
330
914
100
AcDbEntity
  8
0
 62
     0
100
AcDbLine
 10
158.6377493722038
 20
338.9499785747734
 30
0.0
 11
160.6377493722039
 21
340.9499785747735
 31
0.0
  0
LINE
  5
9ED
330
914
100
AcDbEntity
  8
0
 62
     0
100
AcDbLine
 10
262.6377493722037
 20
442.9499785747733
 30
0.0
 11
264.6377493722039
 21
444.9499785747735
 31
0.0
  0
LINE
  5
9EE
330
914
100
AcDbEntity
  8
0
 62
     0
100
AcDbLine
 10
156.3239383787511
 20
333.1006336753879
 30
0.0
 11
158.6377493722038
 21
335.4144446688406
 31
0.0
  0
LINE
  5
9EF
330
914
100
AcDbEntity
  8
0
 62
     0
100
AcDbLine
 10
264.6377493722039
 20
441.4144446688408
 30
0.0
 11
267.6377493722039
 21
444.4144446688407
 31
0.0
  0
LINE
  5
9F0
330
914
100
AcDbEntity
  8
0
 62
     0
100
AcDbLine
 10
158.6377493722038
 20
335.4144446688406
 30
0.0
 11
160.6377493722039
 21
337.4144446688408
 31
0.0
  0
LINE
  5
9F1
330
914
100
AcDbEntity
  8
0
 62
     0
100
AcDbLine
 10
262.6377493722037
 20
439.4144446688406
 30
0.0
 11
264.6377493722039
 21
441.4144446688408
 31
0.0
  0
LINE
  5
9F2
330
914
100
AcDbEntity
  8
0
 62
     0
100
AcDbLine
 10
159.8594722846838
 20
333.1006336753879
 30
0.0
 11
160.6377493722039
 21
333.878910762908
 31
0.0
  0
LINE
  5
9F3
330
914
100
AcDbEntity
  8
0
 62
     0
100
AcDbLine
 10
264.6377493722039
 20
437.8789107629081
 30
0.0
 11
267.6377493722039
 21
440.878910762908
 31
0.0
  0
LINE
  5
9F4
330
914
100
AcDbEntity
  8
0
 62
     0
100
AcDbLine
 10
262.6377493722037
 20
435.8789107629077
 30
0.0
 11
264.6377493722039
 21
437.8789107629081
 31
0.0
  0
LINE
  5
9F5
330
914
100
AcDbEntity
  8
0
 62
     0
100
AcDbLine
 10
262.6377493722037
 20
432.3433768569751
 30
0.0
 11
264.6377493722039
 21
434.3433768569753
 31
0.0
  0
LINE
  5
9F6
330
914
100
AcDbEntity
  8
0
 62
     0
100
AcDbLine
 10
264.6377493722039
 20
434.3433768569753
 30
0.0
 11
267.6377493722039
 21
437.3433768569753
 31
0.0
  0
LINE
  5
9F7
330
914
100
AcDbEntity
  8
0
 62
     0
100
AcDbLine
 10
262.6377493722037
 20
428.8078429510424
 30
0.0
 11
264.6377493722039
 21
430.8078429510426
 31
0.0
  0
LINE
  5
9F8
330
914
100
AcDbEntity
  8
0
 62
     0
100
AcDbLine
 10
264.6377493722039
 20
430.8078429510426
 30
0.0
 11
267.6377493722039
 21
433.8078429510425
 31
0.0
  0
LINE
  5
9F9
330
914
100
AcDbEntity
  8
0
 62
     0
100
AcDbLine
 10
262.6377493722037
 20
425.2723090451096
 30
0.0
 11
264.6377493722039
 21
427.2723090451099
 31
0.0
  0
LINE
  5
9FA
330
914
100
AcDbEntity
  8
0
 62
     0
100
AcDbLine
 10
264.6377493722039
 20
427.2723090451099
 30
0.0
 11
267.6377493722039
 21
430.2723090451098
 31
0.0
  0
LINE
  5
9FB
330
914
100
AcDbEntity
  8
0
 62
     0
100
AcDbLine
 10
262.6377493722037
 20
421.7367751391769
 30
0.0
 11
264.6377493722039
 21
423.7367751391771
 31
0.0
  0
LINE
  5
9FC
330
914
100
AcDbEntity
  8
0
 62
     0
100
AcDbLine
 10
264.6377493722039
 20
423.7367751391771
 30
0.0
 11
267.6377493722039
 21
426.7367751391771
 31
0.0
  0
LINE
  5
9FD
330
914
100
AcDbEntity
  8
0
 62
     0
100
AcDbLine
 10
262.6377493722037
 20
418.2012412332441
 30
0.0
 11
264.6377493722039
 21
420.2012412332443
 31
0.0
  0
LINE
  5
9FE
330
914
100
AcDbEntity
  8
0
 62
     0
100
AcDbLine
 10
264.6377493722039
 20
420.2012412332443
 30
0.0
 11
267.6377493722039
 21
423.2012412332442
 31
0.0
  0
LINE
  5
9FF
330
914
100
AcDbEntity
  8
0
 62
     0
100
AcDbLine
 10
262.6377493722037
 20
414.6657073273114
 30
0.0
 11
264.6377493722039
 21
416.6657073273117
 31
0.0
  0
LINE
  5
A00
330
914
100
AcDbEntity
  8
0
 62
     0
100
AcDbLine
 10
264.6377493722039
 20
416.6657073273117
 30
0.0
 11
267.6377493722039
 21
419.6657073273116
 31
0.0
  0
LINE
  5
A01
330
914
100
AcDbEntity
  8
0
 62
     0
100
AcDbLine
 10
262.6377493722037
 20
411.1301734213786
 30
0.0
 11
264.6377493722039
 21
413.1301734213788
 31
0.0
  0
LINE
  5
A02
330
914
100
AcDbEntity
  8
0
 62
     0
100
AcDbLine
 10
264.6377493722039
 20
413.1301734213788
 30
0.0
 11
267.6377493722039
 21
416.1301734213788
 31
0.0
  0
LINE
  5
A03
330
914
100
AcDbEntity
  8
0
 62
     0
100
AcDbLine
 10
262.6377493722037
 20
407.5946395154459
 30
0.0
 11
264.6377493722039
 21
409.5946395154461
 31
0.0
  0
LINE
  5
A04
330
914
100
AcDbEntity
  8
0
 62
     0
100
AcDbLine
 10
264.6377493722039
 20
409.5946395154461
 30
0.0
 11
267.6377493722039
 21
412.5946395154461
 31
0.0
  0
LINE
  5
A05
330
914
100
AcDbEntity
  8
0
 62
     0
100
AcDbLine
 10
262.6377493722037
 20
404.0591056095132
 30
0.0
 11
264.6377493722039
 21
406.0591056095134
 31
0.0
  0
LINE
  5
A06
330
914
100
AcDbEntity
  8
0
 62
     0
100
AcDbLine
 10
264.6377493722039
 20
406.0591056095134
 30
0.0
 11
267.6377493722039
 21
409.0591056095133
 31
0.0
  0
LINE
  5
A07
330
914
100
AcDbEntity
  8
0
 62
     0
100
AcDbLine
 10
262.6377493722037
 20
400.5235717035804
 30
0.0
 11
264.6377493722039
 21
402.5235717035807
 31
0.0
  0
LINE
  5
A08
330
914
100
AcDbEntity
  8
0
 62
     0
100
AcDbLine
 10
264.6377493722039
 20
402.5235717035807
 30
0.0
 11
267.6377493722039
 21
405.5235717035806
 31
0.0
  0
LINE
  5
A09
330
914
100
AcDbEntity
  8
0
 62
     0
100
AcDbLine
 10
262.6377493722037
 20
396.9880377976478
 30
0.0
 11
264.6377493722039
 21
398.988037797648
 31
0.0
  0
LINE
  5
A0A
330
914
100
AcDbEntity
  8
0
 62
     0
100
AcDbLine
 10
264.6377493722039
 20
398.988037797648
 30
0.0
 11
267.6377493722039
 21
401.9880377976479
 31
0.0
  0
LINE
  5
A0B
330
914
100
AcDbEntity
  8
0
 62
     0
100
AcDbLine
 10
262.6377493722037
 20
393.452503891715
 30
0.0
 11
264.6377493722039
 21
395.4525038917152
 31
0.0
  0
LINE
  5
A0C
330
914
100
AcDbEntity
  8
0
 62
     0
100
AcDbLine
 10
264.6377493722039
 20
395.4525038917152
 30
0.0
 11
267.6377493722039
 21
398.4525038917151
 31
0.0
  0
LINE
  5
A0D
330
914
100
AcDbEntity
  8
0
 62
     0
100
AcDbLine
 10
262.6377493722037
 20
389.9169699857822
 30
0.0
 11
264.6377493722039
 21
391.9169699857825
 31
0.0
  0
LINE
  5
A0E
330
914
100
AcDbEntity
  8
0
 62
     0
100
AcDbLine
 10
264.6377493722039
 20
391.9169699857825
 30
0.0
 11
267.6377493722039
 21
394.9169699857824
 31
0.0
  0
LINE
  5
A0F
330
914
100
AcDbEntity
  8
0
 62
     0
100
AcDbLine
 10
262.6377493722037
 20
386.3814360798496
 30
0.0
 11
264.6377493722039
 21
388.3814360798497
 31
0.0
  0
LINE
  5
A10
330
914
100
AcDbEntity
  8
0
 62
     0
100
AcDbLine
 10
264.6377493722039
 20
388.3814360798497
 30
0.0
 11
267.6377493722039
 21
391.3814360798497
 31
0.0
  0
LINE
  5
A11
330
914
100
AcDbEntity
  8
0
 62
     0
100
AcDbLine
 10
262.6377493722037
 20
382.8459021739168
 30
0.0
 11
264.6377493722039
 21
384.845902173917
 31
0.0
  0
LINE
  5
A12
330
914
100
AcDbEntity
  8
0
 62
     0
100
AcDbLine
 10
264.6377493722039
 20
384.845902173917
 30
0.0
 11
267.6377493722039
 21
387.8459021739169
 31
0.0
  0
LINE
  5
A13
330
914
100
AcDbEntity
  8
0
 62
     0
100
AcDbLine
 10
262.6377493722037
 20
379.3103682679841
 30
0.0
 11
264.6377493722039
 21
381.3103682679842
 31
0.0
  0
LINE
  5
A14
330
914
100
AcDbEntity
  8
0
 62
     0
100
AcDbLine
 10
264.6377493722039
 20
381.3103682679842
 30
0.0
 11
267.6377493722039
 21
384.3103682679842
 31
0.0
  0
LINE
  5
A15
330
914
100
AcDbEntity
  8
0
 62
     0
100
AcDbLine
 10
262.6377493722037
 20
375.7748343620513
 30
0.0
 11
264.6377493722039
 21
377.7748343620515
 31
0.0
  0
LINE
  5
A16
330
914
100
AcDbEntity
  8
0
 62
     0
100
AcDbLine
 10
264.6377493722039
 20
377.7748343620515
 30
0.0
 11
267.6377493722039
 21
380.7748343620514
 31
0.0
  0
LINE
  5
A17
330
914
100
AcDbEntity
  8
0
 62
     0
100
AcDbLine
 10
262.6377493722037
 20
372.2393004561186
 30
0.0
 11
264.6377493722039
 21
374.2393004561188
 31
0.0
  0
LINE
  5
A18
330
914
100
AcDbEntity
  8
0
 62
     0
100
AcDbLine
 10
264.6377493722039
 20
374.2393004561188
 30
0.0
 11
267.6377493722039
 21
377.2393004561187
 31
0.0
  0
LINE
  5
A19
330
914
100
AcDbEntity
  8
0
 62
     0
100
AcDbLine
 10
262.6377493722037
 20
368.7037665501858
 30
0.0
 11
264.6377493722039
 21
370.7037665501861
 31
0.0
  0
LINE
  5
A1A
330
914
100
AcDbEntity
  8
0
 62
     0
100
AcDbLine
 10
264.6377493722039
 20
370.7037665501861
 30
0.0
 11
267.6377493722039
 21
373.7037665501859
 31
0.0
  0
LINE
  5
A1B
330
914
100
AcDbEntity
  8
0
 62
     0
100
AcDbLine
 10
262.6377493722037
 20
365.1682326442531
 30
0.0
 11
264.6377493722039
 21
367.1682326442533
 31
0.0
  0
LINE
  5
A1C
330
914
100
AcDbEntity
  8
0
 62
     0
100
AcDbLine
 10
264.6377493722039
 20
367.1682326442533
 30
0.0
 11
267.6377493722039
 21
370.1682326442532
 31
0.0
  0
LINE
  5
A1D
330
914
100
AcDbEntity
  8
0
 62
     0
100
AcDbLine
 10
262.6377493722037
 20
361.6326987383204
 30
0.0
 11
264.6377493722039
 21
363.6326987383206
 31
0.0
  0
LINE
  5
A1E
330
914
100
AcDbEntity
  8
0
 62
     0
100
AcDbLine
 10
264.6377493722039
 20
363.6326987383206
 30
0.0
 11
267.6377493722038
 21
366.6326987383205
 31
0.0
  0
LINE
  5
A1F
330
914
100
AcDbEntity
  8
0
 62
     0
100
AcDbLine
 10
262.6377493722037
 20
358.0971648323877
 30
0.0
 11
264.6377493722039
 21
360.0971648323878
 31
0.0
  0
LINE
  5
A20
330
914
100
AcDbEntity
  8
0
 62
     0
100
AcDbLine
 10
264.6377493722039
 20
360.0971648323878
 30
0.0
 11
267.6377493722038
 21
363.0971648323878
 31
0.0
  0
LINE
  5
A21
330
914
100
AcDbEntity
  8
0
 62
     0
100
AcDbLine
 10
262.6377493722037
 20
354.5616309264549
 30
0.0
 11
264.6377493722039
 21
356.5616309264551
 31
0.0
  0
LINE
  5
A22
330
914
100
AcDbEntity
  8
0
 62
     0
100
AcDbLine
 10
264.6377493722039
 20
356.5616309264551
 30
0.0
 11
267.6377493722038
 21
359.561630926455
 31
0.0
  0
LINE
  5
A23
330
914
100
AcDbEntity
  8
0
 62
     0
100
AcDbLine
 10
262.6377493722037
 20
351.0260970205222
 30
0.0
 11
264.6377493722039
 21
353.0260970205223
 31
0.0
  0
LINE
  5
A24
330
914
100
AcDbEntity
  8
0
 62
     0
100
AcDbLine
 10
264.6377493722039
 20
353.0260970205223
 30
0.0
 11
267.6377493722038
 21
356.0260970205223
 31
0.0
  0
LINE
  5
A25
330
914
100
AcDbEntity
  8
0
 62
     0
100
AcDbLine
 10
262.6377493722037
 20
347.4905631145894
 30
0.0
 11
264.6377493722039
 21
349.4905631145897
 31
0.0
  0
LINE
  5
A26
330
914
100
AcDbEntity
  8
0
 62
     0
100
AcDbLine
 10
264.6377493722039
 20
349.4905631145897
 30
0.0
 11
267.6377493722038
 21
352.4905631145895
 31
0.0
  0
LINE
  5
A27
330
914
100
AcDbEntity
  8
0
 62
     0
100
AcDbLine
 10
262.6377493722037
 20
343.9550292086567
 30
0.0
 11
264.6377493722039
 21
345.9550292086569
 31
0.0
  0
LINE
  5
A28
330
914
100
AcDbEntity
  8
0
 62
     0
100
AcDbLine
 10
264.6377493722039
 20
345.9550292086569
 30
0.0
 11
267.6377493722038
 21
348.9550292086568
 31
0.0
  0
LINE
  5
A29
330
914
100
AcDbEntity
  8
0
 62
     0
100
AcDbLine
 10
262.6377493722037
 20
340.4194953027239
 30
0.0
 11
264.6377493722039
 21
342.4194953027241
 31
0.0
  0
LINE
  5
A2A
330
914
100
AcDbEntity
  8
0
 62
     0
100
AcDbLine
 10
264.6377493722039
 20
342.4194953027241
 30
0.0
 11
267.6377493722038
 21
345.419495302724
 31
0.0
  0
LINE
  5
A2B
330
914
100
AcDbEntity
  8
0
 62
     0
100
AcDbLine
 10
262.6377493722037
 20
336.8839613967912
 30
0.0
 11
264.6377493722039
 21
338.8839613967915
 31
0.0
  0
LINE
  5
A2C
330
914
100
AcDbEntity
  8
0
 62
     0
100
AcDbLine
 10
264.6377493722039
 20
338.8839613967915
 30
0.0
 11
267.6377493722038
 21
341.8839613967914
 31
0.0
  0
LINE
  5
A2D
330
914
100
AcDbEntity
  8
0
 62
     0
100
AcDbLine
 10
262.6377493722037
 20
333.3484274908585
 30
0.0
 11
264.6377493722039
 21
335.3484274908587
 31
0.0
  0
LINE
  5
A2E
330
914
100
AcDbEntity
  8
0
 62
     0
100
AcDbLine
 10
264.6377493722039
 20
335.3484274908587
 30
0.0
 11
267.6377493722038
 21
338.3484274908586
 31
0.0
  0
LINE
  5
A2F
330
914
100
AcDbEntity
  8
0
 62
     0
100
AcDbLine
 10
265.9254894626658
 20
333.1006336753879
 30
0.0
 11
267.6377493722038
 21
334.8128935849258
 31
0.0
  0
LINE
  5
A30
330
914
100
AcDbEntity
  8
0
 62
     0
100
AcDbLine
 10
155.6377493722038
 20
360.6987159163026
 30
0.0
 11
158.6377493722038
 21
363.6987159163025
 31
0.0
  0
LINE
  5
A31
330
914
100
AcDbEntity
  8
0
 62
     0
100
AcDbLine
 10
264.6377493722039
 20
469.6987159163027
 30
0.0
 11
267.6377493722039
 21
472.6987159163027
 31
0.0
  0
LINE
  5
A32
330
914
100
AcDbEntity
  8
0
 62
     0
100
AcDbLine
 10
158.6377493722038
 20
363.6987159163025
 30
0.0
 11
160.6377493722039
 21
365.6987159163027
 31
0.0
  0
LINE
  5
A33
330
914
100
AcDbEntity
  8
0
 62
     0
100
AcDbLine
 10
262.6377493722037
 20
467.6987159163025
 30
0.0
 11
264.6377493722039
 21
469.6987159163027
 31
0.0
  0
LINE
  5
A34
330
914
100
AcDbEntity
  8
0
 62
     0
100
AcDbLine
 10
155.6377493722038
 20
364.2342498222354
 30
0.0
 11
158.6377493722038
 21
367.2342498222353
 31
0.0
  0
LINE
  5
A35
330
914
100
AcDbEntity
  8
0
 62
     0
100
AcDbLine
 10
264.6377493722039
 20
473.2342498222354
 30
0.0
 11
267.6377493722039
 21
476.2342498222354
 31
0.0
  0
LINE
  5
A36
330
914
100
AcDbEntity
  8
0
 62
     0
100
AcDbLine
 10
158.6377493722038
 20
367.2342498222353
 30
0.0
 11
160.6377493722039
 21
369.2342498222354
 31
0.0
  0
LINE
  5
A37
330
914
100
AcDbEntity
  8
0
 62
     0
100
AcDbLine
 10
262.6377493722037
 20
471.2342498222351
 30
0.0
 11
264.6377493722039
 21
473.2342498222354
 31
0.0
  0
LINE
  5
A38
330
914
100
AcDbEntity
  8
0
 62
     0
100
AcDbLine
 10
155.6377493722038
 20
367.7697837281681
 30
0.0
 11
158.6377493722038
 21
370.7697837281681
 31
0.0
  0
LINE
  5
A39
330
914
100
AcDbEntity
  8
0
 62
     0
100
AcDbLine
 10
264.6377493722039
 20
476.7697837281682
 30
0.0
 11
267.6377493722039
 21
479.7697837281681
 31
0.0
  0
LINE
  5
A3A
330
914
100
AcDbEntity
  8
0
 62
     0
100
AcDbLine
 10
158.6377493722038
 20
370.7697837281681
 30
0.0
 11
160.6377493722039
 21
372.7697837281682
 31
0.0
  0
LINE
  5
A3B
330
914
100
AcDbEntity
  8
0
 62
     0
100
AcDbLine
 10
262.6377493722037
 20
474.769783728168
 30
0.0
 11
264.6377493722039
 21
476.7697837281682
 31
0.0
  0
LINE
  5
A3C
330
914
100
AcDbEntity
  8
0
 62
     0
100
AcDbLine
 10
155.6377493722038
 20
371.3053176341008
 30
0.0
 11
158.6377493722038
 21
374.3053176341008
 31
0.0
  0
LINE
  5
A3D
330
914
100
AcDbEntity
  8
0
 62
     0
100
AcDbLine
 10
264.6377493722039
 20
480.3053176341008
 30
0.0
 11
267.6377493722039
 21
483.3053176341008
 31
0.0
  0
LINE
  5
A3E
330
914
100
AcDbEntity
  8
0
 62
     0
100
AcDbLine
 10
158.6377493722038
 20
374.3053176341008
 30
0.0
 11
160.6377493722039
 21
376.3053176341009
 31
0.0
  0
LINE
  5
A3F
330
914
100
AcDbEntity
  8
0
 62
     0
100
AcDbLine
 10
262.6377493722037
 20
478.3053176341006
 30
0.0
 11
264.6377493722039
 21
480.3053176341008
 31
0.0
  0
LINE
  5
A40
330
914
100
AcDbEntity
  8
0
 62
     0
100
AcDbLine
 10
155.6377493722038
 20
374.8408515400336
 30
0.0
 11
158.6377493722038
 21
377.8408515400335
 31
0.0
  0
LINE
  5
A41
330
914
100
AcDbEntity
  8
0
 62
     0
100
AcDbLine
 10
264.6377493722039
 20
483.8408515400336
 30
0.0
 11
267.6377493722039
 21
486.8408515400337
 31
0.0
  0
LINE
  5
A42
330
914
100
AcDbEntity
  8
0
 62
     0
100
AcDbLine
 10
158.6377493722038
 20
377.8408515400335
 30
0.0
 11
160.6377493722039
 21
379.8408515400337
 31
0.0
  0
LINE
  5
A43
330
914
100
AcDbEntity
  8
0
 62
     0
100
AcDbLine
 10
262.6377493722037
 20
481.8408515400334
 30
0.0
 11
264.6377493722039
 21
483.8408515400336
 31
0.0
  0
LINE
  5
A44
330
914
100
AcDbEntity
  8
0
 62
     0
100
AcDbLine
 10
155.6377493722038
 20
378.3763854459663
 30
0.0
 11
158.6377493722038
 21
381.3763854459663
 31
0.0
  0
LINE
  5
A45
330
914
100
AcDbEntity
  8
0
 62
     0
100
AcDbLine
 10
264.6377493722039
 20
487.3763854459664
 30
0.0
 11
267.6377493722039
 21
490.3763854459663
 31
0.0
  0
LINE
  5
A46
330
914
100
AcDbEntity
  8
0
 62
     0
100
AcDbLine
 10
158.6377493722038
 20
381.3763854459663
 30
0.0
 11
160.6377493722039
 21
383.3763854459664
 31
0.0
  0
LINE
  5
A47
330
914
100
AcDbEntity
  8
0
 62
     0
100
AcDbLine
 10
262.6377493722037
 20
485.3763854459661
 30
0.0
 11
264.6377493722039
 21
487.3763854459664
 31
0.0
  0
LINE
  5
A48
330
914
100
AcDbEntity
  8
0
 62
     0
100
AcDbLine
 10
155.6377493722038
 20
381.9119193518991
 30
0.0
 11
158.6377493722038
 21
384.9119193518991
 31
0.0
  0
LINE
  5
A49
330
914
100
AcDbEntity
  8
0
 62
     0
100
AcDbLine
 10
264.6377493722039
 20
490.9119193518991
 30
0.0
 11
267.6377493722039
 21
493.9119193518991
 31
0.0
  0
LINE
  5
A4A
330
914
100
AcDbEntity
  8
0
 62
     0
100
AcDbLine
 10
158.6377493722038
 20
384.9119193518991
 30
0.0
 11
160.6377493722039
 21
386.9119193518992
 31
0.0
  0
LINE
  5
A4B
330
914
100
AcDbEntity
  8
0
 62
     0
100
AcDbLine
 10
262.6377493722037
 20
488.9119193518989
 30
0.0
 11
264.6377493722039
 21
490.9119193518991
 31
0.0
  0
LINE
  5
A4C
330
914
100
AcDbEntity
  8
0
 62
     0
100
AcDbLine
 10
155.6377493722038
 20
385.4474532578318
 30
0.0
 11
158.6377493722038
 21
388.4474532578317
 31
0.0
  0
LINE
  5
A4D
330
914
100
AcDbEntity
  8
0
 62
     0
100
AcDbLine
 10
264.6377493722039
 20
494.4474532578318
 30
0.0
 11
267.6377493722039
 21
497.4474532578319
 31
0.0
  0
LINE
  5
A4E
330
914
100
AcDbEntity
  8
0
 62
     0
100
AcDbLine
 10
158.6377493722038
 20
388.4474532578317
 30
0.0
 11
160.6377493722039
 21
390.4474532578319
 31
0.0
  0
LINE
  5
A4F
330
914
100
AcDbEntity
  8
0
 62
     0
100
AcDbLine
 10
262.6377493722037
 20
492.4474532578316
 30
0.0
 11
264.6377493722039
 21
494.4474532578318
 31
0.0
  0
LINE
  5
A50
330
914
100
AcDbEntity
  8
0
 62
     0
100
AcDbLine
 10
155.6377493722038
 20
388.9829871637646
 30
0.0
 11
158.6377493722038
 21
391.9829871637645
 31
0.0
  0
LINE
  5
A51
330
914
100
AcDbEntity
  8
0
 62
     0
100
AcDbLine
 10
264.6377493722039
 20
497.9829871637646
 30
0.0
 11
264.7553958838272
 21
498.1006336753878
 31
0.0
  0
LINE
  5
A52
330
914
100
AcDbEntity
  8
0
 62
     0
100
AcDbLine
 10
158.6377493722038
 20
391.9829871637645
 30
0.0
 11
160.6377493722039
 21
393.9829871637646
 31
0.0
  0
LINE
  5
A53
330
914
100
AcDbEntity
  8
0
 62
     0
100
AcDbLine
 10
262.6377493722037
 20
495.9829871637643
 30
0.0
 11
264.6377493722039
 21
497.9829871637646
 31
0.0
  0
LINE
  5
A54
330
914
100
AcDbEntity
  8
0
 62
     0
100
AcDbLine
 10
155.6377493722038
 20
392.5185210696973
 30
0.0
 11
158.6377493722038
 21
395.5185210696972
 31
0.0
  0
LINE
  5
A55
330
914
100
AcDbEntity
  8
0
 62
     0
100
AcDbLine
 10
158.6377493722038
 20
395.5185210696972
 30
0.0
 11
160.6377493722039
 21
397.5185210696973
 31
0.0
  0
LINE
  5
A56
330
914
100
AcDbEntity
  8
0
 62
     0
100
AcDbLine
 10
155.6377493722038
 20
396.05405497563
 30
0.0
 11
158.6377493722038
 21
399.05405497563
 31
0.0
  0
LINE
  5
A57
330
914
100
AcDbEntity
  8
0
 62
     0
100
AcDbLine
 10
158.6377493722038
 20
399.05405497563
 30
0.0
 11
160.6377493722039
 21
401.05405497563
 31
0.0
  0
LINE
  5
A58
330
914
100
AcDbEntity
  8
0
 62
     0
100
AcDbLine
 10
155.6377493722038
 20
399.5895888815628
 30
0.0
 11
158.6377493722038
 21
402.5895888815626
 31
0.0
  0
LINE
  5
A59
330
914
100
AcDbEntity
  8
0
 62
     0
100
AcDbLine
 10
158.6377493722038
 20
402.5895888815626
 30
0.0
 11
160.6377493722039
 21
404.5895888815628
 31
0.0
  0
LINE
  5
A5A
330
914
100
AcDbEntity
  8
0
 62
     0
100
AcDbLine
 10
155.6377493722038
 20
403.1251227874955
 30
0.0
 11
158.6377493722038
 21
406.1251227874954
 31
0.0
  0
LINE
  5
A5B
330
914
100
AcDbEntity
  8
0
 62
     0
100
AcDbLine
 10
158.6377493722038
 20
406.1251227874954
 30
0.0
 11
160.6377493722039
 21
408.1251227874956
 31
0.0
  0
LINE
  5
A5C
330
914
100
AcDbEntity
  8
0
 62
     0
100
AcDbLine
 10
155.6377493722038
 20
406.6606566934281
 30
0.0
 11
158.6377493722038
 21
409.6606566934282
 31
0.0
  0
LINE
  5
A5D
330
914
100
AcDbEntity
  8
0
 62
     0
100
AcDbLine
 10
158.6377493722038
 20
409.6606566934282
 30
0.0
 11
160.6377493722039
 21
411.6606566934282
 31
0.0
  0
LINE
  5
A5E
330
914
100
AcDbEntity
  8
0
 62
     0
100
AcDbLine
 10
155.6377493722038
 20
410.196190599361
 30
0.0
 11
158.6377493722038
 21
413.1961905993609
 31
0.0
  0
LINE
  5
A5F
330
914
100
AcDbEntity
  8
0
 62
     0
100
AcDbLine
 10
158.6377493722038
 20
413.1961905993609
 30
0.0
 11
160.6377493722039
 21
415.196190599361
 31
0.0
  0
LINE
  5
A60
330
914
100
AcDbEntity
  8
0
 62
     0
100
AcDbLine
 10
155.6377493722038
 20
413.7317245052937
 30
0.0
 11
158.6377493722038
 21
416.7317245052936
 31
0.0
  0
LINE
  5
A61
330
914
100
AcDbEntity
  8
0
 62
     0
100
AcDbLine
 10
158.6377493722038
 20
416.7317245052936
 30
0.0
 11
160.6377493722039
 21
418.7317245052937
 31
0.0
  0
LINE
  5
A62
330
914
100
AcDbEntity
  8
0
 62
     0
100
AcDbLine
 10
155.6377493722038
 20
417.2672584112264
 30
0.0
 11
158.6377493722038
 21
420.2672584112264
 31
0.0
  0
LINE
  5
A63
330
914
100
AcDbEntity
  8
0
 62
     0
100
AcDbLine
 10
158.6377493722038
 20
420.2672584112264
 30
0.0
 11
160.6377493722039
 21
422.2672584112265
 31
0.0
  0
LINE
  5
A64
330
914
100
AcDbEntity
  8
0
 62
     0
100
AcDbLine
 10
155.6377493722039
 20
420.8027923171592
 30
0.0
 11
158.6377493722038
 21
423.8027923171591
 31
0.0
  0
LINE
  5
A65
330
914
100
AcDbEntity
  8
0
 62
     0
100
AcDbLine
 10
158.6377493722038
 20
423.8027923171591
 30
0.0
 11
160.6377493722039
 21
425.8027923171592
 31
0.0
  0
LINE
  5
A66
330
914
100
AcDbEntity
  8
0
 62
     0
100
AcDbLine
 10
155.6377493722039
 20
424.3383262230919
 30
0.0
 11
158.6377493722038
 21
427.3383262230918
 31
0.0
  0
LINE
  5
A67
330
914
100
AcDbEntity
  8
0
 62
     0
100
AcDbLine
 10
158.6377493722038
 20
427.3383262230918
 30
0.0
 11
160.6377493722039
 21
429.338326223092
 31
0.0
  0
LINE
  5
A68
330
914
100
AcDbEntity
  8
0
 62
     0
100
AcDbLine
 10
155.6377493722039
 20
427.8738601290247
 30
0.0
 11
158.6377493722038
 21
430.8738601290246
 31
0.0
  0
LINE
  5
A69
330
914
100
AcDbEntity
  8
0
 62
     0
100
AcDbLine
 10
158.6377493722038
 20
430.8738601290246
 30
0.0
 11
160.6377493722039
 21
432.8738601290247
 31
0.0
  0
LINE
  5
A6A
330
914
100
AcDbEntity
  8
0
 62
     0
100
AcDbLine
 10
155.6377493722039
 20
431.4093940349573
 30
0.0
 11
158.6377493722038
 21
434.4093940349573
 31
0.0
  0
LINE
  5
A6B
330
914
100
AcDbEntity
  8
0
 62
     0
100
AcDbLine
 10
158.6377493722038
 20
434.4093940349573
 30
0.0
 11
160.6377493722039
 21
436.4093940349574
 31
0.0
  0
LINE
  5
A6C
330
914
100
AcDbEntity
  8
0
 62
     0
100
AcDbLine
 10
155.6377493722039
 20
434.9449279408902
 30
0.0
 11
158.6377493722038
 21
437.9449279408901
 31
0.0
  0
LINE
  5
A6D
330
914
100
AcDbEntity
  8
0
 62
     0
100
AcDbLine
 10
158.6377493722038
 20
437.9449279408901
 30
0.0
 11
160.6377493722039
 21
439.9449279408901
 31
0.0
  0
LINE
  5
A6E
330
914
100
AcDbEntity
  8
0
 62
     0
100
AcDbLine
 10
155.6377493722039
 20
438.4804618468229
 30
0.0
 11
158.6377493722038
 21
441.4804618468228
 31
0.0
  0
LINE
  5
A6F
330
914
100
AcDbEntity
  8
0
 62
     0
100
AcDbLine
 10
158.6377493722038
 20
441.4804618468228
 30
0.0
 11
160.6377493722039
 21
443.4804618468229
 31
0.0
  0
LINE
  5
A70
330
914
100
AcDbEntity
  8
0
 62
     0
100
AcDbLine
 10
155.6377493722039
 20
442.0159957527556
 30
0.0
 11
158.6377493722038
 21
445.0159957527556
 31
0.0
  0
LINE
  5
A71
330
914
100
AcDbEntity
  8
0
 62
     0
100
AcDbLine
 10
158.6377493722038
 20
445.0159957527556
 30
0.0
 11
160.6377493722039
 21
447.0159957527556
 31
0.0
  0
LINE
  5
A72
330
914
100
AcDbEntity
  8
0
 62
     0
100
AcDbLine
 10
155.6377493722039
 20
445.5515296586884
 30
0.0
 11
158.6377493722038
 21
448.5515296586883
 31
0.0
  0
LINE
  5
A73
330
914
100
AcDbEntity
  8
0
 62
     0
100
AcDbLine
 10
158.6377493722038
 20
448.5515296586883
 30
0.0
 11
160.6377493722039
 21
450.5515296586884
 31
0.0
  0
LINE
  5
A74
330
914
100
AcDbEntity
  8
0
 62
     0
100
AcDbLine
 10
155.6377493722039
 20
449.0870635646211
 30
0.0
 11
158.6377493722038
 21
452.087063564621
 31
0.0
  0
LINE
  5
A75
330
914
100
AcDbEntity
  8
0
 62
     0
100
AcDbLine
 10
158.6377493722038
 20
452.087063564621
 30
0.0
 11
160.6377493722039
 21
454.0870635646211
 31
0.0
  0
LINE
  5
A76
330
914
100
AcDbEntity
  8
0
 62
     0
100
AcDbLine
 10
155.6377493722039
 20
452.6225974705538
 30
0.0
 11
158.6377493722038
 21
455.6225974705538
 31
0.0
  0
LINE
  5
A77
330
914
100
AcDbEntity
  8
0
 62
     0
100
AcDbLine
 10
158.6377493722038
 20
455.6225974705538
 30
0.0
 11
160.6377493722039
 21
457.6225974705539
 31
0.0
  0
LINE
  5
A78
330
914
100
AcDbEntity
  8
0
 62
     0
100
AcDbLine
 10
155.6377493722039
 20
456.1581313764865
 30
0.0
 11
158.6377493722039
 21
459.1581313764865
 31
0.0
  0
LINE
  5
A79
330
914
100
AcDbEntity
  8
0
 62
     0
100
AcDbLine
 10
158.6377493722039
 20
459.1581313764865
 30
0.0
 11
160.6377493722039
 21
461.1581313764865
 31
0.0
  0
LINE
  5
A7A
330
914
100
AcDbEntity
  8
0
 62
     0
100
AcDbLine
 10
155.6377493722039
 20
459.6936652824194
 30
0.0
 11
158.6377493722039
 21
462.6936652824193
 31
0.0
  0
LINE
  5
A7B
330
914
100
AcDbEntity
  8
0
 62
     0
100
AcDbLine
 10
158.6377493722039
 20
462.6936652824193
 30
0.0
 11
160.6377493722039
 21
464.6936652824193
 31
0.0
  0
LINE
  5
A7C
330
914
100
AcDbEntity
  8
0
 62
     0
100
AcDbLine
 10
155.6377493722039
 20
463.229199188352
 30
0.0
 11
158.6377493722039
 21
466.2291991883519
 31
0.0
  0
LINE
  5
A7D
330
914
100
AcDbEntity
  8
0
 62
     0
100
AcDbLine
 10
158.6377493722039
 20
466.2291991883519
 30
0.0
 11
160.6377493722039
 21
468.2291991883521
 31
0.0
  0
LINE
  5
A7E
330
914
100
AcDbEntity
  8
0
 62
     0
100
AcDbLine
 10
155.6377493722039
 20
466.7647330942848
 30
0.0
 11
158.6377493722039
 21
469.7647330942848
 31
0.0
  0
LINE
  5
A7F
330
914
100
AcDbEntity
  8
0
 62
     0
100
AcDbLine
 10
158.6377493722039
 20
469.7647330942848
 30
0.0
 11
160.6377493722039
 21
471.7647330942848
 31
0.0
  0
LINE
  5
A80
330
914
100
AcDbEntity
  8
0
 62
     0
100
AcDbLine
 10
155.6377493722039
 20
470.3002670002176
 30
0.0
 11
158.6377493722039
 21
473.3002670002175
 31
0.0
  0
LINE
  5
A81
330
914
100
AcDbEntity
  8
0
 62
     0
100
AcDbLine
 10
158.6377493722039
 20
473.3002670002175
 30
0.0
 11
160.6377493722039
 21
475.3002670002175
 31
0.0
  0
LINE
  5
A82
330
914
100
AcDbEntity
  8
0
 62
     0
100
AcDbLine
 10
155.6377493722039
 20
473.8358009061503
 30
0.0
 11
158.6377493722039
 21
476.8358009061502
 31
0.0
  0
LINE
  5
A83
330
914
100
AcDbEntity
  8
0
 62
     0
100
AcDbLine
 10
158.6377493722039
 20
476.8358009061502
 30
0.0
 11
160.6377493722039
 21
478.8358009061503
 31
0.0
  0
LINE
  5
A84
330
914
100
AcDbEntity
  8
0
 62
     0
100
AcDbLine
 10
155.6377493722039
 20
477.371334812083
 30
0.0
 11
158.6377493722039
 21
480.371334812083
 31
0.0
  0
LINE
  5
A85
330
914
100
AcDbEntity
  8
0
 62
     0
100
AcDbLine
 10
158.6377493722039
 20
480.371334812083
 30
0.0
 11
160.6377493722039
 21
482.371334812083
 31
0.0
  0
LINE
  5
A86
330
914
100
AcDbEntity
  8
0
 62
     0
100
AcDbLine
 10
155.6377493722039
 20
480.9068687180158
 30
0.0
 11
158.6377493722039
 21
483.9068687180157
 31
0.0
  0
LINE
  5
A87
330
914
100
AcDbEntity
  8
0
 62
     0
100
AcDbLine
 10
158.6377493722039
 20
483.9068687180157
 30
0.0
 11
160.6377493722039
 21
485.9068687180157
 31
0.0
  0
LINE
  5
A88
330
914
100
AcDbEntity
  8
0
 62
     0
100
AcDbLine
 10
155.6377493722039
 20
484.4424026239485
 30
0.0
 11
158.6377493722039
 21
487.4424026239484
 31
0.0
  0
LINE
  5
A89
330
914
100
AcDbEntity
  8
0
 62
     0
100
AcDbLine
 10
158.6377493722039
 20
487.4424026239484
 30
0.0
 11
160.6377493722039
 21
489.4424026239485
 31
0.0
  0
LINE
  5
A8A
330
914
100
AcDbEntity
  8
0
 62
     0
100
AcDbLine
 10
155.6377493722039
 20
487.9779365298812
 30
0.0
 11
158.6377493722039
 21
490.9779365298811
 31
0.0
  0
LINE
  5
A8B
330
914
100
AcDbEntity
  8
0
 62
     0
100
AcDbLine
 10
158.6377493722039
 20
490.9779365298811
 30
0.0
 11
160.6377493722039
 21
492.9779365298812
 31
0.0
  0
LINE
  5
A8C
330
914
100
AcDbEntity
  8
0
 62
     0
100
AcDbLine
 10
155.6377493722039
 20
491.513470435814
 30
0.0
 11
158.6377493722039
 21
494.513470435814
 31
0.0
  0
LINE
  5
A8D
330
914
100
AcDbEntity
  8
0
 62
     0
100
AcDbLine
 10
158.6377493722039
 20
494.513470435814
 30
0.0
 11
160.6377493722039
 21
496.513470435814
 31
0.0
  0
LINE
  5
A8E
330
914
100
AcDbEntity
  8
0
 62
     0
100
AcDbLine
 10
155.6377493722039
 20
495.0490043417467
 30
0.0
 11
158.6377493722039
 21
498.0490043417467
 31
0.0
  0
LINE
  5
A8F
330
914
100
AcDbEntity
  8
0
 62
     0
100
AcDbLine
 10
158.6377493722039
 20
498.0490043417467
 30
0.0
 11
158.689378705845
 21
498.1006336753877
 31
0.0
  0
ENDBLK
  5
A90
330
914
100
AcDbEntity
  8
0
100
AcDbBlockEnd
  0
BLOCK
  5
A92
330
A91
100
AcDbEntity
  8
0
100
AcDbBlockBegin
  2
*X4
 70
     1
 10
0.0
 20
0.0
 30
0.0
  3
*X4
  1

  0
LINE
  5
A93
330
A91
100
AcDbEntity
  8
0
 62
     0
100
AcDbLine
 10
160.6377493722039
 20
523.4880614257806
 30
0.0
 11
155.0251771225966
 21
529.1006336753879
 31
0.0
  0
LINE
  5
A94
330
A91
100
AcDbEntity
  8
0
 62
     0
100
AcDbLine
 10
160.6377493722039
 20
520.836410996331
 30
0.0
 11
152.3735266931471
 21
529.1006336753879
 31
0.0
  0
LINE
  5
A95
330
A91
100
AcDbEntity
  8
0
 62
     0
100
AcDbLine
 10
160.6377493722039
 20
518.1847605668815
 30
0.0
 11
149.7218762636975
 21
529.1006336753879
 31
0.0
  0
LINE
  5
A96
330
A91
100
AcDbEntity
  8
0
 62
     0
100
AcDbLine
 10
160.6377493722039
 20
515.5331101374319
 30
0.0
 11
147.8539488152347
 21
528.3169106944012
 31
0.0
  0
LINE
  5
A97
330
A91
100
AcDbEntity
  8
0
 62
     0
100
AcDbLine
 10
160.6377493722039
 20
512.8814597079824
 30
0.0
 11
148.8641013597869
 21
524.6551077203994
 31
0.0
  0
LINE
  5
A98
330
A91
100
AcDbEntity
  8
0
 62
     0
100
AcDbLine
 10
160.6377493722039
 20
510.2298092785328
 30
0.0
 11
149.8742539043391
 21
520.9933047463977
 31
0.0
  0
LINE
  5
A99
330
A91
100
AcDbEntity
  8
0
 62
     0
100
AcDbLine
 10
160.6377493722039
 20
507.5781588490833
 30
0.0
 11
150.8844064488913
 21
517.3315017723959
 31
0.0
  0
LINE
  5
A9A
330
A91
100
AcDbEntity
  8
0
 62
     0
100
AcDbLine
 10
160.6377493722039
 20
504.9265084196338
 30
0.0
 11
151.8945589934435
 21
513.6696987983943
 31
0.0
  0
LINE
  5
A9B
330
A91
100
AcDbEntity
  8
0
 62
     0
100
AcDbLine
 10
160.6377493722039
 20
502.2748579901842
 30
0.0
 11
152.9047115379957
 21
510.0078958243924
 31
0.0
  0
LINE
  5
A9C
330
A91
100
AcDbEntity
  8
0
 62
     0
100
AcDbLine
 10
160.1603232575507
 20
500.1006336753879
 30
0.0
 11
153.9148640825479
 21
506.3460928503907
 31
0.0
  0
LINE
  5
A9D
330
A91
100
AcDbEntity
  8
0
 62
     0
100
AcDbLine
 10
157.5086728281011
 20
500.1006336753879
 30
0.0
 11
154.9250166271001
 21
502.684289876389
 31
0.0
  0
LINE
  5
A9E
330
A91
100
AcDbEntity
  8
0
 62
     0
100
AcDbLine
 10
263.5746900060833
 20
500.1006336753879
 30
0.0
 11
262.6377493722037
 21
501.0375743092675
 31
0.0
  0
LINE
  5
A9F
330
A91
100
AcDbEntity
  8
0
 62
     0
100
AcDbLine
 10
266.2263404355329
 20
500.1006336753879
 30
0.0
 11
262.6377493722037
 21
503.6892247387171
 31
0.0
  0
LINE
  5
AA0
330
A91
100
AcDbEntity
  8
0
 62
     0
100
AcDbLine
 10
267.905909694967
 20
501.0727148454034
 30
0.0
 11
262.6377493722037
 21
506.3408751681666
 31
0.0
  0
LINE
  5
AA1
330
A91
100
AcDbEntity
  8
0
 62
     0
100
AcDbLine
 10
268.4792395175506
 20
503.1510354522692
 30
0.0
 11
262.6377493722037
 21
508.9925255976162
 31
0.0
  0
LINE
  5
AA2
330
A91
100
AcDbEntity
  8
0
 62
     0
100
AcDbLine
 10
269.0525693401343
 20
505.2293560591351
 30
0.0
 11
262.6377493722037
 21
511.6441760270657
 31
0.0
  0
LINE
  5
AA3
330
A91
100
AcDbEntity
  8
0
 62
     0
100
AcDbLine
 10
269.625899162718
 20
507.307676666001
 30
0.0
 11
262.6377493722037
 21
514.2958264565153
 31
0.0
  0
LINE
  5
AA4
330
A91
100
AcDbEntity
  8
0
 62
     0
100
AcDbLine
 10
270.1992289853016
 20
509.3859972728669
 30
0.0
 11
262.6377493722037
 21
516.9474768859648
 31
0.0
  0
LINE
  5
AA5
330
A91
100
AcDbEntity
  8
0
 62
     0
100
AcDbLine
 10
270.7725588078853
 20
511.4643178797328
 30
0.0
 11
262.6377493722037
 21
519.5991273154143
 31
0.0
  0
LINE
  5
AA6
330
A91
100
AcDbEntity
  8
0
 62
     0
100
AcDbLine
 10
271.345888630469
 20
513.5426384865986
 30
0.0
 11
262.6377493722037
 21
522.2507777448639
 31
0.0
  0
LINE
  5
AA7
330
A91
100
AcDbEntity
  8
0
 62
     0
100
AcDbLine
 10
271.9192184530527
 20
515.6209590934645
 30
0.0
 11
262.6377493722037
 21
524.9024281743134
 31
0.0
  0
LINE
  5
AA8
330
A91
100
AcDbEntity
  8
0
 62
     0
100
AcDbLine
 10
272.4925482756364
 20
517.6992797003304
 30
0.0
 11
263.8647400940869
 21
526.3270878818798
 31
0.0
  0
LINE
  5
AA9
330
A91
100
AcDbEntity
  8
0
 62
     0
100
AcDbLine
 10
273.0658780982201
 20
519.7776003071963
 30
0.0
 11
265.3589993538046
 21
527.4844790516117
 31
0.0
  0
LINE
  5
AAA
330
A91
100
AcDbEntity
  8
0
 62
     0
100
AcDbLine
 10
273.6392079208037
 20
521.8559209140621
 30
0.0
 11
266.3944951594779
 21
529.1006336753879
 31
0.0
  0
LINE
  5
AAB
330
A91
100
AcDbEntity
  8
0
 62
     0
100
AcDbLine
 10
274.2125377433874
 20
523.934241520928
 30
0.0
 11
269.0461455889275
 21
529.1006336753879
 31
0.0
  0
LINE
  5
AAC
330
A91
100
AcDbEntity
  8
0
 62
     0
100
AcDbLine
 10
274.7858675659711
 20
526.0125621277938
 30
0.0
 11
271.697796018377
 21
529.1006336753879
 31
0.0
  0
LINE
  5
AAD
330
A91
100
AcDbEntity
  8
0
 62
     0
100
AcDbLine
 10
275.3591973885548
 20
528.0908827346597
 30
0.0
 11
274.3494464478266
 21
529.1006336753879
 31
0.0
  0
LINE
  5
AAE
330
A91
100
AcDbEntity
  8
0
 62
     0
100
AcDbLine
 10
262.6377493722037
 20
525.1511418877093
 30
0.0
 11
263.7694666925963
 21
526.282859208102
 31
0.0
  0
LINE
  5
AAF
330
A91
100
AcDbEntity
  8
0
 62
     0
100
AcDbLine
 10
266.0147778291666
 20
528.5281703446724
 30
0.0
 11
266.5872411598822
 21
529.1006336753879
 31
0.0
  0
LINE
  5
AB0
330
A91
100
AcDbEntity
  8
0
 62
     0
100
AcDbLine
 10
262.6377493722037
 20
522.4994914582598
 30
0.0
 11
269.2388915893318
 21
529.1006336753879
 31
0.0
  0
LINE
  5
AB1
330
A91
100
AcDbEntity
  8
0
 62
     0
100
AcDbLine
 10
262.6377493722037
 20
519.8478410288102
 30
0.0
 11
271.8905420187813
 21
529.1006336753879
 31
0.0
  0
LINE
  5
AB2
330
A91
100
AcDbEntity
  8
0
 62
     0
100
AcDbLine
 10
262.6377493722037
 20
517.1961905993607
 30
0.0
 11
274.5421924482309
 21
529.1006336753879
 31
0.0
  0
LINE
  5
AB3
330
A91
100
AcDbEntity
  8
0
 62
     0
100
AcDbLine
 10
262.6377493722037
 20
514.5445401699112
 30
0.0
 11
275.0449518463081
 21
526.9517426440156
 31
0.0
  0
LINE
  5
AB4
330
A91
100
AcDbEntity
  8
0
 62
     0
100
AcDbLine
 10
262.6377493722037
 20
511.8928897404616
 30
0.0
 11
274.0347993017559
 21
523.289939670014
 31
0.0
  0
LINE
  5
AB5
330
A91
100
AcDbEntity
  8
0
 62
     0
100
AcDbLine
 10
262.6377493722037
 20
509.2412393110121
 30
0.0
 11
273.0246467572038
 21
519.6281366960122
 31
0.0
  0
LINE
  5
AB6
330
A91
100
AcDbEntity
  8
0
 62
     0
100
AcDbLine
 10
262.6377493722037
 20
506.5895888815625
 30
0.0
 11
272.0144942126516
 21
515.9663337220104
 31
0.0
  0
LINE
  5
AB7
330
A91
100
AcDbEntity
  8
0
 62
     0
100
AcDbLine
 10
262.6377493722037
 20
503.937938452113
 30
0.0
 11
271.0043416680993
 21
512.3045307480087
 31
0.0
  0
LINE
  5
AB8
330
A91
100
AcDbEntity
  8
0
 62
     0
100
AcDbLine
 10
262.6377493722037
 20
501.2862880226633
 30
0.0
 11
269.9941891235472
 21
508.6427277740069
 31
0.0
  0
LINE
  5
AB9
330
A91
100
AcDbEntity
  8
0
 62
     0
100
AcDbLine
 10
264.1037454543778
 20
500.1006336753879
 30
0.0
 11
268.984036578995
 21
504.9809248000052
 31
0.0
  0
LINE
  5
ABA
330
A91
100
AcDbEntity
  8
0
 62
     0
100
AcDbLine
 10
266.7553958838273
 20
500.1006336753879
 30
0.0
 11
267.9738840344428
 21
501.3191218260034
 31
0.0
  0
LINE
  5
ABB
330
A91
100
AcDbEntity
  8
0
 62
     0
100
AcDbLine
 10
158.0377282763956
 20
500.1006336753879
 30
0.0
 11
160.6377493722039
 21
502.7006547711962
 31
0.0
  0
LINE
  5
ABC
330
A91
100
AcDbEntity
  8
0
 62
     0
100
AcDbLine
 10
155.5833339072832
 20
500.2978897357251
 30
0.0
 11
160.6377493722039
 21
505.3523052006458
 31
0.0
  0
LINE
  5
ABD
330
A91
100
AcDbEntity
  8
0
 62
     0
100
AcDbLine
 10
155.0100040846995
 20
502.376210342591
 30
0.0
 11
160.6377493722039
 21
508.0039556300953
 31
0.0
  0
LINE
  5
ABE
330
A91
100
AcDbEntity
  8
0
 62
     0
100
AcDbLine
 10
154.4366742621158
 20
504.4545309494568
 30
0.0
 11
160.6377493722039
 21
510.6556060595448
 31
0.0
  0
LINE
  5
ABF
330
A91
100
AcDbEntity
  8
0
 62
     0
100
AcDbLine
 10
153.8633444395322
 20
506.5328515563227
 30
0.0
 11
160.6377493722039
 21
513.3072564889944
 31
0.0
  0
LINE
  5
AC0
330
A91
100
AcDbEntity
  8
0
 62
     0
100
AcDbLine
 10
153.2900146169485
 20
508.6111721631886
 30
0.0
 11
160.6377493722039
 21
515.9589069184439
 31
0.0
  0
LINE
  5
AC1
330
A91
100
AcDbEntity
  8
0
 62
     0
100
AcDbLine
 10
152.7166847943648
 20
510.6894927700544
 30
0.0
 11
160.6377493722039
 21
518.6105573478934
 31
0.0
  0
LINE
  5
AC2
330
A91
100
AcDbEntity
  8
0
 62
     0
100
AcDbLine
 10
152.1433549717811
 20
512.7678133769203
 30
0.0
 11
160.6377493722039
 21
521.262207777343
 31
0.0
  0
LINE
  5
AC3
330
A91
100
AcDbEntity
  8
0
 62
     0
100
AcDbLine
 10
151.5700251491975
 20
514.8461339837862
 30
0.0
 11
160.6377493722039
 21
523.9138582067925
 31
0.0
  0
LINE
  5
AC4
330
A91
100
AcDbEntity
  8
0
 62
     0
100
AcDbLine
 10
150.9966953266137
 20
516.924454590652
 30
0.0
 11
160.1286482691929
 21
526.0564075332313
 31
0.0
  0
LINE
  5
AC5
330
A91
100
AcDbEntity
  8
0
 62
     0
100
AcDbLine
 10
150.4233655040301
 20
519.0027751975179
 30
0.0
 11
158.406747120117
 21
526.9861568136049
 31
0.0
  0
LINE
  5
AC6
330
A91
100
AcDbEntity
  8
0
 62
     0
100
AcDbLine
 10
149.8500356814464
 20
521.0810958043838
 30
0.0
 11
157.2720787686078
 21
528.5031388915451
 31
0.0
  0
LINE
  5
AC7
330
A91
100
AcDbEntity
  8
0
 62
     0
100
AcDbLine
 10
149.2767058588627
 20
523.1594164112497
 30
0.0
 11
155.217923123001
 21
529.1006336753879
 31
0.0
  0
LINE
  5
AC8
330
A91
100
AcDbEntity
  8
0
 62
     0
100
AcDbLine
 10
148.703376036279
 20
525.2377370181156
 30
0.0
 11
152.5662726935514
 21
529.1006336753879
 31
0.0
  0
LINE
  5
AC9
330
A91
100
AcDbEntity
  8
0
 62
     0
100
AcDbLine
 10
148.1300462136954
 20
527.3160576249814
 30
0.0
 11
149.9146222641019
 21
529.1006336753879
 31
0.0
  0
ENDBLK
  5
ACA
330
A91
100
AcDbEntity
  8
0
100
AcDbBlockEnd
  0
BLOCK
  5
ACC
330
ACB
100
AcDbEntity
  8
0
100
AcDbBlockBegin
  2
*X5
 70
     1
 10
0.0
 20
0.0
 30
0.0
  3
*X5
  1

  0
LINE
  5
ACD
330
ACB
100
AcDbEntity
  8
0
 62
     0
100
AcDbLine
 10
596.9762789692547
 20
413.1285158607523
 30
0.0
 11
597.8778715461548
 21
414.0301084376526
 31
0.0
  0
LINE
  5
ACE
330
ACB
100
AcDbEntity
  8
0
 62
     0
100
AcDbLine
 10
593.4407450633219
 20
413.1285158607523
 30
0.0
 11
595.3657450633208
 21
415.0535158607512
 31
0.0
  0
LINE
  5
ACF
330
ACB
100
AcDbEntity
  8
0
 62
     0
100
AcDbLine
 10
589.9052111573892
 20
413.1285158607523
 30
0.0
 11
591.8302111573881
 21
415.0535158607512
 31
0.0
  0
LINE
  5
AD0
330
ACB
100
AcDbEntity
  8
0
 62
     0
100
AcDbLine
 10
596.830211157389
 20
420.0535158607522
 30
0.0
 11
596.8544641230562
 21
420.0777688264193
 31
0.0
  0
LINE
  5
AD1
330
ACB
100
AcDbEntity
  8
0
 62
     0
100
AcDbLine
 10
586.3696772514564
 20
413.1285158607523
 30
0.0
 11
588.2946772514554
 21
415.0535158607512
 31
0.0
  0
LINE
  5
AD2
330
ACB
100
AcDbEntity
  8
0
 62
     0
100
AcDbLine
 10
593.2946772514563
 20
420.0535158607522
 30
0.0
 11
596.8544641230562
 21
423.613302732352
 31
0.0
  0
LINE
  5
AD3
330
ACB
100
AcDbEntity
  8
0
 62
     0
100
AcDbLine
 10
582.8341433455237
 20
413.1285158607523
 30
0.0
 11
584.7591433455225
 21
415.0535158607512
 31
0.0
  0
LINE
  5
AD4
330
ACB
100
AcDbEntity
  8
0
 62
     0
100
AcDbLine
 10
589.7591433455236
 20
420.0535158607522
 30
0.0
 11
596.8544641230562
 21
427.1488366382848
 31
0.0
  0
LINE
  5
AD5
330
ACB
100
AcDbEntity
  8
0
 62
     0
100
AcDbLine
 10
579.298609439591
 20
413.1285158607523
 30
0.0
 11
581.2236094395899
 21
415.0535158607512
 31
0.0
  0
LINE
  5
AD6
330
ACB
100
AcDbEntity
  8
0
 62
     0
100
AcDbLine
 10
593.3544641230558
 20
427.1843705442172
 30
0.0
 11
596.2236094395911
 21
430.0535158607523
 31
0.0
  0
LINE
  5
AD7
330
ACB
100
AcDbEntity
  8
0
 62
     0
100
AcDbLine
 10
586.2236094395909
 20
420.0535158607522
 30
0.0
 11
591.2236094395909
 21
425.0535158607523
 31
0.0
  0
LINE
  5
AD8
330
ACB
100
AcDbEntity
  8
0
 62
     0
100
AcDbLine
 10
575.7630755336582
 20
413.1285158607523
 30
0.0
 11
579.8544641230562
 21
417.2199044501502
 31
0.0
  0
LINE
  5
AD9
330
ACB
100
AcDbEntity
  8
0
 62
     0
100
AcDbLine
 10
582.688075533658
 20
420.0535158607522
 30
0.0
 11
587.6880755336582
 21
425.0535158607523
 31
0.0
  0
LINE
  5
ADA
330
ACB
100
AcDbEntity
  8
0
 62
     0
100
AcDbLine
 10
574.3544641230562
 20
415.255438356083
 30
0.0
 11
584.1525416277254
 21
425.0535158607523
 31
0.0
  0
LINE
  5
ADB
330
ACB
100
AcDbEntity
  8
0
 62
     0
100
AcDbLine
 10
574.3544641230562
 20
418.7909722620157
 30
0.0
 11
575.1170077217928
 21
419.5535158607523
 31
0.0
  0
LINE
  5
ADC
330
ACB
100
AcDbEntity
  8
0
 62
     0
100
AcDbLine
 10
576.3544641230562
 20
420.7909722620157
 30
0.0
 11
580.6170077217927
 21
425.0535158607523
 31
0.0
  0
LINE
  5
ADD
330
ACB
100
AcDbEntity
  8
0
 62
     0
100
AcDbLine
 10
576.3544641230562
 20
424.3265061679485
 30
0.0
 11
577.08147381586
 21
425.0535158607523
 31
0.0
  0
LINE
  5
ADE
330
ACB
100
AcDbEntity
  8
0
 62
     0
100
AcDbLine
 10
574.3544641230562
 20
295.04728555437
 30
0.0
 11
576.2856944294384
 21
296.9785158607522
 31
0.0
  0
LINE
  5
ADF
330
ACB
100
AcDbEntity
  8
0
 62
     0
100
AcDbLine
 10
574.3544641230562
 20
291.5117516484373
 30
0.0
 11
579.8212283353712
 21
296.9785158607522
 31
0.0
  0
LINE
  5
AE0
330
ACB
100
AcDbEntity
  8
0
 62
     0
100
AcDbLine
 10
576.3544641230562
 20
289.9762177425044
 30
0.0
 11
579.8544641230562
 21
293.4762177425045
 31
0.0
  0
LINE
  5
AE1
330
ACB
100
AcDbEntity
  8
0
 62
     0
100
AcDbLine
 10
581.4317622413051
 20
295.0535158607534
 30
0.0
 11
583.3567622413039
 21
296.9785158607522
 31
0.0
  0
LINE
  5
AE2
330
ACB
100
AcDbEntity
  8
0
 62
     0
100
AcDbLine
 10
576.3544641230562
 20
286.4406838365717
 30
0.0
 11
579.8544641230562
 21
289.9406838365717
 31
0.0
  0
LINE
  5
AE3
330
ACB
100
AcDbEntity
  8
0
 62
     0
100
AcDbLine
 10
584.9672961472378
 20
295.0535158607533
 30
0.0
 11
586.8922961472367
 21
296.9785158607522
 31
0.0
  0
LINE
  5
AE4
330
ACB
100
AcDbEntity
  8
0
 62
     0
100
AcDbLine
 10
576.3544641230562
 20
282.905149930639
 30
0.0
 11
579.8544641230562
 21
286.405149930639
 31
0.0
  0
LINE
  5
AE5
330
ACB
100
AcDbEntity
  8
0
 62
     0
100
AcDbLine
 10
588.5028300531705
 20
295.0535158607533
 30
0.0
 11
590.4278300531693
 21
296.9785158607522
 31
0.0
  0
LINE
  5
AE6
330
ACB
100
AcDbEntity
  8
0
 62
     0
100
AcDbLine
 10
577.0383639591023
 20
280.0535158607523
 30
0.0
 11
582.0383639591023
 21
285.0535158607523
 31
0.0
  0
LINE
  5
AE7
330
ACB
100
AcDbEntity
  8
0
 62
     0
100
AcDbLine
 10
592.0383639591031
 20
295.0535158607533
 30
0.0
 11
593.9633639591021
 21
296.9785158607522
 31
0.0
  0
LINE
  5
AE8
330
ACB
100
AcDbEntity
  8
0
 62
     0
100
AcDbLine
 10
580.573897865035
 20
280.0535158607523
 30
0.0
 11
585.573897865035
 21
285.0535158607523
 31
0.0
  0
LINE
  5
AE9
330
ACB
100
AcDbEntity
  8
0
 62
     0
100
AcDbLine
 10
595.573897865036
 20
295.0535158607532
 30
0.0
 11
597.4988978650348
 21
296.9785158607522
 31
0.0
  0
LINE
  5
AEA
330
ACB
100
AcDbEntity
  8
0
 62
     0
100
AcDbLine
 10
584.1094317709677
 20
280.0535158607523
 30
0.0
 11
589.1094317709677
 21
285.0535158607523
 31
0.0
  0
LINE
  5
AEB
330
ACB
100
AcDbEntity
  8
0
 62
     0
100
AcDbLine
 10
587.6449656769004
 20
280.0535158607523
 30
0.0
 11
592.6449656769005
 21
285.0535158607523
 31
0.0
  0
LINE
  5
AEC
330
ACB
100
AcDbEntity
  8
0
 62
     0
100
AcDbLine
 10
591.1804995828332
 20
280.0535158607523
 30
0.0
 11
596.1804995828332
 21
285.0535158607523
 31
0.0
  0
LINE
  5
AED
330
ACB
100
AcDbEntity
  8
0
 62
     0
100
AcDbLine
 10
594.716033488766
 20
280.0535158607523
 30
0.0
 11
596.8544641230562
 21
282.1919464950426
 31
0.0
  0
LINE
  5
AEE
330
ACB
100
AcDbEntity
  8
0
 62
     0
100
AcDbLine
 10
598.1455132316426
 20
296.3445649693399
 30
0.0
 11
597.5115623402301
 21
296.9785158607522
 31
0.0
  0
LINE
  5
AEF
330
ACB
100
AcDbEntity
  8
0
 62
     0
100
AcDbLine
 10
595.9010284342965
 20
295.0535158607532
 30
0.0
 11
593.9760284342975
 21
296.9785158607522
 31
0.0
  0
LINE
  5
AF0
330
ACB
100
AcDbEntity
  8
0
 62
     0
100
AcDbLine
 10
592.3654945283638
 20
295.0535158607532
 30
0.0
 11
590.4404945283647
 21
296.9785158607522
 31
0.0
  0
LINE
  5
AF1
330
ACB
100
AcDbEntity
  8
0
 62
     0
100
AcDbLine
 10
588.829960622431
 20
295.0535158607532
 30
0.0
 11
586.904960622432
 21
296.9785158607522
 31
0.0
  0
LINE
  5
AF2
330
ACB
100
AcDbEntity
  8
0
 62
     0
100
AcDbLine
 10
596.8544641230562
 20
283.4934784541953
 30
0.0
 11
595.2944267164991
 21
285.0535158607523
 31
0.0
  0
LINE
  5
AF3
330
ACB
100
AcDbEntity
  8
0
 62
     0
100
AcDbLine
 10
585.2944267164982
 20
295.0535158607533
 30
0.0
 11
583.3694267164992
 21
296.9785158607522
 31
0.0
  0
LINE
  5
AF4
330
ACB
100
AcDbEntity
  8
0
 62
     0
100
AcDbLine
 10
596.7588928105665
 20
280.0535158607523
 30
0.0
 11
591.7588928105665
 21
285.0535158607523
 31
0.0
  0
LINE
  5
AF5
330
ACB
100
AcDbEntity
  8
0
 62
     0
100
AcDbLine
 10
581.7588928105655
 20
295.0535158607533
 30
0.0
 11
579.8338928105665
 21
296.9785158607522
 31
0.0
  0
LINE
  5
AF6
330
ACB
100
AcDbEntity
  8
0
 62
     0
100
AcDbLine
 10
593.2233589046338
 20
280.0535158607523
 30
0.0
 11
588.2233589046337
 21
285.0535158607523
 31
0.0
  0
LINE
  5
AF7
330
ACB
100
AcDbEntity
  8
0
 62
     0
100
AcDbLine
 10
579.8544641230562
 20
293.4224106423299
 30
0.0
 11
576.2983589046338
 21
296.9785158607522
 31
0.0
  0
LINE
  5
AF8
330
ACB
100
AcDbEntity
  8
0
 62
     0
100
AcDbLine
 10
589.687824998701
 20
280.0535158607523
 30
0.0
 11
584.687824998701
 21
285.0535158607523
 31
0.0
  0
LINE
  5
AF9
330
ACB
100
AcDbEntity
  8
0
 62
     0
100
AcDbLine
 10
579.8544641230562
 20
289.8868767363971
 30
0.0
 11
574.3544641230562
 21
295.3868767363971
 31
0.0
  0
LINE
  5
AFA
330
ACB
100
AcDbEntity
  8
0
 62
     0
100
AcDbLine
 10
586.1522910927683
 20
280.0535158607523
 30
0.0
 11
581.1522910927682
 21
285.0535158607523
 31
0.0
  0
LINE
  5
AFB
330
ACB
100
AcDbEntity
  8
0
 62
     0
100
AcDbLine
 10
575.6522910927683
 20
290.5535158607523
 30
0.0
 11
574.3544641230562
 21
291.8513428304644
 31
0.0
  0
LINE
  5
AFC
330
ACB
100
AcDbEntity
  8
0
 62
     0
100
AcDbLine
 10
579.8544641230562
 20
286.3513428304644
 30
0.0
 11
576.3544641230562
 21
289.8513428304644
 31
0.0
  0
LINE
  5
AFD
330
ACB
100
AcDbEntity
  8
0
 62
     0
100
AcDbLine
 10
582.6167571868356
 20
280.0535158607523
 30
0.0
 11
576.3544641230562
 21
286.3158089245317
 31
0.0
  0
LINE
  5
AFE
330
ACB
100
AcDbEntity
  8
0
 62
     0
100
AcDbLine
 10
579.0812232809029
 20
280.0535158607523
 30
0.0
 11
576.3544641230562
 21
282.7802750185989
 31
0.0
  0
LINE
  5
AFF
330
ACB
100
AcDbEntity
  8
0
 62
     0
100
AcDbLine
 10
576.8209778004141
 20
413.1285158607523
 30
0.0
 11
574.3544641230562
 21
415.5950295381102
 31
0.0
  0
LINE
  5
B00
330
ACB
100
AcDbEntity
  8
0
 62
     0
100
AcDbLine
 10
580.3565117063469
 20
413.1285158607523
 30
0.0
 11
574.3544641230562
 21
419.1305634440429
 31
0.0
  0
LINE
  5
B01
330
ACB
100
AcDbEntity
  8
0
 62
     0
100
AcDbLine
 10
583.8920456122796
 20
413.1285158607523
 30
0.0
 11
581.9670456122806
 21
415.0535158607512
 31
0.0
  0
LINE
  5
B02
330
ACB
100
AcDbEntity
  8
0
 62
     0
100
AcDbLine
 10
579.8544641230562
 20
417.1660973499757
 30
0.0
 11
576.3544641230562
 21
420.6660973499757
 31
0.0
  0
LINE
  5
B03
330
ACB
100
AcDbEntity
  8
0
 62
     0
100
AcDbLine
 10
587.4275795182123
 20
413.1285158607523
 30
0.0
 11
585.5025795182133
 21
415.0535158607512
 31
0.0
  0
LINE
  5
B04
330
ACB
100
AcDbEntity
  8
0
 62
     0
100
AcDbLine
 10
580.5025795182124
 20
420.0535158607522
 30
0.0
 11
576.3544641230562
 21
424.2016312559084
 31
0.0
  0
LINE
  5
B05
330
ACB
100
AcDbEntity
  8
0
 62
     0
100
AcDbLine
 10
590.963113424145
 20
413.1285158607523
 30
0.0
 11
589.0381134241461
 21
415.0535158607512
 31
0.0
  0
LINE
  5
B06
330
ACB
100
AcDbEntity
  8
0
 62
     0
100
AcDbLine
 10
584.0381134241452
 20
420.0535158607522
 30
0.0
 11
579.038113424145
 21
425.0535158607523
 31
0.0
  0
LINE
  5
B07
330
ACB
100
AcDbEntity
  8
0
 62
     0
100
AcDbLine
 10
594.4986473300778
 20
413.1285158607524
 30
0.0
 11
592.5736473300788
 21
415.0535158607512
 31
0.0
  0
LINE
  5
B08
330
ACB
100
AcDbEntity
  8
0
 62
     0
100
AcDbLine
 10
587.5736473300778
 20
420.0535158607522
 30
0.0
 11
582.5736473300778
 21
425.0535158607523
 31
0.0
  0
LINE
  5
B09
330
ACB
100
AcDbEntity
  8
0
 62
     0
100
AcDbLine
 10
598.0341812360105
 20
413.1285158607524
 30
0.0
 11
596.1091812360116
 21
415.0535158607512
 31
0.0
  0
LINE
  5
B0A
330
ACB
100
AcDbEntity
  8
0
 62
     0
100
AcDbLine
 10
591.1091812360106
 20
420.0535158607522
 30
0.0
 11
586.1091812360105
 21
425.0535158607523
 31
0.0
  0
LINE
  5
B0B
330
ACB
100
AcDbEntity
  8
0
 62
     0
100
AcDbLine
 10
594.6447151419433
 20
420.0535158607522
 30
0.0
 11
589.6447151419432
 21
425.0535158607523
 31
0.0
  0
LINE
  5
B0C
330
ACB
100
AcDbEntity
  8
0
 62
     0
100
AcDbLine
 10
596.8544641230562
 20
421.3793007855721
 30
0.0
 11
593.180249047876
 21
425.0535158607523
 31
0.0
  0
LINE
  5
B0D
330
ACB
100
AcDbEntity
  8
0
 62
     0
100
AcDbLine
 10
596.8544641230562
 20
424.9148346915048
 30
0.0
 11
593.354464123056
 21
428.414834691505
 31
0.0
  0
LINE
  5
B0E
330
ACB
100
AcDbEntity
  8
0
 62
     0
100
AcDbLine
 10
596.8544641230562
 20
428.4503685974375
 30
0.0
 11
595.2513168597415
 21
430.0535158607523
 31
0.0
  0
ENDBLK
  5
B0F
330
ACB
100
AcDbEntity
  8
0
100
AcDbBlockEnd
  0
BLOCK
  5
B11
330
B10
100
AcDbEntity
  8
0
100
AcDbBlockBegin
  2
*X6
 70
     1
 10
0.0
 20
0.0
 30
0.0
  3
*X6
  1

  0
LINE
  5
B12
330
B10
100
AcDbEntity
  8
0
 62
     0
100
AcDbLine
 10
303.3906355493673
 20
303.3906355493673
 30
0.0
 11
305.3906355493674
 21
305.3906355493674
 31
0.0
  0
LINE
  5
B13
330
B10
100
AcDbEntity
  8
0
 62
     0
100
AcDbLine
 10
403.390635549367
 20
403.390635549367
 30
0.0
 11
405.3906355493669
 21
405.3906355493669
 31
0.0
  0
LINE
  5
B14
330
B10
100
AcDbEntity
  8
0
 62
     0
100
AcDbLine
 10
300.5622084246212
 20
303.3906355493673
 30
0.0
 11
302.5622084246212
 21
305.3906355493674
 31
0.0
  0
LINE
  5
B15
330
B10
100
AcDbEntity
  8
0
 62
     0
100
AcDbLine
 10
400.5622084246208
 20
403.390635549367
 30
0.0
 11
402.5622084246207
 21
405.3906355493669
 31
0.0
  0
LINE
  5
B16
330
B10
100
AcDbEntity
  8
0
 62
     0
100
AcDbLine
 10
297.7337812998749
 20
303.3906355493673
 30
0.0
 11
299.733781299875
 21
305.3906355493674
 31
0.0
  0
LINE
  5
B17
330
B10
100
AcDbEntity
  8
0
 62
     0
100
AcDbLine
 10
397.7337812998747
 20
403.390635549367
 30
0.0
 11
399.7337812998746
 21
405.390635549367
 31
0.0
  0
LINE
  5
B18
330
B10
100
AcDbEntity
  8
0
 62
     0
100
AcDbLine
 10
294.9053541751287
 20
303.3906355493673
 30
0.0
 11
296.9053541751287
 21
305.3906355493674
 31
0.0
  0
LINE
  5
B19
330
B10
100
AcDbEntity
  8
0
 62
     0
100
AcDbLine
 10
394.9053541751285
 20
403.390635549367
 30
0.0
 11
396.9053541751284
 21
405.390635549367
 31
0.0
  0
LINE
  5
B1A
330
B10
100
AcDbEntity
  8
0
 62
     0
100
AcDbLine
 10
292.0769270503825
 20
303.3906355493673
 30
0.0
 11
294.0769270503826
 21
305.3906355493674
 31
0.0
  0
LINE
  5
B1B
330
B10
100
AcDbEntity
  8
0
 62
     0
100
AcDbLine
 10
392.0769270503823
 20
403.390635549367
 30
0.0
 11
394.0769270503823
 21
405.390635549367
 31
0.0
  0
LINE
  5
B1C
330
B10
100
AcDbEntity
  8
0
 62
     0
100
AcDbLine
 10
289.2484999256364
 20
303.3906355493673
 30
0.0
 11
291.2484999256364
 21
305.3906355493674
 31
0.0
  0
LINE
  5
B1D
330
B10
100
AcDbEntity
  8
0
 62
     0
100
AcDbLine
 10
389.2484999256361
 20
403.390635549367
 30
0.0
 11
391.2484999256361
 21
405.390635549367
 31
0.0
  0
LINE
  5
B1E
330
B10
100
AcDbEntity
  8
0
 62
     0
100
AcDbLine
 10
286.4200728008902
 20
303.3906355493673
 30
0.0
 11
288.4200728008902
 21
305.3906355493674
 31
0.0
  0
LINE
  5
B1F
330
B10
100
AcDbEntity
  8
0
 62
     0
100
AcDbLine
 10
386.5717393738377
 20
403.5423021223149
 30
0.0
 11
388.4200728008899
 21
405.390635549367
 31
0.0
  0
LINE
  5
B20
330
B10
100
AcDbEntity
  8
0
 62
     0
100
AcDbLine
 10
283.591645676144
 20
303.3906355493673
 30
0.0
 11
285.591645676144
 21
305.3906355493674
 31
0.0
  0
LINE
  5
B21
330
B10
100
AcDbEntity
  8
0
 62
     0
100
AcDbLine
 10
385.3447993802637
 20
405.143789253487
 30
0.0
 11
385.5916456761437
 21
405.390635549367
 31
0.0
  0
LINE
  5
B22
330
B10
100
AcDbEntity
  8
0
 62
     0
100
AcDbLine
 10
280.7632185513977
 20
303.3906355493673
 30
0.0
 11
282.7632185513978
 21
305.3906355493674
 31
0.0
  0
LINE
  5
B23
330
B10
100
AcDbEntity
  8
0
 62
     0
100
AcDbLine
 10
380.7632185513976
 20
403.390635549367
 30
0.0
 11
380.8957849532003
 21
403.5232019511697
 31
0.0
  0
LINE
  5
B24
330
B10
100
AcDbEntity
  8
0
 62
     0
100
AcDbLine
 10
277.9347914266516
 20
303.3906355493673
 30
0.0
 11
279.9347914266517
 21
305.3906355493674
 31
0.0
  0
LINE
  5
B25
330
B10
100
AcDbEntity
  8
0
 62
     0
100
AcDbLine
 10
377.9347914266514
 20
403.390635549367
 30
0.0
 11
379.6693971542012
 21
405.1252412769168
 31
0.0
  0
LINE
  5
B26
330
B10
100
AcDbEntity
  8
0
 62
     0
100
AcDbLine
 10
275.1063643019054
 20
303.3906355493673
 30
0.0
 11
277.1063643019054
 21
305.3906355493674
 31
0.0
  0
LINE
  5
B27
330
B10
100
AcDbEntity
  8
0
 62
     0
100
AcDbLine
 10
375.1063643019052
 20
403.390635549367
 30
0.0
 11
377.1063643019051
 21
405.390635549367
 31
0.0
  0
LINE
  5
B28
330
B10
100
AcDbEntity
  8
0
 62
     0
100
AcDbLine
 10
272.2779371771592
 20
303.3906355493673
 30
0.0
 11
274.2779371771593
 21
305.3906355493674
 31
0.0
  0
LINE
  5
B29
330
B10
100
AcDbEntity
  8
0
 62
     0
100
AcDbLine
 10
372.277937177159
 20
403.390635549367
 30
0.0
 11
374.277937177159
 21
405.390635549367
 31
0.0
  0
LINE
  5
B2A
330
B10
100
AcDbEntity
  8
0
 62
     0
100
AcDbLine
 10
269.449510052413
 20
303.3906355493673
 30
0.0
 11
271.4495100524131
 21
305.3906355493674
 31
0.0
  0
LINE
  5
B2B
330
B10
100
AcDbEntity
  8
0
 62
     0
100
AcDbLine
 10
369.4495100524128
 20
403.390635549367
 30
0.0
 11
371.4495100524128
 21
405.390635549367
 31
0.0
  0
LINE
  5
B2C
330
B10
100
AcDbEntity
  8
0
 62
     0
100
AcDbLine
 10
266.6210829276668
 20
303.3906355493673
 30
0.0
 11
268.6210829276669
 21
305.3906355493674
 31
0.0
  0
LINE
  5
B2D
330
B10
100
AcDbEntity
  8
0
 62
     0
100
AcDbLine
 10
366.6210829276666
 20
403.390635549367
 30
0.0
 11
368.6210829276666
 21
405.390635549367
 31
0.0
  0
LINE
  5
B2E
330
B10
100
AcDbEntity
  8
0
 62
     0
100
AcDbLine
 10
263.7926558029207
 20
303.3906355493673
 30
0.0
 11
265.7926558029207
 21
305.3906355493674
 31
0.0
  0
LINE
  5
B2F
330
B10
100
AcDbEntity
  8
0
 62
     0
100
AcDbLine
 10
363.7926558029204
 20
403.390635549367
 30
0.0
 11
365.7926558029203
 21
405.390635549367
 31
0.0
  0
LINE
  5
B30
330
B10
100
AcDbEntity
  8
0
 62
     0
100
AcDbLine
 10
260.9642286781745
 20
303.3906355493673
 30
0.0
 11
262.9642286781745
 21
305.3906355493674
 31
0.0
  0
LINE
  5
B31
330
B10
100
AcDbEntity
  8
0
 62
     0
100
AcDbLine
 10
360.9642286781743
 20
403.390635549367
 30
0.0
 11
362.9642286781742
 21
405.390635549367
 31
0.0
  0
LINE
  5
B32
330
B10
100
AcDbEntity
  8
0
 62
     0
100
AcDbLine
 10
258.1358015534283
 20
303.3906355493673
 30
0.0
 11
260.1358015534283
 21
305.3906355493674
 31
0.0
  0
LINE
  5
B33
330
B10
100
AcDbEntity
  8
0
 62
     0
100
AcDbLine
 10
358.1358015534281
 20
403.390635549367
 30
0.0
 11
360.135801553428
 21
405.390635549367
 31
0.0
  0
LINE
  5
B34
330
B10
100
AcDbEntity
  8
0
 62
     0
100
AcDbLine
 10
255.307374428682
 20
303.3906355493673
 30
0.0
 11
257.3073744286821
 21
305.3906355493674
 31
0.0
  0
LINE
  5
B35
330
B10
100
AcDbEntity
  8
0
 62
     0
100
AcDbLine
 10
355.3073744286819
 20
403.390635549367
 30
0.0
 11
357.3073744286818
 21
405.390635549367
 31
0.0
  0
LINE
  5
B36
330
B10
100
AcDbEntity
  8
0
 62
     0
100
AcDbLine
 10
252.4789473039359
 20
303.3906355493673
 30
0.0
 11
254.4789473039359
 21
305.3906355493674
 31
0.0
  0
LINE
  5
B37
330
B10
100
AcDbEntity
  8
0
 62
     0
100
AcDbLine
 10
352.4789473039357
 20
403.390635549367
 30
0.0
 11
354.4789473039356
 21
405.390635549367
 31
0.0
  0
LINE
  5
B38
330
B10
100
AcDbEntity
  8
0
 62
     0
100
AcDbLine
 10
249.6505201791897
 20
303.3906355493673
 30
0.0
 11
251.6505201791897
 21
305.3906355493674
 31
0.0
  0
LINE
  5
B39
330
B10
100
AcDbEntity
  8
0
 62
     0
100
AcDbLine
 10
349.6505201791895
 20
403.390635549367
 30
0.0
 11
351.6505201791894
 21
405.390635549367
 31
0.0
  0
LINE
  5
B3A
330
B10
100
AcDbEntity
  8
0
 62
     0
100
AcDbLine
 10
246.8220930544435
 20
303.3906355493673
 30
0.0
 11
248.8220930544436
 21
305.3906355493674
 31
0.0
  0
LINE
  5
B3B
330
B10
100
AcDbEntity
  8
0
 62
     0
100
AcDbLine
 10
346.8220930544433
 20
403.390635549367
 30
0.0
 11
348.8220930544433
 21
405.390635549367
 31
0.0
  0
LINE
  5
B3C
330
B10
100
AcDbEntity
  8
0
 62
     0
100
AcDbLine
 10
243.9936659296973
 20
303.3906355493673
 30
0.0
 11
245.9936659296974
 21
305.3906355493674
 31
0.0
  0
LINE
  5
B3D
330
B10
100
AcDbEntity
  8
0
 62
     0
100
AcDbLine
 10
343.9936659296971
 20
403.390635549367
 30
0.0
 11
345.9936659296971
 21
405.390635549367
 31
0.0
  0
LINE
  5
B3E
330
B10
100
AcDbEntity
  8
0
 62
     0
100
AcDbLine
 10
241.1652388049511
 20
303.3906355493673
 30
0.0
 11
243.1652388049512
 21
305.3906355493674
 31
0.0
  0
LINE
  5
B3F
330
B10
100
AcDbEntity
  8
0
 62
     0
100
AcDbLine
 10
341.1652388049509
 20
403.390635549367
 30
0.0
 11
343.1652388049509
 21
405.390635549367
 31
0.0
  0
LINE
  5
B40
330
B10
100
AcDbEntity
  8
0
 62
     0
100
AcDbLine
 10
238.3368116802049
 20
303.3906355493673
 30
0.0
 11
240.336811680205
 21
305.3906355493674
 31
0.0
  0
LINE
  5
B41
330
B10
100
AcDbEntity
  8
0
 62
     0
100
AcDbLine
 10
338.3368116802047
 20
403.390635549367
 30
0.0
 11
340.3368116802047
 21
405.390635549367
 31
0.0
  0
LINE
  5
B42
330
B10
100
AcDbEntity
  8
0
 62
     0
100
AcDbLine
 10
235.5083845554588
 20
303.3906355493673
 30
0.0
 11
237.5083845554588
 21
305.3906355493674
 31
0.0
  0
LINE
  5
B43
330
B10
100
AcDbEntity
  8
0
 62
     0
100
AcDbLine
 10
335.5083845554586
 20
403.390635549367
 30
0.0
 11
337.5083845554585
 21
405.390635549367
 31
0.0
  0
LINE
  5
B44
330
B10
100
AcDbEntity
  8
0
 62
     0
100
AcDbLine
 10
232.6799574307125
 20
303.3906355493673
 30
0.0
 11
234.6799574307126
 21
305.3906355493674
 31
0.0
  0
LINE
  5
B45
330
B10
100
AcDbEntity
  8
0
 62
     0
100
AcDbLine
 10
332.6799574307124
 20
403.390635549367
 30
0.0
 11
334.6799574307123
 21
405.390635549367
 31
0.0
  0
LINE
  5
B46
330
B10
100
AcDbEntity
  8
0
 62
     0
100
AcDbLine
 10
229.8515303059664
 20
303.3906355493673
 30
0.0
 11
231.8515303059665
 21
305.3906355493674
 31
0.0
  0
LINE
  5
B47
330
B10
100
AcDbEntity
  8
0
 62
     0
100
AcDbLine
 10
329.8515303059661
 20
403.390635549367
 30
0.0
 11
331.8515303059661
 21
405.390635549367
 31
0.0
  0
LINE
  5
B48
330
B10
100
AcDbEntity
  8
0
 62
     0
100
AcDbLine
 10
227.0231031812202
 20
303.3906355493673
 30
0.0
 11
229.0231031812202
 21
305.3906355493674
 31
0.0
  0
LINE
  5
B49
330
B10
100
AcDbEntity
  8
0
 62
     0
100
AcDbLine
 10
327.02310318122
 20
403.390635549367
 30
0.0
 11
329.0231031812199
 21
405.390635549367
 31
0.0
  0
LINE
  5
B4A
330
B10
100
AcDbEntity
  8
0
 62
     0
100
AcDbLine
 10
224.194676056474
 20
303.3906355493673
 30
0.0
 11
226.194676056474
 21
305.3906355493674
 31
0.0
  0
LINE
  5
B4B
330
B10
100
AcDbEntity
  8
0
 62
     0
100
AcDbLine
 10
324.1946760564738
 20
403.390635549367
 30
0.0
 11
326.1946760564737
 21
405.390635549367
 31
0.0
  0
LINE
  5
B4C
330
B10
100
AcDbEntity
  8
0
 62
     0
100
AcDbLine
 10
221.3662489317278
 20
303.3906355493673
 30
0.0
 11
223.3662489317278
 21
305.3906355493674
 31
0.0
  0
LINE
  5
B4D
330
B10
100
AcDbEntity
  8
0
 62
     0
100
AcDbLine
 10
321.3662489317276
 20
403.390635549367
 30
0.0
 11
323.3662489317276
 21
405.390635549367
 31
0.0
  0
LINE
  5
B4E
330
B10
100
AcDbEntity
  8
0
 62
     0
100
AcDbLine
 10
218.5378218069816
 20
303.3906355493673
 30
0.0
 11
220.5378218069817
 21
305.3906355493674
 31
0.0
  0
LINE
  5
B4F
330
B10
100
AcDbEntity
  8
0
 62
     0
100
AcDbLine
 10
318.5378218069814
 20
403.390635549367
 30
0.0
 11
320.5378218069814
 21
405.390635549367
 31
0.0
  0
LINE
  5
B50
330
B10
100
AcDbEntity
  8
0
 62
     0
100
AcDbLine
 10
215.7093946822354
 20
303.3906355493673
 30
0.0
 11
217.7093946822355
 21
305.3906355493674
 31
0.0
  0
LINE
  5
B51
330
B10
100
AcDbEntity
  8
0
 62
     0
100
AcDbLine
 10
315.7093946822353
 20
403.390635549367
 30
0.0
 11
317.7093946822352
 21
405.390635549367
 31
0.0
  0
LINE
  5
B52
330
B10
100
AcDbEntity
  8
0
 62
     0
100
AcDbLine
 10
212.8809675574892
 20
303.3906355493673
 30
0.0
 11
214.8809675574893
 21
305.3906355493674
 31
0.0
  0
LINE
  5
B53
330
B10
100
AcDbEntity
  8
0
 62
     0
100
AcDbLine
 10
312.8809675574891
 20
403.390635549367
 30
0.0
 11
314.880967557489
 21
405.390635549367
 31
0.0
  0
LINE
  5
B54
330
B10
100
AcDbEntity
  8
0
 62
     0
100
AcDbLine
 10
210.052540432743
 20
303.3906355493673
 30
0.0
 11
212.0525404327431
 21
305.3906355493674
 31
0.0
  0
LINE
  5
B55
330
B10
100
AcDbEntity
  8
0
 62
     0
100
AcDbLine
 10
310.0525404327429
 20
403.390635549367
 30
0.0
 11
312.0525404327428
 21
405.390635549367
 31
0.0
  0
LINE
  5
B56
330
B10
100
AcDbEntity
  8
0
 62
     0
100
AcDbLine
 10
207.2241133079968
 20
303.3906355493673
 30
0.0
 11
209.2241133079969
 21
305.3906355493674
 31
0.0
  0
LINE
  5
B57
330
B10
100
AcDbEntity
  8
0
 62
     0
100
AcDbLine
 10
307.2241133079967
 20
403.390635549367
 30
0.0
 11
309.2241133079966
 21
405.390635549367
 31
0.0
  0
LINE
  5
B58
330
B10
100
AcDbEntity
  8
0
 62
     0
100
AcDbLine
 10
204.3956861832507
 20
303.3906355493673
 30
0.0
 11
206.3956861832508
 21
305.3906355493674
 31
0.0
  0
LINE
  5
B59
330
B10
100
AcDbEntity
  8
0
 62
     0
100
AcDbLine
 10
304.3956861832505
 20
403.390635549367
 30
0.0
 11
306.3956861832504
 21
405.390635549367
 31
0.0
  0
LINE
  5
B5A
330
B10
100
AcDbEntity
  8
0
 62
     0
100
AcDbLine
 10
201.5672590585044
 20
303.3906355493673
 30
0.0
 11
203.5672590585045
 21
305.3906355493674
 31
0.0
  0
LINE
  5
B5B
330
B10
100
AcDbEntity
  8
0
 62
     0
100
AcDbLine
 10
301.5672590585043
 20
403.390635549367
 30
0.0
 11
303.5672590585043
 21
405.390635549367
 31
0.0
  0
LINE
  5
B5C
330
B10
100
AcDbEntity
  8
0
 62
     0
100
AcDbLine
 10
198.7388319337583
 20
303.3906355493673
 30
0.0
 11
200.7388319337584
 21
305.3906355493674
 31
0.0
  0
LINE
  5
B5D
330
B10
100
AcDbEntity
  8
0
 62
     0
100
AcDbLine
 10
298.7388319337581
 20
403.390635549367
 30
0.0
 11
300.738831933758
 21
405.390635549367
 31
0.0
  0
LINE
  5
B5E
330
B10
100
AcDbEntity
  8
0
 62
     0
100
AcDbLine
 10
195.910404809012
 20
303.3906355493673
 30
0.0
 11
197.9104048090121
 21
305.3906355493674
 31
0.0
  0
LINE
  5
B5F
330
B10
100
AcDbEntity
  8
0
 62
     0
100
AcDbLine
 10
295.9104048090119
 20
403.390635549367
 30
0.0
 11
297.9104048090118
 21
405.390635549367
 31
0.0
  0
LINE
  5
B60
330
B10
100
AcDbEntity
  8
0
 62
     0
100
AcDbLine
 10
193.0819776842659
 20
303.3906355493673
 30
0.0
 11
195.081977684266
 21
305.3906355493674
 31
0.0
  0
LINE
  5
B61
330
B10
100
AcDbEntity
  8
0
 62
     0
100
AcDbLine
 10
293.0819776842657
 20
403.390635549367
 30
0.0
 11
295.0819776842656
 21
405.390635549367
 31
0.0
  0
LINE
  5
B62
330
B10
100
AcDbEntity
  8
0
 62
     0
100
AcDbLine
 10
190.2535505595197
 20
303.3906355493673
 30
0.0
 11
192.2535505595198
 21
305.3906355493674
 31
0.0
  0
LINE
  5
B63
330
B10
100
AcDbEntity
  8
0
 62
     0
100
AcDbLine
 10
290.2535505595195
 20
403.390635549367
 30
0.0
 11
292.2535505595194
 21
405.390635549367
 31
0.0
  0
LINE
  5
B64
330
B10
100
AcDbEntity
  8
0
 62
     0
100
AcDbLine
 10
187.4251234347735
 20
303.3906355493673
 30
0.0
 11
189.4251234347736
 21
305.3906355493674
 31
0.0
  0
LINE
  5
B65
330
B10
100
AcDbEntity
  8
0
 62
     0
100
AcDbLine
 10
287.4251234347734
 20
403.390635549367
 30
0.0
 11
289.4251234347733
 21
405.390635549367
 31
0.0
  0
LINE
  5
B66
330
B10
100
AcDbEntity
  8
0
 62
     0
100
AcDbLine
 10
184.5966963100273
 20
303.3906355493673
 30
0.0
 11
186.5966963100274
 21
305.3906355493674
 31
0.0
  0
LINE
  5
B67
330
B10
100
AcDbEntity
  8
0
 62
     0
100
AcDbLine
 10
284.5966963100271
 20
403.390635549367
 30
0.0
 11
286.5966963100271
 21
405.390635549367
 31
0.0
  0
LINE
  5
B68
330
B10
100
AcDbEntity
  8
0
 62
     0
100
AcDbLine
 10
181.7682691852811
 20
303.3906355493673
 30
0.0
 11
183.7682691852812
 21
305.3906355493674
 31
0.0
  0
LINE
  5
B69
330
B10
100
AcDbEntity
  8
0
 62
     0
100
AcDbLine
 10
281.768269185281
 20
403.390635549367
 30
0.0
 11
283.7682691852809
 21
405.390635549367
 31
0.0
  0
LINE
  5
B6A
330
B10
100
AcDbEntity
  8
0
 62
     0
100
AcDbLine
 10
178.9398420605349
 20
303.3906355493673
 30
0.0
 11
180.939842060535
 21
305.3906355493674
 31
0.0
  0
LINE
  5
B6B
330
B10
100
AcDbEntity
  8
0
 62
     0
100
AcDbLine
 10
278.9398420605348
 20
403.390635549367
 30
0.0
 11
280.9398420605347
 21
405.390635549367
 31
0.0
  0
LINE
  5
B6C
330
B10
100
AcDbEntity
  8
0
 62
     0
100
AcDbLine
 10
176.1114149357887
 20
303.3906355493673
 30
0.0
 11
178.1114149357888
 21
305.3906355493674
 31
0.0
  0
LINE
  5
B6D
330
B10
100
AcDbEntity
  8
0
 62
     0
100
AcDbLine
 10
276.1114149357886
 20
403.390635549367
 30
0.0
 11
278.1114149357885
 21
405.390635549367
 31
0.0
  0
LINE
  5
B6E
330
B10
100
AcDbEntity
  8
0
 62
     0
100
AcDbLine
 10
173.2829878110425
 20
303.3906355493673
 30
0.0
 11
175.2829878110426
 21
305.3906355493674
 31
0.0
  0
LINE
  5
B6F
330
B10
100
AcDbEntity
  8
0
 62
     0
100
AcDbLine
 10
273.2829878110424
 20
403.390635549367
 30
0.0
 11
275.2829878110424
 21
405.390635549367
 31
0.0
  0
LINE
  5
B70
330
B10
100
AcDbEntity
  8
0
 62
     0
100
AcDbLine
 10
170.4545606862963
 20
303.3906355493673
 30
0.0
 11
172.4545606862964
 21
305.3906355493674
 31
0.0
  0
LINE
  5
B71
330
B10
100
AcDbEntity
  8
0
 62
     0
100
AcDbLine
 10
270.4545606862962
 20
403.390635549367
 30
0.0
 11
272.4545606862961
 21
405.390635549367
 31
0.0
  0
LINE
  5
B72
330
B10
100
AcDbEntity
  8
0
 62
     0
100
AcDbLine
 10
167.6261335615502
 20
303.3906355493673
 30
0.0
 11
169.6261335615503
 21
305.3906355493674
 31
0.0
  0
LINE
  5
B73
330
B10
100
AcDbEntity
  8
0
 62
     0
100
AcDbLine
 10
267.62613356155
 20
403.390635549367
 30
0.0
 11
269.62613356155
 21
405.390635549367
 31
0.0
  0
LINE
  5
B74
330
B10
100
AcDbEntity
  8
0
 62
     0
100
AcDbLine
 10
164.797706436804
 20
303.3906355493673
 30
0.0
 11
166.797706436804
 21
305.3906355493674
 31
0.0
  0
LINE
  5
B75
330
B10
100
AcDbEntity
  8
0
 62
     0
100
AcDbLine
 10
264.7977064368038
 20
403.390635549367
 30
0.0
 11
266.7977064368038
 21
405.390635549367
 31
0.0
  0
LINE
  5
B76
330
B10
100
AcDbEntity
  8
0
 62
     0
100
AcDbLine
 10
161.9692793120578
 20
303.3906355493673
 30
0.0
 11
163.9692793120579
 21
305.3906355493674
 31
0.0
  0
LINE
  5
B77
330
B10
100
AcDbEntity
  8
0
 62
     0
100
AcDbLine
 10
261.9692793120577
 20
403.3906355493671
 30
0.0
 11
263.9692793120576
 21
405.390635549367
 31
0.0
  0
LINE
  5
B78
330
B10
100
AcDbEntity
  8
0
 62
     0
100
AcDbLine
 10
159.1408521873116
 20
303.3906355493673
 30
0.0
 11
161.1408521873117
 21
305.3906355493674
 31
0.0
  0
LINE
  5
B79
330
B10
100
AcDbEntity
  8
0
 62
     0
100
AcDbLine
 10
259.1408521873114
 20
403.3906355493671
 30
0.0
 11
261.1408521873114
 21
405.390635549367
 31
0.0
  0
LINE
  5
B7A
330
B10
100
AcDbEntity
  8
0
 62
     0
100
AcDbLine
 10
156.3124250625654
 20
303.3906355493673
 30
0.0
 11
158.3124250625655
 21
305.3906355493674
 31
0.0
  0
LINE
  5
B7B
330
B10
100
AcDbEntity
  8
0
 62
     0
100
AcDbLine
 10
256.3124250625653
 20
403.3906355493671
 30
0.0
 11
258.3124250625652
 21
405.390635549367
 31
0.0
  0
LINE
  5
B7C
330
B10
100
AcDbEntity
  8
0
 62
     0
100
AcDbLine
 10
153.4839979378192
 20
303.3906355493673
 30
0.0
 11
155.4839979378193
 21
305.3906355493674
 31
0.0
  0
LINE
  5
B7D
330
B10
100
AcDbEntity
  8
0
 62
     0
100
AcDbLine
 10
253.4839979378191
 20
403.3906355493671
 30
0.0
 11
255.483997937819
 21
405.390635549367
 31
0.0
  0
LINE
  5
B7E
330
B10
100
AcDbEntity
  8
0
 62
     0
100
AcDbLine
 10
150.655570813073
 20
303.3906355493673
 30
0.0
 11
152.6555708130731
 21
305.3906355493674
 31
0.0
  0
LINE
  5
B7F
330
B10
100
AcDbEntity
  8
0
 62
     0
100
AcDbLine
 10
250.6555708130729
 20
403.3906355493671
 30
0.0
 11
252.6555708130728
 21
405.390635549367
 31
0.0
  0
LINE
  5
B80
330
B10
100
AcDbEntity
  8
0
 62
     0
100
AcDbLine
 10
147.8271436883268
 20
303.3906355493673
 30
0.0
 11
149.8271436883269
 21
305.3906355493674
 31
0.0
  0
LINE
  5
B81
330
B10
100
AcDbEntity
  8
0
 62
     0
100
AcDbLine
 10
247.8271436883267
 20
403.3906355493671
 30
0.0
 11
249.8271436883266
 21
405.390635549367
 31
0.0
  0
LINE
  5
B82
330
B10
100
AcDbEntity
  8
0
 62
     0
100
AcDbLine
 10
144.9987165635806
 20
303.3906355493673
 30
0.0
 11
146.9987165635807
 21
305.3906355493674
 31
0.0
  0
LINE
  5
B83
330
B10
100
AcDbEntity
  8
0
 62
     0
100
AcDbLine
 10
244.9987165635805
 20
403.3906355493671
 30
0.0
 11
246.9987165635804
 21
405.390635549367
 31
0.0
  0
LINE
  5
B84
330
B10
100
AcDbEntity
  8
0
 62
     0
100
AcDbLine
 10
142.1702894388344
 20
303.3906355493673
 30
0.0
 11
144.1702894388345
 21
305.3906355493674
 31
0.0
  0
LINE
  5
B85
330
B10
100
AcDbEntity
  8
0
 62
     0
100
AcDbLine
 10
242.1702894388343
 20
403.3906355493671
 30
0.0
 11
244.1702894388343
 21
405.390635549367
 31
0.0
  0
LINE
  5
B86
330
B10
100
AcDbEntity
  8
0
 62
     0
100
AcDbLine
 10
139.3418623140882
 20
303.3906355493673
 30
0.0
 11
141.3418623140884
 21
305.3906355493674
 31
0.0
  0
LINE
  5
B87
330
B10
100
AcDbEntity
  8
0
 62
     0
100
AcDbLine
 10
239.3418623140881
 20
403.3906355493671
 30
0.0
 11
241.3418623140881
 21
405.390635549367
 31
0.0
  0
LINE
  5
B88
330
B10
100
AcDbEntity
  8
0
 62
     0
100
AcDbLine
 10
136.5134351893421
 20
303.3906355493673
 30
0.0
 11
138.5134351893422
 21
305.3906355493674
 31
0.0
  0
LINE
  5
B89
330
B10
100
AcDbEntity
  8
0
 62
     0
100
AcDbLine
 10
236.513435189342
 20
403.3906355493671
 30
0.0
 11
238.5134351893419
 21
405.390635549367
 31
0.0
  0
LINE
  5
B8A
330
B10
100
AcDbEntity
  8
0
 62
     0
100
AcDbLine
 10
133.6850080645959
 20
303.3906355493673
 30
0.0
 11
135.685008064596
 21
305.3906355493674
 31
0.0
  0
LINE
  5
B8B
330
B10
100
AcDbEntity
  8
0
 62
     0
100
AcDbLine
 10
233.6850080645958
 20
403.3906355493671
 30
0.0
 11
235.6850080645957
 21
405.390635549367
 31
0.0
  0
LINE
  5
B8C
330
B10
100
AcDbEntity
  8
0
 62
     0
100
AcDbLine
 10
130.8565809398497
 20
303.3906355493673
 30
0.0
 11
132.8565809398498
 21
305.3906355493674
 31
0.0
  0
LINE
  5
B8D
330
B10
100
AcDbEntity
  8
0
 62
     0
100
AcDbLine
 10
230.8565809398496
 20
403.3906355493671
 30
0.0
 11
232.8565809398495
 21
405.390635549367
 31
0.0
  0
LINE
  5
B8E
330
B10
100
AcDbEntity
  8
0
 62
     0
100
AcDbLine
 10
128.0281538151035
 20
303.3906355493673
 30
0.0
 11
130.0281538151036
 21
305.3906355493674
 31
0.0
  0
LINE
  5
B8F
330
B10
100
AcDbEntity
  8
0
 62
     0
100
AcDbLine
 10
228.0281538151034
 20
403.3906355493671
 30
0.0
 11
230.0281538151033
 21
405.390635549367
 31
0.0
  0
LINE
  5
B90
330
B10
100
AcDbEntity
  8
0
 62
     0
100
AcDbLine
 10
125.1997266903573
 20
303.3906355493673
 30
0.0
 11
127.1997266903574
 21
305.3906355493674
 31
0.0
  0
LINE
  5
B91
330
B10
100
AcDbEntity
  8
0
 62
     0
100
AcDbLine
 10
225.1997266903572
 20
403.3906355493671
 30
0.0
 11
227.1997266903571
 21
405.390635549367
 31
0.0
  0
LINE
  5
B92
330
B10
100
AcDbEntity
  8
0
 62
     0
100
AcDbLine
 10
122.3712995656111
 20
303.3906355493673
 30
0.0
 11
124.3712995656112
 21
305.3906355493674
 31
0.0
  0
LINE
  5
B93
330
B10
100
AcDbEntity
  8
0
 62
     0
100
AcDbLine
 10
222.371299565611
 20
403.3906355493671
 30
0.0
 11
224.371299565611
 21
405.390635549367
 31
0.0
  0
LINE
  5
B94
330
B10
100
AcDbEntity
  8
0
 62
     0
100
AcDbLine
 10
119.5428724408649
 20
303.3906355493673
 30
0.0
 11
121.5428724408651
 21
305.3906355493674
 31
0.0
  0
LINE
  5
B95
330
B10
100
AcDbEntity
  8
0
 62
     0
100
AcDbLine
 10
219.5428724408648
 20
403.3906355493671
 30
0.0
 11
221.5428724408647
 21
405.3906355493671
 31
0.0
  0
LINE
  5
B96
330
B10
100
AcDbEntity
  8
0
 62
     0
100
AcDbLine
 10
116.7943407379636
 20
303.4705309712121
 30
0.0
 11
118.7144453161188
 21
305.3906355493674
 31
0.0
  0
LINE
  5
B97
330
B10
100
AcDbEntity
  8
0
 62
     0
100
AcDbLine
 10
216.7144453161186
 20
403.3906355493671
 30
0.0
 11
218.7144453161186
 21
405.3906355493671
 31
0.0
  0
LINE
  5
B98
330
B10
100
AcDbEntity
  8
0
 62
     0
100
AcDbLine
 10
114.1934610969974
 20
303.6980784549921
 30
0.0
 11
116.0395857899918
 21
305.5442031479866
 31
0.0
  0
LINE
  5
B99
330
B10
100
AcDbEntity
  8
0
 62
     0
100
AcDbLine
 10
213.8860181913724
 20
403.3906355493671
 30
0.0
 11
215.8860181913724
 21
405.3906355493671
 31
0.0
  0
LINE
  5
B9A
330
B10
100
AcDbEntity
  8
0
 62
     0
100
AcDbLine
 10
111.5925814560311
 20
303.925625938772
 30
0.0
 11
113.4387061490255
 21
305.7717506317664
 31
0.0
  0
LINE
  5
B9B
330
B10
100
AcDbEntity
  8
0
 62
     0
100
AcDbLine
 10
211.0575910666263
 20
403.3906355493671
 30
0.0
 11
213.0575910666262
 21
405.3906355493671
 31
0.0
  0
LINE
  5
B9C
330
B10
100
AcDbEntity
  8
0
 62
     0
100
AcDbLine
 10
108.9917018150648
 20
304.1531734225519
 30
0.0
 11
110.8378265080593
 21
305.9992981155464
 31
0.0
  0
LINE
  5
B9D
330
B10
100
AcDbEntity
  8
0
 62
     0
100
AcDbLine
 10
208.2291639418801
 20
403.3906355493671
 30
0.0
 11
210.22916394188
 21
405.3906355493671
 31
0.0
  0
LINE
  5
B9E
330
B10
100
AcDbEntity
  8
0
 62
     0
100
AcDbLine
 10
106.3908221740986
 20
304.3807209063319
 30
0.0
 11
108.236946867093
 21
306.2268455993263
 31
0.0
  0
LINE
  5
B9F
330
B10
100
AcDbEntity
  8
0
 62
     0
100
AcDbLine
 10
205.4007368171339
 20
403.3906355493671
 30
0.0
 11
207.4007368171338
 21
405.3906355493671
 31
0.0
  0
LINE
  5
BA0
330
B10
100
AcDbEntity
  8
0
 62
     0
100
AcDbLine
 10
202.5723096923877
 20
403.3906355493671
 30
0.0
 11
204.5723096923876
 21
405.3906355493671
 31
0.0
  0
LINE
  5
BA1
330
B10
100
AcDbEntity
  8
0
 62
     0
100
AcDbLine
 10
199.7438825676415
 20
403.3906355493671
 30
0.0
 11
201.7438825676414
 21
405.3906355493671
 31
0.0
  0
LINE
  5
BA2
330
B10
100
AcDbEntity
  8
0
 62
     0
100
AcDbLine
 10
196.9154554428953
 20
403.3906355493671
 30
0.0
 11
198.9154554428952
 21
405.3906355493671
 31
0.0
  0
LINE
  5
BA3
330
B10
100
AcDbEntity
  8
0
 62
     0
100
AcDbLine
 10
194.0870283181491
 20
403.3906355493671
 30
0.0
 11
196.087028318149
 21
405.3906355493671
 31
0.0
  0
LINE
  5
BA4
330
B10
100
AcDbEntity
  8
0
 62
     0
100
AcDbLine
 10
191.2586011934029
 20
403.3906355493671
 30
0.0
 11
193.2586011934029
 21
405.3906355493671
 31
0.0
  0
LINE
  5
BA5
330
B10
100
AcDbEntity
  8
0
 62
     0
100
AcDbLine
 10
188.4301740686567
 20
403.3906355493671
 30
0.0
 11
190.4301740686567
 21
405.3906355493671
 31
0.0
  0
LINE
  5
BA6
330
B10
100
AcDbEntity
  8
0
 62
     0
100
AcDbLine
 10
185.6017469439106
 20
403.3906355493671
 30
0.0
 11
187.6017469439105
 21
405.3906355493671
 31
0.0
  0
LINE
  5
BA7
330
B10
100
AcDbEntity
  8
0
 62
     0
100
AcDbLine
 10
182.7733198191643
 20
403.3906355493671
 30
0.0
 11
184.7733198191643
 21
405.3906355493671
 31
0.0
  0
LINE
  5
BA8
330
B10
100
AcDbEntity
  8
0
 62
     0
100
AcDbLine
 10
179.9448926944181
 20
403.3906355493671
 30
0.0
 11
181.9448926944181
 21
405.3906355493671
 31
0.0
  0
LINE
  5
BA9
330
B10
100
AcDbEntity
  8
0
 62
     0
100
AcDbLine
 10
177.116465569672
 20
403.3906355493671
 30
0.0
 11
179.1164655696719
 21
405.3906355493671
 31
0.0
  0
LINE
  5
BAA
330
B10
100
AcDbEntity
  8
0
 62
     0
100
AcDbLine
 10
174.2880384449258
 20
403.3906355493671
 30
0.0
 11
176.2880384449257
 21
405.3906355493671
 31
0.0
  0
LINE
  5
BAB
330
B10
100
AcDbEntity
  8
0
 62
     0
100
AcDbLine
 10
171.4596113201796
 20
403.3906355493671
 30
0.0
 11
173.4596113201796
 21
405.3906355493671
 31
0.0
  0
LINE
  5
BAC
330
B10
100
AcDbEntity
  8
0
 62
     0
100
AcDbLine
 10
168.6311841954334
 20
403.3906355493671
 30
0.0
 11
170.6311841954333
 21
405.3906355493671
 31
0.0
  0
LINE
  5
BAD
330
B10
100
AcDbEntity
  8
0
 62
     0
100
AcDbLine
 10
165.8027570706872
 20
403.3906355493671
 30
0.0
 11
167.8027570706871
 21
405.3906355493671
 31
0.0
  0
LINE
  5
BAE
330
B10
100
AcDbEntity
  8
0
 62
     0
100
AcDbLine
 10
162.974329945941
 20
403.3906355493671
 30
0.0
 11
164.974329945941
 21
405.3906355493671
 31
0.0
  0
LINE
  5
BAF
330
B10
100
AcDbEntity
  8
0
 62
     0
100
AcDbLine
 10
160.1459028211948
 20
403.3906355493671
 30
0.0
 11
162.1459028211948
 21
405.3906355493671
 31
0.0
  0
LINE
  5
BB0
330
B10
100
AcDbEntity
  8
0
 62
     0
100
AcDbLine
 10
157.3174756964486
 20
403.3906355493671
 30
0.0
 11
159.3174756964486
 21
405.3906355493671
 31
0.0
  0
LINE
  5
BB1
330
B10
100
AcDbEntity
  8
0
 62
     0
100
AcDbLine
 10
154.4890485717025
 20
403.3906355493671
 30
0.0
 11
156.4890485717024
 21
405.3906355493671
 31
0.0
  0
LINE
  5
BB2
330
B10
100
AcDbEntity
  8
0
 62
     0
100
AcDbLine
 10
151.6606214469563
 20
403.3906355493671
 30
0.0
 11
153.6606214469562
 21
405.3906355493671
 31
0.0
  0
LINE
  5
BB3
330
B10
100
AcDbEntity
  8
0
 62
     0
100
AcDbLine
 10
148.8321943222101
 20
403.3906355493671
 30
0.0
 11
150.83219432221
 21
405.3906355493671
 31
0.0
  0
LINE
  5
BB4
330
B10
100
AcDbEntity
  8
0
 62
     0
100
AcDbLine
 10
146.0037671974639
 20
403.3906355493671
 30
0.0
 11
148.0037671974638
 21
405.3906355493671
 31
0.0
  0
LINE
  5
BB5
330
B10
100
AcDbEntity
  8
0
 62
     0
100
AcDbLine
 10
143.1753400727177
 20
403.3906355493671
 30
0.0
 11
145.1753400727176
 21
405.3906355493671
 31
0.0
  0
LINE
  5
BB6
330
B10
100
AcDbEntity
  8
0
 62
     0
100
AcDbLine
 10
140.3469129479715
 20
403.3906355493671
 30
0.0
 11
142.3469129479715
 21
405.3906355493671
 31
0.0
  0
LINE
  5
BB7
330
B10
100
AcDbEntity
  8
0
 62
     0
100
AcDbLine
 10
137.5184858232253
 20
403.3906355493671
 30
0.0
 11
139.5184858232253
 21
405.3906355493671
 31
0.0
  0
LINE
  5
BB8
330
B10
100
AcDbEntity
  8
0
 62
     0
100
AcDbLine
 10
134.6900586984791
 20
403.3906355493671
 30
0.0
 11
136.6900586984791
 21
405.3906355493671
 31
0.0
  0
LINE
  5
BB9
330
B10
100
AcDbEntity
  8
0
 62
     0
100
AcDbLine
 10
131.8616315737329
 20
403.3906355493672
 30
0.0
 11
133.8616315737329
 21
405.3906355493671
 31
0.0
  0
LINE
  5
BBA
330
B10
100
AcDbEntity
  8
0
 62
     0
100
AcDbLine
 10
129.0332044489867
 20
403.3906355493672
 30
0.0
 11
131.0332044489867
 21
405.3906355493671
 31
0.0
  0
LINE
  5
BBB
330
B10
100
AcDbEntity
  8
0
 62
     0
100
AcDbLine
 10
126.2047773242406
 20
403.3906355493672
 30
0.0
 11
128.2047773242405
 21
405.3906355493671
 31
0.0
  0
LINE
  5
BBC
330
B10
100
AcDbEntity
  8
0
 62
     0
100
AcDbLine
 10
123.3763501994944
 20
403.3906355493672
 30
0.0
 11
125.3763501994943
 21
405.3906355493671
 31
0.0
  0
LINE
  5
BBD
330
B10
100
AcDbEntity
  8
0
 62
     0
100
AcDbLine
 10
120.5479230747482
 20
403.3906355493672
 30
0.0
 11
122.5479230747481
 21
405.3906355493671
 31
0.0
  0
LINE
  5
BBE
330
B10
100
AcDbEntity
  8
0
 62
     0
100
AcDbLine
 10
117.7122691862209
 20
403.3834087855861
 30
0.0
 11
119.7194959500019
 21
405.3906355493671
 31
0.0
  0
LINE
  5
BBF
330
B10
100
AcDbEntity
  8
0
 62
     0
100
AcDbLine
 10
114.6126615301943
 20
403.1122282543057
 30
0.0
 11
116.8127872654473
 21
405.3123539895586
 31
0.0
  0
LINE
  5
BC0
330
B10
100
AcDbEntity
  8
0
 62
     0
100
AcDbLine
 10
111.5130538741676
 20
402.8410477230251
 30
0.0
 11
113.7131796094206
 21
405.0411734582781
 31
0.0
  0
LINE
  5
BC1
330
B10
100
AcDbEntity
  8
0
 62
     0
100
AcDbLine
 10
108.4134462181409
 20
402.5698671917447
 30
0.0
 11
110.6135719533939
 21
404.7699929269977
 31
0.0
  0
LINE
  5
BC2
330
B10
100
AcDbEntity
  8
0
 62
     0
100
AcDbLine
 10
105.7075495884008
 20
402.6923976867508
 30
0.0
 11
107.5139642973673
 21
404.4988123957172
 31
0.0
  0
LINE
  5
BC3
330
B10
100
AcDbEntity
  8
0
 62
     0
100
AcDbLine
 10
306.2190626741135
 20
303.3906355493673
 30
0.0
 11
308.2190626741136
 21
305.3906355493674
 31
0.0
  0
LINE
  5
BC4
330
B10
100
AcDbEntity
  8
0
 62
     0
100
AcDbLine
 10
406.2190626741132
 20
403.390635549367
 30
0.0
 11
408.2190626741131
 21
405.3906355493669
 31
0.0
  0
LINE
  5
BC5
330
B10
100
AcDbEntity
  8
0
 62
     0
100
AcDbLine
 10
309.0474897988597
 20
303.3906355493673
 30
0.0
 11
311.0474897988597
 21
305.3906355493674
 31
0.0
  0
LINE
  5
BC6
330
B10
100
AcDbEntity
  8
0
 62
     0
100
AcDbLine
 10
409.0474897988594
 20
403.390635549367
 30
0.0
 11
411.0474897988593
 21
405.3906355493669
 31
0.0
  0
LINE
  5
BC7
330
B10
100
AcDbEntity
  8
0
 62
     0
100
AcDbLine
 10
311.8759169236059
 20
303.3906355493673
 30
0.0
 11
313.8759169236059
 21
305.3906355493674
 31
0.0
  0
LINE
  5
BC8
330
B10
100
AcDbEntity
  8
0
 62
     0
100
AcDbLine
 10
411.8759169236056
 20
403.390635549367
 30
0.0
 11
413.8759169236054
 21
405.3906355493669
 31
0.0
  0
LINE
  5
BC9
330
B10
100
AcDbEntity
  8
0
 62
     0
100
AcDbLine
 10
314.704344048352
 20
303.3906355493673
 30
0.0
 11
316.7043440483521
 21
305.3906355493674
 31
0.0
  0
LINE
  5
BCA
330
B10
100
AcDbEntity
  8
0
 62
     0
100
AcDbLine
 10
414.7043440483517
 20
403.390635549367
 30
0.0
 11
416.7206367358774
 21
405.4069282368926
 31
0.0
  0
LINE
  5
BCB
330
B10
100
AcDbEntity
  8
0
 62
     0
100
AcDbLine
 10
317.5327711730982
 20
303.3906355493673
 30
0.0
 11
319.5327711730983
 21
305.3906355493674
 31
0.0
  0
LINE
  5
BCC
330
B10
100
AcDbEntity
  8
0
 62
     0
100
AcDbLine
 10
417.6155301360053
 20
403.4733945122743
 30
0.0
 11
420.2895379597874
 21
406.1474023360565
 31
0.0
  0
LINE
  5
BCD
330
B10
100
AcDbEntity
  8
0
 62
     0
100
AcDbLine
 10
320.3611982978444
 20
303.3906355493673
 30
0.0
 11
322.3611982978445
 21
305.3906355493674
 31
0.0
  0
LINE
  5
BCE
330
B10
100
AcDbEntity
  8
0
 62
     0
100
AcDbLine
 10
421.4085031850586
 20
404.4379404365815
 30
0.0
 11
425.3803321827328
 21
408.4097694342557
 31
0.0
  0
LINE
  5
BCF
330
B10
100
AcDbEntity
  8
0
 62
     0
100
AcDbLine
 10
323.1896254225906
 20
303.3906355493673
 30
0.0
 11
325.1896254225907
 21
305.3906355493674
 31
0.0
  0
LINE
  5
BD0
330
B10
100
AcDbEntity
  8
0
 62
     0
100
AcDbLine
 10
426.5353429187332
 20
406.7363530455098
 30
0.0
 11
430.5229269549988
 21
410.7239370817754
 31
0.0
  0
LINE
  5
BD1
330
B10
100
AcDbEntity
  8
0
 62
     0
100
AcDbLine
 10
326.0180525473368
 20
303.3906355493673
 30
0.0
 11
328.0180525473369
 21
305.3906355493674
 31
0.0
  0
LINE
  5
BD2
330
B10
100
AcDbEntity
  8
0
 62
     0
100
AcDbLine
 10
431.677937690999
 20
409.0505206930295
 30
0.0
 11
435.6655217272646
 21
413.0381047292951
 31
0.0
  0
LINE
  5
BD3
330
B10
100
AcDbEntity
  8
0
 62
     0
100
AcDbLine
 10
328.846479672083
 20
303.3906355493673
 30
0.0
 11
330.846479672083
 21
305.3906355493674
 31
0.0
  0
LINE
  5
BD4
330
B10
100
AcDbEntity
  8
0
 62
     0
100
AcDbLine
 10
436.8200662441666
 20
411.3642221214509
 30
0.0
 11
439.7073738490948
 21
414.251529726379
 31
0.0
  0
LINE
  5
BD5
330
B10
100
AcDbEntity
  8
0
 62
     0
100
AcDbLine
 10
331.6749067968292
 20
303.3906355493673
 30
0.0
 11
333.6749067968292
 21
305.3906355493674
 31
0.0
  0
LINE
  5
BD6
330
B10
100
AcDbEntity
  8
0
 62
     0
100
AcDbLine
 10
440.6291549847664
 20
412.3448837373046
 30
0.0
 11
442.6749067968288
 21
414.390635549367
 31
0.0
  0
LINE
  5
BD7
330
B10
100
AcDbEntity
  8
0
 62
     0
100
AcDbLine
 10
334.5033339215754
 20
303.3906355493673
 30
0.0
 11
336.5033339215754
 21
305.3906355493674
 31
0.0
  0
LINE
  5
BD8
330
B10
100
AcDbEntity
  8
0
 62
     0
100
AcDbLine
 10
443.5033339215752
 20
412.390635549367
 30
0.0
 11
445.5033339215751
 21
414.390635549367
 31
0.0
  0
LINE
  5
BD9
330
B10
100
AcDbEntity
  8
0
 62
     0
100
AcDbLine
 10
337.3317610463216
 20
303.3906355493673
 30
0.0
 11
339.3317610463216
 21
305.3906355493674
 31
0.0
  0
LINE
  5
BDA
330
B10
100
AcDbEntity
  8
0
 62
     0
100
AcDbLine
 10
446.3317610463213
 20
412.390635549367
 30
0.0
 11
448.3317610463213
 21
414.390635549367
 31
0.0
  0
LINE
  5
BDB
330
B10
100
AcDbEntity
  8
0
 62
     0
100
AcDbLine
 10
340.1601881710678
 20
303.3906355493673
 30
0.0
 11
342.1601881710679
 21
305.3906355493674
 31
0.0
  0
LINE
  5
BDC
330
B10
100
AcDbEntity
  8
0
 62
     0
100
AcDbLine
 10
449.1601881710675
 20
412.390635549367
 30
0.0
 11
451.1601881710674
 21
414.390635549367
 31
0.0
  0
LINE
  5
BDD
330
B10
100
AcDbEntity
  8
0
 62
     0
100
AcDbLine
 10
342.9886152958139
 20
303.3906355493673
 30
0.0
 11
344.988615295814
 21
305.3906355493674
 31
0.0
  0
LINE
  5
BDE
330
B10
100
AcDbEntity
  8
0
 62
     0
100
AcDbLine
 10
451.9886152958137
 20
412.390635549367
 30
0.0
 11
453.9886152958136
 21
414.390635549367
 31
0.0
  0
LINE
  5
BDF
330
B10
100
AcDbEntity
  8
0
 62
     0
100
AcDbLine
 10
345.8170424205601
 20
303.3906355493673
 30
0.0
 11
347.8170424205602
 21
305.3906355493674
 31
0.0
  0
LINE
  5
BE0
330
B10
100
AcDbEntity
  8
0
 62
     0
100
AcDbLine
 10
454.8170424205599
 20
412.390635549367
 30
0.0
 11
456.8170424205598
 21
414.390635549367
 31
0.0
  0
LINE
  5
BE1
330
B10
100
AcDbEntity
  8
0
 62
     0
100
AcDbLine
 10
348.6454695453064
 20
303.3906355493673
 30
0.0
 11
350.6454695453064
 21
305.3906355493674
 31
0.0
  0
LINE
  5
BE2
330
B10
100
AcDbEntity
  8
0
 62
     0
100
AcDbLine
 10
457.645469545306
 20
412.390635549367
 30
0.0
 11
459.645469545306
 21
414.390635549367
 31
0.0
  0
LINE
  5
BE3
330
B10
100
AcDbEntity
  8
0
 62
     0
100
AcDbLine
 10
351.4738966700525
 20
303.3906355493673
 30
0.0
 11
353.4738966700526
 21
305.3906355493674
 31
0.0
  0
LINE
  5
BE4
330
B10
100
AcDbEntity
  8
0
 62
     0
100
AcDbLine
 10
460.4738966700522
 20
412.390635549367
 30
0.0
 11
462.4738966700522
 21
414.390635549367
 31
0.0
  0
LINE
  5
BE5
330
B10
100
AcDbEntity
  8
0
 62
     0
100
AcDbLine
 10
354.3023237947987
 20
303.3906355493673
 30
0.0
 11
356.3023237947987
 21
305.3906355493674
 31
0.0
  0
LINE
  5
BE6
330
B10
100
AcDbEntity
  8
0
 62
     0
100
AcDbLine
 10
463.3023237947985
 20
412.390635549367
 30
0.0
 11
465.3023237947984
 21
414.390635549367
 31
0.0
  0
LINE
  5
BE7
330
B10
100
AcDbEntity
  8
0
 62
     0
100
AcDbLine
 10
357.1307509195449
 20
303.3906355493673
 30
0.0
 11
359.1307509195449
 21
305.3906355493674
 31
0.0
  0
LINE
  5
BE8
330
B10
100
AcDbEntity
  8
0
 62
     0
100
AcDbLine
 10
466.1307509195446
 20
412.390635549367
 30
0.0
 11
468.1307509195446
 21
414.390635549367
 31
0.0
  0
LINE
  5
BE9
330
B10
100
AcDbEntity
  8
0
 62
     0
100
AcDbLine
 10
359.9591780442911
 20
303.3906355493673
 30
0.0
 11
361.9591780442911
 21
305.3906355493674
 31
0.0
  0
LINE
  5
BEA
330
B10
100
AcDbEntity
  8
0
 62
     0
100
AcDbLine
 10
468.9591780442908
 20
412.390635549367
 30
0.0
 11
470.9591780442908
 21
414.390635549367
 31
0.0
  0
LINE
  5
BEB
330
B10
100
AcDbEntity
  8
0
 62
     0
100
AcDbLine
 10
362.7876051690373
 20
303.3906355493673
 30
0.0
 11
364.7876051690373
 21
305.3906355493674
 31
0.0
  0
LINE
  5
BEC
330
B10
100
AcDbEntity
  8
0
 62
     0
100
AcDbLine
 10
471.787605169037
 20
412.390635549367
 30
0.0
 11
473.787605169037
 21
414.390635549367
 31
0.0
  0
LINE
  5
BED
330
B10
100
AcDbEntity
  8
0
 62
     0
100
AcDbLine
 10
365.6160322937834
 20
303.3906355493673
 30
0.0
 11
367.6160322937835
 21
305.3906355493674
 31
0.0
  0
LINE
  5
BEE
330
B10
100
AcDbEntity
  8
0
 62
     0
100
AcDbLine
 10
474.6160322937832
 20
412.390635549367
 30
0.0
 11
476.6160322937832
 21
414.390635549367
 31
0.0
  0
LINE
  5
BEF
330
B10
100
AcDbEntity
  8
0
 62
     0
100
AcDbLine
 10
368.4444594185297
 20
303.3906355493673
 30
0.0
 11
370.4444594185297
 21
305.3906355493674
 31
0.0
  0
LINE
  5
BF0
330
B10
100
AcDbEntity
  8
0
 62
     0
100
AcDbLine
 10
477.4444594185294
 20
412.390635549367
 30
0.0
 11
479.4444594185294
 21
414.390635549367
 31
0.0
  0
LINE
  5
BF1
330
B10
100
AcDbEntity
  8
0
 62
     0
100
AcDbLine
 10
371.2728865432759
 20
303.3906355493673
 30
0.0
 11
373.2728865432759
 21
305.3906355493674
 31
0.0
  0
LINE
  5
BF2
330
B10
100
AcDbEntity
  8
0
 62
     0
100
AcDbLine
 10
480.2728865432755
 20
412.390635549367
 30
0.0
 11
482.2728865432755
 21
414.390635549367
 31
0.0
  0
LINE
  5
BF3
330
B10
100
AcDbEntity
  8
0
 62
     0
100
AcDbLine
 10
374.1013136680221
 20
303.3906355493673
 30
0.0
 11
376.1013136680221
 21
305.3906355493674
 31
0.0
  0
LINE
  5
BF4
330
B10
100
AcDbEntity
  8
0
 62
     0
100
AcDbLine
 10
483.1013136680218
 20
412.390635549367
 30
0.0
 11
485.1013136680217
 21
414.390635549367
 31
0.0
  0
LINE
  5
BF5
330
B10
100
AcDbEntity
  8
0
 62
     0
100
AcDbLine
 10
376.9297407927683
 20
303.3906355493673
 30
0.0
 11
378.9297407927683
 21
305.3906355493674
 31
0.0
  0
LINE
  5
BF6
330
B10
100
AcDbEntity
  8
0
 62
     0
100
AcDbLine
 10
485.9297407927679
 20
412.390635549367
 30
0.0
 11
487.9297407927679
 21
414.390635549367
 31
0.0
  0
LINE
  5
BF7
330
B10
100
AcDbEntity
  8
0
 62
     0
100
AcDbLine
 10
379.7581679175144
 20
303.3906355493673
 30
0.0
 11
381.7581679175145
 21
305.3906355493674
 31
0.0
  0
LINE
  5
BF8
330
B10
100
AcDbEntity
  8
0
 62
     0
100
AcDbLine
 10
488.7581679175141
 20
412.390635549367
 30
0.0
 11
490.7581679175141
 21
414.390635549367
 31
0.0
  0
LINE
  5
BF9
330
B10
100
AcDbEntity
  8
0
 62
     0
100
AcDbLine
 10
382.5865950422606
 20
303.3906355493673
 30
0.0
 11
382.8567418828987
 21
303.6607823900054
 31
0.0
  0
LINE
  5
BFA
330
B10
100
AcDbEntity
  8
0
 62
     0
100
AcDbLine
 10
491.5865950422603
 20
412.390635549367
 30
0.0
 11
493.5865950422603
 21
414.390635549367
 31
0.0
  0
LINE
  5
BFB
330
B10
100
AcDbEntity
  8
0
 62
     0
100
AcDbLine
 10
494.4150221670065
 20
412.390635549367
 30
0.0
 11
496.4150221670065
 21
414.390635549367
 31
0.0
  0
LINE
  5
BFC
330
B10
100
AcDbEntity
  8
0
 62
     0
100
AcDbLine
 10
388.5346376671849
 20
303.6818239247992
 30
0.0
 11
390.2434492917531
 21
305.3906355493674
 31
0.0
  0
LINE
  5
BFD
330
B10
100
AcDbEntity
  8
0
 62
     0
100
AcDbLine
 10
497.2434492917527
 20
412.390635549367
 30
0.0
 11
499.2434492917527
 21
414.390635549367
 31
0.0
  0
LINE
  5
BFE
330
B10
100
AcDbEntity
  8
0
 62
     0
100
AcDbLine
 10
391.0718764164992
 20
303.3906355493674
 30
0.0
 11
393.0718764164992
 21
305.3906355493674
 31
0.0
  0
LINE
  5
BFF
330
B10
100
AcDbEntity
  8
0
 62
     0
100
AcDbLine
 10
500.0718764164989
 20
412.390635549367
 30
0.0
 11
502.0718764164988
 21
414.390635549367
 31
0.0
  0
LINE
  5
C00
330
B10
100
AcDbEntity
  8
0
 62
     0
100
AcDbLine
 10
393.9003035412454
 20
303.3906355493674
 30
0.0
 11
395.9003035412454
 21
305.3906355493674
 31
0.0
  0
LINE
  5
C01
330
B10
100
AcDbEntity
  8
0
 62
     0
100
AcDbLine
 10
502.9003035412451
 20
412.390635549367
 30
0.0
 11
504.900303541245
 21
414.390635549367
 31
0.0
  0
LINE
  5
C02
330
B10
100
AcDbEntity
  8
0
 62
     0
100
AcDbLine
 10
396.7287306659916
 20
303.3906355493674
 30
0.0
 11
398.7287306659916
 21
305.3906355493674
 31
0.0
  0
LINE
  5
C03
330
B10
100
AcDbEntity
  8
0
 62
     0
100
AcDbLine
 10
505.7287306659913
 20
412.390635549367
 30
0.0
 11
507.7287306659912
 21
414.390635549367
 31
0.0
  0
LINE
  5
C04
330
B10
100
AcDbEntity
  8
0
 62
     0
100
AcDbLine
 10
399.5571577907378
 20
303.3906355493674
 30
0.0
 11
401.5571577907378
 21
305.3906355493674
 31
0.0
  0
LINE
  5
C05
330
B10
100
AcDbEntity
  8
0
 62
     0
100
AcDbLine
 10
508.5571577907375
 20
412.390635549367
 30
0.0
 11
510.5571577907374
 21
414.390635549367
 31
0.0
  0
LINE
  5
C06
330
B10
100
AcDbEntity
  8
0
 62
     0
100
AcDbLine
 10
402.3855849154839
 20
303.3906355493674
 30
0.0
 11
404.3855849154839
 21
305.3906355493674
 31
0.0
  0
LINE
  5
C07
330
B10
100
AcDbEntity
  8
0
 62
     0
100
AcDbLine
 10
511.3855849154837
 20
412.390635549367
 30
0.0
 11
513.3855849154835
 21
414.390635549367
 31
0.0
  0
LINE
  5
C08
330
B10
100
AcDbEntity
  8
0
 62
     0
100
AcDbLine
 10
405.2140120402301
 20
303.3906355493674
 30
0.0
 11
407.2140120402301
 21
305.3906355493674
 31
0.0
  0
LINE
  5
C09
330
B10
100
AcDbEntity
  8
0
 62
     0
100
AcDbLine
 10
514.2140120402299
 20
412.390635549367
 30
0.0
 11
516.2140120402297
 21
414.390635549367
 31
0.0
  0
LINE
  5
C0A
330
B10
100
AcDbEntity
  8
0
 62
     0
100
AcDbLine
 10
408.0424391649764
 20
303.3906355493674
 30
0.0
 11
410.0424391649763
 21
305.3906355493673
 31
0.0
  0
LINE
  5
C0B
330
B10
100
AcDbEntity
  8
0
 62
     0
100
AcDbLine
 10
517.042439164976
 20
412.390635549367
 30
0.0
 11
519.042439164976
 21
414.3906355493669
 31
0.0
  0
LINE
  5
C0C
330
B10
100
AcDbEntity
  8
0
 62
     0
100
AcDbLine
 10
410.8708662897225
 20
303.3906355493674
 30
0.0
 11
412.8708662897225
 21
305.3906355493673
 31
0.0
  0
LINE
  5
C0D
330
B10
100
AcDbEntity
  8
0
 62
     0
100
AcDbLine
 10
519.8708662897222
 20
412.390635549367
 30
0.0
 11
521.8708662897221
 21
414.3906355493669
 31
0.0
  0
LINE
  5
C0E
330
B10
100
AcDbEntity
  8
0
 62
     0
100
AcDbLine
 10
413.6992934144687
 20
303.3906355493674
 30
0.0
 11
415.6992934144686
 21
305.3906355493673
 31
0.0
  0
LINE
  5
C0F
330
B10
100
AcDbEntity
  8
0
 62
     0
100
AcDbLine
 10
522.6992934144684
 20
412.390635549367
 30
0.0
 11
524.6992934144683
 21
414.3906355493669
 31
0.0
  0
LINE
  5
C10
330
B10
100
AcDbEntity
  8
0
 62
     0
100
AcDbLine
 10
416.520203678545
 20
303.3831186886974
 30
0.0
 11
418.3457054881496
 21
305.208620498302
 31
0.0
  0
LINE
  5
C11
330
B10
100
AcDbEntity
  8
0
 62
     0
100
AcDbLine
 10
525.5277205392146
 20
412.390635549367
 30
0.0
 11
527.5277205392145
 21
414.3906355493669
 31
0.0
  0
LINE
  5
C12
330
B10
100
AcDbEntity
  8
0
 62
     0
100
AcDbLine
 10
418.9994760006436
 20
303.0339638860499
 30
0.0
 11
420.60873232826
 21
304.6432202136663
 31
0.0
  0
LINE
  5
C13
330
B10
100
AcDbEntity
  8
0
 62
     0
100
AcDbLine
 10
528.3561476639609
 20
412.390635549367
 30
0.0
 11
530.3561476639607
 21
414.3906355493669
 31
0.0
  0
LINE
  5
C14
330
B10
100
AcDbEntity
  8
0
 62
     0
100
AcDbLine
 10
421.0942002662401
 20
302.3002610269001
 30
0.0
 11
422.606732142065
 21
303.812792902725
 31
0.0
  0
LINE
  5
C15
330
B10
100
AcDbEntity
  8
0
 62
     0
100
AcDbLine
 10
531.1845747887069
 20
412.390635549367
 30
0.0
 11
533.1845747887069
 21
414.3906355493669
 31
0.0
  0
LINE
  5
C16
330
B10
100
AcDbEntity
  8
0
 62
     0
100
AcDbLine
 10
423.0448396626168
 20
301.4224732985306
 30
0.0
 11
424.5573715384416
 21
302.9350051743555
 31
0.0
  0
LINE
  5
C17
330
B10
100
AcDbEntity
  8
0
 62
     0
100
AcDbLine
 10
534.0130019134532
 20
412.390635549367
 30
0.0
 11
536.0130019134531
 21
414.3906355493669
 31
0.0
  0
LINE
  5
C18
330
B10
100
AcDbEntity
  8
0
 62
     0
100
AcDbLine
 10
424.9954790589935
 20
300.5446855701612
 30
0.0
 11
426.5080109348184
 21
302.057217445986
 31
0.0
  0
LINE
  5
C19
330
B10
100
AcDbEntity
  8
0
 62
     0
100
AcDbLine
 10
536.8414290381994
 20
412.390635549367
 30
0.0
 11
538.8414290381993
 21
414.3906355493669
 31
0.0
  0
LINE
  5
C1A
330
B10
100
AcDbEntity
  8
0
 62
     0
100
AcDbLine
 10
426.9461184553701
 20
299.6668978417917
 30
0.0
 11
428.458650331195
 21
301.1794297176165
 31
0.0
  0
LINE
  5
C1B
330
B10
100
AcDbEntity
  8
0
 62
     0
100
AcDbLine
 10
539.6698561629456
 20
412.390635549367
 30
0.0
 11
541.6698561629455
 21
414.3906355493669
 31
0.0
  0
LINE
  5
C1C
330
B10
100
AcDbEntity
  8
0
 62
     0
100
AcDbLine
 10
428.8967578517468
 20
298.7891101134221
 30
0.0
 11
430.4092897275717
 21
300.301641989247
 31
0.0
  0
LINE
  5
C1D
330
B10
100
AcDbEntity
  8
0
 62
     0
100
AcDbLine
 10
542.4982832876918
 20
412.390635549367
 30
0.0
 11
544.4982832876917
 21
414.3906355493669
 31
0.0
  0
LINE
  5
C1E
330
B10
100
AcDbEntity
  8
0
 62
     0
100
AcDbLine
 10
430.8473972481235
 20
297.9113223850526
 30
0.0
 11
432.3599291239483
 21
299.4238542608775
 31
0.0
  0
LINE
  5
C1F
330
B10
100
AcDbEntity
  8
0
 62
     0
100
AcDbLine
 10
545.3267104124379
 20
412.390635549367
 30
0.0
 11
547.3267104124379
 21
414.3906355493669
 31
0.0
  0
LINE
  5
C20
330
B10
100
AcDbEntity
  8
0
 62
     0
100
AcDbLine
 10
432.7980366445002
 20
297.0335346566831
 30
0.0
 11
434.310568520325
 21
298.546066532508
 31
0.0
  0
LINE
  5
C21
330
B10
100
AcDbEntity
  8
0
 62
     0
100
AcDbLine
 10
548.1551375371841
 20
412.390635549367
 30
0.0
 11
550.155137537184
 21
414.3906355493669
 31
0.0
  0
LINE
  5
C22
330
B10
100
AcDbEntity
  8
0
 62
     0
100
AcDbLine
 10
434.7486760408768
 20
296.1557469283136
 30
0.0
 11
436.2612079167017
 21
297.6682788041384
 31
0.0
  0
LINE
  5
C23
330
B10
100
AcDbEntity
  8
0
 62
     0
100
AcDbLine
 10
550.9835646619303
 20
412.390635549367
 30
0.0
 11
552.9835646619302
 21
414.3906355493669
 31
0.0
  0
LINE
  5
C24
330
B10
100
AcDbEntity
  8
0
 62
     0
100
AcDbLine
 10
436.7189610632914
 20
295.297604825982
 30
0.0
 11
438.2974327080833
 21
296.8760764707738
 31
0.0
  0
LINE
  5
C25
330
B10
100
AcDbEntity
  8
0
 62
     0
100
AcDbLine
 10
553.8119917866765
 20
412.390635549367
 30
0.0
 11
555.8119917866764
 21
414.3906355493669
 31
0.0
  0
LINE
  5
C26
330
B10
100
AcDbEntity
  8
0
 62
     0
100
AcDbLine
 10
438.9153159858783
 20
294.6655326238225
 30
0.0
 11
440.6816866041814
 21
296.4319032421257
 31
0.0
  0
LINE
  5
C27
330
B10
100
AcDbEntity
  8
0
 62
     0
100
AcDbLine
 10
556.6404189114227
 20
412.390635549367
 30
0.0
 11
558.6404189114226
 21
414.3906355493669
 31
0.0
  0
LINE
  5
C28
330
B10
100
AcDbEntity
  8
0
 62
     0
100
AcDbLine
 10
441.4703569035817
 20
294.3921464167799
 30
0.0
 11
443.468846036169
 21
296.3906355493672
 31
0.0
  0
LINE
  5
C29
330
B10
100
AcDbEntity
  8
0
 62
     0
100
AcDbLine
 10
559.4688460361688
 20
412.390635549367
 30
0.0
 11
561.4688460361687
 21
414.3906355493669
 31
0.0
  0
LINE
  5
C2A
330
B10
100
AcDbEntity
  8
0
 62
     0
100
AcDbLine
 10
444.2972731609152
 20
294.3906355493672
 30
0.0
 11
446.2972731609152
 21
296.3906355493672
 31
0.0
  0
LINE
  5
C2B
330
B10
100
AcDbEntity
  8
0
 62
     0
100
AcDbLine
 10
562.297273160915
 20
412.390635549367
 30
0.0
 11
564.2972731609149
 21
414.3906355493669
 31
0.0
  0
LINE
  5
C2C
330
B10
100
AcDbEntity
  8
0
 62
     0
100
AcDbLine
 10
447.1257002856614
 20
294.3906355493672
 30
0.0
 11
449.1257002856614
 21
296.3906355493672
 31
0.0
  0
LINE
  5
C2D
330
B10
100
AcDbEntity
  8
0
 62
     0
100
AcDbLine
 10
565.1257002856612
 20
412.390635549367
 30
0.0
 11
567.1257002856612
 21
414.3906355493669
 31
0.0
  0
LINE
  5
C2E
330
B10
100
AcDbEntity
  8
0
 62
     0
100
AcDbLine
 10
449.9541274104076
 20
294.3906355493672
 30
0.0
 11
451.9541274104075
 21
296.3906355493672
 31
0.0
  0
LINE
  5
C2F
330
B10
100
AcDbEntity
  8
0
 62
     0
100
AcDbLine
 10
567.9541274104074
 20
412.390635549367
 30
0.0
 11
569.9541274104074
 21
414.3906355493669
 31
0.0
  0
LINE
  5
C30
330
B10
100
AcDbEntity
  8
0
 62
     0
100
AcDbLine
 10
452.7825545351539
 20
294.3906355493672
 30
0.0
 11
454.7825545351537
 21
296.3906355493671
 31
0.0
  0
LINE
  5
C31
330
B10
100
AcDbEntity
  8
0
 62
     0
100
AcDbLine
 10
570.7825545351537
 20
412.390635549367
 30
0.0
 11
572.7825545351536
 21
414.3906355493669
 31
0.0
  0
LINE
  5
C32
330
B10
100
AcDbEntity
  8
0
 62
     0
100
AcDbLine
 10
455.6109816599
 20
294.3906355493672
 30
0.0
 11
457.6109816598999
 21
296.3906355493671
 31
0.0
  0
LINE
  5
C33
330
B10
100
AcDbEntity
  8
0
 62
     0
100
AcDbLine
 10
573.6109816598998
 20
412.390635549367
 30
0.0
 11
575.6109816598997
 21
414.3906355493669
 31
0.0
  0
LINE
  5
C34
330
B10
100
AcDbEntity
  8
0
 62
     0
100
AcDbLine
 10
458.4394087846462
 20
294.3906355493672
 30
0.0
 11
460.4394087846461
 21
296.3906355493671
 31
0.0
  0
LINE
  5
C35
330
B10
100
AcDbEntity
  8
0
 62
     0
100
AcDbLine
 10
576.4394087846461
 20
412.390635549367
 30
0.0
 11
578.4394087846459
 21
414.3906355493669
 31
0.0
  0
LINE
  5
C36
330
B10
100
AcDbEntity
  8
0
 62
     0
100
AcDbLine
 10
461.2678359093924
 20
294.3906355493672
 30
0.0
 11
463.2678359093922
 21
296.3906355493671
 31
0.0
  0
LINE
  5
C37
330
B10
100
AcDbEntity
  8
0
 62
     0
100
AcDbLine
 10
579.2678359093923
 20
412.390635549367
 30
0.0
 11
581.2678359093921
 21
414.3906355493669
 31
0.0
  0
LINE
  5
C38
330
B10
100
AcDbEntity
  8
0
 62
     0
100
AcDbLine
 10
464.0962630341386
 20
294.3906355493672
 30
0.0
 11
466.0962630341385
 21
296.3906355493671
 31
0.0
  0
LINE
  5
C39
330
B10
100
AcDbEntity
  8
0
 62
     0
100
AcDbLine
 10
582.0962630341385
 20
412.390635549367
 30
0.0
 11
584.0962630341383
 21
414.3906355493669
 31
0.0
  0
LINE
  5
C3A
330
B10
100
AcDbEntity
  8
0
 62
     0
100
AcDbLine
 10
466.9246901588847
 20
294.3906355493672
 30
0.0
 11
468.9246901588846
 21
296.3906355493671
 31
0.0
  0
LINE
  5
C3B
330
B10
100
AcDbEntity
  8
0
 62
     0
100
AcDbLine
 10
584.9306784053312
 20
412.3966237958136
 30
0.0
 11
587.0719998899978
 21
414.5379452804801
 31
0.0
  0
LINE
  5
C3C
330
B10
100
AcDbEntity
  8
0
 62
     0
100
AcDbLine
 10
469.7531172836309
 20
294.3906355493672
 30
0.0
 11
471.7531172836308
 21
296.3906355493671
 31
0.0
  0
LINE
  5
C3D
330
B10
100
AcDbEntity
  8
0
 62
     0
100
AcDbLine
 10
587.9992193314686
 20
412.6367375972049
 30
0.0
 11
590.5245440037115
 21
415.1620622694478
 31
0.0
  0
LINE
  5
C3E
330
B10
100
AcDbEntity
  8
0
 62
     0
100
AcDbLine
 10
472.5815444083771
 20
294.3906355493672
 30
0.0
 11
474.581544408377
 21
296.3906355493671
 31
0.0
  0
LINE
  5
C3F
330
B10
100
AcDbEntity
  8
0
 62
     0
100
AcDbLine
 10
591.5581712509619
 20
413.3672623919521
 30
0.0
 11
594.9206502345161
 21
416.7297413755061
 31
0.0
  0
LINE
  5
C40
330
B10
100
AcDbEntity
  8
0
 62
     0
100
AcDbLine
 10
475.4099715331233
 20
294.3906355493672
 30
0.0
 11
477.4099715331232
 21
296.3906355493671
 31
0.0
  0
LINE
  5
C41
330
B10
100
AcDbEntity
  8
0
 62
     0
100
AcDbLine
 10
596.0902241448637
 20
415.0708881611075
 30
0.0
 11
598.225907554182
 21
417.206571570426
 31
0.0
  0
LINE
  5
C42
330
B10
100
AcDbEntity
  8
0
 62
     0
100
AcDbLine
 10
478.2383986578694
 20
294.3906355493671
 30
0.0
 11
480.2383986578694
 21
296.3906355493671
 31
0.0
  0
LINE
  5
C43
330
B10
100
AcDbEntity
  8
0
 62
     0
100
AcDbLine
 10
481.0668257826157
 20
294.3906355493671
 30
0.0
 11
483.0668257826156
 21
296.3906355493671
 31
0.0
  0
LINE
  5
C44
330
B10
100
AcDbEntity
  8
0
 62
     0
100
AcDbLine
 10
483.8952529073618
 20
294.3906355493671
 30
0.0
 11
485.8952529073618
 21
296.3906355493671
 31
0.0
  0
LINE
  5
C45
330
B10
100
AcDbEntity
  8
0
 62
     0
100
AcDbLine
 10
486.723680032108
 20
294.3906355493671
 30
0.0
 11
488.723680032108
 21
296.3906355493671
 31
0.0
  0
LINE
  5
C46
330
B10
100
AcDbEntity
  8
0
 62
     0
100
AcDbLine
 10
489.5521071568542
 20
294.3906355493671
 30
0.0
 11
491.5521071568541
 21
296.3906355493671
 31
0.0
  0
LINE
  5
C47
330
B10
100
AcDbEntity
  8
0
 62
     0
100
AcDbLine
 10
492.3805342816004
 20
294.3906355493671
 30
0.0
 11
494.3805342816004
 21
296.3906355493671
 31
0.0
  0
LINE
  5
C48
330
B10
100
AcDbEntity
  8
0
 62
     0
100
AcDbLine
 10
495.2089614063465
 20
294.3906355493671
 30
0.0
 11
497.2089614063465
 21
296.3906355493671
 31
0.0
  0
LINE
  5
C49
330
B10
100
AcDbEntity
  8
0
 62
     0
100
AcDbLine
 10
498.0373885310927
 20
294.3906355493671
 30
0.0
 11
500.0373885310927
 21
296.3906355493671
 31
0.0
  0
LINE
  5
C4A
330
B10
100
AcDbEntity
  8
0
 62
     0
100
AcDbLine
 10
500.8658156558389
 20
294.3906355493671
 30
0.0
 11
502.8658156558389
 21
296.3906355493671
 31
0.0
  0
LINE
  5
C4B
330
B10
100
AcDbEntity
  8
0
 62
     0
100
AcDbLine
 10
503.6942427805851
 20
294.3906355493671
 30
0.0
 11
505.6942427805851
 21
296.3906355493671
 31
0.0
  0
LINE
  5
C4C
330
B10
100
AcDbEntity
  8
0
 62
     0
100
AcDbLine
 10
506.5226699053313
 20
294.3906355493671
 30
0.0
 11
508.5226699053312
 21
296.3906355493671
 31
0.0
  0
LINE
  5
C4D
330
B10
100
AcDbEntity
  8
0
 62
     0
100
AcDbLine
 10
509.3510970300775
 20
294.3906355493671
 30
0.0
 11
511.3510970300774
 21
296.3906355493671
 31
0.0
  0
LINE
  5
C4E
330
B10
100
AcDbEntity
  8
0
 62
     0
100
AcDbLine
 10
512.1795241548237
 20
294.3906355493671
 30
0.0
 11
514.1795241548236
 21
296.3906355493671
 31
0.0
  0
LINE
  5
C4F
330
B10
100
AcDbEntity
  8
0
 62
     0
100
AcDbLine
 10
515.0079512795698
 20
294.3906355493671
 30
0.0
 11
517.0079512795698
 21
296.3906355493671
 31
0.0
  0
LINE
  5
C50
330
B10
100
AcDbEntity
  8
0
 62
     0
100
AcDbLine
 10
517.8363784043161
 20
294.3906355493671
 30
0.0
 11
519.836378404316
 21
296.3906355493671
 31
0.0
  0
LINE
  5
C51
330
B10
100
AcDbEntity
  8
0
 62
     0
100
AcDbLine
 10
520.6648055290623
 20
294.3906355493671
 30
0.0
 11
522.6648055290621
 21
296.3906355493671
 31
0.0
  0
LINE
  5
C52
330
B10
100
AcDbEntity
  8
0
 62
     0
100
AcDbLine
 10
523.4932326538085
 20
294.3906355493671
 30
0.0
 11
525.4932326538083
 21
296.390635549367
 31
0.0
  0
LINE
  5
C53
330
B10
100
AcDbEntity
  8
0
 62
     0
100
AcDbLine
 10
526.3216597785547
 20
294.3906355493671
 30
0.0
 11
528.3216597785545
 21
296.390635549367
 31
0.0
  0
LINE
  5
C54
330
B10
100
AcDbEntity
  8
0
 62
     0
100
AcDbLine
 10
529.1500869033008
 20
294.3906355493671
 30
0.0
 11
531.1500869033007
 21
296.390635549367
 31
0.0
  0
LINE
  5
C55
330
B10
100
AcDbEntity
  8
0
 62
     0
100
AcDbLine
 10
531.978514028047
 20
294.3906355493671
 30
0.0
 11
533.9785140280469
 21
296.390635549367
 31
0.0
  0
LINE
  5
C56
330
B10
100
AcDbEntity
  8
0
 62
     0
100
AcDbLine
 10
534.8069411527932
 20
294.3906355493671
 30
0.0
 11
536.8069411527931
 21
296.390635549367
 31
0.0
  0
LINE
  5
C57
330
B10
100
AcDbEntity
  8
0
 62
     0
100
AcDbLine
 10
537.6353682775394
 20
294.3906355493671
 30
0.0
 11
539.6353682775393
 21
296.390635549367
 31
0.0
  0
LINE
  5
C58
330
B10
100
AcDbEntity
  8
0
 62
     0
100
AcDbLine
 10
540.4637954022855
 20
294.3906355493671
 30
0.0
 11
542.4637954022855
 21
296.390635549367
 31
0.0
  0
LINE
  5
C59
330
B10
100
AcDbEntity
  8
0
 62
     0
100
AcDbLine
 10
543.2922225270317
 20
294.3906355493671
 30
0.0
 11
545.2922225270316
 21
296.390635549367
 31
0.0
  0
LINE
  5
C5A
330
B10
100
AcDbEntity
  8
0
 62
     0
100
AcDbLine
 10
546.1206496517779
 20
294.3906355493671
 30
0.0
 11
548.1206496517778
 21
296.390635549367
 31
0.0
  0
LINE
  5
C5B
330
B10
100
AcDbEntity
  8
0
 62
     0
100
AcDbLine
 10
548.9490767765241
 20
294.3906355493671
 30
0.0
 11
550.9490767765241
 21
296.390635549367
 31
0.0
  0
LINE
  5
C5C
330
B10
100
AcDbEntity
  8
0
 62
     0
100
AcDbLine
 10
551.7775039012702
 20
294.390635549367
 30
0.0
 11
553.7775039012703
 21
296.390635549367
 31
0.0
  0
LINE
  5
C5D
330
B10
100
AcDbEntity
  8
0
 62
     0
100
AcDbLine
 10
554.6059310260164
 20
294.390635549367
 30
0.0
 11
556.6059310260165
 21
296.390635549367
 31
0.0
  0
LINE
  5
C5E
330
B10
100
AcDbEntity
  8
0
 62
     0
100
AcDbLine
 10
557.4343581507626
 20
294.390635549367
 30
0.0
 11
559.4343581507626
 21
296.390635549367
 31
0.0
  0
LINE
  5
C5F
330
B10
100
AcDbEntity
  8
0
 62
     0
100
AcDbLine
 10
560.2627852755089
 20
294.390635549367
 30
0.0
 11
562.2627852755088
 21
296.3906355493669
 31
0.0
  0
LINE
  5
C60
330
B10
100
AcDbEntity
  8
0
 62
     0
100
AcDbLine
 10
563.0912124002549
 20
294.390635549367
 30
0.0
 11
565.091212400255
 21
296.3906355493669
 31
0.0
  0
LINE
  5
C61
330
B10
100
AcDbEntity
  8
0
 62
     0
100
AcDbLine
 10
565.9196395250012
 20
294.390635549367
 30
0.0
 11
567.9196395250012
 21
296.3906355493669
 31
0.0
  0
LINE
  5
C62
330
B10
100
AcDbEntity
  8
0
 62
     0
100
AcDbLine
 10
568.7480666497474
 20
294.390635549367
 30
0.0
 11
570.7480666497473
 21
296.3906355493669
 31
0.0
  0
LINE
  5
C63
330
B10
100
AcDbEntity
  8
0
 62
     0
100
AcDbLine
 10
571.5764937744936
 20
294.390635549367
 30
0.0
 11
573.5764937744935
 21
296.3906355493669
 31
0.0
  0
LINE
  5
C64
330
B10
100
AcDbEntity
  8
0
 62
     0
100
AcDbLine
 10
574.4049208992398
 20
294.390635549367
 30
0.0
 11
576.4049208992397
 21
296.3906355493669
 31
0.0
  0
LINE
  5
C65
330
B10
100
AcDbEntity
  8
0
 62
     0
100
AcDbLine
 10
577.233348023986
 20
294.390635549367
 30
0.0
 11
579.2333480239859
 21
296.3906355493669
 31
0.0
  0
LINE
  5
C66
330
B10
100
AcDbEntity
  8
0
 62
     0
100
AcDbLine
 10
580.0617751487322
 20
294.390635549367
 30
0.0
 11
582.061775148732
 21
296.3906355493669
 31
0.0
  0
LINE
  5
C67
330
B10
100
AcDbEntity
  8
0
 62
     0
100
AcDbLine
 10
582.8902022734784
 20
294.390635549367
 30
0.0
 11
584.8851349506092
 21
296.3855682264979
 31
0.0
  0
LINE
  5
C68
330
B10
100
AcDbEntity
  8
0
 62
     0
100
AcDbLine
 10
585.6836716893361
 20
294.3556778404785
 30
0.0
 11
587.53191033498
 21
296.2039164861224
 31
0.0
  0
LINE
  5
C69
330
B10
100
AcDbEntity
  8
0
 62
     0
100
AcDbLine
 10
588.2438514151431
 20
294.0874304415394
 30
0.0
 11
589.9603039476505
 21
295.8038829740468
 31
0.0
  0
LINE
  5
C6A
330
B10
100
AcDbEntity
  8
0
 62
     0
100
AcDbLine
 10
590.5878635765433
 20
293.6030154781934
 30
0.0
 11
592.2098154414088
 21
295.2249673430589
 31
0.0
  0
LINE
  5
C6B
330
B10
100
AcDbEntity
  8
0
 62
     0
100
AcDbLine
 10
592.7535085186567
 20
292.9402332955606
 30
0.0
 11
594.3060446405702
 21
294.4927694174741
 31
0.0
  0
LINE
  5
C6C
330
B10
100
AcDbEntity
  8
0
 62
     0
100
AcDbLine
 10
594.7650734295573
 20
292.123371081715
 30
0.0
 11
596.2663566887879
 21
293.6246543409456
 31
0.0
  0
LINE
  5
C6D
330
B10
100
AcDbEntity
  8
0
 62
     0
100
AcDbLine
 10
596.6387822673425
 20
291.168652794754
 30
0.0
 11
598.1027974652428
 21
292.6326679926543
 31
0.0
  0
ENDBLK
  5
C6E
330
B10
100
AcDbEntity
  8
0
100
AcDbBlockEnd
  0
BLOCK
  5
C70
330
C6F
100
AcDbEntity
  8
0
100
AcDbBlockBegin
  2
*X7
 70
     1
 10
0.0
 20
0.0
 30
0.0
  3
*X7
  1

  0
LINE
  5
C71
330
C6F
100
AcDbEntity
  8
0
 62
     0
100
AcDbLine
 10
731.8136921077383
 20
303.390635549367
 30
0.0
 11
729.8136921077386
 21
305.390635549367
 31
0.0
  0
LINE
  5
C72
330
C6F
100
AcDbEntity
  8
0
 62
     0
100
AcDbLine
 10
631.8136921077385
 20
403.3906355493668
 30
0.0
 11
629.8136921077386
 21
405.3906355493668
 31
0.0
  0
LINE
  5
C73
330
C6F
100
AcDbEntity
  8
0
 62
     0
100
AcDbLine
 10
728.9852649829922
 20
303.390635549367
 30
0.0
 11
726.9852649829923
 21
305.390635549367
 31
0.0
  0
LINE
  5
C74
330
C6F
100
AcDbEntity
  8
0
 62
     0
100
AcDbLine
 10
628.9852649829923
 20
403.3906355493668
 30
0.0
 11
626.9852649829923
 21
405.3906355493668
 31
0.0
  0
LINE
  5
C75
330
C6F
100
AcDbEntity
  8
0
 62
     0
100
AcDbLine
 10
726.156837858246
 20
303.390635549367
 30
0.0
 11
724.1568378582461
 21
305.390635549367
 31
0.0
  0
LINE
  5
C76
330
C6F
100
AcDbEntity
  8
0
 62
     0
100
AcDbLine
 10
626.1568378582462
 20
403.3906355493668
 30
0.0
 11
624.1568378582463
 21
405.3906355493668
 31
0.0
  0
LINE
  5
C77
330
C6F
100
AcDbEntity
  8
0
 62
     0
100
AcDbLine
 10
723.3284107334998
 20
303.390635549367
 30
0.0
 11
721.3284107335
 21
305.390635549367
 31
0.0
  0
LINE
  5
C78
330
C6F
100
AcDbEntity
  8
0
 62
     0
100
AcDbLine
 10
623.3284107335
 20
403.3906355493668
 30
0.0
 11
621.3284107335
 21
405.3906355493668
 31
0.0
  0
LINE
  5
C79
330
C6F
100
AcDbEntity
  8
0
 62
     0
100
AcDbLine
 10
720.4999836087536
 20
303.390635549367
 30
0.0
 11
718.4999836087538
 21
305.390635549367
 31
0.0
  0
LINE
  5
C7A
330
C6F
100
AcDbEntity
  8
0
 62
     0
100
AcDbLine
 10
620.4999836087538
 20
403.3906355493668
 30
0.0
 11
618.4999836087538
 21
405.3906355493668
 31
0.0
  0
LINE
  5
C7B
330
C6F
100
AcDbEntity
  8
0
 62
     0
100
AcDbLine
 10
717.6715564840074
 20
303.390635549367
 30
0.0
 11
715.6715564840076
 21
305.390635549367
 31
0.0
  0
LINE
  5
C7C
330
C6F
100
AcDbEntity
  8
0
 62
     0
100
AcDbLine
 10
617.6715564840076
 20
403.3906355493668
 30
0.0
 11
615.6715564840076
 21
405.3906355493668
 31
0.0
  0
LINE
  5
C7D
330
C6F
100
AcDbEntity
  8
0
 62
     0
100
AcDbLine
 10
714.8431293592612
 20
303.390635549367
 30
0.0
 11
712.8431293592614
 21
305.390635549367
 31
0.0
  0
LINE
  5
C7E
330
C6F
100
AcDbEntity
  8
0
 62
     0
100
AcDbLine
 10
614.8431293592614
 20
403.3906355493668
 30
0.0
 11
612.8431293592614
 21
405.3906355493668
 31
0.0
  0
LINE
  5
C7F
330
C6F
100
AcDbEntity
  8
0
 62
     0
100
AcDbLine
 10
712.014702234515
 20
303.390635549367
 30
0.0
 11
710.0147022345152
 21
305.390635549367
 31
0.0
  0
LINE
  5
C80
330
C6F
100
AcDbEntity
  8
0
 62
     0
100
AcDbLine
 10
612.0147022345153
 20
403.3906355493668
 30
0.0
 11
610.0147022345153
 21
405.3906355493668
 31
0.0
  0
LINE
  5
C81
330
C6F
100
AcDbEntity
  8
0
 62
     0
100
AcDbLine
 10
709.1862751097688
 20
303.390635549367
 30
0.0
 11
707.1862751097691
 21
305.390635549367
 31
0.0
  0
LINE
  5
C82
330
C6F
100
AcDbEntity
  8
0
 62
     0
100
AcDbLine
 10
609.1862751097691
 20
403.3906355493668
 30
0.0
 11
607.1862751097691
 21
405.3906355493668
 31
0.0
  0
LINE
  5
C83
330
C6F
100
AcDbEntity
  8
0
 62
     0
100
AcDbLine
 10
706.3578479850226
 20
303.390635549367
 30
0.0
 11
704.3578479850229
 21
305.390635549367
 31
0.0
  0
LINE
  5
C84
330
C6F
100
AcDbEntity
  8
0
 62
     0
100
AcDbLine
 10
606.3578479850228
 20
403.3906355493668
 30
0.0
 11
604.3578479850229
 21
405.3906355493668
 31
0.0
  0
LINE
  5
C85
330
C6F
100
AcDbEntity
  8
0
 62
     0
100
AcDbLine
 10
703.5294208602764
 20
303.390635549367
 30
0.0
 11
701.5294208602766
 21
305.390635549367
 31
0.0
  0
LINE
  5
C86
330
C6F
100
AcDbEntity
  8
0
 62
     0
100
AcDbLine
 10
603.5294208602766
 20
403.3906355493668
 30
0.0
 11
601.5294208602766
 21
405.3906355493668
 31
0.0
  0
LINE
  5
C87
330
C6F
100
AcDbEntity
  8
0
 62
     0
100
AcDbLine
 10
700.7009937355303
 20
303.390635549367
 30
0.0
 11
698.7009937355304
 21
305.390635549367
 31
0.0
  0
LINE
  5
C88
330
C6F
100
AcDbEntity
  8
0
 62
     0
100
AcDbLine
 10
600.7009937355304
 20
403.3906355493668
 30
0.0
 11
598.7009937355304
 21
405.3906355493668
 31
0.0
  0
LINE
  5
C89
330
C6F
100
AcDbEntity
  8
0
 62
     0
100
AcDbLine
 10
697.8725666107841
 20
303.390635549367
 30
0.0
 11
695.8725666107843
 21
305.390635549367
 31
0.0
  0
LINE
  5
C8A
330
C6F
100
AcDbEntity
  8
0
 62
     0
100
AcDbLine
 10
597.8725666107843
 20
403.3906355493668
 30
0.0
 11
595.8725666107843
 21
405.3906355493668
 31
0.0
  0
LINE
  5
C8B
330
C6F
100
AcDbEntity
  8
0
 62
     0
100
AcDbLine
 10
695.0441394860379
 20
303.390635549367
 30
0.0
 11
693.0441394860381
 21
305.390635549367
 31
0.0
  0
LINE
  5
C8C
330
C6F
100
AcDbEntity
  8
0
 62
     0
100
AcDbLine
 10
595.0441394860381
 20
403.3906355493668
 30
0.0
 11
593.0441394860381
 21
405.3906355493668
 31
0.0
  0
LINE
  5
C8D
330
C6F
100
AcDbEntity
  8
0
 62
     0
100
AcDbLine
 10
692.2157123612917
 20
303.390635549367
 30
0.0
 11
690.2157123612919
 21
305.390635549367
 31
0.0
  0
LINE
  5
C8E
330
C6F
100
AcDbEntity
  8
0
 62
     0
100
AcDbLine
 10
592.2157123612919
 20
403.3906355493668
 30
0.0
 11
590.2157123612919
 21
405.3906355493668
 31
0.0
  0
LINE
  5
C8F
330
C6F
100
AcDbEntity
  8
0
 62
     0
100
AcDbLine
 10
689.3872852365454
 20
303.390635549367
 30
0.0
 11
687.3872852365457
 21
305.390635549367
 31
0.0
  0
LINE
  5
C90
330
C6F
100
AcDbEntity
  8
0
 62
     0
100
AcDbLine
 10
589.3872852365457
 20
403.3906355493668
 30
0.0
 11
587.3872852365457
 21
405.3906355493668
 31
0.0
  0
LINE
  5
C91
330
C6F
100
AcDbEntity
  8
0
 62
     0
100
AcDbLine
 10
686.5588581117994
 20
303.390635549367
 30
0.0
 11
684.5588581117994
 21
305.390635549367
 31
0.0
  0
LINE
  5
C92
330
C6F
100
AcDbEntity
  8
0
 62
     0
100
AcDbLine
 10
586.5588581117995
 20
403.3906355493668
 30
0.0
 11
584.5588581117994
 21
405.3906355493668
 31
0.0
  0
LINE
  5
C93
330
C6F
100
AcDbEntity
  8
0
 62
     0
100
AcDbLine
 10
683.7304309870532
 20
303.390635549367
 30
0.0
 11
681.7304309870534
 21
305.390635549367
 31
0.0
  0
LINE
  5
C94
330
C6F
100
AcDbEntity
  8
0
 62
     0
100
AcDbLine
 10
583.7304309870534
 20
403.3906355493668
 30
0.0
 11
581.846336757176
 21
405.2747297792442
 31
0.0
  0
LINE
  5
C95
330
C6F
100
AcDbEntity
  8
0
 62
     0
100
AcDbLine
 10
680.9020038623069
 20
303.390635549367
 30
0.0
 11
678.9020038623071
 21
305.390635549367
 31
0.0
  0
LINE
  5
C96
330
C6F
100
AcDbEntity
  8
0
 62
     0
100
AcDbLine
 10
581.0845567473869
 20
403.2080826642871
 30
0.0
 11
579.2454571162097
 21
405.0471822954643
 31
0.0
  0
LINE
  5
C97
330
C6F
100
AcDbEntity
  8
0
 62
     0
100
AcDbLine
 10
678.0735767375607
 20
303.390635549367
 30
0.0
 11
676.0735767375609
 21
305.390635549367
 31
0.0
  0
LINE
  5
C98
330
C6F
100
AcDbEntity
  8
0
 62
     0
100
AcDbLine
 10
578.4836771064207
 20
402.9805351805071
 30
0.0
 11
576.6445774752435
 21
404.8196348116842
 31
0.0
  0
LINE
  5
C99
330
C6F
100
AcDbEntity
  8
0
 62
     0
100
AcDbLine
 10
675.2451496128145
 20
303.390635549367
 30
0.0
 11
673.2451496128147
 21
305.390635549367
 31
0.0
  0
LINE
  5
C9A
330
C6F
100
AcDbEntity
  8
0
 62
     0
100
AcDbLine
 10
575.8827974654543
 20
402.7529876967272
 30
0.0
 11
574.0436978342772
 21
404.5920873279043
 31
0.0
  0
LINE
  5
C9B
330
C6F
100
AcDbEntity
  8
0
 62
     0
100
AcDbLine
 10
672.4167224880684
 20
303.390635549367
 30
0.0
 11
670.4167224880686
 21
305.390635549367
 31
0.0
  0
LINE
  5
C9C
330
C6F
100
AcDbEntity
  8
0
 62
     0
100
AcDbLine
 10
573.2819178244881
 20
402.5254402129474
 30
0.0
 11
573.1711457718688
 21
402.6362122655666
 31
0.0
  0
LINE
  5
C9D
330
C6F
100
AcDbEntity
  8
0
 62
     0
100
AcDbLine
 10
669.5882953633222
 20
303.390635549367
 30
0.0
 11
667.5882953633224
 21
305.390635549367
 31
0.0
  0
LINE
  5
C9E
330
C6F
100
AcDbEntity
  8
0
 62
     0
100
AcDbLine
 10
666.759868238576
 20
303.390635549367
 30
0.0
 11
664.7598682385762
 21
305.390635549367
 31
0.0
  0
LINE
  5
C9F
330
C6F
100
AcDbEntity
  8
0
 62
     0
100
AcDbLine
 10
663.9314411138298
 20
303.390635549367
 30
0.0
 11
661.93144111383
 21
305.390635549367
 31
0.0
  0
LINE
  5
CA0
330
C6F
100
AcDbEntity
  8
0
 62
     0
100
AcDbLine
 10
661.1030139890836
 20
303.390635549367
 30
0.0
 11
659.1030139890838
 21
305.390635549367
 31
0.0
  0
LINE
  5
CA1
330
C6F
100
AcDbEntity
  8
0
 62
     0
100
AcDbLine
 10
658.2745868643375
 20
303.390635549367
 30
0.0
 11
656.2745868643377
 21
305.390635549367
 31
0.0
  0
LINE
  5
CA2
330
C6F
100
AcDbEntity
  8
0
 62
     0
100
AcDbLine
 10
655.4461597395913
 20
303.390635549367
 30
0.0
 11
653.4461597395915
 21
305.390635549367
 31
0.0
  0
LINE
  5
CA3
330
C6F
100
AcDbEntity
  8
0
 62
     0
100
AcDbLine
 10
652.6177326148451
 20
303.390635549367
 30
0.0
 11
650.6177326148453
 21
305.390635549367
 31
0.0
  0
LINE
  5
CA4
330
C6F
100
AcDbEntity
  8
0
 62
     0
100
AcDbLine
 10
649.7893054900989
 20
303.390635549367
 30
0.0
 11
647.7893054900991
 21
305.390635549367
 31
0.0
  0
LINE
  5
CA5
330
C6F
100
AcDbEntity
  8
0
 62
     0
100
AcDbLine
 10
646.9608783653526
 20
303.390635549367
 30
0.0
 11
644.960878365353
 21
305.390635549367
 31
0.0
  0
LINE
  5
CA6
330
C6F
100
AcDbEntity
  8
0
 62
     0
100
AcDbLine
 10
644.1324512406065
 20
303.390635549367
 30
0.0
 11
642.1324512406068
 21
305.390635549367
 31
0.0
  0
LINE
  5
CA7
330
C6F
100
AcDbEntity
  8
0
 62
     0
100
AcDbLine
 10
641.3040241158603
 20
303.390635549367
 30
0.0
 11
639.3040241158606
 21
305.390635549367
 31
0.0
  0
LINE
  5
CA8
330
C6F
100
AcDbEntity
  8
0
 62
     0
100
AcDbLine
 10
638.475596991114
 20
303.390635549367
 30
0.0
 11
636.4755969911144
 21
305.390635549367
 31
0.0
  0
LINE
  5
CA9
330
C6F
100
AcDbEntity
  8
0
 62
     0
100
AcDbLine
 10
635.6471698663678
 20
303.390635549367
 30
0.0
 11
633.6471698663681
 21
305.390635549367
 31
0.0
  0
LINE
  5
CAA
330
C6F
100
AcDbEntity
  8
0
 62
     0
100
AcDbLine
 10
632.8187427416216
 20
303.390635549367
 30
0.0
 11
630.818742741622
 21
305.3906355493669
 31
0.0
  0
LINE
  5
CAB
330
C6F
100
AcDbEntity
  8
0
 62
     0
100
AcDbLine
 10
629.9903156168755
 20
303.390635549367
 30
0.0
 11
627.9903156168757
 21
305.3906355493669
 31
0.0
  0
LINE
  5
CAC
330
C6F
100
AcDbEntity
  8
0
 62
     0
100
AcDbLine
 10
627.1618884921293
 20
303.390635549367
 30
0.0
 11
625.1618884921295
 21
305.3906355493669
 31
0.0
  0
LINE
  5
CAD
330
C6F
100
AcDbEntity
  8
0
 62
     0
100
AcDbLine
 10
624.3334613673831
 20
303.390635549367
 30
0.0
 11
622.3334613673833
 21
305.3906355493669
 31
0.0
  0
LINE
  5
CAE
330
C6F
100
AcDbEntity
  8
0
 62
     0
100
AcDbLine
 10
621.5050342426369
 20
303.390635549367
 30
0.0
 11
619.5050342426372
 21
305.3906355493669
 31
0.0
  0
LINE
  5
CAF
330
C6F
100
AcDbEntity
  8
0
 62
     0
100
AcDbLine
 10
618.6766071178907
 20
303.390635549367
 30
0.0
 11
616.676607117891
 21
305.3906355493669
 31
0.0
  0
LINE
  5
CB0
330
C6F
100
AcDbEntity
  8
0
 62
     0
100
AcDbLine
 10
615.8481799931446
 20
303.390635549367
 30
0.0
 11
613.8481799931448
 21
305.3906355493669
 31
0.0
  0
LINE
  5
CB1
330
C6F
100
AcDbEntity
  8
0
 62
     0
100
AcDbLine
 10
613.0197528683984
 20
303.390635549367
 30
0.0
 11
611.0197528683986
 21
305.3906355493669
 31
0.0
  0
LINE
  5
CB2
330
C6F
100
AcDbEntity
  8
0
 62
     0
100
AcDbLine
 10
610.1913257436522
 20
303.390635549367
 30
0.0
 11
608.1913257436525
 21
305.3906355493669
 31
0.0
  0
LINE
  5
CB3
330
C6F
100
AcDbEntity
  8
0
 62
     0
100
AcDbLine
 10
607.362898618906
 20
303.390635549367
 30
0.0
 11
605.3628986189063
 21
305.3906355493669
 31
0.0
  0
LINE
  5
CB4
330
C6F
100
AcDbEntity
  8
0
 62
     0
100
AcDbLine
 10
604.5344714941598
 20
303.390635549367
 30
0.0
 11
602.5344714941601
 21
305.3906355493669
 31
0.0
  0
LINE
  5
CB5
330
C6F
100
AcDbEntity
  8
0
 62
     0
100
AcDbLine
 10
601.7060443694137
 20
303.390635549367
 30
0.0
 11
599.7060443694139
 21
305.3906355493669
 31
0.0
  0
LINE
  5
CB6
330
C6F
100
AcDbEntity
  8
0
 62
     0
100
AcDbLine
 10
598.8776172446675
 20
303.390635549367
 30
0.0
 11
596.8776172446677
 21
305.3906355493669
 31
0.0
  0
LINE
  5
CB7
330
C6F
100
AcDbEntity
  8
0
 62
     0
100
AcDbLine
 10
596.0491901199212
 20
303.390635549367
 30
0.0
 11
594.0491901199216
 21
305.3906355493669
 31
0.0
  0
LINE
  5
CB8
330
C6F
100
AcDbEntity
  8
0
 62
     0
100
AcDbLine
 10
593.220762995175
 20
303.390635549367
 30
0.0
 11
591.2207629951754
 21
305.3906355493669
 31
0.0
  0
LINE
  5
CB9
330
C6F
100
AcDbEntity
  8
0
 62
     0
100
AcDbLine
 10
590.3923358704288
 20
303.390635549367
 30
0.0
 11
588.3923358704292
 21
305.3906355493669
 31
0.0
  0
LINE
  5
CBA
330
C6F
100
AcDbEntity
  8
0
 62
     0
100
AcDbLine
 10
587.5639087456827
 20
303.390635549367
 30
0.0
 11
585.5639087456829
 21
305.3906355493669
 31
0.0
  0
LINE
  5
CBB
330
C6F
100
AcDbEntity
  8
0
 62
     0
100
AcDbLine
 10
584.7354816209365
 20
303.390635549367
 30
0.0
 11
582.6937115378838
 21
305.4324056324197
 31
0.0
  0
LINE
  5
CBC
330
C6F
100
AcDbEntity
  8
0
 62
     0
100
AcDbLine
 10
581.7858574744514
 20
303.511832571106
 30
0.0
 11
579.5941038818572
 21
305.7035861637003
 31
0.0
  0
LINE
  5
CBD
330
C6F
100
AcDbEntity
  8
0
 62
     0
100
AcDbLine
 10
578.6862498184246
 20
303.7830131023865
 30
0.0
 11
576.4944962258303
 21
305.9747666949808
 31
0.0
  0
LINE
  5
CBE
330
C6F
100
AcDbEntity
  8
0
 62
     0
100
AcDbLine
 10
575.5866421623978
 20
304.0541936336671
 30
0.0
 11
573.3948885698037
 21
306.2459472262613
 31
0.0
  0
LINE
  5
CBF
330
C6F
100
AcDbEntity
  8
0
 62
     0
100
AcDbLine
 10
734.6421192324846
 20
303.390635549367
 30
0.0
 11
732.6421192324848
 21
305.390635549367
 31
0.0
  0
LINE
  5
CC0
330
C6F
100
AcDbEntity
  8
0
 62
     0
100
AcDbLine
 10
634.6421192324847
 20
403.3906355493668
 30
0.0
 11
632.6421192324848
 21
405.3906355493668
 31
0.0
  0
LINE
  5
CC1
330
C6F
100
AcDbEntity
  8
0
 62
     0
100
AcDbLine
 10
737.4705463572308
 20
303.390635549367
 30
0.0
 11
735.4705463572308
 21
305.390635549367
 31
0.0
  0
LINE
  5
CC2
330
C6F
100
AcDbEntity
  8
0
 62
     0
100
AcDbLine
 10
637.4705463572309
 20
403.3906355493668
 30
0.0
 11
635.470546357231
 21
405.3906355493668
 31
0.0
  0
LINE
  5
CC3
330
C6F
100
AcDbEntity
  8
0
 62
     0
100
AcDbLine
 10
740.298973481977
 20
303.390635549367
 30
0.0
 11
738.2989734819771
 21
305.390635549367
 31
0.0
  0
LINE
  5
CC4
330
C6F
100
AcDbEntity
  8
0
 62
     0
100
AcDbLine
 10
640.2989734819771
 20
403.3906355493668
 30
0.0
 11
638.2989734819772
 21
405.3906355493668
 31
0.0
  0
LINE
  5
CC5
330
C6F
100
AcDbEntity
  8
0
 62
     0
100
AcDbLine
 10
743.1274006067232
 20
303.390635549367
 30
0.0
 11
741.1274006067233
 21
305.390635549367
 31
0.0
  0
LINE
  5
CC6
330
C6F
100
AcDbEntity
  8
0
 62
     0
100
AcDbLine
 10
643.1274006067233
 20
403.3906355493668
 30
0.0
 11
641.1274006067233
 21
405.3906355493668
 31
0.0
  0
LINE
  5
CC7
330
C6F
100
AcDbEntity
  8
0
 62
     0
100
AcDbLine
 10
745.9558277314693
 20
303.390635549367
 30
0.0
 11
743.9558277314695
 21
305.390635549367
 31
0.0
  0
LINE
  5
CC8
330
C6F
100
AcDbEntity
  8
0
 62
     0
100
AcDbLine
 10
645.9558277314695
 20
403.3906355493668
 30
0.0
 11
643.9558277314695
 21
405.3906355493668
 31
0.0
  0
LINE
  5
CC9
330
C6F
100
AcDbEntity
  8
0
 62
     0
100
AcDbLine
 10
748.7842548562155
 20
303.390635549367
 30
0.0
 11
746.7842548562157
 21
305.390635549367
 31
0.0
  0
LINE
  5
CCA
330
C6F
100
AcDbEntity
  8
0
 62
     0
100
AcDbLine
 10
648.7842548562157
 20
403.3906355493668
 30
0.0
 11
646.7842548562157
 21
405.3906355493668
 31
0.0
  0
LINE
  5
CCB
330
C6F
100
AcDbEntity
  8
0
 62
     0
100
AcDbLine
 10
751.6126819809617
 20
303.390635549367
 30
0.0
 11
749.6126819809618
 21
305.390635549367
 31
0.0
  0
LINE
  5
CCC
330
C6F
100
AcDbEntity
  8
0
 62
     0
100
AcDbLine
 10
651.612681980962
 20
403.3906355493668
 30
0.0
 11
649.6126819809619
 21
405.3906355493668
 31
0.0
  0
LINE
  5
CCD
330
C6F
100
AcDbEntity
  8
0
 62
     0
100
AcDbLine
 10
754.4411091057079
 20
303.390635549367
 30
0.0
 11
752.441109105708
 21
305.390635549367
 31
0.0
  0
LINE
  5
CCE
330
C6F
100
AcDbEntity
  8
0
 62
     0
100
AcDbLine
 10
654.4411091057082
 20
403.3906355493668
 30
0.0
 11
652.4411091057081
 21
405.3906355493668
 31
0.0
  0
LINE
  5
CCF
330
C6F
100
AcDbEntity
  8
0
 62
     0
100
AcDbLine
 10
757.2695362304541
 20
303.390635549367
 30
0.0
 11
755.2695362304542
 21
305.390635549367
 31
0.0
  0
LINE
  5
CD0
330
C6F
100
AcDbEntity
  8
0
 62
     0
100
AcDbLine
 10
657.2695362304543
 20
403.3906355493668
 30
0.0
 11
655.2695362304542
 21
405.3906355493668
 31
0.0
  0
LINE
  5
CD1
330
C6F
100
AcDbEntity
  8
0
 62
     0
100
AcDbLine
 10
760.0979633552002
 20
303.390635549367
 30
0.0
 11
758.0979633552004
 21
305.390635549367
 31
0.0
  0
LINE
  5
CD2
330
C6F
100
AcDbEntity
  8
0
 62
     0
100
AcDbLine
 10
660.0979633552005
 20
403.3906355493668
 30
0.0
 11
658.0979633552004
 21
405.3906355493668
 31
0.0
  0
LINE
  5
CD3
330
C6F
100
AcDbEntity
  8
0
 62
     0
100
AcDbLine
 10
762.9263904799464
 20
303.390635549367
 30
0.0
 11
760.9263904799465
 21
305.390635549367
 31
0.0
  0
LINE
  5
CD4
330
C6F
100
AcDbEntity
  8
0
 62
     0
100
AcDbLine
 10
662.9263904799467
 20
403.3906355493668
 30
0.0
 11
660.9263904799466
 21
405.3906355493668
 31
0.0
  0
LINE
  5
CD5
330
C6F
100
AcDbEntity
  8
0
 62
     0
100
AcDbLine
 10
765.7548176046926
 20
303.390635549367
 30
0.0
 11
763.7548176046927
 21
305.390635549367
 31
0.0
  0
LINE
  5
CD6
330
C6F
100
AcDbEntity
  8
0
 62
     0
100
AcDbLine
 10
665.7548176046929
 20
403.3906355493668
 30
0.0
 11
663.7548176046928
 21
405.3906355493668
 31
0.0
  0
LINE
  5
CD7
330
C6F
100
AcDbEntity
  8
0
 62
     0
100
AcDbLine
 10
768.5832447294388
 20
303.390635549367
 30
0.0
 11
766.5832447294389
 21
305.390635549367
 31
0.0
  0
LINE
  5
CD8
330
C6F
100
AcDbEntity
  8
0
 62
     0
100
AcDbLine
 10
668.5832447294391
 20
403.3906355493668
 30
0.0
 11
666.5832447294391
 21
405.3906355493668
 31
0.0
  0
LINE
  5
CD9
330
C6F
100
AcDbEntity
  8
0
 62
     0
100
AcDbLine
 10
771.4116718541851
 20
303.390635549367
 30
0.0
 11
769.4116718541851
 21
305.390635549367
 31
0.0
  0
LINE
  5
CDA
330
C6F
100
AcDbEntity
  8
0
 62
     0
100
AcDbLine
 10
671.4116718541852
 20
403.3906355493668
 30
0.0
 11
669.4116718541851
 21
405.3906355493668
 31
0.0
  0
LINE
  5
CDB
330
C6F
100
AcDbEntity
  8
0
 62
     0
100
AcDbLine
 10
774.2400989789311
 20
303.390635549367
 30
0.0
 11
772.2400989789314
 21
305.390635549367
 31
0.0
  0
LINE
  5
CDC
330
C6F
100
AcDbEntity
  8
0
 62
     0
100
AcDbLine
 10
674.2400989789314
 20
403.3906355493668
 30
0.0
 11
672.2400989789313
 21
405.3906355493668
 31
0.0
  0
LINE
  5
CDD
330
C6F
100
AcDbEntity
  8
0
 62
     0
100
AcDbLine
 10
777.0685261036774
 20
303.390635549367
 30
0.0
 11
775.0685261036775
 21
305.390635549367
 31
0.0
  0
LINE
  5
CDE
330
C6F
100
AcDbEntity
  8
0
 62
     0
100
AcDbLine
 10
677.0685261036776
 20
403.3906355493668
 30
0.0
 11
675.0685261036776
 21
405.3906355493668
 31
0.0
  0
LINE
  5
CDF
330
C6F
100
AcDbEntity
  8
0
 62
     0
100
AcDbLine
 10
779.8969532284236
 20
303.390635549367
 30
0.0
 11
777.8969532284237
 21
305.390635549367
 31
0.0
  0
LINE
  5
CE0
330
C6F
100
AcDbEntity
  8
0
 62
     0
100
AcDbLine
 10
679.8969532284238
 20
403.3906355493668
 30
0.0
 11
677.8969532284238
 21
405.3906355493668
 31
0.0
  0
LINE
  5
CE1
330
C6F
100
AcDbEntity
  8
0
 62
     0
100
AcDbLine
 10
782.7253803531698
 20
303.390635549367
 30
0.0
 11
780.72538035317
 21
305.390635549367
 31
0.0
  0
LINE
  5
CE2
330
C6F
100
AcDbEntity
  8
0
 62
     0
100
AcDbLine
 10
682.72538035317
 20
403.3906355493668
 30
0.0
 11
680.72538035317
 21
405.3906355493668
 31
0.0
  0
LINE
  5
CE3
330
C6F
100
AcDbEntity
  8
0
 62
     0
100
AcDbLine
 10
785.553807477916
 20
303.390635549367
 30
0.0
 11
783.5538074779162
 21
305.390635549367
 31
0.0
  0
LINE
  5
CE4
330
C6F
100
AcDbEntity
  8
0
 62
     0
100
AcDbLine
 10
685.5538074779161
 20
403.3906355493668
 30
0.0
 11
683.5538074779162
 21
405.3906355493668
 31
0.0
  0
LINE
  5
CE5
330
C6F
100
AcDbEntity
  8
0
 62
     0
100
AcDbLine
 10
788.3822346026621
 20
303.390635549367
 30
0.0
 11
786.3822346026623
 21
305.390635549367
 31
0.0
  0
LINE
  5
CE6
330
C6F
100
AcDbEntity
  8
0
 62
     0
100
AcDbLine
 10
688.3822346026623
 20
403.3906355493668
 30
0.0
 11
686.3822346026624
 21
405.3906355493668
 31
0.0
  0
LINE
  5
CE7
330
C6F
100
AcDbEntity
  8
0
 62
     0
100
AcDbLine
 10
791.1711457718689
 20
303.4301515049066
 30
0.0
 11
789.2106617274085
 21
305.3906355493671
 31
0.0
  0
LINE
  5
CE8
330
C6F
100
AcDbEntity
  8
0
 62
     0
100
AcDbLine
 10
691.2106617274085
 20
403.3906355493668
 30
0.0
 11
689.2106617274086
 21
405.3906355493668
 31
0.0
  0
LINE
  5
CE9
330
C6F
100
AcDbEntity
  8
0
 62
     0
100
AcDbLine
 10
694.0390888521548
 20
403.3906355493668
 30
0.0
 11
692.0390888521548
 21
405.3906355493668
 31
0.0
  0
LINE
  5
CEA
330
C6F
100
AcDbEntity
  8
0
 62
     0
100
AcDbLine
 10
696.867515976901
 20
403.3906355493668
 30
0.0
 11
694.867515976901
 21
405.3906355493668
 31
0.0
  0
LINE
  5
CEB
330
C6F
100
AcDbEntity
  8
0
 62
     0
100
AcDbLine
 10
699.695943101647
 20
403.3906355493668
 30
0.0
 11
697.6959431016471
 21
405.3906355493668
 31
0.0
  0
LINE
  5
CEC
330
C6F
100
AcDbEntity
  8
0
 62
     0
100
AcDbLine
 10
702.5243702263933
 20
403.3906355493668
 30
0.0
 11
700.5243702263933
 21
405.3906355493668
 31
0.0
  0
LINE
  5
CED
330
C6F
100
AcDbEntity
  8
0
 62
     0
100
AcDbLine
 10
705.3527973511395
 20
403.3906355493668
 30
0.0
 11
703.3527973511395
 21
405.3906355493668
 31
0.0
  0
LINE
  5
CEE
330
C6F
100
AcDbEntity
  8
0
 62
     0
100
AcDbLine
 10
708.1812244758857
 20
403.3906355493668
 30
0.0
 11
706.1812244758857
 21
405.3906355493668
 31
0.0
  0
LINE
  5
CEF
330
C6F
100
AcDbEntity
  8
0
 62
     0
100
AcDbLine
 10
711.0096516006319
 20
403.3906355493668
 30
0.0
 11
709.0096516006319
 21
405.3906355493668
 31
0.0
  0
LINE
  5
CF0
330
C6F
100
AcDbEntity
  8
0
 62
     0
100
AcDbLine
 10
713.8380787253781
 20
403.3906355493668
 30
0.0
 11
711.838078725378
 21
405.3906355493668
 31
0.0
  0
LINE
  5
CF1
330
C6F
100
AcDbEntity
  8
0
 62
     0
100
AcDbLine
 10
716.6665058501243
 20
403.3906355493668
 30
0.0
 11
714.6665058501242
 21
405.3906355493668
 31
0.0
  0
LINE
  5
CF2
330
C6F
100
AcDbEntity
  8
0
 62
     0
100
AcDbLine
 10
719.4949329748705
 20
403.3906355493668
 30
0.0
 11
717.4949329748705
 21
405.3906355493668
 31
0.0
  0
LINE
  5
CF3
330
C6F
100
AcDbEntity
  8
0
 62
     0
100
AcDbLine
 10
722.3233600996167
 20
403.3906355493668
 30
0.0
 11
720.3233600996167
 21
405.3906355493668
 31
0.0
  0
LINE
  5
CF4
330
C6F
100
AcDbEntity
  8
0
 62
     0
100
AcDbLine
 10
725.1517872243629
 20
403.3906355493668
 30
0.0
 11
723.1517872243629
 21
405.3906355493668
 31
0.0
  0
LINE
  5
CF5
330
C6F
100
AcDbEntity
  8
0
 62
     0
100
AcDbLine
 10
727.980214349109
 20
403.3906355493668
 30
0.0
 11
725.980214349109
 21
405.3906355493668
 31
0.0
  0
LINE
  5
CF6
330
C6F
100
AcDbEntity
  8
0
 62
     0
100
AcDbLine
 10
730.8086414738552
 20
403.3906355493668
 30
0.0
 11
728.8086414738552
 21
405.3906355493668
 31
0.0
  0
LINE
  5
CF7
330
C6F
100
AcDbEntity
  8
0
 62
     0
100
AcDbLine
 10
733.6370685986014
 20
403.3906355493668
 30
0.0
 11
731.6370685986014
 21
405.3906355493668
 31
0.0
  0
LINE
  5
CF8
330
C6F
100
AcDbEntity
  8
0
 62
     0
100
AcDbLine
 10
736.4654957233476
 20
403.3906355493668
 30
0.0
 11
734.4654957233476
 21
405.3906355493668
 31
0.0
  0
LINE
  5
CF9
330
C6F
100
AcDbEntity
  8
0
 62
     0
100
AcDbLine
 10
739.2939228480939
 20
403.3906355493668
 30
0.0
 11
737.2939228480938
 21
405.3906355493668
 31
0.0
  0
LINE
  5
CFA
330
C6F
100
AcDbEntity
  8
0
 62
     0
100
AcDbLine
 10
742.1223499728399
 20
403.3906355493668
 30
0.0
 11
740.1223499728399
 21
405.3906355493668
 31
0.0
  0
LINE
  5
CFB
330
C6F
100
AcDbEntity
  8
0
 62
     0
100
AcDbLine
 10
744.9507770975862
 20
403.3906355493668
 30
0.0
 11
742.9507770975861
 21
405.3906355493668
 31
0.0
  0
LINE
  5
CFC
330
C6F
100
AcDbEntity
  8
0
 62
     0
100
AcDbLine
 10
747.7792042223324
 20
403.3906355493668
 30
0.0
 11
745.7792042223323
 21
405.3906355493668
 31
0.0
  0
LINE
  5
CFD
330
C6F
100
AcDbEntity
  8
0
 62
     0
100
AcDbLine
 10
750.6076313470786
 20
403.3906355493668
 30
0.0
 11
748.6076313470785
 21
405.3906355493668
 31
0.0
  0
LINE
  5
CFE
330
C6F
100
AcDbEntity
  8
0
 62
     0
100
AcDbLine
 10
753.4360584718248
 20
403.3906355493668
 30
0.0
 11
751.4360584718247
 21
405.3906355493668
 31
0.0
  0
LINE
  5
CFF
330
C6F
100
AcDbEntity
  8
0
 62
     0
100
AcDbLine
 10
756.2644855965709
 20
403.3906355493668
 30
0.0
 11
754.2644855965709
 21
405.3906355493668
 31
0.0
  0
LINE
  5
D00
330
C6F
100
AcDbEntity
  8
0
 62
     0
100
AcDbLine
 10
759.0929127213171
 20
403.3906355493668
 30
0.0
 11
757.0929127213171
 21
405.3906355493668
 31
0.0
  0
LINE
  5
D01
330
C6F
100
AcDbEntity
  8
0
 62
     0
100
AcDbLine
 10
761.9213398460633
 20
403.3906355493668
 30
0.0
 11
759.9213398460634
 21
405.3906355493668
 31
0.0
  0
LINE
  5
D02
330
C6F
100
AcDbEntity
  8
0
 62
     0
100
AcDbLine
 10
764.7497669708095
 20
403.3906355493668
 30
0.0
 11
762.7497669708096
 21
405.3906355493668
 31
0.0
  0
LINE
  5
D03
330
C6F
100
AcDbEntity
  8
0
 62
     0
100
AcDbLine
 10
767.5781940955557
 20
403.3906355493668
 30
0.0
 11
765.5781940955558
 21
405.3906355493668
 31
0.0
  0
LINE
  5
D04
330
C6F
100
AcDbEntity
  8
0
 62
     0
100
AcDbLine
 10
770.4066212203018
 20
403.3906355493668
 30
0.0
 11
768.4066212203019
 21
405.3906355493668
 31
0.0
  0
LINE
  5
D05
330
C6F
100
AcDbEntity
  8
0
 62
     0
100
AcDbLine
 10
773.235048345048
 20
403.3906355493668
 30
0.0
 11
771.2350483450481
 21
405.3906355493668
 31
0.0
  0
LINE
  5
D06
330
C6F
100
AcDbEntity
  8
0
 62
     0
100
AcDbLine
 10
776.0634754697942
 20
403.3906355493668
 30
0.0
 11
774.0634754697943
 21
405.3906355493668
 31
0.0
  0
LINE
  5
D07
330
C6F
100
AcDbEntity
  8
0
 62
     0
100
AcDbLine
 10
778.8919025945404
 20
403.3906355493668
 30
0.0
 11
776.8919025945405
 21
405.3906355493668
 31
0.0
  0
LINE
  5
D08
330
C6F
100
AcDbEntity
  8
0
 62
     0
100
AcDbLine
 10
781.7203297192867
 20
403.3906355493668
 30
0.0
 11
779.7203297192867
 21
405.3906355493668
 31
0.0
  0
LINE
  5
D09
330
C6F
100
AcDbEntity
  8
0
 62
     0
100
AcDbLine
 10
784.5487568440328
 20
403.3906355493668
 30
0.0
 11
782.5487568440328
 21
405.3906355493668
 31
0.0
  0
LINE
  5
D0A
330
C6F
100
AcDbEntity
  8
0
 62
     0
100
AcDbLine
 10
787.377183968779
 20
403.3906355493668
 30
0.0
 11
785.377183968779
 21
405.3906355493668
 31
0.0
  0
LINE
  5
D0B
330
C6F
100
AcDbEntity
  8
0
 62
     0
100
AcDbLine
 10
790.2056110935252
 20
403.3906355493668
 30
0.0
 11
788.2056110935252
 21
405.3906355493668
 31
0.0
  0
LINE
  5
D0C
330
C6F
100
AcDbEntity
  8
0
 62
     0
100
AcDbLine
 10
791.1711457718689
 20
405.2535279957695
 30
0.0
 11
791.0340382182714
 21
405.3906355493668
 31
0.0
  0
ENDBLK
  5
D0D
330
C6F
100
AcDbEntity
  8
0
100
AcDbBlockEnd
  0
BLOCK
  5
ECF
330
EC5
100
AcDbEntity
  8
0
100
AcDbBlockBegin
  2
*D8
 70
     1
 10
0.0
 20
0.0
 30
0.0
  3
*D8
  1

  0
LINE
  5
1020
330
EC5
100
AcDbEntity
  8
BEM
 62
     0
370
    -2
100
AcDbLine
 10
224.8579786835001
 20
597.0644711181001
 30
0.0
 11
177.0517349001606
 21
597.0644711181001
 31
0.0
  0
LINE
  5
1021
330
EC5
100
AcDbEntity
  8
BEM
 62
     0
370
    -2
100
AcDbLine
 10
194.8579786835
 20
767.0644711181
 30
0.0
 11
177.0517349001606
 21
767.0644711181
 31
0.0
  0
LINE
  5
1022
330
EC5
100
AcDbEntity
  8
BEM
 62
     0
370
    -2
100
AcDbLine
 10
179.0517349001605
 20
604.0644711181
 30
0.0
 11
179.0517349001606
 21
760.0644711181001
 31
0.0
  0
SOLID
  5
1023
330
EC5
100
AcDbEntity
  8
BEM
 62
     0
100
AcDbTrace
 10
177.8850682334939
 20
604.0644711181
 30
0.0
 11
180.2184015668272
 21
604.0644711181
 31
0.0
 12
179.0517349001605
 22
597.0644711181001
 32
0.0
 13
179.0517349001605
 23
597.0644711181001
 33
0.0
  0
SOLID
  5
1024
330
EC5
100
AcDbEntity
  8
BEM
 62
     0
100
AcDbTrace
 10
177.8850682334939
 20
760.0644711181001
 30
0.0
 11
180.2184015668272
 21
760.0644711181001
 31
0.0
 12
179.0517349001606
 22
767.0644711181
 32
0.0
 13
179.0517349001606
 23
767.0644711181
 33
0.0
  0
MTEXT
  5
1025
330
EC5
100
AcDbEntity
  8
BEM
 62
     1
100
AcDbMText
 10
172.5517349001604
 20
682.0644711181
 30
0.0
 40
7.0
 41
0.0
 71
     5
 72
     1
  1
\A1;min.100-max.170
 11
0.0000000000000001
 21
1.0
 31
0.0
 73
     1
 44
1.0
  0
POINT
  5
1026
330
EC5
100
AcDbEntity
  8
DEFPOINTS
 62
     0
100
AcDbPoint
 10
226.8579786835001
 20
597.0644711181001
 30
0.0
  0
POINT
  5
1027
330
EC5
100
AcDbEntity
  8
DEFPOINTS
 62
     0
100
AcDbPoint
 10
196.8579786835
 20
767.0644711181
 30
0.0
  0
POINT
  5
1028
330
EC5
100
AcDbEntity
  8
DEFPOINTS
 62
     0
100
AcDbPoint
 10
179.0517349001606
 20
767.0644711181
 30
0.0
  0
ENDBLK
  5
ED0
330
EC5
100
AcDbEntity
  8
0
100
AcDbBlockEnd
  0
BLOCK
  5
EDB
330
ED1
100
AcDbEntity
  8
0
100
AcDbBlockBegin
  2
*D9
 70
     1
 10
0.0
 20
0.0
 30
0.0
  3
*D9
  1

  0
LINE
  5
1005
330
ED1
100
AcDbEntity
  8
BEM
 62
     0
370
    -2
100
AcDbLine
 10
249.9078426458109
 20
79.60087493463216
 30
0.0
 11
177.0517349001605
 21
79.60087493463217
 31
0.0
  0
LINE
  5
1006
330
ED1
100
AcDbEntity
  8
BEM
 62
     0
370
    -2
100
AcDbLine
 10
235.3579786834999
 20
572.5644711180999
 30
0.0
 11
177.0517349001606
 21
572.5644711180999
 31
0.0
  0
LINE
  5
1007
330
ED1
100
AcDbEntity
  8
BEM
 62
     0
370
    -2
100
AcDbLine
 10
179.0517349001605
 20
86.60087493463217
 30
0.0
 11
179.0517349001605
 21
565.5644711180999
 31
0.0
  0
SOLID
  5
1008
330
ED1
100
AcDbEntity
  8
BEM
 62
     0
100
AcDbTrace
 10
177.8850682334938
 20
86.60087493463217
 30
0.0
 11
180.2184015668271
 21
86.60087493463217
 31
0.0
 12
179.0517349001605
 22
79.60087493463217
 32
0.0
 13
179.0517349001605
 23
79.60087493463217
 33
0.0
  0
SOLID
  5
1009
330
ED1
100
AcDbEntity
  8
BEM
 62
     0
100
AcDbTrace
 10
177.8850682334939
 20
565.5644711180999
 30
0.0
 11
180.2184015668272
 21
565.5644711180999
 31
0.0
 12
179.0517349001605
 22
572.5644711180999
 32
0.0
 13
179.0517349001605
 23
572.5644711180999
 33
0.0
  0
MTEXT
  5
100A
330
ED1
100
AcDbEntity
  8
BEM
 62
     1
100
AcDbMText
 10
172.5517349001605
 20
326.0826730263661
 30
0.0
 40
7.0
 41
0.0
 71
     5
 72
     1
  1
\A1;2500
 11
0.0000000000000001
 21
1.0
 31
0.0
 73
     1
 44
1.0
  0
POINT
  5
100B
330
ED1
100
AcDbEntity
  8
DEFPOINTS
 62
     0
100
AcDbPoint
 10
251.9078426458109
 20
79.60087493463216
 30
0.0
  0
POINT
  5
100C
330
ED1
100
AcDbEntity
  8
DEFPOINTS
 62
     0
100
AcDbPoint
 10
237.3579786834999
 20
572.5644711180999
 30
0.0
  0
POINT
  5
100D
330
ED1
100
AcDbEntity
  8
DEFPOINTS
 62
     0
100
AcDbPoint
 10
179.0517349001605
 20
572.5644711180999
 30
0.0
  0
ENDBLK
  5
EDC
330
ED1
100
AcDbEntity
  8
0
100
AcDbBlockEnd
  0
BLOCK
  5
EE7
330
EDD
100
AcDbEntity
  8
0
100
AcDbBlockBegin
  2
*D10
 70
     1
 10
0.0
 20
0.0
 30
0.0
  3
*D10
  1

  0
LINE
  5
F7B
330
EDD
100
AcDbEntity
  8
BEM
 62
     0
370
    -2
100
AcDbLine
 10
250.8579786834997
 20
89.6008749346319
 30
0.0
 11
250.8579786834997
 21
66.90047105367916
 31
0.0
  0
LINE
  5
F7C
330
EDD
100
AcDbEntity
  8
BEM
 62
     0
370
    -2
100
AcDbLine
 10
352.8579786834996
 20
89.60087493463278
 30
0.0
 11
352.8579786834996
 21
66.90047105367916
 31
0.0
  0
LINE
  5
F7D
330
EDD
100
AcDbEntity
  8
BEM
 62
     0
370
    -2
100
AcDbLine
 10
257.8579786834997
 20
68.90047105367917
 30
0.0
 11
345.8579786834996
 21
68.90047105367917
 31
0.0
  0
SOLID
  5
F7E
330
EDD
100
AcDbEntity
  8
BEM
 62
     0
100
AcDbTrace
 10
257.8579786834997
 20
70.06713772034584
 30
0.0
 11
257.8579786834997
 21
67.73380438701249
 31
0.0
 12
250.8579786834997
 22
68.90047105367917
 32
0.0
 13
250.8579786834997
 23
68.90047105367917
 33
0.0
  0
SOLID
  5
F7F
330
EDD
100
AcDbEntity
  8
BEM
 62
     0
100
AcDbTrace
 10
345.8579786834996
 20
70.06713772034584
 30
0.0
 11
345.8579786834996
 21
67.73380438701249
 31
0.0
 12
352.8579786834996
 22
68.90047105367917
 32
0.0
 13
352.8579786834996
 23
68.90047105367917
 33
0.0
  0
MTEXT
  5
F80
330
EDD
100
AcDbEntity
  8
BEM
 62
     1
100
AcDbMText
 10
301.8579786834997
 20
75.40047105367917
 30
0.0
 40
7.0
 41
0.0
 71
     5
 72
     1
  1
\A1;%%C102
 73
     1
 44
1.0
  0
POINT
  5
F81
330
EDD
100
AcDbEntity
  8
DEFPOINTS
 62
     0
100
AcDbPoint
 10
250.8579786834997
 20
91.60087493463189
 30
0.0
  0
POINT
  5
F82
330
EDD
100
AcDbEntity
  8
DEFPOINTS
 62
     0
100
AcDbPoint
 10
352.8579786834996
 20
91.60087493463278
 30
0.0
  0
POINT
  5
F83
330
EDD
100
AcDbEntity
  8
DEFPOINTS
 62
     0
100
AcDbPoint
 10
352.8579786834996
 20
68.90047105367917
 30
0.0
  0
ENDBLK
  5
EE8
330
EDD
100
AcDbEntity
  8
0
100
AcDbBlockEnd
  0
BLOCK
  5
EF3
330
EE9
100
AcDbEntity
  8
0
100
AcDbBlockBegin
  2
*D11
 70
     1
 10
0.0
 20
0.0
 30
0.0
  3
*D11
  1

  0
LINE
  5
1017
330
EE9
100
AcDbEntity
  8
BEM
 62
     0
370
    -2
100
AcDbLine
 10
196.8579786835
 20
769.0644711181001
 30
0.0
 11
196.8579786835
 21
788.0941637923124
 31
0.0
  0
LINE
  5
1018
330
EE9
100
AcDbEntity
  8
BEM
 62
     0
370
    -2
100
AcDbLine
 10
406.8579786835
 20
769.0644711180998
 30
0.0
 11
406.8579786835
 21
788.0941637923124
 31
0.0
  0
LINE
  5
1019
330
EE9
100
AcDbEntity
  8
BEM
 62
     0
370
    -2
100
AcDbLine
 10
203.8579786835001
 20
786.0941637923124
 30
0.0
 11
399.8579786835001
 21
786.0941637923124
 31
0.0
  0
SOLID
  5
101A
330
EE9
100
AcDbEntity
  8
BEM
 62
     0
100
AcDbTrace
 10
203.8579786835001
 20
787.260830458979
 30
0.0
 11
203.8579786835001
 21
784.9274971256457
 31
0.0
 12
196.8579786835
 22
786.0941637923124
 32
0.0
 13
196.8579786835
 23
786.0941637923124
 33
0.0
  0
SOLID
  5
101B
330
EE9
100
AcDbEntity
  8
BEM
 62
     0
100
AcDbTrace
 10
399.8579786835001
 20
787.260830458979
 30
0.0
 11
399.8579786835001
 21
784.9274971256457
 31
0.0
 12
406.8579786835
 22
786.0941637923124
 32
0.0
 13
406.8579786835
 23
786.0941637923124
 33
0.0
  0
MTEXT
  5
101C
330
EE9
100
AcDbEntity
  8
BEM
 62
     1
100
AcDbMText
 10
301.8579786835001
 20
792.5941637923124
 30
0.0
 40
7.0
 41
0.0
 71
     5
 72
     1
  1
\A1;%%C210
 73
     1
 44
1.0
  0
POINT
  5
101D
330
EE9
100
AcDbEntity
  8
DEFPOINTS
 62
     0
100
AcDbPoint
 10
196.8579786835
 20
767.0644711181
 30
0.0
  0
POINT
  5
101E
330
EE9
100
AcDbEntity
  8
DEFPOINTS
 62
     0
100
AcDbPoint
 10
406.8579786835
 20
767.0644711180998
 30
0.0
  0
POINT
  5
101F
330
EE9
100
AcDbEntity
  8
DEFPOINTS
 62
     0
100
AcDbPoint
 10
406.8579786835
 20
786.0941637923124
 30
0.0
  0
ENDBLK
  5
EF4
330
EE9
100
AcDbEntity
  8
0
100
AcDbBlockEnd
  0
BLOCK
  5
FA1
330
F97
100
AcDbEntity
  8
0
100
AcDbBlockBegin
  2
*D12
 70
     1
 10
0.0
 20
0.0
 30
0.0
  3
*D12
  1

  0
LINE
  5
FF3
330
F97
100
AcDbEntity
  8
BEM
 62
     0
370
    -2
100
AcDbLine
 10
353.9830920482407
 20
547.0644711181001
 30
0.0
 11
428.659711649961
 21
547.0644711181001
 31
0.0
  0
LINE
  5
FF4
330
F97
100
AcDbEntity
  8
BEM
 62
     0
370
    -2
100
AcDbLine
 10
408.8579786835
 20
767.0644711180998
 30
0.0
 11
428.6597116499611
 21
767.0644711180998
 31
0.0
  0
LINE
  5
FF5
330
F97
100
AcDbEntity
  8
BEM
 62
     0
370
    -2
100
AcDbLine
 10
426.6597116499609
 20
554.0644711181
 30
0.0
 11
426.659711649961
 21
760.0644711180998
 31
0.0
  0
SOLID
  5
FF6
330
F97
100
AcDbEntity
  8
BEM
 62
     0
100
AcDbTrace
 10
425.4930449832943
 20
554.0644711181
 30
0.0
 11
427.8263783166277
 21
554.0644711181
 31
0.0
 12
426.6597116499609
 22
547.0644711181001
 32
0.0
 13
426.6597116499609
 23
547.0644711181001
 33
0.0
  0
SOLID
  5
FF7
330
F97
100
AcDbEntity
  8
BEM
 62
     0
100
AcDbTrace
 10
425.4930449832944
 20
760.0644711180998
 30
0.0
 11
427.8263783166277
 21
760.0644711180998
 31
0.0
 12
426.659711649961
 22
767.0644711180998
 32
0.0
 13
426.659711649961
 23
767.0644711180998
 33
0.0
  0
MTEXT
  5
FF8
330
F97
100
AcDbEntity
  8
BEM
 62
     1
100
AcDbMText
 10
420.1597116499609
 20
657.0644711181
 30
0.0
 40
7.0
 41
0.0
 71
     5
 72
     1
  1
\A1;220
 11
0.0000000000000001
 21
1.0
 31
0.0
 73
     1
 44
1.0
  0
POINT
  5
FF9
330
F97
100
AcDbEntity
  8
DEFPOINTS
 62
     0
100
AcDbPoint
 10
351.9830920482407
 20
547.0644711181001
 30
0.0
  0
POINT
  5
FFA
330
F97
100
AcDbEntity
  8
DEFPOINTS
 62
     0
100
AcDbPoint
 10
406.8579786835
 20
767.0644711180998
 30
0.0
  0
POINT
  5
FFB
330
F97
100
AcDbEntity
  8
DEFPOINTS
 62
     0
100
AcDbPoint
 10
426.659711649961
 20
767.0644711180998
 30
0.0
  0
ENDBLK
  5
FA2
330
F97
100
AcDbEntity
  8
0
100
AcDbBlockEnd
  0
ENDSEC
  0
SECTION
  2
ENTITIES
  0
TEXT
  5
8F
330
1E
100
AcDbEntity
  8
VOLL
100
AcDbText
 10
78.07675471698113
 20
31.02594776470585
 30
0.0
 40
1.8
  1

  7
GREEKS
100
AcDbText
  0
LINE
  5
855
330
1E
100
AcDbEntity
  8
STEMPEL
100
AcDbLine
 10
483.9999999999998
 20
830.0
 30
0.0
 11
483.9999999999998
 21
470.0000000000001
 31
0.0
  0
LINE
  5
856
330
1E
100
AcDbEntity
  8
STEMPEL
100
AcDbLine
 10
483.9999999999998
 20
566.0000000000002
 30
0.0
 11
583.9999999999998
 21
566.0000000000001
 31
0.0
  0
LINE
  5
857
330
1E
100
AcDbEntity
  8
STEMPEL
100
AcDbLine
 10
483.9999999999998
 20
650.0
 30
0.0
 11
583.9999999999998
 21
650.0
 31
0.0
  0
LINE
  5
858
330
1E
100
AcDbEntity
  8
STEMPEL
100
AcDbLine
 10
484.0
 20
752.0000000000001
 30
0.0
 11
553.9999999999998
 21
752.0000000000001
 31
0.0
  0
LINE
  5
859
330
1E
100
AcDbEntity
  8
STEMPEL
100
AcDbLine
 10
563.9999999999998
 20
566.0
 30
0.0
 11
563.9999999999997
 21
470.0000000000001
 31
0.0
  0
LINE
  5
85A
330
1E
100
AcDbEntity
  8
STEMPEL
100
AcDbLine
 10
553.9999999999998
 20
830.0
 30
0.0
 11
553.9999999999999
 21
566.0000000000002
 31
0.0
  0
LINE
  5
85B
330
1E
100
AcDbEntity
  8
STEMPEL
100
AcDbLine
 10
513.9999999999997
 20
830.0
 30
0.0
 11
513.9999999999998
 21
566.0000000000002
 31
0.0
  0
LINE
  5
85C
330
1E
100
AcDbEntity
  8
VOLL
100
AcDbLine
 10
483.9999999999998
 20
484.0000000000002
 30
0.0
 11
583.9999999999998
 21
484.0000000000001
 31
0.0
  0
LINE
  5
85D
330
1E
100
AcDbEntity
  8
VOLL
100
AcDbLine
 10
483.9999999999998
 20
524.0000000000001
 30
0.0
 11
583.9999999999998
 21
524.0000000000001
 31
0.0
  0
LINE
  5
85E
330
1E
100
AcDbEntity
  8
VOLL
100
AcDbLine
 10
483.9999999999998
 20
544.0000000000002
 30
0.0
 11
583.9999999999998
 21
544.0000000000001
 31
0.0
  0
LINE
  5
85F
330
1E
100
AcDbEntity
  8
VOLL
100
AcDbLine
 10
513.9999999999998
 20
584.0000000000002
 30
0.0
 11
553.9999999999999
 21
584.0000000000002
 31
0.0
  0
LINE
  5
860
330
1E
100
AcDbEntity
  8
VOLL
100
AcDbLine
 10
484.0
 20
610.0000000000002
 30
0.0
 11
553.9999999999999
 21
610.0000000000001
 31
0.0
  0
LINE
  5
861
330
1E
100
AcDbEntity
  8
HILF
100
AcDbLine
 10
493.9999999999997
 20
470.0000000000001
 30
0.0
 11
493.9999999999997
 21
566.0000000000002
 31
0.0
  0
LINE
  5
862
330
1E
100
AcDbEntity
  8
HILF
100
AcDbLine
 10
503.9999999999998
 20
470.0000000000001
 30
0.0
 11
503.9999999999998
 21
566.0000000000002
 31
0.0
  0
LINE
  5
863
330
1E
100
AcDbEntity
  8
HILF
100
AcDbLine
 10
513.9999999999998
 20
470.0000000000001
 30
0.0
 11
513.9999999999998
 21
566.0000000000002
 31
0.0
  0
LINE
  5
864
330
1E
100
AcDbEntity
  8
HILF
100
AcDbLine
 10
523.9999999999999
 20
470.0000000000001
 30
0.0
 11
523.9999999999999
 21
566.0000000000002
 31
0.0
  0
LINE
  5
865
330
1E
100
AcDbEntity
  8
HILF
100
AcDbLine
 10
533.9999999999998
 20
470.0000000000001
 30
0.0
 11
533.9999999999998
 21
566.0000000000002
 31
0.0
  0
LINE
  5
866
330
1E
100
AcDbEntity
  8
HILF
100
AcDbLine
 10
543.9999999999997
 20
470.0000000000001
 30
0.0
 11
543.9999999999998
 21
566.0000000000002
 31
0.0
  0
LINE
  5
867
330
1E
100
AcDbEntity
  8
HILF
100
AcDbLine
 10
553.9999999999998
 20
470.0000000000001
 30
0.0
 11
553.9999999999999
 21
566.0000000000002
 31
0.0
  0
LINE
  5
868
330
1E
100
AcDbEntity
  8
HILF
100
AcDbLine
 10
523.9999999999999
 20
566.0000000000002
 30
0.0
 11
523.9999999999999
 21
650.0
 31
0.0
  0
LINE
  5
869
330
1E
100
AcDbEntity
  8
HILF
100
AcDbLine
 10
533.9999999999998
 20
566.0000000000002
 30
0.0
 11
533.9999999999998
 21
650.0
 31
0.0
  0
LINE
  5
86A
330
1E
100
AcDbEntity
  8
HILF
100
AcDbLine
 10
543.9999999999998
 20
566.0000000000002
 30
0.0
 11
543.9999999999998
 21
650.0
 31
0.0
  0
LINE
  5
86B
330
1E
100
AcDbEntity
  8
HILF
100
AcDbLine
 10
509.9624175243584
 20
654.7736801096948
 30
0.0
 11
509.9624175243584
 21
744.8353916556311
 31
0.0
  0
LINE
  5
86C
330
1E
100
AcDbEntity
  8
HILF
100
AcDbLine
 10
523.9999999999999
 20
654.7736801096948
 30
0.0
 11
523.9999999999999
 21
744.835391655631
 31
0.0
  0
LINE
  5
86D
330
1E
100
AcDbEntity
  8
HILF
100
AcDbLine
 10
533.9999999999998
 20
654.7736801096948
 30
0.0
 11
533.9999999999998
 21
744.835391655631
 31
0.0
  0
LINE
  5
86E
330
1E
100
AcDbEntity
  8
HILF
100
AcDbLine
 10
543.9999999999998
 20
654.7736801096948
 30
0.0
 11
543.9999999999998
 21
744.835391655631
 31
0.0
  0
LINE
  5
86F
330
1E
100
AcDbEntity
  8
VOLL
100
AcDbLine
 10
533.9999999999998
 20
752.0000000000001
 30
0.0
 11
533.9999999999998
 21
830.0
 31
0.0
  0
LINE
  5
870
330
1E
100
AcDbEntity
  8
HILF
100
AcDbLine
 10
510.2201636304415
 20
756.7238616296994
 30
0.0
 11
510.2201636304415
 21
824.8588839326728
 31
0.0
  0
LINE
  5
871
330
1E
100
AcDbEntity
  8
HILF
100
AcDbLine
 10
579.1060174197166
 20
653.4909699289886
 30
0.0
 11
579.1060174197166
 21
824.8588839326728
 31
0.0
  0
TEXT
  5
872
330
1E
100
AcDbEntity
  8
TEXT
100
AcDbText
 10
575.3261810501585
 20
492.7826069847976
 30
0.0
 40
4.0
  1
Änderung
 50
90.0
 41
0.8
  7
GREEKS
 72
     1
 11
575.3261810501585
 21
503.5254641276548
 31
0.0
100
AcDbText
  0
TEXT
  5
873
330
1E
100
AcDbEntity
  8
TEXT
100
AcDbText
 10
491.537910491291
 20
573.5163572150378
 30
0.0
 40
5.0
  1
Maßstab
 50
90.0
 41
0.8
  7
GREEKS
100
AcDbText
  0
TEXT
  5
874
330
1E
100
AcDbEntity
  8
TEXT
100
AcDbText
 10
491.5815831565179
 20
614.2858954734053
 30
0.0
 40
5.0
  1
Zul. Abw.
 50
90.0
 41
0.8
  7
GREEKS
100
AcDbText
  0
TEXT
  5
875
330
1E
100
AcDbEntity
  8
TEXT
100
AcDbText
 10
491.4510671988218
 20
654.8779403809011
 30
0.0
 40
5.0
  1
Benennung
 50
90.0
 41
0.8
  7
GREEKS
100
AcDbText
  0
TEXT
  5
876
330
1E
100
AcDbEntity
  8
TEXT
100
AcDbText
 10
491.6867965462862
 20
756.1787549576341
 30
0.0
 40
5.0
  1
Zeichnungs Nr.
 50
90.0
 41
0.8
  7
GREEKS
100
AcDbText
  0
TEXT
  5
877
330
1E
100
AcDbEntity
  8
TEXT
100
AcDbText
 10
563.1543942980693
 20
654.742238391136
 30
0.0
 40
5.0
  1
Bauvorhaben
 50
90.0
 41
0.8
  7
GREEKS
100
AcDbText
  0
TEXT
  5
878
330
1E
100
AcDbEntity
  8
TEXT
100
AcDbText
 10
520.8188176290001
 20
756.7238616296994
 30
0.0
 40
5.0
  1
Ersatz für:
 50
90.0
 41
0.8
  7
GREEKS
100
AcDbText
  0
TEXT
  5
879
330
1E
100
AcDbEntity
  8
TEXT
100
AcDbText
 10
580.3453415397278
 20
478.2664110704577
 30
0.0
 40
4.0
  1
Index
 50
180.0
 41
0.8
  7
GREEKS
100
AcDbText
  0
TEXT
  5
87A
330
1E
100
AcDbEntity
  8
TEXT
100
AcDbText
 10
575.3284373066017
 20
530.0571803261056
 30
0.0
 40
4.0
  1
Tag
 50
90.0
 41
0.8
  7
GREEKS
 72
     1
 11
575.3284373066017
 21
533.7905136594389
 31
0.0
100
AcDbText
  0
TEXT
  5
87B
330
1E
100
AcDbEntity
  8
TEXT
100
AcDbText
 10
575.4067578303358
 20
548.6614567187548
 30
0.0
 40
4.0
  1
Name
 50
90.0
 41
0.8
  7
GREEKS
 72
     1
 11
575.4067578303358
 21
554.9852662425642
 31
0.0
100
AcDbText
  0
TEXT
  5
87C
330
1E
100
AcDbEntity
  8
TEXT
100
AcDbText
 10
520.6811949877005
 20
592.3311673153651
 30
0.0
 40
4.0
  1
Tag
 50
90.0
 41
0.8
  7
GREEKS
100
AcDbText
  0
TEXT
  5
87D
330
1E
100
AcDbEntity
  8
TEXT
100
AcDbText
 10
520.6903890808475
 20
622.4626584226296
 30
0.0
 40
4.0
  1
Name
 50
90.0
 41
0.8
  7
GREEKS
100
AcDbText
  0
TEXT
  5
87E
330
1E
100
AcDbEntity
  8
TEXT
100
AcDbText
 10
530.3700963038202
 20
567.5836127167616
 30
0.0
 40
4.0
  1
Gez.
 50
90.0
 41
0.8
  7
GREEKS
100
AcDbText
  0
TEXT
  5
87F
330
1E
100
AcDbEntity
  8
TEXT
100
AcDbText
 10
540.310737085716
 20
567.5515086571673
 30
0.0
 40
4.0
  1
Gepr.
 50
90.0
 41
0.8
  7
GREEKS
100
AcDbText
  0
TEXT
  5
880
330
1E
100
AcDbEntity
  8
TEXT
100
AcDbText
 10
550.4705361035018
 20
567.6006777387304
 30
0.0
 40
4.0
  1
Norm.
 50
90.0
 41
0.8
  7
GREEKS
100
AcDbText
  0
LINE
  5
881
330
1E
100
AcDbEntity
  8
STEMPEL
100
AcDbLine
 10
583.9999999999998
 20
480.0
 30
0.0
 11
583.9999999999998
 21
830.0
 31
0.0
  0
TEXT
  5
882
330
1E
100
AcDbEntity
  8
TEXT
100
AcDbText
 10
541.9258382212137
 20
757.2400861497007
 30
0.0
 40
5.0
  1
ersetzt durch:
 50
90.0
 41
0.8
  7
GREEKS
100
AcDbText
  0
LINE
  5
883
330
1E
100
AcDbEntity
  8
STEMPEL
100
AcDbLine
 10
583.9999999999998
 20
830.0
 30
0.0
 11
583.9999999999998
 21
40.00000000000011
 31
0.0
  0
LINE
  5
884
330
1E
100
AcDbEntity
  8
STEMPEL
100
AcDbLine
 10
583.9999999999998
 20
830.0
 30
0.0
 11
9.999999999999772
 21
830.0
 31
0.0
  0
LINE
  5
885
330
1E
100
AcDbEntity
  8
STEMPEL
100
AcDbLine
 10
583.9999999999998
 20
470.0000000000001
 30
0.0
 11
483.9999999999998
 21
470.0000000000001
 31
0.0
  0
LINE
  5
886
330
1E
100
AcDbEntity
  8
STEMPEL
100
AcDbLine
 10
9.999999999999772
 20
830.0
 30
0.0
 11
9.999999999999772
 21
40.00000000000003
 31
0.0
  0
LINE
  5
887
330
1E
100
AcDbEntity
  8
HILF
100
AcDbLine
 10
-0.0000000000004547
 20
840.0
 30
0.0
 11
0.0
 21
-0.0000000000000205
 31
0.0
  0
LINE
  5
888
330
1E
100
AcDbEntity
  8
HILF
100
AcDbLine
 10
593.9999999999997
 20
840.0000000000002
 30
0.0
 11
593.9999999999997
 21
0.0000000000001137
 31
0.0
  0
LINE
  5
889
330
1E
100
AcDbEntity
  8
HILF
100
AcDbLine
 10
296.9999999999999
 20
31.08767135713863
 30
0.0
 11
296.9999999999999
 21
0.0000000000001887
 31
0.0
  0
TEXT
  5
88A
330
1E
100
AcDbEntity
  8
TEXT
100
AcDbText
 10
520.8597452884832
 20
568.622109822104
 30
0.0
 40
4.0
  1
2012
 50
90.0
 41
0.8
  7
GREEKS
100
AcDbText
  0
LINE
  5
88B
330
1E
100
AcDbEntity
  8
HILF
100
AcDbLine
 10
593.9999999999998
 20
840.0000000000002
 30
0.0
 11
-0.0000000000002274
 21
840.0
 31
0.0
  0
TEXT
  5
88C
330
1E
100
AcDbEntity
  8
VOLL
100
AcDbText
 10
531.948104470588
 20
156.1535094339624
 30
0.0
 40
3.6
  1

 50
90.0
  7
GREEKS
100
AcDbText
  0
TEXT
  5
88D
330
1E
100
AcDbEntity
  8
TEXT
100
AcDbText
 10
482.3279999999998
 20
471.8550995097769
 30
0.0
 40
5.0
  1
Erstellt mit AUTOCAD 2004
 50
90.0
 41
0.8
  7
GREEKS
100
AcDbText
  0
TEXT
  5
88E
330
1E
100
AcDbEntity
  8
TEXT
100
AcDbText
 10
530.9103608027647
 20
624.4216048581258
 30
0.0
 40
4.0
  1
Koeh
 50
90.0
 41
0.8
  7
GREEKS
 72
     1
 11
530.9103608027647
 21
629.6787477152687
 31
0.0
100
AcDbText
  0
TEXT
  5
88F
330
1E
100
AcDbEntity
  8
TEXT
 62
     1
100
AcDbText
 10
505.8509857108602
 20
768.3132494462936
 30
0.0
 40
7.0
  1
16738100W
 50
90.0
 41
0.8
  7
GREEKS
 72
     1
 11
505.8509857108602
 21
791.246582779627
 31
0.0
100
AcDbText
  0
TEXT
  5
890
330
1E
100
AcDbEntity
  8
TEXT
 62
     1
100
AcDbText
 10
505.8509857108602
 20
580.5006306481888
 30
0.0
 40
7.0
  1
1:2
 50
90.0
 41
0.8
  7
GREEKS
100
AcDbText
  0
TEXT
  5
891
330
1E
100
AcDbEntity
  8
TEXT
100
AcDbText
 10
530.8923495917424
 20
590.3989971082362
 30
0.0
 40
4.0
  1
09.03.
 50
90.0
 41
0.8
  7
GREEKS
 72
     1
 11
530.8923495917424
 21
597.40852091776
 31
0.0
100
AcDbText
  0
TEXT
  5
892
330
1E
100
AcDbEntity
  8
TEXT
 62
     1
100
AcDbText
 10
506.582512107462
 20
654.4942536306288
 30
0.0
 40
7.0
  1
Balkondirektablauf DN100
 50
90.0
 41
0.7
  7
GREEKS
100
AcDbText
  0
TEXT
  5
893
330
1E
100
AcDbEntity
  8
TEXT
100
AcDbText
 10
522.4966558241469
 20
655.1296391125316
 30
0.0
 40
5.0
  1
für obere Balkone
 50
90.0
 41
0.8
  7
GREEKS
100
AcDbText
  0
TEXT
  5
894
330
1E
100
AcDbEntity
  8
TEXT
100
AcDbText
 10
531.8841929322513
 20
655.1296391125316
 30
0.0
 40
5.0
  1
Deckenstärke 100 - 170mm
 50
90.0
 41
0.8
  7
GREEKS
100
AcDbText
  0
TEXT
  5
895
330
1E
100
AcDbEntity
  8
TEXT
100
AcDbText
 10
542.3598805695782
 20
655.1296391125316
 30
0.0
 40
5.0
  1
EDV-Art.Nr. 16738.100X
 50
90.0
 41
0.8
  7
GREEKS
100
AcDbText
  0
TEXT
  5
896
330
1E
100
AcDbEntity
  8
TEXT
100
AcDbText
 10
551.3702584697734
 20
654.9837501577827
 30
0.0
 40
4.0
  1
16738100W.DWG
 50
90.0
 41
0.8
  7
GREEKS
100
AcDbText
  0
TEXT
  5
897
330
1E
100
AcDbEntity
  8
TEXT
100
AcDbText
 10
503.2363615897696
 20
612.626132208084
 30
0.0
 40
4.0
  1
DIN EN1123-2
 50
90.0
 41
0.8
  7
GREEKS
 72
     1
 11
503.2363615897696
 21
629.6166083985602
 31
0.0
100
AcDbText
  0
INSERT
  5
898
330
1E
100
AcDbEntity
  8
STEMPEL
100
AcDbBlockReference
  2
LOGO
 10
548.9789472355165
 20
570.9955485457795
 30
0.0
 41
2.0
 42
2.0
 43
2.0
 50
90.0
  0
LINE
  5
899
330
1E
100
AcDbEntity
  8
HILF
100
AcDbLine
 10
593.9999999999997
 20
0.0000000000001137
 30
0.0
 11
0.0
 21
-0.0000000000000205
 31
0.0
  0
LINE
  5
89A
330
1E
100
AcDbEntity
  8
STEMPEL
100
AcDbLine
 10
583.9999999999998
 20
40.00000000000011
 30
0.0
 11
9.999999999999772
 21
40.00000000000003
 31
0.0
  0
LINE
  5
89B
330
1E
100
AcDbEntity
  8
HILF
 62
     7
100
AcDbLine
 10
594.0000000000001
 20
460.0000000000001
 30
0.0
 11
583.9999999999998
 21
460.0000000000001
 31
0.0
  0
LINE
  5
89C
330
1E
100
AcDbEntity
  8
HILF
 62
     7
100
AcDbLine
 10
9.999999999999772
 20
460.0
 30
0.0
 11
-0.0000000000001137
 21
460.0
 31
0.0
  0
TEXT
  5
89D
330
1E
100
AcDbEntity
  8
BEM
100
AcDbText
 10
583.8320989200111
 20
837.3022923857167
 30
0.0
 40
4.0
  1
Diese Zeichnung ist urheberrechtlich geschützt und bleibt unser Eigentum. Sie darf weder ganz noch teilweise verfielfältigt und nicht an Dritte weitergegeben werden.
 50
180.0
 41
0.8
  7
GREEKS
100
AcDbText
  0
TEXT
  5
89E
330
1E
100
AcDbEntity
  8
TEXT
 62
     1
100
AcDbText
 10
288.3803470075502
 20
213.9413021266297
 30
0.0
 40
7.0
  1
DN70
 50
90.0
 41
0.8
  7
GREEKS
100
AcDbText
  0
POINT
  5
E16
330
1E
100
AcDbEntity
  8
STEMPEL
100
AcDbPoint
 10
196.8579786835
 20
767.0644711181
 30
0.0
  0
POINT
  5
E17
330
1E
100
AcDbEntity
  8
STEMPEL
100
AcDbPoint
 10
196.8579786835
 20
767.0644711181
 30
0.0
  0
LINE
  5
E18
102
{ACAD_REACTORS
330
103D
102
}
330
1E
100
AcDbEntity
  8
STEMPEL
100
AcDbLine
 10
196.8579786835
 20
767.0644711181
 30
0.0
 11
196.8579786835
 21
765.0644711181
 31
0.0
  0
LINE
  5
E19
102
{ACAD_REACTORS
330
103D
102
}
330
1E
100
AcDbEntity
  8
STEMPEL
100
AcDbLine
 10
253.8579786835001
 20
765.0644711181
 30
0.0
 11
253.8579786835001
 21
767.0644711181
 31
0.0
  0
LINE
  5
E1A
102
{ACAD_REACTORS
330
103D
102
}
330
1E
100
AcDbEntity
  8
STEMPEL
100
AcDbLine
 10
275.8579786835
 20
765.0644711181
 30
0.0
 11
275.8579786835
 21
767.0644711181
 31
0.0
  0
INSERT
  5
E1B
330
1E
100
AcDbEntity
  8
SCHRAFF
100
AcDbBlockReference
  2
*X2
 10
-9.097730268973691
 20
415.2935192107677
 30
0.0
1001
ACAD
1000
HATCH
1002
{
1070
    16
1000
_U,I
1040
0.1
1040
2.356194490192344
1070
     0
1002
}
  0
ARC
  5
E1C
330
1E
100
AcDbEntity
  8
SCHRAFF
100
AcDbCircle
 10
251.5636800287309
 20
766.3294264530077
 30
0.0
 40
4.477140827639991
100
AcDbArc
 50
196.4116445908428
 51
260.9310338685615
  0
LINE
  5
E1D
330
1E
100
AcDbEntity
  8
STEMPEL
100
AcDbLine
 10
226.8579786835001
 20
593.5644711181001
 30
0.0
 11
226.8579786835001
 21
597.0644711181001
 31
0.0
  0
LINE
  5
E1E
330
1E
100
AcDbEntity
  8
STEMPEL
100
AcDbLine
 10
226.8579786835001
 20
593.5644711181001
 30
0.0
 11
231.8579786835
 21
593.5644711180996
 31
0.0
  0
LINE
  5
E1F
330
1E
100
AcDbEntity
  8
STEMPEL
100
AcDbLine
 10
236.8579786835001
 20
580.0644711181
 30
0.0
 11
241.857978683501
 21
580.0644711181
 31
0.0
  0
LINE
  5
E20
330
1E
100
AcDbEntity
  8
STEMPEL
100
AcDbLine
 10
241.857978683501
 20
580.0644711181
 30
0.0
 11
241.857978683501
 21
597.0644711181001
 31
0.0
  0
LINE
  5
E21
330
1E
100
AcDbEntity
  8
STEMPEL
100
AcDbLine
 10
236.8579786835001
 20
580.0644711181
 30
0.0
 11
236.8579786835001
 21
597.0644711181001
 31
0.0
  0
LINE
  5
E22
330
1E
100
AcDbEntity
  8
STEMPEL
100
AcDbLine
 10
245.3579786835009
 20
600.5644711181
 30
0.0
 11
245.8579786835001
 21
600.5644711181
 31
0.0
  0
LINE
  5
E23
330
1E
100
AcDbEntity
  8
STEMPEL
100
AcDbLine
 10
241.857978683501
 20
597.0644711181001
 30
0.0
 11
245.3579786835009
 21
600.5644711181
 31
0.0
  0
LINE
  5
E24
330
1E
100
AcDbEntity
  8
STEMPEL
100
AcDbLine
 10
226.8579786835001
 20
597.0644711181001
 30
0.0
 11
241.857978683501
 21
597.0644711181001
 31
0.0
  0
LINE
  5
E25
330
1E
100
AcDbEntity
  8
STEMPEL
100
AcDbLine
 10
250.8579786835
 20
734.0644711180998
 30
0.0
 11
245.8579786835001
 21
734.0644711181
 31
0.0
  0
LINE
  5
E26
330
1E
100
AcDbEntity
  8
STEMPEL
100
AcDbLine
 10
250.8579786835
 20
736.0644711181
 30
0.0
 11
245.8579786835001
 21
736.0644711181
 31
0.0
  0
LINE
  5
E27
330
1E
100
AcDbEntity
  8
STEMPEL
100
AcDbLine
 10
226.8579786834998
 20
576.5644711181001
 30
0.0
 11
226.8579786834998
 21
563.5644711180998
 31
0.0
  0
LINE
  5
E28
330
1E
100
AcDbEntity
  8
STEMPEL
100
AcDbLine
 10
226.8579786834998
 20
563.5644711180998
 30
0.0
 11
227.8579786834998
 21
562.5644711180998
 31
0.0
  0
ARC
  5
E29
330
1E
100
AcDbEntity
  8
STEMPEL
100
AcDbCircle
 10
232.2579786834999
 20
570.6644711181
 30
0.0
 40
1.9
100
AcDbArc
 50
90.0
 51
180.0
  0
LINE
  5
E2A
330
1E
100
AcDbEntity
  8
STEMPEL
100
AcDbLine
 10
232.2579786834999
 20
572.5644711181001
 30
0.0
 11
232.7205654820286
 21
572.5644711181001
 31
0.0
  0
LINE
  5
E2B
330
1E
100
AcDbEntity
  8
STEMPEL
100
AcDbLine
 10
230.3579786835001
 20
570.6644711181
 30
0.0
 11
230.3579786835001
 21
562.5644711181
 31
0.0
  0
POINT
  5
E2C
330
1E
100
AcDbEntity
  8
STEMPEL
100
AcDbPoint
 10
230.7144985111293
 20
571.7724733552361
 30
0.0
  0
LINE
  5
E2D
330
1E
100
AcDbEntity
  8
STEMPEL
100
AcDbLine
 10
231.8579786834998
 20
576.5644711181001
 30
0.0
 11
226.8579786834998
 21
576.5644711181001
 31
0.0
  0
ARC
  5
E2E
330
1E
100
AcDbEntity
  8
STEMPEL
100
AcDbCircle
 10
216.047343977334
 20
559.4932489709417
 30
0.0
 40
25.0
100
AcDbArc
 50
7.056548564392021
 51
31.52354387398707
  0
LINE
  5
E2F
330
1E
100
AcDbEntity
  8
STEMPEL
100
AcDbLine
 10
237.3579786834998
 20
576.5644711180998
 30
0.0
 11
237.3579786835001
 21
572.5644711180998
 31
0.0
  0
LINE
  5
E30
330
1E
100
AcDbEntity
  8
STEMPEL
100
AcDbLine
 10
234.555824551978
 20
571.1562273037948
 30
0.0
 11
236.8579786835001
 21
562.5644711181
 31
0.0
  0
POINT
  5
E31
330
1E
100
AcDbEntity
  8
STEMPEL
100
AcDbPoint
 10
236.8579786835001
 20
562.5644711180998
 30
0.0
  0
POINT
  5
E32
330
1E
100
AcDbEntity
  8
STEMPEL
100
AcDbPoint
 10
234.555824551978
 20
571.1562273037948
 30
0.0
  0
POINT
  5
E33
330
1E
100
AcDbEntity
  8
STEMPEL
100
AcDbPoint
 10
236.8579786835001
 20
562.5644711181
 30
0.0
  0
ARC
  5
E34
330
1E
100
AcDbEntity
  8
STEMPEL
100
AcDbCircle
 10
216.8579786835
 20
558.2553830968456
 30
0.0
 40
25.0
100
AcDbArc
 50
0.0
 51
32.00317268118374
  0
ARC
  5
E35
330
1E
100
AcDbEntity
  8
STEMPEL
100
AcDbCircle
 10
216.8579786835
 20
558.2553830968456
 30
0.0
 40
27.0
100
AcDbArc
 50
0.0
 51
32.00317268118374
  0
LINE
  5
E36
330
1E
100
AcDbEntity
  8
STEMPEL
100
AcDbLine
 10
238.0584474647132
 20
571.5045386720812
 30
0.0
 11
239.7544849672104
 21
572.5644711181001
 31
0.0
  0
LINE
  5
E37
330
1E
100
AcDbEntity
  8
STEMPEL
100
AcDbLine
 10
237.3579786835001
 20
574.5644711181
 30
0.0
 11
245.8579786835001
 21
574.5644711181001
 31
0.0
  0
LINE
  5
E38
330
1E
100
AcDbEntity
  8
STEMPEL
100
AcDbLine
 10
237.3579786835001
 20
574.5644711181
 30
0.0
 11
237.3579786835001
 21
576.5644711181001
 31
0.0
  0
LINE
  5
E39
330
1E
100
AcDbEntity
  8
STEMPEL
100
AcDbLine
 10
245.8579786835001
 20
572.5644711181001
 30
0.0
 11
237.3579786834998
 21
572.5644711181001
 31
0.0
  0
ARC
  5
E3A
330
1E
100
AcDbEntity
  8
STEMPEL
100
AcDbCircle
 10
232.7205654820286
 20
570.6644711181
 30
0.0
 40
1.9
100
AcDbArc
 50
14.99999999999917
 51
90.0
  0
LINE
  5
E3B
330
1E
100
AcDbEntity
  8
STEMPEL
100
AcDbLine
 10
241.4838139063931
 20
562.5644711180998
 30
0.0
 11
227.8579786834998
 21
562.5644711180998
 31
0.0
  0
LINE
  5
E3C
330
1E
100
AcDbEntity
  8
STEMPEL
100
AcDbLine
 10
227.2339209005036
 20
576.5644711181001
 30
0.0
 11
237.3579786835001
 21
576.5644711181001
 31
0.0
  0
LINE
  5
E3D
330
1E
100
AcDbEntity
  8
STEMPEL
100
AcDbLine
 10
250.8579786835
 20
557.0644711181
 30
0.0
 11
251.7328653187594
 21
547.0644711181001
 31
0.0
  0
POINT
  5
E3E
330
1E
100
AcDbEntity
  8
STEMPEL
100
AcDbPoint
 10
251.7328653187594
 20
547.0644711181001
 30
0.0
  0
LINE
  5
E3F
330
1E
100
AcDbEntity
  8
STEMPEL
100
AcDbLine
 10
252.8579786835
 20
557.0644711181
 30
0.0
 11
253.7328653187592
 21
547.0644711181001
 31
0.0
  0
LINE
  5
E40
330
1E
100
AcDbEntity
  8
STEMPEL
100
AcDbLine
 10
250.8579786835
 20
569.0644711181001
 30
0.0
 11
245.8579786835001
 21
569.0644711181001
 31
0.0
  0
LINE
  5
E41
330
1E
100
AcDbEntity
  8
STEMPEL
100
AcDbLine
 10
227.2339209005036
 20
593.5644711181001
 30
0.0
 11
227.2339209005036
 21
576.5644711181001
 31
0.0
  0
LINE
  5
E42
330
1E
100
AcDbEntity
  8
STEMPEL
100
AcDbLine
 10
231.8579786835
 20
593.5644711180996
 30
0.0
 11
231.8579786835
 21
576.5644711181001
 31
0.0
  0
LINE
  5
E43
330
1E
100
AcDbEntity
  8
STEMPEL
100
AcDbLine
 10
243.7829786835
 20
598.9894711180989
 30
0.0
 11
243.7829786835
 21
574.5644711181
 31
0.0
  0
LINE
  5
E44
330
1E
100
AcDbEntity
  8
HILF
100
AcDbLine
 10
248.8579786835
 20
734.0644711181
 30
0.0
 11
248.8579786835
 21
569.0644711181001
 31
0.0
  0
LINE
  5
E45
330
1E
100
AcDbEntity
  8
STEMPEL
100
AcDbLine
 10
245.8579786835001
 20
734.0644711181
 30
0.0
 11
245.8579786835001
 21
569.0644711181001
 31
0.0
  0
TEXT
  5
E46
330
1E
100
AcDbEntity
  8
TEXT
 62
     1
100
AcDbText
 10
434.1596402077093
 20
399.6362438190765
 30
0.0
 40
7.0
  1
Fallrohr DN100
 41
0.8
  7
GREEKS
100
AcDbText
  0
TEXT
  5
E47
330
1E
100
AcDbEntity
  8
TEXT
 62
     1
100
AcDbText
 10
434.1596402077093
 20
388.3671855687578
 30
0.0
 40
7.0
  1
EDV-Art.Nr.16721.100X
 41
0.8
  7
GREEKS
100
AcDbText
  0
LINE
  5
E48
330
1E
100
AcDbEntity
  8
TEXT
 62
     2
100
AcDbLine
 10
432.7116302149412
 20
397.2498679023368
 30
0.0
 11
535.0718768611663
 21
397.2498679023368
 31
0.0
  0
ARC
  5
E49
330
1E
100
AcDbEntity
  8
STEMPEL
100
AcDbCircle
 10
255.8579786834998
 20
415.5693567617065
 30
0.0
 40
12.0
100
AcDbArc
 50
180.0
 51
204.2277453179525
  0
ARC
  5
E4A
330
1E
100
AcDbEntity
  8
STEMPEL
100
AcDbCircle
 10
255.8579786834998
 20
415.5693567617066
 30
0.0
 40
14.0
100
AcDbArc
 50
180.0
 51
204.2277453179525
  0
ARC
  5
E4B
330
1E
100
AcDbEntity
  8
STEMPEL
100
AcDbCircle
 10
238.8579786834999
 20
389.9888548521518
 30
0.0
 40
12.0
100
AcDbArc
 50
0.0
 51
24.22774531795254
  0
ARC
  5
E4C
330
1E
100
AcDbEntity
  8
STEMPEL
100
AcDbCircle
 10
238.8579786834999
 20
389.9888548521518
 30
0.0
 40
14.0
100
AcDbArc
 50
0.0
 51
24.22774531795254
  0
LINE
  5
E4D
330
1E
100
AcDbEntity
  8
STEMPEL
100
AcDbLine
 10
252.8579786834998
 20
360.5770218049856
 30
0.0
 11
252.8579786834999
 21
389.9888548521516
 31
0.0
  0
LINE
  5
E4E
330
1E
100
AcDbEntity
  8
STEMPEL
100
AcDbLine
 10
250.8579786834998
 20
359.0415052801282
 30
0.0
 11
250.8579786834999
 21
389.9888548521517
 31
0.0
  0
LINE
  5
E4F
330
1E
100
AcDbEntity
  8
STEMPEL
100
AcDbLine
 10
243.0910776110484
 20
409.8242512791032
 30
0.0
 11
249.8010367456012
 21
394.9132309800973
 31
0.0
  0
LINE
  5
E50
330
1E
100
AcDbEntity
  8
STEMPEL
100
AcDbLine
 10
244.9149206213986
 20
410.6449806337608
 30
0.0
 11
251.6248797559514
 21
395.7339603347548
 31
0.0
  0
LINE
  5
E51
330
1E
100
AcDbEntity
  8
TEXT
 62
     2
100
AcDbLine
 10
432.7116302149412
 20
397.2498679023368
 30
0.0
 11
360.905977416432
 21
429.3252143563738
 31
0.0
  0
LINE
  5
E52
330
1E
100
AcDbEntity
  8
STEMPEL
100
AcDbLine
 10
243.8579786834998
 20
415.5693567617064
 30
0.0
 11
243.8579786834998
 21
558.2553830968456
 31
0.0
  0
LINE
  5
E53
330
1E
100
AcDbEntity
  8
STEMPEL
100
AcDbLine
 10
241.8579786834998
 20
415.5693567617066
 30
0.0
 11
241.8579786835
 21
558.2553830968456
 31
0.0
  0
LINE
  5
E54
330
1E
100
AcDbEntity
  8
STEMPEL
100
AcDbLine
 10
250.8579786834997
 20
91.60087493463185
 30
0.0
 11
251.9078426458106
 21
79.60087493463209
 31
0.0
  0
LINE
  5
E55
330
1E
100
AcDbEntity
  8
STEMPEL
100
AcDbLine
 10
252.8579786834997
 20
91.68819682044931
 30
0.0
 11
253.9154823208975
 21
79.60087493463209
 31
0.0
  0
LINE
  5
E56
330
1E
100
AcDbEntity
  8
STEMPEL
100
AcDbLine
 10
250.8579786834997
 20
91.60087493463185
 30
0.0
 11
250.8579786834998
 21
353.3514121413723
 31
0.0
  0
LINE
  5
E57
330
1E
100
AcDbEntity
  8
STEMPEL
100
AcDbLine
 10
252.8579786834997
 20
91.68819682044931
 30
0.0
 11
252.8579786834998
 21
354.8869286662297
 31
0.0
  0
LINE
  5
E58
330
1E
100
AcDbEntity
  8
STEMPEL
100
AcDbLine
 10
250.8579786835
 20
765.0644711181
 30
0.0
 11
250.8579786835
 21
557.0644711181
 31
0.0
  0
LINE
  5
E59
330
1E
100
AcDbEntity
  8
STEMPEL
100
AcDbLine
 10
252.8579786835
 20
765.0644711181
 30
0.0
 11
252.8579786835
 21
557.0644711181
 31
0.0
  0
LINE
  5
E5A
330
1E
100
AcDbEntity
  8
STEMPEL
100
AcDbLine
 10
237.8579786835
 20
765.0644711181
 30
0.0
 11
245.8579786835001
 21
736.0644711181
 31
0.0
  0
DIMENSION
  5
E5B
330
1E
100
AcDbEntity
  8
BEM
100
AcDbDimension
  2
*D8
 10
179.0517349001606
 20
767.0644711181
 30
0.0
 11
172.5517349001604
 21
682.0644711181
 31
0.0
 70
    32
  1
min.100-max.170
 71
     5
 42
170.0
  3
Standard
100
AcDbAlignedDimension
 13
226.8579786835001
 23
597.0644711181001
 33
0.0
 14
196.8579786835
 24
767.0644711181
 34
0.0
 50
90.0
100
AcDbRotatedDimension
1001
ACAD
1000
DSTYLE
1002
{
1070
    40
1040
2.0
1070
    41
1040
3.5
1070
    42
1040
1.0
1070
    43
1040
7.0
1070
    44
1040
1.0
1070
    73
1070
     0
1070
    74
1070
     0
1070
    77
1070
     1
1070
    78
1070
     8
1070
    79
1070
     2
1070
   140
1040
3.5
1070
   141
1040
1.5
1070
   146
1040
0.5142857142857144
1070
   147
1040
1.5
1070
   172
1070
     1
1070
   178
1070
     1
1070
   179
1070
     2
1070
   271
1070
     2
1070
   272
1070
     2
1070
   284
1070
     8
1070
   285
1070
     8
1070
   286
1070
     8
1002
}
  0
LINE
  5
E5C
102
{ACAD_REACTORS
330
103D
102
}
330
1E
100
AcDbEntity
  8
STEMPEL
100
AcDbLine
 10
289.3579786835001
 20
765.0644711181
 30
0.0
 11
289.3579786835001
 21
767.0644711180998
 31
0.0
  0
LINE
  5
E5D
102
{ACAD_REACTORS
330
103D
102
}
330
1E
100
AcDbEntity
  8
STEMPEL
100
AcDbLine
 10
314.3579786835001
 20
765.0644711181
 30
0.0
 11
314.3579786834998
 21
767.0644711180998
 31
0.0
  0
LINE
  5
E5E
102
{ACAD_REACTORS
330
103D
102
}
330
1E
100
AcDbEntity
  8
STEMPEL
100
AcDbLine
 10
327.8579786835
 20
765.0644711181
 30
0.0
 11
327.8579786835
 21
767.0644711180998
 31
0.0
  0
LINE
  5
E5F
102
{ACAD_REACTORS
330
103D
102
}
330
1E
100
AcDbEntity
  8
STEMPEL
100
AcDbLine
 10
349.8579786835001
 20
765.0644711181
 30
0.0
 11
349.8579786835001
 21
767.0644711180998
 31
0.0
  0
INSERT
  5
E60
330
1E
100
AcDbEntity
  8
SCHRAFF
100
AcDbBlockReference
  2
*X2
 10
612.8136876359735
 20
415.2935192107677
 30
0.0
 41
-1.0
1001
ACAD
1000
HATCH
1002
{
1070
    16
1000
_U,I
1040
0.1
1040
2.356194490192344
1070
     0
1002
}
  0
ARC
  5
E61
330
1E
100
AcDbEntity
  8
SCHRAFF
100
AcDbCircle
 10
352.1522773382692
 20
766.3294264530077
 30
0.0
 40
4.477140827639991
100
AcDbArc
 50
279.0689661314385
 51
343.5883554091571
  0
LINE
  5
E62
102
{ACAD_REACTORS
330
103D
102
}
330
1E
100
AcDbEntity
  8
STEMPEL
100
AcDbLine
 10
406.8579786835
 20
767.0644711180998
 30
0.0
 11
406.8579786835
 21
765.0644711180998
 31
0.0
  0
LINE
  5
E63
330
1E
100
AcDbEntity
  8
STEMPEL
100
AcDbLine
 10
357.8579786835001
 20
734.0644711181
 30
0.0
 11
352.8579786835
 21
734.0644711180998
 31
0.0
  0
LINE
  5
E64
330
1E
100
AcDbEntity
  8
STEMPEL
100
AcDbLine
 10
352.8579786835003
 20
736.0644711181
 30
0.0
 11
357.8579786835003
 21
736.0644711181
 31
0.0
  0
LINE
  5
E65
330
1E
100
AcDbEntity
  8
STEMPEL
100
AcDbLine
 10
361.8579786834989
 20
580.0644711181
 30
0.0
 11
361.8579786834991
 21
597.0644711180998
 31
0.0
  0
LINE
  5
E66
330
1E
100
AcDbEntity
  8
STEMPEL
100
AcDbLine
 10
359.9329786835001
 20
598.9894711180989
 30
0.0
 11
358.3579786834989
 21
600.5644711181
 31
0.0
  0
LINE
  5
E67
330
1E
100
AcDbEntity
  8
STEMPEL
100
AcDbLine
 10
361.8579786834989
 20
580.0644711181
 30
0.0
 11
361.8579786834991
 21
597.0644711180998
 31
0.0
  0
LINE
  5
E68
330
1E
100
AcDbEntity
  8
STEMPEL
100
AcDbLine
 10
361.8579786834991
 20
597.0644711180998
 30
0.0
 11
359.9329786835001
 21
598.9894711180989
 31
0.0
  0
LINE
  5
E69
330
1E
100
AcDbEntity
  8
STEMPEL
100
AcDbLine
 10
357.8579786835001
 20
600.5644711181
 30
0.0
 11
358.3579786834989
 21
600.5644711181
 31
0.0
  0
LINE
  5
E6A
330
1E
100
AcDbEntity
  8
STEMPEL
100
AcDbLine
 10
371.8579786835001
 20
580.0644711181
 30
0.0
 11
371.8579786835001
 21
597.0644711181001
 31
0.0
  0
LINE
  5
E6B
330
1E
100
AcDbEntity
  8
STEMPEL
100
AcDbLine
 10
371.8579786835001
 20
597.0644711181001
 30
0.0
 11
371.8579786835001
 21
580.0644711181
 31
0.0
  0
LINE
  5
E6C
330
1E
100
AcDbEntity
  8
STEMPEL
100
AcDbLine
 10
361.8579786834989
 20
597.0644711181001
 30
0.0
 11
376.8579786835001
 21
597.0644711181001
 31
0.0
  0
LINE
  5
E6D
330
1E
100
AcDbEntity
  8
STEMPEL
100
AcDbLine
 10
361.8579786834989
 20
580.0644711181
 30
0.0
 11
371.8579786835001
 21
580.0644711181
 31
0.0
  0
LINE
  5
E6E
330
1E
100
AcDbEntity
  8
STEMPEL
100
AcDbLine
 10
371.8579786835001
 20
580.0644711181
 30
0.0
 11
361.8579786834989
 21
580.0644711181
 31
0.0
  0
LINE
  5
E6F
330
1E
100
AcDbEntity
  8
STEMPEL
100
AcDbLine
 10
350.8579786835
 20
557.0644711181
 30
0.0
 11
349.9830920482407
 21
547.0644711181001
 31
0.0
  0
LINE
  5
E70
330
1E
100
AcDbEntity
  8
STEMPEL
100
AcDbLine
 10
366.3579786835001
 20
576.5644711180998
 30
0.0
 11
366.3579786835001
 21
572.5644711180998
 31
0.0
  0
ARC
  5
E71
330
1E
100
AcDbEntity
  8
STEMPEL
100
AcDbCircle
 10
387.6686133896658
 20
559.4932489709417
 30
0.0
 40
25.0
100
AcDbArc
 50
148.4764561260129
 51
172.9434514356079
  0
POINT
  5
E72
330
1E
100
AcDbEntity
  8
STEMPEL
100
AcDbPoint
 10
363.1889780567799
 20
564.5674438793901
 30
0.0
  0
LINE
  5
E73
330
1E
100
AcDbEntity
  8
STEMPEL
100
AcDbLine
 10
366.3579786835001
 20
572.5644711180998
 30
0.0
 11
357.8579786835001
 21
572.5644711180998
 31
0.0
  0
ARC
  5
E74
330
1E
100
AcDbEntity
  8
STEMPEL
100
AcDbCircle
 10
386.8579786834999
 20
558.2553830968456
 30
0.0
 40
27.0
100
AcDbArc
 50
147.9968273188162
 51
180.0
  0
ARC
  5
E75
330
1E
100
AcDbEntity
  8
STEMPEL
100
AcDbCircle
 10
386.8579786834999
 20
558.2553830968456
 30
0.0
 40
25.0
100
AcDbArc
 50
147.9968273188162
 51
180.0
  0
LINE
  5
E76
330
1E
100
AcDbEntity
  8
STEMPEL
100
AcDbLine
 10
365.6575099022866
 20
571.5045386720812
 30
0.0
 11
363.9614723997895
 21
572.5644711181001
 31
0.0
  0
LINE
  5
E77
330
1E
100
AcDbEntity
  8
STEMPEL
100
AcDbLine
 10
366.3579786835001
 20
574.5644711181
 30
0.0
 11
366.3579786835001
 21
576.5644711181001
 31
0.0
  0
LINE
  5
E78
330
1E
100
AcDbEntity
  8
STEMPEL
100
AcDbLine
 10
352.8579786835
 20
557.0644711181
 30
0.0
 11
351.9830920482407
 21
547.0644711181001
 31
0.0
  0
LINE
  5
E79
330
1E
100
AcDbEntity
  8
STEMPEL
100
AcDbLine
 10
357.8579786835001
 20
569.0644711181001
 30
0.0
 11
352.8579786835
 21
569.0644711181001
 31
0.0
  0
LINE
  5
E7A
330
1E
100
AcDbEntity
  8
STEMPEL
100
AcDbLine
 10
357.8579786835001
 20
574.5644711181001
 30
0.0
 11
366.3579786835001
 21
574.5644711181
 31
0.0
  0
LINE
  5
E7B
330
1E
100
AcDbEntity
  8
STEMPEL
100
AcDbLine
 10
376.8579786835001
 20
576.5644711180998
 30
0.0
 11
376.8579786835001
 21
563.5644711181
 31
0.0
  0
LINE
  5
E7C
330
1E
100
AcDbEntity
  8
STEMPEL
100
AcDbLine
 10
376.8579786835001
 20
563.5644711181
 30
0.0
 11
375.8579786835
 21
562.5644711181
 31
0.0
  0
LINE
  5
E7D
330
1E
100
AcDbEntity
  8
STEMPEL
100
AcDbLine
 10
373.3579786835
 20
570.6644711181
 30
0.0
 11
373.3579786835
 21
562.5644711181
 31
0.0
  0
LINE
  5
E7E
330
1E
100
AcDbEntity
  8
STEMPEL
100
AcDbLine
 10
369.1601328150218
 20
571.1562273037948
 30
0.0
 11
366.8579786835
 21
562.5644711181
 31
0.0
  0
LINE
  5
E7F
330
1E
100
AcDbEntity
  8
STEMPEL
100
AcDbLine
 10
371.4579786834999
 20
572.5644711181001
 30
0.0
 11
370.9953918849712
 21
572.5644711181001
 31
0.0
  0
ARC
  5
E80
330
1E
100
AcDbEntity
  8
STEMPEL
100
AcDbCircle
 10
371.4579786834999
 20
570.6644711181
 30
0.0
 40
1.9
100
AcDbArc
 50
0.0
 51
90.0
  0
ARC
  5
E81
330
1E
100
AcDbEntity
  8
STEMPEL
100
AcDbCircle
 10
370.9953918849711
 20
570.6644711181
 30
0.0
 40
1.9
100
AcDbArc
 50
90.0
 51
165.0000000000008
  0
POINT
  5
E82
330
1E
100
AcDbEntity
  8
STEMPEL
100
AcDbPoint
 10
366.8579786835
 20
562.5644711181
 30
0.0
  0
LINE
  5
E83
330
1E
100
AcDbEntity
  8
STEMPEL
100
AcDbLine
 10
375.8579786835
 20
562.5644711181
 30
0.0
 11
362.232143460607
 21
562.5644711181
 31
0.0
  0
LINE
  5
E84
330
1E
100
AcDbEntity
  8
STEMPEL
100
AcDbLine
 10
376.8579786835001
 20
576.5644711180998
 30
0.0
 11
366.3579786835001
 21
576.5644711180998
 31
0.0
  0
LINE
  5
E85
330
1E
100
AcDbEntity
  8
STEMPEL
100
AcDbLine
 10
366.3579786835001
 20
576.5644711181001
 30
0.0
 11
376.8579786835001
 21
576.5644711181001
 31
0.0
  0
LINE
  5
E86
330
1E
100
AcDbEntity
  8
STEMPEL
100
AcDbLine
 10
376.8579786835001
 20
576.5644711181001
 30
0.0
 11
376.8579786835001
 21
597.0644711181001
 31
0.0
  0
LINE
  5
E87
330
1E
100
AcDbEntity
  8
STEMPEL
100
AcDbLine
 10
359.9329786835001
 20
598.9894711180989
 30
0.0
 11
359.9329786835001
 21
574.5644711181
 31
0.0
  0
LINE
  5
E88
330
1E
100
AcDbEntity
  8
STEMPEL
100
AcDbLine
 10
376.8579786835001
 20
576.5644711181001
 30
0.0
 11
376.8579786835001
 21
597.0644711181001
 31
0.0
  0
LINE
  5
E89
330
1E
100
AcDbEntity
  8
HILF
100
AcDbLine
 10
354.8579786835
 20
734.0644711181
 30
0.0
 11
354.8579786835
 21
569.0644711181001
 31
0.0
  0
LINE
  5
E8A
330
1E
100
AcDbEntity
  8
STEMPEL
100
AcDbLine
 10
357.8579786835001
 20
734.0644711181
 30
0.0
 11
357.8579786835001
 21
569.0644711181001
 31
0.0
  0
LINE
  5
E8B
330
1E
100
AcDbEntity
  8
STEMPEL
100
AcDbLine
 10
350.8579786834996
 20
361.4761359341067
 30
0.0
 11
350.8579786834996
 21
389.9888548521515
 31
0.0
  0
ARC
  5
E8C
330
1E
100
AcDbEntity
  8
STEMPEL
100
AcDbCircle
 10
347.8579786834997
 20
415.5693567617063
 30
0.0
 40
12.0
100
AcDbArc
 50
335.7722546820474
 51
0.0
  0
ARC
  5
E8D
330
1E
100
AcDbEntity
  8
STEMPEL
100
AcDbCircle
 10
347.8579786834997
 20
415.5693567617066
 30
0.0
 40
14.0
100
AcDbArc
 50
335.772254682046
 51
0.0
  0
LINE
  5
E8E
330
1E
100
AcDbEntity
  8
STEMPEL
100
AcDbLine
 10
358.801036745601
 20
410.6449806337607
 30
0.0
 11
352.0910776110481
 21
395.7339603347548
 31
0.0
  0
LINE
  5
E8F
330
1E
100
AcDbEntity
  8
STEMPEL
100
AcDbLine
 10
360.6248797559512
 20
409.8242512791032
 30
0.0
 11
353.9149206213983
 21
394.9132309800971
 31
0.0
  0
ARC
  5
E90
330
1E
100
AcDbEntity
  8
STEMPEL
100
AcDbCircle
 10
364.8579786834996
 20
389.9888548521516
 30
0.0
 40
12.0
100
AcDbArc
 50
155.7722546820459
 51
180.0
  0
LINE
  5
E91
330
1E
100
AcDbEntity
  8
STEMPEL
100
AcDbLine
 10
352.8579786834996
 20
362.5978134918507
 30
0.0
 11
352.8579786834996
 21
389.9888548521515
 31
0.0
  0
ARC
  5
E92
330
1E
100
AcDbEntity
  8
STEMPEL
100
AcDbCircle
 10
364.8579786834996
 20
389.9888548521516
 30
0.0
 40
14.0
100
AcDbArc
 50
155.7722546820459
 51
180.0
  0
LINE
  5
E93
330
1E
100
AcDbEntity
  8
STEMPEL
100
AcDbLine
 10
359.8579786834997
 20
415.5693567617063
 30
0.0
 11
359.8579786835001
 21
558.2553830968456
 31
0.0
  0
LINE
  5
E94
330
1E
100
AcDbEntity
  8
STEMPEL
100
AcDbLine
 10
361.8579786834997
 20
415.5693567617064
 30
0.0
 11
361.8579786835001
 21
558.2553830968456
 31
0.0
  0
TEXT
  5
E95
330
1E
100
AcDbEntity
  8
TEXT
 62
     1
100
AcDbText
 10
28.054865932756
 20
799.5091320191822
 30
0.0
 40
7.0
  1
Ablaufkörper DN100
 41
0.8
  7
GREEKS
100
AcDbText
  0
TEXT
  5
E96
330
1E
100
AcDbEntity
  8
TEXT
 62
     1
100
AcDbText
 10
28.054865932756
 20
788.2400737688636
 30
0.0
 40
7.0
  1
EDV-Art.Nr. 16730.0100X
 41
0.8
  7
GREEKS
100
AcDbText
  0
LINE
  5
E97
330
1E
100
AcDbEntity
  8
TEXT
 62
     2
100
AcDbLine
 10
26.60685593998755
 20
797.1227561024424
 30
0.0
 11
140.9188285144876
 21
797.1227561024424
 31
0.0
  0
LINE
  5
E98
330
1E
100
AcDbEntity
  8
TEXT
 62
     2
100
AcDbLine
 10
203.4367130471849
 20
766.176632641746
 30
0.0
 11
140.9188285144876
 21
797.1227561024424
 31
0.0
  0
LINE
  5
E99
330
1E
100
AcDbEntity
  8
STEMPEL
100
AcDbLine
 10
350.8579786834995
 20
91.68819682044977
 30
0.0
 11
349.8004750461017
 21
79.60087493463209
 31
0.0
  0
LINE
  5
E9A
330
1E
100
AcDbEntity
  8
STEMPEL
100
AcDbLine
 10
352.8579786834996
 20
91.60087493463278
 30
0.0
 11
351.8081147211884
 21
79.60087493463209
 31
0.0
  0
LINE
  5
E9B
330
1E
100
AcDbEntity
  8
STEMPEL
100
AcDbLine
 10
352.8579786834996
 20
91.60087493463278
 30
0.0
 11
352.8579786834996
 21
356.9077203530948
 31
0.0
  0
LINE
  5
E9C
330
1E
100
AcDbEntity
  8
STEMPEL
100
AcDbLine
 10
350.8579786834995
 20
91.68819682044977
 30
0.0
 11
350.8579786834996
 21
355.7860427953508
 31
0.0
  0
DIMENSION
  5
E9D
330
1E
100
AcDbEntity
  8
BEM
100
AcDbDimension
  2
*D9
 10
179.0517349001605
 20
572.5644711180999
 30
0.0
 11
172.5517349001605
 21
326.0826730263661
 31
0.0
 70
    32
  1
2500
 71
     5
 42
492.9635961834677
  3
Standard
100
AcDbAlignedDimension
 13
251.9078426458109
 23
79.60087493463216
 33
0.0
 14
237.3579786834999
 24
572.5644711180999
 34
0.0
 50
90.0
100
AcDbRotatedDimension
1001
ACAD
1000
DSTYLE
1002
{
1070
    40
1040
2.0
1070
    41
1040
3.5
1070
    42
1040
1.0
1070
    43
1040
7.0
1070
    44
1040
1.0
1070
    73
1070
     0
1070
    74
1070
     0
1070
    77
1070
     1
1070
    78
1070
     8
1070
    79
1070
     2
1070
   140
1040
3.5
1070
   141
1040
1.5
1070
   146
1040
0.5142857142857144
1070
   147
1040
1.5
1070
   172
1070
     1
1070
   178
1070
     1
1070
   179
1070
     2
1070
   271
1070
     2
1070
   272
1070
     2
1070
   284
1070
     8
1070
   285
1070
     8
1070
   286
1070
     8
1002
}
  0
LINE
  5
E9E
330
1E
100
AcDbEntity
  8
MITTEL
100
AcDbLine
 10
301.8579786834996
 20
74.60087493463209
 30
0.0
 11
301.8579786835001
 21
772.0644711180999
 31
0.0
  0
LINE
  5
E9F
330
1E
100
AcDbEntity
  8
STEMPEL
100
AcDbLine
 10
365.8579786835001
 20
765.0644711181
 30
0.0
 11
357.8579786835003
 21
736.0644711181
 31
0.0
  0
LINE
  5
EA0
330
1E
100
AcDbEntity
  8
STEMPEL
100
AcDbLine
 10
350.8579786834998
 20
765.0644711181
 30
0.0
 11
350.8579786835
 21
557.0644711181
 31
0.0
  0
LINE
  5
EA1
330
1E
100
AcDbEntity
  8
STEMPEL
100
AcDbLine
 10
352.8579786834998
 20
765.0644711181
 30
0.0
 11
352.8579786834998
 21
557.0644711181
 31
0.0
  0
LINE
  5
EA2
330
1E
100
AcDbEntity
  8
STEMPEL
100
AcDbLine
 10
351.8081147211884
 20
79.60087493463209
 30
0.0
 11
251.9078426458106
 21
79.60087493463209
 31
0.0
  0
LINE
  5
EA3
330
1E
100
AcDbEntity
  8
HILF
100
AcDbLine
 10
357.3958328587766
 20
412.5644711181001
 30
0.0
 11
246.3201245082229
 21
412.5644711181001
 31
0.0
  0
LINE
  5
EA4
330
1E
100
AcDbEntity
  8
HILF
100
AcDbLine
 10
349.0666455906103
 20
392.5644711181001
 30
0.0
 11
254.6493117763893
 21
392.5644711181001
 31
0.0
  0
LINE
  5
EA5
330
1E
100
AcDbEntity
  8
HILF
100
AcDbLine
 10
349.06664559061
 20
91.60087493463208
 30
0.0
 11
254.649311776389
 21
91.60087493463208
 31
0.0
  0
DIMENSION
  5
EA6
330
1E
100
AcDbEntity
  8
BEM
100
AcDbDimension
  2
*D10
 10
352.8579786834996
 20
68.90047105367917
 30
0.0
 11
301.8579786834997
 21
75.40047105367917
 31
0.0
 70
    32
  1
%%C<>
 71
     5
 42
101.9999999999999
  3
Standard
100
AcDbAlignedDimension
 13
250.8579786834997
 23
91.60087493463189
 33
0.0
 14
352.8579786834996
 24
91.60087493463278
 34
0.0
 50
180.0
100
AcDbRotatedDimension
1001
ACAD
1000
DSTYLE
1002
{
1070
    40
1040
2.0
1070
    41
1040
3.5
1070
    42
1040
1.0
1070
    43
1040
7.0
1070
    44
1040
1.0
1070
    73
1070
     0
1070
    74
1070
     0
1070
    77
1070
     1
1070
    78
1070
     8
1070
    79
1070
     2
1070
   140
1040
3.5
1070
   141
1040
1.5
1070
   146
1040
0.5142857142857144
1070
   147
1040
1.5
1070
   172
1070
     1
1070
   178
1070
     1
1070
   179
1070
     2
1070
   271
1070
     2
1070
   272
1070
     2
1070
   284
1070
     8
1070
   285
1070
     8
1070
   286
1070
     8
1002
}
  0
POLYLINE
  5
EA7
330
1E
100
AcDbEntity
  8
HILF
100
AcDb2dPolyline
 66
     1
 10
0.0
 20
0.0
 30
0.0
 70
     2
  0
VERTEX
  5
EA8
330
EA7
100
AcDbEntity
  8
HILF
100
AcDbVertex
100
AcDb2dVertex
 10
250.8579786834998
 20
359.0415052801283
 30
0.0
 42
-0.0929512992936817
  0
VERTEX
  5
EA9
330
EA7
100
AcDbEntity
  8
HILF
100
AcDbVertex
100
AcDb2dVertex
 10
270.9595222538501
 20
369.7583271501111
 30
0.0
 42
-0.1154029691580267
 70
     1
  0
VERTEX
  5
EAA
330
EA7
100
AcDbEntity
  8
HILF
100
AcDbVertex
100
AcDb2dVertex
 10
289.3413296677561
 20
371.1329531999846
 30
0.0
 42
-0.1381456708875928
  0
VERTEX
  5
EAB
330
EA7
100
AcDbEntity
  8
HILF
100
AcDbVertex
100
AcDb2dVertex
 10
307.4855796952422
 20
362.8182039741553
 30
0.0
 42
0.1494847871479613
 70
     1
  0
VERTEX
  5
EAC
330
EA7
100
AcDbEntity
  8
HILF
100
AcDbVertex
100
AcDb2dVertex
 10
324.4742759775735
 20
355.4851970684058
 30
0.0
 42
0.0892966141021285
  0
VERTEX
  5
EAD
330
EA7
100
AcDbEntity
  8
HILF
100
AcDbVertex
100
AcDb2dVertex
 10
337.6416240989775
 20
356.3741713652865
 30
0.0
 42
0.0714800800702442
 70
     1
  0
VERTEX
  5
EAE
330
EA7
100
AcDbEntity
  8
HILF
100
AcDbVertex
100
AcDb2dVertex
 10
352.8579786834996
 20
362.5978134918507
 30
0.0
  0
SEQEND
  5
EAF
330
EA7
100
AcDbEntity
  8
HILF
  0
POLYLINE
  5
EB0
330
1E
100
AcDbEntity
  8
HILF
100
AcDb2dPolyline
 66
     1
 10
0.0
 20
0.0
 30
0.0
 70
     2
  0
VERTEX
  5
EB1
330
EB0
100
AcDbEntity
  8
HILF
100
AcDbVertex
100
AcDb2dVertex
 10
250.8579786834998
 20
353.3514121413723
 30
0.0
 42
-0.0929512992936817
  0
VERTEX
  5
EB2
330
EB0
100
AcDbEntity
  8
HILF
100
AcDbVertex
100
AcDb2dVertex
 10
270.9595222538501
 20
364.0682340113552
 30
0.0
 42
-0.1154029691580267
 70
     1
  0
VERTEX
  5
EB3
330
EB0
100
AcDbEntity
  8
HILF
100
AcDbVertex
100
AcDb2dVertex
 10
289.3413296677561
 20
365.4428600612287
 30
0.0
 42
-0.1381456708875928
  0
VERTEX
  5
EB4
330
EB0
100
AcDbEntity
  8
HILF
100
AcDbVertex
100
AcDb2dVertex
 10
307.4855796952422
 20
357.1281108353994
 30
0.0
 42
0.1494847871479613
 70
     1
  0
VERTEX
  5
EB5
330
EB0
100
AcDbEntity
  8
HILF
100
AcDbVertex
100
AcDb2dVertex
 10
324.4742759775735
 20
349.7951039296498
 30
0.0
 42
0.0892966141021285
  0
VERTEX
  5
EB6
330
EB0
100
AcDbEntity
  8
HILF
100
AcDbVertex
100
AcDb2dVertex
 10
337.6416240989775
 20
350.6840782265306
 30
0.0
 42
0.0714800800702442
 70
     1
  0
VERTEX
  5
EB7
330
EB0
100
AcDbEntity
  8
HILF
100
AcDbVertex
100
AcDb2dVertex
 10
352.8579786834996
 20
356.9077203530948
 30
0.0
  0
SEQEND
  5
EB8
330
EB0
100
AcDbEntity
  8
HILF
  0
INSERT
  5
EB9
330
1E
100
AcDbEntity
  8
SCHRAFF
100
AcDbBlockReference
  2
*X1
 10
656.9114945442522
 20
-28.24045917202488
 30
0.0
 50
90.0
1001
ACAD
1000
HATCH
1002
{
1070
    16
1000
NET,I
1040
15.0
1040
0.7853981633974483
1002
}
  0
LINE
  5
EBA
330
1E
100
AcDbEntity
  8
HILF
  6
Continuous
100
AcDbLine
 10
348.804957849941
 20
557.0644711181
 30
0.0
 11
254.2598045261648
 21
557.0644711181
 31
0.0
  0
LINE
  5
EBB
330
1E
100
AcDbEntity
  8
STEMPEL
100
AcDbLine
 10
351.9830920482407
 20
547.0644711181001
 30
0.0
 11
251.7328653187594
 21
547.0644711181001
 31
0.0
  0
LINE
  5
EBC
102
{ACAD_REACTORS
330
103D
102
}
330
1E
100
AcDbEntity
  8
STEMPEL
100
AcDbLine
 10
406.8579786835
 20
765.0644711181
 30
0.0
 11
196.8579786835
 21
765.0644711181
 31
0.0
  0
LINE
  5
EBD
102
{ACAD_REACTORS
330
103D
102
}
330
1E
100
AcDbEntity
  8
STEMPEL
100
AcDbLine
 10
406.8579786835
 20
767.0644711180998
 30
0.0
 11
196.8579786835
 21
767.0644711181
 31
0.0
  0
DIMENSION
  5
EBE
330
1E
100
AcDbEntity
  8
BEM
100
AcDbDimension
  2
*D11
 10
406.8579786835
 20
786.0941637923124
 30
0.0
 11
301.8579786835001
 21
792.5941637923124
 31
0.0
 70
    32
  1
%%C<>
 71
     5
 42
210.0
  3
Standard
100
AcDbAlignedDimension
 13
196.8579786835
 23
767.0644711181
 33
0.0
 14
406.8579786835
 24
767.0644711180998
 34
0.0
100
AcDbRotatedDimension
1001
ACAD
1000
DSTYLE
1002
{
1070
    40
1040
2.0
1070
    41
1040
3.5
1070
    42
1040
1.0
1070
    43
1040
7.0
1070
    44
1040
1.0
1070
    73
1070
     0
1070
    74
1070
     0
1070
    77
1070
     1
1070
    78
1070
     8
1070
    79
1070
     2
1070
   140
1040
3.5
1070
   141
1040
1.5
1070
   146
1040
0.5142857142857144
1070
   147
1040
1.5
1070
   172
1070
     1
1070
   178
1070
     1
1070
   179
1070
     2
1070
   271
1070
     2
1070
   272
1070
     2
1070
   284
1070
     8
1070
   285
1070
     8
1070
   286
1070
     8
1002
}
  0
INSERT
  5
EBF
330
1E
100
AcDbEntity
  8
SCHRAFF
100
AcDbBlockReference
  2
*X3
 10
90.22022931129617
 20
235.9638374427121
 30
0.0
1001
ACAD
1000
HATCH
1002
{
1070
    16
1000
NET,I
1040
20.0
1040
2.356194490192344
1002
}
  0
INSERT
  5
EC0
330
1E
100
AcDbEntity
  8
SCHRAFF
100
AcDbBlockReference
  2
*X4
 10
90.22022931129617
 20
235.9638374427121
 30
0.0
1001
ACAD
1000
HATCH
1002
{
1070
    16
1000
NET,I
1040
15.0
1040
2.356194490192344
1002
}
  0
INSERT
  5
EC1
330
1E
100
AcDbEntity
  8
SCHRAFF
100
AcDbBlockReference
  2
*X5
 10
656.9114945442522
 20
0.210006995043841
 30
0.0
 50
90.0
1001
ACAD
1000
HATCH
1002
{
1070
    16
1000
NET,I
1040
20.0
1040
0.7853981633974483
1002
}
  0
INSERT
  5
EC2
330
1E
100
AcDbEntity
  8
SCHRAFF
100
AcDbBlockReference
  2
*X6
 10
656.2486142328668
 20
-26.10667465376878
 30
0.0
 50
90.0
1001
ACAD
1000
HATCH
1002
{
1070
    16
1000
_U,I
1040
2.0
1040
0.7853981633974483
1070
     0
1002
}
  0
INSERT
  5
EC3
330
1E
100
AcDbEntity
  8
SCHRAFF
100
AcDbBlockReference
  2
*X7
 10
656.2486142328668
 20
-26.10667465376878
 30
0.0
 50
90.0
1001
ACAD
1000
HATCH
1002
{
1070
    16
1000
_U,I
1040
2.0
1040
2.356194490192344
1070
     0
1002
}
  0
DIMENSION
  5
F96
330
1E
100
AcDbEntity
  8
BEM
100
AcDbDimension
  2
*D12
 10
426.659711649961
 20
767.0644711180998
 30
0.0
 11
420.1597116499609
 21
657.0644711181
 31
0.0
 70
    32
 71
     5
 42
219.9999999999998
  3
Standard
100
AcDbAlignedDimension
 13
351.9830920482407
 23
547.0644711181001
 33
0.0
 14
406.8579786835
 24
767.0644711180998
 34
0.0
 50
90.0
100
AcDbRotatedDimension
1001
ACAD
1000
DSTYLE
1002
{
1070
    40
1040
2.0
1070
    41
1040
3.5
1070
    42
1040
1.0
1070
    43
1040
7.0
1070
    44
1040
1.0
1070
    73
1070
     0
1070
    74
1070
     0
1070
    77
1070
     1
1070
    78
1070
     8
1070
    79
1070
     2
1070
   140
1040
3.5
1070
   141
1040
1.5
1070
   146
1040
0.5142857142857144
1070
   147
1040
1.5
1070
   172
1070
     1
1070
   178
1070
     1
1070
   179
1070
     2
1070
   271
1070
     2
1070
   272
1070
     2
1070
   284
1070
     8
1070
   285
1070
     8
1070
   286
1070
     8
1002
}
  0
HATCH
  5
103D
330
1E
100
AcDbEntity
  8
SCHRAFF
100
AcDbHatch
 10
0.0
 20
0.0
 30
0.0
210
0.0
220
0.0
230
1.0
  2
_USER
 70
     0
 71
     1
 91
        4
 92
        7
 72
     0
 73
     1
 93
        4
 10
406.8579786835
 20
765.0644711181
 10
406.8579786835
 20
767.0644711180999
 10
349.8579786835001
 20
767.0644711181
 10
349.8579786835001
 20
765.0644711181
 97
        4
330
EBD
330
E5F
330
EBC
330
E62
 92
        7
 72
     0
 73
     1
 93
        4
 10
327.8579786835
 20
765.0644711181
 10
327.8579786835001
 20
767.0644711180998
 10
314.3579786834998
 20
767.0644711180998
 10
314.3579786835001
 20
765.0644711181
 97
        4
330
EBD
330
E5D
330
EBC
330
E5E
 92
        7
 72
     0
 73
     1
 93
        4
 10
289.3579786835001
 20
765.0644711181
 10
289.3579786835001
 20
767.0644711181
 10
275.8579786835
 20
767.0644711181
 10
275.8579786835001
 20
765.0644711181
 97
        4
330
EBD
330
E1A
330
EBC
330
E5C
 92
        7
 72
     0
 73
     1
 93
        4
 10
253.8579786835001
 20
765.0644711181
 10
253.8579786835001
 20
767.0644711181
 10
196.8579786835
 20
767.0644711181
 10
196.8579786835
 20
765.0644711181
 97
        4
330
EBD
330
E18
330
EBC
330
E19
 75
     0
 76
     0
 52
135.0
 41
2.0
 77
     0
 78
     1
 53
135.0
 43
0.0
 44
0.0
 45
-1.414213562373095
 46
-1.414213562373094
 79
     0
 47
0.3366298975102346
 98
        4
 10
366.8281168892286
 20
765.9722360171906
 10
323.7238159913645
 20
765.6356062279721
 10
281.2930180532662
 20
765.2989764387537
 10
244.9237626777535
 20
765.9722360171906
  0
ENDSEC
  0
SECTION
  2
OBJECTS
  0
DICTIONARY
  5
C
330
0
100
AcDbDictionary
281
     1
  3
ACAD_COLOR
350
DF
  3
ACAD_GROUP
350
D
  3
ACAD_LAYOUT
350
19
  3
ACAD_MATERIAL
350
DE
  3
ACAD_MLINESTYLE
350
16
  3
ACAD_PLOTSETTINGS
350
18
  3
ACAD_PLOTSTYLENAME
350
E
  3
AcDbVariableDictionary
350
EA
  0
DICTIONARY
  5
A0
330
1E
100
AcDbDictionary
280
     1
281
     1
  3
ACAD_LAYOUTSELFREF
360
D4
  0
DICTIONARY
  5
A2
330
1A
100
AcDbDictionary
280
     1
281
     1
  3
ACAD_LAYOUTSELFREF
360
D3
  0
DICTIONARY
  5
DF
102
{ACAD_REACTORS
330
C
102
}
330
C
100
AcDbDictionary
281
     1
  0
DICTIONARY
  5
D
102
{ACAD_REACTORS
330
C
102
}
330
C
100
AcDbDictionary
281
     1
  0
DICTIONARY
  5
19
102
{ACAD_REACTORS
330
C
102
}
330
C
100
AcDbDictionary
281
     1
  3
Layout1
350
1D
  3
Model
350
21
  0
DICTIONARY
  5
DE
102
{ACAD_REACTORS
330
C
102
}
330
C
100
AcDbDictionary
281
     1
  0
DICTIONARY
  5
16
102
{ACAD_REACTORS
330
C
102
}
330
C
100
AcDbDictionary
281
     1
  3
Standard
350
17
  0
DICTIONARY
  5
18
102
{ACAD_REACTORS
330
C
102
}
330
C
100
AcDbDictionary
281
     1
  0
ACDBDICTIONARYWDFLT
  5
E
102
{ACAD_REACTORS
330
C
102
}
330
C
100
AcDbDictionary
281
     1
  3
Normal
350
F
100
AcDbDictionaryWithDefault
340
F
  0
DICTIONARY
  5
EA
102
{ACAD_REACTORS
330
C
102
}
330
C
100
AcDbDictionary
281
     1
  3
DIMASSOC
350
EB
  3
PROJECTNAME
350
EC
  0
XRECORD
  5
D4
102
{ACAD_REACTORS
330
A0
102
}
330
A0
100
AcDbXrecord
280
     1
340
1E
  0
XRECORD
  5
D3
102
{ACAD_REACTORS
330
A2
102
}
330
A2
100
AcDbXrecord
280
     1
340
1A
  0
LAYOUT
  5
1D
102
{ACAD_REACTORS
330
19
102
}
330
19
100
AcDbPlotSettings
  1

  2
\\NT_WORK01\HP LaserJet 5000 PCL 6
  4

  6

 40
0.0
 41
0.0
 42
0.0
 43
0.0
 44
0.0
 45
0.0
 46
0.0
 47
0.0
 48
0.0
 49
0.0
140
0.0
141
0.0
142
1.0
143
1.0
 70
   688
 72
     0
 73
     0
 74
     5
  7

 75
    16
147
1.0
 76
     0
 77
     2
 78
   300
148
0.0
149
0.0
100
AcDbLayout
  1
Layout1
 70
     0
 71
     1
 10
0.0
 20
0.0
 11
12.0
 21
9.0
 12
0.0
 22
0.0
 32
0.0
 14
1.000000000000000E+20
 24
1.000000000000000E+20
 34
1.000000000000000E+20
 15
-1.000000000000000E+20
 25
-1.000000000000000E+20
 35
-1.000000000000000E+20
146
0.0
 13
0.0
 23
0.0
 33
0.0
 16
1.0
 26
0.0
 36
0.0
 17
0.0
 27
1.0
 37
0.0
 76
     0
330
1A
  0
LAYOUT
  5
21
102
{ACAD_REACTORS
330
19
102
}
330
19
100
AcDbPlotSettings
  1

  2
none_device
  4
Letter_(8.50_x_11.00_Inches)
  6

 40
6.349999904632568
 41
6.349999904632568
 42
6.350006103515625
 43
6.350006103515625
 44
215.8999938964844
 45
279.3999938964844
 46
0.0
 47
0.0
 48
0.0
 49
0.0
140
0.0
141
0.0
142
1.0
143
1.0
 70
 11952
 72
     0
 73
     1
 74
     0
  7

 75
     0
147
1.0
 76
     0
 77
     2
 78
   300
148
3251.566150932968
149
127.4457819382556
100
AcDbLayout
  1
Model
 70
     1
 71
     0
 10
0.0
 20
0.0
 11
12.0
 21
9.0
 12
0.0
 22
0.0
 32
0.0
 14
0.0
 24
0.0
 34
0.0
 15
0.0
 25
0.0
 35
0.0
146
0.0
 13
0.0
 23
0.0
 33
0.0
 16
1.0
 26
0.0
 36
0.0
 17
0.0
 27
1.0
 37
0.0
 76
     0
330
1E
  0
MLINESTYLE
  5
17
102
{ACAD_REACTORS
330
16
102
}
330
16
100
AcDbMlineStyle
  2
STANDARD
 70
     0
  3

 62
   256
 51
90.0
 52
90.0
 71
     2
 49
0.5
 62
   256
  6
BYLAYER
 49
-0.5
 62
   256
  6
BYLAYER
  0
ACDBPLACEHOLDER
  5
F
102
{ACAD_REACTORS
330
E
102
}
330
E
  0
DICTIONARYVAR
  5
EB
102
{ACAD_REACTORS
330
EA
102
}
330
EA
100
DictionaryVariables
280
     0
  1
1
  0
DICTIONARYVAR
  5
EC
102
{ACAD_REACTORS
330
EA
102
}
330
EA
100
DictionaryVariables
280
     0
  1

  0
ENDSEC
  0
EOF
