  0
SECTION
  2
HEADER
  9
$ACADVER
  1
AC1018
  9
$ACADMAINTVER
 70
     2
  9
$DWGCODEPAGE
  3
ANSI_1252
  9
$INSBASE
 10
0.0
 20
0.0
 30
0.0
  9
$EXTMIN
 10
-0.0000000000004547
 20
-0.0000000000000205
 30
0.0
  9
$EXTMAX
 10
594.0000000000001
 20
840.0000000000002
 30
0.0
  9
$LIMMIN
 10
0.0
 20
0.0
  9
$LIMMAX
 10
593.9999999999997
 20
840.0000000000002
  9
$ORTHOMODE
 70
     1
  9
$REGENMODE
 70
     1
  9
$FILLMODE
 70
     1
  9
$QTEXTMODE
 70
     0
  9
$MIRRTEXT
 70
     1
  9
$LTSCALE
 40
20.0
  9
$ATTMODE
 70
     1
  9
$TEXTSIZE
 40
3.5
  9
$TRACEWID
 40
0.5
  9
$TEXTSTYLE
  7
STANDARD
  9
$CLAYER
  8
SCHRAFF
  9
$CELTYPE
  6
ByLayer
  9
$CECOLOR
 62
   256
  9
$CELTSCALE
 40
1.0
  9
$DISPSILH
 70
     0
  9
$DIMSCALE
 40
2.0
  9
$DIMASZ
 40
3.5
  9
$DIMEXO
 40
1.0
  9
$DIMDLI
 40
7.0
  9
$DIMRND
 40
0.0
  9
$DIMDLE
 40
0.0
  9
$DIMEXE
 40
1.0
  9
$DIMTP
 40
0.0
  9
$DIMTM
 40
0.0
  9
$DIMTXT
 40
3.5
  9
$DIMCEN
 40
1.5
  9
$DIMTSZ
 40
0.0
  9
$DIMTOL
 70
     0
  9
$DIMLIM
 70
     0
  9
$DIMTIH
 70
     0
  9
$DIMTOH
 70
     0
  9
$DIMSE1
 70
     0
  9
$DIMSE2
 70
     0
  9
$DIMTAD
 70
     1
  9
$DIMZIN
 70
     8
  9
$DIMBLK
  1

  9
$DIMASO
 70
     1
  9
$DIMSHO
 70
     0
  9
$DIMPOST
  1

  9
$DIMAPOST
  1

  9
$DIMALT
 70
     0
  9
$DIMALTD
 70
     2
  9
$DIMALTF
 40
25.4
  9
$DIMLFAC
 40
1.0
  9
$DIMTOFL
 70
     1
  9
$DIMTVP
 40
0.0
  9
$DIMTIX
 70
     0
  9
$DIMSOXD
 70
     0
  9
$DIMSAH
 70
     0
  9
$DIMBLK1
  1

  9
$DIMBLK2
  1

  9
$DIMSTYLE
  2
Standard
  9
$DIMCLRD
 70
     0
  9
$DIMCLRE
 70
     0
  9
$DIMCLRT
 70
     1
  9
$DIMTFAC
 40
0.5142857142857144
  9
$DIMGAP
 40
1.5
  9
$DIMJUST
 70
     0
  9
$DIMSD1
 70
     0
  9
$DIMSD2
 70
     0
  9
$DIMTOLJ
 70
     1
  9
$DIMTZIN
 70
     8
  9
$DIMALTZ
 70
     8
  9
$DIMALTTZ
 70
     8
  9
$DIMUPT
 70
     0
  9
$DIMDEC
 70
     2
  9
$DIMTDEC
 70
     2
  9
$DIMALTU
 70
     2
  9
$DIMALTTD
 70
     2
  9
$DIMTXSTY
  7
STANDARD
  9
$DIMAUNIT
 70
     0
  9
$DIMADEC
 70
     2
  9
$DIMALTRND
 40
0.0
  9
$DIMAZIN
 70
     2
  9
$DIMDSEP
 70
    46
  9
$DIMATFIT
 70
     3
  9
$DIMFRAC
 70
     0
  9
$DIMLDRBLK
  1

  9
$DIMLUNIT
 70
     2
  9
$DIMLWD
 70
    -2
  9
$DIMLWE
 70
    -2
  9
$DIMTMOVE
 70
     0
  9
$LUNITS
 70
     2
  9
$LUPREC
 70
     2
  9
$SKETCHINC
 40
1.0
  9
$FILLETRAD
 40
0.0
  9
$AUNITS
 70
     0
  9
$AUPREC
 70
     0
  9
$MENU
  1
ACAD
  9
$ELEVATION
 40
0.0
  9
$PELEVATION
 40
0.0
  9
$THICKNESS
 40
0.0
  9
$LIMCHECK
 70
     0
  9
$CHAMFERA
 40
0.0
  9
$CHAMFERB
 40
0.0
  9
$CHAMFERC
 40
0.0
  9
$CHAMFERD
 40
0.0
  9
$SKPOLY
 70
     0
  9
$TDCREATE
 40
2455397.823042361
  9
$TDUCREATE
 40
2455397.781375695
  9
$TDUPDATE
 40
2455996.362137164
  9
$TDUUPDATE
 40
2455996.320470497
  9
$TDINDWG
 40
0.0749680208
  9
$TDUSRTIMER
 40
0.0749680208
  9
$USRTIMER
 70
     1
  9
$ANGBASE
 50
0.0
  9
$ANGDIR
 70
     0
  9
$PDMODE
 70
     0
  9
$PDSIZE
 40
0.0
  9
$PLINEWID
 40
0.0
  9
$SPLFRAME
 70
     0
  9
$SPLINETYPE
 70
     6
  9
$SPLINESEGS
 70
     8
  9
$HANDSEED
  5
2455
  9
$SURFTAB1
 70
     6
  9
$SURFTAB2
 70
     6
  9
$SURFTYPE
 70
     6
  9
$SURFU
 70
     6
  9
$SURFV
 70
     6
  9
$UCSBASE
  2

  9
$UCSNAME
  2

  9
$UCSORG
 10
0.0
 20
0.0
 30
0.0
  9
$UCSXDIR
 10
1.0
 20
0.0
 30
0.0
  9
$UCSYDIR
 10
0.0
 20
1.0
 30
0.0
  9
$UCSORTHOREF
  2

  9
$UCSORTHOVIEW
 70
     0
  9
$UCSORGTOP
 10
0.0
 20
0.0
 30
0.0
  9
$UCSORGBOTTOM
 10
0.0
 20
0.0
 30
0.0
  9
$UCSORGLEFT
 10
0.0
 20
0.0
 30
0.0
  9
$UCSORGRIGHT
 10
0.0
 20
0.0
 30
0.0
  9
$UCSORGFRONT
 10
0.0
 20
0.0
 30
0.0
  9
$UCSORGBACK
 10
0.0
 20
0.0
 30
0.0
  9
$PUCSBASE
  2

  9
$PUCSNAME
  2

  9
$PUCSORG
 10
0.0
 20
0.0
 30
0.0
  9
$PUCSXDIR
 10
1.0
 20
0.0
 30
0.0
  9
$PUCSYDIR
 10
0.0
 20
1.0
 30
0.0
  9
$PUCSORTHOREF
  2

  9
$PUCSORTHOVIEW
 70
     0
  9
$PUCSORGTOP
 10
0.0
 20
0.0
 30
0.0
  9
$PUCSORGBOTTOM
 10
0.0
 20
0.0
 30
0.0
  9
$PUCSORGLEFT
 10
0.0
 20
0.0
 30
0.0
  9
$PUCSORGRIGHT
 10
0.0
 20
0.0
 30
0.0
  9
$PUCSORGFRONT
 10
0.0
 20
0.0
 30
0.0
  9
$PUCSORGBACK
 10
0.0
 20
0.0
 30
0.0
  9
$USERI1
 70
     0
  9
$USERI2
 70
     0
  9
$USERI3
 70
     0
  9
$USERI4
 70
     0
  9
$USERI5
 70
     0
  9
$USERR1
 40
0.0
  9
$USERR2
 40
0.0
  9
$USERR3
 40
0.0
  9
$USERR4
 40
0.0
  9
$USERR5
 40
0.0
  9
$WORLDVIEW
 70
     1
  9
$SHADEDGE
 70
     3
  9
$SHADEDIF
 70
    70
  9
$TILEMODE
 70
     1
  9
$MAXACTVP
 70
    16
  9
$PINSBASE
 10
0.0
 20
0.0
 30
0.0
  9
$PLIMCHECK
 70
     0
  9
$PEXTMIN
 10
1.000000000000000E+20
 20
1.000000000000000E+20
 30
1.000000000000000E+20
  9
$PEXTMAX
 10
-1.000000000000000E+20
 20
-1.000000000000000E+20
 30
-1.000000000000000E+20
  9
$PLIMMIN
 10
0.0
 20
0.0
  9
$PLIMMAX
 10
12.0
 20
9.0
  9
$UNITMODE
 70
     0
  9
$VISRETAIN
 70
     0
  9
$PLINEGEN
 70
     0
  9
$PSLTSCALE
 70
     0
  9
$TREEDEPTH
 70
  3020
  9
$CMLSTYLE
  2
Standard
  9
$CMLJUST
 70
     0
  9
$CMLSCALE
 40
1.0
  9
$PROXYGRAPHICS
 70
     1
  9
$MEASUREMENT
 70
     0
  9
$CELWEIGHT
370
    -1
  9
$ENDCAPS
280
     0
  9
$JOINSTYLE
280
     0
  9
$LWDISPLAY
290
     0
  9
$INSUNITS
 70
     0
  9
$HYPERLINKBASE
  1

  9
$STYLESHEET
  1
monochrome1.ctb
  9
$XEDIT
290
     1
  9
$CEPSNTYPE
380
     0
  9
$PSTYLEMODE
290
     1
  9
$FINGERPRINTGUID
  2
{D68B0D02-A558-11D7-B632-000102183313}
  9
$VERSIONGUID
  2
{E36FB08C-BC9E-4A87-84A0-CCF0EA5D27AA}
  9
$EXTNAMES
290
     1
  9
$PSVPSCALE
 40
0.0
  9
$OLESTARTUP
290
     0
  9
$SORTENTS
280
   127
  9
$INDEXCTL
280
     0
  9
$HIDETEXT
280
     0
  9
$XCLIPFRAME
290
     0
  9
$HALOGAP
280
     0
  9
$OBSCOLOR
 70
   257
  9
$OBSLTYPE
280
     0
  9
$INTERSECTIONDISPLAY
280
     0
  9
$INTERSECTIONCOLOR
 70
   257
  9
$DIMASSOC
280
     1
  9
$PROJECTNAME
  1

  0
ENDSEC
  0
SECTION
  2
CLASSES
  0
CLASS
  1
ACDBDICTIONARYWDFLT
  2
AcDbDictionaryWithDefault
  3
ObjectDBX Classes
 90
        0
 91
        1
280
     0
281
     0
  0
CLASS
  1
DICTIONARYVAR
  2
AcDbDictionaryVar
  3
ObjectDBX Classes
 90
        0
 91
        2
280
     0
281
     0
  0
ENDSEC
  0
SECTION
  2
TABLES
  0
TABLE
  2
VPORT
  5
8
330
0
100
AcDbSymbolTable
 70
     2
  0
VPORT
  5
2454
330
8
100
AcDbSymbolTableRecord
100
AcDbViewportTableRecord
  2
*Active
 70
     0
 10
0.0
 20
0.0
 11
1.0
 21
1.0
 12
296.9999999999999
 22
420.0000000000001
 13
0.0
 23
0.0
 14
1.0
 24
1.0
 15
10.0
 25
10.0
 16
0.0
 26
0.0
 36
1.0
 17
0.0
 27
0.0
 37
0.0
 40
840.3142587666728
 41
1.374331550802139
 42
50.0
 43
0.0
 44
0.0
 50
0.0
 51
0.0
 71
     0
 72
  1500
 73
     1
 74
     0
 75
     0
 76
     0
 77
     0
 78
     0
281
     0
 65
     1
110
0.0
120
0.0
130
0.0
111
1.0
121
0.0
131
0.0
112
0.0
122
1.0
132
0.0
 79
     0
146
0.0
  0
ENDTAB
  0
TABLE
  2
LTYPE
  5
5
330
0
100
AcDbSymbolTable
 70
     2
  0
LTYPE
  5
13
330
5
100
AcDbSymbolTableRecord
100
AcDbLinetypeTableRecord
  2
ByBlock
 70
     0
  3

 72
    65
 73
     0
 40
0.0
  0
LTYPE
  5
14
330
5
100
AcDbSymbolTableRecord
100
AcDbLinetypeTableRecord
  2
ByLayer
 70
     0
  3

 72
    65
 73
     0
 40
0.0
  0
LTYPE
  5
15
330
5
100
AcDbSymbolTableRecord
100
AcDbLinetypeTableRecord
  2
Continuous
 70
     0
  3
Solid line
 72
    65
 73
     0
 40
0.0
  0
LTYPE
  5
25
330
5
100
AcDbSymbolTableRecord
100
AcDbLinetypeTableRecord
  2
STRICHPUNKT
 70
     0
  3
__ . __ . __ . __ . __ . __ . __ . __ . __ . __
 72
    65
 73
     4
 40
1.0
 49
0.5
 74
     0
 49
-0.25
 74
     0
 49
0.0
 74
     0
 49
-0.25
 74
     0
  0
ENDTAB
  0
TABLE
  2
LAYER
  5
2
330
0
100
AcDbSymbolTable
 70
     9
  0
LAYER
  5
10
330
2
100
AcDbSymbolTableRecord
100
AcDbLayerTableRecord
  2
0
 70
     0
 62
     7
  6
Continuous
370
    -3
390
F
  0
LAYER
  5
2A
330
2
100
AcDbSymbolTableRecord
100
AcDbLayerTableRecord
  2
VOLL
 70
     0
 62
     1
  6
Continuous
370
    -3
390
F
  0
LAYER
  5
2B
330
2
100
AcDbSymbolTableRecord
100
AcDbLayerTableRecord
  2
HILF
 70
     0
 62
     2
  6
Continuous
370
    -3
390
F
  0
LAYER
  5
2C
330
2
100
AcDbSymbolTableRecord
100
AcDbLayerTableRecord
  2
MITTEL
 70
     0
 62
     2
  6
STRICHPUNKT
370
    -3
390
F
  0
LAYER
  5
2F
330
2
100
AcDbSymbolTableRecord
100
AcDbLayerTableRecord
  2
BEM
 70
     0
 62
     7
  6
Continuous
370
    -3
390
F
  0
LAYER
  5
30
330
2
100
AcDbSymbolTableRecord
100
AcDbLayerTableRecord
  2
STEMPEL
 70
     0
 62
     3
  6
Continuous
370
    -3
390
F
  0
LAYER
  5
31
330
2
100
AcDbSymbolTableRecord
100
AcDbLayerTableRecord
  2
TEXT
 70
     0
 62
     7
  6
Continuous
370
    -3
390
F
  0
LAYER
  5
2B4
330
2
100
AcDbSymbolTableRecord
100
AcDbLayerTableRecord
  2
DEFPOINTS
 70
     0
 62
     7
  6
Continuous
290
     0
370
    -3
390
F
  0
LAYER
  5
2B5
330
2
100
AcDbSymbolTableRecord
100
AcDbLayerTableRecord
  2
SCHRAFF
 70
     0
 62
     7
  6
Continuous
370
    -3
390
F
  0
ENDTAB
  0
TABLE
  2
STYLE
  5
3
330
0
100
AcDbSymbolTable
 70
     2
  0
STYLE
  5
11
330
3
100
AcDbSymbolTableRecord
100
AcDbTextStyleTableRecord
  2
STANDARD
 70
     0
 40
0.0
 41
0.8
 50
0.0
 71
     0
 42
3.5
  3
simplex.shx
  4

  0
STYLE
  5
24
330
3
100
AcDbSymbolTableRecord
100
AcDbTextStyleTableRecord
  2
GREEKS
 70
     0
 40
0.0
 41
0.8
 50
0.0
 71
     0
 42
2.5
  3
SIMPLEX.shx
  4

  0
ENDTAB
  0
TABLE
  2
VIEW
  5
6
330
0
100
AcDbSymbolTable
 70
     0
  0
ENDTAB
  0
TABLE
  2
UCS
  5
7
330
0
100
AcDbSymbolTable
 70
     0
  0
ENDTAB
  0
TABLE
  2
APPID
  5
9
330
0
100
AcDbSymbolTable
 70
     1
  0
APPID
  5
12
330
9
100
AcDbSymbolTableRecord
100
AcDbRegAppTableRecord
  2
ACAD
 70
     0
  0
ENDTAB
  0
TABLE
  2
DIMSTYLE
  5
A
330
0
100
AcDbSymbolTable
 70
     1
100
AcDbDimStyleTable
 71
     1
340
9D
  0
DIMSTYLE
105
9D
102
{ACAD_REACTORS
330
2116
330
2115
330
2103
330
20FD
330
2019
330
1FE7
102
}
330
A
100
AcDbSymbolTableRecord
100
AcDbDimStyleTableRecord
  2
Standard
 70
     0
340
11
  0
ENDTAB
  0
TABLE
  2
BLOCK_RECORD
  5
1
330
0
100
AcDbSymbolTable
 70
    14
  0
BLOCK_RECORD
  5
1E
102
{ACAD_XDICTIONARY
360
A0
102
}
330
1
100
AcDbSymbolTableRecord
100
AcDbBlockTableRecord
  2
*Model_Space
340
21
  0
BLOCK_RECORD
  5
1A
102
{ACAD_XDICTIONARY
360
A2
102
}
330
1
100
AcDbSymbolTableRecord
100
AcDbBlockTableRecord
  2
*Paper_Space
340
1D
  0
BLOCK_RECORD
  5
22
330
1
100
AcDbSymbolTableRecord
100
AcDbBlockTableRecord
  2
LOGO
340
0
102
{BLKREFS
331
898
102
}
  0
BLOCK_RECORD
  5
1918
330
1
100
AcDbSymbolTableRecord
100
AcDbBlockTableRecord
  2
*X1
340
0
102
{BLKREFS
331
2084
331
210F
102
}
  0
BLOCK_RECORD
  5
193A
330
1
100
AcDbSymbolTableRecord
100
AcDbBlockTableRecord
  2
*X2
340
0
102
{BLKREFS
331
209B
102
}
  0
BLOCK_RECORD
  5
1A02
330
1
100
AcDbSymbolTableRecord
100
AcDbBlockTableRecord
  2
*X3
340
0
102
{BLKREFS
331
2117
102
}
  0
BLOCK_RECORD
  5
1A61
330
1
100
AcDbSymbolTableRecord
100
AcDbBlockTableRecord
  2
*X4
340
0
102
{BLKREFS
331
212A
102
}
  0
BLOCK_RECORD
  5
1A96
330
1
100
AcDbSymbolTableRecord
100
AcDbBlockTableRecord
  2
*X5
340
0
102
{BLKREFS
331
212B
102
}
  0
BLOCK_RECORD
  5
1BC7
330
1
100
AcDbSymbolTableRecord
100
AcDbBlockTableRecord
  2
*X6
340
0
102
{BLKREFS
331
212D
102
}
  0
BLOCK_RECORD
  5
1D53
330
1
100
AcDbSymbolTableRecord
100
AcDbBlockTableRecord
  2
*X7
340
0
102
{BLKREFS
331
212E
102
}
  0
BLOCK_RECORD
  5
212F
330
1
100
AcDbSymbolTableRecord
100
AcDbBlockTableRecord
  2
*D8
340
0
  0
BLOCK_RECORD
  5
213C
330
1
100
AcDbSymbolTableRecord
100
AcDbBlockTableRecord
  2
*D9
340
0
  0
BLOCK_RECORD
  5
2149
330
1
100
AcDbSymbolTableRecord
100
AcDbBlockTableRecord
  2
*D10
340
0
  0
BLOCK_RECORD
  5
2156
330
1
100
AcDbSymbolTableRecord
100
AcDbBlockTableRecord
  2
*D11
340
0
  0
BLOCK_RECORD
  5
217D
330
1
100
AcDbSymbolTableRecord
100
AcDbBlockTableRecord
  2
*D12
340
0
  0
BLOCK_RECORD
  5
218A
330
1
100
AcDbSymbolTableRecord
100
AcDbBlockTableRecord
  2
*D13
340
0
  0
ENDTAB
  0
ENDSEC
  0
SECTION
  2
BLOCKS
  0
BLOCK
  5
35
330
1E
100
AcDbEntity
  8
0
100
AcDbBlockBegin
  2
*Model_Space
 70
     0
 10
0.0
 20
0.0
 30
0.0
  3
*Model_Space
  1

  0
ENDBLK
  5
36
330
1E
100
AcDbEntity
  8
0
100
AcDbBlockEnd
  0
BLOCK
  5
33
330
1A
100
AcDbEntity
 67
     1
  8
0
100
AcDbBlockBegin
  2
*Paper_Space
 70
     0
 10
0.0
 20
0.0
 30
0.0
  3
*Paper_Space
  1

  0
ENDBLK
  5
34
330
1A
100
AcDbEntity
 67
     1
  8
0
100
AcDbBlockEnd
  0
BLOCK
  5
37
330
22
100
AcDbEntity
  8
0
100
AcDbBlockBegin
  2
LOGO
 70
     0
 10
0.0
 20
0.0
 30
0.0
  3
LOGO
  1

  0
ARC
  5
38
330
22
100
AcDbEntity
  8
0
100
AcDbCircle
 10
11.59973089678112
 20
-9.271599258481501
 30
0.0
 40
4.5
100
AcDbArc
 50
270.0
 51
231.0575587310159
  0
LINE
  5
39
330
22
100
AcDbEntity
  8
0
100
AcDbLine
 10
3.599730896781125
 20
-4.771599258481529
 30
0.0
 11
3.599730896781153
 21
-11.77159925848133
 31
0.0
  0
LINE
  5
3A
330
22
100
AcDbEntity
  8
0
100
AcDbLine
 10
2.599730896781125
 20
-4.771599258481529
 30
0.0
 11
2.599730896781153
 21
-11.77159925848133
 31
0.0
  0
CIRCLE
  5
3B
330
22
100
AcDbEntity
  8
0
100
AcDbCircle
 10
11.59973089678112
 20
-9.271599258481501
 30
0.0
 40
3.5
  0
ARC
  5
3C
330
22
100
AcDbEntity
  8
0
100
AcDbCircle
 10
31.59973089678115
 20
-9.271599258481472
 30
0.0
 40
4.5
100
AcDbArc
 50
270.0
 51
231.0575587310182
  0
LINE
  5
3D
330
22
100
AcDbEntity
  8
0
100
AcDbLine
 10
17.59973089678112
 20
-4.771599258481472
 30
0.0
 11
17.59973089678115
 21
-13.77159925848147
 31
0.0
  0
ARC
  5
3E
330
22
100
AcDbEntity
  8
0
100
AcDbCircle
 10
22.59973089678116
 20
-7.271599258481472
 30
0.0
 40
2.5
100
AcDbArc
 50
293.1161887722295
 51
90.0
  0
CIRCLE
  5
3F
330
22
100
AcDbEntity
  8
0
100
AcDbCircle
 10
31.59973089678115
 20
-9.271599258481472
 30
0.0
 40
3.5
  0
ARC
  5
40
330
22
100
AcDbEntity
  8
0
100
AcDbCircle
 10
4.599730896781153
 20
-11.77159925848133
 30
0.0
 40
1.0
100
AcDbArc
 50
180.0
 51
270.0
  0
ARC
  5
41
330
22
100
AcDbEntity
  8
0
100
AcDbCircle
 10
4.599730896781153
 20
-11.77159925848133
 30
0.0
 40
2.0
100
AcDbArc
 50
179.9999999999992
 51
270.0
  0
LINE
  5
42
330
22
100
AcDbEntity
  8
0
100
AcDbLine
 10
11.59973089678115
 20
-13.77159925848144
 30
0.0
 11
4.599730896781153
 21
-13.77159925848147
 31
0.0
  0
LINE
  5
43
330
22
100
AcDbEntity
  8
0
100
AcDbLine
 10
8.771303772034769
 20
-12.77159925848136
 30
0.0
 11
4.599730896781153
 21
-12.77159925848133
 31
0.0
  0
LINE
  5
44
330
22
100
AcDbEntity
  8
0
100
AcDbLine
 10
31.59973089678115
 20
-13.77159925848147
 30
0.0
 11
23.6715276665056
 21
-13.77159925848144
 31
0.0
  0
LINE
  5
45
330
22
100
AcDbEntity
  8
0
100
AcDbLine
 10
23.56565672307022
 20
-9.51278021337896
 30
0.0
 11
24.4388546544846
 21
-12.77159925848144
 31
0.0
  0
LINE
  5
46
330
22
100
AcDbEntity
  8
0
100
AcDbLine
 10
22.59973089678116
 20
-9.771599258481472
 30
0.0
 11
18.59973089678112
 21
-9.771599258481472
 31
0.0
  0
LINE
  5
47
330
22
100
AcDbEntity
  8
0
100
AcDbLine
 10
18.59973089678115
 20
-13.77159925848144
 30
0.0
 11
17.59973089678115
 21
-13.77159925848144
 31
0.0
  0
LINE
  5
48
330
22
100
AcDbEntity
  8
0
100
AcDbLine
 10
18.59973089678115
 20
-9.771599258481472
 30
0.0
 11
18.59973089678115
 21
-13.77159925848144
 31
0.0
  0
LINE
  5
49
330
22
100
AcDbEntity
  8
0
100
AcDbLine
 10
22.59973089678116
 20
-9.771599258481472
 30
0.0
 11
23.67152766650562
 21
-13.77159925848147
 31
0.0
  0
ARC
  5
4A
330
22
100
AcDbEntity
  8
0
100
AcDbCircle
 10
22.59973089678116
 20
-7.271599258481472
 30
0.0
 40
2.5
100
AcDbArc
 50
270.0
 51
270.0000000000007
  0
LINE
  5
4B
330
22
100
AcDbEntity
  8
0
100
AcDbLine
 10
28.77130377203494
 20
-12.77159925848147
 30
0.0
 11
24.43885465448463
 21
-12.77159925848144
 31
0.0
  0
LINE
  5
4C
330
22
100
AcDbEntity
  8
0
100
AcDbLine
 10
3.599730896781125
 20
-4.771599258481472
 30
0.0
 11
2.599730896781125
 21
-4.771599258481472
 31
0.0
  0
LINE
  5
4D
330
22
100
AcDbEntity
  8
0
100
AcDbLine
 10
22.59973089678116
 20
-8.771599258481472
 30
0.0
 11
18.59973089678115
 21
-8.771599258481472
 31
0.0
  0
LINE
  5
4E
330
22
100
AcDbEntity
  8
0
100
AcDbLine
 10
22.59973089678116
 20
-5.771599258481472
 30
0.0
 11
18.59973089678115
 21
-5.771599258481472
 31
0.0
  0
LINE
  5
4F
330
22
100
AcDbEntity
  8
0
100
AcDbLine
 10
22.59973089678116
 20
-4.771599258481472
 30
0.0
 11
17.59973089678115
 21
-4.771599258481472
 31
0.0
  0
LINE
  5
50
330
22
100
AcDbEntity
  8
0
100
AcDbLine
 10
18.59973089678115
 20
-5.771599258481472
 30
0.0
 11
18.59973089678115
 21
-8.771599258481472
 31
0.0
  0
ARC
  5
51
330
22
100
AcDbEntity
  8
0
100
AcDbCircle
 10
22.59973089678116
 20
-7.271599258481472
 30
0.0
 40
1.5
100
AcDbArc
 50
270.0
 51
90.0
  0
ENDBLK
  5
52
330
22
100
AcDbEntity
  8
0
100
AcDbBlockEnd
  0
BLOCK
  5
1919
330
1918
100
AcDbEntity
  8
0
100
AcDbBlockBegin
  2
*X1
 70
     1
 10
0.0
 20
0.0
 30
0.0
  3
*X1
  1

  0
LINE
  5
191A
330
1918
100
AcDbEntity
  8
0
 62
     0
100
AcDbLine
 10
259.5826923451695
 20
346.6906618441763
 30
0.0
 11
256.5024022820137
 21
349.7709519073322
 31
0.0
  0
LINE
  5
191B
330
1918
100
AcDbEntity
  8
0
 62
     0
100
AcDbLine
 10
259.3883597102319
 20
346.7435731228766
 30
0.0
 11
256.3690761783413
 21
349.7628566547672
 31
0.0
  0
LINE
  5
191C
330
1918
100
AcDbEntity
  8
0
 62
     0
100
AcDbLine
 10
259.179315449938
 20
346.8111960269332
 30
0.0
 11
256.4366990823979
 21
349.5538123944732
 31
0.0
  0
LINE
  5
191D
330
1918
100
AcDbEntity
  8
0
 62
     0
100
AcDbLine
 10
258.9505377051663
 20
346.8985524154676
 30
0.0
 11
256.5240554709323
 21
349.3250346497016
 31
0.0
  0
LINE
  5
191E
330
1918
100
AcDbEntity
  8
0
 62
     0
100
AcDbLine
 10
258.6929493356487
 20
347.0147194287479
 30
0.0
 11
256.6402224842126
 21
349.067446280184
 31
0.0
  0
LINE
  5
191F
330
1918
100
AcDbEntity
  8
0
 62
     0
100
AcDbLine
 10
258.3863749187442
 20
347.1798724894151
 30
0.0
 11
256.8053755448798
 21
348.7608718632795
 31
0.0
  0
LINE
  5
1920
330
1918
100
AcDbEntity
  8
0
 62
     0
100
AcDbLine
 10
257.9568561431742
 20
347.4679699087478
 30
0.0
 11
257.0934729642125
 21
348.3313530877095
 31
0.0
  0
LINE
  5
1921
330
1918
100
AcDbEntity
  8
0
 62
     0
100
AcDbLine
 10
259.7654422870307
 20
346.6493332585525
 30
0.0
 11
256.643823638251
 21
349.7709519073322
 31
0.0
  0
LINE
  5
1922
330
1918
100
AcDbEntity
  8
0
 62
     0
100
AcDbLine
 10
259.9387175716592
 20
346.6174793301612
 30
0.0
 11
256.7852449944883
 21
349.7709519073322
 31
0.0
  0
LINE
  5
1923
330
1918
100
AcDbEntity
  8
0
 62
     0
100
AcDbLine
 10
259.9557089524737
 20
346.741909305584
 30
0.0
 11
256.9266663507256
 21
349.7709519073322
 31
0.0
  0
LINE
  5
1924
330
1918
100
AcDbEntity
  8
0
 62
     0
100
AcDbLine
 10
259.9557089524737
 20
346.8833306618214
 30
0.0
 11
257.068087706963
 21
349.7709519073322
 31
0.0
  0
LINE
  5
1925
330
1918
100
AcDbEntity
  8
0
 62
     0
100
AcDbLine
 10
259.9557089524737
 20
347.0247520180586
 30
0.0
 11
257.2095090632002
 21
349.7709519073322
 31
0.0
  0
LINE
  5
1926
330
1918
100
AcDbEntity
  8
0
 62
     0
100
AcDbLine
 10
259.9557089524737
 20
347.166173374296
 30
0.0
 11
257.3509304194375
 21
349.7709519073322
 31
0.0
  0
LINE
  5
1927
330
1918
100
AcDbEntity
  8
0
 62
     0
100
AcDbLine
 10
259.9557089524737
 20
347.3075947305333
 30
0.0
 11
257.4923517756749
 21
349.7709519073322
 31
0.0
  0
LINE
  5
1928
330
1918
100
AcDbEntity
  8
0
 62
     0
100
AcDbLine
 10
259.9557089524737
 20
347.4490160867706
 30
0.0
 11
257.6337731319122
 21
349.7709519073322
 31
0.0
  0
LINE
  5
1929
330
1918
100
AcDbEntity
  8
0
 62
     0
100
AcDbLine
 10
259.9557089524737
 20
347.590437443008
 30
0.0
 11
257.7751944881495
 21
349.7709519073322
 31
0.0
  0
LINE
  5
192A
330
1918
100
AcDbEntity
  8
0
 62
     0
100
AcDbLine
 10
259.9557089524737
 20
347.7318587992452
 30
0.0
 11
257.9166158443868
 21
349.7709519073322
 31
0.0
  0
LINE
  5
192B
330
1918
100
AcDbEntity
  8
0
 62
     0
100
AcDbLine
 10
259.9557089524737
 20
347.8732801554825
 30
0.0
 11
258.0580372006241
 21
349.7709519073322
 31
0.0
  0
LINE
  5
192C
330
1918
100
AcDbEntity
  8
0
 62
     0
100
AcDbLine
 10
259.9557089524737
 20
348.0147015117199
 30
0.0
 11
258.1994585568614
 21
349.7709519073322
 31
0.0
  0
LINE
  5
192D
330
1918
100
AcDbEntity
  8
0
 62
     0
100
AcDbLine
 10
259.9557089524737
 20
348.1561228679571
 30
0.0
 11
258.3408799130987
 21
349.7709519073322
 31
0.0
  0
LINE
  5
192E
330
1918
100
AcDbEntity
  8
0
 62
     0
100
AcDbLine
 10
259.9557089524737
 20
348.2975442241945
 30
0.0
 11
258.4823012693361
 21
349.7709519073322
 31
0.0
  0
LINE
  5
192F
330
1918
100
AcDbEntity
  8
0
 62
     0
100
AcDbLine
 10
259.9557089524737
 20
348.4389655804317
 30
0.0
 11
258.6237226255733
 21
349.7709519073322
 31
0.0
  0
LINE
  5
1930
330
1918
100
AcDbEntity
  8
0
 62
     0
100
AcDbLine
 10
259.9557089524737
 20
348.5803869366691
 30
0.0
 11
258.7651439818106
 21
349.7709519073322
 31
0.0
  0
LINE
  5
1931
330
1918
100
AcDbEntity
  8
0
 62
     0
100
AcDbLine
 10
259.9557089524737
 20
348.7218082929064
 30
0.0
 11
258.906565338048
 21
349.7709519073322
 31
0.0
  0
LINE
  5
1932
330
1918
100
AcDbEntity
  8
0
 62
     0
100
AcDbLine
 10
259.9557089524737
 20
348.8632296491437
 30
0.0
 11
259.0479866942853
 21
349.7709519073322
 31
0.0
  0
LINE
  5
1933
330
1918
100
AcDbEntity
  8
0
 62
     0
100
AcDbLine
 10
259.9557089524737
 20
349.0046510053811
 30
0.0
 11
259.1894080505226
 21
349.7709519073322
 31
0.0
  0
LINE
  5
1934
330
1918
100
AcDbEntity
  8
0
 62
     0
100
AcDbLine
 10
259.9557089524737
 20
349.1460723616183
 30
0.0
 11
259.3308294067599
 21
349.7709519073322
 31
0.0
  0
LINE
  5
1935
330
1918
100
AcDbEntity
  8
0
 62
     0
100
AcDbLine
 10
259.9557089524737
 20
349.2874937178556
 30
0.0
 11
259.4722507629972
 21
349.7709519073322
 31
0.0
  0
LINE
  5
1936
330
1918
100
AcDbEntity
  8
0
 62
     0
100
AcDbLine
 10
259.9557089524737
 20
349.428915074093
 30
0.0
 11
259.6136721192345
 21
349.7709519073322
 31
0.0
  0
LINE
  5
1937
330
1918
100
AcDbEntity
  8
0
 62
     0
100
AcDbLine
 10
259.9557089524737
 20
349.5703364303303
 30
0.0
 11
259.7550934754718
 21
349.7709519073322
 31
0.0
  0
LINE
  5
1938
330
1918
100
AcDbEntity
  8
0
 62
     0
100
AcDbLine
 10
259.9557089524737
 20
349.7117577865676
 30
0.0
 11
259.8965148317091
 21
349.7709519073322
 31
0.0
  0
ENDBLK
  5
1939
330
1918
100
AcDbEntity
  8
0
100
AcDbBlockEnd
  0
BLOCK
  5
193B
330
193A
100
AcDbEntity
  8
0
100
AcDbBlockBegin
  2
*X2
 70
     1
 10
0.0
 20
0.0
 30
0.0
  3
*X2
  1

  0
LINE
  5
193C
330
193A
100
AcDbEntity
  8
0
 62
     0
100
AcDbLine
 10
211.9459147073443
 20
393.9
 30
0.0
 11
214.0178481495824
 21
393.9
 31
0.0
  0
LINE
  5
193D
330
193A
100
AcDbEntity
  8
0
 62
     0
100
AcDbLine
 10
313.9911649853376
 20
393.9
 30
0.0
 11
316.0630984275752
 21
393.9
 31
0.0
  0
LINE
  5
193E
330
193A
100
AcDbEntity
  8
0
 62
     0
100
AcDbLine
 10
211.9471416467981
 20
394.0
 30
0.0
 11
213.9916632899099
 21
394.0
 31
0.0
  0
LINE
  5
193F
330
193A
100
AcDbEntity
  8
0
 62
     0
100
AcDbLine
 10
314.01734984501
 20
394.0
 30
0.0
 11
316.0618714881214
 21
394.0
 31
0.0
  0
LINE
  5
1940
330
193A
100
AcDbEntity
  8
0
 62
     0
100
AcDbLine
 10
211.9497772309366
 20
394.1
 30
0.0
 11
213.9654784302375
 21
394.1
 31
0.0
  0
LINE
  5
1941
330
193A
100
AcDbEntity
  8
0
 62
     0
100
AcDbLine
 10
314.0435347046825
 20
394.1
 30
0.0
 11
316.0592359039829
 21
394.1
 31
0.0
  0
LINE
  5
1942
330
193A
100
AcDbEntity
  8
0
 62
     0
100
AcDbLine
 10
211.9538230294946
 20
394.2000000000001
 30
0.0
 11
213.939293570565
 21
394.2000000000001
 31
0.0
  0
LINE
  5
1943
330
193A
100
AcDbEntity
  8
0
 62
     0
100
AcDbLine
 10
314.069719564355
 20
394.2000000000001
 30
0.0
 11
316.0551901054248
 21
394.2000000000001
 31
0.0
  0
LINE
  5
1944
330
193A
100
AcDbEntity
  8
0
 62
     0
100
AcDbLine
 10
211.9592814566628
 20
394.3
 30
0.0
 11
213.9131087108925
 21
394.3
 31
0.0
  0
LINE
  5
1945
330
193A
100
AcDbEntity
  8
0
 62
     0
100
AcDbLine
 10
314.0959044240274
 20
394.3
 30
0.0
 11
316.0497316782567
 21
394.3
 31
0.0
  0
LINE
  5
1946
330
193A
100
AcDbEntity
  8
0
 62
     0
100
AcDbLine
 10
211.9661557783115
 20
394.4
 30
0.0
 11
213.8869238512201
 21
394.4
 31
0.0
  0
LINE
  5
1947
330
193A
100
AcDbEntity
  8
0
 62
     0
100
AcDbLine
 10
314.1220892836998
 20
394.4
 30
0.0
 11
316.042857356608
 21
394.4
 31
0.0
  0
LINE
  5
1948
330
193A
100
AcDbEntity
  8
0
 62
     0
100
AcDbLine
 10
211.9744501218066
 20
394.5
 30
0.0
 11
213.8607389915476
 21
394.5
 31
0.0
  0
LINE
  5
1949
330
193A
100
AcDbEntity
  8
0
 62
     0
100
AcDbLine
 10
314.1482741433723
 20
394.5
 30
0.0
 11
316.0345630131128
 21
394.5
 31
0.0
  0
LINE
  5
194A
330
193A
100
AcDbEntity
  8
0
 62
     0
100
AcDbLine
 10
211.9841694884878
 20
394.6
 30
0.0
 11
213.8345541318752
 21
394.6
 31
0.0
  0
LINE
  5
194B
330
193A
100
AcDbEntity
  8
0
 62
     0
100
AcDbLine
 10
314.1744590030448
 20
394.6
 30
0.0
 11
316.0248436464317
 21
394.6
 31
0.0
  0
LINE
  5
194C
330
193A
100
AcDbEntity
  8
0
 62
     0
100
AcDbLine
 10
211.9953197688949
 20
394.7
 30
0.0
 11
213.8083692722027
 21
394.7
 31
0.0
  0
LINE
  5
194D
330
193A
100
AcDbEntity
  8
0
 62
     0
100
AcDbLine
 10
314.2006438627173
 20
394.7
 30
0.0
 11
316.0136933660246
 21
394.7
 31
0.0
  0
LINE
  5
194E
330
193A
100
AcDbEntity
  8
0
 62
     0
100
AcDbLine
 10
212.0079077608556
 20
394.8
 30
0.0
 11
213.7821844125302
 21
394.8
 31
0.0
  0
LINE
  5
194F
330
193A
100
AcDbEntity
  8
0
 62
     0
100
AcDbLine
 10
314.2268287223897
 20
394.8
 30
0.0
 11
316.0011053740639
 21
394.8
 31
0.0
  0
LINE
  5
1950
330
193A
100
AcDbEntity
  8
0
 62
     0
100
AcDbLine
 10
212.0219411905622
 20
394.9
 30
0.0
 11
213.7559995528578
 21
394.9
 31
0.0
  0
LINE
  5
1951
330
193A
100
AcDbEntity
  8
0
 62
     0
100
AcDbLine
 10
314.2530135820622
 20
394.9
 30
0.0
 11
315.9870719443573
 21
394.9
 31
0.0
  0
LINE
  5
1952
330
193A
100
AcDbEntity
  8
0
 62
     0
100
AcDbLine
 10
212.0374287367952
 20
395.0
 30
0.0
 11
213.7298146931853
 21
395.0
 31
0.0
  0
LINE
  5
1953
330
193A
100
AcDbEntity
  8
0
 62
     0
100
AcDbLine
 10
314.2791984417347
 20
395.0
 30
0.0
 11
315.9715843981242
 21
395.0
 31
0.0
  0
LINE
  5
1954
330
193A
100
AcDbEntity
  8
0
 62
     0
100
AcDbLine
 10
212.0543800584727
 20
395.1
 30
0.0
 11
213.7036298335129
 21
395.1
 31
0.0
  0
LINE
  5
1955
330
193A
100
AcDbEntity
  8
0
 62
     0
100
AcDbLine
 10
314.3053833014071
 20
395.1
 30
0.0
 11
315.9546330764467
 21
395.1
 31
0.0
  0
LINE
  5
1956
330
193A
100
AcDbEntity
  8
0
 62
     0
100
AcDbLine
 10
212.0728058257364
 20
395.2
 30
0.0
 11
213.6774449738404
 21
395.2
 31
0.0
  0
LINE
  5
1957
330
193A
100
AcDbEntity
  8
0
 62
     0
100
AcDbLine
 10
314.3315681610795
 20
395.2
 30
0.0
 11
315.9362073091831
 21
395.2
 31
0.0
  0
LINE
  5
1958
330
193A
100
AcDbEntity
  8
0
 62
     0
100
AcDbLine
 10
212.0927177548137
 20
395.3
 30
0.0
 11
213.6512601141679
 21
395.3
 31
0.0
  0
LINE
  5
1959
330
193A
100
AcDbEntity
  8
0
 62
     0
100
AcDbLine
 10
314.357753020752
 20
395.3
 30
0.0
 11
315.9162953801058
 21
395.3
 31
0.0
  0
LINE
  5
195A
330
193A
100
AcDbEntity
  8
0
 62
     0
100
AcDbLine
 10
212.1141286469322
 20
395.4
 30
0.0
 11
213.6250752544955
 21
395.4
 31
0.0
  0
LINE
  5
195B
330
193A
100
AcDbEntity
  8
0
 62
     0
100
AcDbLine
 10
314.3839378804245
 20
395.4
 30
0.0
 11
315.8948844879873
 21
395.4
 31
0.0
  0
LINE
  5
195C
330
193A
100
AcDbEntity
  8
0
 62
     0
100
AcDbLine
 10
212.1370524315998
 20
395.5
 30
0.0
 11
213.598890394823
 21
395.5
 31
0.0
  0
LINE
  5
195D
330
193A
100
AcDbEntity
  8
0
 62
     0
100
AcDbLine
 10
314.410122740097
 20
395.5
 30
0.0
 11
315.8719607033197
 21
395.5
 31
0.0
  0
LINE
  5
195E
330
193A
100
AcDbEntity
  8
0
 62
     0
100
AcDbLine
 10
212.1615042146087
 20
395.6
 30
0.0
 11
213.5727055351505
 21
395.6
 31
0.0
  0
LINE
  5
195F
330
193A
100
AcDbEntity
  8
0
 62
     0
100
AcDbLine
 10
314.4363075997694
 20
395.6
 30
0.0
 11
315.8475089203108
 21
395.6
 31
0.0
  0
LINE
  5
1960
330
193A
100
AcDbEntity
  8
0
 62
     0
100
AcDbLine
 10
212.1875003311693
 20
395.7000000000001
 30
0.0
 11
213.5465206754781
 21
395.7000000000001
 31
0.0
  0
LINE
  5
1961
330
193A
100
AcDbEntity
  8
0
 62
     0
100
AcDbLine
 10
314.4624924594419
 20
395.7000000000001
 30
0.0
 11
315.8215128037502
 21
395.7000000000001
 31
0.0
  0
LINE
  5
1962
330
193A
100
AcDbEntity
  8
0
 62
     0
100
AcDbLine
 10
212.2150584046372
 20
395.8
 30
0.0
 11
213.5203358158056
 21
395.8
 31
0.0
  0
LINE
  5
1963
330
193A
100
AcDbEntity
  8
0
 62
     0
100
AcDbLine
 10
314.4886773191143
 20
395.8
 30
0.0
 11
315.7939547302823
 21
395.8
 31
0.0
  0
LINE
  5
1964
330
193A
100
AcDbEntity
  8
0
 62
     0
100
AcDbLine
 10
212.244197411357
 20
395.9000000000001
 30
0.0
 11
213.4941509561332
 21
395.9000000000001
 31
0.0
  0
LINE
  5
1965
330
193A
100
AcDbEntity
  8
0
 62
     0
100
AcDbLine
 10
314.5148620806565
 20
395.9000000000001
 30
0.0
 11
315.7648157235624
 21
395.9000000000001
 31
0.0
  0
LINE
  5
1966
330
193A
100
AcDbEntity
  8
0
 62
     0
100
AcDbLine
 10
212.2749377522225
 20
396.0
 30
0.0
 11
213.4683217427338
 21
396.0
 31
0.0
  0
LINE
  5
1967
330
193A
100
AcDbEntity
  8
0
 62
     0
100
AcDbLine
 10
314.5406913921861
 20
396.0
 30
0.0
 11
315.734075382697
 21
396.0
 31
0.0
  0
LINE
  5
1968
330
193A
100
AcDbEntity
  8
0
 62
     0
100
AcDbLine
 10
212.3073013316305
 20
396.1
 30
0.0
 11
213.4432249824537
 21
396.1
 31
0.0
  0
LINE
  5
1969
330
193A
100
AcDbEntity
  8
0
 62
     0
100
AcDbLine
 10
314.5657881524663
 20
396.1
 30
0.0
 11
315.701711803289
 21
396.1
 31
0.0
  0
LINE
  5
196A
330
193A
100
AcDbEntity
  8
0
 62
     0
100
AcDbLine
 10
212.3413116446054
 20
396.2000000000001
 30
0.0
 11
213.4188569920352
 21
396.2000000000001
 31
0.0
  0
LINE
  5
196B
330
193A
100
AcDbEntity
  8
0
 62
     0
100
AcDbLine
 10
314.5901561428847
 20
396.2000000000001
 30
0.0
 11
315.6677014903141
 21
396.2000000000001
 31
0.0
  0
LINE
  5
196C
330
193A
100
AcDbEntity
  8
0
 62
     0
100
AcDbLine
 10
212.376993872978
 20
396.3
 30
0.0
 11
213.3952141247599
 21
396.3
 31
0.0
  0
LINE
  5
196D
330
193A
100
AcDbEntity
  8
0
 62
     0
100
AcDbLine
 10
314.61379901016
 20
396.3
 30
0.0
 11
315.6320192619414
 21
396.3
 31
0.0
  0
LINE
  5
196E
330
193A
100
AcDbEntity
  8
0
 62
     0
100
AcDbLine
 10
212.4143749916289
 20
396.4
 30
0.0
 11
213.3722928656451
 21
396.4
 31
0.0
  0
LINE
  5
196F
330
193A
100
AcDbEntity
  8
0
 62
     0
100
AcDbLine
 10
314.6367202692748
 20
396.4
 30
0.0
 11
315.5946381432905
 21
396.4
 31
0.0
  0
LINE
  5
1970
330
193A
100
AcDbEntity
  8
0
 62
     0
100
AcDbLine
 10
212.4534838859559
 20
396.5
 30
0.0
 11
213.3500898286463
 21
396.5
 31
0.0
  0
LINE
  5
1971
330
193A
100
AcDbEntity
  8
0
 62
     0
100
AcDbLine
 10
314.6589233062736
 20
396.5
 30
0.0
 11
315.5555292489636
 21
396.5
 31
0.0
  0
LINE
  5
1972
330
193A
100
AcDbEntity
  8
0
 62
     0
100
AcDbLine
 10
212.4943514818954
 20
396.6
 30
0.0
 11
213.3286017539888
 21
396.6
 31
0.0
  0
LINE
  5
1973
330
193A
100
AcDbEntity
  8
0
 62
     0
100
AcDbLine
 10
314.6804113809312
 20
396.6
 30
0.0
 11
315.5146616530241
 21
396.6
 31
0.0
  0
LINE
  5
1974
330
193A
100
AcDbEntity
  8
0
 62
     0
100
AcDbLine
 10
212.5370108900289
 20
396.7
 30
0.0
 11
213.3078255056246
 21
396.7
 31
0.0
  0
LINE
  5
1975
330
193A
100
AcDbEntity
  8
0
 62
     0
100
AcDbLine
 10
314.7011876292954
 20
396.7
 30
0.0
 11
315.4720022448905
 21
396.7
 31
0.0
  0
LINE
  5
1976
330
193A
100
AcDbEntity
  8
0
 62
     0
100
AcDbLine
 10
212.5814975655431
 20
396.8
 30
0.0
 11
213.2877580688087
 21
396.8
 31
0.0
  0
LINE
  5
1977
330
193A
100
AcDbEntity
  8
0
 62
     0
100
AcDbLine
 10
314.7212550661113
 20
396.8
 30
0.0
 11
315.4275155693763
 21
396.8
 31
0.0
  0
LINE
  5
1978
330
193A
100
AcDbEntity
  8
0
 62
     0
100
AcDbLine
 10
212.6278494860882
 20
396.9
 30
0.0
 11
213.2683965477906
 21
396.9
 31
0.0
  0
LINE
  5
1979
330
193A
100
AcDbEntity
  8
0
 62
     0
100
AcDbLine
 10
314.7406165871294
 20
396.9
 30
0.0
 11
315.3811636488313
 21
396.9
 31
0.0
  0
LINE
  5
197A
330
193A
100
AcDbEntity
  8
0
 62
     0
100
AcDbLine
 10
212.6761073499131
 20
397.0
 30
0.0
 11
213.2497381636169
 21
397.0
 31
0.0
  0
LINE
  5
197B
330
193A
100
AcDbEntity
  8
0
 62
     0
100
AcDbLine
 10
314.759274971303
 20
397.0
 30
0.0
 11
315.3329057850064
 21
397.0
 31
0.0
  0
LINE
  5
197C
330
193A
100
AcDbEntity
  8
0
 62
     0
100
AcDbLine
 10
212.7263147970445
 20
397.1
 30
0.0
 11
213.2317802520404
 21
397.1
 31
0.0
  0
LINE
  5
197D
330
193A
100
AcDbEntity
  8
0
 62
     0
100
AcDbLine
 10
314.7772328828795
 20
397.1
 30
0.0
 11
315.2826983378749
 21
397.1
 31
0.0
  0
LINE
  5
197E
330
193A
100
AcDbEntity
  8
0
 62
     0
100
AcDbLine
 10
212.7785186567474
 20
397.2
 30
0.0
 11
213.2145202615321
 21
397.2
 31
0.0
  0
LINE
  5
197F
330
193A
100
AcDbEntity
  8
0
 62
     0
100
AcDbLine
 10
314.7944928733878
 20
397.2
 30
0.0
 11
315.230494478172
 21
397.2
 31
0.0
  0
LINE
  5
1980
330
193A
100
AcDbEntity
  8
0
 62
     0
100
AcDbLine
 10
212.832769225066
 20
397.3
 30
0.0
 11
213.1979557513928
 21
397.3
 31
0.0
  0
LINE
  5
1981
330
193A
100
AcDbEntity
  8
0
 62
     0
100
AcDbLine
 10
314.8110573835272
 20
397.3
 30
0.0
 11
315.1762439098534
 21
397.3
 31
0.0
  0
LINE
  5
1982
330
193A
100
AcDbEntity
  8
0
 62
     0
100
AcDbLine
 10
212.8891205769217
 20
397.4000000000001
 30
0.0
 11
213.1820843899606
 21
397.4000000000001
 31
0.0
  0
LINE
  5
1983
330
193A
100
AcDbEntity
  8
0
 62
     0
100
AcDbLine
 10
314.8269287449593
 20
397.4000000000001
 30
0.0
 11
315.1198925579977
 21
397.4000000000001
 31
0.0
  0
LINE
  5
1984
330
193A
100
AcDbEntity
  8
0
 62
     0
100
AcDbLine
 10
212.9476309180614
 20
397.5
 30
0.0
 11
213.166903952911
 21
397.5
 31
0.0
  0
LINE
  5
1985
330
193A
100
AcDbEntity
  8
0
 62
     0
100
AcDbLine
 10
314.8421091820089
 20
397.5
 30
0.0
 11
315.061382216858
 21
397.5
 31
0.0
  0
LINE
  5
1986
330
193A
100
AcDbEntity
  8
0
 62
     0
100
AcDbLine
 10
213.0083629831519
 20
397.6
 30
0.0
 11
213.1524123216469
 21
397.6
 31
0.0
  0
LINE
  5
1987
330
193A
100
AcDbEntity
  8
0
 62
     0
100
AcDbLine
 10
314.856600813273
 20
397.6
 30
0.0
 11
315.0006501517674
 21
397.6
 31
0.0
  0
LINE
  5
1988
330
193A
100
AcDbEntity
  8
0
 62
     0
100
AcDbLine
 10
213.0713844875326
 20
397.7000000000001
 30
0.0
 11
213.1386074817754
 21
397.7000000000001
 31
0.0
  0
LINE
  5
1989
330
193A
100
AcDbEntity
  8
0
 62
     0
100
AcDbLine
 10
314.8704056531446
 20
397.7000000000001
 30
0.0
 11
314.9376286473868
 21
397.7000000000001
 31
0.0
  0
LINE
  5
198A
330
193A
100
AcDbEntity
  8
0
 62
     0
100
AcDbLine
 10
211.9460956826138
 20
393.8
 30
0.0
 11
214.0440330092549
 21
393.8
 31
0.0
  0
LINE
  5
198B
330
193A
100
AcDbEntity
  8
0
 62
     0
100
AcDbLine
 10
313.9649801256651
 20
393.8
 30
0.0
 11
316.0629174523057
 21
393.8
 31
0.0
  0
LINE
  5
198C
330
193A
100
AcDbEntity
  8
0
 62
     0
100
AcDbLine
 10
211.9476846802454
 20
393.7000000000001
 30
0.0
 11
214.0702178689273
 21
393.7000000000001
 31
0.0
  0
LINE
  5
198D
330
193A
100
AcDbEntity
  8
0
 62
     0
100
AcDbLine
 10
313.9387952659926
 20
393.7000000000001
 30
0.0
 11
316.0613284546741
 21
393.7000000000001
 31
0.0
  0
LINE
  5
198E
330
193A
100
AcDbEntity
  8
0
 62
     0
100
AcDbLine
 10
211.9506826457977
 20
393.6
 30
0.0
 11
214.0964027285998
 21
393.6
 31
0.0
  0
LINE
  5
198F
330
193A
100
AcDbEntity
  8
0
 62
     0
100
AcDbLine
 10
313.9126104063202
 20
393.6
 30
0.0
 11
316.0583304891218
 21
393.6
 31
0.0
  0
LINE
  5
1990
330
193A
100
AcDbEntity
  8
0
 62
     0
100
AcDbLine
 10
211.9550913655664
 20
393.5
 30
0.0
 11
214.1225875882722
 21
393.5
 31
0.0
  0
LINE
  5
1991
330
193A
100
AcDbEntity
  8
0
 62
     0
100
AcDbLine
 10
313.8864255466477
 20
393.5
 30
0.0
 11
316.0539217693531
 21
393.5
 31
0.0
  0
LINE
  5
1992
330
193A
100
AcDbEntity
  8
0
 62
     0
100
AcDbLine
 10
211.9609134719158
 20
393.4000000000001
 30
0.0
 11
214.1487724479447
 21
393.4000000000001
 31
0.0
  0
LINE
  5
1993
330
193A
100
AcDbEntity
  8
0
 62
     0
100
AcDbLine
 10
313.8602406869753
 20
393.4000000000001
 30
0.0
 11
316.0480996630037
 21
393.4000000000001
 31
0.0
  0
LINE
  5
1994
330
193A
100
AcDbEntity
  8
0
 62
     0
100
AcDbLine
 10
211.9681524511634
 20
393.3
 30
0.0
 11
214.1749573076172
 21
393.3
 31
0.0
  0
LINE
  5
1995
330
193A
100
AcDbEntity
  8
0
 62
     0
100
AcDbLine
 10
313.8340558273028
 20
393.3
 30
0.0
 11
316.0408606837561
 21
393.3
 31
0.0
  0
LINE
  5
1996
330
193A
100
AcDbEntity
  8
0
 62
     0
100
AcDbLine
 10
211.9768126540731
 20
393.2
 30
0.0
 11
214.2011421672896
 21
393.2
 31
0.0
  0
LINE
  5
1997
330
193A
100
AcDbEntity
  8
0
 62
     0
100
AcDbLine
 10
313.8078709676303
 20
393.2
 30
0.0
 11
316.0322004808463
 21
393.2
 31
0.0
  0
LINE
  5
1998
330
193A
100
AcDbEntity
  8
0
 62
     0
100
AcDbLine
 10
211.9868993090308
 20
393.1
 30
0.0
 11
214.2273270269621
 21
393.1
 31
0.0
  0
LINE
  5
1999
330
193A
100
AcDbEntity
  8
0
 62
     0
100
AcDbLine
 10
313.7816861079579
 20
393.1
 30
0.0
 11
316.0221138258887
 21
393.1
 31
0.0
  0
LINE
  5
199A
330
193A
100
AcDbEntity
  8
0
 62
     0
100
AcDbLine
 10
211.9984185379947
 20
393.0
 30
0.0
 11
214.2535118866346
 21
393.0
 31
0.0
  0
LINE
  5
199B
330
193A
100
AcDbEntity
  8
0
 62
     0
100
AcDbLine
 10
313.7555012482854
 20
393.0
 30
0.0
 11
316.0105945969247
 21
393.0
 31
0.0
  0
LINE
  5
199C
330
193A
100
AcDbEntity
  8
0
 62
     0
100
AcDbLine
 10
212.0113773753386
 20
392.9
 30
0.0
 11
214.279696746307
 21
392.9
 31
0.0
  0
LINE
  5
199D
330
193A
100
AcDbEntity
  8
0
 62
     0
100
AcDbLine
 10
313.729316388613
 20
392.9
 30
0.0
 11
315.9976357595809
 21
392.9
 31
0.0
  0
LINE
  5
199E
330
193A
100
AcDbEntity
  8
0
 62
     0
100
AcDbLine
 10
212.0257837897213
 20
392.8
 30
0.0
 11
214.3058816059795
 21
392.8
 31
0.0
  0
LINE
  5
199F
330
193A
100
AcDbEntity
  8
0
 62
     0
100
AcDbLine
 10
313.7031315289405
 20
392.8
 30
0.0
 11
315.9832293451982
 21
392.8
 31
0.0
  0
LINE
  5
19A0
330
193A
100
AcDbEntity
  8
0
 62
     0
100
AcDbLine
 10
212.0416467091473
 20
392.7000000000001
 30
0.0
 11
214.3320664656519
 21
392.7000000000001
 31
0.0
  0
LINE
  5
19A1
330
193A
100
AcDbEntity
  8
0
 62
     0
100
AcDbLine
 10
313.676946669268
 20
392.7000000000001
 30
0.0
 11
315.9673664257722
 21
392.7000000000001
 31
0.0
  0
LINE
  5
19A2
330
193A
100
AcDbEntity
  8
0
 62
     0
100
AcDbLine
 10
212.0589760494041
 20
392.6
 30
0.0
 11
214.3582513253244
 21
392.6
 31
0.0
  0
LINE
  5
19A3
330
193A
100
AcDbEntity
  8
0
 62
     0
100
AcDbLine
 10
313.6507618095956
 20
392.6
 30
0.0
 11
315.9500370855154
 21
392.6
 31
0.0
  0
LINE
  5
19A4
330
193A
100
AcDbEntity
  8
0
 62
     0
100
AcDbLine
 10
212.0777827460949
 20
392.5
 30
0.0
 11
214.3844361849969
 21
392.5
 31
0.0
  0
LINE
  5
19A5
330
193A
100
AcDbEntity
  8
0
 62
     0
100
AcDbLine
 10
313.6245769499231
 20
392.5
 30
0.0
 11
315.9312303888246
 21
392.5
 31
0.0
  0
LINE
  5
19A6
330
193A
100
AcDbEntity
  8
0
 62
     0
100
AcDbLine
 10
212.0980787905145
 20
392.4
 30
0.0
 11
214.4106210446693
 21
392.4
 31
0.0
  0
LINE
  5
19A7
330
193A
100
AcDbEntity
  8
0
 62
     0
100
AcDbLine
 10
313.5983920902506
 20
392.4
 30
0.0
 11
315.910934344405
 21
392.4
 31
0.0
  0
LINE
  5
19A8
330
193A
100
AcDbEntity
  8
0
 62
     0
100
AcDbLine
 10
212.1198772696549
 20
392.3
 30
0.0
 11
214.4368059043418
 21
392.3
 31
0.0
  0
LINE
  5
19A9
330
193A
100
AcDbEntity
  8
0
 62
     0
100
AcDbLine
 10
313.5722072305782
 20
392.3
 30
0.0
 11
315.8891358652646
 21
392.3
 31
0.0
  0
LINE
  5
19AA
330
193A
100
AcDbEntity
  8
0
 62
     0
100
AcDbLine
 10
212.1431924106635
 20
392.2
 30
0.0
 11
214.4629907640142
 21
392.2
 31
0.0
  0
LINE
  5
19AB
330
193A
100
AcDbEntity
  8
0
 62
     0
100
AcDbLine
 10
313.5460223709058
 20
392.2
 30
0.0
 11
315.8658207242559
 21
392.2
 31
0.0
  0
LINE
  5
19AC
330
193A
100
AcDbEntity
  8
0
 62
     0
100
AcDbLine
 10
212.1680396301255
 20
392.1
 30
0.0
 11
214.4891756236867
 21
392.1
 31
0.0
  0
LINE
  5
19AD
330
193A
100
AcDbEntity
  8
0
 62
     0
100
AcDbLine
 10
313.5198375112333
 20
392.1
 30
0.0
 11
315.840973504794
 21
392.1
 31
0.0
  0
LINE
  5
19AE
330
193A
100
AcDbEntity
  8
0
 62
     0
100
AcDbLine
 10
212.1944355885889
 20
392.0
 30
0.0
 11
214.5153604833592
 21
392.0
 31
0.0
  0
LINE
  5
19AF
330
193A
100
AcDbEntity
  8
0
 62
     0
100
AcDbLine
 10
313.4936526515608
 20
392.0
 30
0.0
 11
315.8145775463306
 21
392.0
 31
0.0
  0
LINE
  5
19B0
330
193A
100
AcDbEntity
  8
0
 62
     0
100
AcDbLine
 10
212.2223982508113
 20
391.9
 30
0.0
 11
214.5415453430316
 21
391.9
 31
0.0
  0
LINE
  5
19B1
330
193A
100
AcDbEntity
  8
0
 62
     0
100
AcDbLine
 10
313.4674677918884
 20
391.9
 30
0.0
 11
315.7866148841081
 21
391.9
 31
0.0
  0
LINE
  5
19B2
330
193A
100
AcDbEntity
  8
0
 62
     0
100
AcDbLine
 10
212.2519469522707
 20
391.8
 30
0.0
 11
214.5677302027041
 21
391.8
 31
0.0
  0
LINE
  5
19B3
330
193A
100
AcDbEntity
  8
0
 62
     0
100
AcDbLine
 10
313.4412829322159
 20
391.8
 30
0.0
 11
315.7570661826487
 21
391.8
 31
0.0
  0
LINE
  5
19B4
330
193A
100
AcDbEntity
  8
0
 62
     0
100
AcDbLine
 10
212.2831024725574
 20
391.7000000000001
 30
0.0
 11
214.5939150623765
 21
391.7000000000001
 31
0.0
  0
LINE
  5
19B5
330
193A
100
AcDbEntity
  8
0
 62
     0
100
AcDbLine
 10
313.4150980725434
 20
391.7000000000001
 30
0.0
 11
315.7259106623621
 21
391.7000000000001
 31
0.0
  0
LINE
  5
19B6
330
193A
100
AcDbEntity
  8
0
 62
     0
100
AcDbLine
 10
212.315887116351
 20
391.6
 30
0.0
 11
214.620099922049
 21
391.6
 31
0.0
  0
LINE
  5
19B7
330
193A
100
AcDbEntity
  8
0
 62
     0
100
AcDbLine
 10
313.3889132128709
 20
391.6
 30
0.0
 11
315.6931260185685
 21
391.6
 31
0.0
  0
LINE
  5
19B8
330
193A
100
AcDbEntity
  8
0
 62
     0
100
AcDbLine
 10
212.3503248027835
 20
391.5
 30
0.0
 11
214.6462847817215
 21
391.5
 31
0.0
  0
LINE
  5
19B9
330
193A
100
AcDbEntity
  8
0
 62
     0
100
AcDbLine
 10
313.3627283531985
 20
391.5
 30
0.0
 11
315.658688332136
 21
391.5
 31
0.0
  0
LINE
  5
19BA
330
193A
100
AcDbEntity
  8
0
 62
     0
100
AcDbLine
 10
212.3864411641034
 20
391.4000000000001
 30
0.0
 11
214.672469641394
 21
391.4000000000001
 31
0.0
  0
LINE
  5
19BB
330
193A
100
AcDbEntity
  8
0
 62
     0
100
AcDbLine
 10
313.3365434935261
 20
391.4000000000001
 30
0.0
 11
315.6225719708161
 21
391.4000000000001
 31
0.0
  0
LINE
  5
19BC
330
193A
100
AcDbEntity
  8
0
 62
     0
100
AcDbLine
 10
212.424263654688
 20
391.3
 30
0.0
 11
214.6986545010664
 21
391.3
 31
0.0
  0
LINE
  5
19BD
330
193A
100
AcDbEntity
  8
0
 62
     0
100
AcDbLine
 10
313.3103586338536
 20
391.3
 30
0.0
 11
315.5847494802315
 21
391.3
 31
0.0
  0
LINE
  5
19BE
330
193A
100
AcDbEntity
  8
0
 62
     0
100
AcDbLine
 10
212.4638216716037
 20
391.2
 30
0.0
 11
214.7248393607389
 21
391.2
 31
0.0
  0
LINE
  5
19BF
330
193A
100
AcDbEntity
  8
0
 62
     0
100
AcDbLine
 10
313.2841737741811
 20
391.2
 30
0.0
 11
315.5451914633158
 21
391.2
 31
0.0
  0
LINE
  5
19C0
330
193A
100
AcDbEntity
  8
0
 62
     0
100
AcDbLine
 10
212.5051466880937
 20
391.1000000000001
 30
0.0
 11
214.7510242204113
 21
391.1000000000001
 31
0.0
  0
LINE
  5
19C1
330
193A
100
AcDbEntity
  8
0
 62
     0
100
AcDbLine
 10
313.2579889145087
 20
391.1000000000001
 30
0.0
 11
315.5038664468257
 21
391.1000000000001
 31
0.0
  0
LINE
  5
19C2
330
193A
100
AcDbEntity
  8
0
 62
     0
100
AcDbLine
 10
212.5482724015817
 20
391.0
 30
0.0
 11
214.7772090800838
 21
391.0
 31
0.0
  0
LINE
  5
19C3
330
193A
100
AcDbEntity
  8
0
 62
     0
100
AcDbLine
 10
313.2318040548362
 20
391.0
 30
0.0
 11
315.4607407333378
 21
391.0
 31
0.0
  0
LINE
  5
19C4
330
193A
100
AcDbEntity
  8
0
 62
     0
100
AcDbLine
 10
212.5932348980247
 20
390.9
 30
0.0
 11
214.8033939397562
 21
390.9
 31
0.0
  0
LINE
  5
19C5
330
193A
100
AcDbEntity
  8
0
 62
     0
100
AcDbLine
 10
313.2056191951637
 20
390.9
 30
0.0
 11
315.4157782368947
 21
390.9
 31
0.0
  0
LINE
  5
19C6
330
193A
100
AcDbEntity
  8
0
 62
     0
100
AcDbLine
 10
212.6400728347447
 20
390.8
 30
0.0
 11
214.8295787994287
 21
390.8
 31
0.0
  0
LINE
  5
19C7
330
193A
100
AcDbEntity
  8
0
 62
     0
100
AcDbLine
 10
313.1794343354912
 20
390.8
 30
0.0
 11
315.3689403001747
 21
390.8
 31
0.0
  0
LINE
  5
19C8
330
193A
100
AcDbEntity
  8
0
 62
     0
100
AcDbLine
 10
212.6888276442056
 20
390.7
 30
0.0
 11
214.8557636591012
 21
390.7
 31
0.0
  0
LINE
  5
19C9
330
193A
100
AcDbEntity
  8
0
 62
     0
100
AcDbLine
 10
313.1532494758188
 20
390.7
 30
0.0
 11
315.3201854907138
 21
390.7
 31
0.0
  0
LINE
  5
19CA
330
193A
100
AcDbEntity
  8
0
 62
     0
100
AcDbLine
 10
212.7395437616196
 20
390.6
 30
0.0
 11
214.8819485187736
 21
390.6
 31
0.0
  0
LINE
  5
19CB
330
193A
100
AcDbEntity
  8
0
 62
     0
100
AcDbLine
 10
313.1270646161464
 20
390.6
 30
0.0
 11
315.2694693732998
 21
390.6
 31
0.0
  0
LINE
  5
19CC
330
193A
100
AcDbEntity
  8
0
 62
     0
100
AcDbLine
 10
212.792268879754
 20
390.5
 30
0.0
 11
214.9081333784461
 21
390.5
 31
0.0
  0
LINE
  5
19CD
330
193A
100
AcDbEntity
  8
0
 62
     0
100
AcDbLine
 10
313.1008797564739
 20
390.5
 30
0.0
 11
315.2167442551654
 21
390.5
 31
0.0
  0
LINE
  5
19CE
330
193A
100
AcDbEntity
  8
0
 62
     0
100
AcDbLine
 10
212.8470542348989
 20
390.4
 30
0.0
 11
214.9343182381186
 21
390.4
 31
0.0
  0
LINE
  5
19CF
330
193A
100
AcDbEntity
  8
0
 62
     0
100
AcDbLine
 10
313.0746948968014
 20
390.4
 30
0.0
 11
315.1619589000205
 21
390.4
 31
0.0
  0
LINE
  5
19D0
330
193A
100
AcDbEntity
  8
0
 62
     0
100
AcDbLine
 10
212.9039549286684
 20
390.3
 30
0.0
 11
214.960503097791
 21
390.3
 31
0.0
  0
LINE
  5
19D1
330
193A
100
AcDbEntity
  8
0
 62
     0
100
AcDbLine
 10
313.048510037129
 20
390.3
 30
0.0
 11
315.105058206251
 21
390.3
 31
0.0
  0
LINE
  5
19D2
330
193A
100
AcDbEntity
  8
0
 62
     0
100
AcDbLine
 10
212.9630302911678
 20
390.2000000000001
 30
0.0
 11
214.9866879574635
 21
390.2000000000001
 31
0.0
  0
LINE
  5
19D3
330
193A
100
AcDbEntity
  8
0
 62
     0
100
AcDbLine
 10
313.0223251774565
 20
390.2000000000001
 30
0.0
 11
315.0459828437516
 21
390.2000000000001
 31
0.0
  0
ENDBLK
  5
19D4
330
193A
100
AcDbEntity
  8
0
100
AcDbBlockEnd
  0
BLOCK
  5
1A03
330
1A02
100
AcDbEntity
  8
0
100
AcDbBlockBegin
  2
*X3
 70
     1
 10
0.0
 20
0.0
 30
0.0
  3
*X3
  1

  0
LINE
  5
1A04
330
1A02
100
AcDbEntity
  8
0
 62
     0
100
AcDbLine
 10
213.00450656746
 20
327.9321810402488
 30
0.0
 11
207.8047368935151
 21
333.1319507141937
 31
0.0
  0
LINE
  5
1A05
330
1A02
100
AcDbEntity
  8
0
 62
     0
100
AcDbLine
 10
213.00450656746
 20
325.2805306107993
 30
0.0
 11
205.1530864640656
 21
333.1319507141937
 31
0.0
  0
LINE
  5
1A06
330
1A02
100
AcDbEntity
  8
0
 62
     0
100
AcDbLine
 10
213.00450656746
 20
322.6288801813497
 30
0.0
 11
202.501436034616
 21
333.1319507141937
 31
0.0
  0
LINE
  5
1A07
330
1A02
100
AcDbEntity
  8
0
 62
     0
100
AcDbLine
 10
213.00450656746
 20
319.9772297519002
 30
0.0
 11
200.063447886429
 21
332.9182884329312
 31
0.0
  0
LINE
  5
1A08
330
1A02
100
AcDbEntity
  8
0
 62
     0
100
AcDbLine
 10
213.00450656746
 20
317.3255793224506
 30
0.0
 11
201.0736004309812
 21
329.2564854589294
 31
0.0
  0
LINE
  5
1A09
330
1A02
100
AcDbEntity
  8
0
 62
     0
100
AcDbLine
 10
213.00450656746
 20
314.6739288930011
 30
0.0
 11
202.0837529755334
 21
325.5946824849277
 31
0.0
  0
LINE
  5
1A0A
330
1A02
100
AcDbEntity
  8
0
 62
     0
100
AcDbLine
 10
213.00450656746
 20
312.0222784635515
 30
0.0
 11
203.0939055200855
 21
321.9328795109259
 31
0.0
  0
LINE
  5
1A0B
330
1A02
100
AcDbEntity
  8
0
 62
     0
100
AcDbLine
 10
213.00450656746
 20
309.370628034102
 30
0.0
 11
204.1040580646377
 21
318.2710765369242
 31
0.0
  0
LINE
  5
1A0C
330
1A02
100
AcDbEntity
  8
0
 62
     0
100
AcDbLine
 10
213.00450656746
 20
306.7189776046524
 30
0.0
 11
205.1142106091899
 21
314.6092735629224
 31
0.0
  0
LINE
  5
1A0D
330
1A02
100
AcDbEntity
  8
0
 62
     0
100
AcDbLine
 10
212.9398830284692
 20
304.1319507141937
 30
0.0
 11
206.1243631537421
 21
310.9474705889208
 31
0.0
  0
LINE
  5
1A0E
330
1A02
100
AcDbEntity
  8
0
 62
     0
100
AcDbLine
 10
210.2882325990196
 20
304.1319507141937
 30
0.0
 11
207.1345156982943
 21
307.285667614919
 31
0.0
  0
LINE
  5
1A0F
330
1A02
100
AcDbEntity
  8
0
 62
     0
100
AcDbLine
 10
316.3542497770017
 20
304.1319507141936
 30
0.0
 11
315.00450656746
 21
305.4816939237353
 31
0.0
  0
LINE
  5
1A10
330
1A02
100
AcDbEntity
  8
0
 62
     0
100
AcDbLine
 10
319.0059002064512
 20
304.1319507141936
 30
0.0
 11
315.00450656746
 21
308.1333443531848
 31
0.0
  0
LINE
  5
1A11
330
1A02
100
AcDbEntity
  8
0
 62
     0
100
AcDbLine
 10
320.361921501177
 20
305.4275798489174
 30
0.0
 11
315.00450656746
 21
310.7849947826344
 31
0.0
  0
LINE
  5
1A12
330
1A02
100
AcDbEntity
  8
0
 62
     0
100
AcDbLine
 10
320.9352513237607
 20
307.5059004557833
 30
0.0
 11
315.00450656746
 21
313.4366452120839
 31
0.0
  0
LINE
  5
1A13
330
1A02
100
AcDbEntity
  8
0
 62
     0
100
AcDbLine
 10
321.5085811463443
 20
309.5842210626492
 30
0.0
 11
315.00450656746
 21
316.0882956415335
 31
0.0
  0
LINE
  5
1A14
330
1A02
100
AcDbEntity
  8
0
 62
     0
100
AcDbLine
 10
322.081910968928
 20
311.6625416695151
 30
0.0
 11
315.00450656746
 21
318.739946070983
 31
0.0
  0
LINE
  5
1A15
330
1A02
100
AcDbEntity
  8
0
 62
     0
100
AcDbLine
 10
322.6552407915117
 20
313.740862276381
 30
0.0
 11
315.00450656746
 21
321.3915965004326
 31
0.0
  0
LINE
  5
1A16
330
1A02
100
AcDbEntity
  8
0
 62
     0
100
AcDbLine
 10
323.2285706140954
 20
315.8191828832468
 30
0.0
 11
315.00450656746
 21
324.0432469298821
 31
0.0
  0
LINE
  5
1A17
330
1A02
100
AcDbEntity
  8
0
 62
     0
100
AcDbLine
 10
323.8019004366791
 20
317.8975034901127
 30
0.0
 11
315.00450656746
 21
326.6948973593317
 31
0.0
  0
LINE
  5
1A18
330
1A02
100
AcDbEntity
  8
0
 62
     0
100
AcDbLine
 10
324.3752302592628
 20
319.9758240969786
 30
0.0
 11
315.00450656746
 21
329.3465477887813
 31
0.0
  0
LINE
  5
1A19
330
1A02
100
AcDbEntity
  8
0
 62
     0
100
AcDbLine
 10
324.9485600818464
 20
322.0541447038444
 30
0.0
 11
316.5028473823091
 21
330.4998574033817
 31
0.0
  0
LINE
  5
1A1A
330
1A02
100
AcDbEntity
  8
0
 62
     0
100
AcDbLine
 10
325.5218899044301
 20
324.1324653107103
 30
0.0
 11
317.907447478558
 21
331.7469077365824
 31
0.0
  0
LINE
  5
1A1B
330
1A02
100
AcDbEntity
  8
0
 62
     0
100
AcDbLine
 10
326.0952197270138
 20
326.2107859175762
 30
0.0
 11
319.1740549303963
 21
333.1319507141937
 31
0.0
  0
LINE
  5
1A1C
330
1A02
100
AcDbEntity
  8
0
 62
     0
100
AcDbLine
 10
326.6685495495975
 20
328.2891065244421
 30
0.0
 11
321.8257053598459
 21
333.1319507141937
 31
0.0
  0
LINE
  5
1A1D
330
1A02
100
AcDbEntity
  8
0
 62
     0
100
AcDbLine
 10
327.2418793721812
 20
330.3674271313079
 30
0.0
 11
324.4773557892954
 21
333.1319507141937
 31
0.0
  0
LINE
  5
1A1E
330
1A02
100
AcDbEntity
  8
0
 62
     0
100
AcDbLine
 10
327.8152091947649
 20
332.4457477381738
 30
0.0
 11
327.129006218745
 21
333.1319507141937
 31
0.0
  0
LINE
  5
1A1F
330
1A02
100
AcDbEntity
  8
0
 62
     0
100
AcDbLine
 10
315.00450656746
 20
328.2627587147078
 30
0.0
 11
319.8736985669459
 21
333.1319507141937
 31
0.0
  0
LINE
  5
1A20
330
1A02
100
AcDbEntity
  8
0
 62
     0
100
AcDbLine
 10
315.00450656746
 20
325.6111082852582
 30
0.0
 11
322.5253489963955
 21
333.1319507141937
 31
0.0
  0
LINE
  5
1A21
330
1A02
100
AcDbEntity
  8
0
 62
     0
100
AcDbLine
 10
315.00450656746
 20
322.9594578558087
 30
0.0
 11
325.176999425845
 21
333.1319507141937
 31
0.0
  0
LINE
  5
1A22
330
1A02
100
AcDbEntity
  8
0
 62
     0
100
AcDbLine
 10
315.00450656746
 20
320.3078074263591
 30
0.0
 11
327.8286498552946
 21
333.1319507141937
 31
0.0
  0
LINE
  5
1A23
330
1A02
100
AcDbEntity
  8
0
 62
     0
100
AcDbLine
 10
315.00450656746
 20
317.6561569969096
 30
0.0
 11
327.0613470561137
 21
329.7129974855633
 31
0.0
  0
LINE
  5
1A24
330
1A02
100
AcDbEntity
  8
0
 62
     0
100
AcDbLine
 10
315.00450656746
 20
315.00450656746
 30
0.0
 11
326.0511945115615
 21
326.0511945115615
 31
0.0
  0
LINE
  5
1A25
330
1A02
100
AcDbEntity
  8
0
 62
     0
100
AcDbLine
 10
315.00450656746
 20
312.3528561380104
 30
0.0
 11
325.0410419670093
 21
322.3893915375597
 31
0.0
  0
LINE
  5
1A26
330
1A02
100
AcDbEntity
  8
0
 62
     0
100
AcDbLine
 10
315.00450656746
 20
309.7012057085609
 30
0.0
 11
324.0308894224571
 21
318.727588563558
 31
0.0
  0
LINE
  5
1A27
330
1A02
100
AcDbEntity
  8
0
 62
     0
100
AcDbLine
 10
315.00450656746
 20
307.0495552791113
 30
0.0
 11
323.020736877905
 21
315.0657855895563
 31
0.0
  0
LINE
  5
1A28
330
1A02
100
AcDbEntity
  8
0
 62
     0
100
AcDbLine
 10
315.00450656746
 20
304.3979048496618
 30
0.0
 11
322.0105843333527
 21
311.4039826155545
 31
0.0
  0
LINE
  5
1A29
330
1A02
100
AcDbEntity
  8
0
 62
     0
100
AcDbLine
 10
317.3902028614414
 20
304.1319507141936
 30
0.0
 11
321.0004317888005
 21
307.7421796415527
 31
0.0
  0
LINE
  5
1A2A
330
1A02
100
AcDbEntity
  8
0
 62
     0
100
AcDbLine
 10
211.3241856834593
 20
304.1319507141937
 30
0.0
 11
213.00450656746
 21
305.8122715981943
 31
0.0
  0
LINE
  5
1A2B
330
1A02
100
AcDbEntity
  8
0
 62
     0
100
AcDbLine
 10
208.6725352540098
 20
304.1319507141937
 30
0.0
 11
213.00450656746
 21
308.4639220276438
 31
0.0
  0
LINE
  5
1A2C
330
1A02
100
AcDbEntity
  8
0
 62
     0
100
AcDbLine
 10
207.5756153798059
 20
305.6866812694394
 30
0.0
 11
213.00450656746
 21
311.1155724570934
 31
0.0
  0
LINE
  5
1A2D
330
1A02
100
AcDbEntity
  8
0
 62
     0
100
AcDbLine
 10
207.0022855572223
 20
307.7650018763052
 30
0.0
 11
213.00450656746
 21
313.767222886543
 31
0.0
  0
LINE
  5
1A2E
330
1A02
100
AcDbEntity
  8
0
 62
     0
100
AcDbLine
 10
206.4289557346385
 20
309.8433224831711
 30
0.0
 11
213.00450656746
 21
316.4188733159925
 31
0.0
  0
LINE
  5
1A2F
330
1A02
100
AcDbEntity
  8
0
 62
     0
100
AcDbLine
 10
205.8556259120549
 20
311.921643090037
 30
0.0
 11
213.00450656746
 21
319.0705237454421
 31
0.0
  0
LINE
  5
1A30
330
1A02
100
AcDbEntity
  8
0
 62
     0
100
AcDbLine
 10
205.2822960894712
 20
313.9999636969029
 30
0.0
 11
213.00450656746
 21
321.7221741748916
 31
0.0
  0
LINE
  5
1A31
330
1A02
100
AcDbEntity
  8
0
 62
     0
100
AcDbLine
 10
204.7089662668875
 20
316.0782843037687
 30
0.0
 11
213.00450656746
 21
324.3738246043412
 31
0.0
  0
LINE
  5
1A32
330
1A02
100
AcDbEntity
  8
0
 62
     0
100
AcDbLine
 10
204.1356364443038
 20
318.1566049106346
 30
0.0
 11
213.00450656746
 21
327.0254750337907
 31
0.0
  0
LINE
  5
1A33
330
1A02
100
AcDbEntity
  8
0
 62
     0
100
AcDbLine
 10
203.5623066217202
 20
320.2349255175005
 30
0.0
 11
213.00450656746
 21
329.6771254632403
 31
0.0
  0
LINE
  5
1A34
330
1A02
100
AcDbEntity
  8
0
 62
     0
100
AcDbLine
 10
202.9889767991365
 20
322.3132461243663
 30
0.0
 11
211.299765492422
 21
330.6240348176519
 31
0.0
  0
LINE
  5
1A35
330
1A02
100
AcDbEntity
  8
0
 62
     0
100
AcDbLine
 10
202.4156469765528
 20
324.3915667312322
 30
0.0
 11
209.966101676876
 21
331.9420214315555
 31
0.0
  0
LINE
  5
1A36
330
1A02
100
AcDbEntity
  8
0
 62
     0
100
AcDbLine
 10
201.8423171539691
 20
326.4698873380981
 30
0.0
 11
208.5043805300647
 21
333.1319507141937
 31
0.0
  0
LINE
  5
1A37
330
1A02
100
AcDbEntity
  8
0
 62
     0
100
AcDbLine
 10
201.2689873313854
 20
328.548207944964
 30
0.0
 11
205.8527301006151
 21
333.1319507141937
 31
0.0
  0
LINE
  5
1A38
330
1A02
100
AcDbEntity
  8
0
 62
     0
100
AcDbLine
 10
200.6956575088018
 20
330.6265285518299
 30
0.0
 11
203.2010796711656
 21
333.1319507141937
 31
0.0
  0
LINE
  5
1A39
330
1A02
100
AcDbEntity
  8
0
 62
     0
100
AcDbLine
 10
200.1223276862181
 20
332.7048491586957
 30
0.0
 11
200.549429241716
 21
333.1319507141937
 31
0.0
  0
ENDBLK
  5
1A3A
330
1A02
100
AcDbEntity
  8
0
100
AcDbBlockEnd
  0
BLOCK
  5
1A62
330
1A61
100
AcDbEntity
  8
0
100
AcDbBlockBegin
  2
*X4
 70
     1
 10
0.0
 20
0.0
 30
0.0
  3
*X4
  1

  0
LINE
  5
1A63
330
1A61
100
AcDbEntity
  8
0
 62
     0
100
AcDbLine
 10
432.0053945194559
 20
389.5789876482631
 30
0.0
 11
432.816091093286
 21
390.3896842220932
 31
0.0
  0
LINE
  5
1A64
330
1A61
100
AcDbEntity
  8
0
 62
     0
100
AcDbLine
 10
429.3537440900061
 20
389.5789876482629
 30
0.0
 11
432.816091093286
 21
393.0413346515427
 31
0.0
  0
LINE
  5
1A65
330
1A61
100
AcDbEntity
  8
0
 62
     0
100
AcDbLine
 10
424.6540971329594
 20
387.5309911206657
 30
0.0
 11
432.816091093286
 21
395.6929850809924
 31
0.0
  0
LINE
  5
1A66
330
1A61
100
AcDbEntity
  8
0
 62
     0
100
AcDbLine
 10
420.8979208137657
 20
386.4264652309216
 30
0.0
 11
426.6493617877953
 21
392.1779062049512
 31
0.0
  0
LINE
  5
1A67
330
1A61
100
AcDbEntity
  8
0
 62
     0
100
AcDbLine
 10
428.8160910932861
 20
394.3446355104419
 30
0.0
 11
432.816091093286
 21
398.3446355104419
 31
0.0
  0
LINE
  5
1A68
330
1A61
100
AcDbEntity
  8
0
 62
     0
100
AcDbLine
 10
418.8160910932856
 20
386.996285939891
 30
0.0
 11
423.0271399392113
 21
391.2073347858166
 31
0.0
  0
LINE
  5
1A69
330
1A61
100
AcDbEntity
  8
0
 62
     0
100
AcDbLine
 10
428.034644092566
 20
396.2148389391714
 30
0.0
 11
431.8987928016577
 21
400.0789876482631
 31
0.0
  0
LINE
  5
1A6A
330
1A61
100
AcDbEntity
  8
0
 62
     0
100
AcDbLine
 10
418.8160910932856
 20
389.6479363693405
 30
0.0
 11
419.4049180906272
 21
390.2367633666822
 31
0.0
  0
LINE
  5
1A6B
330
1A61
100
AcDbEntity
  8
0
 62
     0
100
AcDbLine
 10
425.7471423722079
 20
396.5789876482629
 30
0.0
 11
429.2471423722082
 21
400.0789876482631
 31
0.0
  0
LINE
  5
1A6C
330
1A61
100
AcDbEntity
  8
0
 62
     0
100
AcDbLine
 10
423.0954919427584
 20
396.5789876482629
 30
0.0
 11
426.5954919427586
 21
400.0789876482631
 31
0.0
  0
LINE
  5
1A6D
330
1A61
100
AcDbEntity
  8
0
 62
     0
100
AcDbLine
 10
420.4438415133088
 20
396.5789876482629
 30
0.0
 11
423.9438415133091
 21
400.0789876482631
 31
0.0
  0
LINE
  5
1A6E
330
1A61
100
AcDbEntity
  8
0
 62
     0
100
AcDbLine
 10
418.8160910932856
 20
397.6028876576892
 30
0.0
 11
421.2921910838595
 21
400.0789876482631
 31
0.0
  0
LINE
  5
1A6F
330
1A61
100
AcDbEntity
  8
0
 62
     0
100
AcDbLine
 10
418.8160910932859
 20
262.3687157557624
 30
0.0
 11
420.2976724681825
 21
263.8502971306589
 31
0.0
  0
LINE
  5
1A70
330
1A61
100
AcDbEntity
  8
0
 62
     0
100
AcDbLine
 10
419.1015302292628
 20
260.0025044622896
 30
0.0
 11
422.4511135406596
 21
263.3520877736865
 31
0.0
  0
LINE
  5
1A71
330
1A61
100
AcDbEntity
  8
0
 62
     0
100
AcDbLine
 10
421.1928209886073
 20
259.4421447921846
 30
0.0
 11
424.4532716540494
 21
262.7025954576268
 31
0.0
  0
LINE
  5
1A72
330
1A61
100
AcDbEntity
  8
0
 62
     0
100
AcDbLine
 10
423.2841117479519
 20
258.8817851220797
 30
0.0
 11
426.3226316959522
 21
261.9203050700799
 31
0.0
  0
LINE
  5
1A73
330
1A61
100
AcDbEntity
  8
0
 62
     0
100
AcDbLine
 10
418.8160910932859
 20
251.7621140379642
 30
0.0
 11
420.6329647035848
 21
253.5789876482629
 31
0.0
  0
LINE
  5
1A74
330
1A61
100
AcDbEntity
  8
0
 62
     0
100
AcDbLine
 10
425.3754025072964
 20
258.3214254519747
 30
0.0
 11
428.0719074846017
 21
261.01793042928
 31
0.0
  0
LINE
  5
1A75
330
1A61
100
AcDbEntity
  8
0
 62
     0
100
AcDbLine
 10
419.8003531131602
 20
250.0947256283888
 30
0.0
 11
423.2846151330343
 21
253.5789876482629
 31
0.0
  0
LINE
  5
1A76
330
1A61
100
AcDbEntity
  8
0
 62
     0
100
AcDbLine
 10
427.4659100277842
 20
257.7602825430128
 30
0.0
 11
430.2846151330343
 21
260.5789876482629
 31
0.0
  0
LINE
  5
1A77
330
1A61
100
AcDbEntity
  8
0
 62
     0
100
AcDbLine
 10
422.4362655624839
 20
250.0789876482629
 30
0.0
 11
425.9362655624839
 21
253.5789876482629
 31
0.0
  0
LINE
  5
1A78
330
1A61
100
AcDbEntity
  8
0
 62
     0
100
AcDbLine
 10
428.7594234705462
 20
256.4021455563253
 30
0.0
 11
432.816091093286
 21
260.4588131790651
 31
0.0
  0
LINE
  5
1A79
330
1A61
100
AcDbEntity
  8
0
 62
     0
100
AcDbLine
 10
425.0879159919334
 20
250.0789876482629
 30
0.0
 11
432.816091093286
 21
257.8071627496156
 31
0.0
  0
LINE
  5
1A7A
330
1A61
100
AcDbEntity
  8
0
 62
     0
100
AcDbLine
 10
427.7395664213829
 20
250.0789876482629
 30
0.0
 11
432.816091093286
 21
255.155512320166
 31
0.0
  0
LINE
  5
1A7B
330
1A61
100
AcDbEntity
  8
0
 62
     0
100
AcDbLine
 10
430.3912168508325
 20
250.0789876482629
 30
0.0
 11
432.816091093286
 21
252.5038618907165
 31
0.0
  0
LINE
  5
1A7C
330
1A61
100
AcDbEntity
  8
0
 62
     0
100
AcDbLine
 10
432.816091093286
 20
259.2646709930472
 30
0.0
 11
431.5017744380703
 21
260.5789876482629
 31
0.0
  0
LINE
  5
1A7D
330
1A61
100
AcDbEntity
  8
0
 62
     0
100
AcDbLine
 10
432.816091093286
 20
256.6130205635977
 30
0.0
 11
428.8501240086207
 21
260.5789876482629
 31
0.0
  0
LINE
  5
1A7E
330
1A61
100
AcDbEntity
  8
0
 62
     0
100
AcDbLine
 10
432.816091093286
 20
253.9613701341481
 30
0.0
 11
423.8643682591546
 21
262.9130929682796
 31
0.0
  0
LINE
  5
1A7F
330
1A61
100
AcDbEntity
  8
0
 62
     0
100
AcDbLine
 10
432.816091093286
 20
251.3097197046985
 30
0.0
 11
428.8091446407454
 21
255.3166661572392
 31
0.0
  0
LINE
  5
1A80
330
1A61
100
AcDbEntity
  8
0
 62
     0
100
AcDbLine
 10
425.9614039627666
 20
258.164406835218
 30
0.0
 11
420.2704958388344
 21
263.8553149591502
 31
0.0
  0
LINE
  5
1A81
330
1A61
100
AcDbEntity
  8
0
 62
     0
100
AcDbLine
 10
431.3951727202721
 20
250.0789876482629
 30
0.0
 11
427.7177639670484
 21
253.7563964014867
 31
0.0
  0
LINE
  5
1A82
330
1A61
100
AcDbEntity
  8
0
 62
     0
100
AcDbLine
 10
422.3391821141827
 20
259.1349782543524
 30
0.0
 11
418.8160910932859
 21
262.658069275249
 31
0.0
  0
LINE
  5
1A83
330
1A61
100
AcDbEntity
  8
0
 62
     0
100
AcDbLine
 10
428.7435222908225
 20
250.0789876482629
 30
0.0
 11
425.2435222908226
 21
253.5789876482629
 31
0.0
  0
LINE
  5
1A84
330
1A61
100
AcDbEntity
  8
0
 62
     0
100
AcDbLine
 10
426.091871861373
 20
250.0789876482629
 30
0.0
 11
422.5918718613731
 21
253.5789876482629
 31
0.0
  0
LINE
  5
1A85
330
1A61
100
AcDbEntity
  8
0
 62
     0
100
AcDbLine
 10
423.4402214319234
 20
250.0789876482629
 30
0.0
 11
419.9402214319235
 21
253.5789876482629
 31
0.0
  0
LINE
  5
1A86
330
1A61
100
AcDbEntity
  8
0
 62
     0
100
AcDbLine
 10
420.7885710024739
 20
250.0789876482629
 30
0.0
 11
418.8160910932859
 21
252.0514675574509
 31
0.0
  0
LINE
  5
1A87
330
1A61
100
AcDbEntity
  8
0
 62
     0
100
AcDbLine
 10
419.8695077861718
 20
386.2322227664923
 30
0.0
 11
418.8160910932856
 21
387.2856394593784
 31
0.0
  0
LINE
  5
1A88
330
1A61
100
AcDbEntity
  8
0
 62
     0
100
AcDbLine
 10
422.0544440632319
 20
386.6989369188817
 30
0.0
 11
418.8160910932856
 21
389.9372898888281
 31
0.0
  0
LINE
  5
1A89
330
1A61
100
AcDbEntity
  8
0
 62
     0
100
AcDbLine
 10
424.0836930844168
 20
387.3213383271464
 30
0.0
 11
420.7956283531361
 21
390.6094030584271
 31
0.0
  0
LINE
  5
1A8A
330
1A61
100
AcDbEntity
  8
0
 62
     0
100
AcDbLine
 10
425.9771529538479
 20
388.0795288871648
 30
0.0
 11
422.8869191124806
 21
391.1697627285321
 31
0.0
  0
LINE
  5
1A8B
330
1A61
100
AcDbEntity
  8
0
 62
     0
100
AcDbLine
 10
427.7484579823108
 20
388.9598742881515
 30
0.0
 11
424.9782098718251
 21
391.7301223986372
 31
0.0
  0
LINE
  5
1A8C
330
1A61
100
AcDbEntity
  8
0
 62
     0
100
AcDbLine
 10
420.1293446221994
 20
396.5789876482629
 30
0.0
 11
418.8160910932856
 21
397.8922411771767
 31
0.0
  0
LINE
  5
1A8D
330
1A61
100
AcDbEntity
  8
0
 62
     0
100
AcDbLine
 10
429.7809950516489
 20
389.578987648263
 30
0.0
 11
427.0695006311696
 21
392.2904820687422
 31
0.0
  0
LINE
  5
1A8E
330
1A61
100
AcDbEntity
  8
0
 62
     0
100
AcDbLine
 10
422.7809950516489
 20
396.5789876482629
 30
0.0
 11
419.5485430724671
 21
399.8114396274447
 31
0.0
  0
LINE
  5
1A8F
330
1A61
100
AcDbEntity
  8
0
 62
     0
100
AcDbLine
 10
432.4326454810983
 20
389.5789876482631
 30
0.0
 11
428.6252197566549
 21
393.3864133727066
 31
0.0
  0
LINE
  5
1A90
330
1A61
100
AcDbEntity
  8
0
 62
     0
100
AcDbLine
 10
425.4326454810985
 20
396.5789876482629
 30
0.0
 11
421.9326454810982
 21
400.0789876482631
 31
0.0
  0
LINE
  5
1A91
330
1A61
100
AcDbEntity
  8
0
 62
     0
100
AcDbLine
 10
432.816091093286
 20
391.847192465525
 30
0.0
 11
424.5842959105478
 21
400.0789876482631
 31
0.0
  0
LINE
  5
1A92
330
1A61
100
AcDbEntity
  8
0
 62
     0
100
AcDbLine
 10
432.816091093286
 20
394.4988428949745
 30
0.0
 11
427.2359463399974
 21
400.0789876482631
 31
0.0
  0
LINE
  5
1A93
330
1A61
100
AcDbEntity
  8
0
 62
     0
100
AcDbLine
 10
432.816091093286
 20
397.150493324424
 30
0.0
 11
429.8875967694469
 21
400.0789876482631
 31
0.0
  0
LINE
  5
1A94
330
1A61
100
AcDbEntity
  8
0
 62
     0
100
AcDbLine
 10
432.816091093286
 20
399.8021437538736
 30
0.0
 11
432.5392471988965
 21
400.0789876482631
 31
0.0
  0
ENDBLK
  5
1A95
330
1A61
100
AcDbEntity
  8
0
100
AcDbBlockEnd
  0
BLOCK
  5
1A97
330
1A96
100
AcDbEntity
  8
0
100
AcDbBlockBegin
  2
*X5
 70
     1
 10
0.0
 20
0.0
 30
0.0
  3
*X5
  1

  0
LINE
  5
1A98
330
1A96
100
AcDbEntity
  8
0
 62
     0
100
AcDbLine
 10
453.8646657669176
 20
383.1539876482629
 30
0.0
 11
454.5528784301013
 21
383.8422003114466
 31
0.0
  0
LINE
  5
1A99
330
1A96
100
AcDbEntity
  8
0
 62
     0
100
AcDbLine
 10
450.3291318609848
 20
383.1539876482629
 30
0.0
 11
452.254131860984
 21
385.078987648262
 31
0.0
  0
LINE
  5
1A9A
330
1A96
100
AcDbEntity
  8
0
 62
     0
100
AcDbLine
 10
446.7935979550522
 20
383.1539876482629
 30
0.0
 11
448.7185979550512
 21
385.078987648262
 31
0.0
  0
LINE
  5
1A9B
330
1A96
100
AcDbEntity
  8
0
 62
     0
100
AcDbLine
 10
443.2580640491194
 20
383.1539876482629
 30
0.0
 11
445.1830640491185
 21
385.078987648262
 31
0.0
  0
LINE
  5
1A9C
330
1A96
100
AcDbEntity
  8
0
 62
     0
100
AcDbLine
 10
450.1830640491194
 20
390.0789876482629
 30
0.0
 11
453.316091093286
 21
393.2120146924295
 31
0.0
  0
LINE
  5
1A9D
330
1A96
100
AcDbEntity
  8
0
 62
     0
100
AcDbLine
 10
439.7225301431866
 20
383.1539876482629
 30
0.0
 11
441.6475301431858
 21
385.078987648262
 31
0.0
  0
LINE
  5
1A9E
330
1A96
100
AcDbEntity
  8
0
 62
     0
100
AcDbLine
 10
446.6475301431866
 20
390.0789876482629
 30
0.0
 11
453.316091093286
 21
396.7475485983623
 31
0.0
  0
LINE
  5
1A9F
330
1A96
100
AcDbEntity
  8
0
 62
     0
100
AcDbLine
 10
436.1869962372539
 20
383.1539876482629
 30
0.0
 11
438.111996237253
 21
385.078987648262
 31
0.0
  0
LINE
  5
1AA0
330
1A96
100
AcDbEntity
  8
0
 62
     0
100
AcDbLine
 10
449.8160910932857
 20
396.7830825042947
 30
0.0
 11
453.111996237254
 21
400.0789876482628
 31
0.0
  0
LINE
  5
1AA1
330
1A96
100
AcDbEntity
  8
0
 62
     0
100
AcDbLine
 10
443.1119962372539
 20
390.0789876482629
 30
0.0
 11
448.1119962372539
 21
395.0789876482629
 31
0.0
  0
LINE
  5
1AA2
330
1A96
100
AcDbEntity
  8
0
 62
     0
100
AcDbLine
 10
432.6514623313212
 20
383.1539876482629
 30
0.0
 11
436.316091093286
 21
386.8186164102277
 31
0.0
  0
LINE
  5
1AA3
330
1A96
100
AcDbEntity
  8
0
 62
     0
100
AcDbLine
 10
439.5764623313212
 20
390.0789876482629
 30
0.0
 11
444.5764623313212
 21
395.0789876482629
 31
0.0
  0
LINE
  5
1AA4
330
1A96
100
AcDbEntity
  8
0
 62
     0
100
AcDbLine
 10
430.8160910932859
 20
384.8541503161604
 30
0.0
 11
441.0409284253884
 21
395.0789876482629
 31
0.0
  0
LINE
  5
1AA5
330
1A96
100
AcDbEntity
  8
0
 62
     0
100
AcDbLine
 10
430.8160910932859
 20
388.3896842220932
 30
0.0
 11
432.0053945194559
 21
389.5789876482631
 31
0.0
  0
LINE
  5
1AA6
330
1A96
100
AcDbEntity
  8
0
 62
     0
100
AcDbLine
 10
432.816091093286
 20
390.3896842220932
 30
0.0
 11
437.5053945194557
 21
395.0789876482629
 31
0.0
  0
LINE
  5
1AA7
330
1A96
100
AcDbEntity
  8
0
 62
     0
100
AcDbLine
 10
432.816091093286
 20
393.9252181280259
 30
0.0
 11
433.969860613523
 21
395.0789876482629
 31
0.0
  0
LINE
  5
1AA8
330
1A96
100
AcDbEntity
  8
0
 62
     0
100
AcDbLine
 10
430.8160910932861
 20
264.6459975144474
 30
0.0
 11
433.1740812271014
 21
267.0039876482628
 31
0.0
  0
LINE
  5
1AA9
330
1A96
100
AcDbEntity
  8
0
 62
     0
100
AcDbLine
 10
430.8160910932861
 20
261.1104636085147
 30
0.0
 11
436.7096151330342
 21
267.0039876482628
 31
0.0
  0
LINE
  5
1AAA
330
1A96
100
AcDbEntity
  8
0
 62
     0
100
AcDbLine
 10
432.816091093286
 20
259.574929702582
 30
0.0
 11
436.316091093286
 21
263.0749297025819
 31
0.0
  0
LINE
  5
1AAB
330
1A96
100
AcDbEntity
  8
0
 62
     0
100
AcDbLine
 10
438.3201490389681
 20
265.078987648264
 30
0.0
 11
440.2451490389669
 21
267.0039876482628
 31
0.0
  0
LINE
  5
1AAC
330
1A96
100
AcDbEntity
  8
0
 62
     0
100
AcDbLine
 10
432.816091093286
 20
256.0393957966492
 30
0.0
 11
436.316091093286
 21
259.5393957966492
 31
0.0
  0
LINE
  5
1AAD
330
1A96
100
AcDbEntity
  8
0
 62
     0
100
AcDbLine
 10
441.8556829449008
 20
265.078987648264
 30
0.0
 11
443.7806829448996
 21
267.0039876482628
 31
0.0
  0
LINE
  5
1AAE
330
1A96
100
AcDbEntity
  8
0
 62
     0
100
AcDbLine
 10
432.816091093286
 20
252.5038618907165
 30
0.0
 11
436.316091093286
 21
256.0038618907165
 31
0.0
  0
LINE
  5
1AAF
330
1A96
100
AcDbEntity
  8
0
 62
     0
100
AcDbLine
 10
445.3912168508336
 20
265.0789876482639
 30
0.0
 11
447.3162168508324
 21
267.0039876482628
 31
0.0
  0
LINE
  5
1AB0
330
1A96
100
AcDbEntity
  8
0
 62
     0
100
AcDbLine
 10
433.9267507567653
 20
250.0789876482629
 30
0.0
 11
438.9267507567652
 21
255.0789876482629
 31
0.0
  0
LINE
  5
1AB1
330
1A96
100
AcDbEntity
  8
0
 62
     0
100
AcDbLine
 10
448.9267507567662
 20
265.0789876482639
 30
0.0
 11
450.8517507567652
 21
267.0039876482628
 31
0.0
  0
LINE
  5
1AB2
330
1A96
100
AcDbEntity
  8
0
 62
     0
100
AcDbLine
 10
437.4622846626979
 20
250.0789876482629
 30
0.0
 11
442.462284662698
 21
255.0789876482629
 31
0.0
  0
LINE
  5
1AB3
330
1A96
100
AcDbEntity
  8
0
 62
     0
100
AcDbLine
 10
452.4622846626989
 20
265.0789876482639
 30
0.0
 11
454.3872846626978
 21
267.0039876482628
 31
0.0
  0
LINE
  5
1AB4
330
1A96
100
AcDbEntity
  8
0
 62
     0
100
AcDbLine
 10
440.9978185686307
 20
250.0789876482629
 30
0.0
 11
445.9978185686306
 21
255.0789876482629
 31
0.0
  0
LINE
  5
1AB5
330
1A96
100
AcDbEntity
  8
0
 62
     0
100
AcDbLine
 10
444.5333524745634
 20
250.0789876482629
 30
0.0
 11
449.5333524745634
 21
255.0789876482629
 31
0.0
  0
LINE
  5
1AB6
330
1A96
100
AcDbEntity
  8
0
 62
     0
100
AcDbLine
 10
448.0688863804962
 20
250.0789876482629
 30
0.0
 11
453.0688863804961
 21
255.0789876482629
 31
0.0
  0
LINE
  5
1AB7
330
1A96
100
AcDbEntity
  8
0
 62
     0
100
AcDbLine
 10
451.6044202864289
 20
250.0789876482629
 30
0.0
 11
453.316091093286
 21
251.79065845512
 31
0.0
  0
LINE
  5
1AB8
330
1A96
100
AcDbEntity
  8
0
 62
     0
100
AcDbLine
 10
454.7430101276502
 20
266.5059066826282
 30
0.0
 11
454.2449291620155
 21
267.0039876482628
 31
0.0
  0
LINE
  5
1AB9
330
1A96
100
AcDbEntity
  8
0
 62
     0
100
AcDbLine
 10
452.6343952560818
 20
265.0789876482639
 30
0.0
 11
450.7093952560827
 21
267.0039876482628
 31
0.0
  0
LINE
  5
1ABA
330
1A96
100
AcDbEntity
  8
0
 62
     0
100
AcDbLine
 10
449.098861350149
 20
265.0789876482639
 30
0.0
 11
447.1738613501499
 21
267.0039876482628
 31
0.0
  0
LINE
  5
1ABB
330
1A96
100
AcDbEntity
  8
0
 62
     0
100
AcDbLine
 10
445.5633274442162
 20
265.0789876482639
 30
0.0
 11
443.6383274442173
 21
267.0039876482628
 31
0.0
  0
LINE
  5
1ABC
330
1A96
100
AcDbEntity
  8
0
 62
     0
100
AcDbLine
 10
453.316091093286
 20
253.7906900932614
 30
0.0
 11
452.0277935382845
 21
255.0789876482629
 31
0.0
  0
LINE
  5
1ABD
330
1A96
100
AcDbEntity
  8
0
 62
     0
100
AcDbLine
 10
442.0277935382834
 20
265.078987648264
 30
0.0
 11
440.1027935382844
 21
267.0039876482628
 31
0.0
  0
LINE
  5
1ABE
330
1A96
100
AcDbEntity
  8
0
 62
     0
100
AcDbLine
 10
453.316091093286
 20
250.2551561873287
 30
0.0
 11
448.4922596323517
 21
255.0789876482629
 31
0.0
  0
LINE
  5
1ABF
330
1A96
100
AcDbEntity
  8
0
 62
     0
100
AcDbLine
 10
438.4922596323506
 20
265.078987648264
 30
0.0
 11
436.5672596323518
 21
267.0039876482628
 31
0.0
  0
LINE
  5
1AC0
330
1A96
100
AcDbEntity
  8
0
 62
     0
100
AcDbLine
 10
449.956725726419
 20
250.0789876482629
 30
0.0
 11
444.956725726419
 21
255.0789876482629
 31
0.0
  0
LINE
  5
1AC1
330
1A96
100
AcDbEntity
  8
0
 62
     0
100
AcDbLine
 10
436.316091093286
 20
263.7196222813959
 30
0.0
 11
433.031725726419
 21
267.0039876482628
 31
0.0
  0
LINE
  5
1AC2
330
1A96
100
AcDbEntity
  8
0
 62
     0
100
AcDbLine
 10
446.4211918204863
 20
250.0789876482629
 30
0.0
 11
441.4211918204863
 21
255.0789876482629
 31
0.0
  0
LINE
  5
1AC3
330
1A96
100
AcDbEntity
  8
0
 62
     0
100
AcDbLine
 10
436.316091093286
 20
260.1840883754631
 30
0.0
 11
430.8160910932861
 21
265.6840883754632
 31
0.0
  0
LINE
  5
1AC4
330
1A96
100
AcDbEntity
  8
0
 62
     0
100
AcDbLine
 10
442.8856579145535
 20
250.0789876482629
 30
0.0
 11
437.8856579145534
 21
255.0789876482629
 31
0.0
  0
LINE
  5
1AC5
330
1A96
100
AcDbEntity
  8
0
 62
     0
100
AcDbLine
 10
432.3856579145536
 20
260.5789876482629
 30
0.0
 11
430.8160910932861
 21
262.1485544695304
 31
0.0
  0
LINE
  5
1AC6
330
1A96
100
AcDbEntity
  8
0
 62
     0
100
AcDbLine
 10
436.316091093286
 20
256.6485544695304
 30
0.0
 11
432.816091093286
 21
260.1485544695304
 31
0.0
  0
LINE
  5
1AC7
330
1A96
100
AcDbEntity
  8
0
 62
     0
100
AcDbLine
 10
439.3501240086208
 20
250.0789876482629
 30
0.0
 11
432.816091093286
 21
256.6130205635977
 31
0.0
  0
LINE
  5
1AC8
330
1A96
100
AcDbEntity
  8
0
 62
     0
100
AcDbLine
 10
435.8145901026881
 20
250.0789876482629
 30
0.0
 11
432.816091093286
 21
253.0774866576649
 31
0.0
  0
LINE
  5
1AC9
330
1A96
100
AcDbEntity
  8
0
 62
     0
100
AcDbLine
 10
433.5543446221993
 20
383.1539876482629
 30
0.0
 11
430.8160910932859
 21
385.8922411771763
 31
0.0
  0
LINE
  5
1ACA
330
1A96
100
AcDbEntity
  8
0
 62
     0
100
AcDbLine
 10
437.0898785281321
 20
383.1539876482629
 30
0.0
 11
430.8160910932859
 21
389.427775083109
 31
0.0
  0
LINE
  5
1ACB
330
1A96
100
AcDbEntity
  8
0
 62
     0
100
AcDbLine
 10
440.6254124340647
 20
383.1539876482629
 30
0.0
 11
438.7004124340657
 21
385.078987648262
 31
0.0
  0
LINE
  5
1ACC
330
1A96
100
AcDbEntity
  8
0
 62
     0
100
AcDbLine
 10
436.316091093286
 20
387.4633089890417
 30
0.0
 11
432.816091093286
 21
390.9633089890418
 31
0.0
  0
LINE
  5
1ACD
330
1A96
100
AcDbEntity
  8
0
 62
     0
100
AcDbLine
 10
444.1609463399975
 20
383.1539876482629
 30
0.0
 11
442.2359463399984
 21
385.078987648262
 31
0.0
  0
LINE
  5
1ACE
330
1A96
100
AcDbEntity
  8
0
 62
     0
100
AcDbLine
 10
437.2359463399975
 20
390.0789876482629
 30
0.0
 11
432.816091093286
 21
394.4988428949745
 31
0.0
  0
LINE
  5
1ACF
330
1A96
100
AcDbEntity
  8
0
 62
     0
100
AcDbLine
 10
447.6964802459303
 20
383.1539876482629
 30
0.0
 11
445.7714802459312
 21
385.078987648262
 31
0.0
  0
LINE
  5
1AD0
330
1A96
100
AcDbEntity
  8
0
 62
     0
100
AcDbLine
 10
440.7714802459302
 20
390.0789876482629
 30
0.0
 11
435.7714802459303
 21
395.0789876482629
 31
0.0
  0
LINE
  5
1AD1
330
1A96
100
AcDbEntity
  8
0
 62
     0
100
AcDbLine
 10
451.232014151863
 20
383.1539876482629
 30
0.0
 11
449.3070141518639
 21
385.078987648262
 31
0.0
  0
LINE
  5
1AD2
330
1A96
100
AcDbEntity
  8
0
 62
     0
100
AcDbLine
 10
444.307014151863
 20
390.0789876482629
 30
0.0
 11
439.3070141518631
 21
395.0789876482629
 31
0.0
  0
LINE
  5
1AD3
330
1A96
100
AcDbEntity
  8
0
 62
     0
100
AcDbLine
 10
454.7675480577957
 20
383.1539876482629
 30
0.0
 11
452.8425480577967
 21
385.078987648262
 31
0.0
  0
LINE
  5
1AD4
330
1A96
100
AcDbEntity
  8
0
 62
     0
100
AcDbLine
 10
447.8425480577958
 20
390.0789876482629
 30
0.0
 11
442.8425480577957
 21
395.0789876482629
 31
0.0
  0
LINE
  5
1AD5
330
1A96
100
AcDbEntity
  8
0
 62
     0
100
AcDbLine
 10
451.3780819637284
 20
390.0789876482629
 30
0.0
 11
446.3780819637285
 21
395.0789876482629
 31
0.0
  0
LINE
  5
1AD6
330
1A96
100
AcDbEntity
  8
0
 62
     0
100
AcDbLine
 10
453.316091093286
 20
391.6765124246382
 30
0.0
 11
449.8160910932855
 21
395.1765124246387
 31
0.0
  0
LINE
  5
1AD7
330
1A96
100
AcDbEntity
  8
0
 62
     0
100
AcDbLine
 10
453.316091093286
 20
395.212046330571
 30
0.0
 11
449.8160910932859
 21
398.7120463305711
 31
0.0
  0
LINE
  5
1AD8
330
1A96
100
AcDbEntity
  8
0
 62
     0
100
AcDbLine
 10
453.316091093286
 20
398.7475802365037
 30
0.0
 11
451.9846836815268
 21
400.0789876482628
 31
0.0
  0
ENDBLK
  5
1AD9
330
1A96
100
AcDbEntity
  8
0
100
AcDbBlockEnd
  0
BLOCK
  5
1BC8
330
1BC7
100
AcDbEntity
  8
0
100
AcDbBlockBegin
  2
*X6
 70
     1
 10
0.0
 20
0.0
 30
0.0
  3
*X6
  1

  0
LINE
  5
1BC9
330
1BC7
100
AcDbEntity
  8
0
 62
     0
100
AcDbLine
 10
318.5764623313212
 20
269.0789876482629
 30
0.0
 11
321.5764623313212
 21
272.0789876482629
 31
0.0
  0
LINE
  5
1BCA
330
1BC7
100
AcDbEntity
  8
0
 62
     0
100
AcDbLine
 10
427.5764623313213
 20
378.0789876482629
 30
0.0
 11
430.5764623313213
 21
381.078987648263
 31
0.0
  0
LINE
  5
1BCB
330
1BC7
100
AcDbEntity
  8
0
 62
     0
100
AcDbLine
 10
321.5764623313212
 20
272.0789876482629
 30
0.0
 11
323.5764623313212
 21
274.0789876482629
 31
0.0
  0
LINE
  5
1BCC
330
1BC7
100
AcDbEntity
  8
0
 62
     0
100
AcDbLine
 10
425.5764623313212
 20
376.0789876482629
 30
0.0
 11
427.5764623313213
 21
378.0789876482629
 31
0.0
  0
LINE
  5
1BCD
330
1BC7
100
AcDbEntity
  8
0
 62
     0
100
AcDbLine
 10
315.0409284253885
 20
269.0789876482629
 30
0.0
 11
318.0409284253885
 21
272.0789876482629
 31
0.0
  0
LINE
  5
1BCE
330
1BC7
100
AcDbEntity
  8
0
 62
     0
100
AcDbLine
 10
424.0409284253884
 20
378.0789876482629
 30
0.0
 11
427.0409284253885
 21
381.078987648263
 31
0.0
  0
LINE
  5
1BCF
330
1BC7
100
AcDbEntity
  8
0
 62
     0
100
AcDbLine
 10
318.0409284253885
 20
272.0789876482629
 30
0.0
 11
320.0409284253885
 21
274.0789876482629
 31
0.0
  0
LINE
  5
1BD0
330
1BC7
100
AcDbEntity
  8
0
 62
     0
100
AcDbLine
 10
422.0409284253884
 20
376.0789876482629
 30
0.0
 11
424.0409284253884
 21
378.0789876482629
 31
0.0
  0
LINE
  5
1BD1
330
1BC7
100
AcDbEntity
  8
0
 62
     0
100
AcDbLine
 10
311.5053945194558
 20
269.0789876482629
 30
0.0
 11
314.5053945194557
 21
272.0789876482629
 31
0.0
  0
LINE
  5
1BD2
330
1BC7
100
AcDbEntity
  8
0
 62
     0
100
AcDbLine
 10
420.5053945194558
 20
378.0789876482629
 30
0.0
 11
423.5053945194557
 21
381.078987648263
 31
0.0
  0
LINE
  5
1BD3
330
1BC7
100
AcDbEntity
  8
0
 62
     0
100
AcDbLine
 10
314.5053945194557
 20
272.0789876482629
 30
0.0
 11
316.5053945194558
 21
274.0789876482629
 31
0.0
  0
LINE
  5
1BD4
330
1BC7
100
AcDbEntity
  8
0
 62
     0
100
AcDbLine
 10
418.5053945194558
 20
376.0789876482629
 30
0.0
 11
420.5053945194558
 21
378.0789876482629
 31
0.0
  0
LINE
  5
1BD5
330
1BC7
100
AcDbEntity
  8
0
 62
     0
100
AcDbLine
 10
307.969860613523
 20
269.0789876482629
 30
0.0
 11
310.969860613523
 21
272.0789876482629
 31
0.0
  0
LINE
  5
1BD6
330
1BC7
100
AcDbEntity
  8
0
 62
     0
100
AcDbLine
 10
416.969860613523
 20
378.0789876482629
 30
0.0
 11
419.969860613523
 21
381.078987648263
 31
0.0
  0
LINE
  5
1BD7
330
1BC7
100
AcDbEntity
  8
0
 62
     0
100
AcDbLine
 10
310.969860613523
 20
272.0789876482629
 30
0.0
 11
312.969860613523
 21
274.0789876482629
 31
0.0
  0
LINE
  5
1BD8
330
1BC7
100
AcDbEntity
  8
0
 62
     0
100
AcDbLine
 10
414.9698606135229
 20
376.0789876482629
 30
0.0
 11
416.969860613523
 21
378.0789876482629
 31
0.0
  0
LINE
  5
1BD9
330
1BC7
100
AcDbEntity
  8
0
 62
     0
100
AcDbLine
 10
304.4343267075903
 20
269.0789876482629
 30
0.0
 11
307.4343267075902
 21
272.0789876482629
 31
0.0
  0
LINE
  5
1BDA
330
1BC7
100
AcDbEntity
  8
0
 62
     0
100
AcDbLine
 10
413.4343267075903
 20
378.0789876482629
 30
0.0
 11
416.4343267075903
 21
381.078987648263
 31
0.0
  0
LINE
  5
1BDB
330
1BC7
100
AcDbEntity
  8
0
 62
     0
100
AcDbLine
 10
307.4343267075902
 20
272.0789876482629
 30
0.0
 11
309.4343267075903
 21
274.0789876482629
 31
0.0
  0
LINE
  5
1BDC
330
1BC7
100
AcDbEntity
  8
0
 62
     0
100
AcDbLine
 10
411.4343267075902
 20
376.0789876482629
 30
0.0
 11
413.4343267075903
 21
378.0789876482629
 31
0.0
  0
LINE
  5
1BDD
330
1BC7
100
AcDbEntity
  8
0
 62
     0
100
AcDbLine
 10
300.8987928016576
 20
269.0789876482629
 30
0.0
 11
303.8987928016575
 21
272.0789876482629
 31
0.0
  0
LINE
  5
1BDE
330
1BC7
100
AcDbEntity
  8
0
 62
     0
100
AcDbLine
 10
409.8987928016575
 20
378.0789876482629
 30
0.0
 11
412.8987928016575
 21
381.078987648263
 31
0.0
  0
LINE
  5
1BDF
330
1BC7
100
AcDbEntity
  8
0
 62
     0
100
AcDbLine
 10
303.8987928016575
 20
272.0789876482629
 30
0.0
 11
305.8987928016576
 21
274.0789876482629
 31
0.0
  0
LINE
  5
1BE0
330
1BC7
100
AcDbEntity
  8
0
 62
     0
100
AcDbLine
 10
407.8987928016575
 20
376.0789876482629
 30
0.0
 11
409.8987928016575
 21
378.0789876482629
 31
0.0
  0
LINE
  5
1BE1
330
1BC7
100
AcDbEntity
  8
0
 62
     0
100
AcDbLine
 10
297.3632588957248
 20
269.0789876482629
 30
0.0
 11
300.3632588957247
 21
272.0789876482629
 31
0.0
  0
LINE
  5
1BE2
330
1BC7
100
AcDbEntity
  8
0
 62
     0
100
AcDbLine
 10
406.3632588957248
 20
378.0789876482629
 30
0.0
 11
409.3632588957248
 21
381.078987648263
 31
0.0
  0
LINE
  5
1BE3
330
1BC7
100
AcDbEntity
  8
0
 62
     0
100
AcDbLine
 10
300.3632588957247
 20
272.0789876482629
 30
0.0
 11
302.3632588957248
 21
274.0789876482629
 31
0.0
  0
LINE
  5
1BE4
330
1BC7
100
AcDbEntity
  8
0
 62
     0
100
AcDbLine
 10
404.3632588957247
 20
376.0789876482629
 30
0.0
 11
406.3632588957248
 21
378.0789876482629
 31
0.0
  0
LINE
  5
1BE5
330
1BC7
100
AcDbEntity
  8
0
 62
     0
100
AcDbLine
 10
295.5007469652808
 20
270.7520096237516
 30
0.0
 11
296.8277249897921
 21
272.0789876482629
 31
0.0
  0
LINE
  5
1BE6
330
1BC7
100
AcDbEntity
  8
0
 62
     0
100
AcDbLine
 10
402.8277249897921
 20
378.0789876482629
 30
0.0
 11
405.8277249897921
 21
381.078987648263
 31
0.0
  0
LINE
  5
1BE7
330
1BC7
100
AcDbEntity
  8
0
 62
     0
100
AcDbLine
 10
296.8277249897921
 20
272.0789876482629
 30
0.0
 11
298.8277249897921
 21
274.0789876482629
 31
0.0
  0
LINE
  5
1BE8
330
1BC7
100
AcDbEntity
  8
0
 62
     0
100
AcDbLine
 10
400.827724989792
 20
376.0789876482629
 30
0.0
 11
402.8277249897921
 21
378.0789876482629
 31
0.0
  0
LINE
  5
1BE9
330
1BC7
100
AcDbEntity
  8
0
 62
     0
100
AcDbLine
 10
397.2921910838593
 20
376.0789876482629
 30
0.0
 11
399.2921910838594
 21
378.0789876482629
 31
0.0
  0
LINE
  5
1BEA
330
1BC7
100
AcDbEntity
  8
0
 62
     0
100
AcDbLine
 10
399.2921910838594
 20
378.0789876482629
 30
0.0
 11
402.2921910838594
 21
381.078987648263
 31
0.0
  0
LINE
  5
1BEB
330
1BC7
100
AcDbEntity
  8
0
 62
     0
100
AcDbLine
 10
393.7566571779266
 20
376.0789876482629
 30
0.0
 11
395.7566571779267
 21
378.0789876482629
 31
0.0
  0
LINE
  5
1BEC
330
1BC7
100
AcDbEntity
  8
0
 62
     0
100
AcDbLine
 10
395.7566571779267
 20
378.0789876482629
 30
0.0
 11
398.7566571779266
 21
381.078987648263
 31
0.0
  0
LINE
  5
1BED
330
1BC7
100
AcDbEntity
  8
0
 62
     0
100
AcDbLine
 10
390.2211232719939
 20
376.0789876482629
 30
0.0
 11
392.2211232719939
 21
378.0789876482629
 31
0.0
  0
LINE
  5
1BEE
330
1BC7
100
AcDbEntity
  8
0
 62
     0
100
AcDbLine
 10
392.2211232719939
 20
378.0789876482629
 30
0.0
 11
395.2211232719939
 21
381.078987648263
 31
0.0
  0
LINE
  5
1BEF
330
1BC7
100
AcDbEntity
  8
0
 62
     0
100
AcDbLine
 10
386.6855893660611
 20
376.0789876482629
 30
0.0
 11
388.6855893660611
 21
378.0789876482629
 31
0.0
  0
LINE
  5
1BF0
330
1BC7
100
AcDbEntity
  8
0
 62
     0
100
AcDbLine
 10
388.6855893660611
 20
378.0789876482629
 30
0.0
 11
391.6855893660612
 21
381.078987648263
 31
0.0
  0
LINE
  5
1BF1
330
1BC7
100
AcDbEntity
  8
0
 62
     0
100
AcDbLine
 10
383.1500554601284
 20
376.0789876482629
 30
0.0
 11
385.1500554601285
 21
378.0789876482629
 31
0.0
  0
LINE
  5
1BF2
330
1BC7
100
AcDbEntity
  8
0
 62
     0
100
AcDbLine
 10
385.1500554601285
 20
378.0789876482629
 30
0.0
 11
388.1500554601284
 21
381.078987648263
 31
0.0
  0
LINE
  5
1BF3
330
1BC7
100
AcDbEntity
  8
0
 62
     0
100
AcDbLine
 10
379.6145215541956
 20
376.0789876482629
 30
0.0
 11
381.6145215541957
 21
378.0789876482629
 31
0.0
  0
LINE
  5
1BF4
330
1BC7
100
AcDbEntity
  8
0
 62
     0
100
AcDbLine
 10
381.6145215541957
 20
378.0789876482629
 30
0.0
 11
384.6145215541957
 21
381.078987648263
 31
0.0
  0
LINE
  5
1BF5
330
1BC7
100
AcDbEntity
  8
0
 62
     0
100
AcDbLine
 10
376.0789876482629
 20
376.0789876482629
 30
0.0
 11
378.0789876482629
 21
378.0789876482629
 31
0.0
  0
LINE
  5
1BF6
330
1BC7
100
AcDbEntity
  8
0
 62
     0
100
AcDbLine
 10
378.0789876482629
 20
378.0789876482629
 30
0.0
 11
381.078987648263
 21
381.078987648263
 31
0.0
  0
LINE
  5
1BF7
330
1BC7
100
AcDbEntity
  8
0
 62
     0
100
AcDbLine
 10
372.5434537423301
 20
376.0789876482629
 30
0.0
 11
374.5434537423302
 21
378.0789876482629
 31
0.0
  0
LINE
  5
1BF8
330
1BC7
100
AcDbEntity
  8
0
 62
     0
100
AcDbLine
 10
374.5434537423302
 20
378.0789876482629
 30
0.0
 11
377.5434537423302
 21
381.078987648263
 31
0.0
  0
LINE
  5
1BF9
330
1BC7
100
AcDbEntity
  8
0
 62
     0
100
AcDbLine
 10
369.0079198363974
 20
376.0789876482629
 30
0.0
 11
371.0079198363975
 21
378.0789876482629
 31
0.0
  0
LINE
  5
1BFA
330
1BC7
100
AcDbEntity
  8
0
 62
     0
100
AcDbLine
 10
371.0079198363975
 20
378.0789876482629
 30
0.0
 11
374.0079198363975
 21
381.078987648263
 31
0.0
  0
LINE
  5
1BFB
330
1BC7
100
AcDbEntity
  8
0
 62
     0
100
AcDbLine
 10
365.4723859304647
 20
376.0789876482629
 30
0.0
 11
367.4723859304647
 21
378.0789876482629
 31
0.0
  0
LINE
  5
1BFC
330
1BC7
100
AcDbEntity
  8
0
 62
     0
100
AcDbLine
 10
367.4723859304647
 20
378.0789876482629
 30
0.0
 11
370.4723859304647
 21
381.078987648263
 31
0.0
  0
LINE
  5
1BFD
330
1BC7
100
AcDbEntity
  8
0
 62
     0
100
AcDbLine
 10
361.936852024532
 20
376.0789876482629
 30
0.0
 11
363.936852024532
 21
378.0789876482629
 31
0.0
  0
LINE
  5
1BFE
330
1BC7
100
AcDbEntity
  8
0
 62
     0
100
AcDbLine
 10
363.936852024532
 20
378.0789876482629
 30
0.0
 11
366.936852024532
 21
381.078987648263
 31
0.0
  0
LINE
  5
1BFF
330
1BC7
100
AcDbEntity
  8
0
 62
     0
100
AcDbLine
 10
358.4013181185992
 20
376.0789876482629
 30
0.0
 11
360.4013181185993
 21
378.0789876482629
 31
0.0
  0
LINE
  5
1C00
330
1BC7
100
AcDbEntity
  8
0
 62
     0
100
AcDbLine
 10
360.4013181185993
 20
378.0789876482629
 30
0.0
 11
363.4013181185992
 21
381.0789876482629
 31
0.0
  0
LINE
  5
1C01
330
1BC7
100
AcDbEntity
  8
0
 62
     0
100
AcDbLine
 10
354.8657842126665
 20
376.0789876482629
 30
0.0
 11
356.8657842126665
 21
378.0789876482629
 31
0.0
  0
LINE
  5
1C02
330
1BC7
100
AcDbEntity
  8
0
 62
     0
100
AcDbLine
 10
356.8657842126665
 20
378.0789876482629
 30
0.0
 11
359.8657842126665
 21
381.0789876482629
 31
0.0
  0
LINE
  5
1C03
330
1BC7
100
AcDbEntity
  8
0
 62
     0
100
AcDbLine
 10
351.3302503067337
 20
376.0789876482629
 30
0.0
 11
353.3302503067338
 21
378.0789876482629
 31
0.0
  0
LINE
  5
1C04
330
1BC7
100
AcDbEntity
  8
0
 62
     0
100
AcDbLine
 10
353.3302503067338
 20
378.0789876482629
 30
0.0
 11
356.3302503067338
 21
381.0789876482629
 31
0.0
  0
LINE
  5
1C05
330
1BC7
100
AcDbEntity
  8
0
 62
     0
100
AcDbLine
 10
347.794716400801
 20
376.0789876482629
 30
0.0
 11
349.7947164008011
 21
378.0789876482629
 31
0.0
  0
LINE
  5
1C06
330
1BC7
100
AcDbEntity
  8
0
 62
     0
100
AcDbLine
 10
349.7947164008011
 20
378.0789876482629
 30
0.0
 11
352.794716400801
 21
381.0789876482629
 31
0.0
  0
LINE
  5
1C07
330
1BC7
100
AcDbEntity
  8
0
 62
     0
100
AcDbLine
 10
344.2591824948682
 20
376.0789876482629
 30
0.0
 11
346.2591824948683
 21
378.0789876482629
 31
0.0
  0
LINE
  5
1C08
330
1BC7
100
AcDbEntity
  8
0
 62
     0
100
AcDbLine
 10
346.2591824948683
 20
378.0789876482629
 30
0.0
 11
349.2591824948683
 21
381.0789876482629
 31
0.0
  0
LINE
  5
1C09
330
1BC7
100
AcDbEntity
  8
0
 62
     0
100
AcDbLine
 10
340.7236485889356
 20
376.0789876482629
 30
0.0
 11
342.7236485889356
 21
378.0789876482629
 31
0.0
  0
LINE
  5
1C0A
330
1BC7
100
AcDbEntity
  8
0
 62
     0
100
AcDbLine
 10
342.7236485889356
 20
378.0789876482629
 30
0.0
 11
345.7236485889355
 21
381.0789876482629
 31
0.0
  0
LINE
  5
1C0B
330
1BC7
100
AcDbEntity
  8
0
 62
     0
100
AcDbLine
 10
337.1881146830028
 20
376.0789876482629
 30
0.0
 11
339.1881146830028
 21
378.0789876482629
 31
0.0
  0
LINE
  5
1C0C
330
1BC7
100
AcDbEntity
  8
0
 62
     0
100
AcDbLine
 10
339.1881146830028
 20
378.0789876482629
 30
0.0
 11
342.1881146830028
 21
381.0789876482629
 31
0.0
  0
LINE
  5
1C0D
330
1BC7
100
AcDbEntity
  8
0
 62
     0
100
AcDbLine
 10
333.65258077707
 20
376.0789876482629
 30
0.0
 11
335.65258077707
 21
378.0789876482629
 31
0.0
  0
LINE
  5
1C0E
330
1BC7
100
AcDbEntity
  8
0
 62
     0
100
AcDbLine
 10
335.65258077707
 20
378.0789876482629
 30
0.0
 11
338.6525807770701
 21
381.0789876482629
 31
0.0
  0
LINE
  5
1C0F
330
1BC7
100
AcDbEntity
  8
0
 62
     0
100
AcDbLine
 10
330.1170468711373
 20
376.0789876482629
 30
0.0
 11
332.1170468711374
 21
378.0789876482629
 31
0.0
  0
LINE
  5
1C10
330
1BC7
100
AcDbEntity
  8
0
 62
     0
100
AcDbLine
 10
332.1170468711374
 20
378.0789876482629
 30
0.0
 11
335.1170468711373
 21
381.0789876482629
 31
0.0
  0
LINE
  5
1C11
330
1BC7
100
AcDbEntity
  8
0
 62
     0
100
AcDbLine
 10
326.5815129652046
 20
376.0789876482629
 30
0.0
 11
328.5815129652046
 21
378.0789876482629
 31
0.0
  0
LINE
  5
1C12
330
1BC7
100
AcDbEntity
  8
0
 62
     0
100
AcDbLine
 10
328.5815129652046
 20
378.0789876482629
 30
0.0
 11
331.5815129652046
 21
381.0789876482629
 31
0.0
  0
LINE
  5
1C13
330
1BC7
100
AcDbEntity
  8
0
 62
     0
100
AcDbLine
 10
323.0459790592718
 20
376.0789876482629
 30
0.0
 11
325.0459790592719
 21
378.0789876482629
 31
0.0
  0
LINE
  5
1C14
330
1BC7
100
AcDbEntity
  8
0
 62
     0
100
AcDbLine
 10
325.0459790592719
 20
378.0789876482629
 30
0.0
 11
328.0459790592719
 21
381.0789876482629
 31
0.0
  0
LINE
  5
1C15
330
1BC7
100
AcDbEntity
  8
0
 62
     0
100
AcDbLine
 10
319.5104451533391
 20
376.0789876482629
 30
0.0
 11
321.5104451533391
 21
378.0789876482629
 31
0.0
  0
LINE
  5
1C16
330
1BC7
100
AcDbEntity
  8
0
 62
     0
100
AcDbLine
 10
321.5104451533391
 20
378.0789876482629
 30
0.0
 11
324.5104451533391
 21
381.0789876482629
 31
0.0
  0
LINE
  5
1C17
330
1BC7
100
AcDbEntity
  8
0
 62
     0
100
AcDbLine
 10
315.9749112474063
 20
376.0789876482629
 30
0.0
 11
317.9749112474064
 21
378.0789876482629
 31
0.0
  0
LINE
  5
1C18
330
1BC7
100
AcDbEntity
  8
0
 62
     0
100
AcDbLine
 10
317.9749112474064
 20
378.0789876482629
 30
0.0
 11
320.9749112474064
 21
381.0789876482629
 31
0.0
  0
LINE
  5
1C19
330
1BC7
100
AcDbEntity
  8
0
 62
     0
100
AcDbLine
 10
312.4393773414736
 20
376.0789876482629
 30
0.0
 11
314.4393773414736
 21
378.0789876482629
 31
0.0
  0
LINE
  5
1C1A
330
1BC7
100
AcDbEntity
  8
0
 62
     0
100
AcDbLine
 10
314.4393773414736
 20
378.0789876482629
 30
0.0
 11
317.4393773414736
 21
381.0789876482629
 31
0.0
  0
LINE
  5
1C1B
330
1BC7
100
AcDbEntity
  8
0
 62
     0
100
AcDbLine
 10
308.9038434355409
 20
376.0789876482629
 30
0.0
 11
310.9038434355409
 21
378.0789876482629
 31
0.0
  0
LINE
  5
1C1C
330
1BC7
100
AcDbEntity
  8
0
 62
     0
100
AcDbLine
 10
310.9038434355409
 20
378.0789876482629
 30
0.0
 11
313.9038434355409
 21
381.0789876482629
 31
0.0
  0
LINE
  5
1C1D
330
1BC7
100
AcDbEntity
  8
0
 62
     0
100
AcDbLine
 10
305.3683095296082
 20
376.0789876482629
 30
0.0
 11
307.3683095296082
 21
378.0789876482629
 31
0.0
  0
LINE
  5
1C1E
330
1BC7
100
AcDbEntity
  8
0
 62
     0
100
AcDbLine
 10
307.3683095296082
 20
378.0789876482629
 30
0.0
 11
310.3683095296081
 21
381.0789876482629
 31
0.0
  0
LINE
  5
1C1F
330
1BC7
100
AcDbEntity
  8
0
 62
     0
100
AcDbLine
 10
301.8327756236754
 20
376.0789876482629
 30
0.0
 11
303.8327756236754
 21
378.0789876482629
 31
0.0
  0
LINE
  5
1C20
330
1BC7
100
AcDbEntity
  8
0
 62
     0
100
AcDbLine
 10
303.8327756236754
 20
378.0789876482629
 30
0.0
 11
306.8327756236755
 21
381.0789876482629
 31
0.0
  0
LINE
  5
1C21
330
1BC7
100
AcDbEntity
  8
0
 62
     0
100
AcDbLine
 10
298.2972417177427
 20
376.0789876482629
 30
0.0
 11
300.2972417177427
 21
378.0789876482629
 31
0.0
  0
LINE
  5
1C22
330
1BC7
100
AcDbEntity
  8
0
 62
     0
100
AcDbLine
 10
300.2972417177427
 20
378.0789876482629
 30
0.0
 11
303.2972417177427
 21
381.0789876482629
 31
0.0
  0
LINE
  5
1C23
330
1BC7
100
AcDbEntity
  8
0
 62
     0
100
AcDbLine
 10
295.5007469652808
 20
376.8180268017337
 30
0.0
 11
296.76170781181
 21
378.0789876482629
 31
0.0
  0
LINE
  5
1C24
330
1BC7
100
AcDbEntity
  8
0
 62
     0
100
AcDbLine
 10
296.76170781181
 20
378.0789876482629
 30
0.0
 11
299.76170781181
 21
381.0789876482629
 31
0.0
  0
LINE
  5
1C25
330
1BC7
100
AcDbEntity
  8
0
 62
     0
100
AcDbLine
 10
295.5007469652808
 20
380.3535607076664
 30
0.0
 11
296.2261739058772
 21
381.0789876482629
 31
0.0
  0
LINE
  5
1C26
330
1BC7
100
AcDbEntity
  8
0
 62
     0
100
AcDbLine
 10
322.111996237254
 20
269.0789876482629
 30
0.0
 11
325.1119962372539
 21
272.0789876482629
 31
0.0
  0
LINE
  5
1C27
330
1BC7
100
AcDbEntity
  8
0
 62
     0
100
AcDbLine
 10
431.111996237254
 20
378.0789876482629
 30
0.0
 11
434.1119962372539
 21
381.078987648263
 31
0.0
  0
LINE
  5
1C28
330
1BC7
100
AcDbEntity
  8
0
 62
     0
100
AcDbLine
 10
325.1119962372539
 20
272.0789876482629
 30
0.0
 11
327.1119962372539
 21
274.0789876482629
 31
0.0
  0
LINE
  5
1C29
330
1BC7
100
AcDbEntity
  8
0
 62
     0
100
AcDbLine
 10
429.111996237254
 20
376.0789876482629
 30
0.0
 11
431.111996237254
 21
378.0789876482629
 31
0.0
  0
LINE
  5
1C2A
330
1BC7
100
AcDbEntity
  8
0
 62
     0
100
AcDbLine
 10
325.6475301431867
 20
269.0789876482629
 30
0.0
 11
328.6475301431867
 21
272.0789876482629
 31
0.0
  0
LINE
  5
1C2B
330
1BC7
100
AcDbEntity
  8
0
 62
     0
100
AcDbLine
 10
434.6475301431867
 20
378.0789876482629
 30
0.0
 11
437.6475301431868
 21
381.078987648263
 31
0.0
  0
LINE
  5
1C2C
330
1BC7
100
AcDbEntity
  8
0
 62
     0
100
AcDbLine
 10
328.6475301431867
 20
272.0789876482629
 30
0.0
 11
330.6475301431867
 21
274.0789876482629
 31
0.0
  0
LINE
  5
1C2D
330
1BC7
100
AcDbEntity
  8
0
 62
     0
100
AcDbLine
 10
432.6475301431867
 20
376.0789876482629
 30
0.0
 11
434.6475301431867
 21
378.0789876482629
 31
0.0
  0
LINE
  5
1C2E
330
1BC7
100
AcDbEntity
  8
0
 62
     0
100
AcDbLine
 10
329.1830640491194
 20
269.0789876482629
 30
0.0
 11
332.1830640491194
 21
272.0789876482629
 31
0.0
  0
LINE
  5
1C2F
330
1BC7
100
AcDbEntity
  8
0
 62
     0
100
AcDbLine
 10
438.1830640491195
 20
378.0789876482629
 30
0.0
 11
441.1830640491195
 21
381.078987648263
 31
0.0
  0
LINE
  5
1C30
330
1BC7
100
AcDbEntity
  8
0
 62
     0
100
AcDbLine
 10
332.1830640491194
 20
272.0789876482629
 30
0.0
 11
334.1830640491194
 21
274.0789876482629
 31
0.0
  0
LINE
  5
1C31
330
1BC7
100
AcDbEntity
  8
0
 62
     0
100
AcDbLine
 10
436.1830640491194
 20
376.0789876482629
 30
0.0
 11
438.1830640491195
 21
378.0789876482629
 31
0.0
  0
LINE
  5
1C32
330
1BC7
100
AcDbEntity
  8
0
 62
     0
100
AcDbLine
 10
332.7185979550522
 20
269.0789876482629
 30
0.0
 11
335.7185979550521
 21
272.0789876482629
 31
0.0
  0
LINE
  5
1C33
330
1BC7
100
AcDbEntity
  8
0
 62
     0
100
AcDbLine
 10
441.7185979550522
 20
378.0789876482629
 30
0.0
 11
444.7185979550522
 21
381.078987648263
 31
0.0
  0
LINE
  5
1C34
330
1BC7
100
AcDbEntity
  8
0
 62
     0
100
AcDbLine
 10
335.7185979550521
 20
272.0789876482629
 30
0.0
 11
337.7185979550522
 21
274.0789876482629
 31
0.0
  0
LINE
  5
1C35
330
1BC7
100
AcDbEntity
  8
0
 62
     0
100
AcDbLine
 10
439.7185979550521
 20
376.0789876482629
 30
0.0
 11
441.7185979550522
 21
378.0789876482629
 31
0.0
  0
LINE
  5
1C36
330
1BC7
100
AcDbEntity
  8
0
 62
     0
100
AcDbLine
 10
336.2541318609849
 20
269.0789876482629
 30
0.0
 11
339.2541318609849
 21
272.0789876482629
 31
0.0
  0
LINE
  5
1C37
330
1BC7
100
AcDbEntity
  8
0
 62
     0
100
AcDbLine
 10
445.254131860985
 20
378.0789876482629
 30
0.0
 11
448.2541318609849
 21
381.078987648263
 31
0.0
  0
LINE
  5
1C38
330
1BC7
100
AcDbEntity
  8
0
 62
     0
100
AcDbLine
 10
339.2541318609849
 20
272.0789876482629
 30
0.0
 11
341.2541318609849
 21
274.0789876482629
 31
0.0
  0
LINE
  5
1C39
330
1BC7
100
AcDbEntity
  8
0
 62
     0
100
AcDbLine
 10
443.2541318609849
 20
376.0789876482629
 30
0.0
 11
445.254131860985
 21
378.0789876482629
 31
0.0
  0
LINE
  5
1C3A
330
1BC7
100
AcDbEntity
  8
0
 62
     0
100
AcDbLine
 10
339.7896657669177
 20
269.0789876482629
 30
0.0
 11
342.7896657669176
 21
272.0789876482629
 31
0.0
  0
LINE
  5
1C3B
330
1BC7
100
AcDbEntity
  8
0
 62
     0
100
AcDbLine
 10
448.7896657669177
 20
378.0789876482629
 30
0.0
 11
451.7896657669177
 21
381.078987648263
 31
0.0
  0
LINE
  5
1C3C
330
1BC7
100
AcDbEntity
  8
0
 62
     0
100
AcDbLine
 10
342.7896657669176
 20
272.0789876482629
 30
0.0
 11
344.7896657669176
 21
274.0789876482629
 31
0.0
  0
LINE
  5
1C3D
330
1BC7
100
AcDbEntity
  8
0
 62
     0
100
AcDbLine
 10
446.7896657669176
 20
376.0789876482629
 30
0.0
 11
448.7896657669177
 21
378.0789876482629
 31
0.0
  0
LINE
  5
1C3E
330
1BC7
100
AcDbEntity
  8
0
 62
     0
100
AcDbLine
 10
343.3251996728504
 20
269.0789876482629
 30
0.0
 11
346.3251996728504
 21
272.0789876482629
 31
0.0
  0
LINE
  5
1C3F
330
1BC7
100
AcDbEntity
  8
0
 62
     0
100
AcDbLine
 10
452.3251996728505
 20
378.0789876482629
 30
0.0
 11
455.3251996728504
 21
381.078987648263
 31
0.0
  0
LINE
  5
1C40
330
1BC7
100
AcDbEntity
  8
0
 62
     0
100
AcDbLine
 10
346.3251996728504
 20
272.0789876482629
 30
0.0
 11
348.3251996728504
 21
274.0789876482629
 31
0.0
  0
LINE
  5
1C41
330
1BC7
100
AcDbEntity
  8
0
 62
     0
100
AcDbLine
 10
450.3251996728503
 20
376.0789876482629
 30
0.0
 11
452.3251996728505
 21
378.0789876482629
 31
0.0
  0
LINE
  5
1C42
330
1BC7
100
AcDbEntity
  8
0
 62
     0
100
AcDbLine
 10
346.8607335787831
 20
269.0789876482629
 30
0.0
 11
349.8607335787831
 21
272.0789876482629
 31
0.0
  0
LINE
  5
1C43
330
1BC7
100
AcDbEntity
  8
0
 62
     0
100
AcDbLine
 10
455.8607335787832
 20
378.0789876482629
 30
0.0
 11
458.8607335787831
 21
381.078987648263
 31
0.0
  0
LINE
  5
1C44
330
1BC7
100
AcDbEntity
  8
0
 62
     0
100
AcDbLine
 10
349.8607335787831
 20
272.0789876482629
 30
0.0
 11
351.8607335787831
 21
274.0789876482629
 31
0.0
  0
LINE
  5
1C45
330
1BC7
100
AcDbEntity
  8
0
 62
     0
100
AcDbLine
 10
453.8607335787831
 20
376.0789876482629
 30
0.0
 11
455.8607335787832
 21
378.0789876482629
 31
0.0
  0
LINE
  5
1C46
330
1BC7
100
AcDbEntity
  8
0
 62
     0
100
AcDbLine
 10
350.3962674847159
 20
269.0789876482629
 30
0.0
 11
353.3962674847158
 21
272.0789876482629
 31
0.0
  0
LINE
  5
1C47
330
1BC7
100
AcDbEntity
  8
0
 62
     0
100
AcDbLine
 10
459.3962674847159
 20
378.0789876482629
 30
0.0
 11
460.5007469652808
 21
379.1834671288278
 31
0.0
  0
LINE
  5
1C48
330
1BC7
100
AcDbEntity
  8
0
 62
     0
100
AcDbLine
 10
353.3962674847158
 20
272.0789876482629
 30
0.0
 11
355.3962674847158
 21
274.0789876482629
 31
0.0
  0
LINE
  5
1C49
330
1BC7
100
AcDbEntity
  8
0
 62
     0
100
AcDbLine
 10
457.3962674847158
 20
376.0789876482629
 30
0.0
 11
459.3962674847159
 21
378.0789876482629
 31
0.0
  0
LINE
  5
1C4A
330
1BC7
100
AcDbEntity
  8
0
 62
     0
100
AcDbLine
 10
353.9318013906486
 20
269.0789876482629
 30
0.0
 11
356.9318013906486
 21
272.0789876482629
 31
0.0
  0
LINE
  5
1C4B
330
1BC7
100
AcDbEntity
  8
0
 62
     0
100
AcDbLine
 10
356.9318013906486
 20
272.0789876482629
 30
0.0
 11
358.9318013906486
 21
274.0789876482629
 31
0.0
  0
LINE
  5
1C4C
330
1BC7
100
AcDbEntity
  8
0
 62
     0
100
AcDbLine
 10
357.4673352965813
 20
269.0789876482629
 30
0.0
 11
360.4673352965813
 21
272.0789876482629
 31
0.0
  0
LINE
  5
1C4D
330
1BC7
100
AcDbEntity
  8
0
 62
     0
100
AcDbLine
 10
360.4673352965813
 20
272.0789876482629
 30
0.0
 11
362.4673352965813
 21
274.0789876482629
 31
0.0
  0
LINE
  5
1C4E
330
1BC7
100
AcDbEntity
  8
0
 62
     0
100
AcDbLine
 10
361.0028692025141
 20
269.0789876482629
 30
0.0
 11
364.002869202514
 21
272.0789876482629
 31
0.0
  0
LINE
  5
1C4F
330
1BC7
100
AcDbEntity
  8
0
 62
     0
100
AcDbLine
 10
364.002869202514
 20
272.0789876482629
 30
0.0
 11
366.002869202514
 21
274.0789876482629
 31
0.0
  0
LINE
  5
1C50
330
1BC7
100
AcDbEntity
  8
0
 62
     0
100
AcDbLine
 10
364.5384031084468
 20
269.0789876482629
 30
0.0
 11
367.5384031084468
 21
272.0789876482629
 31
0.0
  0
LINE
  5
1C51
330
1BC7
100
AcDbEntity
  8
0
 62
     0
100
AcDbLine
 10
367.5384031084468
 20
272.0789876482629
 30
0.0
 11
369.5384031084468
 21
274.0789876482629
 31
0.0
  0
LINE
  5
1C52
330
1BC7
100
AcDbEntity
  8
0
 62
     0
100
AcDbLine
 10
368.0739370143796
 20
269.0789876482629
 30
0.0
 11
371.0739370143795
 21
272.0789876482629
 31
0.0
  0
LINE
  5
1C53
330
1BC7
100
AcDbEntity
  8
0
 62
     0
100
AcDbLine
 10
371.0739370143795
 20
272.0789876482629
 30
0.0
 11
373.0739370143795
 21
274.0789876482629
 31
0.0
  0
LINE
  5
1C54
330
1BC7
100
AcDbEntity
  8
0
 62
     0
100
AcDbLine
 10
371.6094709203123
 20
269.0789876482629
 30
0.0
 11
374.6094709203123
 21
272.0789876482629
 31
0.0
  0
LINE
  5
1C55
330
1BC7
100
AcDbEntity
  8
0
 62
     0
100
AcDbLine
 10
374.6094709203123
 20
272.0789876482629
 30
0.0
 11
376.6094709203123
 21
274.0789876482629
 31
0.0
  0
LINE
  5
1C56
330
1BC7
100
AcDbEntity
  8
0
 62
     0
100
AcDbLine
 10
375.1450048262451
 20
269.0789876482629
 30
0.0
 11
378.145004826245
 21
272.0789876482629
 31
0.0
  0
LINE
  5
1C57
330
1BC7
100
AcDbEntity
  8
0
 62
     0
100
AcDbLine
 10
378.145004826245
 20
272.0789876482629
 30
0.0
 11
380.145004826245
 21
274.0789876482629
 31
0.0
  0
LINE
  5
1C58
330
1BC7
100
AcDbEntity
  8
0
 62
     0
100
AcDbLine
 10
378.6805387321777
 20
269.0789876482629
 30
0.0
 11
381.6805387321778
 21
272.0789876482629
 31
0.0
  0
LINE
  5
1C59
330
1BC7
100
AcDbEntity
  8
0
 62
     0
100
AcDbLine
 10
381.6805387321778
 20
272.0789876482629
 30
0.0
 11
383.6805387321777
 21
274.0789876482629
 31
0.0
  0
LINE
  5
1C5A
330
1BC7
100
AcDbEntity
  8
0
 62
     0
100
AcDbLine
 10
382.2160726381105
 20
269.0789876482629
 30
0.0
 11
385.2160726381105
 21
272.0789876482629
 31
0.0
  0
LINE
  5
1C5B
330
1BC7
100
AcDbEntity
  8
0
 62
     0
100
AcDbLine
 10
385.2160726381105
 20
272.0789876482629
 30
0.0
 11
387.2160726381105
 21
274.0789876482629
 31
0.0
  0
LINE
  5
1C5C
330
1BC7
100
AcDbEntity
  8
0
 62
     0
100
AcDbLine
 10
385.7516065440433
 20
269.0789876482629
 30
0.0
 11
388.7516065440432
 21
272.0789876482629
 31
0.0
  0
LINE
  5
1C5D
330
1BC7
100
AcDbEntity
  8
0
 62
     0
100
AcDbLine
 10
388.7516065440432
 20
272.0789876482629
 30
0.0
 11
390.7516065440432
 21
274.0789876482629
 31
0.0
  0
LINE
  5
1C5E
330
1BC7
100
AcDbEntity
  8
0
 62
     0
100
AcDbLine
 10
389.287140449976
 20
269.0789876482629
 30
0.0
 11
392.2871404499759
 21
272.0789876482629
 31
0.0
  0
LINE
  5
1C5F
330
1BC7
100
AcDbEntity
  8
0
 62
     0
100
AcDbLine
 10
392.2871404499759
 20
272.0789876482629
 30
0.0
 11
394.2871404499759
 21
274.0789876482629
 31
0.0
  0
LINE
  5
1C60
330
1BC7
100
AcDbEntity
  8
0
 62
     0
100
AcDbLine
 10
392.8226743559087
 20
269.0789876482629
 30
0.0
 11
395.8226743559087
 21
272.0789876482629
 31
0.0
  0
LINE
  5
1C61
330
1BC7
100
AcDbEntity
  8
0
 62
     0
100
AcDbLine
 10
395.8226743559087
 20
272.0789876482629
 30
0.0
 11
397.8226743559087
 21
274.0789876482629
 31
0.0
  0
LINE
  5
1C62
330
1BC7
100
AcDbEntity
  8
0
 62
     0
100
AcDbLine
 10
396.3582082618415
 20
269.0789876482629
 30
0.0
 11
399.3582082618414
 21
272.0789876482629
 31
0.0
  0
LINE
  5
1C63
330
1BC7
100
AcDbEntity
  8
0
 62
     0
100
AcDbLine
 10
399.3582082618414
 20
272.0789876482629
 30
0.0
 11
401.3582082618413
 21
274.0789876482629
 31
0.0
  0
LINE
  5
1C64
330
1BC7
100
AcDbEntity
  8
0
 62
     0
100
AcDbLine
 10
399.8937421677742
 20
269.0789876482629
 30
0.0
 11
402.8937421677741
 21
272.0789876482629
 31
0.0
  0
LINE
  5
1C65
330
1BC7
100
AcDbEntity
  8
0
 62
     0
100
AcDbLine
 10
402.8937421677741
 20
272.0789876482629
 30
0.0
 11
404.8937421677741
 21
274.0789876482629
 31
0.0
  0
LINE
  5
1C66
330
1BC7
100
AcDbEntity
  8
0
 62
     0
100
AcDbLine
 10
403.4292760737069
 20
269.0789876482629
 30
0.0
 11
406.4292760737068
 21
272.0789876482629
 31
0.0
  0
LINE
  5
1C67
330
1BC7
100
AcDbEntity
  8
0
 62
     0
100
AcDbLine
 10
406.4292760737068
 20
272.0789876482629
 30
0.0
 11
408.4292760737069
 21
274.0789876482629
 31
0.0
  0
LINE
  5
1C68
330
1BC7
100
AcDbEntity
  8
0
 62
     0
100
AcDbLine
 10
406.9648099796396
 20
269.0789876482629
 30
0.0
 11
409.9648099796396
 21
272.0789876482629
 31
0.0
  0
LINE
  5
1C69
330
1BC7
100
AcDbEntity
  8
0
 62
     0
100
AcDbLine
 10
409.9648099796396
 20
272.0789876482629
 30
0.0
 11
411.9648099796395
 21
274.0789876482629
 31
0.0
  0
LINE
  5
1C6A
330
1BC7
100
AcDbEntity
  8
0
 62
     0
100
AcDbLine
 10
410.5003438855724
 20
269.0789876482629
 30
0.0
 11
413.5003438855723
 21
272.0789876482629
 31
0.0
  0
LINE
  5
1C6B
330
1BC7
100
AcDbEntity
  8
0
 62
     0
100
AcDbLine
 10
413.5003438855723
 20
272.0789876482629
 30
0.0
 11
415.5003438855723
 21
274.0789876482629
 31
0.0
  0
LINE
  5
1C6C
330
1BC7
100
AcDbEntity
  8
0
 62
     0
100
AcDbLine
 10
414.0358777915051
 20
269.0789876482629
 30
0.0
 11
417.0358777915051
 21
272.0789876482629
 31
0.0
  0
LINE
  5
1C6D
330
1BC7
100
AcDbEntity
  8
0
 62
     0
100
AcDbLine
 10
417.0358777915051
 20
272.0789876482629
 30
0.0
 11
419.035877791505
 21
274.0789876482629
 31
0.0
  0
LINE
  5
1C6E
330
1BC7
100
AcDbEntity
  8
0
 62
     0
100
AcDbLine
 10
417.5714116974378
 20
269.0789876482629
 30
0.0
 11
420.5714116974378
 21
272.0789876482629
 31
0.0
  0
LINE
  5
1C6F
330
1BC7
100
AcDbEntity
  8
0
 62
     0
100
AcDbLine
 10
420.5714116974378
 20
272.0789876482629
 30
0.0
 11
422.5714116974378
 21
274.0789876482629
 31
0.0
  0
LINE
  5
1C70
330
1BC7
100
AcDbEntity
  8
0
 62
     0
100
AcDbLine
 10
421.1069456033706
 20
269.0789876482629
 30
0.0
 11
424.1069456033706
 21
272.0789876482629
 31
0.0
  0
LINE
  5
1C71
330
1BC7
100
AcDbEntity
  8
0
 62
     0
100
AcDbLine
 10
424.1069456033706
 20
272.0789876482629
 30
0.0
 11
426.1069456033705
 21
274.0789876482629
 31
0.0
  0
LINE
  5
1C72
330
1BC7
100
AcDbEntity
  8
0
 62
     0
100
AcDbLine
 10
424.6424795093033
 20
269.0789876482629
 30
0.0
 11
427.6424795093033
 21
272.0789876482629
 31
0.0
  0
LINE
  5
1C73
330
1BC7
100
AcDbEntity
  8
0
 62
     0
100
AcDbLine
 10
427.6424795093033
 20
272.0789876482629
 30
0.0
 11
429.6424795093033
 21
274.0789876482629
 31
0.0
  0
LINE
  5
1C74
330
1BC7
100
AcDbEntity
  8
0
 62
     0
100
AcDbLine
 10
428.178013415236
 20
269.0789876482629
 30
0.0
 11
431.178013415236
 21
272.0789876482629
 31
0.0
  0
LINE
  5
1C75
330
1BC7
100
AcDbEntity
  8
0
 62
     0
100
AcDbLine
 10
431.178013415236
 20
272.0789876482629
 30
0.0
 11
433.178013415236
 21
274.0789876482629
 31
0.0
  0
LINE
  5
1C76
330
1BC7
100
AcDbEntity
  8
0
 62
     0
100
AcDbLine
 10
431.7135473211688
 20
269.0789876482629
 30
0.0
 11
434.7135473211688
 21
272.0789876482629
 31
0.0
  0
LINE
  5
1C77
330
1BC7
100
AcDbEntity
  8
0
 62
     0
100
AcDbLine
 10
434.7135473211688
 20
272.0789876482629
 30
0.0
 11
436.7135473211687
 21
274.0789876482628
 31
0.0
  0
LINE
  5
1C78
330
1BC7
100
AcDbEntity
  8
0
 62
     0
100
AcDbLine
 10
435.2490812271015
 20
269.0789876482629
 30
0.0
 11
438.2490812271015
 21
272.0789876482629
 31
0.0
  0
LINE
  5
1C79
330
1BC7
100
AcDbEntity
  8
0
 62
     0
100
AcDbLine
 10
438.2490812271015
 20
272.0789876482629
 30
0.0
 11
440.2490812271015
 21
274.0789876482628
 31
0.0
  0
LINE
  5
1C7A
330
1BC7
100
AcDbEntity
  8
0
 62
     0
100
AcDbLine
 10
438.7846151330343
 20
269.0789876482629
 30
0.0
 11
441.7846151330342
 21
272.0789876482629
 31
0.0
  0
LINE
  5
1C7B
330
1BC7
100
AcDbEntity
  8
0
 62
     0
100
AcDbLine
 10
441.7846151330342
 20
272.0789876482629
 30
0.0
 11
443.7846151330342
 21
274.0789876482628
 31
0.0
  0
LINE
  5
1C7C
330
1BC7
100
AcDbEntity
  8
0
 62
     0
100
AcDbLine
 10
442.320149038967
 20
269.0789876482629
 30
0.0
 11
445.320149038967
 21
272.0789876482629
 31
0.0
  0
LINE
  5
1C7D
330
1BC7
100
AcDbEntity
  8
0
 62
     0
100
AcDbLine
 10
445.320149038967
 20
272.0789876482629
 30
0.0
 11
447.3201490389668
 21
274.0789876482628
 31
0.0
  0
LINE
  5
1C7E
330
1BC7
100
AcDbEntity
  8
0
 62
     0
100
AcDbLine
 10
445.8556829448997
 20
269.0789876482629
 30
0.0
 11
448.8556829448997
 21
272.0789876482629
 31
0.0
  0
LINE
  5
1C7F
330
1BC7
100
AcDbEntity
  8
0
 62
     0
100
AcDbLine
 10
448.8556829448997
 20
272.0789876482629
 30
0.0
 11
450.8556829448997
 21
274.0789876482628
 31
0.0
  0
LINE
  5
1C80
330
1BC7
100
AcDbEntity
  8
0
 62
     0
100
AcDbLine
 10
449.3912168508325
 20
269.0789876482629
 30
0.0
 11
452.3912168508324
 21
272.0789876482629
 31
0.0
  0
LINE
  5
1C81
330
1BC7
100
AcDbEntity
  8
0
 62
     0
100
AcDbLine
 10
452.3912168508324
 20
272.0789876482629
 30
0.0
 11
454.3912168508324
 21
274.0789876482628
 31
0.0
  0
LINE
  5
1C82
330
1BC7
100
AcDbEntity
  8
0
 62
     0
100
AcDbLine
 10
452.9267507567651
 20
269.0789876482629
 30
0.0
 11
455.9267507567652
 21
272.0789876482629
 31
0.0
  0
LINE
  5
1C83
330
1BC7
100
AcDbEntity
  8
0
 62
     0
100
AcDbLine
 10
455.9267507567652
 20
272.0789876482629
 30
0.0
 11
457.9267507567651
 21
274.0789876482628
 31
0.0
  0
LINE
  5
1C84
330
1BC7
100
AcDbEntity
  8
0
 62
     0
100
AcDbLine
 10
456.462284662698
 20
269.0789876482629
 30
0.0
 11
459.4622846626979
 21
272.0789876482629
 31
0.0
  0
LINE
  5
1C85
330
1BC7
100
AcDbEntity
  8
0
 62
     0
100
AcDbLine
 10
459.4622846626979
 20
272.0789876482629
 30
0.0
 11
460.5007469652807
 21
273.1174499508457
 31
0.0
  0
LINE
  5
1C86
330
1BC7
100
AcDbEntity
  8
0
 62
     0
100
AcDbLine
 10
459.9978185686307
 20
269.0789876482629
 30
0.0
 11
460.5007469652808
 21
269.5819160449131
 31
0.0
  0
LINE
  5
1C87
330
1BC7
100
AcDbEntity
  8
0
 62
     0
100
AcDbLine
 10
430.9567257264189
 20
269.0789876482629
 30
0.0
 11
427.956725726419
 21
272.0789876482629
 31
0.0
  0
LINE
  5
1C88
330
1BC7
100
AcDbEntity
  8
0
 62
     0
100
AcDbLine
 10
321.956725726419
 20
378.0789876482629
 30
0.0
 11
318.9567257264191
 21
381.0789876482629
 31
0.0
  0
LINE
  5
1C89
330
1BC7
100
AcDbEntity
  8
0
 62
     0
100
AcDbLine
 10
427.956725726419
 20
272.0789876482629
 30
0.0
 11
425.9567257264191
 21
274.0789876482628
 31
0.0
  0
LINE
  5
1C8A
330
1BC7
100
AcDbEntity
  8
0
 62
     0
100
AcDbLine
 10
323.956725726419
 20
376.0789876482629
 30
0.0
 11
321.956725726419
 21
378.0789876482629
 31
0.0
  0
LINE
  5
1C8B
330
1BC7
100
AcDbEntity
  8
0
 62
     0
100
AcDbLine
 10
427.4211918204862
 20
269.0789876482629
 30
0.0
 11
424.4211918204863
 21
272.0789876482629
 31
0.0
  0
LINE
  5
1C8C
330
1BC7
100
AcDbEntity
  8
0
 62
     0
100
AcDbLine
 10
318.4211918204863
 20
378.0789876482629
 30
0.0
 11
315.4211918204863
 21
381.0789876482629
 31
0.0
  0
LINE
  5
1C8D
330
1BC7
100
AcDbEntity
  8
0
 62
     0
100
AcDbLine
 10
424.4211918204863
 20
272.0789876482629
 30
0.0
 11
422.4211918204863
 21
274.0789876482628
 31
0.0
  0
LINE
  5
1C8E
330
1BC7
100
AcDbEntity
  8
0
 62
     0
100
AcDbLine
 10
320.4211918204864
 20
376.0789876482629
 30
0.0
 11
318.4211918204863
 21
378.0789876482629
 31
0.0
  0
LINE
  5
1C8F
330
1BC7
100
AcDbEntity
  8
0
 62
     0
100
AcDbLine
 10
423.8856579145535
 20
269.0789876482629
 30
0.0
 11
420.8856579145535
 21
272.0789876482629
 31
0.0
  0
LINE
  5
1C90
330
1BC7
100
AcDbEntity
  8
0
 62
     0
100
AcDbLine
 10
314.8856579145536
 20
378.0789876482629
 30
0.0
 11
311.8856579145536
 21
381.0789876482629
 31
0.0
  0
LINE
  5
1C91
330
1BC7
100
AcDbEntity
  8
0
 62
     0
100
AcDbLine
 10
420.8856579145535
 20
272.0789876482629
 30
0.0
 11
418.8856579145537
 21
274.0789876482629
 31
0.0
  0
LINE
  5
1C92
330
1BC7
100
AcDbEntity
  8
0
 62
     0
100
AcDbLine
 10
316.8856579145536
 20
376.0789876482629
 30
0.0
 11
314.8856579145536
 21
378.0789876482629
 31
0.0
  0
LINE
  5
1C93
330
1BC7
100
AcDbEntity
  8
0
 62
     0
100
AcDbLine
 10
420.3501240086207
 20
269.0789876482629
 30
0.0
 11
417.3501240086208
 21
272.0789876482629
 31
0.0
  0
LINE
  5
1C94
330
1BC7
100
AcDbEntity
  8
0
 62
     0
100
AcDbLine
 10
311.3501240086208
 20
378.0789876482629
 30
0.0
 11
308.3501240086208
 21
381.0789876482629
 31
0.0
  0
LINE
  5
1C95
330
1BC7
100
AcDbEntity
  8
0
 62
     0
100
AcDbLine
 10
417.3501240086208
 20
272.0789876482629
 30
0.0
 11
415.3501240086209
 21
274.0789876482629
 31
0.0
  0
LINE
  5
1C96
330
1BC7
100
AcDbEntity
  8
0
 62
     0
100
AcDbLine
 10
313.3501240086209
 20
376.0789876482629
 30
0.0
 11
311.3501240086208
 21
378.0789876482629
 31
0.0
  0
LINE
  5
1C97
330
1BC7
100
AcDbEntity
  8
0
 62
     0
100
AcDbLine
 10
416.814590102688
 20
269.0789876482629
 30
0.0
 11
413.8145901026881
 21
272.0789876482629
 31
0.0
  0
LINE
  5
1C98
330
1BC7
100
AcDbEntity
  8
0
 62
     0
100
AcDbLine
 10
307.8145901026881
 20
378.0789876482629
 30
0.0
 11
304.8145901026881
 21
381.0789876482629
 31
0.0
  0
LINE
  5
1C99
330
1BC7
100
AcDbEntity
  8
0
 62
     0
100
AcDbLine
 10
413.8145901026881
 20
272.0789876482629
 30
0.0
 11
411.8145901026881
 21
274.0789876482629
 31
0.0
  0
LINE
  5
1C9A
330
1BC7
100
AcDbEntity
  8
0
 62
     0
100
AcDbLine
 10
309.8145901026881
 20
376.0789876482629
 30
0.0
 11
307.8145901026881
 21
378.0789876482629
 31
0.0
  0
LINE
  5
1C9B
330
1BC7
100
AcDbEntity
  8
0
 62
     0
100
AcDbLine
 10
413.2790561967553
 20
269.0789876482629
 30
0.0
 11
410.2790561967553
 21
272.0789876482629
 31
0.0
  0
LINE
  5
1C9C
330
1BC7
100
AcDbEntity
  8
0
 62
     0
100
AcDbLine
 10
304.2790561967553
 20
378.0789876482629
 30
0.0
 11
301.2790561967553
 21
381.0789876482629
 31
0.0
  0
LINE
  5
1C9D
330
1BC7
100
AcDbEntity
  8
0
 62
     0
100
AcDbLine
 10
410.2790561967553
 20
272.0789876482629
 30
0.0
 11
408.2790561967554
 21
274.0789876482629
 31
0.0
  0
LINE
  5
1C9E
330
1BC7
100
AcDbEntity
  8
0
 62
     0
100
AcDbLine
 10
306.2790561967554
 20
376.0789876482629
 30
0.0
 11
304.2790561967553
 21
378.0789876482629
 31
0.0
  0
LINE
  5
1C9F
330
1BC7
100
AcDbEntity
  8
0
 62
     0
100
AcDbLine
 10
409.7435222908226
 20
269.0789876482629
 30
0.0
 11
406.7435222908226
 21
272.0789876482629
 31
0.0
  0
LINE
  5
1CA0
330
1BC7
100
AcDbEntity
  8
0
 62
     0
100
AcDbLine
 10
300.7435222908227
 20
378.0789876482629
 30
0.0
 11
297.7435222908227
 21
381.0789876482629
 31
0.0
  0
LINE
  5
1CA1
330
1BC7
100
AcDbEntity
  8
0
 62
     0
100
AcDbLine
 10
406.7435222908226
 20
272.0789876482629
 30
0.0
 11
404.7435222908227
 21
274.0789876482629
 31
0.0
  0
LINE
  5
1CA2
330
1BC7
100
AcDbEntity
  8
0
 62
     0
100
AcDbLine
 10
302.7435222908227
 20
376.0789876482629
 30
0.0
 11
300.7435222908227
 21
378.0789876482629
 31
0.0
  0
LINE
  5
1CA3
330
1BC7
100
AcDbEntity
  8
0
 62
     0
100
AcDbLine
 10
406.2079883848899
 20
269.0789876482629
 30
0.0
 11
403.2079883848899
 21
272.0789876482629
 31
0.0
  0
LINE
  5
1CA4
330
1BC7
100
AcDbEntity
  8
0
 62
     0
100
AcDbLine
 10
297.20798838489
 20
378.0789876482629
 30
0.0
 11
295.5007469652808
 21
379.7862290678721
 31
0.0
  0
LINE
  5
1CA5
330
1BC7
100
AcDbEntity
  8
0
 62
     0
100
AcDbLine
 10
403.2079883848899
 20
272.0789876482629
 30
0.0
 11
401.20798838489
 21
274.0789876482629
 31
0.0
  0
LINE
  5
1CA6
330
1BC7
100
AcDbEntity
  8
0
 62
     0
100
AcDbLine
 10
299.20798838489
 20
376.0789876482629
 30
0.0
 11
297.20798838489
 21
378.0789876482629
 31
0.0
  0
LINE
  5
1CA7
330
1BC7
100
AcDbEntity
  8
0
 62
     0
100
AcDbLine
 10
402.6724544789572
 20
269.0789876482629
 30
0.0
 11
399.6724544789572
 21
272.0789876482629
 31
0.0
  0
LINE
  5
1CA8
330
1BC7
100
AcDbEntity
  8
0
 62
     0
100
AcDbLine
 10
295.6724544789572
 20
376.0789876482629
 30
0.0
 11
295.5007469652808
 21
376.2506951619394
 31
0.0
  0
LINE
  5
1CA9
330
1BC7
100
AcDbEntity
  8
0
 62
     0
100
AcDbLine
 10
399.6724544789572
 20
272.0789876482629
 30
0.0
 11
397.6724544789573
 21
274.0789876482629
 31
0.0
  0
LINE
  5
1CAA
330
1BC7
100
AcDbEntity
  8
0
 62
     0
100
AcDbLine
 10
399.1369205730245
 20
269.0789876482629
 30
0.0
 11
396.1369205730245
 21
272.0789876482629
 31
0.0
  0
LINE
  5
1CAB
330
1BC7
100
AcDbEntity
  8
0
 62
     0
100
AcDbLine
 10
396.1369205730245
 20
272.0789876482629
 30
0.0
 11
394.1369205730246
 21
274.0789876482629
 31
0.0
  0
LINE
  5
1CAC
330
1BC7
100
AcDbEntity
  8
0
 62
     0
100
AcDbLine
 10
395.6013866670917
 20
269.0789876482629
 30
0.0
 11
392.6013866670917
 21
272.0789876482629
 31
0.0
  0
LINE
  5
1CAD
330
1BC7
100
AcDbEntity
  8
0
 62
     0
100
AcDbLine
 10
392.6013866670917
 20
272.0789876482629
 30
0.0
 11
390.6013866670918
 21
274.0789876482629
 31
0.0
  0
LINE
  5
1CAE
330
1BC7
100
AcDbEntity
  8
0
 62
     0
100
AcDbLine
 10
392.065852761159
 20
269.0789876482629
 30
0.0
 11
389.065852761159
 21
272.0789876482629
 31
0.0
  0
LINE
  5
1CAF
330
1BC7
100
AcDbEntity
  8
0
 62
     0
100
AcDbLine
 10
389.065852761159
 20
272.0789876482629
 30
0.0
 11
387.0658527611591
 21
274.0789876482629
 31
0.0
  0
LINE
  5
1CB0
330
1BC7
100
AcDbEntity
  8
0
 62
     0
100
AcDbLine
 10
388.5303188552263
 20
269.0789876482629
 30
0.0
 11
385.5303188552263
 21
272.0789876482629
 31
0.0
  0
LINE
  5
1CB1
330
1BC7
100
AcDbEntity
  8
0
 62
     0
100
AcDbLine
 10
385.5303188552263
 20
272.0789876482629
 30
0.0
 11
383.5303188552263
 21
274.0789876482629
 31
0.0
  0
LINE
  5
1CB2
330
1BC7
100
AcDbEntity
  8
0
 62
     0
100
AcDbLine
 10
384.9947849492935
 20
269.0789876482629
 30
0.0
 11
381.9947849492935
 21
272.0789876482629
 31
0.0
  0
LINE
  5
1CB3
330
1BC7
100
AcDbEntity
  8
0
 62
     0
100
AcDbLine
 10
381.9947849492935
 20
272.0789876482629
 30
0.0
 11
379.9947849492936
 21
274.0789876482629
 31
0.0
  0
LINE
  5
1CB4
330
1BC7
100
AcDbEntity
  8
0
 62
     0
100
AcDbLine
 10
381.4592510433608
 20
269.0789876482629
 30
0.0
 11
378.4592510433608
 21
272.0789876482629
 31
0.0
  0
LINE
  5
1CB5
330
1BC7
100
AcDbEntity
  8
0
 62
     0
100
AcDbLine
 10
378.4592510433608
 20
272.0789876482629
 30
0.0
 11
376.4592510433609
 21
274.0789876482629
 31
0.0
  0
LINE
  5
1CB6
330
1BC7
100
AcDbEntity
  8
0
 62
     0
100
AcDbLine
 10
377.923717137428
 20
269.0789876482629
 30
0.0
 11
374.9237171374281
 21
272.0789876482629
 31
0.0
  0
LINE
  5
1CB7
330
1BC7
100
AcDbEntity
  8
0
 62
     0
100
AcDbLine
 10
374.9237171374281
 20
272.0789876482629
 30
0.0
 11
372.9237171374281
 21
274.0789876482629
 31
0.0
  0
LINE
  5
1CB8
330
1BC7
100
AcDbEntity
  8
0
 62
     0
100
AcDbLine
 10
374.3881832314953
 20
269.0789876482629
 30
0.0
 11
371.3881832314953
 21
272.0789876482629
 31
0.0
  0
LINE
  5
1CB9
330
1BC7
100
AcDbEntity
  8
0
 62
     0
100
AcDbLine
 10
371.3881832314953
 20
272.0789876482629
 30
0.0
 11
369.3881832314954
 21
274.0789876482629
 31
0.0
  0
LINE
  5
1CBA
330
1BC7
100
AcDbEntity
  8
0
 62
     0
100
AcDbLine
 10
370.8526493255626
 20
269.0789876482629
 30
0.0
 11
367.8526493255626
 21
272.0789876482629
 31
0.0
  0
LINE
  5
1CBB
330
1BC7
100
AcDbEntity
  8
0
 62
     0
100
AcDbLine
 10
367.8526493255626
 20
272.0789876482629
 30
0.0
 11
365.8526493255627
 21
274.0789876482629
 31
0.0
  0
LINE
  5
1CBC
330
1BC7
100
AcDbEntity
  8
0
 62
     0
100
AcDbLine
 10
367.3171154196298
 20
269.0789876482629
 30
0.0
 11
364.3171154196298
 21
272.0789876482629
 31
0.0
  0
LINE
  5
1CBD
330
1BC7
100
AcDbEntity
  8
0
 62
     0
100
AcDbLine
 10
364.3171154196298
 20
272.0789876482629
 30
0.0
 11
362.3171154196299
 21
274.0789876482629
 31
0.0
  0
LINE
  5
1CBE
330
1BC7
100
AcDbEntity
  8
0
 62
     0
100
AcDbLine
 10
363.7815815136971
 20
269.0789876482629
 30
0.0
 11
360.7815815136971
 21
272.0789876482629
 31
0.0
  0
LINE
  5
1CBF
330
1BC7
100
AcDbEntity
  8
0
 62
     0
100
AcDbLine
 10
360.7815815136971
 20
272.0789876482629
 30
0.0
 11
358.7815815136972
 21
274.0789876482629
 31
0.0
  0
LINE
  5
1CC0
330
1BC7
100
AcDbEntity
  8
0
 62
     0
100
AcDbLine
 10
360.2460476077644
 20
269.0789876482629
 30
0.0
 11
357.2460476077643
 21
272.0789876482629
 31
0.0
  0
LINE
  5
1CC1
330
1BC7
100
AcDbEntity
  8
0
 62
     0
100
AcDbLine
 10
357.2460476077643
 20
272.0789876482629
 30
0.0
 11
355.2460476077644
 21
274.0789876482629
 31
0.0
  0
LINE
  5
1CC2
330
1BC7
100
AcDbEntity
  8
0
 62
     0
100
AcDbLine
 10
356.7105137018316
 20
269.0789876482629
 30
0.0
 11
353.7105137018317
 21
272.0789876482629
 31
0.0
  0
LINE
  5
1CC3
330
1BC7
100
AcDbEntity
  8
0
 62
     0
100
AcDbLine
 10
353.7105137018317
 20
272.0789876482629
 30
0.0
 11
351.7105137018317
 21
274.0789876482629
 31
0.0
  0
LINE
  5
1CC4
330
1BC7
100
AcDbEntity
  8
0
 62
     0
100
AcDbLine
 10
353.1749797958989
 20
269.0789876482629
 30
0.0
 11
350.1749797958989
 21
272.0789876482629
 31
0.0
  0
LINE
  5
1CC5
330
1BC7
100
AcDbEntity
  8
0
 62
     0
100
AcDbLine
 10
350.1749797958989
 20
272.0789876482629
 30
0.0
 11
348.1749797958989
 21
274.0789876482629
 31
0.0
  0
LINE
  5
1CC6
330
1BC7
100
AcDbEntity
  8
0
 62
     0
100
AcDbLine
 10
349.6394458899661
 20
269.0789876482629
 30
0.0
 11
346.6394458899662
 21
272.0789876482629
 31
0.0
  0
LINE
  5
1CC7
330
1BC7
100
AcDbEntity
  8
0
 62
     0
100
AcDbLine
 10
346.6394458899662
 20
272.0789876482629
 30
0.0
 11
344.6394458899662
 21
274.0789876482629
 31
0.0
  0
LINE
  5
1CC8
330
1BC7
100
AcDbEntity
  8
0
 62
     0
100
AcDbLine
 10
346.1039119840334
 20
269.0789876482629
 30
0.0
 11
343.1039119840334
 21
272.0789876482629
 31
0.0
  0
LINE
  5
1CC9
330
1BC7
100
AcDbEntity
  8
0
 62
     0
100
AcDbLine
 10
343.1039119840334
 20
272.0789876482629
 30
0.0
 11
341.1039119840335
 21
274.0789876482629
 31
0.0
  0
LINE
  5
1CCA
330
1BC7
100
AcDbEntity
  8
0
 62
     0
100
AcDbLine
 10
342.5683780781006
 20
269.0789876482629
 30
0.0
 11
339.5683780781007
 21
272.0789876482629
 31
0.0
  0
LINE
  5
1CCB
330
1BC7
100
AcDbEntity
  8
0
 62
     0
100
AcDbLine
 10
339.5683780781007
 20
272.0789876482629
 30
0.0
 11
337.5683780781007
 21
274.0789876482629
 31
0.0
  0
LINE
  5
1CCC
330
1BC7
100
AcDbEntity
  8
0
 62
     0
100
AcDbLine
 10
339.0328441721679
 20
269.0789876482629
 30
0.0
 11
336.0328441721679
 21
272.0789876482629
 31
0.0
  0
LINE
  5
1CCD
330
1BC7
100
AcDbEntity
  8
0
 62
     0
100
AcDbLine
 10
336.0328441721679
 20
272.0789876482629
 30
0.0
 11
334.032844172168
 21
274.0789876482629
 31
0.0
  0
LINE
  5
1CCE
330
1BC7
100
AcDbEntity
  8
0
 62
     0
100
AcDbLine
 10
335.4973102662352
 20
269.0789876482629
 30
0.0
 11
332.4973102662352
 21
272.0789876482629
 31
0.0
  0
LINE
  5
1CCF
330
1BC7
100
AcDbEntity
  8
0
 62
     0
100
AcDbLine
 10
332.4973102662352
 20
272.0789876482629
 30
0.0
 11
330.4973102662352
 21
274.0789876482629
 31
0.0
  0
LINE
  5
1CD0
330
1BC7
100
AcDbEntity
  8
0
 62
     0
100
AcDbLine
 10
331.9617763603024
 20
269.0789876482629
 30
0.0
 11
328.9617763603025
 21
272.0789876482629
 31
0.0
  0
LINE
  5
1CD1
330
1BC7
100
AcDbEntity
  8
0
 62
     0
100
AcDbLine
 10
328.9617763603025
 20
272.0789876482629
 30
0.0
 11
326.9617763603025
 21
274.0789876482629
 31
0.0
  0
LINE
  5
1CD2
330
1BC7
100
AcDbEntity
  8
0
 62
     0
100
AcDbLine
 10
328.4262424543697
 20
269.0789876482629
 30
0.0
 11
325.4262424543697
 21
272.0789876482629
 31
0.0
  0
LINE
  5
1CD3
330
1BC7
100
AcDbEntity
  8
0
 62
     0
100
AcDbLine
 10
325.4262424543697
 20
272.0789876482629
 30
0.0
 11
323.4262424543697
 21
274.0789876482629
 31
0.0
  0
LINE
  5
1CD4
330
1BC7
100
AcDbEntity
  8
0
 62
     0
100
AcDbLine
 10
324.890708548437
 20
269.0789876482629
 30
0.0
 11
321.890708548437
 21
272.0789876482629
 31
0.0
  0
LINE
  5
1CD5
330
1BC7
100
AcDbEntity
  8
0
 62
     0
100
AcDbLine
 10
321.890708548437
 20
272.0789876482629
 30
0.0
 11
319.890708548437
 21
274.0789876482629
 31
0.0
  0
LINE
  5
1CD6
330
1BC7
100
AcDbEntity
  8
0
 62
     0
100
AcDbLine
 10
321.3551746425042
 20
269.0789876482629
 30
0.0
 11
318.3551746425043
 21
272.0789876482629
 31
0.0
  0
LINE
  5
1CD7
330
1BC7
100
AcDbEntity
  8
0
 62
     0
100
AcDbLine
 10
318.3551746425043
 20
272.0789876482629
 30
0.0
 11
316.3551746425043
 21
274.0789876482629
 31
0.0
  0
LINE
  5
1CD8
330
1BC7
100
AcDbEntity
  8
0
 62
     0
100
AcDbLine
 10
317.8196407365715
 20
269.0789876482629
 30
0.0
 11
314.8196407365715
 21
272.0789876482629
 31
0.0
  0
LINE
  5
1CD9
330
1BC7
100
AcDbEntity
  8
0
 62
     0
100
AcDbLine
 10
314.8196407365715
 20
272.0789876482629
 30
0.0
 11
312.8196407365716
 21
274.0789876482629
 31
0.0
  0
LINE
  5
1CDA
330
1BC7
100
AcDbEntity
  8
0
 62
     0
100
AcDbLine
 10
314.2841068306387
 20
269.0789876482629
 30
0.0
 11
311.2841068306388
 21
272.0789876482629
 31
0.0
  0
LINE
  5
1CDB
330
1BC7
100
AcDbEntity
  8
0
 62
     0
100
AcDbLine
 10
311.2841068306388
 20
272.0789876482629
 30
0.0
 11
309.2841068306388
 21
274.0789876482629
 31
0.0
  0
LINE
  5
1CDC
330
1BC7
100
AcDbEntity
  8
0
 62
     0
100
AcDbLine
 10
310.748572924706
 20
269.0789876482629
 30
0.0
 11
307.748572924706
 21
272.0789876482629
 31
0.0
  0
LINE
  5
1CDD
330
1BC7
100
AcDbEntity
  8
0
 62
     0
100
AcDbLine
 10
307.748572924706
 20
272.0789876482629
 30
0.0
 11
305.748572924706
 21
274.0789876482629
 31
0.0
  0
LINE
  5
1CDE
330
1BC7
100
AcDbEntity
  8
0
 62
     0
100
AcDbLine
 10
307.2130390187733
 20
269.0789876482629
 30
0.0
 11
304.2130390187733
 21
272.0789876482629
 31
0.0
  0
LINE
  5
1CDF
330
1BC7
100
AcDbEntity
  8
0
 62
     0
100
AcDbLine
 10
304.2130390187733
 20
272.0789876482629
 30
0.0
 11
302.2130390187733
 21
274.0789876482629
 31
0.0
  0
LINE
  5
1CE0
330
1BC7
100
AcDbEntity
  8
0
 62
     0
100
AcDbLine
 10
303.6775051128405
 20
269.0789876482629
 30
0.0
 11
300.6775051128406
 21
272.0789876482629
 31
0.0
  0
LINE
  5
1CE1
330
1BC7
100
AcDbEntity
  8
0
 62
     0
100
AcDbLine
 10
300.6775051128406
 20
272.0789876482629
 30
0.0
 11
298.6775051128406
 21
274.0789876482629
 31
0.0
  0
LINE
  5
1CE2
330
1BC7
100
AcDbEntity
  8
0
 62
     0
100
AcDbLine
 10
300.1419712069078
 20
269.0789876482629
 30
0.0
 11
297.1419712069078
 21
272.0789876482629
 31
0.0
  0
LINE
  5
1CE3
330
1BC7
100
AcDbEntity
  8
0
 62
     0
100
AcDbLine
 10
297.1419712069078
 20
272.0789876482629
 30
0.0
 11
295.5007469652808
 21
273.72021188989
 31
0.0
  0
LINE
  5
1CE4
330
1BC7
100
AcDbEntity
  8
0
 62
     0
100
AcDbLine
 10
296.6064373009751
 20
269.0789876482629
 30
0.0
 11
295.5007469652808
 21
270.1846779839572
 31
0.0
  0
LINE
  5
1CE5
330
1BC7
100
AcDbEntity
  8
0
 62
     0
100
AcDbLine
 10
434.4922596323518
 20
269.0789876482629
 30
0.0
 11
431.4922596323517
 21
272.0789876482629
 31
0.0
  0
LINE
  5
1CE6
330
1BC7
100
AcDbEntity
  8
0
 62
     0
100
AcDbLine
 10
325.4922596323518
 20
378.0789876482629
 30
0.0
 11
322.4922596323517
 21
381.0789876482629
 31
0.0
  0
LINE
  5
1CE7
330
1BC7
100
AcDbEntity
  8
0
 62
     0
100
AcDbLine
 10
431.4922596323517
 20
272.0789876482629
 30
0.0
 11
429.4922596323519
 21
274.0789876482628
 31
0.0
  0
LINE
  5
1CE8
330
1BC7
100
AcDbEntity
  8
0
 62
     0
100
AcDbLine
 10
327.4922596323518
 20
376.0789876482629
 30
0.0
 11
325.4922596323518
 21
378.0789876482629
 31
0.0
  0
LINE
  5
1CE9
330
1BC7
100
AcDbEntity
  8
0
 62
     0
100
AcDbLine
 10
438.0277935382844
 20
269.0789876482629
 30
0.0
 11
435.0277935382845
 21
272.0789876482629
 31
0.0
  0
LINE
  5
1CEA
330
1BC7
100
AcDbEntity
  8
0
 62
     0
100
AcDbLine
 10
329.0277935382845
 20
378.0789876482629
 30
0.0
 11
326.0277935382845
 21
381.0789876482629
 31
0.0
  0
LINE
  5
1CEB
330
1BC7
100
AcDbEntity
  8
0
 62
     0
100
AcDbLine
 10
435.0277935382845
 20
272.0789876482629
 30
0.0
 11
433.0277935382846
 21
274.0789876482628
 31
0.0
  0
LINE
  5
1CEC
330
1BC7
100
AcDbEntity
  8
0
 62
     0
100
AcDbLine
 10
331.0277935382845
 20
376.0789876482629
 30
0.0
 11
329.0277935382845
 21
378.0789876482629
 31
0.0
  0
LINE
  5
1CED
330
1BC7
100
AcDbEntity
  8
0
 62
     0
100
AcDbLine
 10
441.5633274442172
 20
269.0789876482629
 30
0.0
 11
438.5633274442172
 21
272.0789876482629
 31
0.0
  0
LINE
  5
1CEE
330
1BC7
100
AcDbEntity
  8
0
 62
     0
100
AcDbLine
 10
332.5633274442172
 20
378.0789876482629
 30
0.0
 11
329.5633274442173
 21
381.0789876482629
 31
0.0
  0
LINE
  5
1CEF
330
1BC7
100
AcDbEntity
  8
0
 62
     0
100
AcDbLine
 10
438.5633274442172
 20
272.0789876482629
 30
0.0
 11
436.5633274442173
 21
274.0789876482628
 31
0.0
  0
LINE
  5
1CF0
330
1BC7
100
AcDbEntity
  8
0
 62
     0
100
AcDbLine
 10
334.5633274442173
 20
376.0789876482629
 30
0.0
 11
332.5633274442172
 21
378.0789876482629
 31
0.0
  0
LINE
  5
1CF1
330
1BC7
100
AcDbEntity
  8
0
 62
     0
100
AcDbLine
 10
445.0988613501499
 20
269.0789876482629
 30
0.0
 11
442.0988613501499
 21
272.0789876482629
 31
0.0
  0
LINE
  5
1CF2
330
1BC7
100
AcDbEntity
  8
0
 62
     0
100
AcDbLine
 10
336.09886135015
 20
378.0789876482629
 30
0.0
 11
333.0988613501499
 21
381.0789876482629
 31
0.0
  0
LINE
  5
1CF3
330
1BC7
100
AcDbEntity
  8
0
 62
     0
100
AcDbLine
 10
442.0988613501499
 20
272.0789876482629
 30
0.0
 11
440.0988613501501
 21
274.0789876482628
 31
0.0
  0
LINE
  5
1CF4
330
1BC7
100
AcDbEntity
  8
0
 62
     0
100
AcDbLine
 10
338.09886135015
 20
376.0789876482629
 30
0.0
 11
336.09886135015
 21
378.0789876482629
 31
0.0
  0
LINE
  5
1CF5
330
1BC7
100
AcDbEntity
  8
0
 62
     0
100
AcDbLine
 10
448.6343952560827
 20
269.0789876482629
 30
0.0
 11
445.6343952560827
 21
272.0789876482629
 31
0.0
  0
LINE
  5
1CF6
330
1BC7
100
AcDbEntity
  8
0
 62
     0
100
AcDbLine
 10
339.6343952560827
 20
378.0789876482629
 30
0.0
 11
336.6343952560827
 21
381.0789876482629
 31
0.0
  0
LINE
  5
1CF7
330
1BC7
100
AcDbEntity
  8
0
 62
     0
100
AcDbLine
 10
445.6343952560827
 20
272.0789876482629
 30
0.0
 11
443.6343952560828
 21
274.0789876482628
 31
0.0
  0
LINE
  5
1CF8
330
1BC7
100
AcDbEntity
  8
0
 62
     0
100
AcDbLine
 10
341.6343952560828
 20
376.0789876482629
 30
0.0
 11
339.6343952560827
 21
378.0789876482629
 31
0.0
  0
LINE
  5
1CF9
330
1BC7
100
AcDbEntity
  8
0
 62
     0
100
AcDbLine
 10
452.1699291620154
 20
269.0789876482629
 30
0.0
 11
449.1699291620155
 21
272.0789876482629
 31
0.0
  0
LINE
  5
1CFA
330
1BC7
100
AcDbEntity
  8
0
 62
     0
100
AcDbLine
 10
343.1699291620155
 20
378.0789876482629
 30
0.0
 11
340.1699291620154
 21
381.0789876482629
 31
0.0
  0
LINE
  5
1CFB
330
1BC7
100
AcDbEntity
  8
0
 62
     0
100
AcDbLine
 10
449.1699291620155
 20
272.0789876482629
 30
0.0
 11
447.1699291620155
 21
274.0789876482628
 31
0.0
  0
LINE
  5
1CFC
330
1BC7
100
AcDbEntity
  8
0
 62
     0
100
AcDbLine
 10
345.1699291620155
 20
376.0789876482629
 30
0.0
 11
343.1699291620155
 21
378.0789876482629
 31
0.0
  0
LINE
  5
1CFD
330
1BC7
100
AcDbEntity
  8
0
 62
     0
100
AcDbLine
 10
455.7054630679481
 20
269.0789876482629
 30
0.0
 11
452.7054630679481
 21
272.0789876482629
 31
0.0
  0
LINE
  5
1CFE
330
1BC7
100
AcDbEntity
  8
0
 62
     0
100
AcDbLine
 10
346.7054630679482
 20
378.0789876482629
 30
0.0
 11
343.7054630679482
 21
381.0789876482629
 31
0.0
  0
LINE
  5
1CFF
330
1BC7
100
AcDbEntity
  8
0
 62
     0
100
AcDbLine
 10
452.7054630679481
 20
272.0789876482629
 30
0.0
 11
450.7054630679482
 21
274.0789876482628
 31
0.0
  0
LINE
  5
1D00
330
1BC7
100
AcDbEntity
  8
0
 62
     0
100
AcDbLine
 10
348.7054630679482
 20
376.0789876482629
 30
0.0
 11
346.7054630679482
 21
378.0789876482629
 31
0.0
  0
LINE
  5
1D01
330
1BC7
100
AcDbEntity
  8
0
 62
     0
100
AcDbLine
 10
459.2409969738809
 20
269.0789876482629
 30
0.0
 11
456.2409969738809
 21
272.0789876482629
 31
0.0
  0
LINE
  5
1D02
330
1BC7
100
AcDbEntity
  8
0
 62
     0
100
AcDbLine
 10
350.240996973881
 20
378.0789876482629
 30
0.0
 11
347.2409969738809
 21
381.0789876482629
 31
0.0
  0
LINE
  5
1D03
330
1BC7
100
AcDbEntity
  8
0
 62
     0
100
AcDbLine
 10
456.2409969738809
 20
272.0789876482629
 30
0.0
 11
454.2409969738811
 21
274.0789876482628
 31
0.0
  0
LINE
  5
1D04
330
1BC7
100
AcDbEntity
  8
0
 62
     0
100
AcDbLine
 10
352.240996973881
 20
376.0789876482629
 30
0.0
 11
350.240996973881
 21
378.0789876482629
 31
0.0
  0
LINE
  5
1D05
330
1BC7
100
AcDbEntity
  8
0
 62
     0
100
AcDbLine
 10
460.5007469652808
 20
271.3547715627957
 30
0.0
 11
459.7765308798137
 21
272.0789876482629
 31
0.0
  0
LINE
  5
1D06
330
1BC7
100
AcDbEntity
  8
0
 62
     0
100
AcDbLine
 10
353.7765308798137
 20
378.0789876482629
 30
0.0
 11
350.7765308798137
 21
381.0789876482629
 31
0.0
  0
LINE
  5
1D07
330
1BC7
100
AcDbEntity
  8
0
 62
     0
100
AcDbLine
 10
459.7765308798137
 20
272.0789876482629
 30
0.0
 11
457.7765308798138
 21
274.0789876482628
 31
0.0
  0
LINE
  5
1D08
330
1BC7
100
AcDbEntity
  8
0
 62
     0
100
AcDbLine
 10
355.7765308798137
 20
376.0789876482629
 30
0.0
 11
353.7765308798137
 21
378.0789876482629
 31
0.0
  0
LINE
  5
1D09
330
1BC7
100
AcDbEntity
  8
0
 62
     0
100
AcDbLine
 10
359.3120647857464
 20
376.0789876482629
 30
0.0
 11
357.3120647857464
 21
378.0789876482629
 31
0.0
  0
LINE
  5
1D0A
330
1BC7
100
AcDbEntity
  8
0
 62
     0
100
AcDbLine
 10
357.3120647857464
 20
378.0789876482629
 30
0.0
 11
354.3120647857464
 21
381.0789876482629
 31
0.0
  0
LINE
  5
1D0B
330
1BC7
100
AcDbEntity
  8
0
 62
     0
100
AcDbLine
 10
362.8475986916792
 20
376.0789876482629
 30
0.0
 11
360.8475986916791
 21
378.0789876482629
 31
0.0
  0
LINE
  5
1D0C
330
1BC7
100
AcDbEntity
  8
0
 62
     0
100
AcDbLine
 10
360.8475986916791
 20
378.0789876482629
 30
0.0
 11
357.8475986916791
 21
381.0789876482629
 31
0.0
  0
LINE
  5
1D0D
330
1BC7
100
AcDbEntity
  8
0
 62
     0
100
AcDbLine
 10
366.3831325976119
 20
376.0789876482629
 30
0.0
 11
364.3831325976119
 21
378.0789876482629
 31
0.0
  0
LINE
  5
1D0E
330
1BC7
100
AcDbEntity
  8
0
 62
     0
100
AcDbLine
 10
364.3831325976119
 20
378.0789876482629
 30
0.0
 11
361.3831325976118
 21
381.0789876482629
 31
0.0
  0
LINE
  5
1D0F
330
1BC7
100
AcDbEntity
  8
0
 62
     0
100
AcDbLine
 10
369.9186665035447
 20
376.0789876482629
 30
0.0
 11
367.9186665035446
 21
378.0789876482629
 31
0.0
  0
LINE
  5
1D10
330
1BC7
100
AcDbEntity
  8
0
 62
     0
100
AcDbLine
 10
367.9186665035446
 20
378.0789876482629
 30
0.0
 11
364.9186665035446
 21
381.0789876482629
 31
0.0
  0
LINE
  5
1D11
330
1BC7
100
AcDbEntity
  8
0
 62
     0
100
AcDbLine
 10
373.4542004094774
 20
376.0789876482629
 30
0.0
 11
371.4542004094773
 21
378.0789876482629
 31
0.0
  0
LINE
  5
1D12
330
1BC7
100
AcDbEntity
  8
0
 62
     0
100
AcDbLine
 10
371.4542004094773
 20
378.0789876482629
 30
0.0
 11
368.4542004094773
 21
381.0789876482629
 31
0.0
  0
LINE
  5
1D13
330
1BC7
100
AcDbEntity
  8
0
 62
     0
100
AcDbLine
 10
376.9897343154101
 20
376.0789876482629
 30
0.0
 11
374.9897343154101
 21
378.0789876482629
 31
0.0
  0
LINE
  5
1D14
330
1BC7
100
AcDbEntity
  8
0
 62
     0
100
AcDbLine
 10
374.9897343154101
 20
378.0789876482629
 30
0.0
 11
371.9897343154101
 21
381.0789876482629
 31
0.0
  0
LINE
  5
1D15
330
1BC7
100
AcDbEntity
  8
0
 62
     0
100
AcDbLine
 10
380.5252682213429
 20
376.0789876482629
 30
0.0
 11
378.5252682213428
 21
378.0789876482629
 31
0.0
  0
LINE
  5
1D16
330
1BC7
100
AcDbEntity
  8
0
 62
     0
100
AcDbLine
 10
378.5252682213428
 20
378.0789876482629
 30
0.0
 11
375.5252682213428
 21
381.0789876482629
 31
0.0
  0
LINE
  5
1D17
330
1BC7
100
AcDbEntity
  8
0
 62
     0
100
AcDbLine
 10
384.0608021272757
 20
376.0789876482629
 30
0.0
 11
382.0608021272756
 21
378.0789876482629
 31
0.0
  0
LINE
  5
1D18
330
1BC7
100
AcDbEntity
  8
0
 62
     0
100
AcDbLine
 10
382.0608021272756
 20
378.0789876482629
 30
0.0
 11
379.0608021272756
 21
381.0789876482629
 31
0.0
  0
LINE
  5
1D19
330
1BC7
100
AcDbEntity
  8
0
 62
     0
100
AcDbLine
 10
387.5963360332083
 20
376.0789876482629
 30
0.0
 11
385.5963360332083
 21
378.0789876482629
 31
0.0
  0
LINE
  5
1D1A
330
1BC7
100
AcDbEntity
  8
0
 62
     0
100
AcDbLine
 10
385.5963360332083
 20
378.0789876482629
 30
0.0
 11
382.5963360332083
 21
381.0789876482629
 31
0.0
  0
LINE
  5
1D1B
330
1BC7
100
AcDbEntity
  8
0
 62
     0
100
AcDbLine
 10
391.1318699391411
 20
376.0789876482629
 30
0.0
 11
389.131869939141
 21
378.0789876482629
 31
0.0
  0
LINE
  5
1D1C
330
1BC7
100
AcDbEntity
  8
0
 62
     0
100
AcDbLine
 10
389.131869939141
 20
378.0789876482629
 30
0.0
 11
386.131869939141
 21
381.0789876482629
 31
0.0
  0
LINE
  5
1D1D
330
1BC7
100
AcDbEntity
  8
0
 62
     0
100
AcDbLine
 10
394.6674038450738
 20
376.0789876482629
 30
0.0
 11
392.6674038450737
 21
378.0789876482629
 31
0.0
  0
LINE
  5
1D1E
330
1BC7
100
AcDbEntity
  8
0
 62
     0
100
AcDbLine
 10
392.6674038450737
 20
378.0789876482629
 30
0.0
 11
389.6674038450738
 21
381.0789876482629
 31
0.0
  0
LINE
  5
1D1F
330
1BC7
100
AcDbEntity
  8
0
 62
     0
100
AcDbLine
 10
398.2029377510066
 20
376.0789876482629
 30
0.0
 11
396.2029377510065
 21
378.0789876482629
 31
0.0
  0
LINE
  5
1D20
330
1BC7
100
AcDbEntity
  8
0
 62
     0
100
AcDbLine
 10
396.2029377510065
 20
378.0789876482629
 30
0.0
 11
393.2029377510065
 21
381.0789876482629
 31
0.0
  0
LINE
  5
1D21
330
1BC7
100
AcDbEntity
  8
0
 62
     0
100
AcDbLine
 10
401.7384716569392
 20
376.0789876482629
 30
0.0
 11
399.7384716569392
 21
378.0789876482629
 31
0.0
  0
LINE
  5
1D22
330
1BC7
100
AcDbEntity
  8
0
 62
     0
100
AcDbLine
 10
399.7384716569392
 20
378.0789876482629
 30
0.0
 11
396.7384716569392
 21
381.0789876482629
 31
0.0
  0
LINE
  5
1D23
330
1BC7
100
AcDbEntity
  8
0
 62
     0
100
AcDbLine
 10
405.274005562872
 20
376.0789876482629
 30
0.0
 11
403.2740055628719
 21
378.0789876482629
 31
0.0
  0
LINE
  5
1D24
330
1BC7
100
AcDbEntity
  8
0
 62
     0
100
AcDbLine
 10
403.2740055628719
 20
378.0789876482629
 30
0.0
 11
400.2740055628719
 21
381.0789876482629
 31
0.0
  0
LINE
  5
1D25
330
1BC7
100
AcDbEntity
  8
0
 62
     0
100
AcDbLine
 10
408.8095394688047
 20
376.0789876482629
 30
0.0
 11
406.8095394688047
 21
378.0789876482629
 31
0.0
  0
LINE
  5
1D26
330
1BC7
100
AcDbEntity
  8
0
 62
     0
100
AcDbLine
 10
406.8095394688047
 20
378.0789876482629
 30
0.0
 11
403.8095394688046
 21
381.0789876482629
 31
0.0
  0
LINE
  5
1D27
330
1BC7
100
AcDbEntity
  8
0
 62
     0
100
AcDbLine
 10
412.3450733747374
 20
376.0789876482629
 30
0.0
 11
410.3450733747374
 21
378.0789876482629
 31
0.0
  0
LINE
  5
1D28
330
1BC7
100
AcDbEntity
  8
0
 62
     0
100
AcDbLine
 10
410.3450733747374
 20
378.0789876482629
 30
0.0
 11
407.3450733747375
 21
381.0789876482629
 31
0.0
  0
LINE
  5
1D29
330
1BC7
100
AcDbEntity
  8
0
 62
     0
100
AcDbLine
 10
415.8806072806702
 20
376.0789876482629
 30
0.0
 11
413.8806072806701
 21
378.0789876482629
 31
0.0
  0
LINE
  5
1D2A
330
1BC7
100
AcDbEntity
  8
0
 62
     0
100
AcDbLine
 10
413.8806072806701
 20
378.0789876482629
 30
0.0
 11
410.8806072806701
 21
381.078987648263
 31
0.0
  0
LINE
  5
1D2B
330
1BC7
100
AcDbEntity
  8
0
 62
     0
100
AcDbLine
 10
419.416141186603
 20
376.0789876482629
 30
0.0
 11
417.4161411866029
 21
378.0789876482629
 31
0.0
  0
LINE
  5
1D2C
330
1BC7
100
AcDbEntity
  8
0
 62
     0
100
AcDbLine
 10
417.4161411866029
 20
378.0789876482629
 30
0.0
 11
414.4161411866029
 21
381.078987648263
 31
0.0
  0
LINE
  5
1D2D
330
1BC7
100
AcDbEntity
  8
0
 62
     0
100
AcDbLine
 10
422.9516750925356
 20
376.0789876482629
 30
0.0
 11
420.9516750925356
 21
378.0789876482629
 31
0.0
  0
LINE
  5
1D2E
330
1BC7
100
AcDbEntity
  8
0
 62
     0
100
AcDbLine
 10
420.9516750925356
 20
378.0789876482629
 30
0.0
 11
417.9516750925357
 21
381.078987648263
 31
0.0
  0
LINE
  5
1D2F
330
1BC7
100
AcDbEntity
  8
0
 62
     0
100
AcDbLine
 10
426.4872089984685
 20
376.0789876482629
 30
0.0
 11
424.4872089984684
 21
378.0789876482629
 31
0.0
  0
LINE
  5
1D30
330
1BC7
100
AcDbEntity
  8
0
 62
     0
100
AcDbLine
 10
424.4872089984684
 20
378.0789876482629
 30
0.0
 11
421.4872089984683
 21
381.078987648263
 31
0.0
  0
LINE
  5
1D31
330
1BC7
100
AcDbEntity
  8
0
 62
     0
100
AcDbLine
 10
430.0227429044012
 20
376.0789876482629
 30
0.0
 11
428.022742904401
 21
378.0789876482629
 31
0.0
  0
LINE
  5
1D32
330
1BC7
100
AcDbEntity
  8
0
 62
     0
100
AcDbLine
 10
428.022742904401
 20
378.0789876482629
 30
0.0
 11
425.0227429044011
 21
381.078987648263
 31
0.0
  0
LINE
  5
1D33
330
1BC7
100
AcDbEntity
  8
0
 62
     0
100
AcDbLine
 10
433.5582768103339
 20
376.0789876482629
 30
0.0
 11
431.5582768103339
 21
378.0789876482629
 31
0.0
  0
LINE
  5
1D34
330
1BC7
100
AcDbEntity
  8
0
 62
     0
100
AcDbLine
 10
431.5582768103339
 20
378.0789876482629
 30
0.0
 11
428.5582768103338
 21
381.078987648263
 31
0.0
  0
LINE
  5
1D35
330
1BC7
100
AcDbEntity
  8
0
 62
     0
100
AcDbLine
 10
437.0938107162666
 20
376.0789876482629
 30
0.0
 11
435.0938107162666
 21
378.0789876482629
 31
0.0
  0
LINE
  5
1D36
330
1BC7
100
AcDbEntity
  8
0
 62
     0
100
AcDbLine
 10
435.0938107162666
 20
378.0789876482629
 30
0.0
 11
432.0938107162666
 21
381.078987648263
 31
0.0
  0
LINE
  5
1D37
330
1BC7
100
AcDbEntity
  8
0
 62
     0
100
AcDbLine
 10
440.6293446221994
 20
376.0789876482629
 30
0.0
 11
438.6293446221993
 21
378.0789876482629
 31
0.0
  0
LINE
  5
1D38
330
1BC7
100
AcDbEntity
  8
0
 62
     0
100
AcDbLine
 10
438.6293446221993
 20
378.0789876482629
 30
0.0
 11
435.6293446221993
 21
381.078987648263
 31
0.0
  0
LINE
  5
1D39
330
1BC7
100
AcDbEntity
  8
0
 62
     0
100
AcDbLine
 10
444.1648785281321
 20
376.0789876482629
 30
0.0
 11
442.1648785281321
 21
378.0789876482629
 31
0.0
  0
LINE
  5
1D3A
330
1BC7
100
AcDbEntity
  8
0
 62
     0
100
AcDbLine
 10
442.1648785281321
 20
378.0789876482629
 30
0.0
 11
439.164878528132
 21
381.078987648263
 31
0.0
  0
LINE
  5
1D3B
330
1BC7
100
AcDbEntity
  8
0
 62
     0
100
AcDbLine
 10
447.7004124340648
 20
376.0789876482629
 30
0.0
 11
445.7004124340648
 21
378.0789876482629
 31
0.0
  0
LINE
  5
1D3C
330
1BC7
100
AcDbEntity
  8
0
 62
     0
100
AcDbLine
 10
445.7004124340648
 20
378.0789876482629
 30
0.0
 11
442.7004124340648
 21
381.078987648263
 31
0.0
  0
LINE
  5
1D3D
330
1BC7
100
AcDbEntity
  8
0
 62
     0
100
AcDbLine
 10
451.2359463399976
 20
376.0789876482629
 30
0.0
 11
449.2359463399975
 21
378.0789876482629
 31
0.0
  0
LINE
  5
1D3E
330
1BC7
100
AcDbEntity
  8
0
 62
     0
100
AcDbLine
 10
449.2359463399975
 20
378.0789876482629
 30
0.0
 11
446.2359463399975
 21
381.078987648263
 31
0.0
  0
LINE
  5
1D3F
330
1BC7
100
AcDbEntity
  8
0
 62
     0
100
AcDbLine
 10
454.7714802459303
 20
376.0789876482629
 30
0.0
 11
452.7714802459303
 21
378.0789876482629
 31
0.0
  0
LINE
  5
1D40
330
1BC7
100
AcDbEntity
  8
0
 62
     0
100
AcDbLine
 10
452.7714802459303
 20
378.0789876482629
 30
0.0
 11
449.7714802459302
 21
381.078987648263
 31
0.0
  0
LINE
  5
1D41
330
1BC7
100
AcDbEntity
  8
0
 62
     0
100
AcDbLine
 10
458.307014151863
 20
376.0789876482629
 30
0.0
 11
456.307014151863
 21
378.0789876482629
 31
0.0
  0
LINE
  5
1D42
330
1BC7
100
AcDbEntity
  8
0
 62
     0
100
AcDbLine
 10
456.307014151863
 20
378.0789876482629
 30
0.0
 11
453.307014151863
 21
381.078987648263
 31
0.0
  0
LINE
  5
1D43
330
1BC7
100
AcDbEntity
  8
0
 62
     0
100
AcDbLine
 10
460.5007469652806
 20
377.4207887407781
 30
0.0
 11
459.8425480577957
 21
378.0789876482629
 31
0.0
  0
LINE
  5
1D44
330
1BC7
100
AcDbEntity
  8
0
 62
     0
100
AcDbLine
 10
459.8425480577957
 20
378.0789876482629
 30
0.0
 11
456.8425480577957
 21
381.078987648263
 31
0.0
  0
LINE
  5
1D45
330
1BC7
100
AcDbEntity
  8
0
 62
     0
100
AcDbLine
 10
460.5007469652806
 20
380.9563226467107
 30
0.0
 11
460.3780819637285
 21
381.078987648263
 31
0.0
  0
ENDBLK
  5
1D46
330
1BC7
100
AcDbEntity
  8
0
100
AcDbBlockEnd
  0
BLOCK
  5
1D54
330
1D53
100
AcDbEntity
  8
0
100
AcDbBlockBegin
  2
*X7
 70
     1
 10
0.0
 20
0.0
 30
0.0
  3
*X7
  1

  0
LINE
  5
1D55
330
1D53
100
AcDbEntity
  8
0
 62
     0
100
AcDbLine
 10
203.3683095296086
 20
274.0789876482633
 30
0.0
 11
205.3683095296086
 21
276.0789876482633
 31
0.0
  0
LINE
  5
1D56
330
1D53
100
AcDbEntity
  8
0
 62
     0
100
AcDbLine
 10
312.3683095296084
 20
383.0789876482631
 30
0.0
 11
314.3683095296083
 21
385.0789876482631
 31
0.0
  0
LINE
  5
1D57
330
1D53
100
AcDbEntity
  8
0
 62
     0
100
AcDbLine
 10
200.5398824048624
 20
274.0789876482633
 30
0.0
 11
202.5398824048624
 21
276.0789876482633
 31
0.0
  0
LINE
  5
1D58
330
1D53
100
AcDbEntity
  8
0
 62
     0
100
AcDbLine
 10
309.5398824048622
 20
383.0789876482631
 30
0.0
 11
311.5398824048621
 21
385.0789876482631
 31
0.0
  0
LINE
  5
1D59
330
1D53
100
AcDbEntity
  8
0
 62
     0
100
AcDbLine
 10
197.7114552801162
 20
274.0789876482633
 30
0.0
 11
199.7114552801162
 21
276.0789876482633
 31
0.0
  0
LINE
  5
1D5A
330
1D53
100
AcDbEntity
  8
0
 62
     0
100
AcDbLine
 10
306.711455280116
 20
383.0789876482631
 30
0.0
 11
308.711455280116
 21
385.0789876482631
 31
0.0
  0
LINE
  5
1D5B
330
1D53
100
AcDbEntity
  8
0
 62
     0
100
AcDbLine
 10
194.88302815537
 20
274.0789876482633
 30
0.0
 11
196.88302815537
 21
276.0789876482633
 31
0.0
  0
LINE
  5
1D5C
330
1D53
100
AcDbEntity
  8
0
 62
     0
100
AcDbLine
 10
303.8830281553698
 20
383.0789876482631
 30
0.0
 11
305.8830281553698
 21
385.0789876482631
 31
0.0
  0
LINE
  5
1D5D
330
1D53
100
AcDbEntity
  8
0
 62
     0
100
AcDbLine
 10
192.0546010306239
 20
274.0789876482633
 30
0.0
 11
194.0546010306239
 21
276.0789876482633
 31
0.0
  0
LINE
  5
1D5E
330
1D53
100
AcDbEntity
  8
0
 62
     0
100
AcDbLine
 10
301.0546010306236
 20
383.0789876482631
 30
0.0
 11
303.0546010306236
 21
385.0789876482631
 31
0.0
  0
LINE
  5
1D5F
330
1D53
100
AcDbEntity
  8
0
 62
     0
100
AcDbLine
 10
189.2261739058777
 20
274.0789876482633
 30
0.0
 11
191.2261739058777
 21
276.0789876482633
 31
0.0
  0
LINE
  5
1D60
330
1D53
100
AcDbEntity
  8
0
 62
     0
100
AcDbLine
 10
298.2261739058774
 20
383.0789876482631
 30
0.0
 11
300.2261739058774
 21
385.0789876482631
 31
0.0
  0
LINE
  5
1D61
330
1D53
100
AcDbEntity
  8
0
 62
     0
100
AcDbLine
 10
186.3977467811315
 20
274.0789876482633
 30
0.0
 11
188.3977467811315
 21
276.0789876482633
 31
0.0
  0
LINE
  5
1D62
330
1D53
100
AcDbEntity
  8
0
 62
     0
100
AcDbLine
 10
295.3977467811313
 20
383.0789876482631
 30
0.0
 11
297.3977467811312
 21
385.0789876482631
 31
0.0
  0
LINE
  5
1D63
330
1D53
100
AcDbEntity
  8
0
 62
     0
100
AcDbLine
 10
183.5693196563853
 20
274.0789876482633
 30
0.0
 11
185.5693196563853
 21
276.0789876482633
 31
0.0
  0
LINE
  5
1D64
330
1D53
100
AcDbEntity
  8
0
 62
     0
100
AcDbLine
 10
292.5693196563851
 20
383.0789876482631
 30
0.0
 11
294.569319656385
 21
385.0789876482631
 31
0.0
  0
LINE
  5
1D65
330
1D53
100
AcDbEntity
  8
0
 62
     0
100
AcDbLine
 10
180.7408925316391
 20
274.0789876482633
 30
0.0
 11
182.7408925316391
 21
276.0789876482633
 31
0.0
  0
LINE
  5
1D66
330
1D53
100
AcDbEntity
  8
0
 62
     0
100
AcDbLine
 10
289.7408925316389
 20
383.0789876482631
 30
0.0
 11
291.7408925316388
 21
385.0789876482631
 31
0.0
  0
LINE
  5
1D67
330
1D53
100
AcDbEntity
  8
0
 62
     0
100
AcDbLine
 10
177.9124654068929
 20
274.0789876482633
 30
0.0
 11
179.9124654068929
 21
276.0789876482633
 31
0.0
  0
LINE
  5
1D68
330
1D53
100
AcDbEntity
  8
0
 62
     0
100
AcDbLine
 10
286.9124654068927
 20
383.0789876482631
 30
0.0
 11
288.9124654068926
 21
385.0789876482631
 31
0.0
  0
LINE
  5
1D69
330
1D53
100
AcDbEntity
  8
0
 62
     0
100
AcDbLine
 10
175.0840382821467
 20
274.0789876482633
 30
0.0
 11
177.0840382821467
 21
276.0789876482633
 31
0.0
  0
LINE
  5
1D6A
330
1D53
100
AcDbEntity
  8
0
 62
     0
100
AcDbLine
 10
284.0840382821465
 20
383.0789876482631
 30
0.0
 11
286.0840382821465
 21
385.0789876482631
 31
0.0
  0
LINE
  5
1D6B
330
1D53
100
AcDbEntity
  8
0
 62
     0
100
AcDbLine
 10
172.2556111574005
 20
274.0789876482633
 30
0.0
 11
174.2556111574005
 21
276.0789876482633
 31
0.0
  0
LINE
  5
1D6C
330
1D53
100
AcDbEntity
  8
0
 62
     0
100
AcDbLine
 10
281.2556111574003
 20
383.0789876482631
 30
0.0
 11
283.2556111574003
 21
385.0789876482631
 31
0.0
  0
LINE
  5
1D6D
330
1D53
100
AcDbEntity
  8
0
 62
     0
100
AcDbLine
 10
169.4271840326543
 20
274.0789876482633
 30
0.0
 11
171.4271840326544
 21
276.0789876482633
 31
0.0
  0
LINE
  5
1D6E
330
1D53
100
AcDbEntity
  8
0
 62
     0
100
AcDbLine
 10
278.4271840326541
 20
383.0789876482631
 30
0.0
 11
280.4271840326541
 21
385.0789876482632
 31
0.0
  0
LINE
  5
1D6F
330
1D53
100
AcDbEntity
  8
0
 62
     0
100
AcDbLine
 10
166.5987569079081
 20
274.0789876482633
 30
0.0
 11
168.5987569079081
 21
276.0789876482633
 31
0.0
  0
LINE
  5
1D70
330
1D53
100
AcDbEntity
  8
0
 62
     0
100
AcDbLine
 10
275.598756907908
 20
383.0789876482631
 30
0.0
 11
277.5987569079079
 21
385.0789876482632
 31
0.0
  0
LINE
  5
1D71
330
1D53
100
AcDbEntity
  8
0
 62
     0
100
AcDbLine
 10
163.7703297831619
 20
274.0789876482633
 30
0.0
 11
165.7703297831619
 21
276.0789876482633
 31
0.0
  0
LINE
  5
1D72
330
1D53
100
AcDbEntity
  8
0
 62
     0
100
AcDbLine
 10
272.7703297831618
 20
383.0789876482631
 30
0.0
 11
274.7703297831618
 21
385.0789876482632
 31
0.0
  0
LINE
  5
1D73
330
1D53
100
AcDbEntity
  8
0
 62
     0
100
AcDbLine
 10
161.6735984614635
 20
274.8106834513111
 30
0.0
 11
162.9419026584158
 21
276.0789876482633
 31
0.0
  0
LINE
  5
1D74
330
1D53
100
AcDbEntity
  8
0
 62
     0
100
AcDbLine
 10
269.7643512963864
 20
382.901436286234
 30
0.0
 11
271.9419026584155
 21
385.0789876482632
 31
0.0
  0
LINE
  5
1D75
330
1D53
100
AcDbEntity
  8
0
 62
     0
100
AcDbLine
 10
158.1134755336695
 20
274.0789876482633
 30
0.0
 11
159.3759490003401
 21
275.3414611149339
 31
0.0
  0
LINE
  5
1D76
330
1D53
100
AcDbEntity
  8
0
 62
     0
100
AcDbLine
 10
265.3692060395357
 20
381.3347181541294
 30
0.0
 11
268.7789914619943
 21
384.7445035765882
 31
0.0
  0
LINE
  5
1D77
330
1D53
100
AcDbEntity
  8
0
 62
     0
100
AcDbLine
 10
155.2850484089233
 20
274.0789876482633
 30
0.0
 11
157.2850484089234
 21
276.0789876482633
 31
0.0
  0
LINE
  5
1D78
330
1D53
100
AcDbEntity
  8
0
 62
     0
100
AcDbLine
 10
260.2266112672696
 20
379.0205505066096
 30
0.0
 11
264.2141953035354
 21
383.0081345428753
 31
0.0
  0
LINE
  5
1D79
330
1D53
100
AcDbEntity
  8
0
 62
     0
100
AcDbLine
 10
152.4566212841772
 20
274.0789876482633
 30
0.0
 11
154.4566212841772
 21
276.0789876482633
 31
0.0
  0
LINE
  5
1D7A
330
1D53
100
AcDbEntity
  8
0
 62
     0
100
AcDbLine
 10
255.0840164950037
 20
376.7063828590898
 30
0.0
 11
259.0716005312694
 21
380.6939668953556
 31
0.0
  0
LINE
  5
1D7B
330
1D53
100
AcDbEntity
  8
0
 62
     0
100
AcDbLine
 10
149.628194159431
 20
274.0789876482633
 30
0.0
 11
151.628194159431
 21
276.0789876482633
 31
0.0
  0
LINE
  5
1D7C
330
1D53
100
AcDbEntity
  8
0
 62
     0
100
AcDbLine
 10
250.1996957418969
 20
374.6504892307293
 30
0.0
 11
253.9290057590035
 21
378.3797992478359
 31
0.0
  0
LINE
  5
1D7D
330
1D53
100
AcDbEntity
  8
0
 62
     0
100
AcDbLine
 10
146.7997670346848
 20
274.0789876482633
 30
0.0
 11
148.7997670346848
 21
276.0789876482633
 31
0.0
  0
LINE
  5
1D7E
330
1D53
100
AcDbEntity
  8
0
 62
     0
100
AcDbLine
 10
246.8114137079115
 20
374.0906343214901
 30
0.0
 11
249.1604474793329
 21
376.4396680929114
 31
0.0
  0
LINE
  5
1D7F
330
1D53
100
AcDbEntity
  8
0
 62
     0
100
AcDbLine
 10
143.9713399099386
 20
274.0789876482633
 30
0.0
 11
145.9713399099386
 21
276.0789876482633
 31
0.0
  0
LINE
  5
1D80
330
1D53
100
AcDbEntity
  8
0
 62
     0
100
AcDbLine
 10
243.9713399099381
 20
374.0789876482629
 30
0.0
 11
245.9713399099382
 21
376.0789876482629
 31
0.0
  0
LINE
  5
1D81
330
1D53
100
AcDbEntity
  8
0
 62
     0
100
AcDbLine
 10
141.1429127851924
 20
274.0789876482633
 30
0.0
 11
143.1429127851924
 21
276.0789876482633
 31
0.0
  0
LINE
  5
1D82
330
1D53
100
AcDbEntity
  8
0
 62
     0
100
AcDbLine
 10
241.142912785192
 20
374.0789876482629
 30
0.0
 11
243.142912785192
 21
376.0789876482629
 31
0.0
  0
LINE
  5
1D83
330
1D53
100
AcDbEntity
  8
0
 62
     0
100
AcDbLine
 10
138.3144856604462
 20
274.0789876482633
 30
0.0
 11
140.3144856604462
 21
276.0789876482633
 31
0.0
  0
LINE
  5
1D84
330
1D53
100
AcDbEntity
  8
0
 62
     0
100
AcDbLine
 10
238.3144856604458
 20
374.0789876482629
 30
0.0
 11
240.3144856604458
 21
376.0789876482629
 31
0.0
  0
LINE
  5
1D85
330
1D53
100
AcDbEntity
  8
0
 62
     0
100
AcDbLine
 10
135.4860585357
 20
274.0789876482633
 30
0.0
 11
137.4860585357
 21
276.0789876482633
 31
0.0
  0
LINE
  5
1D86
330
1D53
100
AcDbEntity
  8
0
 62
     0
100
AcDbLine
 10
235.4860585356996
 20
374.0789876482629
 30
0.0
 11
237.4860585356997
 21
376.0789876482629
 31
0.0
  0
LINE
  5
1D87
330
1D53
100
AcDbEntity
  8
0
 62
     0
100
AcDbLine
 10
132.6576314109538
 20
274.0789876482633
 30
0.0
 11
134.6576314109539
 21
276.0789876482633
 31
0.0
  0
LINE
  5
1D88
330
1D53
100
AcDbEntity
  8
0
 62
     0
100
AcDbLine
 10
232.6576314109534
 20
374.0789876482629
 30
0.0
 11
234.6576314109534
 21
376.0789876482629
 31
0.0
  0
LINE
  5
1D89
330
1D53
100
AcDbEntity
  8
0
 62
     0
100
AcDbLine
 10
129.8292042862077
 20
274.0789876482633
 30
0.0
 11
131.8292042862077
 21
276.0789876482633
 31
0.0
  0
LINE
  5
1D8A
330
1D53
100
AcDbEntity
  8
0
 62
     0
100
AcDbLine
 10
229.8292042862072
 20
374.0789876482629
 30
0.0
 11
231.8292042862073
 21
376.0789876482629
 31
0.0
  0
LINE
  5
1D8B
330
1D53
100
AcDbEntity
  8
0
 62
     0
100
AcDbLine
 10
127.0007771614614
 20
274.0789876482633
 30
0.0
 11
129.0007771614615
 21
276.0789876482633
 31
0.0
  0
LINE
  5
1D8C
330
1D53
100
AcDbEntity
  8
0
 62
     0
100
AcDbLine
 10
227.000777161461
 20
374.0789876482629
 30
0.0
 11
229.000777161461
 21
376.0789876482629
 31
0.0
  0
LINE
  5
1D8D
330
1D53
100
AcDbEntity
  8
0
 62
     0
100
AcDbLine
 10
124.1723500367152
 20
274.0789876482633
 30
0.0
 11
126.1723500367153
 21
276.0789876482633
 31
0.0
  0
LINE
  5
1D8E
330
1D53
100
AcDbEntity
  8
0
 62
     0
100
AcDbLine
 10
224.1723500367148
 20
374.0789876482629
 30
0.0
 11
226.1723500367149
 21
376.0789876482629
 31
0.0
  0
LINE
  5
1D8F
330
1D53
100
AcDbEntity
  8
0
 62
     0
100
AcDbLine
 10
121.3439229119691
 20
274.0789876482633
 30
0.0
 11
123.3439229119691
 21
276.0789876482633
 31
0.0
  0
LINE
  5
1D90
330
1D53
100
AcDbEntity
  8
0
 62
     0
100
AcDbLine
 10
221.3439229119686
 20
374.0789876482629
 30
0.0
 11
223.3439229119687
 21
376.0789876482629
 31
0.0
  0
LINE
  5
1D91
330
1D53
100
AcDbEntity
  8
0
 62
     0
100
AcDbLine
 10
118.5154957872229
 20
274.0789876482633
 30
0.0
 11
120.5154957872229
 21
276.0789876482633
 31
0.0
  0
LINE
  5
1D92
330
1D53
100
AcDbEntity
  8
0
 62
     0
100
AcDbLine
 10
218.5154957872225
 20
374.0789876482629
 30
0.0
 11
220.5154957872225
 21
376.0789876482629
 31
0.0
  0
LINE
  5
1D93
330
1D53
100
AcDbEntity
  8
0
 62
     0
100
AcDbLine
 10
115.6870686624767
 20
274.0789876482633
 30
0.0
 11
117.6870686624767
 21
276.0789876482633
 31
0.0
  0
LINE
  5
1D94
330
1D53
100
AcDbEntity
  8
0
 62
     0
100
AcDbLine
 10
215.6870686624763
 20
374.0789876482629
 30
0.0
 11
217.6870686624763
 21
376.0789876482629
 31
0.0
  0
LINE
  5
1D95
330
1D53
100
AcDbEntity
  8
0
 62
     0
100
AcDbLine
 10
112.8586415377305
 20
274.0789876482633
 30
0.0
 11
114.8586415377305
 21
276.0789876482633
 31
0.0
  0
LINE
  5
1D96
330
1D53
100
AcDbEntity
  8
0
 62
     0
100
AcDbLine
 10
212.8586415377301
 20
374.0789876482629
 30
0.0
 11
214.8586415377301
 21
376.0789876482629
 31
0.0
  0
LINE
  5
1D97
330
1D53
100
AcDbEntity
  8
0
 62
     0
100
AcDbLine
 10
110.0302144129843
 20
274.0789876482633
 30
0.0
 11
112.0302144129843
 21
276.0789876482633
 31
0.0
  0
LINE
  5
1D98
330
1D53
100
AcDbEntity
  8
0
 62
     0
100
AcDbLine
 10
210.0302144129839
 20
374.0789876482629
 30
0.0
 11
212.030214412984
 21
376.0789876482629
 31
0.0
  0
LINE
  5
1D99
330
1D53
100
AcDbEntity
  8
0
 62
     0
100
AcDbLine
 10
107.2017872882381
 20
274.0789876482633
 30
0.0
 11
109.2017872882381
 21
276.0789876482633
 31
0.0
  0
LINE
  5
1D9A
330
1D53
100
AcDbEntity
  8
0
 62
     0
100
AcDbLine
 10
207.2017872882377
 20
374.0789876482629
 30
0.0
 11
209.2017872882378
 21
376.0789876482629
 31
0.0
  0
LINE
  5
1D9B
330
1D53
100
AcDbEntity
  8
0
 62
     0
100
AcDbLine
 10
104.3733601634919
 20
274.0789876482633
 30
0.0
 11
106.373360163492
 21
276.0789876482633
 31
0.0
  0
LINE
  5
1D9C
330
1D53
100
AcDbEntity
  8
0
 62
     0
100
AcDbLine
 10
204.3733601634915
 20
374.0789876482629
 30
0.0
 11
206.3733601634916
 21
376.0789876482629
 31
0.0
  0
LINE
  5
1D9D
330
1D53
100
AcDbEntity
  8
0
 62
     0
100
AcDbLine
 10
101.5449330387457
 20
274.0789876482633
 30
0.0
 11
103.5449330387458
 21
276.0789876482633
 31
0.0
  0
LINE
  5
1D9E
330
1D53
100
AcDbEntity
  8
0
 62
     0
100
AcDbLine
 10
201.5449330387454
 20
374.0789876482629
 30
0.0
 11
203.5449330387454
 21
376.0789876482629
 31
0.0
  0
LINE
  5
1D9F
330
1D53
100
AcDbEntity
  8
0
 62
     0
100
AcDbLine
 10
98.71650591399959
 20
274.0789876482633
 30
0.0
 11
100.7165059139996
 21
276.0789876482633
 31
0.0
  0
LINE
  5
1DA0
330
1D53
100
AcDbEntity
  8
0
 62
     0
100
AcDbLine
 10
198.7165059139991
 20
374.0789876482629
 30
0.0
 11
200.7165059139992
 21
376.0789876482629
 31
0.0
  0
LINE
  5
1DA1
330
1D53
100
AcDbEntity
  8
0
 62
     0
100
AcDbLine
 10
95.8880787892534
 20
274.0789876482633
 30
0.0
 11
97.88807878925343
 21
276.0789876482633
 31
0.0
  0
LINE
  5
1DA2
330
1D53
100
AcDbEntity
  8
0
 62
     0
100
AcDbLine
 10
195.888078789253
 20
374.078987648263
 30
0.0
 11
197.888078789253
 21
376.0789876482629
 31
0.0
  0
LINE
  5
1DA3
330
1D53
100
AcDbEntity
  8
0
 62
     0
100
AcDbLine
 10
93.0596516645072
 20
274.0789876482633
 30
0.0
 11
95.05965166450724
 21
276.0789876482633
 31
0.0
  0
LINE
  5
1DA4
330
1D53
100
AcDbEntity
  8
0
 62
     0
100
AcDbLine
 10
193.0596516645068
 20
374.078987648263
 30
0.0
 11
195.0596516645068
 21
376.0789876482629
 31
0.0
  0
LINE
  5
1DA5
330
1D53
100
AcDbEntity
  8
0
 62
     0
100
AcDbLine
 10
90.27827716184821
 20
274.1260402703505
 30
0.0
 11
92.23122453976104
 21
276.0789876482633
 31
0.0
  0
LINE
  5
1DA6
330
1D53
100
AcDbEntity
  8
0
 62
     0
100
AcDbLine
 10
190.2312245397606
 20
374.078987648263
 30
0.0
 11
192.2312245397606
 21
376.0789876482629
 31
0.0
  0
LINE
  5
1DA7
330
1D53
100
AcDbEntity
  8
0
 62
     0
100
AcDbLine
 10
87.67739752088193
 20
274.3535877541305
 30
0.0
 11
89.52352221387631
 21
276.1997124471248
 31
0.0
  0
LINE
  5
1DA8
330
1D53
100
AcDbEntity
  8
0
 62
     0
100
AcDbLine
 10
187.4027974150144
 20
374.078987648263
 30
0.0
 11
189.4027974150145
 21
376.0789876482629
 31
0.0
  0
LINE
  5
1DA9
330
1D53
100
AcDbEntity
  8
0
 62
     0
100
AcDbLine
 10
85.07651787991564
 20
274.5811352379103
 30
0.0
 11
86.92264257291002
 21
276.4272599309047
 31
0.0
  0
LINE
  5
1DAA
330
1D53
100
AcDbEntity
  8
0
 62
     0
100
AcDbLine
 10
184.5743702902682
 20
374.078987648263
 30
0.0
 11
186.5743702902683
 21
376.0789876482629
 31
0.0
  0
LINE
  5
1DAB
330
1D53
100
AcDbEntity
  8
0
 62
     0
100
AcDbLine
 10
82.47563823894935
 20
274.8086827216903
 30
0.0
 11
84.32176293194373
 21
276.6548074146846
 31
0.0
  0
LINE
  5
1DAC
330
1D53
100
AcDbEntity
  8
0
 62
     0
100
AcDbLine
 10
181.745943165522
 20
374.078987648263
 30
0.0
 11
183.7459431655221
 21
376.078987648263
 31
0.0
  0
LINE
  5
1DAD
330
1D53
100
AcDbEntity
  8
0
 62
     0
100
AcDbLine
 10
79.87475859798307
 20
275.0362302054702
 30
0.0
 11
81.72088329097745
 21
276.8823548984645
 31
0.0
  0
LINE
  5
1DAE
330
1D53
100
AcDbEntity
  8
0
 62
     0
100
AcDbLine
 10
178.9175160407758
 20
374.078987648263
 30
0.0
 11
180.9175160407759
 21
376.078987648263
 31
0.0
  0
LINE
  5
1DAF
330
1D53
100
AcDbEntity
  8
0
 62
     0
100
AcDbLine
 10
78.81609109328582
 20
276.8059898255191
 30
0.0
 11
79.12000365001117
 21
277.1099023822444
 31
0.0
  0
LINE
  5
1DB0
330
1D53
100
AcDbEntity
  8
0
 62
     0
100
AcDbLine
 10
176.0890889160297
 20
374.078987648263
 30
0.0
 11
178.0890889160297
 21
376.078987648263
 31
0.0
  0
LINE
  5
1DB1
330
1D53
100
AcDbEntity
  8
0
 62
     0
100
AcDbLine
 10
173.2606617912835
 20
374.078987648263
 30
0.0
 11
175.2606617912835
 21
376.078987648263
 31
0.0
  0
LINE
  5
1DB2
330
1D53
100
AcDbEntity
  8
0
 62
     0
100
AcDbLine
 10
170.4322346665373
 20
374.078987648263
 30
0.0
 11
172.4322346665373
 21
376.078987648263
 31
0.0
  0
LINE
  5
1DB3
330
1D53
100
AcDbEntity
  8
0
 62
     0
100
AcDbLine
 10
167.6038075417911
 20
374.078987648263
 30
0.0
 11
169.6038075417912
 21
376.078987648263
 31
0.0
  0
LINE
  5
1DB4
330
1D53
100
AcDbEntity
  8
0
 62
     0
100
AcDbLine
 10
164.7753804170449
 20
374.078987648263
 30
0.0
 11
166.775380417045
 21
376.078987648263
 31
0.0
  0
LINE
  5
1DB5
330
1D53
100
AcDbEntity
  8
0
 62
     0
100
AcDbLine
 10
161.9469532922987
 20
374.078987648263
 30
0.0
 11
163.9469532922988
 21
376.078987648263
 31
0.0
  0
LINE
  5
1DB6
330
1D53
100
AcDbEntity
  8
0
 62
     0
100
AcDbLine
 10
159.6670176575714
 20
374.6274791382818
 30
0.0
 11
161.1185261675526
 21
376.078987648263
 31
0.0
  0
LINE
  5
1DB7
330
1D53
100
AcDbEntity
  8
0
 62
     0
100
AcDbLine
 10
156.2900990428064
 20
374.078987648263
 30
0.0
 11
157.3091422362794
 21
375.098030841736
 31
0.0
  0
LINE
  5
1DB8
330
1D53
100
AcDbEntity
  8
0
 62
     0
100
AcDbLine
 10
153.4616719180602
 20
374.078987648263
 30
0.0
 11
155.4616719180602
 21
376.078987648263
 31
0.0
  0
LINE
  5
1DB9
330
1D53
100
AcDbEntity
  8
0
 62
     0
100
AcDbLine
 10
150.633244793314
 20
374.078987648263
 30
0.0
 11
152.633244793314
 21
376.078987648263
 31
0.0
  0
LINE
  5
1DBA
330
1D53
100
AcDbEntity
  8
0
 62
     0
100
AcDbLine
 10
147.8048176685678
 20
374.078987648263
 30
0.0
 11
149.8048176685678
 21
376.078987648263
 31
0.0
  0
LINE
  5
1DBB
330
1D53
100
AcDbEntity
  8
0
 62
     0
100
AcDbLine
 10
144.9763905438216
 20
374.078987648263
 30
0.0
 11
146.9763905438216
 21
376.078987648263
 31
0.0
  0
LINE
  5
1DBC
330
1D53
100
AcDbEntity
  8
0
 62
     0
100
AcDbLine
 10
142.1479634190755
 20
374.078987648263
 30
0.0
 11
144.1479634190755
 21
376.078987648263
 31
0.0
  0
LINE
  5
1DBD
330
1D53
100
AcDbEntity
  8
0
 62
     0
100
AcDbLine
 10
139.3195362943293
 20
374.0789876482631
 30
0.0
 11
141.3195362943293
 21
376.078987648263
 31
0.0
  0
LINE
  5
1DBE
330
1D53
100
AcDbEntity
  8
0
 62
     0
100
AcDbLine
 10
136.4911091695831
 20
374.0789876482631
 30
0.0
 11
138.4911091695831
 21
376.078987648263
 31
0.0
  0
LINE
  5
1DBF
330
1D53
100
AcDbEntity
  8
0
 62
     0
100
AcDbLine
 10
133.6626820448369
 20
374.0789876482631
 30
0.0
 11
135.6626820448369
 21
376.0789876482631
 31
0.0
  0
LINE
  5
1DC0
330
1D53
100
AcDbEntity
  8
0
 62
     0
100
AcDbLine
 10
130.8342549200907
 20
374.0789876482631
 30
0.0
 11
132.8342549200907
 21
376.0789876482631
 31
0.0
  0
LINE
  5
1DC1
330
1D53
100
AcDbEntity
  8
0
 62
     0
100
AcDbLine
 10
128.0058277953445
 20
374.0789876482631
 30
0.0
 11
130.0058277953445
 21
376.0789876482631
 31
0.0
  0
LINE
  5
1DC2
330
1D53
100
AcDbEntity
  8
0
 62
     0
100
AcDbLine
 10
125.1774006705983
 20
374.0789876482631
 30
0.0
 11
127.1774006705983
 21
376.0789876482631
 31
0.0
  0
LINE
  5
1DC3
330
1D53
100
AcDbEntity
  8
0
 62
     0
100
AcDbLine
 10
122.3489735458522
 20
374.0789876482631
 30
0.0
 11
124.3489735458521
 21
376.0789876482631
 31
0.0
  0
LINE
  5
1DC4
330
1D53
100
AcDbEntity
  8
0
 62
     0
100
AcDbLine
 10
119.520546421106
 20
374.0789876482631
 30
0.0
 11
121.520546421106
 21
376.0789876482631
 31
0.0
  0
LINE
  5
1DC5
330
1D53
100
AcDbEntity
  8
0
 62
     0
100
AcDbLine
 10
116.6921192963598
 20
374.0789876482631
 30
0.0
 11
118.6921192963598
 21
376.0789876482631
 31
0.0
  0
LINE
  5
1DC6
330
1D53
100
AcDbEntity
  8
0
 62
     0
100
AcDbLine
 10
113.8636921716136
 20
374.0789876482631
 30
0.0
 11
115.8636921716136
 21
376.0789876482631
 31
0.0
  0
LINE
  5
1DC7
330
1D53
100
AcDbEntity
  8
0
 62
     0
100
AcDbLine
 10
111.0352650468674
 20
374.0789876482631
 30
0.0
 11
113.0352650468674
 21
376.0789876482631
 31
0.0
  0
LINE
  5
1DC8
330
1D53
100
AcDbEntity
  8
0
 62
     0
100
AcDbLine
 10
108.2068379221212
 20
374.0789876482631
 30
0.0
 11
110.2068379221212
 21
376.0789876482631
 31
0.0
  0
LINE
  5
1DC9
330
1D53
100
AcDbEntity
  8
0
 62
     0
100
AcDbLine
 10
105.3784107973751
 20
374.0789876482631
 30
0.0
 11
107.378410797375
 21
376.0789876482631
 31
0.0
  0
LINE
  5
1DCA
330
1D53
100
AcDbEntity
  8
0
 62
     0
100
AcDbLine
 10
102.5499836726289
 20
374.0789876482631
 30
0.0
 11
104.5499836726289
 21
376.0789876482631
 31
0.0
  0
LINE
  5
1DCB
330
1D53
100
AcDbEntity
  8
0
 62
     0
100
AcDbLine
 10
99.72155654788272
 20
374.0789876482631
 30
0.0
 11
101.7215565478827
 21
376.0789876482631
 31
0.0
  0
LINE
  5
1DCC
330
1D53
100
AcDbEntity
  8
0
 62
     0
100
AcDbLine
 10
96.89312942313653
 20
374.0789876482631
 30
0.0
 11
98.89312942313651
 21
376.0789876482631
 31
0.0
  0
LINE
  5
1DCD
330
1D53
100
AcDbEntity
  8
0
 62
     0
100
AcDbLine
 10
94.06470229839035
 20
374.0789876482631
 30
0.0
 11
96.06470229839032
 21
376.0789876482631
 31
0.0
  0
LINE
  5
1DCE
330
1D53
100
AcDbEntity
  8
0
 62
     0
100
AcDbLine
 10
91.23627517364417
 20
374.0789876482631
 30
0.0
 11
93.23627517364414
 21
376.0789876482631
 31
0.0
  0
LINE
  5
1DCF
330
1D53
100
AcDbEntity
  8
0
 62
     0
100
AcDbLine
 10
88.1685812784385
 20
373.8397208778037
 30
0.0
 11
90.36870701369146
 21
376.0398466130567
 31
0.0
  0
LINE
  5
1DD0
330
1D53
100
AcDbEntity
  8
0
 62
     0
100
AcDbLine
 10
85.06897362241183
 20
373.5685403465232
 30
0.0
 11
87.26909935766483
 21
375.7686660817762
 31
0.0
  0
LINE
  5
1DD1
330
1D53
100
AcDbEntity
  8
0
 62
     0
100
AcDbLine
 10
81.96936596638515
 20
373.2973598152427
 30
0.0
 11
84.16949170163823
 21
375.4974855504958
 31
0.0
  0
LINE
  5
1DD2
330
1D53
100
AcDbEntity
  8
0
 62
     0
100
AcDbLine
 10
78.86975831035847
 20
373.0261792839622
 30
0.0
 11
81.0698840456116
 21
375.2263050192154
 31
0.0
  0
LINE
  5
1DD3
330
1D53
100
AcDbEntity
  8
0
 62
     0
100
AcDbLine
 10
206.1967366543548
 20
274.0789876482633
 30
0.0
 11
208.1967366543548
 21
276.0789876482633
 31
0.0
  0
LINE
  5
1DD4
330
1D53
100
AcDbEntity
  8
0
 62
     0
100
AcDbLine
 10
315.1967366543546
 20
383.0789876482631
 30
0.0
 11
317.1967366543545
 21
385.078987648263
 31
0.0
  0
LINE
  5
1DD5
330
1D53
100
AcDbEntity
  8
0
 62
     0
100
AcDbLine
 10
209.025163779101
 20
274.0789876482633
 30
0.0
 11
211.025163779101
 21
276.0789876482633
 31
0.0
  0
LINE
  5
1DD6
330
1D53
100
AcDbEntity
  8
0
 62
     0
100
AcDbLine
 10
318.0251637791008
 20
383.0789876482631
 30
0.0
 11
320.0251637791007
 21
385.078987648263
 31
0.0
  0
LINE
  5
1DD7
330
1D53
100
AcDbEntity
  8
0
 62
     0
100
AcDbLine
 10
211.8535909038472
 20
274.0789876482633
 30
0.0
 11
213.8535909038472
 21
276.0789876482633
 31
0.0
  0
LINE
  5
1DD8
330
1D53
100
AcDbEntity
  8
0
 62
     0
100
AcDbLine
 10
320.853590903847
 20
383.0789876482631
 30
0.0
 11
322.8535909038468
 21
385.078987648263
 31
0.0
  0
LINE
  5
1DD9
330
1D53
100
AcDbEntity
  8
0
 62
     0
100
AcDbLine
 10
214.6820180285934
 20
274.0789876482633
 30
0.0
 11
216.6820180285934
 21
276.0789876482633
 31
0.0
  0
LINE
  5
1DDA
330
1D53
100
AcDbEntity
  8
0
 62
     0
100
AcDbLine
 10
323.6820180285932
 20
383.0789876482631
 30
0.0
 11
325.6820180285931
 21
385.078987648263
 31
0.0
  0
LINE
  5
1DDB
330
1D53
100
AcDbEntity
  8
0
 62
     0
100
AcDbLine
 10
217.5104451533396
 20
274.0789876482633
 30
0.0
 11
219.5104451533396
 21
276.0789876482633
 31
0.0
  0
LINE
  5
1DDC
330
1D53
100
AcDbEntity
  8
0
 62
     0
100
AcDbLine
 10
326.5104451533393
 20
383.0789876482631
 30
0.0
 11
328.5104451533392
 21
385.078987648263
 31
0.0
  0
LINE
  5
1DDD
330
1D53
100
AcDbEntity
  8
0
 62
     0
100
AcDbLine
 10
220.3388722780858
 20
274.0789876482633
 30
0.0
 11
222.3388722780858
 21
276.0789876482633
 31
0.0
  0
LINE
  5
1DDE
330
1D53
100
AcDbEntity
  8
0
 62
     0
100
AcDbLine
 10
329.3388722780855
 20
383.0789876482631
 30
0.0
 11
331.3388722780854
 21
385.078987648263
 31
0.0
  0
LINE
  5
1DDF
330
1D53
100
AcDbEntity
  8
0
 62
     0
100
AcDbLine
 10
223.167299402832
 20
274.0789876482633
 30
0.0
 11
225.167299402832
 21
276.0789876482633
 31
0.0
  0
LINE
  5
1DE0
330
1D53
100
AcDbEntity
  8
0
 62
     0
100
AcDbLine
 10
332.1672994028318
 20
383.0789876482631
 30
0.0
 11
334.1672994028316
 21
385.078987648263
 31
0.0
  0
LINE
  5
1DE1
330
1D53
100
AcDbEntity
  8
0
 62
     0
100
AcDbLine
 10
225.9957265275781
 20
274.0789876482633
 30
0.0
 11
227.9957265275781
 21
276.0789876482633
 31
0.0
  0
LINE
  5
1DE2
330
1D53
100
AcDbEntity
  8
0
 62
     0
100
AcDbLine
 10
334.9957265275779
 20
383.0789876482631
 30
0.0
 11
336.9957265275778
 21
385.078987648263
 31
0.0
  0
LINE
  5
1DE3
330
1D53
100
AcDbEntity
  8
0
 62
     0
100
AcDbLine
 10
228.8241536523244
 20
274.0789876482633
 30
0.0
 11
230.8241536523243
 21
276.0789876482633
 31
0.0
  0
LINE
  5
1DE4
330
1D53
100
AcDbEntity
  8
0
 62
     0
100
AcDbLine
 10
337.8241536523241
 20
383.0789876482631
 30
0.0
 11
339.824153652324
 21
385.078987648263
 31
0.0
  0
LINE
  5
1DE5
330
1D53
100
AcDbEntity
  8
0
 62
     0
100
AcDbLine
 10
231.6525807770705
 20
274.0789876482633
 30
0.0
 11
233.6525807770705
 21
276.0789876482633
 31
0.0
  0
LINE
  5
1DE6
330
1D53
100
AcDbEntity
  8
0
 62
     0
100
AcDbLine
 10
340.6525807770703
 20
383.0789876482631
 30
0.0
 11
342.6525807770702
 21
385.078987648263
 31
0.0
  0
LINE
  5
1DE7
330
1D53
100
AcDbEntity
  8
0
 62
     0
100
AcDbLine
 10
234.4810079018167
 20
274.0789876482633
 30
0.0
 11
236.4810079018167
 21
276.0789876482633
 31
0.0
  0
LINE
  5
1DE8
330
1D53
100
AcDbEntity
  8
0
 62
     0
100
AcDbLine
 10
343.4810079018165
 20
383.0789876482631
 30
0.0
 11
345.4810079018163
 21
385.078987648263
 31
0.0
  0
LINE
  5
1DE9
330
1D53
100
AcDbEntity
  8
0
 62
     0
100
AcDbLine
 10
237.3094350265629
 20
274.0789876482633
 30
0.0
 11
239.3094350265629
 21
276.0789876482633
 31
0.0
  0
LINE
  5
1DEA
330
1D53
100
AcDbEntity
  8
0
 62
     0
100
AcDbLine
 10
346.3094350265627
 20
383.0789876482631
 30
0.0
 11
348.3094350265625
 21
385.078987648263
 31
0.0
  0
LINE
  5
1DEB
330
1D53
100
AcDbEntity
  8
0
 62
     0
100
AcDbLine
 10
240.1378621513091
 20
274.0789876482633
 30
0.0
 11
242.1378621513091
 21
276.0789876482633
 31
0.0
  0
LINE
  5
1DEC
330
1D53
100
AcDbEntity
  8
0
 62
     0
100
AcDbLine
 10
349.1378621513089
 20
383.0789876482631
 30
0.0
 11
351.1378621513087
 21
385.078987648263
 31
0.0
  0
LINE
  5
1DED
330
1D53
100
AcDbEntity
  8
0
 62
     0
100
AcDbLine
 10
242.9662892760553
 20
274.0789876482633
 30
0.0
 11
244.9662892760553
 21
276.0789876482633
 31
0.0
  0
LINE
  5
1DEE
330
1D53
100
AcDbEntity
  8
0
 62
     0
100
AcDbLine
 10
351.9662892760551
 20
383.0789876482631
 30
0.0
 11
353.9662892760549
 21
385.078987648263
 31
0.0
  0
LINE
  5
1DEF
330
1D53
100
AcDbEntity
  8
0
 62
     0
100
AcDbLine
 10
245.7947164008015
 20
274.0789876482633
 30
0.0
 11
247.71667181171
 21
276.0009430591719
 31
0.0
  0
LINE
  5
1DF0
330
1D53
100
AcDbEntity
  8
0
 62
     0
100
AcDbLine
 10
354.7947164008012
 20
383.0789876482631
 30
0.0
 11
356.7947164008011
 21
385.078987648263
 31
0.0
  0
LINE
  5
1DF1
330
1D53
100
AcDbEntity
  8
0
 62
     0
100
AcDbLine
 10
248.4229989648764
 20
273.8788430875921
 30
0.0
 11
250.0849435598843
 21
275.5407876826
 31
0.0
  0
LINE
  5
1DF2
330
1D53
100
AcDbEntity
  8
0
 62
     0
100
AcDbLine
 10
357.6231435255475
 20
383.0789876482631
 30
0.0
 11
359.6231435255473
 21
385.078987648263
 31
0.0
  0
LINE
  5
1DF3
330
1D53
100
AcDbEntity
  8
0
 62
     0
100
AcDbLine
 10
250.6227633811881
 20
273.2501803791576
 30
0.0
 11
252.1461950773921
 21
274.7736120753616
 31
0.0
  0
LINE
  5
1DF4
330
1D53
100
AcDbEntity
  8
0
 62
     0
100
AcDbLine
 10
360.4515706502937
 20
383.0789876482631
 30
0.0
 11
362.4515706502934
 21
385.078987648263
 31
0.0
  0
LINE
  5
1DF5
330
1D53
100
AcDbEntity
  8
0
 62
     0
100
AcDbLine
 10
252.5843025979438
 20
272.3832924711672
 30
0.0
 11
254.0968344737688
 21
273.8958243469921
 31
0.0
  0
LINE
  5
1DF6
330
1D53
100
AcDbEntity
  8
0
 62
     0
100
AcDbLine
 10
363.2799977750398
 20
383.0789876482631
 30
0.0
 11
365.2799977750396
 21
385.078987648263
 31
0.0
  0
LINE
  5
1DF7
330
1D53
100
AcDbEntity
  8
0
 62
     0
100
AcDbLine
 10
254.5349419943205
 20
271.5055047427977
 30
0.0
 11
256.0474738701454
 21
273.0180366186226
 31
0.0
  0
LINE
  5
1DF8
330
1D53
100
AcDbEntity
  8
0
 62
     0
100
AcDbLine
 10
366.108424899786
 20
383.0789876482631
 30
0.0
 11
368.1084248997858
 21
385.078987648263
 31
0.0
  0
LINE
  5
1DF9
330
1D53
100
AcDbEntity
  8
0
 62
     0
100
AcDbLine
 10
256.4855813906972
 20
270.6277170144281
 30
0.0
 11
257.9981132665221
 21
272.140248890253
 31
0.0
  0
LINE
  5
1DFA
330
1D53
100
AcDbEntity
  8
0
 62
     0
100
AcDbLine
 10
368.9368520245322
 20
383.0789876482631
 30
0.0
 11
370.936852024532
 21
385.078987648263
 31
0.0
  0
LINE
  5
1DFB
330
1D53
100
AcDbEntity
  8
0
 62
     0
100
AcDbLine
 10
258.4362207870739
 20
269.7499292860586
 30
0.0
 11
259.9487526628987
 21
271.2624611618835
 31
0.0
  0
LINE
  5
1DFC
330
1D53
100
AcDbEntity
  8
0
 62
     0
100
AcDbLine
 10
371.7652791492784
 20
383.0789876482631
 30
0.0
 11
373.7652791492782
 21
385.078987648263
 31
0.0
  0
LINE
  5
1DFD
330
1D53
100
AcDbEntity
  8
0
 62
     0
100
AcDbLine
 10
260.3868601834505
 20
268.8721415576891
 30
0.0
 11
261.8993920592754
 21
270.3846734335139
 31
0.0
  0
LINE
  5
1DFE
330
1D53
100
AcDbEntity
  8
0
 62
     0
100
AcDbLine
 10
374.5937062740246
 20
383.0789876482631
 30
0.0
 11
376.5937062740244
 21
385.078987648263
 31
0.0
  0
LINE
  5
1DFF
330
1D53
100
AcDbEntity
  8
0
 62
     0
100
AcDbLine
 10
262.3374995798272
 20
267.9943538293195
 30
0.0
 11
263.850031455652
 21
269.5068857051444
 31
0.0
  0
LINE
  5
1E00
330
1D53
100
AcDbEntity
  8
0
 62
     0
100
AcDbLine
 10
377.4221333987707
 20
383.0789876482631
 30
0.0
 11
379.4221333987706
 21
385.078987648263
 31
0.0
  0
LINE
  5
1E01
330
1D53
100
AcDbEntity
  8
0
 62
     0
100
AcDbLine
 10
264.2881389762039
 20
267.11656610095
 30
0.0
 11
265.8006708520287
 21
268.6290979767749
 31
0.0
  0
LINE
  5
1E02
330
1D53
100
AcDbEntity
  8
0
 62
     0
100
AcDbLine
 10
380.250560523517
 20
383.0789876482631
 30
0.0
 11
382.2505605235168
 21
385.078987648263
 31
0.0
  0
LINE
  5
1E03
330
1D53
100
AcDbEntity
  8
0
 62
     0
100
AcDbLine
 10
266.2396445547595
 20
266.2396445547595
 30
0.0
 11
267.7798896636307
 21
267.7798896636307
 31
0.0
  0
LINE
  5
1E04
330
1D53
100
AcDbEntity
  8
0
 62
     0
100
AcDbLine
 10
383.0789876482631
 20
383.0789876482631
 30
0.0
 11
385.078987648263
 21
385.078987648263
 31
0.0
  0
LINE
  5
1E05
330
1D53
100
AcDbEntity
  8
0
 62
     0
100
AcDbLine
 10
268.3456312082741
 20
265.5172040835279
 30
0.0
 11
270.0402715220848
 21
267.2118443973387
 31
0.0
  0
LINE
  5
1E06
330
1D53
100
AcDbEntity
  8
0
 62
     0
100
AcDbLine
 10
385.9074147730094
 20
383.0789876482631
 30
0.0
 11
387.9074147730091
 21
385.078987648263
 31
0.0
  0
LINE
  5
1E07
330
1D53
100
AcDbEntity
  8
0
 62
     0
100
AcDbLine
 10
270.7749724735046
 20
265.1181182240122
 30
0.0
 11
272.7358418977555
 21
267.0789876482631
 31
0.0
  0
LINE
  5
1E08
330
1D53
100
AcDbEntity
  8
0
 62
     0
100
AcDbLine
 10
388.7358418977555
 20
383.0789876482631
 30
0.0
 11
390.7358418977553
 21
385.0789876482629
 31
0.0
  0
LINE
  5
1E09
330
1D53
100
AcDbEntity
  8
0
 62
     0
100
AcDbLine
 10
273.5642690225017
 20
265.0789876482632
 30
0.0
 11
275.5642690225017
 21
267.0789876482631
 31
0.0
  0
LINE
  5
1E0A
330
1D53
100
AcDbEntity
  8
0
 62
     0
100
AcDbLine
 10
391.5642690225017
 20
383.0789876482631
 30
0.0
 11
393.5642690225015
 21
385.0789876482629
 31
0.0
  0
LINE
  5
1E0B
330
1D53
100
AcDbEntity
  8
0
 62
     0
100
AcDbLine
 10
276.3926961472479
 20
265.0789876482632
 30
0.0
 11
278.3926961472479
 21
267.0789876482631
 31
0.0
  0
LINE
  5
1E0C
330
1D53
100
AcDbEntity
  8
0
 62
     0
100
AcDbLine
 10
394.3926961472479
 20
383.0789876482631
 30
0.0
 11
396.3926961472477
 21
385.0789876482629
 31
0.0
  0
LINE
  5
1E0D
330
1D53
100
AcDbEntity
  8
0
 62
     0
100
AcDbLine
 10
279.2211232719941
 20
265.0789876482631
 30
0.0
 11
281.221123271994
 21
267.0789876482631
 31
0.0
  0
LINE
  5
1E0E
330
1D53
100
AcDbEntity
  8
0
 62
     0
100
AcDbLine
 10
397.2211232719941
 20
383.0789876482631
 30
0.0
 11
399.2211232719938
 21
385.0789876482629
 31
0.0
  0
LINE
  5
1E0F
330
1D53
100
AcDbEntity
  8
0
 62
     0
100
AcDbLine
 10
282.0495503967403
 20
265.0789876482631
 30
0.0
 11
284.0495503967403
 21
267.0789876482631
 31
0.0
  0
LINE
  5
1E10
330
1D53
100
AcDbEntity
  8
0
 62
     0
100
AcDbLine
 10
400.0495503967402
 20
383.0789876482631
 30
0.0
 11
402.04955039674
 21
385.0789876482629
 31
0.0
  0
LINE
  5
1E11
330
1D53
100
AcDbEntity
  8
0
 62
     0
100
AcDbLine
 10
284.8779775214865
 20
265.0789876482631
 30
0.0
 11
286.8779775214864
 21
267.0789876482631
 31
0.0
  0
LINE
  5
1E12
330
1D53
100
AcDbEntity
  8
0
 62
     0
100
AcDbLine
 10
402.8779775214864
 20
383.0789876482631
 30
0.0
 11
404.8779775214862
 21
385.0789876482629
 31
0.0
  0
LINE
  5
1E13
330
1D53
100
AcDbEntity
  8
0
 62
     0
100
AcDbLine
 10
287.7064046462327
 20
265.0789876482631
 30
0.0
 11
289.7064046462326
 21
267.0789876482631
 31
0.0
  0
LINE
  5
1E14
330
1D53
100
AcDbEntity
  8
0
 62
     0
100
AcDbLine
 10
405.7064046462326
 20
383.0789876482631
 30
0.0
 11
407.7064046462324
 21
385.0789876482629
 31
0.0
  0
LINE
  5
1E15
330
1D53
100
AcDbEntity
  8
0
 62
     0
100
AcDbLine
 10
290.5348317709788
 20
265.0789876482631
 30
0.0
 11
292.5348317709788
 21
267.0789876482631
 31
0.0
  0
LINE
  5
1E16
330
1D53
100
AcDbEntity
  8
0
 62
     0
100
AcDbLine
 10
408.5348317709788
 20
383.0789876482631
 30
0.0
 11
410.5348317709785
 21
385.0789876482629
 31
0.0
  0
LINE
  5
1E17
330
1D53
100
AcDbEntity
  8
0
 62
     0
100
AcDbLine
 10
293.363258895725
 20
265.0789876482631
 30
0.0
 11
295.363258895725
 21
267.0789876482631
 31
0.0
  0
LINE
  5
1E18
330
1D53
100
AcDbEntity
  8
0
 62
     0
100
AcDbLine
 10
411.363258895725
 20
383.0789876482631
 30
0.0
 11
413.3632588957247
 21
385.0789876482629
 31
0.0
  0
LINE
  5
1E19
330
1D53
100
AcDbEntity
  8
0
 62
     0
100
AcDbLine
 10
296.1916860204713
 20
265.0789876482631
 30
0.0
 11
298.1916860204712
 21
267.0789876482631
 31
0.0
  0
LINE
  5
1E1A
330
1D53
100
AcDbEntity
  8
0
 62
     0
100
AcDbLine
 10
414.1916860204712
 20
383.0789876482631
 30
0.0
 11
416.2527103800235
 21
385.1400120078155
 31
0.0
  0
LINE
  5
1E1B
330
1D53
100
AcDbEntity
  8
0
 62
     0
100
AcDbLine
 10
299.0201131452174
 20
265.0789876482631
 30
0.0
 11
301.0201131452173
 21
267.0789876482631
 31
0.0
  0
LINE
  5
1E1C
330
1D53
100
AcDbEntity
  8
0
 62
     0
100
AcDbLine
 10
417.1497608735699
 20
383.2086353766157
 30
0.0
 11
419.5299008590593
 21
385.588775362105
 31
0.0
  0
LINE
  5
1E1D
330
1D53
100
AcDbEntity
  8
0
 62
     0
100
AcDbLine
 10
301.8485402699636
 20
265.0789876482631
 30
0.0
 11
303.8485402699635
 21
267.0789876482631
 31
0.0
  0
LINE
  5
1E1E
330
1D53
100
AcDbEntity
  8
0
 62
     0
100
AcDbLine
 10
420.5285725440365
 20
383.759019922336
 30
0.0
 11
423.5359061640937
 21
386.7663535423933
 31
0.0
  0
LINE
  5
1E1F
330
1D53
100
AcDbEntity
  8
0
 62
     0
100
AcDbLine
 10
304.6769673947098
 20
265.0789876482631
 30
0.0
 11
306.6769673947097
 21
267.0789876482631
 31
0.0
  0
LINE
  5
1E20
330
1D53
100
AcDbEntity
  8
0
 62
     0
100
AcDbLine
 10
424.6577130843705
 20
385.0597333379239
 30
0.0
 11
428.0331978445854
 21
388.4352180981388
 31
0.0
  0
LINE
  5
1E21
330
1D53
100
AcDbEntity
  8
0
 62
     0
100
AcDbLine
 10
307.505394519456
 20
265.0789876482631
 30
0.0
 11
309.505394519456
 21
267.0789876482631
 31
0.0
  0
LINE
  5
1E22
330
1D53
100
AcDbEntity
  8
0
 62
     0
100
AcDbLine
 10
310.3338216442022
 20
265.0789876482631
 30
0.0
 11
312.3338216442021
 21
267.0789876482631
 31
0.0
  0
LINE
  5
1E23
330
1D53
100
AcDbEntity
  8
0
 62
     0
100
AcDbLine
 10
313.1622487689484
 20
265.0789876482631
 30
0.0
 11
315.1622487689483
 21
267.0789876482631
 31
0.0
  0
LINE
  5
1E24
330
1D53
100
AcDbEntity
  8
0
 62
     0
100
AcDbLine
 10
315.9906758936945
 20
265.0789876482631
 30
0.0
 11
317.9906758936945
 21
267.078987648263
 31
0.0
  0
LINE
  5
1E25
330
1D53
100
AcDbEntity
  8
0
 62
     0
100
AcDbLine
 10
318.8191030184407
 20
265.0789876482631
 30
0.0
 11
320.8191030184407
 21
267.078987648263
 31
0.0
  0
LINE
  5
1E26
330
1D53
100
AcDbEntity
  8
0
 62
     0
100
AcDbLine
 10
321.6475301431869
 20
265.0789876482631
 30
0.0
 11
323.6475301431868
 21
267.078987648263
 31
0.0
  0
LINE
  5
1E27
330
1D53
100
AcDbEntity
  8
0
 62
     0
100
AcDbLine
 10
324.4759572679331
 20
265.0789876482631
 30
0.0
 11
326.475957267933
 21
267.078987648263
 31
0.0
  0
LINE
  5
1E28
330
1D53
100
AcDbEntity
  8
0
 62
     0
100
AcDbLine
 10
327.3043843926793
 20
265.0789876482631
 30
0.0
 11
329.3043843926792
 21
267.078987648263
 31
0.0
  0
LINE
  5
1E29
330
1D53
100
AcDbEntity
  8
0
 62
     0
100
AcDbLine
 10
330.1328115174255
 20
265.0789876482631
 30
0.0
 11
332.1328115174254
 21
267.078987648263
 31
0.0
  0
LINE
  5
1E2A
330
1D53
100
AcDbEntity
  8
0
 62
     0
100
AcDbLine
 10
332.9612386421716
 20
265.0789876482631
 30
0.0
 11
334.9612386421715
 21
267.078987648263
 31
0.0
  0
LINE
  5
1E2B
330
1D53
100
AcDbEntity
  8
0
 62
     0
100
AcDbLine
 10
335.7896657669178
 20
265.0789876482631
 30
0.0
 11
337.7896657669178
 21
267.078987648263
 31
0.0
  0
LINE
  5
1E2C
330
1D53
100
AcDbEntity
  8
0
 62
     0
100
AcDbLine
 10
338.618092891664
 20
265.0789876482631
 30
0.0
 11
340.618092891664
 21
267.078987648263
 31
0.0
  0
LINE
  5
1E2D
330
1D53
100
AcDbEntity
  8
0
 62
     0
100
AcDbLine
 10
341.4465200164102
 20
265.0789876482631
 30
0.0
 11
343.4465200164102
 21
267.078987648263
 31
0.0
  0
LINE
  5
1E2E
330
1D53
100
AcDbEntity
  8
0
 62
     0
100
AcDbLine
 10
344.2749471411564
 20
265.0789876482631
 30
0.0
 11
346.2749471411563
 21
267.078987648263
 31
0.0
  0
LINE
  5
1E2F
330
1D53
100
AcDbEntity
  8
0
 62
     0
100
AcDbLine
 10
347.1033742659026
 20
265.0789876482631
 30
0.0
 11
349.1033742659025
 21
267.078987648263
 31
0.0
  0
LINE
  5
1E30
330
1D53
100
AcDbEntity
  8
0
 62
     0
100
AcDbLine
 10
349.9318013906487
 20
265.078987648263
 30
0.0
 11
351.9318013906487
 21
267.078987648263
 31
0.0
  0
LINE
  5
1E31
330
1D53
100
AcDbEntity
  8
0
 62
     0
100
AcDbLine
 10
352.760228515395
 20
265.078987648263
 30
0.0
 11
354.7602285153949
 21
267.078987648263
 31
0.0
  0
LINE
  5
1E32
330
1D53
100
AcDbEntity
  8
0
 62
     0
100
AcDbLine
 10
355.5886556401411
 20
265.078987648263
 30
0.0
 11
357.588655640141
 21
267.078987648263
 31
0.0
  0
LINE
  5
1E33
330
1D53
100
AcDbEntity
  8
0
 62
     0
100
AcDbLine
 10
358.4170827648873
 20
265.078987648263
 30
0.0
 11
360.4170827648872
 21
267.078987648263
 31
0.0
  0
LINE
  5
1E34
330
1D53
100
AcDbEntity
  8
0
 62
     0
100
AcDbLine
 10
361.2455098896335
 20
265.078987648263
 30
0.0
 11
363.2455098896334
 21
267.078987648263
 31
0.0
  0
LINE
  5
1E35
330
1D53
100
AcDbEntity
  8
0
 62
     0
100
AcDbLine
 10
364.0739370143797
 20
265.078987648263
 30
0.0
 11
366.0739370143796
 21
267.078987648263
 31
0.0
  0
LINE
  5
1E36
330
1D53
100
AcDbEntity
  8
0
 62
     0
100
AcDbLine
 10
366.9023641391258
 20
265.078987648263
 30
0.0
 11
368.9023641391258
 21
267.078987648263
 31
0.0
  0
LINE
  5
1E37
330
1D53
100
AcDbEntity
  8
0
 62
     0
100
AcDbLine
 10
369.730791263872
 20
265.078987648263
 30
0.0
 11
371.730791263872
 21
267.078987648263
 31
0.0
  0
LINE
  5
1E38
330
1D53
100
AcDbEntity
  8
0
 62
     0
100
AcDbLine
 10
372.5592183886182
 20
265.078987648263
 30
0.0
 11
374.5592183886182
 21
267.078987648263
 31
0.0
  0
LINE
  5
1E39
330
1D53
100
AcDbEntity
  8
0
 62
     0
100
AcDbLine
 10
375.3876455133644
 20
265.078987648263
 30
0.0
 11
377.3876455133644
 21
267.078987648263
 31
0.0
  0
LINE
  5
1E3A
330
1D53
100
AcDbEntity
  8
0
 62
     0
100
AcDbLine
 10
378.2160726381107
 20
265.078987648263
 30
0.0
 11
380.2160726381105
 21
267.078987648263
 31
0.0
  0
LINE
  5
1E3B
330
1D53
100
AcDbEntity
  8
0
 62
     0
100
AcDbLine
 10
381.0444997628568
 20
265.078987648263
 30
0.0
 11
383.0444997628567
 21
267.078987648263
 31
0.0
  0
LINE
  5
1E3C
330
1D53
100
AcDbEntity
  8
0
 62
     0
100
AcDbLine
 10
383.872926887603
 20
265.078987648263
 30
0.0
 11
385.872926887603
 21
267.078987648263
 31
0.0
  0
LINE
  5
1E3D
330
1D53
100
AcDbEntity
  8
0
 62
     0
100
AcDbLine
 10
386.7013540123492
 20
265.078987648263
 30
0.0
 11
388.7013540123491
 21
267.0789876482629
 31
0.0
  0
LINE
  5
1E3E
330
1D53
100
AcDbEntity
  8
0
 62
     0
100
AcDbLine
 10
389.5297811370954
 20
265.078987648263
 30
0.0
 11
391.5297811370953
 21
267.0789876482629
 31
0.0
  0
LINE
  5
1E3F
330
1D53
100
AcDbEntity
  8
0
 62
     0
100
AcDbLine
 10
392.3582082618415
 20
265.078987648263
 30
0.0
 11
394.3582082618415
 21
267.0789876482629
 31
0.0
  0
LINE
  5
1E40
330
1D53
100
AcDbEntity
  8
0
 62
     0
100
AcDbLine
 10
395.1866353865877
 20
265.078987648263
 30
0.0
 11
397.1866353865877
 21
267.0789876482629
 31
0.0
  0
LINE
  5
1E41
330
1D53
100
AcDbEntity
  8
0
 62
     0
100
AcDbLine
 10
398.0150625113339
 20
265.078987648263
 30
0.0
 11
400.0150625113338
 21
267.0789876482629
 31
0.0
  0
LINE
  5
1E42
330
1D53
100
AcDbEntity
  8
0
 62
     0
100
AcDbLine
 10
400.84348963608
 20
265.078987648263
 30
0.0
 11
402.84348963608
 21
267.0789876482629
 31
0.0
  0
LINE
  5
1E43
330
1D53
100
AcDbEntity
  8
0
 62
     0
100
AcDbLine
 10
403.6719167608262
 20
265.078987648263
 30
0.0
 11
405.6719167608262
 21
267.0789876482629
 31
0.0
  0
LINE
  5
1E44
330
1D53
100
AcDbEntity
  8
0
 62
     0
100
AcDbLine
 10
406.5003438855725
 20
265.078987648263
 30
0.0
 11
408.5003438855724
 21
267.0789876482629
 31
0.0
  0
LINE
  5
1E45
330
1D53
100
AcDbEntity
  8
0
 62
     0
100
AcDbLine
 10
409.3287710103186
 20
265.078987648263
 30
0.0
 11
411.3287710103185
 21
267.0789876482629
 31
0.0
  0
LINE
  5
1E46
330
1D53
100
AcDbEntity
  8
0
 62
     0
100
AcDbLine
 10
412.1571981350648
 20
265.078987648263
 30
0.0
 11
414.1571981350647
 21
267.0789876482629
 31
0.0
  0
LINE
  5
1E47
330
1D53
100
AcDbEntity
  8
0
 62
     0
100
AcDbLine
 10
414.9811289485393
 20
265.0744913369913
 30
0.0
 11
416.8810504993024
 21
266.9744128877544
 31
0.0
  0
LINE
  5
1E48
330
1D53
100
AcDbEntity
  8
0
 62
     0
100
AcDbLine
 10
417.6195381737989
 20
264.8844734375047
 30
0.0
 11
419.37211493703
 21
266.6370502007358
 31
0.0
  0
LINE
  5
1E49
330
1D53
100
AcDbEntity
  8
0
 62
     0
100
AcDbLine
 10
420.0257425176028
 20
264.4622506565624
 30
0.0
 11
421.673911079781
 21
266.1104192187406
 31
0.0
  0
LINE
  5
1E4A
330
1D53
100
AcDbEntity
  8
0
 62
     0
100
AcDbLine
 10
422.2436653473003
 20
263.8517463615137
 30
0.0
 11
423.8155500972868
 21
265.4236311115003
 31
0.0
  0
LINE
  5
1E4B
330
1D53
100
AcDbEntity
  8
0
 62
     0
100
AcDbLine
 10
424.3010148541402
 20
263.0806687436074
 30
0.0
 11
425.8165535736704
 21
264.5962074631377
 31
0.0
  0
LINE
  5
1E4C
330
1D53
100
AcDbEntity
  8
0
 62
     0
100
AcDbLine
 10
426.2161343843454
 20
262.1673611490665
 30
0.0
 11
427.6904011335535
 21
263.6416278982745
 31
0.0
  0
ENDBLK
  5
1E4D
330
1D53
100
AcDbEntity
  8
0
100
AcDbBlockEnd
  0
BLOCK
  5
213A
330
212F
100
AcDbEntity
  8
0
100
AcDbBlockBegin
  2
*D8
 70
     1
 10
0.0
 20
0.0
 30
0.0
  3
*D8
  1

  0
LINE
  5
240C
330
212F
100
AcDbEntity
  8
BEM
 62
     0
370
    -2
100
AcDbLine
 10
130.3716992054309
 20
555.8189525774
 30
0.0
 11
114.9723233938835
 21
555.8189525774
 31
0.0
  0
LINE
  5
240D
330
212F
100
AcDbEntity
  8
BEM
 62
     0
370
    -2
100
AcDbLine
 10
160.3716992054309
 20
452.3189525774
 30
0.0
 11
114.9723233938835
 21
452.3189525774001
 31
0.0
  0
LINE
  5
240E
330
212F
100
AcDbEntity
  8
BEM
 62
     0
370
    -2
100
AcDbLine
 10
116.9723233938835
 20
548.8189525774
 30
0.0
 11
116.9723233938835
 21
459.3189525774
 31
0.0
  0
SOLID
  5
240F
330
212F
100
AcDbEntity
  8
BEM
 62
     0
100
AcDbTrace
 10
115.8056567272168
 20
548.8189525774
 30
0.0
 11
118.1389900605501
 21
548.8189525774
 31
0.0
 12
116.9723233938835
 22
555.8189525774
 32
0.0
 13
116.9723233938835
 23
555.8189525774
 33
0.0
  0
SOLID
  5
2410
330
212F
100
AcDbEntity
  8
BEM
 62
     0
100
AcDbTrace
 10
115.8056567272168
 20
459.3189525774
 30
0.0
 11
118.1389900605501
 21
459.3189525774
 31
0.0
 12
116.9723233938835
 22
452.3189525774001
 32
0.0
 13
116.9723233938835
 23
452.3189525774001
 33
0.0
  0
MTEXT
  5
2411
330
212F
100
AcDbEntity
  8
BEM
 62
     1
100
AcDbMText
 10
110.4723233938834
 20
504.0689525774
 30
0.0
 40
7.0
 41
0.0
 71
     5
 72
     1
  1
\A1;min.150-max.250
 11
0.0000000000000001
 21
1.0
 31
0.0
 73
     1
 44
1.0
  0
POINT
  5
2412
330
212F
100
AcDbEntity
  8
DEFPOINTS
 62
     0
100
AcDbPoint
 10
132.3716992054309
 20
555.8189525774
 30
0.0
  0
POINT
  5
2413
330
212F
100
AcDbEntity
  8
DEFPOINTS
 62
     0
100
AcDbPoint
 10
162.3716992054309
 20
452.3189525774
 30
0.0
  0
POINT
  5
2414
330
212F
100
AcDbEntity
  8
DEFPOINTS
 62
     0
100
AcDbPoint
 10
116.9723233938835
 20
452.3189525774001
 30
0.0
  0
ENDBLK
  5
213B
330
212F
100
AcDbEntity
  8
0
100
AcDbBlockEnd
  0
BLOCK
  5
2147
330
213C
100
AcDbEntity
  8
0
100
AcDbBlockBegin
  2
*D9
 70
     1
 10
0.0
 20
0.0
 30
0.0
  3
*D9
  1

  0
LINE
  5
2403
330
213C
100
AcDbEntity
  8
BEM
 62
     0
370
    -2
100
AcDbLine
 10
179.664943367506
 20
795.9454169880475
 30
0.0
 11
114.9723233938835
 21
795.9454169880475
 31
0.0
  0
LINE
  5
2404
330
213C
100
AcDbEntity
  8
BEM
 62
     0
370
    -2
100
AcDbLine
 10
130.3716992054309
 20
555.8189525774
 30
0.0
 11
114.9723233938835
 21
555.8189525774
 31
0.0
  0
LINE
  5
2405
330
213C
100
AcDbEntity
  8
BEM
 62
     0
370
    -2
100
AcDbLine
 10
116.9723233938835
 20
788.9454169880475
 30
0.0
 11
116.9723233938835
 21
562.8189525774001
 31
0.0
  0
SOLID
  5
2406
330
213C
100
AcDbEntity
  8
BEM
 62
     0
100
AcDbTrace
 10
115.8056567272168
 20
788.9454169880475
 30
0.0
 11
118.1389900605502
 21
788.9454169880475
 31
0.0
 12
116.9723233938835
 22
795.9454169880475
 32
0.0
 13
116.9723233938835
 23
795.9454169880475
 33
0.0
  0
SOLID
  5
2407
330
213C
100
AcDbEntity
  8
BEM
 62
     0
100
AcDbTrace
 10
115.8056567272168
 20
562.8189525774001
 30
0.0
 11
118.1389900605501
 21
562.8189525774001
 31
0.0
 12
116.9723233938835
 22
555.8189525774
 32
0.0
 13
116.9723233938835
 23
555.8189525774
 33
0.0
  0
MTEXT
  5
2408
330
213C
100
AcDbEntity
  8
BEM
 62
     1
100
AcDbMText
 10
110.4723233938834
 20
675.8821847827237
 30
0.0
 40
7.0
 41
0.0
 71
     5
 72
     1
  1
\A1;460
 11
0.0000000000000001
 21
1.0
 31
0.0
 73
     1
 44
1.0
  0
POINT
  5
2409
330
213C
100
AcDbEntity
  8
DEFPOINTS
 62
     0
100
AcDbPoint
 10
181.664943367506
 20
795.9454169880475
 30
0.0
  0
POINT
  5
240A
330
213C
100
AcDbEntity
  8
DEFPOINTS
 62
     0
100
AcDbPoint
 10
132.3716992054309
 20
555.8189525774
 30
0.0
  0
POINT
  5
240B
330
213C
100
AcDbEntity
  8
DEFPOINTS
 62
     0
100
AcDbPoint
 10
116.9723233938835
 20
555.8189525774
 30
0.0
  0
ENDBLK
  5
2148
330
213C
100
AcDbEntity
  8
0
100
AcDbBlockEnd
  0
BLOCK
  5
2154
330
2149
100
AcDbEntity
  8
0
100
AcDbBlockBegin
  2
*D10
 70
     1
 10
0.0
 20
0.0
 30
0.0
  3
*D10
  1

  0
LINE
  5
233F
330
2149
100
AcDbEntity
  8
BEM
 62
     0
370
    -2
100
AcDbLine
 10
186.3716992054305
 20
87.81895257739961
 30
0.0
 11
186.3716992054305
 21
54.11810008813791
 31
0.0
  0
LINE
  5
2340
330
2149
100
AcDbEntity
  8
BEM
 62
     0
370
    -2
100
AcDbLine
 10
288.3716992054303
 20
87.81895257740051
 30
0.0
 11
288.3716992054303
 21
54.11810008813791
 31
0.0
  0
LINE
  5
2341
330
2149
100
AcDbEntity
  8
BEM
 62
     0
370
    -2
100
AcDbLine
 10
193.3716992054305
 20
56.1181000881379
 30
0.0
 11
281.3716992054303
 21
56.1181000881379
 31
0.0
  0
SOLID
  5
2342
330
2149
100
AcDbEntity
  8
BEM
 62
     0
100
AcDbTrace
 10
193.3716992054305
 20
57.28476675480457
 30
0.0
 11
193.3716992054305
 21
54.95143342147124
 31
0.0
 12
186.3716992054305
 22
56.1181000881379
 32
0.0
 13
186.3716992054305
 23
56.1181000881379
 33
0.0
  0
SOLID
  5
2343
330
2149
100
AcDbEntity
  8
BEM
 62
     0
100
AcDbTrace
 10
281.3716992054303
 20
57.28476675480457
 30
0.0
 11
281.3716992054303
 21
54.95143342147124
 31
0.0
 12
288.3716992054303
 22
56.1181000881379
 32
0.0
 13
288.3716992054303
 23
56.1181000881379
 33
0.0
  0
MTEXT
  5
2344
330
2149
100
AcDbEntity
  8
BEM
 62
     1
100
AcDbMText
 10
237.3716992054304
 20
62.61810008813791
 30
0.0
 40
7.0
 41
0.0
 71
     5
 72
     1
  1
\A1;%%C102
 73
     1
 44
1.0
  0
POINT
  5
2345
330
2149
100
AcDbEntity
  8
DEFPOINTS
 62
     0
100
AcDbPoint
 10
186.3716992054305
 20
89.81895257739962
 30
0.0
  0
POINT
  5
2346
330
2149
100
AcDbEntity
  8
DEFPOINTS
 62
     0
100
AcDbPoint
 10
288.3716992054303
 20
89.81895257740053
 30
0.0
  0
POINT
  5
2347
330
2149
100
AcDbEntity
  8
DEFPOINTS
 62
     0
100
AcDbPoint
 10
288.3716992054303
 20
56.1181000881379
 30
0.0
  0
ENDBLK
  5
2155
330
2149
100
AcDbEntity
  8
0
100
AcDbBlockEnd
  0
BLOCK
  5
2161
330
2156
100
AcDbEntity
  8
0
100
AcDbBlockBegin
  2
*D11
 70
     1
 10
0.0
 20
0.0
 30
0.0
  3
*D11
  1

  0
LINE
  5
23FA
330
2156
100
AcDbEntity
  8
BEM
 62
     0
370
    -2
100
AcDbLine
 10
185.4215631677414
 20
77.8189525774
 30
0.0
 11
114.9723233938835
 21
77.81895257740001
 31
0.0
  0
LINE
  5
23FB
330
2156
100
AcDbEntity
  8
BEM
 62
     0
370
    -2
100
AcDbLine
 10
170.8716992054308
 20
427.8189525773998
 30
0.0
 11
114.9723233938835
 21
427.8189525773998
 31
0.0
  0
LINE
  5
23FC
330
2156
100
AcDbEntity
  8
BEM
 62
     0
370
    -2
100
AcDbLine
 10
116.9723233938835
 20
84.81895257740001
 30
0.0
 11
116.9723233938835
 21
420.8189525773999
 31
0.0
  0
SOLID
  5
23FD
330
2156
100
AcDbEntity
  8
BEM
 62
     0
100
AcDbTrace
 10
115.8056567272168
 20
84.81895257740001
 30
0.0
 11
118.1389900605501
 21
84.81895257740001
 31
0.0
 12
116.9723233938835
 22
77.81895257740001
 32
0.0
 13
116.9723233938835
 23
77.81895257740001
 33
0.0
  0
SOLID
  5
23FE
330
2156
100
AcDbEntity
  8
BEM
 62
     0
100
AcDbTrace
 10
115.8056567272168
 20
420.8189525773999
 30
0.0
 11
118.1389900605502
 21
420.8189525773999
 31
0.0
 12
116.9723233938835
 22
427.8189525773998
 32
0.0
 13
116.9723233938835
 23
427.8189525773998
 33
0.0
  0
MTEXT
  5
23FF
330
2156
100
AcDbEntity
  8
BEM
 62
     1
100
AcDbMText
 10
110.4723233938834
 20
252.8189525774
 30
0.0
 40
7.0
 41
0.0
 71
     5
 72
     1
  1
\A1;2500
 11
0.0000000000000001
 21
1.0
 31
0.0
 73
     1
 44
1.0
  0
POINT
  5
2400
330
2156
100
AcDbEntity
  8
DEFPOINTS
 62
     0
100
AcDbPoint
 10
187.4215631677414
 20
77.8189525774
 30
0.0
  0
POINT
  5
2401
330
2156
100
AcDbEntity
  8
DEFPOINTS
 62
     0
100
AcDbPoint
 10
172.8716992054308
 20
427.8189525773998
 30
0.0
  0
POINT
  5
2402
330
2156
100
AcDbEntity
  8
DEFPOINTS
 62
     0
100
AcDbPoint
 10
116.9723233938835
 20
427.8189525773998
 30
0.0
  0
ENDBLK
  5
2162
330
2156
100
AcDbEntity
  8
0
100
AcDbBlockEnd
  0
BLOCK
  5
2188
330
217D
100
AcDbEntity
  8
0
100
AcDbBlockBegin
  2
*D12
 70
     1
 10
0.0
 20
0.0
 30
0.0
  3
*D12
  1

  0
LINE
  5
232D
330
217D
100
AcDbEntity
  8
BEM
 62
     0
370
    -2
100
AcDbLine
 10
178.3716992054311
 20
785.3406655254764
 30
0.0
 11
178.3716992054311
 21
812.0419415176751
 31
0.0
  0
LINE
  5
232E
330
217D
100
AcDbEntity
  8
BEM
 62
     0
370
    -2
100
AcDbLine
 10
296.3716992054311
 20
785.3406655254764
 30
0.0
 11
296.3716992054311
 21
812.0419415176751
 31
0.0
  0
LINE
  5
232F
330
217D
100
AcDbEntity
  8
BEM
 62
     0
370
    -2
100
AcDbLine
 10
185.3716992054311
 20
810.0419415176752
 30
0.0
 11
289.3716992054311
 21
810.0419415176752
 31
0.0
  0
SOLID
  5
2330
330
217D
100
AcDbEntity
  8
BEM
 62
     0
100
AcDbTrace
 10
185.3716992054311
 20
811.2086081843418
 30
0.0
 11
185.3716992054311
 21
808.8752748510085
 31
0.0
 12
178.3716992054311
 22
810.0419415176752
 32
0.0
 13
178.3716992054311
 23
810.0419415176752
 33
0.0
  0
SOLID
  5
2331
330
217D
100
AcDbEntity
  8
BEM
 62
     0
100
AcDbTrace
 10
289.3716992054311
 20
811.2086081843418
 30
0.0
 11
289.3716992054311
 21
808.8752748510085
 31
0.0
 12
296.3716992054311
 22
810.0419415176752
 32
0.0
 13
296.3716992054311
 23
810.0419415176752
 33
0.0
  0
MTEXT
  5
2332
330
217D
100
AcDbEntity
  8
BEM
 62
     1
100
AcDbMText
 10
237.3716992054311
 20
816.5419415176753
 30
0.0
 40
7.0
 41
0.0
 71
     5
 72
     1
  1
\A1;%%C118
 73
     1
 44
1.0
  0
POINT
  5
2333
330
217D
100
AcDbEntity
  8
DEFPOINTS
 62
     0
100
AcDbPoint
 10
178.3716992054311
 20
783.3406655254764
 30
0.0
  0
POINT
  5
2334
330
217D
100
AcDbEntity
  8
DEFPOINTS
 62
     0
100
AcDbPoint
 10
296.3716992054311
 20
783.3406655254764
 30
0.0
  0
POINT
  5
2335
330
217D
100
AcDbEntity
  8
DEFPOINTS
 62
     0
100
AcDbPoint
 10
296.3716992054311
 20
810.0419415176752
 30
0.0
  0
ENDBLK
  5
2189
330
217D
100
AcDbEntity
  8
0
100
AcDbBlockEnd
  0
BLOCK
  5
2195
330
218A
100
AcDbEntity
  8
0
100
AcDbBlockBegin
  2
*D13
 70
     1
 10
0.0
 20
0.0
 30
0.0
  3
*D13
  1

  0
LINE
  5
23DE
330
218A
100
AcDbEntity
  8
BEM
 62
     0
370
    -2
100
AcDbLine
 10
132.3716992054309
 20
551.8189525774
 30
0.0
 11
132.3716992054309
 21
504.3855243082184
 31
0.0
  0
LINE
  5
23DF
330
218A
100
AcDbEntity
  8
BEM
 62
     0
370
    -2
100
AcDbLine
 10
342.3716992054309
 20
551.8189525774
 30
0.0
 11
342.3716992054309
 21
504.3855243082184
 31
0.0
  0
LINE
  5
23E0
330
218A
100
AcDbEntity
  8
BEM
 62
     0
370
    -2
100
AcDbLine
 10
139.3716992054309
 20
506.3855243082184
 30
0.0
 11
335.3716992054309
 21
506.3855243082184
 31
0.0
  0
SOLID
  5
23E1
330
218A
100
AcDbEntity
  8
BEM
 62
     0
100
AcDbTrace
 10
139.3716992054309
 20
507.5521909748851
 30
0.0
 11
139.3716992054309
 21
505.2188576415518
 31
0.0
 12
132.3716992054309
 22
506.3855243082184
 32
0.0
 13
132.3716992054309
 23
506.3855243082184
 33
0.0
  0
SOLID
  5
23E2
330
218A
100
AcDbEntity
  8
BEM
 62
     0
100
AcDbTrace
 10
335.3716992054309
 20
507.5521909748851
 30
0.0
 11
335.3716992054309
 21
505.2188576415518
 31
0.0
 12
342.3716992054309
 22
506.3855243082184
 32
0.0
 13
342.3716992054309
 23
506.3855243082184
 33
0.0
  0
MTEXT
  5
23E3
330
218A
100
AcDbEntity
  8
BEM
 62
     1
100
AcDbMText
 10
237.3716992054309
 20
512.8855243082184
 30
0.0
 40
7.0
 41
0.0
 71
     5
 72
     1
  1
\A1;%%C210
 73
     1
 44
1.0
  0
POINT
  5
23E4
330
218A
100
AcDbEntity
  8
DEFPOINTS
 62
     0
100
AcDbPoint
 10
132.3716992054309
 20
553.8189525774
 30
0.0
  0
POINT
  5
23E5
330
218A
100
AcDbEntity
  8
DEFPOINTS
 62
     0
100
AcDbPoint
 10
342.3716992054309
 20
553.8189525774
 30
0.0
  0
POINT
  5
23E6
330
218A
100
AcDbEntity
  8
DEFPOINTS
 62
     0
100
AcDbPoint
 10
342.3716992054309
 20
506.3855243082184
 30
0.0
  0
ENDBLK
  5
2196
330
218A
100
AcDbEntity
  8
0
100
AcDbBlockEnd
  0
ENDSEC
  0
SECTION
  2
ENTITIES
  0
TEXT
  5
8F
330
1E
100
AcDbEntity
  8
VOLL
100
AcDbText
 10
78.07675471698113
 20
31.02594776470585
 30
0.0
 40
1.8
  1

  7
GREEKS
100
AcDbText
  0
LINE
  5
855
330
1E
100
AcDbEntity
  8
STEMPEL
100
AcDbLine
 10
483.9999999999998
 20
830.0
 30
0.0
 11
483.9999999999998
 21
470.0000000000001
 31
0.0
  0
LINE
  5
856
330
1E
100
AcDbEntity
  8
STEMPEL
100
AcDbLine
 10
483.9999999999998
 20
566.0000000000002
 30
0.0
 11
583.9999999999998
 21
566.0000000000001
 31
0.0
  0
LINE
  5
857
330
1E
100
AcDbEntity
  8
STEMPEL
100
AcDbLine
 10
483.9999999999998
 20
650.0
 30
0.0
 11
583.9999999999998
 21
650.0
 31
0.0
  0
LINE
  5
858
330
1E
100
AcDbEntity
  8
STEMPEL
100
AcDbLine
 10
484.0
 20
752.0000000000001
 30
0.0
 11
553.9999999999998
 21
752.0000000000001
 31
0.0
  0
LINE
  5
859
330
1E
100
AcDbEntity
  8
STEMPEL
100
AcDbLine
 10
563.9999999999998
 20
566.0
 30
0.0
 11
563.9999999999997
 21
470.0000000000001
 31
0.0
  0
LINE
  5
85A
330
1E
100
AcDbEntity
  8
STEMPEL
100
AcDbLine
 10
553.9999999999998
 20
830.0
 30
0.0
 11
553.9999999999999
 21
566.0000000000002
 31
0.0
  0
LINE
  5
85B
330
1E
100
AcDbEntity
  8
STEMPEL
100
AcDbLine
 10
513.9999999999997
 20
830.0
 30
0.0
 11
513.9999999999998
 21
566.0000000000002
 31
0.0
  0
LINE
  5
85C
330
1E
100
AcDbEntity
  8
VOLL
100
AcDbLine
 10
483.9999999999998
 20
484.0000000000002
 30
0.0
 11
583.9999999999998
 21
484.0000000000001
 31
0.0
  0
LINE
  5
85D
330
1E
100
AcDbEntity
  8
VOLL
100
AcDbLine
 10
483.9999999999998
 20
524.0000000000001
 30
0.0
 11
583.9999999999998
 21
524.0000000000001
 31
0.0
  0
LINE
  5
85E
330
1E
100
AcDbEntity
  8
VOLL
100
AcDbLine
 10
483.9999999999998
 20
544.0000000000002
 30
0.0
 11
583.9999999999998
 21
544.0000000000001
 31
0.0
  0
LINE
  5
85F
330
1E
100
AcDbEntity
  8
VOLL
100
AcDbLine
 10
513.9999999999998
 20
584.0000000000002
 30
0.0
 11
553.9999999999999
 21
584.0000000000002
 31
0.0
  0
LINE
  5
860
330
1E
100
AcDbEntity
  8
VOLL
100
AcDbLine
 10
484.0
 20
610.0000000000002
 30
0.0
 11
553.9999999999999
 21
610.0000000000001
 31
0.0
  0
LINE
  5
861
330
1E
100
AcDbEntity
  8
HILF
100
AcDbLine
 10
493.9999999999997
 20
470.0000000000001
 30
0.0
 11
493.9999999999997
 21
566.0000000000002
 31
0.0
  0
LINE
  5
862
330
1E
100
AcDbEntity
  8
HILF
100
AcDbLine
 10
503.9999999999998
 20
470.0000000000001
 30
0.0
 11
503.9999999999998
 21
566.0000000000002
 31
0.0
  0
LINE
  5
863
330
1E
100
AcDbEntity
  8
HILF
100
AcDbLine
 10
513.9999999999998
 20
470.0000000000001
 30
0.0
 11
513.9999999999998
 21
566.0000000000002
 31
0.0
  0
LINE
  5
864
330
1E
100
AcDbEntity
  8
HILF
100
AcDbLine
 10
523.9999999999999
 20
470.0000000000001
 30
0.0
 11
523.9999999999999
 21
566.0000000000002
 31
0.0
  0
LINE
  5
865
330
1E
100
AcDbEntity
  8
HILF
100
AcDbLine
 10
533.9999999999998
 20
470.0000000000001
 30
0.0
 11
533.9999999999998
 21
566.0000000000002
 31
0.0
  0
LINE
  5
866
330
1E
100
AcDbEntity
  8
HILF
100
AcDbLine
 10
543.9999999999997
 20
470.0000000000001
 30
0.0
 11
543.9999999999998
 21
566.0000000000002
 31
0.0
  0
LINE
  5
867
330
1E
100
AcDbEntity
  8
HILF
100
AcDbLine
 10
553.9999999999998
 20
470.0000000000001
 30
0.0
 11
553.9999999999999
 21
566.0000000000002
 31
0.0
  0
LINE
  5
868
330
1E
100
AcDbEntity
  8
HILF
100
AcDbLine
 10
523.9999999999999
 20
566.0000000000002
 30
0.0
 11
523.9999999999999
 21
650.0
 31
0.0
  0
LINE
  5
869
330
1E
100
AcDbEntity
  8
HILF
100
AcDbLine
 10
533.9999999999998
 20
566.0000000000002
 30
0.0
 11
533.9999999999998
 21
650.0
 31
0.0
  0
LINE
  5
86A
330
1E
100
AcDbEntity
  8
HILF
100
AcDbLine
 10
543.9999999999998
 20
566.0000000000002
 30
0.0
 11
543.9999999999998
 21
650.0
 31
0.0
  0
LINE
  5
86B
330
1E
100
AcDbEntity
  8
HILF
100
AcDbLine
 10
509.9624175243584
 20
654.7736801096948
 30
0.0
 11
509.9624175243584
 21
744.8353916556311
 31
0.0
  0
LINE
  5
86C
330
1E
100
AcDbEntity
  8
HILF
100
AcDbLine
 10
523.9999999999999
 20
654.7736801096948
 30
0.0
 11
523.9999999999999
 21
744.835391655631
 31
0.0
  0
LINE
  5
86D
330
1E
100
AcDbEntity
  8
HILF
100
AcDbLine
 10
533.9999999999998
 20
654.7736801096948
 30
0.0
 11
533.9999999999998
 21
744.835391655631
 31
0.0
  0
LINE
  5
86E
330
1E
100
AcDbEntity
  8
HILF
100
AcDbLine
 10
543.9999999999998
 20
654.7736801096948
 30
0.0
 11
543.9999999999998
 21
744.835391655631
 31
0.0
  0
LINE
  5
86F
330
1E
100
AcDbEntity
  8
VOLL
100
AcDbLine
 10
533.9999999999998
 20
752.0000000000001
 30
0.0
 11
533.9999999999998
 21
830.0
 31
0.0
  0
LINE
  5
870
330
1E
100
AcDbEntity
  8
HILF
100
AcDbLine
 10
510.2201636304415
 20
756.7238616296994
 30
0.0
 11
510.2201636304415
 21
824.8588839326728
 31
0.0
  0
LINE
  5
871
330
1E
100
AcDbEntity
  8
HILF
100
AcDbLine
 10
579.1060174197166
 20
653.4909699289886
 30
0.0
 11
579.1060174197166
 21
824.8588839326728
 31
0.0
  0
TEXT
  5
872
330
1E
100
AcDbEntity
  8
TEXT
100
AcDbText
 10
575.3261810501585
 20
492.7826069847976
 30
0.0
 40
4.0
  1
Änderung
 50
90.0
 41
0.8
  7
GREEKS
 72
     1
 11
575.3261810501585
 21
503.5254641276548
 31
0.0
100
AcDbText
  0
TEXT
  5
873
330
1E
100
AcDbEntity
  8
TEXT
100
AcDbText
 10
491.537910491291
 20
573.5163572150378
 30
0.0
 40
5.0
  1
Maßstab
 50
90.0
 41
0.8
  7
GREEKS
100
AcDbText
  0
TEXT
  5
874
330
1E
100
AcDbEntity
  8
TEXT
100
AcDbText
 10
491.5815831565179
 20
614.2858954734053
 30
0.0
 40
5.0
  1
Zul. Abw.
 50
90.0
 41
0.8
  7
GREEKS
100
AcDbText
  0
TEXT
  5
875
330
1E
100
AcDbEntity
  8
TEXT
100
AcDbText
 10
491.4510671988218
 20
654.8779403809011
 30
0.0
 40
5.0
  1
Benennung
 50
90.0
 41
0.8
  7
GREEKS
100
AcDbText
  0
TEXT
  5
876
330
1E
100
AcDbEntity
  8
TEXT
100
AcDbText
 10
491.6867965462862
 20
756.1787549576341
 30
0.0
 40
5.0
  1
Zeichnungs Nr.
 50
90.0
 41
0.8
  7
GREEKS
100
AcDbText
  0
TEXT
  5
877
330
1E
100
AcDbEntity
  8
TEXT
100
AcDbText
 10
563.1543942980693
 20
654.742238391136
 30
0.0
 40
5.0
  1
Bauvorhaben
 50
90.0
 41
0.8
  7
GREEKS
100
AcDbText
  0
TEXT
  5
878
330
1E
100
AcDbEntity
  8
TEXT
100
AcDbText
 10
520.8188176290001
 20
756.7238616296994
 30
0.0
 40
5.0
  1
Ersatz für:
 50
90.0
 41
0.8
  7
GREEKS
100
AcDbText
  0
TEXT
  5
879
330
1E
100
AcDbEntity
  8
TEXT
100
AcDbText
 10
580.3453415397278
 20
478.2664110704577
 30
0.0
 40
4.0
  1
Index
 50
180.0
 41
0.8
  7
GREEKS
100
AcDbText
  0
TEXT
  5
87A
330
1E
100
AcDbEntity
  8
TEXT
100
AcDbText
 10
575.3284373066017
 20
530.0571803261056
 30
0.0
 40
4.0
  1
Tag
 50
90.0
 41
0.8
  7
GREEKS
 72
     1
 11
575.3284373066017
 21
533.7905136594389
 31
0.0
100
AcDbText
  0
TEXT
  5
87B
330
1E
100
AcDbEntity
  8
TEXT
100
AcDbText
 10
575.4067578303358
 20
548.6614567187548
 30
0.0
 40
4.0
  1
Name
 50
90.0
 41
0.8
  7
GREEKS
 72
     1
 11
575.4067578303358
 21
554.9852662425642
 31
0.0
100
AcDbText
  0
TEXT
  5
87C
330
1E
100
AcDbEntity
  8
TEXT
100
AcDbText
 10
520.6811949877005
 20
592.3311673153651
 30
0.0
 40
4.0
  1
Tag
 50
90.0
 41
0.8
  7
GREEKS
100
AcDbText
  0
TEXT
  5
87D
330
1E
100
AcDbEntity
  8
TEXT
100
AcDbText
 10
520.6903890808475
 20
622.4626584226296
 30
0.0
 40
4.0
  1
Name
 50
90.0
 41
0.8
  7
GREEKS
100
AcDbText
  0
TEXT
  5
87E
330
1E
100
AcDbEntity
  8
TEXT
100
AcDbText
 10
530.3700963038202
 20
567.5836127167616
 30
0.0
 40
4.0
  1
Gez.
 50
90.0
 41
0.8
  7
GREEKS
100
AcDbText
  0
TEXT
  5
87F
330
1E
100
AcDbEntity
  8
TEXT
100
AcDbText
 10
540.310737085716
 20
567.5515086571673
 30
0.0
 40
4.0
  1
Gepr.
 50
90.0
 41
0.8
  7
GREEKS
100
AcDbText
  0
TEXT
  5
880
330
1E
100
AcDbEntity
  8
TEXT
100
AcDbText
 10
550.4705361035018
 20
567.6006777387304
 30
0.0
 40
4.0
  1
Norm.
 50
90.0
 41
0.8
  7
GREEKS
100
AcDbText
  0
LINE
  5
881
330
1E
100
AcDbEntity
  8
STEMPEL
100
AcDbLine
 10
583.9999999999998
 20
480.0
 30
0.0
 11
583.9999999999998
 21
830.0
 31
0.0
  0
TEXT
  5
882
330
1E
100
AcDbEntity
  8
TEXT
100
AcDbText
 10
541.9258382212137
 20
757.2400861497007
 30
0.0
 40
5.0
  1
ersetzt durch:
 50
90.0
 41
0.8
  7
GREEKS
100
AcDbText
  0
LINE
  5
883
330
1E
100
AcDbEntity
  8
STEMPEL
100
AcDbLine
 10
583.9999999999998
 20
830.0
 30
0.0
 11
583.9999999999998
 21
40.00000000000011
 31
0.0
  0
LINE
  5
884
330
1E
100
AcDbEntity
  8
STEMPEL
100
AcDbLine
 10
583.9999999999998
 20
830.0
 30
0.0
 11
9.999999999999772
 21
830.0
 31
0.0
  0
LINE
  5
885
330
1E
100
AcDbEntity
  8
STEMPEL
100
AcDbLine
 10
583.9999999999998
 20
470.0000000000001
 30
0.0
 11
483.9999999999998
 21
470.0000000000001
 31
0.0
  0
LINE
  5
886
330
1E
100
AcDbEntity
  8
STEMPEL
100
AcDbLine
 10
9.999999999999772
 20
830.0
 30
0.0
 11
9.999999999999772
 21
40.00000000000003
 31
0.0
  0
LINE
  5
887
330
1E
100
AcDbEntity
  8
HILF
100
AcDbLine
 10
-0.0000000000004547
 20
840.0
 30
0.0
 11
0.0
 21
-0.0000000000000205
 31
0.0
  0
LINE
  5
888
330
1E
100
AcDbEntity
  8
HILF
100
AcDbLine
 10
593.9999999999997
 20
840.0000000000002
 30
0.0
 11
593.9999999999997
 21
0.0000000000001137
 31
0.0
  0
LINE
  5
889
330
1E
100
AcDbEntity
  8
HILF
100
AcDbLine
 10
296.9999999999999
 20
31.08767135713863
 30
0.0
 11
296.9999999999999
 21
0.0000000000001887
 31
0.0
  0
TEXT
  5
88A
330
1E
100
AcDbEntity
  8
TEXT
100
AcDbText
 10
520.8597452884832
 20
568.622109822104
 30
0.0
 40
4.0
  1
2012
 50
90.0
 41
0.8
  7
GREEKS
100
AcDbText
  0
LINE
  5
88B
330
1E
100
AcDbEntity
  8
HILF
100
AcDbLine
 10
593.9999999999998
 20
840.0000000000002
 30
0.0
 11
-0.0000000000002274
 21
840.0
 31
0.0
  0
TEXT
  5
88C
330
1E
100
AcDbEntity
  8
VOLL
100
AcDbText
 10
531.948104470588
 20
156.1535094339624
 30
0.0
 40
3.6
  1

 50
90.0
  7
GREEKS
100
AcDbText
  0
TEXT
  5
88D
330
1E
100
AcDbEntity
  8
TEXT
100
AcDbText
 10
482.3279999999998
 20
471.8550995097769
 30
0.0
 40
5.0
  1
Erstellt mit AUTOCAD 2004
 50
90.0
 41
0.8
  7
GREEKS
100
AcDbText
  0
TEXT
  5
88E
330
1E
100
AcDbEntity
  8
TEXT
100
AcDbText
 10
530.9103608027647
 20
624.4216048581258
 30
0.0
 40
4.0
  1
Koeh
 50
90.0
 41
0.8
  7
GREEKS
 72
     1
 11
530.9103608027647
 21
629.6787477152687
 31
0.0
100
AcDbText
  0
TEXT
  5
88F
330
1E
100
AcDbEntity
  8
TEXT
 62
     1
100
AcDbText
 10
505.8509857108602
 20
768.3132494462936
 30
0.0
 40
7.0
  1
16729100W
 50
90.0
 41
0.8
  7
GREEKS
 72
     1
 11
505.8509857108602
 21
791.246582779627
 31
0.0
100
AcDbText
  0
TEXT
  5
890
330
1E
100
AcDbEntity
  8
TEXT
 62
     1
100
AcDbText
 10
505.8509857108602
 20
580.5006306481888
 30
0.0
 40
7.0
  1
1:2
 50
90.0
 41
0.8
  7
GREEKS
100
AcDbText
  0
TEXT
  5
891
330
1E
100
AcDbEntity
  8
TEXT
100
AcDbText
 10
530.8923495917424
 20
590.3989971082362
 30
0.0
 40
4.0
  1
09.03.
 50
90.0
 41
0.8
  7
GREEKS
 72
     1
 11
530.8923495917424
 21
597.40852091776
 31
0.0
100
AcDbText
  0
TEXT
  5
892
330
1E
100
AcDbEntity
  8
TEXT
 62
     1
100
AcDbText
 10
506.582512107462
 20
654.4942536306288
 30
0.0
 40
7.0
  1
Balkondirektablauf DN100
 50
90.0
 41
0.7
  7
GREEKS
100
AcDbText
  0
TEXT
  5
893
330
1E
100
AcDbEntity
  8
TEXT
100
AcDbText
 10
522.4966558241469
 20
655.1296391125316
 30
0.0
 40
5.0
  1
für Balkongeschosse
 50
90.0
 41
0.8
  7
GREEKS
100
AcDbText
  0
TEXT
  5
894
330
1E
100
AcDbEntity
  8
TEXT
100
AcDbText
 10
531.8841929322513
 20
655.1296391125316
 30
0.0
 40
5.0
  1
geschoßhoch
 50
90.0
 41
0.8
  7
GREEKS
100
AcDbText
  0
TEXT
  5
895
330
1E
100
AcDbEntity
  8
TEXT
100
AcDbText
 10
542.3598805695782
 20
655.1296391125316
 30
0.0
 40
5.0
  1
EDV-Art.Nr. 16729.100X
 50
90.0
 41
0.8
  7
GREEKS
100
AcDbText
  0
TEXT
  5
896
330
1E
100
AcDbEntity
  8
TEXT
100
AcDbText
 10
551.3702584697734
 20
654.9837501577827
 30
0.0
 40
4.0
  1
16729100W.DWG
 50
90.0
 41
0.8
  7
GREEKS
100
AcDbText
  0
TEXT
  5
897
330
1E
100
AcDbEntity
  8
TEXT
100
AcDbText
 10
503.2363615897696
 20
612.626132208084
 30
0.0
 40
4.0
  1
DIN EN1123-2
 50
90.0
 41
0.8
  7
GREEKS
 72
     1
 11
503.2363615897696
 21
629.6166083985602
 31
0.0
100
AcDbText
  0
INSERT
  5
898
330
1E
100
AcDbEntity
  8
STEMPEL
100
AcDbBlockReference
  2
LOGO
 10
548.9789472355165
 20
570.9955485457795
 30
0.0
 41
2.0
 42
2.0
 43
2.0
 50
90.0
  0
LINE
  5
899
330
1E
100
AcDbEntity
  8
HILF
100
AcDbLine
 10
593.9999999999997
 20
0.0000000000001137
 30
0.0
 11
0.0
 21
-0.0000000000000205
 31
0.0
  0
LINE
  5
89A
330
1E
100
AcDbEntity
  8
STEMPEL
100
AcDbLine
 10
583.9999999999998
 20
40.00000000000011
 30
0.0
 11
9.999999999999772
 21
40.00000000000003
 31
0.0
  0
LINE
  5
89B
330
1E
100
AcDbEntity
  8
HILF
 62
     7
100
AcDbLine
 10
594.0000000000001
 20
460.0000000000001
 30
0.0
 11
583.9999999999998
 21
460.0000000000001
 31
0.0
  0
LINE
  5
89C
330
1E
100
AcDbEntity
  8
HILF
 62
     7
100
AcDbLine
 10
9.999999999999772
 20
460.0
 30
0.0
 11
-0.0000000000001137
 21
460.0
 31
0.0
  0
TEXT
  5
89D
330
1E
100
AcDbEntity
  8
BEM
100
AcDbText
 10
583.8320989200111
 20
837.3022923857167
 30
0.0
 40
4.0
  1
Diese Zeichnung ist urheberrechtlich geschützt und bleibt unser Eigentum. Sie darf weder ganz noch teilweise verfielfältigt und nicht an Dritte weitergegeben werden.
 50
180.0
 41
0.8
  7
GREEKS
100
AcDbText
  0
TEXT
  5
FD9
330
1E
100
AcDbEntity
  8
TEXT
 62
     1
100
AcDbText
 10
222.4510572887509
 20
116.9805094610975
 30
0.0
 40
7.0
  1
DN100
 50
90.0
 41
0.8
  7
GREEKS
100
AcDbText
  0
TEXT
  5
1757
330
1E
100
AcDbEntity
  8
TEXT
 62
     1
100
AcDbText
 10
346.7845012569561
 20
740.1554949646897
 30
0.0
 40
7.0
  1
EDV-Art.Nr. 16714.0100X
 41
0.8
  7
GREEKS
100
AcDbText
  0
LINE
  5
1758
330
1E
100
AcDbEntity
  8
TEXT
 62
     2
100
AcDbLine
 10
345.3364912641875
 20
749.0381772982685
 30
0.0
 11
459.6484638386876
 21
749.0381772982685
 31
0.0
  0
TEXT
  5
1759
330
1E
100
AcDbEntity
  8
TEXT
 62
     1
100
AcDbText
 10
346.7845012569561
 20
751.4245532150084
 30
0.0
 40
7.0
  1
Ablaufkörper DN100
 41
0.8
  7
GREEKS
100
AcDbText
  0
LINE
  5
1766
330
1E
100
AcDbEntity
  8
TEXT
 62
     2
100
AcDbLine
 10
345.3364912641875
 20
749.0381772982685
 30
0.0
 11
271.0595792388033
 21
727.2449932992874
 31
0.0
  0
LINE
  5
1FD3
330
1E
100
AcDbEntity
  8
STEMPEL
100
AcDbLine
 10
178.3716992054311
 20
783.3406655254764
 30
0.0
 11
178.3716992054311
 21
765.1784169880472
 31
0.0
  0
ARC
  5
1FD4
330
1E
100
AcDbEntity
  8
STEMPEL
100
AcDbCircle
 10
203.371699205431
 20
783.3406655254765
 30
0.0
 40
25.0
100
AcDbArc
 50
155.0000000000008
 51
180.0
  0
LINE
  5
1FD5
330
1E
100
AcDbEntity
  8
STEMPEL
100
AcDbLine
 10
181.664943367506
 20
795.9454169880475
 30
0.0
 11
180.7140045295149
 21
793.9061220689938
 31
0.0
  0
POINT
  5
1FD6
330
1E
100
AcDbEntity
  8
STEMPEL
100
AcDbPoint
 10
181.664943367506
 20
795.9454169880475
 30
0.0
  0
ARC
  5
1FD7
330
1E
100
AcDbEntity
  8
STEMPEL
100
AcDbCircle
 10
170.371699205431
 20
748.4454169880477
 30
0.0
 40
12.0
100
AcDbArc
 50
0.0
 51
26.88777065901872
  0
LINE
  5
1FD8
330
1E
100
AcDbEntity
  8
STEMPEL
100
AcDbLine
 10
182.3716992054313
 20
748.4454169880475
 30
0.0
 11
182.3716992054312
 21
703.8526050408131
 31
0.0
  0
LINE
  5
1FD9
330
1E
100
AcDbEntity
  8
STEMPEL
100
AcDbLine
 10
182.3716992054312
 20
701.8526050408122
 30
0.0
 11
182.3716992054311
 21
642.7464414543473
 31
0.0
  0
LINE
  5
1FDA
330
1E
100
AcDbEntity
  8
STEMPEL
100
AcDbLine
 10
132.3716992054309
 20
555.8189525774
 30
0.0
 11
132.3716992054309
 21
553.8189525774
 31
0.0
  0
LINE
  5
1FDB
330
1E
100
AcDbEntity
  8
STEMPEL
100
AcDbLine
 10
173.3716992054309
 20
553.8189525774
 30
0.0
 11
181.3716992054309
 21
524.8189525774001
 31
0.0
  0
LINE
  5
1FDC
330
1E
100
AcDbEntity
  8
STEMPEL
100
AcDbLine
 10
162.3716992054309
 20
448.8189525774
 30
0.0
 11
162.3716992054309
 21
452.3189525774
 31
0.0
  0
LINE
  5
1FDD
330
1E
100
AcDbEntity
  8
STEMPEL
100
AcDbLine
 10
162.3716992054309
 20
448.8189525774
 30
0.0
 11
167.3716992054309
 21
448.8189525773996
 31
0.0
  0
LINE
  5
1FDE
330
1E
100
AcDbEntity
  8
STEMPEL
100
AcDbLine
 10
162.3716992054309
 20
452.3189525774
 30
0.0
 11
162.3716992054309
 21
448.8189525774
 31
0.0
  0
LINE
  5
1FDF
330
1E
100
AcDbEntity
  8
STEMPEL
100
AcDbLine
 10
162.3716992054309
 20
448.8189525774
 30
0.0
 11
167.3716992054309
 21
448.8189525773996
 31
0.0
  0
LINE
  5
1FE0
330
1E
100
AcDbEntity
  8
STEMPEL
100
AcDbLine
 10
162.3716992054309
 20
448.8189525774
 30
0.0
 11
167.3716992054309
 21
448.8189525773996
 31
0.0
  0
LINE
  5
1FE1
330
1E
100
AcDbEntity
  8
STEMPEL
100
AcDbLine
 10
179.2966992054308
 20
454.2439525773988
 30
0.0
 11
177.3716992054318
 21
452.3189525774
 31
0.0
  0
LINE
  5
1FE2
330
1E
100
AcDbEntity
  8
STEMPEL
100
AcDbLine
 10
181.3716992054309
 20
455.8189525774
 30
0.0
 11
180.8716992054318
 21
455.8189525774
 31
0.0
  0
LINE
  5
1FE3
330
1E
100
AcDbEntity
  8
STEMPEL
100
AcDbLine
 10
180.8716992054318
 20
455.8189525774
 30
0.0
 11
179.2966992054308
 21
454.2439525773988
 31
0.0
  0
LINE
  5
1FE4
330
1E
100
AcDbEntity
  8
STEMPEL
100
AcDbLine
 10
179.2966992054308
 20
454.2439525773988
 30
0.0
 11
177.3716992054318
 21
452.3189525774
 31
0.0
  0
LINE
  5
1FE5
330
1E
100
AcDbEntity
  8
STEMPEL
100
AcDbLine
 10
181.3716992054309
 20
455.8189525774
 30
0.0
 11
180.8716992054318
 21
455.8189525774
 31
0.0
  0
LINE
  5
1FE6
330
1E
100
AcDbEntity
  8
STEMPEL
100
AcDbLine
 10
162.3716992054309
 20
452.3189525774
 30
0.0
 11
177.3716992054318
 21
452.3189525774
 31
0.0
  0
DIMENSION
  5
1FE7
330
1E
100
AcDbEntity
  8
BEM
100
AcDbDimension
  2
*D8
 10
116.9723233938835
 20
452.3189525774001
 30
0.0
 11
110.4723233938834
 21
504.0689525774
 31
0.0
 70
    32
  1
min.150-max.250
 71
     5
 42
103.4999999999999
  3
Standard
100
AcDbAlignedDimension
 13
132.3716992054309
 23
555.8189525774
 33
0.0
 14
162.3716992054309
 24
452.3189525774
 34
0.0
 50
90.0
100
AcDbRotatedDimension
1001
ACAD
1000
DSTYLE
1002
{
1070
    40
1040
2.0
1070
    41
1040
3.5
1070
    42
1040
1.0
1070
    43
1040
7.0
1070
    44
1040
1.0
1070
    73
1070
     0
1070
    74
1070
     0
1070
    77
1070
     1
1070
    78
1070
     8
1070
    79
1070
     2
1070
   140
1040
3.5
1070
   141
1040
1.5
1070
   146
1040
0.5142857142857144
1070
   147
1040
1.5
1070
   172
1070
     1
1070
   178
1070
     1
1070
   179
1070
     2
1070
   271
1070
     2
1070
   272
1070
     2
1070
   284
1070
     8
1070
   285
1070
     8
1070
   286
1070
     8
1002
}
  0
LINE
  5
1FEB
330
1E
100
AcDbEntity
  8
STEMPEL
100
AcDbLine
 10
162.3716992054307
 20
431.8189525774
 30
0.0
 11
162.3716992054307
 21
418.8189525773996
 31
0.0
  0
LINE
  5
1FEC
330
1E
100
AcDbEntity
  8
STEMPEL
100
AcDbLine
 10
162.3716992054307
 20
418.8189525773996
 30
0.0
 11
163.3716992054307
 21
417.8189525773996
 31
0.0
  0
ARC
  5
1FED
330
1E
100
AcDbEntity
  8
STEMPEL
100
AcDbCircle
 10
167.7716992054306
 20
425.9189525774001
 30
0.0
 40
1.9
100
AcDbArc
 50
90.0
 51
180.0
  0
LINE
  5
1FEE
330
1E
100
AcDbEntity
  8
STEMPEL
100
AcDbLine
 10
167.7716992054307
 20
427.8189525774
 30
0.0
 11
168.2342860039595
 21
427.8189525774
 31
0.0
  0
LINE
  5
1FEF
330
1E
100
AcDbEntity
  8
STEMPEL
100
AcDbLine
 10
165.8716992054309
 20
425.9189525773999
 30
0.0
 11
165.8716992054309
 21
417.8189525774
 31
0.0
  0
POINT
  5
1FF0
330
1E
100
AcDbEntity
  8
STEMPEL
100
AcDbPoint
 10
166.2282190330601
 20
427.026954814536
 30
0.0
  0
LINE
  5
1FF1
330
1E
100
AcDbEntity
  8
STEMPEL
100
AcDbLine
 10
167.3716992054306
 20
431.8189525774
 30
0.0
 11
162.3716992054307
 21
431.8189525774
 31
0.0
  0
ARC
  5
1FF2
330
1E
100
AcDbEntity
  8
STEMPEL
100
AcDbCircle
 10
151.5610644992648
 20
414.7477304302416
 30
0.0
 40
25.0
100
AcDbArc
 50
7.056548564393372
 51
31.52354387398645
  0
LINE
  5
1FF3
330
1E
100
AcDbEntity
  8
STEMPEL
100
AcDbLine
 10
172.8716992054307
 20
431.8189525773996
 30
0.0
 11
172.8716992054309
 21
427.8189525773996
 31
0.0
  0
LINE
  5
1FF4
330
1E
100
AcDbEntity
  8
STEMPEL
100
AcDbLine
 10
170.0695450739089
 20
426.4107087630946
 30
0.0
 11
172.3716992054309
 21
417.8189525774
 31
0.0
  0
POINT
  5
1FF5
330
1E
100
AcDbEntity
  8
STEMPEL
100
AcDbPoint
 10
172.3716992054309
 20
417.8189525773996
 30
0.0
  0
POINT
  5
1FF6
330
1E
100
AcDbEntity
  8
STEMPEL
100
AcDbPoint
 10
170.0695450739089
 20
426.4107087630946
 30
0.0
  0
POINT
  5
1FF7
330
1E
100
AcDbEntity
  8
STEMPEL
100
AcDbPoint
 10
172.3716992054309
 20
417.8189525774
 30
0.0
  0
ARC
  5
1FF8
330
1E
100
AcDbEntity
  8
STEMPEL
100
AcDbCircle
 10
152.3716992054308
 20
413.5098645561457
 30
0.0
 40
25.0
100
AcDbArc
 50
0.0
 51
32.00317268118462
  0
ARC
  5
1FF9
330
1E
100
AcDbEntity
  8
STEMPEL
100
AcDbCircle
 10
152.3716992054308
 20
413.5098645561457
 30
0.0
 40
27.0
100
AcDbArc
 50
0.0
 51
32.00317268118462
  0
LINE
  5
1FFA
330
1E
100
AcDbEntity
  8
STEMPEL
100
AcDbLine
 10
173.5721679866441
 20
426.759020131381
 30
0.0
 11
175.2682054891412
 21
427.8189525774
 31
0.0
  0
LINE
  5
1FFB
330
1E
100
AcDbEntity
  8
STEMPEL
100
AcDbLine
 10
172.8716992054309
 20
429.8189525774001
 30
0.0
 11
172.8716992054309
 21
431.8189525774
 31
0.0
  0
LINE
  5
1FFC
330
1E
100
AcDbEntity
  8
STEMPEL
100
AcDbLine
 10
172.3716992054309
 20
435.3189525774
 30
0.0
 11
177.3716992054318
 21
435.3189525774
 31
0.0
  0
LINE
  5
1FFD
330
1E
100
AcDbEntity
  8
STEMPEL
100
AcDbLine
 10
172.8716992054309
 20
431.8189525774
 30
0.0
 11
172.8716992054309
 21
429.8189525774001
 31
0.0
  0
LINE
  5
1FFE
330
1E
100
AcDbEntity
  8
STEMPEL
100
AcDbLine
 10
172.8716992054309
 20
429.8189525774001
 30
0.0
 11
179.2966992054308
 21
429.8189525774001
 31
0.0
  0
LINE
  5
1FFF
330
1E
100
AcDbEntity
  8
STEMPEL
100
AcDbLine
 10
177.3716992054318
 20
435.3189525774
 30
0.0
 11
172.3716992054309
 21
435.3189525774
 31
0.0
  0
LINE
  5
2000
330
1E
100
AcDbEntity
  8
STEMPEL
100
AcDbLine
 10
179.2966992054308
 20
429.8189525774001
 30
0.0
 11
181.3716992054309
 21
429.8189525774001
 31
0.0
  0
LINE
  5
2001
330
1E
100
AcDbEntity
  8
STEMPEL
100
AcDbLine
 10
172.8716992054309
 20
429.8189525774001
 30
0.0
 11
179.2966992054308
 21
429.8189525774001
 31
0.0
  0
LINE
  5
2002
330
1E
100
AcDbEntity
  8
STEMPEL
100
AcDbLine
 10
179.2966992054308
 20
429.8189525774001
 30
0.0
 11
181.3716992054309
 21
429.8189525774001
 31
0.0
  0
LINE
  5
2003
330
1E
100
AcDbEntity
  8
STEMPEL
100
AcDbLine
 10
181.3716992054309
 20
427.8189525774
 30
0.0
 11
172.8716992054307
 21
427.8189525774
 31
0.0
  0
ARC
  5
2004
330
1E
100
AcDbEntity
  8
STEMPEL
100
AcDbCircle
 10
168.2342860039593
 20
425.9189525774001
 30
0.0
 40
1.9
100
AcDbArc
 50
15.00000000000106
 51
90.0
  0
LINE
  5
2005
330
1E
100
AcDbEntity
  8
STEMPEL
100
AcDbLine
 10
176.997534428324
 20
417.8189525773996
 30
0.0
 11
163.3716992054307
 21
417.8189525773996
 31
0.0
  0
LINE
  5
2006
330
1E
100
AcDbEntity
  8
STEMPEL
100
AcDbLine
 10
162.7476414224344
 20
431.8189525774
 30
0.0
 11
172.8716992054309
 21
431.8189525774
 31
0.0
  0
LINE
  5
2007
330
1E
100
AcDbEntity
  8
STEMPEL
100
AcDbLine
 10
167.3716992054309
 20
431.8189525774
 30
0.0
 11
172.8716992054309
 21
431.8189525774
 31
0.0
  0
ARC
  5
2008
330
1E
100
AcDbEntity
  8
STEMPEL
100
AcDbCircle
 10
191.3716992054305
 20
270.8238382210063
 30
0.0
 40
12.0
100
AcDbArc
 50
180.0
 51
204.2277453179511
  0
ARC
  5
2009
330
1E
100
AcDbEntity
  8
STEMPEL
100
AcDbCircle
 10
191.3716992054305
 20
270.8238382210063
 30
0.0
 40
14.0
100
AcDbArc
 50
180.0
 51
204.2277453179511
  0
LINE
  5
200A
330
1E
100
AcDbEntity
  8
STEMPEL
100
AcDbLine
 10
179.3716992054305
 20
270.8238382210063
 30
0.0
 11
179.3716992054307
 21
413.5098645561456
 31
0.0
  0
LINE
  5
200B
330
1E
100
AcDbEntity
  8
STEMPEL
100
AcDbLine
 10
177.3716992054305
 20
270.8238382210063
 30
0.0
 11
177.3716992054309
 21
413.5098645561456
 31
0.0
  0
LINE
  5
200D
330
1E
100
AcDbEntity
  8
STEMPEL
100
AcDbLine
 10
162.7476414224344
 20
448.8189525774
 30
0.0
 11
162.7476414224344
 21
431.8189525774
 31
0.0
  0
LINE
  5
200E
330
1E
100
AcDbEntity
  8
STEMPEL
100
AcDbLine
 10
167.3716992054309
 20
448.8189525773996
 30
0.0
 11
167.3716992054309
 21
431.8189525774
 31
0.0
  0
LINE
  5
200F
330
1E
100
AcDbEntity
  8
HILF
100
AcDbLine
 10
179.2966992054308
 20
429.8189525774001
 30
0.0
 11
179.2966992054308
 21
454.2439525773988
 31
0.0
  0
LINE
  5
2010
330
1E
100
AcDbEntity
  8
STEMPEL
100
AcDbLine
 10
177.3716992054318
 20
435.3189525774
 30
0.0
 11
177.3716992054318
 21
452.3189525774
 31
0.0
  0
LINE
  5
2011
330
1E
100
AcDbEntity
  8
STEMPEL
100
AcDbLine
 10
172.3716992054309
 20
435.3189525774
 30
0.0
 11
172.3716992054309
 21
452.3189525774
 31
0.0
  0
LINE
  5
2012
330
1E
100
AcDbEntity
  8
STEMPEL
100
AcDbLine
 10
179.2966992054308
 20
429.8189525774001
 30
0.0
 11
179.2966992054308
 21
454.2439525773988
 31
0.0
  0
LINE
  5
2013
330
1E
100
AcDbEntity
  8
STEMPEL
100
AcDbLine
 10
177.3716992054318
 20
452.3189525774
 30
0.0
 11
177.3716992054318
 21
435.3189525774
 31
0.0
  0
LINE
  5
2014
330
1E
100
AcDbEntity
  8
STEMPEL
100
AcDbLine
 10
172.3716992054309
 20
435.3189525774
 30
0.0
 11
172.3716992054309
 21
452.3189525774
 31
0.0
  0
LINE
  5
2015
330
1E
100
AcDbEntity
  8
STEMPEL
100
AcDbLine
 10
167.3716992054309
 20
448.8189525773996
 30
0.0
 11
167.3716992054309
 21
431.8189525774
 31
0.0
  0
LINE
  5
2016
330
1E
100
AcDbEntity
  8
STEMPEL
100
AcDbLine
 10
167.3716992054309
 20
448.8189525773996
 30
0.0
 11
167.3716992054309
 21
431.8189525774
 31
0.0
  0
LINE
  5
2017
330
1E
100
AcDbEntity
  8
STEMPEL
100
AcDbLine
 10
181.3716992054308
 20
459.5036084493947
 30
0.0
 11
181.3716992054308
 21
294.5036084493947
 31
0.0
  0
ARC
  5
2018
330
1E
100
AcDbEntity
  8
STEMPEL
100
AcDbCircle
 10
203.371699205431
 20
765.1784169880474
 30
0.0
 40
24.99990931069965
100
AcDbArc
 50
180.0
 51
206.8877706590188
  0
DIMENSION
  5
2019
330
1E
100
AcDbEntity
  8
BEM
100
AcDbDimension
  2
*D9
 10
116.9723233938835
 20
555.8189525774
 30
0.0
 11
110.4723233938834
 21
675.8821847827237
 31
0.0
 70
    32
  1
460
 71
     5
 42
240.1264644106475
  3
Standard
100
AcDbAlignedDimension
 13
181.664943367506
 23
795.9454169880475
 33
0.0
 14
132.3716992054309
 24
555.8189525774
 34
0.0
 50
90.0
100
AcDbRotatedDimension
1001
ACAD
1000
DSTYLE
1002
{
1070
    40
1040
2.0
1070
    41
1040
3.5
1070
    42
1040
1.0
1070
    43
1040
7.0
1070
    44
1040
1.0
1070
    73
1070
     0
1070
    74
1070
     0
1070
    77
1070
     1
1070
    78
1070
     8
1070
    79
1070
     2
1070
   140
1040
3.5
1070
   141
1040
1.5
1070
   146
1040
0.5142857142857144
1070
   147
1040
1.5
1070
   172
1070
     1
1070
   178
1070
     1
1070
   179
1070
     2
1070
   271
1070
     2
1070
   272
1070
     2
1070
   284
1070
     8
1070
   285
1070
     8
1070
   286
1070
     8
1002
}
  0
ARC
  5
201A
330
1E
100
AcDbEntity
  8
STEMPEL
100
AcDbCircle
 10
271.371699205431
 20
783.3406655254765
 30
0.0
 40
25.0
100
AcDbArc
 50
0.0
 51
24.99999999999272
  0
LINE
  5
201B
330
1E
100
AcDbEntity
  8
STEMPEL
100
AcDbLine
 10
293.0784550433563
 20
795.9454169880475
 30
0.0
 11
294.0293938813474
 21
793.9061220689938
 31
0.0
  0
LINE
  5
201C
330
1E
100
AcDbEntity
  8
STEMPEL
100
AcDbLine
 10
296.3716992054311
 20
783.3406655254764
 30
0.0
 11
296.3716992054311
 21
765.1784169880472
 31
0.0
  0
LINE
  5
201D
330
1E
100
AcDbEntity
  8
STEMPEL
100
AcDbLine
 10
186.3716992054309
 20
625.8189525774001
 30
0.0
 11
186.3716992054309
 21
620.3882625594296
 31
0.0
  0
LINE
  5
201E
330
1E
100
AcDbEntity
  8
STEMPEL
100
AcDbLine
 10
186.3716992054311
 20
629.7849600575318
 30
0.0
 11
186.3716992054311
 21
620.3882625594296
 31
0.0
  0
ARC
  5
201F
330
1E
100
AcDbEntity
  8
STEMPEL
100
AcDbCircle
 10
178.371699205431
 20
629.7849600575319
 30
0.0
 40
8.0
100
AcDbArc
 50
0.0
 51
34.30115275678995
  0
ARC
  5
2020
330
1E
100
AcDbEntity
  8
STEMPEL
100
AcDbCircle
 10
201.3716992054308
 20
620.3882625594298
 30
0.0
 40
15.0
100
AcDbArc
 50
180.0
 51
194.6733816365809
  0
LINE
  5
2021
330
1E
100
AcDbEntity
  8
STEMPEL
100
AcDbLine
 10
186.860916123925
 20
616.5886343721622
 30
0.0
 11
188.3716992054309
 21
610.8189525774
 31
0.0
  0
LINE
  5
2022
330
1E
100
AcDbEntity
  8
STEMPEL
100
AcDbLine
 10
186.3716992054311
 20
610.8189525774
 30
0.0
 11
186.3716992054311
 21
603.5135142307431
 31
0.0
  0
ARC
  5
2023
330
1E
100
AcDbEntity
  8
SCHRAFF
100
AcDbCircle
 10
192.4163564984485
 20
614.5498568237481
 30
0.0
 40
7.103346273795855
100
AcDbArc
 50
146.477655850614
 51
211.6838577275706
  0
ARC
  5
2024
330
1E
100
AcDbEntity
  8
SCHRAFF
100
AcDbCircle
 10
199.3236712942382
 20
613.6637147157577
 30
0.0
 40
8.717801077182686
100
AcDbArc
 50
146.5206905241456
 51
199.0453524624753
  0
ARC
  5
2025
330
1E
100
AcDbEntity
  8
SCHRAFF
100
AcDbCircle
 10
203.7543303951145
 20
613.6637147157577
 30
0.0
 40
8.717801077182686
100
AcDbArc
 50
146.5206905241456
 51
199.0453524624753
  0
ARC
  5
2026
330
1E
100
AcDbEntity
  8
SCHRAFF
100
AcDbCircle
 10
208.3234470910702
 20
613.6637147157577
 30
0.0
 40
8.717801077182686
100
AcDbArc
 50
146.5206905241456
 51
199.0453524624753
  0
ARC
  5
2027
330
1E
100
AcDbEntity
  8
SCHRAFF
100
AcDbCircle
 10
212.6156485968668
 20
613.6637147157577
 30
0.0
 40
8.717801077182686
100
AcDbArc
 50
146.5206905241456
 51
199.0453524624753
  0
ARC
  5
2028
330
1E
100
AcDbEntity
  8
SCHRAFF
100
AcDbCircle
 10
216.7693925075837
 20
613.6637147157577
 30
0.0
 40
8.717801077182686
100
AcDbArc
 50
146.5206905241456
 51
199.0453524624753
  0
ARC
  5
2029
330
1E
100
AcDbEntity
  8
SCHRAFF
100
AcDbCircle
 10
220.9231364183006
 20
613.6637147157577
 30
0.0
 40
8.717801077182686
100
AcDbArc
 50
146.5206905241456
 51
199.0453524624753
  0
ARC
  5
202A
330
1E
100
AcDbEntity
  8
SCHRAFF
100
AcDbCircle
 10
229.7844546200529
 20
613.6637147157577
 30
0.0
 40
8.717801077182686
100
AcDbArc
 50
146.5206905241456
 51
199.0453524624753
  0
ARC
  5
202B
330
1E
100
AcDbEntity
  8
SCHRAFF
100
AcDbCircle
 10
233.9381985307698
 20
613.6637147157577
 30
0.0
 40
8.717801077182686
100
AcDbArc
 50
146.5206905241456
 51
199.0453524624753
  0
ARC
  5
202C
330
1E
100
AcDbEntity
  8
SCHRAFF
100
AcDbCircle
 10
225.4922531142563
 20
613.6637147157577
 30
0.0
 40
8.717801077182686
100
AcDbArc
 50
146.5206905241456
 51
199.0453524624753
  0
ARC
  5
202D
330
1E
100
AcDbEntity
  8
SCHRAFF
100
AcDbCircle
 10
238.0919424414867
 20
613.6637147157577
 30
0.0
 40
8.717801077182686
100
AcDbArc
 50
146.5206905241456
 51
199.0453524624753
  0
ARC
  5
202E
330
1E
100
AcDbEntity
  8
SCHRAFF
100
AcDbCircle
 10
242.2456863522036
 20
613.6637147157577
 30
0.0
 40
8.717801077182686
100
AcDbArc
 50
146.5206905241456
 51
199.0453524624753
  0
ARC
  5
202F
330
1E
100
AcDbEntity
  8
SCHRAFF
100
AcDbCircle
 10
246.3994302629205
 20
613.6637147157577
 30
0.0
 40
8.717801077182686
100
AcDbArc
 50
146.5206905241456
 51
199.0453524624753
  0
LINE
  5
2030
330
1E
100
AcDbEntity
  8
STEMPEL
100
AcDbLine
 10
190.5290524239373
 20
602.5800189130913
 30
0.0
 11
192.3942480220415
 21
595.456835434411
 31
0.0
  0
LWPOLYLINE
  5
2031
330
1E
100
AcDbEntity
  8
STEMPEL
100
AcDbPolyline
 90
        5
 70
     0
 43
0.0
 10
188.5674136983906
 20
560.8189525774
 42
0.0347164163935535
 10
188.7097634301834
 20
558.7712445698198
 42
0.046657234759923
 10
189.0613574187104
 20
557.2834186714671
 42
0.0897609786521566
 10
189.733050410019
 20
556.066492430989
 42
0.2255649566365662
 10
190.2538430473554
 20
555.8189525774
 42
0.2255649566364823
  0
LWPOLYLINE
  5
2032
330
1E
100
AcDbEntity
  8
STEMPEL
100
AcDbPolyline
 90
        5
 70
     0
 43
0.0
 10
190.2538430473554
 20
555.8189525774
 42
0.1946374076670043
 10
190.9536418855354
 20
556.1020930556328
 42
0.0996739220583098
 10
191.7673379194415
 20
557.2834186714671
 42
0.0573087403535078
 10
192.215279579539
 20
558.7845807733383
 42
0.0439013926780003
 10
192.3942480220415
 20
560.8189525774
 42
0.0439013926779672
  0
LWPOLYLINE
  5
2033
330
1E
100
AcDbEntity
  8
STEMPEL
100
AcDbPolyline
 90
        4
 70
     0
 43
0.0
 10
190.4244852233327
 20
560.8189525774
 42
0.034526994685778
 10
190.5660734475685
 20
558.7709979797164
 42
0.0464276344868177
 10
190.9157013872917
 20
557.2834186714671
 42
0.0569648930389204
 10
191.292063921362
 20
556.4786293602014
 42
0.2262769562435221
  0
LINE
  5
2034
102
{ACAD_REACTORS
330
242A
102
}
330
1E
100
AcDbEntity
  8
STEMPEL
100
AcDbLine
 10
195.3716992054311
 20
550.3066057123451
 30
0.0
 11
195.3716992054309
 21
535.8189525774
 31
0.0
  0
LINE
  5
2035
102
{ACAD_REACTORS
330
242A
102
}
330
1E
100
AcDbEntity
  8
STEMPEL
100
AcDbLine
 10
197.3716992054311
 20
550.0285487968271
 30
0.0
 11
197.3716992054309
 21
535.8189525774
 31
0.0
  0
LINE
  5
2036
330
1E
100
AcDbEntity
  8
STEMPEL
100
AcDbLine
 10
197.9474484096457
 20
560.8189525774
 30
0.0
 11
197.9474484096457
 21
600.8189525774001
 31
0.0
  0
LINE
  5
2037
330
1E
100
AcDbEntity
  8
STEMPEL
100
AcDbLine
 10
192.3942480220415
 20
560.8189525774
 30
0.0
 11
192.3942480220415
 21
600.8189525774001
 31
0.0
  0
LINE
  5
2038
330
1E
100
AcDbEntity
  8
STEMPEL
100
AcDbLine
 10
188.5674136983906
 20
560.8189525774
 30
0.0
 11
188.5674136983906
 21
600.8189525774001
 31
0.0
  0
LINE
  5
2039
330
1E
100
AcDbEntity
  8
STEMPEL
100
AcDbLine
 10
190.4244852233327
 20
560.8189525774
 30
0.0
 11
190.4244852233327
 21
600.8189525774001
 31
0.0
  0
LINE
  5
203A
330
1E
100
AcDbEntity
  8
HILF
100
AcDbLine
 10
205.0185162215111
 20
587.8965147871944
 30
0.0
 11
199.3687894202702
 21
587.8965147871944
 31
0.0
  0
LWPOLYLINE
  5
203B
330
1E
100
AcDbEntity
  8
STEMPEL
100
AcDbPolyline
 90
        5
 70
     0
 43
0.0
 10
201.3092533649173
 20
555.8189525774
 42
0.1280001435432668
 10
202.6677392501759
 20
556.1725181859523
 42
0.1062214317046736
 10
203.932098284018
 20
557.2834186714671
 42
0.0852403443595585
 10
204.7221927392296
 20
558.8457982378391
 42
0.0746701075953954
 10
205.0185162215111
 20
560.8189525774
 42
0.0746701075953857
  0
LWPOLYLINE
  5
203C
330
1E
100
AcDbEntity
  8
STEMPEL
100
AcDbPolyline
 90
        5
 70
     0
 43
0.0
 10
199.3687894202702
 20
560.8189525774
 42
0.0678714651261374
 10
199.6399668350085
 20
558.8304274603024
 42
0.0801414130830183
 10
200.3513517133823
 20
557.2834186714671
 42
0.1070947598812462
 10
201.5165840545709
 20
556.1614879781959
 42
0.0641139117469334
 10
202.0511492123302
 20
555.9195275760298
 42
0.1391609519102831
  0
LINE
  5
203D
330
1E
100
AcDbEntity
  8
STEMPEL
100
AcDbLine
 10
213.3294679228353
 20
560.8189525774
 30
0.0
 11
213.3294679228353
 21
600.8189525774001
 31
0.0
  0
LINE
  5
203E
330
1E
100
AcDbEntity
  8
STEMPEL
100
AcDbLine
 10
205.0185162215111
 20
560.8189525774
 30
0.0
 11
205.0185162215111
 21
600.8189525774001
 31
0.0
  0
LINE
  5
203F
330
1E
100
AcDbEntity
  8
STEMPEL
100
AcDbLine
 10
199.3687894202702
 20
560.8189525774
 30
0.0
 11
199.3687894202702
 21
600.8189525774001
 31
0.0
  0
LWPOLYLINE
  5
2040
330
1E
100
AcDbEntity
  8
STEMPEL
100
AcDbPolyline
 90
        5
 70
     0
 43
0.0
 10
197.9474484096457
 20
560.8189525774
 42
0.0680091074726458
 10
198.2191395766125
 20
558.8307296722837
 42
0.0802506873074188
 10
198.932098284018
 20
557.2834186714671
 42
0.1070861376092301
 10
200.0993314747765
 20
556.1617307295477
 42
0.1389193076588219
 10
201.3092533649173
 20
555.8189525774
 42
0.1389193076588268
  0
LINE
  5
2041
102
{ACAD_REACTORS
330
2447
102
}
330
1E
100
AcDbEntity
  8
STEMPEL
100
AcDbLine
 10
188.3716992054309
 20
551.5468802655036
 30
0.0
 11
188.3716992054309
 21
486.2585271525954
 31
0.0
  0
LINE
  5
2042
102
{ACAD_REACTORS
330
2447
102
}
330
1E
100
AcDbEntity
  8
STEMPEL
100
AcDbLine
 10
186.3716992054309
 20
553.8189525774
 30
0.0
 11
186.3716992054309
 21
484.7230106277382
 31
0.0
  0
LINE
  5
2043
330
1E
100
AcDbEntity
  8
HILF
100
AcDbLine
 10
222.5682632479482
 20
587.8965147871944
 30
0.0
 11
214.0986921347632
 21
587.8965147871944
 31
0.0
  0
LWPOLYLINE
  5
2044
330
1E
100
AcDbEntity
  8
STEMPEL
100
AcDbPolyline
 90
        5
 70
     0
 43
0.0
 10
217.8548441548113
 20
555.8189525774
 42
0.1038718110768174
 10
219.6449512341323
 20
556.1948920498266
 42
0.100559581367275
 10
221.1877347581425
 20
557.2834186714671
 42
0.0962044251214297
 10
222.2053861210282
 20
558.8919612918721
 42
0.0933361443398568
 10
222.5682632479482
 20
560.8189525774
 42
0.0933361443398714
  0
LWPOLYLINE
  5
2045
330
1E
100
AcDbEntity
  8
STEMPEL
100
AcDbPolyline
 90
        5
 70
     0
 43
0.0
 10
214.0986921347632
 20
560.8189525774
 42
0.0898400221833224
 10
214.449386171664
 20
558.882936220989
 42
0.0944770720223859
 10
215.4230143548517
 20
557.2834186714671
 42
0.1018709584481127
 10
216.912685635595
 20
556.1914094471858
 42
0.107796033393048
 10
218.6202110195416
 20
555.8189525774
 42
0.107796033393061
  0
LINE
  5
2046
330
1E
100
AcDbEntity
  8
STEMPEL
100
AcDbLine
 10
222.5682632479482
 20
560.8189525774
 30
0.0
 11
222.5682632479482
 21
600.8189525774001
 31
0.0
  0
LINE
  5
2047
330
1E
100
AcDbEntity
  8
STEMPEL
100
AcDbLine
 10
214.0986921347629
 20
560.8189525774
 30
0.0
 11
214.0986921347632
 21
600.8189525774001
 31
0.0
  0
LINE
  5
2048
330
1E
100
AcDbEntity
  8
HILF
100
AcDbLine
 10
242.3716992054311
 20
587.8965147871944
 30
0.0
 11
232.3716992054309
 21
587.8965147871944
 31
0.0
  0
ARC
  5
2049
330
1E
100
AcDbEntity
  8
STEMPEL
100
AcDbCircle
 10
237.3716992054308
 20
560.8189525774001
 30
0.0
 40
5.0
100
AcDbArc
 50
180.0
 51
0.0
  0
LINE
  5
204A
330
1E
100
AcDbEntity
  8
STEMPEL
100
AcDbLine
 10
232.3716992054309
 20
560.8189525774
 30
0.0
 11
232.3716992054309
 21
600.8189525774001
 31
0.0
  0
LINE
  5
204B
330
1E
100
AcDbEntity
  8
STEMPEL
100
AcDbLine
 10
242.3716992054311
 20
560.8189525774
 30
0.0
 11
242.3716992054311
 21
600.8189525774001
 31
0.0
  0
LINE
  5
204C
330
1E
100
AcDbEntity
  8
MITTEL
100
AcDbLine
 10
237.3716992054309
 20
503.541537347606
 30
0.0
 11
237.3716992054309
 21
460.8189525773998
 31
0.0
  0
LWPOLYLINE
  5
204D
330
1E
100
AcDbEntity
  8
STEMPEL
100
AcDbPolyline
 90
        5
 70
     0
 43
0.0
 10
213.3294679228353
 20
560.8189525774
 42
0.0899106392812953
 10
213.6804093393174
 20
558.8831169752024
 42
0.0945134029505367
 10
214.6549199337609
 20
557.2834186714671
 42
0.1018453269126725
 10
216.1456588783832
 20
556.1914825639387
 42
0.1077144041550089
 10
217.8548441548113
 20
555.8189525774
 42
0.1077144041550036
  0
ARC
  5
204E
330
1E
100
AcDbEntity
  8
STEMPEL
100
AcDbCircle
 10
237.3716992054308
 20
600.8189525774001
 30
0.0
 40
5.0
100
AcDbArc
 50
0.0
 51
180.0
  0
LWPOLYLINE
  5
204F
330
1E
100
AcDbEntity
  8
STEMPEL
100
AcDbPolyline
 90
        5
 70
     0
 43
0.0
 10
217.8548441548113
 20
605.8189525774
 42
0.1077144041550071
 10
216.1456588783834
 20
605.4464225908609
 42
0.1018453269126967
 10
214.6549199337609
 20
604.3544864833324
 42
0.0945134029505288
 10
213.6804093393174
 20
602.7547881795976
 42
0.0899106392812926
 10
213.3294679228353
 20
600.8189525774001
 42
0.0899106392813071
  0
LWPOLYLINE
  5
2050
330
1E
100
AcDbEntity
  8
STEMPEL
100
AcDbPolyline
 90
        5
 70
     0
 43
0.0
 10
222.5682632479482
 20
600.8189525774001
 42
0.0933361443398535
 10
222.2053861210282
 20
602.7459438629275
 42
0.0962044251214492
 10
221.1877347581425
 20
604.3544864833324
 42
0.1005595813672714
 10
219.6449512341323
 20
605.443013104973
 42
0.1038718110768053
 10
217.8548441548113
 20
605.8189525774
 42
0.1038718110768142
  0
LWPOLYLINE
  5
2051
330
1E
100
AcDbEntity
  8
STEMPEL
100
AcDbPolyline
 90
        5
 70
     0
 43
0.0
 10
205.0185162215111
 20
600.8189525774001
 42
0.0746701075953814
 10
204.7221927392298
 20
602.792106916961
 42
0.0852403443595439
 10
203.932098284018
 20
604.3544864833324
 42
0.106221431704672
 10
202.6677392501759
 20
605.4653869688477
 42
0.1280001435432521
 10
201.3092533649173
 20
605.8189525774
 42
0.1280001435432617
  0
LWPOLYLINE
  5
2052
330
1E
100
AcDbEntity
  8
STEMPEL
100
AcDbPolyline
 90
        5
 70
     0
 43
0.0
 10
201.3092533649173
 20
605.8189525774
 42
0.1389193076588204
 10
200.0993314747765
 20
605.4761744252519
 42
0.1070861376092292
 10
198.932098284018
 20
604.3544864833324
 42
0.0802506873074274
 10
198.2191395766125
 20
602.8071754825163
 42
0.0680091074726524
 10
197.9474484096457
 20
600.8189525774001
 42
0.0680091074726542
  0
LWPOLYLINE
  5
2053
330
1E
100
AcDbEntity
  8
STEMPEL
100
AcDbPolyline
 90
        5
 70
     0
 43
0.0
 10
192.3942480220415
 20
600.8189525774001
 42
0.043901392678008
 10
192.215279579539
 20
602.8533243814617
 42
0.0573087403534992
 10
191.7673379194415
 20
604.3544864833324
 42
0.0996739220583098
 10
190.9536418855354
 20
605.5358120991672
 42
0.1946374076670043
 10
190.2538430473554
 20
605.8189525774
 42
0.194637407667019
  0
LWPOLYLINE
  5
2054
330
1E
100
AcDbEntity
  8
STEMPEL
100
AcDbPolyline
 90
        5
 70
     0
 43
0.0
 10
190.2538430473554
 20
605.8189525774
 42
0.2255649566364823
 10
189.7330504100188
 20
605.5714127238111
 42
0.0897609786521186
 10
189.0613574187104
 20
604.3544864833324
 42
0.046657234759922
 10
188.7097634301834
 20
602.8666605849799
 42
0.0347164163935399
 10
188.5674136983906
 20
600.8189525774001
 42
0.0347164163935555
  0
LWPOLYLINE
  5
2055
330
1E
100
AcDbEntity
  8
STEMPEL
100
AcDbPolyline
 90
        5
 70
     0
 43
0.0
 10
218.6202110195416
 20
605.8189525774
 42
0.1077960333930359
 10
216.912685635595
 20
605.4464957076138
 42
0.1018709584481094
 10
215.4230143548517
 20
604.3544864833324
 42
0.0944770720223779
 10
214.449386171664
 20
602.7549689338111
 42
0.0898400221833202
 10
214.0986921347632
 20
600.8189525774001
 42
0.0898400221833173
  0
LWPOLYLINE
  5
2056
330
1E
100
AcDbEntity
  8
STEMPEL
100
AcDbPolyline
 90
        5
 70
     0
 43
0.0
 10
202.0511492123302
 20
605.7183775787702
 42
0.0641139117469442
 10
201.5165840545709
 20
605.4764171766037
 42
0.1070947598812344
 10
200.3513517133823
 20
604.3544864833324
 42
0.0801414130830311
 10
199.6399668350085
 20
602.8074776944972
 42
0.0678714651261309
 10
199.3687894202702
 20
600.8189525774001
 42
0.0678714651260952
  0
LWPOLYLINE
  5
2057
330
1E
100
AcDbEntity
  8
STEMPEL
100
AcDbPolyline
 90
        4
 70
     0
 43
0.0
 10
191.292063921362
 20
605.1592757945982
 42
0.056964893038902
 10
190.9157013872917
 20
604.3544864833324
 42
0.0464276344868347
 10
190.5660734475685
 20
602.8669071750832
 42
0.0345269946857819
 10
190.4244852233327
 20
600.8189525774001
 42
0.0345269946857709
  0
LINE
  5
2058
330
1E
100
AcDbEntity
  8
STEMPEL
100
AcDbLine
 10
186.3716992054309
 20
610.8189525774
 30
0.0
 11
186.3716992054309
 21
555.8189525774
 31
0.0
  0
ARC
  5
2059
330
1E
100
AcDbEntity
  8
SCHRAFF
100
AcDbCircle
 10
263.5682362861067
 20
613.6637147157577
 30
0.0
 40
8.717801077182686
100
AcDbArc
 50
146.5206905241456
 51
199.0453524624753
  0
ARC
  5
205A
330
1E
100
AcDbEntity
  8
SCHRAFF
100
AcDbCircle
 10
259.4144923753897
 20
613.6637147157577
 30
0.0
 40
8.717801077182686
100
AcDbArc
 50
146.5206905241456
 51
199.0453524624753
  0
ARC
  5
205B
330
1E
100
AcDbEntity
  8
SCHRAFF
100
AcDbCircle
 10
255.2607484646728
 20
613.6637147157577
 30
0.0
 40
8.717801077182686
100
AcDbArc
 50
146.5206905241456
 51
199.0453524624753
  0
ARC
  5
205C
330
1E
100
AcDbEntity
  8
SCHRAFF
100
AcDbCircle
 10
278.1063319444518
 20
613.6637147157577
 30
0.0
 40
8.717801077182686
100
AcDbArc
 50
146.5206905241456
 51
199.0453524624753
  0
ARC
  5
205D
330
1E
100
AcDbEntity
  8
SCHRAFF
100
AcDbCircle
 10
272.9833821917896
 20
613.6637147157577
 30
0.0
 40
8.717801077182686
100
AcDbArc
 50
146.5206905241456
 51
199.0453524624753
  0
ARC
  5
205E
330
1E
100
AcDbEntity
  8
SCHRAFF
100
AcDbCircle
 10
268.5527230909136
 20
613.6637147157577
 30
0.0
 40
8.717801077182686
100
AcDbArc
 50
146.5206905241456
 51
199.0453524624753
  0
ARC
  5
205F
330
1E
100
AcDbEntity
  8
STEMPEL
100
AcDbCircle
 10
304.371699205431
 20
748.4454169880475
 30
0.0
 40
12.0
100
AcDbArc
 50
153.1122293409812
 51
180.0
  0
LINE
  5
2060
330
1E
100
AcDbEntity
  8
STEMPEL
100
AcDbLine
 10
292.3716992054311
 20
748.4454169880475
 30
0.0
 11
292.3716992054311
 21
713.4801863840652
 31
0.0
  0
LWPOLYLINE
  5
2061
330
1E
100
AcDbEntity
  8
STEMPEL
100
AcDbPolyline
 90
        2
 70
     0
 43
0.0
 10
273.434145045945
 20
605.8189525774
 42
-0.1025533367124252
 10
274.3510649326398
 20
605.6288872369395
 42
-0.1070861376092292
  0
ARC
  5
2062
330
1E
100
AcDbEntity
  8
SCHRAFF
100
AcDbCircle
 10
292.7828905506526
 20
613.6637147157576
 30
0.0
 40
8.717801077182686
100
AcDbArc
 50
146.5206905241456
 51
186.1472812129198
  0
ARC
  5
2063
330
1E
100
AcDbEntity
  8
SCHRAFF
100
AcDbCircle
 10
287.9368559881493
 20
613.6637147157576
 30
0.0
 40
8.717801077182686
100
AcDbArc
 50
146.5206905241456
 51
199.0453524624753
  0
ARC
  5
2064
330
1E
100
AcDbEntity
  8
SCHRAFF
100
AcDbCircle
 10
282.9523665069551
 20
613.6637147157576
 30
0.0
 40
8.717801077182686
100
AcDbArc
 50
146.5206905241456
 51
199.0453524624753
  0
LINE
  5
2065
330
1E
100
AcDbEntity
  8
STEMPEL
100
AcDbLine
 10
288.3716992054311
 20
629.7849600575318
 30
0.0
 11
288.3716992054311
 21
620.3882625594296
 31
0.0
  0
ARC
  5
2066
330
1E
100
AcDbEntity
  8
STEMPEL
100
AcDbCircle
 10
277.371699205431
 20
642.7464414543475
 30
0.0
 40
15.0
100
AcDbArc
 50
325.6988472432101
 51
0.0
  0
ARC
  5
2067
330
1E
100
AcDbEntity
  8
STEMPEL
100
AcDbCircle
 10
296.371699205431
 20
629.7849600575318
 30
0.0
 40
8.0
100
AcDbArc
 50
145.69884724321
 51
180.0
  0
ARC
  5
2068
330
1E
100
AcDbEntity
  8
STEMPEL
100
AcDbCircle
 10
273.3716992054308
 20
620.3882625594298
 30
0.0
 40
15.0
100
AcDbArc
 50
345.3266183634191
 51
0.0
  0
LINE
  5
2069
330
1E
100
AcDbEntity
  8
STEMPEL
100
AcDbLine
 10
288.3716992054311
 20
610.8189525774
 30
0.0
 11
288.3716992054311
 21
603.5135142307431
 31
0.0
  0
ARC
  5
206A
330
1E
100
AcDbEntity
  8
SCHRAFF
100
AcDbCircle
 10
282.3270419124135
 20
614.549856823748
 30
0.0
 40
7.103346273795855
100
AcDbArc
 50
328.3161422724294
 51
33.52234414938597
  0
LINE
  5
206B
102
{ACAD_REACTORS
330
2447
102
}
330
1E
100
AcDbEntity
  8
STEMPEL
100
AcDbLine
 10
288.3716992054309
 20
610.8189525774
 30
0.0
 11
286.3716992054311
 21
610.8189525774
 31
0.0
  0
LINE
  5
206C
330
1E
100
AcDbEntity
  8
STEMPEL
100
AcDbLine
 10
292.3716992054311
 20
711.4801863840657
 30
0.0
 11
292.3716992054311
 21
642.7464414543473
 31
0.0
  0
LWPOLYLINE
  5
206D
330
1E
100
AcDbEntity
  8
STEMPEL
100
AcDbPolyline
 90
        3
 70
     0
 43
0.0
 10
272.6922491985318
 20
605.7183775787702
 42
-0.0641139117469442
 10
273.2268143562909
 20
605.4764171766037
 42
-0.0510333567642585
 10
273.8434733193912
 20
605.0026779568156
 42
-0.0801414130830311
  0
LWPOLYLINE
  5
206E
330
1E
100
AcDbEntity
  8
STEMPEL
100
AcDbPolyline
 90
        5
 70
     0
 43
0.0
 10
256.8885542560505
 20
555.8189525774
 42
-0.1038718110768174
 10
255.09844717673
 20
556.1948920498266
 42
-0.100559581367275
 10
253.5556636527193
 20
557.2834186714671
 42
-0.0962044251214297
 10
252.5380122898336
 20
558.8919612918721
 42
-0.0933361443398568
 10
252.175135162914
 20
560.8189525774
 42
-0.0933361443398714
  0
LINE
  5
206F
330
1E
100
AcDbEntity
  8
STEMPEL
100
AcDbLine
 10
252.175135162914
 20
560.8189525774
 30
0.0
 11
252.175135162914
 21
600.8189525774001
 31
0.0
  0
LINE
  5
2070
330
1E
100
AcDbEntity
  8
STEMPEL
100
AcDbLine
 10
269.7248821893508
 20
597.7005204778047
 30
0.0
 11
269.724882189351
 21
600.8189525774001
 31
0.0
  0
LINE
  5
2071
330
1E
100
AcDbEntity
  8
STEMPEL
100
AcDbLine
 10
260.6447062760989
 20
560.8189525774
 30
0.0
 11
260.6447062760989
 21
600.8189525774001
 31
0.0
  0
LINE
  5
2072
330
1E
100
AcDbEntity
  8
STEMPEL
100
AcDbLine
 10
261.4139304880267
 20
560.8189525774
 30
0.0
 11
261.4139304880267
 21
600.8189525774001
 31
0.0
  0
LWPOLYLINE
  5
2073
330
1E
100
AcDbEntity
  8
STEMPEL
100
AcDbPolyline
 90
        5
 70
     0
 43
0.0
 10
260.6447062760989
 20
560.8189525774
 42
-0.0898400221833224
 10
260.2940122391982
 20
558.882936220989
 42
-0.0944770720223859
 10
259.3203840560103
 20
557.2834186714671
 42
-0.1018709584481127
 10
257.8307127752672
 20
556.1914094471858
 42
-0.107796033393048
 10
256.1231873913204
 20
555.8189525774
 42
-0.107796033393061
  0
LWPOLYLINE
  5
2074
330
1E
100
AcDbEntity
  8
STEMPEL
100
AcDbPolyline
 90
        5
 70
     0
 43
0.0
 10
261.4139304880267
 20
560.8189525774
 42
-0.0899106392812953
 10
261.0629890715444
 20
558.8831169752024
 42
-0.0945134029505367
 10
260.0884784771014
 20
557.2834186714671
 42
-0.1018453269126725
 10
258.5977395324789
 20
556.1914825639387
 42
-0.1077144041550089
 10
256.8885542560505
 20
555.8189525774
 42
-0.1077144041550036
  0
LINE
  5
2075
330
1E
100
AcDbEntity
  8
HILF
100
AcDbLine
 10
260.6447062760989
 20
587.8965147871944
 30
0.0
 11
252.175135162914
 21
587.8965147871944
 31
0.0
  0
ARC
  5
2076
102
{ACAD_REACTORS
330
242A
102
}
330
1E
100
AcDbEntity
  8
STEMPEL
100
AcDbCircle
 10
287.371699205431
 20
586.8749166472916
 30
0.0
 40
8.0
100
AcDbArc
 50
165.3266183634191
 51
180.0
  0
LWPOLYLINE
  5
2077
330
1E
100
AcDbEntity
  8
STEMPEL
100
AcDbPolyline
 90
        2
 70
     0
 43
0.0
 10
284.3187306118781
 20
600.8926686706668
 42
-0.0012383684691459
 10
284.3189131875291
 20
600.8189525774001
 42
-0.0345269946857751
  0
ARC
  5
2078
102
{ACAD_REACTORS
330
242A
102
}
330
1E
100
AcDbEntity
  8
STEMPEL
100
AcDbCircle
 10
287.371699205431
 20
586.8749166472916
 30
0.0
 40
10.0
100
AcDbArc
 50
165.3266183634191
 51
180.0
  0
LWPOLYLINE
  5
2079
330
1E
100
AcDbEntity
  8
STEMPEL
100
AcDbPolyline
 90
        5
 70
     0
 43
0.0
 10
282.6417962984841
 20
555.8189525774
 42
0.2262769562435402
 10
283.1590195666919
 20
556.0656554913239
 42
0.0894997721685157
 10
283.8276970235705
 20
557.2834186714671
 42
0.0464276344868311
 10
284.1773249632932
 20
558.7709979797168
 42
0.0345269946857776
 10
284.3189131875291
 20
560.8189525774
 42
0.0345269946857751
  0
LWPOLYLINE
  5
207A
330
1E
100
AcDbEntity
  8
STEMPEL
100
AcDbPolyline
 90
        5
 70
     0
 43
0.0
 10
280.4920788638782
 20
560.8189525774
 42
0.044088717934643
 10
280.6717875017479
 20
558.7848798495356
 42
0.0575157024409206
 10
281.1217165228394
 20
557.2834186714671
 42
0.099824494906065
 10
281.9382378643496
 20
556.1027265320626
 42
0.1940745864117619
 10
282.6417962984841
 20
555.8189525774
 42
0.1940745864117183
  0
LWPOLYLINE
  5
207B
330
1E
100
AcDbEntity
  8
STEMPEL
100
AcDbPolyline
 90
        4
 70
     0
 43
0.0
 10
282.3491503888202
 20
560.8189525774
 42
0.0439013926780182
 10
282.5281188313228
 20
558.7845807733379
 42
0.0573087403535062
 10
282.9760604914207
 20
557.2834186714671
 42
0.0645744498616765
 10
283.4513344895002
 20
556.4786293602014
 42
0.1946374076670043
  0
LINE
  5
207C
102
{ACAD_REACTORS
330
242A
102
}
330
1E
100
AcDbEntity
  8
STEMPEL
100
AcDbLine
 10
279.3716992054311
 20
586.8749166472916
 30
0.0
 11
279.3716992054311
 21
535.8189525774
 31
0.0
  0
LINE
  5
207D
330
1E
100
AcDbEntity
  8
STEMPEL
100
AcDbLine
 10
282.3491503888202
 20
560.8189525774
 30
0.0
 11
282.3491503888202
 21
598.018306781109
 31
0.0
  0
LINE
  5
207E
330
1E
100
AcDbEntity
  8
STEMPEL
100
AcDbLine
 10
284.3189131875291
 20
560.8189525774
 30
0.0
 11
284.3189131875291
 21
600.8189525774001
 31
0.0
  0
LINE
  5
207F
330
1E
100
AcDbEntity
  8
STEMPEL
100
AcDbLine
 10
280.4920788638782
 20
560.8189525774
 30
0.0
 11
280.4920788638784
 21
591.78581843355
 31
0.0
  0
LINE
  5
2080
102
{ACAD_REACTORS
330
242A
102
}
330
1E
100
AcDbEntity
  8
STEMPEL
100
AcDbLine
 10
277.3716992054311
 20
586.8749166472916
 30
0.0
 11
277.3716992054311
 21
535.8189525774
 31
0.0
  0
LINE
  5
2081
330
1E
100
AcDbEntity
  8
STEMPEL
100
AcDbLine
 10
301.3716992054309
 20
553.8189525774
 30
0.0
 11
293.3716992054311
 21
524.8189525774001
 31
0.0
  0
LINE
  5
2082
330
1E
100
AcDbEntity
  8
STEMPEL
100
AcDbLine
 10
288.3716992054311
 20
524.8189525774001
 30
0.0
 11
293.3716992054311
 21
524.8189525774001
 31
0.0
  0
ARC
  5
2083
330
1E
100
AcDbEntity
  8
SCHRAFF
100
AcDbCircle
 10
287.6659978601999
 20
555.0839079123079
 30
0.0
 40
4.477140827639991
100
AcDbArc
 50
279.0689661314388
 51
343.5883554091556
  0
INSERT
  5
2084
330
1E
100
AcDbEntity
  8
SCHRAFF
100
AcDbBlockReference
  2
*X1
 10
548.3274081579045
 20
204.0480006700677
 30
0.0
 41
-1.0
1001
ACAD
1000
HATCH
1002
{
1070
    16
1000
_U,I
1040
0.1
1040
2.356194490192344
1070
     0
1002
}
  0
LINE
  5
2085
330
1E
100
AcDbEntity
  8
STEMPEL
100
AcDbLine
 10
295.4466992054309
 20
454.2439525773988
 30
0.0
 11
293.8716992054298
 21
455.8189525774
 31
0.0
  0
LINE
  5
2086
330
1E
100
AcDbEntity
  8
STEMPEL
100
AcDbLine
 10
293.8716992054298
 20
455.8189525774
 30
0.0
 11
293.3716992054309
 21
455.8189525774
 31
0.0
  0
LINE
  5
2087
330
1E
100
AcDbEntity
  8
STEMPEL
100
AcDbLine
 10
297.37169920543
 20
452.3189525773996
 30
0.0
 11
295.4466992054309
 21
454.2439525773988
 31
0.0
  0
LINE
  5
2088
330
1E
100
AcDbEntity
  8
STEMPEL
100
AcDbLine
 10
295.4466992054309
 20
454.2439525773988
 30
0.0
 11
293.8716992054298
 21
455.8189525774
 31
0.0
  0
LINE
  5
2089
330
1E
100
AcDbEntity
  8
STEMPEL
100
AcDbLine
 10
297.37169920543
 20
452.3189525773996
 30
0.0
 11
295.4466992054309
 21
454.2439525773988
 31
0.0
  0
LINE
  5
208A
330
1E
100
AcDbEntity
  8
STEMPEL
100
AcDbLine
 10
293.3716992054309
 20
459.5036084493949
 30
0.0
 11
288.371699205431
 21
459.5036084493947
 31
0.0
  0
LINE
  5
208B
330
1E
100
AcDbEntity
  8
HILF
100
AcDbLine
 10
276.4152642333942
 20
587.8965147871944
 30
0.0
 11
266.6859924393735
 21
587.8965147871944
 31
0.0
  0
LINE
  5
208C
102
{ACAD_REACTORS
330
241A
330
2447
102
}
330
1E
100
AcDbEntity
  8
STEMPEL
100
AcDbLine
 10
288.3716992054311
 20
610.8189525774
 30
0.0
 11
288.371699205431
 21
488.2793188394603
 31
0.0
  0
LWPOLYLINE
  5
208D
330
1E
100
AcDbEntity
  8
STEMPEL
100
AcDbPolyline
 90
        5
 70
     0
 43
0.0
 10
269.724882189351
 20
600.8189525774001
 42
-0.0746701075953814
 10
270.0212056716322
 20
602.792106916961
 42
-0.0852403443595439
 10
270.8113001268438
 20
604.3544864833324
 42
-0.106221431704672
 10
272.0756591606863
 20
605.4653869688477
 42
-0.1280001435432521
 10
273.434145045945
 20
605.8189525774
 42
-0.1280001435432617
  0
LWPOLYLINE
  5
208E
330
1E
100
AcDbEntity
  8
STEMPEL
100
AcDbPolyline
 90
        5
 70
     0
 43
0.0
 10
256.1231873913204
 20
605.8189525774
 42
-0.1077960333930359
 10
257.830712775267
 20
605.4464957076138
 42
-0.1018709584481094
 10
259.3203840560103
 20
604.3544864833324
 42
-0.0944770720223779
 10
260.2940122391982
 20
602.7549689338111
 42
-0.0898400221833202
 10
260.6447062760989
 20
600.8189525774001
 42
-0.0898400221833173
  0
LWPOLYLINE
  5
208F
330
1E
100
AcDbEntity
  8
STEMPEL
100
AcDbPolyline
 90
        5
 70
     0
 43
0.0
 10
256.8885542560505
 20
605.8189525774
 42
-0.1077144041550071
 10
258.5977395324784
 20
605.4464225908609
 42
-0.1018453269126967
 10
260.0884784771014
 20
604.3544864833324
 42
-0.0945134029505288
 10
261.0629890715444
 20
602.7547881795976
 42
-0.0899106392812926
 10
261.4139304880267
 20
600.8189525774001
 42
-0.0899106392813071
  0
LWPOLYLINE
  5
2090
330
1E
100
AcDbEntity
  8
STEMPEL
100
AcDbPolyline
 90
        5
 70
     0
 43
0.0
 10
252.175135162914
 20
600.8189525774001
 42
-0.0933361443398535
 10
252.5380122898336
 20
602.7459438629275
 42
-0.0962044251214492
 10
253.5556636527193
 20
604.3544864833324
 42
-0.1005595813672714
 10
255.09844717673
 20
605.443013104973
 42
-0.1038718110768053
 10
256.8885542560505
 20
605.8189525774
 42
-0.1038718110768142
  0
LINE
  5
2091
102
{ACAD_REACTORS
330
2447
102
}
330
1E
100
AcDbEntity
  8
STEMPEL
100
AcDbLine
 10
286.3716992054311
 20
610.8189525774
 30
0.0
 11
286.371699205431
 21
487.1576412817164
 31
0.0
  0
LINE
  5
2092
102
{ACAD_REACTORS
330
242A
102
}
330
1E
100
AcDbEntity
  8
STEMPEL
100
AcDbLine
 10
287.882482286937
 20
616.5886343721622
 30
0.0
 11
279.6326148952945
 21
588.9013850138339
 31
0.0
  0
LWPOLYLINE
  5
2093
330
1E
100
AcDbEntity
  8
STEMPEL
100
AcDbPolyline
 90
        2
 70
     0
 43
0.0
 10
284.0392542840133
 20
603.6904377095525
 42
-0.0485809373212443
 10
284.3189131875291
 20
600.8189525774001
 42
-0.0345269946857751
  0
LINE
  5
2094
102
{ACAD_REACTORS
330
242A
102
}
330
1E
100
AcDbEntity
  8
STEMPEL
100
AcDbLine
 10
284.899941381192
 20
613.0938176531258
 30
0.0
 11
277.6978438177604
 21
589.4080021054697
 31
0.0
  0
LINE
  5
2095
330
1E
100
AcDbEntity
  8
HILF
100
AcDbLine
 10
188.2567035550381
 20
631.2971402743869
 30
0.0
 11
286.4866948558237
 21
631.2971402743869
 31
0.0
  0
LINE
  5
2096
330
1E
100
AcDbEntity
  8
HILF
100
AcDbLine
 10
184.5431279834441
 20
640.642217036087
 30
0.0
 11
290.2002704274181
 21
640.642217036087
 31
0.0
  0
LINE
  5
2097
102
{ACAD_REACTORS
330
242A
102
}
330
1E
100
AcDbEntity
  8
STEMPEL
100
AcDbLine
 10
279.3716992054311
 20
535.8189525774
 30
0.0
 11
195.3716992054309
 21
535.8189525774
 31
0.0
  0
LWPOLYLINE
  5
2098
102
{ACAD_REACTORS
330
242A
330
2447
102
}
330
1E
100
AcDbEntity
  8
HILF
100
AcDbPolyline
 90
       49
 70
     0
 43
0.0
 10
287.2528795588508
 20
614.1841810508085
 10
283.6824911096363
 20
612.5296450678843
 10
279.9007096019412
 20
610.3311046022031
 10
276.9076295271992
 20
608.1218999715188
 10
274.5845257302634
 20
605.9169048365238
 10
272.8126730559869
 20
603.7309928579102
 10
271.4733463492235
 20
601.5790376963705
 10
270.4478204548262
 20
599.4759130125976
 10
269.6173702176478
 20
597.436492467284
 10
268.8825901746326
 20
595.4678854858811
 10
268.221353631085
 20
593.5461445528744
 10
267.6308535844004
 20
591.6395579175082
 10
267.1082830319741
 20
589.7164138290268
 10
266.6508349712016
 20
587.7450005366745
 10
266.2557023994779
 20
585.6936062896961
 10
265.9200783141981
 20
583.530519337336
 10
265.6411557127579
 20
581.224027928838
 10
265.4127591870687
 20
578.7566859225412
 10
265.2152397071071
 20
576.168109613161
 10
265.0255798373659
 20
573.5121809045081
 10
264.8207621423384
 20
570.8427817003921
 10
264.5777691865168
 20
568.2137939046233
 10
264.2735835343943
 20
565.6790994210118
 10
263.8851877504641
 20
563.2925801533679
 10
263.389564399219
 20
561.1081180055021
 10
262.7672515843861
 20
559.167808214765
 10
262.0130095666322
 20
557.4665993526751
 10
261.1251541458577
 20
555.9876533242913
 10
260.1020011219633
 20
554.7141320346732
 10
258.94186629485
 20
553.6291973888806
 10
257.6430654644186
 20
552.7160112919723
 10
256.2039144305694
 20
551.9577356490076
 10
254.6227289932038
 20
551.3375323650461
 10
252.8907606574957
 20
550.8381891674271
 10
250.9710037497129
 20
550.4409970726114
 10
248.8193883013959
 20
550.1268729193397
 10
246.3918443440856
 20
549.876733546353
 10
243.6443019093234
 20
549.6714957923918
 10
240.5326910286498
 20
549.4920764961971
 10
237.012941733606
 20
549.3193924965098
 10
233.0409840557326
 20
549.134360632071
 10
228.5857837190898
 20
548.9315945027365
 10
223.6684492178123
 20
548.7604947528271
 10
218.3231247385537
 20
548.6841587877783
 10
212.5839544679683
 20
548.7656840130262
 10
206.4850825927095
 20
549.068167834006
 10
200.060653299431
 20
549.6547076561541
 10
193.3448107747871
 20
550.5884008849066
 10
186.3716992054309
 20
551.9323449256985
  0
LINE
  5
2099
330
1E
100
AcDbEntity
  8
STEMPEL
100
AcDbLine
 10
280.7398728922986
 20
610.8189525774
 30
0.0
 11
186.3716992054311
 21
610.8189525774
 31
0.0
  0
LINE
  5
209A
330
1E
100
AcDbEntity
  8
HILF
100
AcDbLine
 10
188.2567035550381
 20
618.4727660471112
 30
0.0
 11
286.4866948558234
 21
618.4727660471112
 31
0.0
  0
INSERT
  5
209B
330
1E
100
AcDbEntity
  8
SCHRAFF
100
AcDbBlockReference
  2
*X2
 10
-26.6328073620291
 20
220.6870018632062
 30
0.0
1001
ACAD
1000
HATCH
1002
{
1070
    16
1000
_U,I
1040
0.1
1040
0.0
1070
     0
1002
}
  0
ARC
  5
209C
330
1E
100
AcDbEntity
  8
SCHRAFF
100
AcDbCircle
 10
250.9685469588762
 20
613.6637147157577
 30
0.0
 40
8.717801077182686
100
AcDbArc
 50
146.5206905241456
 51
199.0453524624753
  0
LWPOLYLINE
  5
209D
102
{ACAD_REACTORS
330
2447
102
}
330
1E
100
AcDbEntity
  8
HILF
100
AcDbPolyline
 90
        7
 70
     0
 43
0.0
 10
186.3716992054309
 20
482.7230106277375
 42
-0.0929512992936809
 10
206.4732427757809
 20
493.4398324977203
 42
-0.1154029691580267
 10
224.855050189687
 20
494.8144585475938
 42
-0.1381456708875928
 10
242.9993002171731
 20
486.4997093217645
 42
0.1494847871479613
 10
259.9879964995043
 20
479.1667024160151
 42
0.0892966141021285
 10
273.1553446209084
 20
480.0556767128957
 42
0.071480080070248
 10
288.371699205431
 20
486.279318839461
  0
LWPOLYLINE
  5
209E
102
{ACAD_REACTORS
330
2447
102
}
330
1E
100
AcDbEntity
  8
HILF
100
AcDbPolyline
 90
        7
 70
     0
 43
0.0
 10
186.3716992054309
 20
484.7230106277382
 42
-0.0929512992936797
 10
206.4732427757809
 20
495.4398324977203
 42
-0.1154029691580267
 10
224.855050189687
 20
496.8144585475938
 42
-0.1381456708875928
 10
242.9993002171731
 20
488.4997093217646
 42
0.1494847871479613
 10
259.9879964995043
 20
481.1667024160151
 42
0.0892966141021285
 10
273.1553446209084
 20
482.0556767128957
 42
0.0714800800702472
 10
288.371699205431
 20
488.2793188394603
  0
LINE
  5
209F
102
{ACAD_REACTORS
330
2447
102
}
330
1E
100
AcDbEntity
  8
STEMPEL
100
AcDbLine
 10
186.3716992054308
 20
282.5036084493947
 30
0.0
 11
187.2465858406901
 21
272.5036084493947
 31
0.0
  0
LINE
  5
20A0
102
{ACAD_REACTORS
330
2447
102
}
330
1E
100
AcDbEntity
  8
STEMPEL
100
AcDbLine
 10
188.3716992054308
 20
282.5036084493947
 30
0.0
 11
189.2465858406901
 21
272.5036084493947
 31
0.0
  0
POINT
  5
20A1
330
1E
100
AcDbEntity
  8
STEMPEL
100
AcDbPoint
 10
187.2465858406901
 20
272.5036084493947
 30
0.0
  0
ARC
  5
20A2
330
1E
100
AcDbEntity
  8
STEMPEL
100
AcDbCircle
 10
174.3716992054308
 20
245.2433363114514
 30
0.0
 40
12.0
100
AcDbArc
 50
0.0
 51
24.22774531795116
  0
ARC
  5
20A3
330
1E
100
AcDbEntity
  8
STEMPEL
100
AcDbCircle
 10
174.3716992054308
 20
245.2433363114514
 30
0.0
 40
14.0
100
AcDbArc
 50
0.0
 51
24.22774531795116
  0
LINE
  5
20A4
330
1E
100
AcDbEntity
  8
STEMPEL
100
AcDbLine
 10
186.3716992054308
 20
157.5426531474995
 30
0.0
 11
186.3716992054308
 21
245.2433363114514
 31
0.0
  0
LINE
  5
20A5
330
1E
100
AcDbEntity
  8
STEMPEL
100
AcDbLine
 10
188.3716992054308
 20
159.0781696723568
 30
0.0
 11
188.3716992054308
 21
245.2433363114514
 31
0.0
  0
LINE
  5
20A6
330
1E
100
AcDbEntity
  8
STEMPEL
100
AcDbLine
 10
301.8716992054309
 20
431.8189525773996
 30
0.0
 11
301.8716992054309
 21
427.8189525773996
 31
0.0
  0
ARC
  5
20A7
330
1E
100
AcDbEntity
  8
STEMPEL
100
AcDbCircle
 10
323.1823339115965
 20
414.7477304302415
 30
0.0
 40
25.0
100
AcDbArc
 50
148.4764561260135
 51
172.9434514356066
  0
POINT
  5
20A8
330
1E
100
AcDbEntity
  8
STEMPEL
100
AcDbPoint
 10
302.3716992054309
 20
417.8189525774
 30
0.0
  0
POINT
  5
20A9
330
1E
100
AcDbEntity
  8
STEMPEL
100
AcDbPoint
 10
298.7026985787107
 20
419.82192533869
 30
0.0
  0
LINE
  5
20AA
330
1E
100
AcDbEntity
  8
STEMPEL
100
AcDbLine
 10
301.8716992054309
 20
427.8189525773996
 30
0.0
 11
293.3716992054309
 21
427.8189525773996
 31
0.0
  0
ARC
  5
20AB
330
1E
100
AcDbEntity
  8
STEMPEL
100
AcDbCircle
 10
322.3716992054308
 20
413.5098645561456
 30
0.0
 40
27.0
100
AcDbArc
 50
147.9968273188154
 51
180.0
  0
ARC
  5
20AC
330
1E
100
AcDbEntity
  8
STEMPEL
100
AcDbCircle
 10
322.3716992054308
 20
413.5098645561456
 30
0.0
 40
25.0
100
AcDbArc
 50
147.9968273188154
 51
180.0
  0
LINE
  5
20AD
330
1E
100
AcDbEntity
  8
STEMPEL
100
AcDbLine
 10
301.1712304242175
 20
426.759020131381
 30
0.0
 11
299.4751929217203
 21
427.8189525774
 31
0.0
  0
LINE
  5
20AE
330
1E
100
AcDbEntity
  8
STEMPEL
100
AcDbLine
 10
301.8716992054309
 20
429.8189525774001
 30
0.0
 11
301.8716992054309
 21
431.8189525774
 31
0.0
  0
LINE
  5
20AF
330
1E
100
AcDbEntity
  8
STEMPEL
100
AcDbLine
 10
295.4466992054309
 20
429.8189525774001
 30
0.0
 11
301.8716992054309
 21
429.8189525774001
 31
0.0
  0
LINE
  5
20B0
330
1E
100
AcDbEntity
  8
STEMPEL
100
AcDbLine
 10
301.8716992054309
 20
429.8189525774001
 30
0.0
 11
301.8716992054309
 21
431.8189525774
 31
0.0
  0
LINE
  5
20B1
330
1E
100
AcDbEntity
  8
STEMPEL
100
AcDbLine
 10
293.3716992054309
 20
429.8189525774001
 30
0.0
 11
295.4466992054309
 21
429.8189525774001
 31
0.0
  0
LINE
  5
20B2
330
1E
100
AcDbEntity
  8
STEMPEL
100
AcDbLine
 10
295.4466992054309
 20
429.8189525774001
 30
0.0
 11
301.8716992054309
 21
429.8189525774001
 31
0.0
  0
LINE
  5
20B3
330
1E
100
AcDbEntity
  8
STEMPEL
100
AcDbLine
 10
301.8716992054309
 20
429.8189525774001
 30
0.0
 11
301.8716992054309
 21
431.8189525774
 31
0.0
  0
LINE
  5
20B4
330
1E
100
AcDbEntity
  8
STEMPEL
100
AcDbLine
 10
293.3716992054309
 20
294.5036084493947
 30
0.0
 11
288.3716992054309
 21
294.5036084493947
 31
0.0
  0
LINE
  5
20B5
102
{ACAD_REACTORS
330
2447
102
}
330
1E
100
AcDbEntity
  8
STEMPEL
100
AcDbLine
 10
286.3716992054309
 20
282.5036084493947
 30
0.0
 11
285.4968125701715
 21
272.5036084493947
 31
0.0
  0
ARC
  5
20B6
330
1E
100
AcDbEntity
  8
STEMPEL
100
AcDbCircle
 10
300.3716992054303
 20
245.2433363114514
 30
0.0
 40
14.0
100
AcDbArc
 50
155.7722546820488
 51
180.0
  0
ARC
  5
20B7
330
1E
100
AcDbEntity
  8
STEMPEL
100
AcDbCircle
 10
283.3716992054306
 20
270.8238382210061
 30
0.0
 40
12.0
100
AcDbArc
 50
335.7722546820489
 51
0.0
  0
ARC
  5
20B8
330
1E
100
AcDbEntity
  8
STEMPEL
100
AcDbCircle
 10
283.3716992054306
 20
270.8238382210063
 30
0.0
 40
14.0
100
AcDbArc
 50
335.7722546820489
 51
0.0
  0
LINE
  5
20B9
330
1E
100
AcDbEntity
  8
STEMPEL
100
AcDbLine
 10
296.1386002778821
 20
265.078732738403
 30
0.0
 11
289.4286411433292
 21
250.1677124393968
 31
0.0
  0
ARC
  5
20BA
330
1E
100
AcDbEntity
  8
STEMPEL
100
AcDbCircle
 10
300.3716992054303
 20
245.2433363114514
 30
0.0
 40
12.0
100
AcDbArc
 50
155.7722546820488
 51
180.0
  0
LINE
  5
20BB
330
1E
100
AcDbEntity
  8
STEMPEL
100
AcDbLine
 10
294.3147572675319
 20
265.8994620930605
 30
0.0
 11
287.604798132979
 21
250.9884417940546
 31
0.0
  0
LINE
  5
20BC
102
{ACAD_REACTORS
330
2447
102
}
330
1E
100
AcDbEntity
  8
STEMPEL
100
AcDbLine
 10
288.3716992054309
 20
282.5036084493947
 30
0.0
 11
287.4968125701715
 21
272.5036084493947
 31
0.0
  0
LINE
  5
20BD
330
1E
100
AcDbEntity
  8
STEMPEL
100
AcDbLine
 10
286.3716992054303
 20
159.9772838014775
 30
0.0
 11
286.3716992054305
 21
245.2433363114514
 31
0.0
  0
LINE
  5
20BE
330
1E
100
AcDbEntity
  8
STEMPEL
100
AcDbLine
 10
288.3716992054303
 20
161.0989613592214
 30
0.0
 11
288.3716992054305
 21
245.2433363114514
 31
0.0
  0
LINE
  5
20BF
330
1E
100
AcDbEntity
  8
STEMPEL
100
AcDbLine
 10
295.3716992054307
 20
270.8238382210061
 30
0.0
 11
295.3716992054309
 21
413.5098645561454
 31
0.0
  0
LINE
  5
20C0
330
1E
100
AcDbEntity
  8
STEMPEL
100
AcDbLine
 10
297.3716992054307
 20
270.8238382210063
 30
0.0
 11
297.3716992054309
 21
413.5098645561454
 31
0.0
  0
LINE
  5
20C1
330
1E
100
AcDbEntity
  8
HILF
100
AcDbLine
 10
284.580366112541
 20
247.8189525773998
 30
0.0
 11
190.1630322983201
 21
247.8189525773998
 31
0.0
  0
LINE
  5
20C2
102
{ACAD_REACTORS
330
2447
102
}
330
1E
100
AcDbEntity
  8
STEMPEL
100
AcDbLine
 10
287.4968125701715
 20
272.5036084493947
 30
0.0
 11
187.2465858406901
 21
272.5036084493947
 31
0.0
  0
LINE
  5
20C3
330
1E
100
AcDbEntity
  8
HILF
100
AcDbLine
 10
284.3186783718718
 20
282.5036084493947
 30
0.0
 11
189.7735250480955
 21
282.5036084493947
 31
0.0
  0
LWPOLYLINE
  5
20C4
330
1E
100
AcDbEntity
  8
HILF
100
AcDbPolyline
 90
        7
 70
     0
 43
0.0
 10
186.3716992054304
 20
157.5426531474993
 42
-0.0929512992936797
 10
206.4732427757805
 20
168.2594750174814
 42
-0.1154029691580267
 10
224.8550501896865
 20
169.634101067355
 42
-0.1381456708875928
 10
242.9993002171726
 20
161.3193518415257
 42
0.1494847871479613
 10
259.9879964995039
 20
153.9863449357762
 42
0.0892966141021285
 10
273.155344620908
 20
154.8753192326569
 42
0.0714800800702472
 10
288.3716992054305
 20
161.0989613592214
  0
LWPOLYLINE
  5
20C5
330
1E
100
AcDbEntity
  8
HILF
100
AcDbPolyline
 90
        7
 70
     0
 43
0.0
 10
186.3716992054304
 20
155.5426531474986
 42
-0.0929512992936809
 10
206.4732427757805
 20
166.2594750174814
 42
-0.1154029691580267
 10
224.8550501896865
 20
167.634101067355
 42
-0.1381456708875928
 10
242.9993002171726
 20
159.3193518415257
 42
0.1494847871479613
 10
259.9879964995039
 20
151.9863449357762
 42
0.0892966141021285
 10
273.155344620908
 20
152.8753192326569
 42
0.071480080070248
 10
288.3716992054305
 20
159.098961359222
  0
LINE
  5
20C6
330
1E
100
AcDbEntity
  8
HILF
100
AcDbLine
 10
295.4466992054309
 20
429.8189525774001
 30
0.0
 11
295.4466992054309
 21
454.2439525773988
 31
0.0
  0
LINE
  5
20C7
330
1E
100
AcDbEntity
  8
STEMPEL
100
AcDbLine
 10
297.3716992054298
 20
435.3189525774
 30
0.0
 11
297.37169920543
 21
452.3189525773996
 31
0.0
  0
LINE
  5
20C8
330
1E
100
AcDbEntity
  8
STEMPEL
100
AcDbLine
 10
295.4466992054309
 20
429.8189525774001
 30
0.0
 11
295.4466992054309
 21
454.2439525773988
 31
0.0
  0
LINE
  5
20C9
330
1E
100
AcDbEntity
  8
STEMPEL
100
AcDbLine
 10
297.3716992054298
 20
435.3189525774
 30
0.0
 11
297.37169920543
 21
452.3189525773996
 31
0.0
  0
LINE
  5
20CA
330
1E
100
AcDbEntity
  8
STEMPEL
100
AcDbLine
 10
295.4466992054309
 20
454.2439525773988
 30
0.0
 11
295.4466992054309
 21
429.8189525774001
 31
0.0
  0
LINE
  5
20CB
330
1E
100
AcDbEntity
  8
STEMPEL
100
AcDbLine
 10
295.4466992054309
 20
429.8189525774001
 30
0.0
 11
295.4466992054309
 21
454.2439525773988
 31
0.0
  0
LINE
  5
20CC
330
1E
100
AcDbEntity
  8
STEMPEL
100
AcDbLine
 10
297.3716992054298
 20
435.3189525774
 30
0.0
 11
297.37169920543
 21
452.3189525773996
 31
0.0
  0
LINE
  5
20CD
330
1E
100
AcDbEntity
  8
STEMPEL
100
AcDbLine
 10
295.4466992054309
 20
454.2439525773988
 30
0.0
 11
295.4466992054309
 21
429.8189525774001
 31
0.0
  0
LINE
  5
20CE
330
1E
100
AcDbEntity
  8
STEMPEL
100
AcDbLine
 10
293.3716992054309
 20
459.5036084493949
 30
0.0
 11
293.3716992054309
 21
294.5036084493947
 31
0.0
  0
LINE
  5
20CF
330
1E
100
AcDbEntity
  8
HILF
100
AcDbLine
 10
290.3716992054309
 20
459.5036084493949
 30
0.0
 11
290.3716992054309
 21
294.5036084493947
 31
0.0
  0
LINE
  5
20D0
330
1E
100
AcDbEntity
  8
HILF
100
AcDbLine
 10
184.3716992054308
 20
459.5036084493947
 30
0.0
 11
184.3716992054308
 21
294.5036084493947
 31
0.0
  0
LWPOLYLINE
  5
20D1
330
1E
100
AcDbEntity
  8
STEMPEL
100
AcDbPolyline
 90
        5
 70
     0
 43
0.0
 10
293.3716992054309
 20
429.8189525774001
 10
295.4466992054309
 20
429.8189525774001
 10
295.4466992054309
 20
454.2439525773988
 10
293.8716992054298
 20
455.8189525774
 10
293.3716992054309
 20
455.8189525774
  0
LINE
  5
20D2
102
{ACAD_REACTORS
330
2447
102
}
330
1E
100
AcDbEntity
  8
STEMPEL
100
AcDbLine
 10
286.371699205431
 20
485.1576412817169
 30
0.0
 11
286.3716992054309
 21
282.5036084493947
 31
0.0
  0
LINE
  5
20D3
102
{ACAD_REACTORS
330
2447
102
}
330
1E
100
AcDbEntity
  8
STEMPEL
100
AcDbLine
 10
288.371699205431
 20
486.279318839461
 30
0.0
 11
288.3716992054309
 21
282.5036084493947
 31
0.0
  0
LINE
  5
20D4
102
{ACAD_REACTORS
330
2447
102
}
330
1E
100
AcDbEntity
  8
STEMPEL
100
AcDbLine
 10
188.3716992054309
 20
484.2585271525949
 30
0.0
 11
188.3716992054308
 21
282.5036084493947
 31
0.0
  0
LINE
  5
20D5
102
{ACAD_REACTORS
330
2447
102
}
330
1E
100
AcDbEntity
  8
STEMPEL
100
AcDbLine
 10
186.3716992054309
 20
482.7230106277375
 30
0.0
 11
186.3716992054308
 21
282.5036084493947
 31
0.0
  0
LINE
  5
20D7
102
{ACAD_REACTORS
330
241A
102
}
330
1E
100
AcDbEntity
  8
STEMPEL
100
AcDbLine
 10
342.3716992054309
 20
555.8189525774
 30
0.0
 11
342.3716992054309
 21
553.8189525774
 31
0.0
  0
LINE
  5
20D8
330
1E
100
AcDbEntity
  8
STEMPEL
100
AcDbLine
 10
312.3716992054309
 20
452.3189525774
 30
0.0
 11
307.3716992054309
 21
452.3189525774
 31
0.0
  0
LINE
  5
20D9
330
1E
100
AcDbEntity
  8
STEMPEL
100
AcDbLine
 10
312.3716992054309
 20
452.3189525774
 30
0.0
 11
307.3716992054309
 21
452.3189525774
 31
0.0
  0
LINE
  5
20DD
330
1E
100
AcDbEntity
  8
STEMPEL
100
AcDbLine
 10
312.3716992054309
 20
431.8189525773996
 30
0.0
 11
312.3716992054309
 21
418.8189525774
 31
0.0
  0
LINE
  5
20DE
330
1E
100
AcDbEntity
  8
STEMPEL
100
AcDbLine
 10
312.3716992054309
 20
418.8189525774
 30
0.0
 11
311.3716992054309
 21
417.8189525774
 31
0.0
  0
LINE
  5
20DF
330
1E
100
AcDbEntity
  8
STEMPEL
100
AcDbLine
 10
308.8716992054309
 20
425.9189525773999
 30
0.0
 11
308.8716992054309
 21
417.8189525774
 31
0.0
  0
LINE
  5
20E0
330
1E
100
AcDbEntity
  8
STEMPEL
100
AcDbLine
 10
306.9716992054308
 20
427.8189525774
 30
0.0
 11
306.5091124069021
 21
427.8189525774
 31
0.0
  0
ARC
  5
20E1
330
1E
100
AcDbEntity
  8
STEMPEL
100
AcDbCircle
 10
306.9716992054307
 20
425.9189525773999
 30
0.0
 40
1.9
100
AcDbArc
 50
0.0
 51
90.0
  0
ARC
  5
20E2
330
1E
100
AcDbEntity
  8
STEMPEL
100
AcDbCircle
 10
306.509112406902
 20
425.9189525773999
 30
0.0
 40
1.9
100
AcDbArc
 50
90.0
 51
164.9999999999989
  0
LINE
  5
20E3
330
1E
100
AcDbEntity
  8
STEMPEL
100
AcDbLine
 10
312.3716992054309
 20
431.8189525774
 30
0.0
 11
312.3716992054309
 21
452.3189525774
 31
0.0
  0
LINE
  5
20E4
330
1E
100
AcDbEntity
  8
STEMPEL
100
AcDbLine
 10
307.3716992054309
 20
435.3189525774
 30
0.0
 11
307.3716992054309
 21
452.3189525774
 31
0.0
  0
LINE
  5
20E5
330
1E
100
AcDbEntity
  8
STEMPEL
100
AcDbLine
 10
312.3716992054309
 20
431.8189525774
 30
0.0
 11
312.3716992054309
 21
452.3189525774
 31
0.0
  0
LINE
  5
20E6
330
1E
100
AcDbEntity
  8
STEMPEL
100
AcDbLine
 10
307.3716992054309
 20
452.3189525774
 30
0.0
 11
307.3716992054309
 21
435.3189525774
 31
0.0
  0
LINE
  5
20E7
330
1E
100
AcDbEntity
  8
STEMPEL
100
AcDbLine
 10
312.3716992054309
 20
431.8189525774
 30
0.0
 11
312.3716992054309
 21
452.3189525774
 31
0.0
  0
LINE
  5
20E8
330
1E
100
AcDbEntity
  8
STEMPEL
100
AcDbLine
 10
307.3716992054309
 20
452.3189525774
 30
0.0
 11
307.3716992054309
 21
435.3189525774
 31
0.0
  0
LINE
  5
20EA
330
1E
100
AcDbEntity
  8
STEMPEL
100
AcDbLine
 10
311.3716992054309
 20
417.8189525774
 30
0.0
 11
297.7458639825378
 21
417.8189525774
 31
0.0
  0
LINE
  5
20EB
330
1E
100
AcDbEntity
  8
STEMPEL
100
AcDbLine
 10
312.3716992054309
 20
431.8189525773996
 30
0.0
 11
301.8716992054309
 21
431.8189525773996
 31
0.0
  0
LINE
  5
20EC
330
1E
100
AcDbEntity
  8
STEMPEL
100
AcDbLine
 10
304.6738533369527
 20
426.4107087630946
 30
0.0
 11
302.3716992054309
 21
417.8189525774
 31
0.0
  0
LINE
  5
20ED
330
1E
100
AcDbEntity
  8
STEMPEL
100
AcDbLine
 10
301.8716992054309
 20
431.8189525774
 30
0.0
 11
312.3716992054309
 21
431.8189525774
 31
0.0
  0
LINE
  5
20EE
330
1E
100
AcDbEntity
  8
STEMPEL
100
AcDbLine
 10
297.3716992054298
 20
452.3189525774
 30
0.0
 11
312.3716992054309
 21
452.3189525774
 31
0.0
  0
LINE
  5
20EF
330
1E
100
AcDbEntity
  8
STEMPEL
100
AcDbLine
 10
297.3716992054298
 20
435.3189525774
 30
0.0
 11
307.3716992054309
 21
435.3189525774
 31
0.0
  0
LINE
  5
20F0
330
1E
100
AcDbEntity
  8
STEMPEL
100
AcDbLine
 10
301.8716992054309
 20
431.8189525774
 30
0.0
 11
312.3716992054309
 21
431.8189525774
 31
0.0
  0
LINE
  5
20F1
330
1E
100
AcDbEntity
  8
STEMPEL
100
AcDbLine
 10
307.3716992054309
 20
435.3189525774
 30
0.0
 11
297.3716992054298
 21
435.3189525774
 31
0.0
  0
LINE
  5
20F2
330
1E
100
AcDbEntity
  8
STEMPEL
100
AcDbLine
 10
307.3716992054309
 20
435.3189525774
 30
0.0
 11
297.3716992054298
 21
435.3189525774
 31
0.0
  0
LINE
  5
20F3
330
1E
100
AcDbEntity
  8
STEMPEL
100
AcDbLine
 10
301.8716992054309
 20
431.8189525774
 30
0.0
 11
312.3716992054309
 21
431.8189525774
 31
0.0
  0
LINE
  5
20F4
102
{ACAD_REACTORS
330
241A
102
}
330
1E
100
AcDbEntity
  8
STEMPEL
100
AcDbLine
 10
342.3716992054309
 20
555.8189525774
 30
0.0
 11
288.3716992054309
 21
555.8189525774
 31
0.0
  0
LINE
  5
20F5
102
{ACAD_REACTORS
330
241A
102
}
330
1E
100
AcDbEntity
  8
STEMPEL
100
AcDbLine
 10
342.3716992054309
 20
553.8189525774
 30
0.0
 11
288.3716992054309
 21
553.8189525774
 31
0.0
  0
LINE
  5
20F7
330
1E
100
AcDbEntity
  8
STEMPEL
100
AcDbLine
 10
186.3716992054305
 20
89.81895257739962
 30
0.0
 11
187.4215631677414
 21
77.81895257739984
 31
0.0
  0
LINE
  5
20F8
330
1E
100
AcDbEntity
  8
STEMPEL
100
AcDbLine
 10
188.3716992054305
 20
89.90627446321695
 30
0.0
 11
189.4292028428283
 21
77.81895257739984
 31
0.0
  0
LINE
  5
20F9
330
1E
100
AcDbEntity
  8
STEMPEL
100
AcDbLine
 10
286.3716992054303
 20
89.90627446321742
 30
0.0
 11
285.3141955680326
 21
77.81895257739984
 31
0.0
  0
LINE
  5
20FA
330
1E
100
AcDbEntity
  8
STEMPEL
100
AcDbLine
 10
288.3716992054303
 20
89.81895257740053
 30
0.0
 11
287.3218352431193
 21
77.81895257739984
 31
0.0
  0
LINE
  5
20FB
330
1E
100
AcDbEntity
  8
STEMPEL
100
AcDbLine
 10
287.3218352431193
 20
77.81895257739984
 30
0.0
 11
187.4215631677414
 21
77.81895257739984
 31
0.0
  0
LINE
  5
20FC
330
1E
100
AcDbEntity
  8
HILF
100
AcDbLine
 10
284.5803661125408
 20
89.81895257739983
 30
0.0
 11
190.1630322983199
 21
89.81895257739983
 31
0.0
  0
DIMENSION
  5
20FD
330
1E
100
AcDbEntity
  8
BEM
100
AcDbDimension
  2
*D10
 10
288.3716992054303
 20
56.1181000881379
 30
0.0
 11
237.3716992054304
 21
62.61810008813791
 31
0.0
 70
    32
  1
%%C<>
 71
     5
 42
101.9999999999998
  3
Standard
100
AcDbAlignedDimension
 13
186.3716992054305
 23
89.81895257739962
 33
0.0
 14
288.3716992054303
 24
89.81895257740053
 34
0.0
 50
180.0
100
AcDbRotatedDimension
1001
ACAD
1000
DSTYLE
1002
{
1070
    40
1040
2.0
1070
    41
1040
3.5
1070
    42
1040
1.0
1070
    43
1040
7.0
1070
    44
1040
1.0
1070
    73
1070
     0
1070
    74
1070
     0
1070
    77
1070
     1
1070
    78
1070
     8
1070
    79
1070
     2
1070
   140
1040
3.5
1070
   141
1040
1.5
1070
   146
1040
0.5142857142857144
1070
   147
1040
1.5
1070
   172
1070
     1
1070
   178
1070
     1
1070
   179
1070
     2
1070
   271
1070
     2
1070
   272
1070
     2
1070
   284
1070
     8
1070
   285
1070
     8
1070
   286
1070
     8
1002
}
  0
LINE
  5
20FE
330
1E
100
AcDbEntity
  8
MITTEL
100
AcDbLine
 10
237.3716992054303
 20
72.81895257739984
 30
0.0
 11
237.3716992054309
 21
460.8189525773998
 31
0.0
  0
LINE
  5
20FF
330
1E
100
AcDbEntity
  8
STEMPEL
100
AcDbLine
 10
186.3716992054305
 20
89.81895257739962
 30
0.0
 11
186.3716992054308
 21
155.5426531474988
 31
0.0
  0
LINE
  5
2100
330
1E
100
AcDbEntity
  8
STEMPEL
100
AcDbLine
 10
188.3716992054305
 20
89.90627446321695
 30
0.0
 11
188.3716992054308
 21
157.0781696723562
 31
0.0
  0
LINE
  5
2101
330
1E
100
AcDbEntity
  8
STEMPEL
100
AcDbLine
 10
288.3716992054303
 20
89.81895257740053
 30
0.0
 11
288.3716992054303
 21
159.0989613592219
 31
0.0
  0
LINE
  5
2102
330
1E
100
AcDbEntity
  8
STEMPEL
100
AcDbLine
 10
286.3716992054303
 20
89.90627446321742
 30
0.0
 11
286.3716992054303
 21
157.9772838014778
 31
0.0
  0
DIMENSION
  5
2103
330
1E
100
AcDbEntity
  8
BEM
100
AcDbDimension
  2
*D11
 10
116.9723233938835
 20
427.8189525773998
 30
0.0
 11
110.4723233938834
 21
252.8189525774
 31
0.0
 70
    32
  1
2500
 71
     5
 42
349.9999999999999
  3
Standard
100
AcDbAlignedDimension
 13
187.4215631677414
 23
77.8189525774
 33
0.0
 14
172.8716992054308
 24
427.8189525773998
 34
0.0
 50
90.0
100
AcDbRotatedDimension
1001
ACAD
1000
DSTYLE
1002
{
1070
    40
1040
2.0
1070
    41
1040
3.5
1070
    42
1040
1.0
1070
    43
1040
7.0
1070
    44
1040
1.0
1070
    73
1070
     0
1070
    74
1070
     0
1070
    77
1070
     1
1070
    78
1070
     8
1070
    79
1070
     2
1070
   140
1040
3.5
1070
   141
1040
1.5
1070
   146
1040
0.5142857142857144
1070
   147
1040
1.5
1070
   172
1070
     1
1070
   178
1070
     1
1070
   179
1070
     2
1070
   271
1070
     2
1070
   272
1070
     2
1070
   284
1070
     8
1070
   285
1070
     8
1070
   286
1070
     8
1002
}
  0
ARC
  5
2104
330
1E
100
AcDbEntity
  8
STEMPEL
100
AcDbCircle
 10
271.371699205431
 20
765.1784169880474
 30
0.0
 40
24.99990931069965
100
AcDbArc
 50
333.1122293409813
 51
0.0
  0
LINE
  5
2107
330
1E
100
AcDbEntity
  8
MITTEL
100
AcDbLine
 10
237.371699205431
 20
800.9454169880475
 30
0.0
 11
237.3716992054309
 21
518.8783130212778
 31
0.0
  0
LINE
  5
2108
330
1E
100
AcDbEntity
  8
HILF
100
AcDbLine
 10
292.9095533807075
 20
267.8189525773998
 30
0.0
 11
181.8338450301537
 21
267.8189525774001
 31
0.0
  0
LINE
  5
2109
330
1E
100
AcDbEntity
  8
STEMPEL
100
AcDbLine
 10
178.6047981329791
 20
265.0787327384032
 30
0.0
 11
185.314757267532
 21
250.1677124393971
 31
0.0
  0
LINE
  5
210A
330
1E
100
AcDbEntity
  8
STEMPEL
100
AcDbLine
 10
180.4286411433293
 20
265.8994620930607
 30
0.0
 11
187.1386002778822
 21
250.9884417940548
 31
0.0
  0
LINE
  5
210B
330
1E
100
AcDbEntity
  8
STEMPEL
100
AcDbLine
 10
293.0784550433561
 20
795.9454169880475
 30
0.0
 11
181.664943367506
 21
795.9454169880475
 31
0.0
  0
LINE
  5
210C
330
1E
100
AcDbEntity
  8
STEMPEL
100
AcDbLine
 10
260.9896191683723
 20
555.8189525774
 30
0.0
 11
132.3716992054309
 21
555.8189525774
 31
0.0
  0
LINE
  5
210D
330
1E
100
AcDbEntity
  8
STEMPEL
100
AcDbLine
 10
259.1447740033285
 20
553.8189525774
 30
0.0
 11
132.3716992054309
 21
553.8189525774
 31
0.0
  0
ARC
  5
210E
330
1E
100
AcDbEntity
  8
SCHRAFF
100
AcDbCircle
 10
187.0774005506616
 20
555.083907912308
 30
0.0
 40
4.477140827639991
100
AcDbArc
 50
196.4116445908444
 51
260.9310338685613
  0
INSERT
  5
210F
330
1E
100
AcDbEntity
  8
SCHRAFF
100
AcDbBlockReference
  2
*X1
 10
-73.58400974704295
 20
204.0480006700677
 30
0.0
1001
ACAD
1000
HATCH
1002
{
1070
    16
1000
_U,I
1040
0.1
1040
2.356194490192344
1070
     0
1002
}
  0
LINE
  5
2110
330
1E
100
AcDbEntity
  8
STEMPEL
100
AcDbLine
 10
186.3716992054309
 20
524.8189525774001
 30
0.0
 11
181.3716992054309
 21
524.8189525774001
 31
0.0
  0
LINE
  5
2111
330
1E
100
AcDbEntity
  8
STEMPEL
100
AcDbLine
 10
186.3716992054308
 20
294.5036084493947
 30
0.0
 11
181.3716992054308
 21
294.5036084493947
 31
0.0
  0
ARC
  5
2112
330
1E
100
AcDbEntity
  8
STEMPEL
100
AcDbCircle
 10
197.3716992054312
 20
642.7464414543475
 30
0.0
 40
15.0
100
AcDbArc
 50
180.0
 51
214.30115275679
  0
LINE
  5
2113
330
1E
100
AcDbEntity
  8
STEMPEL
100
AcDbLine
 10
181.664943367506
 20
795.9454169880475
 30
0.0
 11
293.0784550433563
 21
795.9454169880475
 31
0.0
  0
LINE
  5
2114
330
1E
100
AcDbEntity
  8
HILF
100
AcDbLine
 10
184.1263306748541
 20
751.0550363358368
 30
0.0
 11
290.6170677360082
 21
751.055036335837
 31
0.0
  0
DIMENSION
  5
2115
330
1E
100
AcDbEntity
  8
BEM
100
AcDbDimension
  2
*D12
 10
296.3716992054311
 20
810.0419415176752
 30
0.0
 11
237.3716992054311
 21
816.5419415176753
 31
0.0
 70
    32
  1
%%C<>
 71
     5
 42
118.0
  3
Standard
100
AcDbAlignedDimension
 13
178.3716992054311
 23
783.3406655254764
 33
0.0
 14
296.3716992054311
 24
783.3406655254764
 34
0.0
100
AcDbRotatedDimension
1001
ACAD
1000
DSTYLE
1002
{
1070
    40
1040
2.0
1070
    41
1040
3.5
1070
    42
1040
1.0
1070
    43
1040
7.0
1070
    44
1040
1.0
1070
    73
1070
     0
1070
    74
1070
     0
1070
    77
1070
     1
1070
    78
1070
     8
1070
    79
1070
     2
1070
   140
1040
3.5
1070
   141
1040
1.5
1070
   146
1040
0.5142857142857144
1070
   147
1040
1.5
1070
   172
1070
     1
1070
   178
1070
     1
1070
   179
1070
     2
1070
   271
1070
     2
1070
   272
1070
     2
1070
   284
1070
     8
1070
   285
1070
     8
1070
   286
1070
     8
1002
}
  0
DIMENSION
  5
2116
330
1E
100
AcDbEntity
  8
BEM
100
AcDbDimension
  2
*D13
 10
342.3716992054309
 20
506.3855243082184
 30
0.0
 11
237.3716992054309
 21
512.8855243082184
 31
0.0
 70
    32
  1
%%C<>
 71
     5
 42
210.0
  3
Standard
100
AcDbAlignedDimension
 13
132.3716992054309
 23
553.8189525774
 33
0.0
 14
342.3716992054309
 24
553.8189525774
 34
0.0
100
AcDbRotatedDimension
1001
ACAD
1000
DSTYLE
1002
{
1070
    40
1040
2.0
1070
    41
1040
3.5
1070
    42
1040
1.0
1070
    43
1040
7.0
1070
    44
1040
1.0
1070
    73
1070
     0
1070
    74
1070
     0
1070
    77
1070
     1
1070
    78
1070
     8
1070
    79
1070
     2
1070
   140
1040
3.5
1070
   141
1040
1.5
1070
   146
1040
0.5142857142857144
1070
   147
1040
1.5
1070
   172
1070
     1
1070
   178
1070
     1
1070
   179
1070
     2
1070
   271
1070
     2
1070
   272
1070
     2
1070
   284
1070
     8
1070
   285
1070
     8
1070
   286
1070
     8
1002
}
  0
INSERT
  5
2117
330
1E
100
AcDbEntity
  8
SCHRAFF
100
AcDbBlockReference
  2
*X3
 10
-26.6328073620291
 20
220.6870018632062
 30
0.0
1001
ACAD
1000
HATCH
1002
{
1070
    16
1000
NET,I
1040
15.0
1040
2.356194490192344
1002
}
  0
POLYLINE
  5
2118
330
1E
100
AcDbEntity
  8
HILF
100
AcDb2dPolyline
 66
     1
 10
0.0
 20
0.0
 30
0.0
 70
     2
  0
VERTEX
  5
2119
330
2118
100
AcDbEntity
  8
HILF
100
AcDbVertex
100
AcDb2dVertex
 10
182.3716992054311
 20
701.8526050408123
 30
0.0
 42
-0.1146798215756212
  0
VERTEX
  5
211A
330
2118
100
AcDbEntity
  8
HILF
100
AcDbVertex
100
AcDb2dVertex
 10
206.4732427757808
 20
716.0647286346764
 30
0.0
 42
-0.1154029691580267
 70
     1
  0
VERTEX
  5
211B
330
2118
100
AcDbEntity
  8
HILF
100
AcDbVertex
100
AcDb2dVertex
 10
224.8550501896868
 20
717.43935468455
 30
0.0
 42
-0.1381456708875928
  0
VERTEX
  5
211C
330
2118
100
AcDbEntity
  8
HILF
100
AcDbVertex
100
AcDb2dVertex
 10
242.9993002171729
 20
709.1246054587208
 30
0.0
 42
0.1494847871479613
 70
     1
  0
VERTEX
  5
211D
330
2118
100
AcDbEntity
  8
HILF
100
AcDbVertex
100
AcDb2dVertex
 10
259.9879964995042
 20
701.7915985529713
 30
0.0
 42
0.0892966141021285
  0
VERTEX
  5
211E
330
2118
100
AcDbEntity
  8
HILF
100
AcDbVertex
100
AcDb2dVertex
 10
273.1553446209083
 20
702.6805728498519
 30
0.0
 42
0.0922055876646665
 70
     1
  0
VERTEX
  5
211F
330
2118
100
AcDbEntity
  8
HILF
100
AcDbVertex
100
AcDb2dVertex
 10
292.371699205431
 20
711.4801863840657
 30
0.0
  0
SEQEND
  5
2120
330
2118
100
AcDbEntity
  8
HILF
  0
POLYLINE
  5
2121
330
1E
100
AcDbEntity
  8
HILF
100
AcDb2dPolyline
 66
     1
 10
0.0
 20
0.0
 30
0.0
 70
     2
  0
VERTEX
  5
2122
330
2121
100
AcDbEntity
  8
HILF
100
AcDbVertex
100
AcDb2dVertex
 10
182.3716992054311
 20
703.8526050408132
 30
0.0
 42
-0.1146798215756195
  0
VERTEX
  5
2123
330
2121
100
AcDbEntity
  8
HILF
100
AcDbVertex
100
AcDb2dVertex
 10
206.4732427757808
 20
718.0647286346765
 30
0.0
 42
-0.1154029691580267
 70
     1
  0
VERTEX
  5
2124
330
2121
100
AcDbEntity
  8
HILF
100
AcDbVertex
100
AcDb2dVertex
 10
224.8550501896868
 20
719.43935468455
 30
0.0
 42
-0.1381456708875928
  0
VERTEX
  5
2125
330
2121
100
AcDbEntity
  8
HILF
100
AcDbVertex
100
AcDb2dVertex
 10
242.9993002171729
 20
711.1246054587208
 30
0.0
 42
0.1494847871479613
 70
     1
  0
VERTEX
  5
2126
330
2121
100
AcDbEntity
  8
HILF
100
AcDbVertex
100
AcDb2dVertex
 10
259.9879964995042
 20
703.7915985529713
 30
0.0
 42
0.0892966141021285
  0
VERTEX
  5
2127
330
2121
100
AcDbEntity
  8
HILF
100
AcDbVertex
100
AcDb2dVertex
 10
273.1553446209083
 20
704.6805728498519
 30
0.0
 42
0.0922055876646653
 70
     1
  0
VERTEX
  5
2128
330
2121
100
AcDbEntity
  8
HILF
100
AcDbVertex
100
AcDb2dVertex
 10
292.371699205431
 20
713.4801863840652
 30
0.0
  0
SEQEND
  5
2129
330
2121
100
AcDbEntity
  8
HILF
  0
INSERT
  5
212A
330
1E
100
AcDbEntity
  8
SCHRAFF
100
AcDbBlockReference
  2
*X4
 10
562.4506868536936
 20
-0.9971385158860357
 30
0.0
 50
90.0
1001
ACAD
1000
HATCH
1002
{
1070
    16
1000
NET,I
1040
15.0
1040
0.7853981633974483
1002
}
  0
INSERT
  5
212B
330
1E
100
AcDbEntity
  8
SCHRAFF
100
AcDbBlockReference
  2
*X5
 10
562.4506868536936
 20
-0.9971385158860357
 30
0.0
 50
90.0
1001
ACAD
1000
HATCH
1002
{
1070
    16
1000
NET,I
1040
20.0
1040
0.7853981633974483
1002
}
  0
LINE
  5
212C
330
1E
100
AcDbEntity
  8
STEMPEL
100
AcDbLine
 10
186.3716992054309
 20
459.5036084493947
 30
0.0
 11
181.3716992054309
 21
459.5036084493947
 31
0.0
  0
INSERT
  5
212D
330
1E
100
AcDbEntity
  8
SCHRAFF
100
AcDbBlockReference
  2
*X6
 10
562.4506868536936
 20
-0.9971385158860357
 30
0.0
 50
90.0
1001
ACAD
1000
HATCH
1002
{
1070
    16
1000
NET,I
1040
20.0
1040
0.7853981633974483
1002
}
  0
INSERT
  5
212E
330
1E
100
AcDbEntity
  8
SCHRAFF
100
AcDbBlockReference
  2
*X7
 10
562.4506868536936
 20
-0.9971385158860357
 30
0.0
 50
90.0
1001
ACAD
1000
HATCH
1002
{
1070
    16
1000
_U,I
1040
2.0
1040
0.7853981633974483
1070
     0
1002
}
  0
LINE
  5
22D8
102
{ACAD_REACTORS
330
2447
102
}
330
1E
100
AcDbEntity
  8
TEXT
 62
     2
100
AcDbLine
 10
274.1165980066046
 20
295.6785136146443
 30
0.0
 11
347.6067294589589
 21
273.8908536488076
 31
0.0
  0
LINE
  5
22D9
330
1E
100
AcDbEntity
  8
TEXT
 62
     2
100
AcDbLine
 10
347.6067294589589
 20
273.8908536488076
 30
0.0
 11
449.9669761051839
 21
273.8908536488076
 31
0.0
  0
TEXT
  5
22DA
330
1E
100
AcDbEntity
  8
TEXT
 62
     1
100
AcDbText
 10
349.0547394517271
 20
265.0081713152287
 30
0.0
 40
7.0
  1
EDV-Art.Nr.16721.100X
 41
0.8
  7
GREEKS
100
AcDbText
  0
TEXT
  5
22DB
330
1E
100
AcDbEntity
  8
TEXT
 62
     1
100
AcDbText
 10
349.0547394517271
 20
276.2772295655474
 30
0.0
 40
7.0
  1
Fallrohr DN100
 41
0.8
  7
GREEKS
100
AcDbText
  0
HATCH
  5
241A
330
1E
100
AcDbEntity
  8
SCHRAFF
100
AcDbHatch
 10
0.0
 20
0.0
 30
0.0
210
0.0
220
0.0
230
1.0
  2
_USER
 70
     0
 71
     1
 91
        1
 92
        7
 72
     0
 73
     1
 93
        4
 10
288.371699205431
 20
555.8189525774
 10
288.3716992054311
 20
553.8189525774002
 10
342.3716992054309
 20
553.8189525773999
 10
342.3716992054309
 20
555.8189525774
 97
        4
330
20F4
330
208C
330
20F5
330
20D7
 75
     0
 76
     0
 52
45.0
 41
2.0
 77
     0
 78
     1
 53
45.0
 43
0.0
 44
0.0
 45
-1.414213562373094
 46
1.414213562373095
 79
     0
 47
0.1907425100772915
 98
        1
 10
328.5240308523871
 20
555.0440820361315
  0
HATCH
  5
242A
330
1E
100
AcDbEntity
  8
SCHRAFF
100
AcDbHatch
 10
0.0
 20
0.0
 30
0.0
210
0.0
220
0.0
230
1.0
  2
_USER
 70
     0
 71
     1
 91
        2
 92
        7
 72
     1
 73
     1
 93
        8
 10
279.3716992054311
 20
586.8749166472916
 42
-0.0641123317365858
 10
279.6326148952945
 20
588.9013850138339
 42
0.0
 10
287.152123976037
 20
614.1374904064662
 42
0.0
 10
284.8999413811919
 20
613.0938176531258
 42
0.0
 10
277.6978438177604
 20
589.4080021054697
 42
0.064112331736603
 10
277.3716992054311
 20
586.8749166472911
 42
0.0
 10
277.3716992054311
 20
535.8189525774
 42
0.0
 10
279.3716992054311
 20
535.8189525774
 42
0.0
 97
        8
330
2076
330
2092
330
2098
330
2094
330
2078
330
2080
330
2097
330
207C
 92
        7
 72
     0
 73
     1
 93
        4
 10
197.3716992054311
 20
550.0285487968272
 10
195.3716992054311
 20
550.3066057123448
 10
195.3716992054309
 20
535.8189525774
 10
197.3716992054309
 20
535.8189525774
 97
        4
330
2098
330
2034
330
2097
330
2035
 75
     0
 76
     0
 52
45.0
 41
2.0
 77
     0
 78
     1
 53
45.0
 43
0.0
 44
0.0
 45
-1.414213562373094
 46
1.414213562373095
 79
     0
 47
0.3050395737299009
 98
        2
 10
278.4021269479453
 20
542.2550329056478
 10
196.6217822232142
 20
543.4751908945438
  0
HATCH
  5
2447
330
1E
100
AcDbEntity
  8
SCHRAFF
100
AcDbHatch
 10
0.0
 20
0.0
 30
0.0
210
0.0
220
0.0
230
1.0
  2
_USER
 70
     0
 71
     1
 91
        5
 92
        7
 72
     1
 73
     1
 93
        4
 10
288.3716992054311
 20
610.8189525774
 42
0.0
 10
286.3716992054312
 20
610.8189525774
 42
0.0
 10
286.371699205431
 20
487.1576412817162
 42
0.009920452811946
 10
288.371699205431
 20
488.2793188394603
 42
0.0
 97
        4
330
206B
330
2091
330
209E
330
208C
 92
        7
 72
     1
 73
     1
 93
        4
 10
188.3716992054309
 20
551.5468802655035
 42
0.0
 10
186.3716992054309
 20
551.9323449256986
 42
0.0
 10
186.3716992054309
 20
484.7230106277382
 42
-0.0102015726426144
 10
188.3716992054309
 20
486.2585271525954
 42
0.0
 97
        4
330
2098
330
2042
330
209E
330
2041
 92
        7
 72
     1
 73
     1
 93
        6
 10
188.3716992054309
 20
484.2585271525948
 42
0.0102015726426145
 10
186.3716992054309
 20
482.7230106277375
 42
0.0
 10
186.3716992054307
 20
282.5036084493953
 42
0.0
 10
187.2465858406901
 20
272.5036084493947
 42
0.0
 10
189.2465858406901
 20
272.5036084493948
 42
0.0
 10
188.3716992054307
 20
282.503608449395
 42
0.0
 97
        6
330
209D
330
20D5
330
209F
330
20C2
330
20A0
330
20D4
 92
        7
 72
     1
 73
     1
 93
        4
 10
288.371699205431
 20
486.279318839461
 42
-0.0099204528119461
 10
286.371699205431
 20
485.1576412817169
 42
0.0
 10
286.3716992054309
 20
292.0452369761333
 42
0.0
 10
288.371699205431
 20
291.4522958686606
 42
0.0
 97
        4
330
209D
330
20D2
330
22D8
330
20D3
 92
        7
 72
     0
 73
     1
 93
        6
 10
288.3716992054309
 20
291.4522958686605
 10
286.3716992054309
 20
292.0452369761333
 10
286.3716992054309
 20
282.5036084493948
 10
285.4968125701716
 20
272.5036084493947
 10
287.4968125701715
 20
272.5036084493947
 10
288.3716992054309
 20
282.503608449395
 97
        6
330
22D8
330
20D2
330
20B5
330
20C2
330
20BC
330
20D3
 75
     0
 76
     0
 52
135.0
 41
2.0
 77
     0
 78
     1
 53
135.0
 43
0.0
 44
0.0
 45
-1.414213562373095
 46
-1.414213562373094
 79
     0
 47
0.4857410185121898
 98
        5
 10
287.4321533217358
 20
554.0686618018569
 10
187.3331017968512
 20
539.0106913778857
 10
187.3331017968512
 20
467.1210191821517
 10
286.9462351170501
 20
469.5497240892438
 10
287.4321533217358
 20
283.9966552957906
  0
ENDSEC
  0
SECTION
  2
OBJECTS
  0
DICTIONARY
  5
C
330
0
100
AcDbDictionary
281
     1
  3
ACAD_COLOR
350
DF
  3
ACAD_GROUP
350
D
  3
ACAD_LAYOUT
350
19
  3
ACAD_MATERIAL
350
DE
  3
ACAD_MLINESTYLE
350
16
  3
ACAD_PLOTSETTINGS
350
18
  3
ACAD_PLOTSTYLENAME
350
E
  3
AcDbVariableDictionary
350
EA
  0
DICTIONARY
  5
A0
330
1E
100
AcDbDictionary
280
     1
281
     1
  3
ACAD_LAYOUTSELFREF
360
D4
  0
DICTIONARY
  5
A2
330
1A
100
AcDbDictionary
280
     1
281
     1
  3
ACAD_LAYOUTSELFREF
360
D3
  0
DICTIONARY
  5
DF
102
{ACAD_REACTORS
330
C
102
}
330
C
100
AcDbDictionary
281
     1
  0
DICTIONARY
  5
D
102
{ACAD_REACTORS
330
C
102
}
330
C
100
AcDbDictionary
281
     1
  0
DICTIONARY
  5
19
102
{ACAD_REACTORS
330
C
102
}
330
C
100
AcDbDictionary
281
     1
  3
Layout1
350
1D
  3
Model
350
21
  0
DICTIONARY
  5
DE
102
{ACAD_REACTORS
330
C
102
}
330
C
100
AcDbDictionary
281
     1
  0
DICTIONARY
  5
16
102
{ACAD_REACTORS
330
C
102
}
330
C
100
AcDbDictionary
281
     1
  3
Standard
350
17
  0
DICTIONARY
  5
18
102
{ACAD_REACTORS
330
C
102
}
330
C
100
AcDbDictionary
281
     1
  0
ACDBDICTIONARYWDFLT
  5
E
102
{ACAD_REACTORS
330
C
102
}
330
C
100
AcDbDictionary
281
     1
  3
Normal
350
F
100
AcDbDictionaryWithDefault
340
F
  0
DICTIONARY
  5
EA
102
{ACAD_REACTORS
330
C
102
}
330
C
100
AcDbDictionary
281
     1
  3
DIMASSOC
350
EB
  3
PROJECTNAME
350
EC
  0
XRECORD
  5
D4
102
{ACAD_REACTORS
330
A0
102
}
330
A0
100
AcDbXrecord
280
     1
340
1E
  0
XRECORD
  5
D3
102
{ACAD_REACTORS
330
A2
102
}
330
A2
100
AcDbXrecord
280
     1
340
1A
  0
LAYOUT
  5
1D
102
{ACAD_REACTORS
330
19
102
}
330
19
100
AcDbPlotSettings
  1

  2
\\NT_WORK01\HP LaserJet 5000 PCL 6
  4

  6

 40
0.0
 41
0.0
 42
0.0
 43
0.0
 44
0.0
 45
0.0
 46
0.0
 47
0.0
 48
0.0
 49
0.0
140
0.0
141
0.0
142
1.0
143
1.0
 70
   688
 72
     0
 73
     0
 74
     5
  7

 75
    16
147
1.0
 76
     0
 77
     2
 78
   300
148
0.0
149
0.0
100
AcDbLayout
  1
Layout1
 70
     0
 71
     1
 10
0.0
 20
0.0
 11
12.0
 21
9.0
 12
0.0
 22
0.0
 32
0.0
 14
1.000000000000000E+20
 24
1.000000000000000E+20
 34
1.000000000000000E+20
 15
-1.000000000000000E+20
 25
-1.000000000000000E+20
 35
-1.000000000000000E+20
146
0.0
 13
0.0
 23
0.0
 33
0.0
 16
1.0
 26
0.0
 36
0.0
 17
0.0
 27
1.0
 37
0.0
 76
     0
330
1A
  0
LAYOUT
  5
21
102
{ACAD_REACTORS
330
19
102
}
330
19
100
AcDbPlotSettings
  1

  2
none_device
  4
Letter_(8.50_x_11.00_Inches)
  6

 40
6.349999904632568
 41
6.349999904632568
 42
6.350006103515625
 43
6.350006103515625
 44
215.8999938964844
 45
279.3999938964844
 46
0.0
 47
0.0
 48
0.0
 49
0.0
140
0.0
141
0.0
142
1.0
143
1.0
 70
 11952
 72
     0
 73
     1
 74
     0
  7

 75
     0
147
1.0
 76
     0
 77
     2
 78
   300
148
3251.566150932968
149
127.4457819382556
100
AcDbLayout
  1
Model
 70
     1
 71
     0
 10
0.0
 20
0.0
 11
12.0
 21
9.0
 12
0.0
 22
0.0
 32
0.0
 14
0.0
 24
0.0
 34
0.0
 15
0.0
 25
0.0
 35
0.0
146
0.0
 13
0.0
 23
0.0
 33
0.0
 16
1.0
 26
0.0
 36
0.0
 17
0.0
 27
1.0
 37
0.0
 76
     0
330
1E
  0
MLINESTYLE
  5
17
102
{ACAD_REACTORS
330
16
102
}
330
16
100
AcDbMlineStyle
  2
STANDARD
 70
     0
  3

 62
   256
 51
90.0
 52
90.0
 71
     2
 49
0.5
 62
   256
  6
BYLAYER
 49
-0.5
 62
   256
  6
BYLAYER
  0
ACDBPLACEHOLDER
  5
F
102
{ACAD_REACTORS
330
E
102
}
330
E
  0
DICTIONARYVAR
  5
EB
102
{ACAD_REACTORS
330
EA
102
}
330
EA
100
DictionaryVariables
280
     0
  1
1
  0
DICTIONARYVAR
  5
EC
102
{ACAD_REACTORS
330
EA
102
}
330
EA
100
DictionaryVariables
280
     0
  1

  0
ENDSEC
  0
EOF
