  0
SECTION
  2
HEADER
  9
$ACADVER
  1
AC1018
  9
$ACADMAINTVER
 70
     2
  9
$DWGCODEPAGE
  3
ANSI_1252
  9
$INSBASE
 10
0.0
 20
0.0
 30
0.0
  9
$EXTMIN
 10
-0.0000000000004547
 20
-0.0000000000000205
 30
0.0
  9
$EXTMAX
 10
594.0000000000001
 20
840.0000000000002
 30
0.0
  9
$LIMMIN
 10
0.0
 20
0.0
  9
$LIMMAX
 10
593.9999999999997
 20
840.0000000000002
  9
$ORTHOMODE
 70
     1
  9
$REGENMODE
 70
     1
  9
$FILLMODE
 70
     1
  9
$QTEXTMODE
 70
     0
  9
$MIRRTEXT
 70
     1
  9
$LTSCALE
 40
20.0
  9
$ATTMODE
 70
     1
  9
$TEXTSIZE
 40
3.5
  9
$TRACEWID
 40
0.5
  9
$TEXTSTYLE
  7
STANDARD
  9
$CLAYER
  8
BEM
  9
$CELTYPE
  6
ByLayer
  9
$CECOLOR
 62
   256
  9
$CELTSCALE
 40
1.0
  9
$DISPSILH
 70
     0
  9
$DIMSCALE
 40
2.0
  9
$DIMASZ
 40
3.5
  9
$DIMEXO
 40
1.0
  9
$DIMDLI
 40
7.0
  9
$DIMRND
 40
0.0
  9
$DIMDLE
 40
0.0
  9
$DIMEXE
 40
1.0
  9
$DIMTP
 40
0.0
  9
$DIMTM
 40
0.0
  9
$DIMTXT
 40
3.5
  9
$DIMCEN
 40
1.5
  9
$DIMTSZ
 40
0.0
  9
$DIMTOL
 70
     0
  9
$DIMLIM
 70
     0
  9
$DIMTIH
 70
     0
  9
$DIMTOH
 70
     0
  9
$DIMSE1
 70
     0
  9
$DIMSE2
 70
     0
  9
$DIMTAD
 70
     1
  9
$DIMZIN
 70
     8
  9
$DIMBLK
  1

  9
$DIMASO
 70
     1
  9
$DIMSHO
 70
     0
  9
$DIMPOST
  1

  9
$DIMAPOST
  1

  9
$DIMALT
 70
     0
  9
$DIMALTD
 70
     2
  9
$DIMALTF
 40
25.4
  9
$DIMLFAC
 40
1.0
  9
$DIMTOFL
 70
     1
  9
$DIMTVP
 40
0.0
  9
$DIMTIX
 70
     0
  9
$DIMSOXD
 70
     0
  9
$DIMSAH
 70
     0
  9
$DIMBLK1
  1

  9
$DIMBLK2
  1

  9
$DIMSTYLE
  2
Standard
  9
$DIMCLRD
 70
     0
  9
$DIMCLRE
 70
     0
  9
$DIMCLRT
 70
     1
  9
$DIMTFAC
 40
0.5142857142857144
  9
$DIMGAP
 40
1.5
  9
$DIMJUST
 70
     0
  9
$DIMSD1
 70
     0
  9
$DIMSD2
 70
     0
  9
$DIMTOLJ
 70
     1
  9
$DIMTZIN
 70
     8
  9
$DIMALTZ
 70
     8
  9
$DIMALTTZ
 70
     8
  9
$DIMUPT
 70
     0
  9
$DIMDEC
 70
     2
  9
$DIMTDEC
 70
     2
  9
$DIMALTU
 70
     2
  9
$DIMALTTD
 70
     2
  9
$DIMTXSTY
  7
STANDARD
  9
$DIMAUNIT
 70
     0
  9
$DIMADEC
 70
     2
  9
$DIMALTRND
 40
0.0
  9
$DIMAZIN
 70
     2
  9
$DIMDSEP
 70
    46
  9
$DIMATFIT
 70
     3
  9
$DIMFRAC
 70
     0
  9
$DIMLDRBLK
  1

  9
$DIMLUNIT
 70
     2
  9
$DIMLWD
 70
    -2
  9
$DIMLWE
 70
    -2
  9
$DIMTMOVE
 70
     0
  9
$LUNITS
 70
     2
  9
$LUPREC
 70
     2
  9
$SKETCHINC
 40
1.0
  9
$FILLETRAD
 40
0.0
  9
$AUNITS
 70
     0
  9
$AUPREC
 70
     0
  9
$MENU
  1
ACAD
  9
$ELEVATION
 40
0.0
  9
$PELEVATION
 40
0.0
  9
$THICKNESS
 40
0.0
  9
$LIMCHECK
 70
     0
  9
$CHAMFERA
 40
0.0
  9
$CHAMFERB
 40
0.0
  9
$CHAMFERC
 40
0.0
  9
$CHAMFERD
 40
0.0
  9
$SKPOLY
 70
     0
  9
$TDCREATE
 40
2455397.823042361
  9
$TDUCREATE
 40
2455397.781375695
  9
$TDUPDATE
 40
2455996.362315532
  9
$TDUUPDATE
 40
2455996.320648866
  9
$TDINDWG
 40
0.0682774884
  9
$TDUSRTIMER
 40
0.0682774884
  9
$USRTIMER
 70
     1
  9
$ANGBASE
 50
0.0
  9
$ANGDIR
 70
     0
  9
$PDMODE
 70
     0
  9
$PDSIZE
 40
0.0
  9
$PLINEWID
 40
0.0
  9
$SPLFRAME
 70
     0
  9
$SPLINETYPE
 70
     6
  9
$SPLINESEGS
 70
     8
  9
$HANDSEED
  5
19BB
  9
$SURFTAB1
 70
     6
  9
$SURFTAB2
 70
     6
  9
$SURFTYPE
 70
     6
  9
$SURFU
 70
     6
  9
$SURFV
 70
     6
  9
$UCSBASE
  2

  9
$UCSNAME
  2

  9
$UCSORG
 10
0.0
 20
0.0
 30
0.0
  9
$UCSXDIR
 10
1.0
 20
0.0
 30
0.0
  9
$UCSYDIR
 10
0.0
 20
1.0
 30
0.0
  9
$UCSORTHOREF
  2

  9
$UCSORTHOVIEW
 70
     0
  9
$UCSORGTOP
 10
0.0
 20
0.0
 30
0.0
  9
$UCSORGBOTTOM
 10
0.0
 20
0.0
 30
0.0
  9
$UCSORGLEFT
 10
0.0
 20
0.0
 30
0.0
  9
$UCSORGRIGHT
 10
0.0
 20
0.0
 30
0.0
  9
$UCSORGFRONT
 10
0.0
 20
0.0
 30
0.0
  9
$UCSORGBACK
 10
0.0
 20
0.0
 30
0.0
  9
$PUCSBASE
  2

  9
$PUCSNAME
  2

  9
$PUCSORG
 10
0.0
 20
0.0
 30
0.0
  9
$PUCSXDIR
 10
1.0
 20
0.0
 30
0.0
  9
$PUCSYDIR
 10
0.0
 20
1.0
 30
0.0
  9
$PUCSORTHOREF
  2

  9
$PUCSORTHOVIEW
 70
     0
  9
$PUCSORGTOP
 10
0.0
 20
0.0
 30
0.0
  9
$PUCSORGBOTTOM
 10
0.0
 20
0.0
 30
0.0
  9
$PUCSORGLEFT
 10
0.0
 20
0.0
 30
0.0
  9
$PUCSORGRIGHT
 10
0.0
 20
0.0
 30
0.0
  9
$PUCSORGFRONT
 10
0.0
 20
0.0
 30
0.0
  9
$PUCSORGBACK
 10
0.0
 20
0.0
 30
0.0
  9
$USERI1
 70
     0
  9
$USERI2
 70
     0
  9
$USERI3
 70
     0
  9
$USERI4
 70
     0
  9
$USERI5
 70
     0
  9
$USERR1
 40
0.0
  9
$USERR2
 40
0.0
  9
$USERR3
 40
0.0
  9
$USERR4
 40
0.0
  9
$USERR5
 40
0.0
  9
$WORLDVIEW
 70
     1
  9
$SHADEDGE
 70
     3
  9
$SHADEDIF
 70
    70
  9
$TILEMODE
 70
     1
  9
$MAXACTVP
 70
    16
  9
$PINSBASE
 10
0.0
 20
0.0
 30
0.0
  9
$PLIMCHECK
 70
     0
  9
$PEXTMIN
 10
1.000000000000000E+20
 20
1.000000000000000E+20
 30
1.000000000000000E+20
  9
$PEXTMAX
 10
-1.000000000000000E+20
 20
-1.000000000000000E+20
 30
-1.000000000000000E+20
  9
$PLIMMIN
 10
0.0
 20
0.0
  9
$PLIMMAX
 10
12.0
 20
9.0
  9
$UNITMODE
 70
     0
  9
$VISRETAIN
 70
     0
  9
$PLINEGEN
 70
     0
  9
$PSLTSCALE
 70
     0
  9
$TREEDEPTH
 70
  3020
  9
$CMLSTYLE
  2
Standard
  9
$CMLJUST
 70
     0
  9
$CMLSCALE
 40
1.0
  9
$PROXYGRAPHICS
 70
     1
  9
$MEASUREMENT
 70
     0
  9
$CELWEIGHT
370
    -1
  9
$ENDCAPS
280
     0
  9
$JOINSTYLE
280
     0
  9
$LWDISPLAY
290
     0
  9
$INSUNITS
 70
     0
  9
$HYPERLINKBASE
  1

  9
$STYLESHEET
  1
monochrome1.ctb
  9
$XEDIT
290
     1
  9
$CEPSNTYPE
380
     0
  9
$PSTYLEMODE
290
     1
  9
$FINGERPRINTGUID
  2
{D68B0D02-A558-11D7-B632-000102183313}
  9
$VERSIONGUID
  2
{5849DE5A-3E8C-4180-ACD8-6DB8C804AD67}
  9
$EXTNAMES
290
     1
  9
$PSVPSCALE
 40
0.0
  9
$OLESTARTUP
290
     0
  9
$SORTENTS
280
   127
  9
$INDEXCTL
280
     0
  9
$HIDETEXT
280
     0
  9
$XCLIPFRAME
290
     0
  9
$HALOGAP
280
     0
  9
$OBSCOLOR
 70
   257
  9
$OBSLTYPE
280
     0
  9
$INTERSECTIONDISPLAY
280
     0
  9
$INTERSECTIONCOLOR
 70
   257
  9
$DIMASSOC
280
     1
  9
$PROJECTNAME
  1

  0
ENDSEC
  0
SECTION
  2
CLASSES
  0
CLASS
  1
ACDBDICTIONARYWDFLT
  2
AcDbDictionaryWithDefault
  3
ObjectDBX Classes
 90
        0
 91
        1
280
     0
281
     0
  0
CLASS
  1
DICTIONARYVAR
  2
AcDbDictionaryVar
  3
ObjectDBX Classes
 90
        0
 91
        2
280
     0
281
     0
  0
ENDSEC
  0
SECTION
  2
TABLES
  0
TABLE
  2
VPORT
  5
8
330
0
100
AcDbSymbolTable
 70
     2
  0
VPORT
  5
19BA
330
8
100
AcDbSymbolTableRecord
100
AcDbViewportTableRecord
  2
*Active
 70
     0
 10
0.0
 20
0.0
 11
1.0
 21
1.0
 12
296.9999999999999
 22
420.0000000000001
 13
0.0
 23
0.0
 14
1.0
 24
1.0
 15
10.0
 25
10.0
 16
0.0
 26
0.0
 36
1.0
 17
0.0
 27
0.0
 37
0.0
 40
840.2055878294433
 41
1.374331550802139
 42
50.0
 43
0.0
 44
0.0
 50
0.0
 51
0.0
 71
     0
 72
  1500
 73
     1
 74
     0
 75
     0
 76
     0
 77
     0
 78
     0
281
     0
 65
     1
110
0.0
120
0.0
130
0.0
111
1.0
121
0.0
131
0.0
112
0.0
122
1.0
132
0.0
 79
     0
146
0.0
  0
ENDTAB
  0
TABLE
  2
LTYPE
  5
5
330
0
100
AcDbSymbolTable
 70
     2
  0
LTYPE
  5
13
330
5
100
AcDbSymbolTableRecord
100
AcDbLinetypeTableRecord
  2
ByBlock
 70
     0
  3

 72
    65
 73
     0
 40
0.0
  0
LTYPE
  5
14
330
5
100
AcDbSymbolTableRecord
100
AcDbLinetypeTableRecord
  2
ByLayer
 70
     0
  3

 72
    65
 73
     0
 40
0.0
  0
LTYPE
  5
15
330
5
100
AcDbSymbolTableRecord
100
AcDbLinetypeTableRecord
  2
Continuous
 70
     0
  3
Solid line
 72
    65
 73
     0
 40
0.0
  0
LTYPE
  5
25
330
5
100
AcDbSymbolTableRecord
100
AcDbLinetypeTableRecord
  2
STRICHPUNKT
 70
     0
  3
__ . __ . __ . __ . __ . __ . __ . __ . __ . __
 72
    65
 73
     4
 40
1.0
 49
0.5
 74
     0
 49
-0.25
 74
     0
 49
0.0
 74
     0
 49
-0.25
 74
     0
  0
ENDTAB
  0
TABLE
  2
LAYER
  5
2
330
0
100
AcDbSymbolTable
 70
     9
  0
LAYER
  5
10
330
2
100
AcDbSymbolTableRecord
100
AcDbLayerTableRecord
  2
0
 70
     0
 62
     7
  6
Continuous
370
    -3
390
F
  0
LAYER
  5
2A
330
2
100
AcDbSymbolTableRecord
100
AcDbLayerTableRecord
  2
VOLL
 70
     0
 62
     1
  6
Continuous
370
    -3
390
F
  0
LAYER
  5
2B
330
2
100
AcDbSymbolTableRecord
100
AcDbLayerTableRecord
  2
HILF
 70
     0
 62
     2
  6
Continuous
370
    -3
390
F
  0
LAYER
  5
2C
330
2
100
AcDbSymbolTableRecord
100
AcDbLayerTableRecord
  2
MITTEL
 70
     0
 62
     2
  6
STRICHPUNKT
370
    -3
390
F
  0
LAYER
  5
2F
330
2
100
AcDbSymbolTableRecord
100
AcDbLayerTableRecord
  2
BEM
 70
     0
 62
     7
  6
Continuous
370
    -3
390
F
  0
LAYER
  5
30
330
2
100
AcDbSymbolTableRecord
100
AcDbLayerTableRecord
  2
STEMPEL
 70
     0
 62
     3
  6
Continuous
370
    -3
390
F
  0
LAYER
  5
31
330
2
100
AcDbSymbolTableRecord
100
AcDbLayerTableRecord
  2
TEXT
 70
     0
 62
     7
  6
Continuous
370
    -3
390
F
  0
LAYER
  5
2B4
330
2
100
AcDbSymbolTableRecord
100
AcDbLayerTableRecord
  2
DEFPOINTS
 70
     0
 62
     7
  6
Continuous
290
     0
370
    -3
390
F
  0
LAYER
  5
2B5
330
2
100
AcDbSymbolTableRecord
100
AcDbLayerTableRecord
  2
SCHRAFF
 70
     0
 62
     7
  6
Continuous
370
    -3
390
F
  0
ENDTAB
  0
TABLE
  2
STYLE
  5
3
330
0
100
AcDbSymbolTable
 70
     2
  0
STYLE
  5
11
330
3
100
AcDbSymbolTableRecord
100
AcDbTextStyleTableRecord
  2
STANDARD
 70
     0
 40
0.0
 41
0.8
 50
0.0
 71
     0
 42
3.5
  3
simplex.shx
  4

  0
STYLE
  5
24
330
3
100
AcDbSymbolTableRecord
100
AcDbTextStyleTableRecord
  2
GREEKS
 70
     0
 40
0.0
 41
0.8
 50
0.0
 71
     0
 42
2.5
  3
SIMPLEX.shx
  4

  0
ENDTAB
  0
TABLE
  2
VIEW
  5
6
330
0
100
AcDbSymbolTable
 70
     0
  0
ENDTAB
  0
TABLE
  2
UCS
  5
7
330
0
100
AcDbSymbolTable
 70
     0
  0
ENDTAB
  0
TABLE
  2
APPID
  5
9
330
0
100
AcDbSymbolTable
 70
     1
  0
APPID
  5
12
330
9
100
AcDbSymbolTableRecord
100
AcDbRegAppTableRecord
  2
ACAD
 70
     0
  0
ENDTAB
  0
TABLE
  2
DIMSTYLE
  5
A
330
0
100
AcDbSymbolTable
 70
     1
100
AcDbDimStyleTable
 71
     1
340
9D
  0
DIMSTYLE
105
9D
102
{ACAD_REACTORS
330
1792
330
1791
330
1780
330
166E
330
187C
102
}
330
A
100
AcDbSymbolTableRecord
100
AcDbDimStyleTableRecord
  2
Standard
 70
     0
340
11
  0
ENDTAB
  0
TABLE
  2
BLOCK_RECORD
  5
1
330
0
100
AcDbSymbolTable
 70
    14
  0
BLOCK_RECORD
  5
1E
102
{ACAD_XDICTIONARY
360
A0
102
}
330
1
100
AcDbSymbolTableRecord
100
AcDbBlockTableRecord
  2
*Model_Space
340
21
  0
BLOCK_RECORD
  5
1A
102
{ACAD_XDICTIONARY
360
A2
102
}
330
1
100
AcDbSymbolTableRecord
100
AcDbBlockTableRecord
  2
*Paper_Space
340
1D
  0
BLOCK_RECORD
  5
22
330
1
100
AcDbSymbolTableRecord
100
AcDbBlockTableRecord
  2
LOGO
340
0
102
{BLKREFS
331
898
102
}
  0
BLOCK_RECORD
  5
FEC
330
1
100
AcDbSymbolTableRecord
100
AcDbBlockTableRecord
  2
*X1
340
0
102
{BLKREFS
331
1705
331
178A
102
}
  0
BLOCK_RECORD
  5
100E
330
1
100
AcDbSymbolTableRecord
100
AcDbBlockTableRecord
  2
*X2
340
0
102
{BLKREFS
331
171A
102
}
  0
BLOCK_RECORD
  5
10D6
330
1
100
AcDbSymbolTableRecord
100
AcDbBlockTableRecord
  2
*X3
340
0
102
{BLKREFS
331
1793
102
}
  0
BLOCK_RECORD
  5
110F
330
1
100
AcDbSymbolTableRecord
100
AcDbBlockTableRecord
  2
*X4
340
0
102
{BLKREFS
331
1794
102
}
  0
BLOCK_RECORD
  5
129C
330
1
100
AcDbSymbolTableRecord
100
AcDbBlockTableRecord
  2
*X5
340
0
102
{BLKREFS
331
1753
102
}
  0
BLOCK_RECORD
  5
1367
330
1
100
AcDbSymbolTableRecord
100
AcDbBlockTableRecord
  2
*X6
340
0
102
{BLKREFS
331
17A7
102
}
  0
BLOCK_RECORD
  5
139C
330
1
100
AcDbSymbolTableRecord
100
AcDbBlockTableRecord
  2
*X7
340
0
102
{BLKREFS
331
17A8
102
}
  0
BLOCK_RECORD
  5
13F8
330
1
100
AcDbSymbolTableRecord
100
AcDbBlockTableRecord
  2
*X8
340
0
102
{BLKREFS
331
17A9
102
}
  0
BLOCK_RECORD
  5
17AA
330
1
100
AcDbSymbolTableRecord
100
AcDbBlockTableRecord
  2
*D9
340
0
  0
BLOCK_RECORD
  5
17C4
330
1
100
AcDbSymbolTableRecord
100
AcDbBlockTableRecord
  2
*D10
340
0
  0
BLOCK_RECORD
  5
17D1
330
1
100
AcDbSymbolTableRecord
100
AcDbBlockTableRecord
  2
*D11
340
0
  0
BLOCK_RECORD
  5
17DE
330
1
100
AcDbSymbolTableRecord
100
AcDbBlockTableRecord
  2
*D12
340
0
  0
BLOCK_RECORD
  5
187D
330
1
100
AcDbSymbolTableRecord
100
AcDbBlockTableRecord
  2
*D13
340
0
  0
ENDTAB
  0
ENDSEC
  0
SECTION
  2
BLOCKS
  0
BLOCK
  5
35
330
1E
100
AcDbEntity
  8
0
100
AcDbBlockBegin
  2
*Model_Space
 70
     0
 10
0.0
 20
0.0
 30
0.0
  3
*Model_Space
  1

  0
ENDBLK
  5
36
330
1E
100
AcDbEntity
  8
0
100
AcDbBlockEnd
  0
BLOCK
  5
33
330
1A
100
AcDbEntity
 67
     1
  8
0
100
AcDbBlockBegin
  2
*Paper_Space
 70
     0
 10
0.0
 20
0.0
 30
0.0
  3
*Paper_Space
  1

  0
ENDBLK
  5
34
330
1A
100
AcDbEntity
 67
     1
  8
0
100
AcDbBlockEnd
  0
BLOCK
  5
37
330
22
100
AcDbEntity
  8
0
100
AcDbBlockBegin
  2
LOGO
 70
     0
 10
0.0
 20
0.0
 30
0.0
  3
LOGO
  1

  0
ARC
  5
38
330
22
100
AcDbEntity
  8
0
100
AcDbCircle
 10
11.59973089678112
 20
-9.271599258481501
 30
0.0
 40
4.5
100
AcDbArc
 50
270.0
 51
231.0575587310159
  0
LINE
  5
39
330
22
100
AcDbEntity
  8
0
100
AcDbLine
 10
3.599730896781125
 20
-4.771599258481529
 30
0.0
 11
3.599730896781153
 21
-11.77159925848133
 31
0.0
  0
LINE
  5
3A
330
22
100
AcDbEntity
  8
0
100
AcDbLine
 10
2.599730896781125
 20
-4.771599258481529
 30
0.0
 11
2.599730896781153
 21
-11.77159925848133
 31
0.0
  0
CIRCLE
  5
3B
330
22
100
AcDbEntity
  8
0
100
AcDbCircle
 10
11.59973089678112
 20
-9.271599258481501
 30
0.0
 40
3.5
  0
ARC
  5
3C
330
22
100
AcDbEntity
  8
0
100
AcDbCircle
 10
31.59973089678115
 20
-9.271599258481472
 30
0.0
 40
4.5
100
AcDbArc
 50
270.0
 51
231.0575587310182
  0
LINE
  5
3D
330
22
100
AcDbEntity
  8
0
100
AcDbLine
 10
17.59973089678112
 20
-4.771599258481472
 30
0.0
 11
17.59973089678115
 21
-13.77159925848147
 31
0.0
  0
ARC
  5
3E
330
22
100
AcDbEntity
  8
0
100
AcDbCircle
 10
22.59973089678116
 20
-7.271599258481472
 30
0.0
 40
2.5
100
AcDbArc
 50
293.1161887722295
 51
90.0
  0
CIRCLE
  5
3F
330
22
100
AcDbEntity
  8
0
100
AcDbCircle
 10
31.59973089678115
 20
-9.271599258481472
 30
0.0
 40
3.5
  0
ARC
  5
40
330
22
100
AcDbEntity
  8
0
100
AcDbCircle
 10
4.599730896781153
 20
-11.77159925848133
 30
0.0
 40
1.0
100
AcDbArc
 50
180.0
 51
270.0
  0
ARC
  5
41
330
22
100
AcDbEntity
  8
0
100
AcDbCircle
 10
4.599730896781153
 20
-11.77159925848133
 30
0.0
 40
2.0
100
AcDbArc
 50
179.9999999999992
 51
270.0
  0
LINE
  5
42
330
22
100
AcDbEntity
  8
0
100
AcDbLine
 10
11.59973089678115
 20
-13.77159925848144
 30
0.0
 11
4.599730896781153
 21
-13.77159925848147
 31
0.0
  0
LINE
  5
43
330
22
100
AcDbEntity
  8
0
100
AcDbLine
 10
8.771303772034769
 20
-12.77159925848136
 30
0.0
 11
4.599730896781153
 21
-12.77159925848133
 31
0.0
  0
LINE
  5
44
330
22
100
AcDbEntity
  8
0
100
AcDbLine
 10
31.59973089678115
 20
-13.77159925848147
 30
0.0
 11
23.6715276665056
 21
-13.77159925848144
 31
0.0
  0
LINE
  5
45
330
22
100
AcDbEntity
  8
0
100
AcDbLine
 10
23.56565672307022
 20
-9.51278021337896
 30
0.0
 11
24.4388546544846
 21
-12.77159925848144
 31
0.0
  0
LINE
  5
46
330
22
100
AcDbEntity
  8
0
100
AcDbLine
 10
22.59973089678116
 20
-9.771599258481472
 30
0.0
 11
18.59973089678112
 21
-9.771599258481472
 31
0.0
  0
LINE
  5
47
330
22
100
AcDbEntity
  8
0
100
AcDbLine
 10
18.59973089678115
 20
-13.77159925848144
 30
0.0
 11
17.59973089678115
 21
-13.77159925848144
 31
0.0
  0
LINE
  5
48
330
22
100
AcDbEntity
  8
0
100
AcDbLine
 10
18.59973089678115
 20
-9.771599258481472
 30
0.0
 11
18.59973089678115
 21
-13.77159925848144
 31
0.0
  0
LINE
  5
49
330
22
100
AcDbEntity
  8
0
100
AcDbLine
 10
22.59973089678116
 20
-9.771599258481472
 30
0.0
 11
23.67152766650562
 21
-13.77159925848147
 31
0.0
  0
ARC
  5
4A
330
22
100
AcDbEntity
  8
0
100
AcDbCircle
 10
22.59973089678116
 20
-7.271599258481472
 30
0.0
 40
2.5
100
AcDbArc
 50
270.0
 51
270.0000000000007
  0
LINE
  5
4B
330
22
100
AcDbEntity
  8
0
100
AcDbLine
 10
28.77130377203494
 20
-12.77159925848147
 30
0.0
 11
24.43885465448463
 21
-12.77159925848144
 31
0.0
  0
LINE
  5
4C
330
22
100
AcDbEntity
  8
0
100
AcDbLine
 10
3.599730896781125
 20
-4.771599258481472
 30
0.0
 11
2.599730896781125
 21
-4.771599258481472
 31
0.0
  0
LINE
  5
4D
330
22
100
AcDbEntity
  8
0
100
AcDbLine
 10
22.59973089678116
 20
-8.771599258481472
 30
0.0
 11
18.59973089678115
 21
-8.771599258481472
 31
0.0
  0
LINE
  5
4E
330
22
100
AcDbEntity
  8
0
100
AcDbLine
 10
22.59973089678116
 20
-5.771599258481472
 30
0.0
 11
18.59973089678115
 21
-5.771599258481472
 31
0.0
  0
LINE
  5
4F
330
22
100
AcDbEntity
  8
0
100
AcDbLine
 10
22.59973089678116
 20
-4.771599258481472
 30
0.0
 11
17.59973089678115
 21
-4.771599258481472
 31
0.0
  0
LINE
  5
50
330
22
100
AcDbEntity
  8
0
100
AcDbLine
 10
18.59973089678115
 20
-5.771599258481472
 30
0.0
 11
18.59973089678115
 21
-8.771599258481472
 31
0.0
  0
ARC
  5
51
330
22
100
AcDbEntity
  8
0
100
AcDbCircle
 10
22.59973089678116
 20
-7.271599258481472
 30
0.0
 40
1.5
100
AcDbArc
 50
270.0
 51
90.0
  0
ENDBLK
  5
52
330
22
100
AcDbEntity
  8
0
100
AcDbBlockEnd
  0
BLOCK
  5
FED
330
FEC
100
AcDbEntity
  8
0
100
AcDbBlockBegin
  2
*X1
 70
     1
 10
0.0
 20
0.0
 30
0.0
  3
*X1
  1

  0
LINE
  5
FEE
330
FEC
100
AcDbEntity
  8
0
 62
     0
100
AcDbLine
 10
259.5826923451695
 20
346.6906618441763
 30
0.0
 11
256.5024022820137
 21
349.7709519073322
 31
0.0
  0
LINE
  5
FEF
330
FEC
100
AcDbEntity
  8
0
 62
     0
100
AcDbLine
 10
259.3883597102319
 20
346.7435731228766
 30
0.0
 11
256.3690761783413
 21
349.7628566547672
 31
0.0
  0
LINE
  5
FF0
330
FEC
100
AcDbEntity
  8
0
 62
     0
100
AcDbLine
 10
259.179315449938
 20
346.8111960269332
 30
0.0
 11
256.4366990823979
 21
349.5538123944732
 31
0.0
  0
LINE
  5
FF1
330
FEC
100
AcDbEntity
  8
0
 62
     0
100
AcDbLine
 10
258.9505377051663
 20
346.8985524154676
 30
0.0
 11
256.5240554709323
 21
349.3250346497016
 31
0.0
  0
LINE
  5
FF2
330
FEC
100
AcDbEntity
  8
0
 62
     0
100
AcDbLine
 10
258.6929493356487
 20
347.0147194287479
 30
0.0
 11
256.6402224842126
 21
349.067446280184
 31
0.0
  0
LINE
  5
FF3
330
FEC
100
AcDbEntity
  8
0
 62
     0
100
AcDbLine
 10
258.3863749187442
 20
347.1798724894151
 30
0.0
 11
256.8053755448798
 21
348.7608718632795
 31
0.0
  0
LINE
  5
FF4
330
FEC
100
AcDbEntity
  8
0
 62
     0
100
AcDbLine
 10
257.9568561431742
 20
347.4679699087478
 30
0.0
 11
257.0934729642125
 21
348.3313530877095
 31
0.0
  0
LINE
  5
FF5
330
FEC
100
AcDbEntity
  8
0
 62
     0
100
AcDbLine
 10
259.7654422870307
 20
346.6493332585525
 30
0.0
 11
256.643823638251
 21
349.7709519073322
 31
0.0
  0
LINE
  5
FF6
330
FEC
100
AcDbEntity
  8
0
 62
     0
100
AcDbLine
 10
259.9387175716592
 20
346.6174793301612
 30
0.0
 11
256.7852449944883
 21
349.7709519073322
 31
0.0
  0
LINE
  5
FF7
330
FEC
100
AcDbEntity
  8
0
 62
     0
100
AcDbLine
 10
259.9557089524737
 20
346.741909305584
 30
0.0
 11
256.9266663507256
 21
349.7709519073322
 31
0.0
  0
LINE
  5
FF8
330
FEC
100
AcDbEntity
  8
0
 62
     0
100
AcDbLine
 10
259.9557089524737
 20
346.8833306618214
 30
0.0
 11
257.068087706963
 21
349.7709519073322
 31
0.0
  0
LINE
  5
FF9
330
FEC
100
AcDbEntity
  8
0
 62
     0
100
AcDbLine
 10
259.9557089524737
 20
347.0247520180586
 30
0.0
 11
257.2095090632002
 21
349.7709519073322
 31
0.0
  0
LINE
  5
FFA
330
FEC
100
AcDbEntity
  8
0
 62
     0
100
AcDbLine
 10
259.9557089524737
 20
347.166173374296
 30
0.0
 11
257.3509304194375
 21
349.7709519073322
 31
0.0
  0
LINE
  5
FFB
330
FEC
100
AcDbEntity
  8
0
 62
     0
100
AcDbLine
 10
259.9557089524737
 20
347.3075947305333
 30
0.0
 11
257.4923517756749
 21
349.7709519073322
 31
0.0
  0
LINE
  5
FFC
330
FEC
100
AcDbEntity
  8
0
 62
     0
100
AcDbLine
 10
259.9557089524737
 20
347.4490160867706
 30
0.0
 11
257.6337731319122
 21
349.7709519073322
 31
0.0
  0
LINE
  5
FFD
330
FEC
100
AcDbEntity
  8
0
 62
     0
100
AcDbLine
 10
259.9557089524737
 20
347.590437443008
 30
0.0
 11
257.7751944881495
 21
349.7709519073322
 31
0.0
  0
LINE
  5
FFE
330
FEC
100
AcDbEntity
  8
0
 62
     0
100
AcDbLine
 10
259.9557089524737
 20
347.7318587992452
 30
0.0
 11
257.9166158443868
 21
349.7709519073322
 31
0.0
  0
LINE
  5
FFF
330
FEC
100
AcDbEntity
  8
0
 62
     0
100
AcDbLine
 10
259.9557089524737
 20
347.8732801554825
 30
0.0
 11
258.0580372006241
 21
349.7709519073322
 31
0.0
  0
LINE
  5
1000
330
FEC
100
AcDbEntity
  8
0
 62
     0
100
AcDbLine
 10
259.9557089524737
 20
348.0147015117199
 30
0.0
 11
258.1994585568614
 21
349.7709519073322
 31
0.0
  0
LINE
  5
1001
330
FEC
100
AcDbEntity
  8
0
 62
     0
100
AcDbLine
 10
259.9557089524737
 20
348.1561228679571
 30
0.0
 11
258.3408799130987
 21
349.7709519073322
 31
0.0
  0
LINE
  5
1002
330
FEC
100
AcDbEntity
  8
0
 62
     0
100
AcDbLine
 10
259.9557089524737
 20
348.2975442241945
 30
0.0
 11
258.4823012693361
 21
349.7709519073322
 31
0.0
  0
LINE
  5
1003
330
FEC
100
AcDbEntity
  8
0
 62
     0
100
AcDbLine
 10
259.9557089524737
 20
348.4389655804317
 30
0.0
 11
258.6237226255733
 21
349.7709519073322
 31
0.0
  0
LINE
  5
1004
330
FEC
100
AcDbEntity
  8
0
 62
     0
100
AcDbLine
 10
259.9557089524737
 20
348.5803869366691
 30
0.0
 11
258.7651439818106
 21
349.7709519073322
 31
0.0
  0
LINE
  5
1005
330
FEC
100
AcDbEntity
  8
0
 62
     0
100
AcDbLine
 10
259.9557089524737
 20
348.7218082929064
 30
0.0
 11
258.906565338048
 21
349.7709519073322
 31
0.0
  0
LINE
  5
1006
330
FEC
100
AcDbEntity
  8
0
 62
     0
100
AcDbLine
 10
259.9557089524737
 20
348.8632296491437
 30
0.0
 11
259.0479866942853
 21
349.7709519073322
 31
0.0
  0
LINE
  5
1007
330
FEC
100
AcDbEntity
  8
0
 62
     0
100
AcDbLine
 10
259.9557089524737
 20
349.0046510053811
 30
0.0
 11
259.1894080505226
 21
349.7709519073322
 31
0.0
  0
LINE
  5
1008
330
FEC
100
AcDbEntity
  8
0
 62
     0
100
AcDbLine
 10
259.9557089524737
 20
349.1460723616183
 30
0.0
 11
259.3308294067599
 21
349.7709519073322
 31
0.0
  0
LINE
  5
1009
330
FEC
100
AcDbEntity
  8
0
 62
     0
100
AcDbLine
 10
259.9557089524737
 20
349.2874937178556
 30
0.0
 11
259.4722507629972
 21
349.7709519073322
 31
0.0
  0
LINE
  5
100A
330
FEC
100
AcDbEntity
  8
0
 62
     0
100
AcDbLine
 10
259.9557089524737
 20
349.428915074093
 30
0.0
 11
259.6136721192345
 21
349.7709519073322
 31
0.0
  0
LINE
  5
100B
330
FEC
100
AcDbEntity
  8
0
 62
     0
100
AcDbLine
 10
259.9557089524737
 20
349.5703364303303
 30
0.0
 11
259.7550934754718
 21
349.7709519073322
 31
0.0
  0
LINE
  5
100C
330
FEC
100
AcDbEntity
  8
0
 62
     0
100
AcDbLine
 10
259.9557089524737
 20
349.7117577865676
 30
0.0
 11
259.8965148317091
 21
349.7709519073322
 31
0.0
  0
ENDBLK
  5
100D
330
FEC
100
AcDbEntity
  8
0
100
AcDbBlockEnd
  0
BLOCK
  5
100F
330
100E
100
AcDbEntity
  8
0
100
AcDbBlockBegin
  2
*X2
 70
     1
 10
0.0
 20
0.0
 30
0.0
  3
*X2
  1

  0
LINE
  5
1010
330
100E
100
AcDbEntity
  8
0
 62
     0
100
AcDbLine
 10
211.9459147073443
 20
393.9
 30
0.0
 11
214.0178481495824
 21
393.9
 31
0.0
  0
LINE
  5
1011
330
100E
100
AcDbEntity
  8
0
 62
     0
100
AcDbLine
 10
313.9911649853376
 20
393.9
 30
0.0
 11
316.0630984275752
 21
393.9
 31
0.0
  0
LINE
  5
1012
330
100E
100
AcDbEntity
  8
0
 62
     0
100
AcDbLine
 10
211.9471416467981
 20
394.0
 30
0.0
 11
213.9916632899099
 21
394.0
 31
0.0
  0
LINE
  5
1013
330
100E
100
AcDbEntity
  8
0
 62
     0
100
AcDbLine
 10
314.01734984501
 20
394.0
 30
0.0
 11
316.0618714881214
 21
394.0
 31
0.0
  0
LINE
  5
1014
330
100E
100
AcDbEntity
  8
0
 62
     0
100
AcDbLine
 10
211.9497772309366
 20
394.1
 30
0.0
 11
213.9654784302375
 21
394.1
 31
0.0
  0
LINE
  5
1015
330
100E
100
AcDbEntity
  8
0
 62
     0
100
AcDbLine
 10
314.0435347046825
 20
394.1
 30
0.0
 11
316.0592359039829
 21
394.1
 31
0.0
  0
LINE
  5
1016
330
100E
100
AcDbEntity
  8
0
 62
     0
100
AcDbLine
 10
211.9538230294946
 20
394.2000000000001
 30
0.0
 11
213.939293570565
 21
394.2000000000001
 31
0.0
  0
LINE
  5
1017
330
100E
100
AcDbEntity
  8
0
 62
     0
100
AcDbLine
 10
314.069719564355
 20
394.2000000000001
 30
0.0
 11
316.0551901054248
 21
394.2000000000001
 31
0.0
  0
LINE
  5
1018
330
100E
100
AcDbEntity
  8
0
 62
     0
100
AcDbLine
 10
211.9592814566628
 20
394.3
 30
0.0
 11
213.9131087108925
 21
394.3
 31
0.0
  0
LINE
  5
1019
330
100E
100
AcDbEntity
  8
0
 62
     0
100
AcDbLine
 10
314.0959044240274
 20
394.3
 30
0.0
 11
316.0497316782567
 21
394.3
 31
0.0
  0
LINE
  5
101A
330
100E
100
AcDbEntity
  8
0
 62
     0
100
AcDbLine
 10
211.9661557783115
 20
394.4
 30
0.0
 11
213.8869238512201
 21
394.4
 31
0.0
  0
LINE
  5
101B
330
100E
100
AcDbEntity
  8
0
 62
     0
100
AcDbLine
 10
314.1220892836998
 20
394.4
 30
0.0
 11
316.042857356608
 21
394.4
 31
0.0
  0
LINE
  5
101C
330
100E
100
AcDbEntity
  8
0
 62
     0
100
AcDbLine
 10
211.9744501218066
 20
394.5
 30
0.0
 11
213.8607389915476
 21
394.5
 31
0.0
  0
LINE
  5
101D
330
100E
100
AcDbEntity
  8
0
 62
     0
100
AcDbLine
 10
314.1482741433723
 20
394.5
 30
0.0
 11
316.0345630131128
 21
394.5
 31
0.0
  0
LINE
  5
101E
330
100E
100
AcDbEntity
  8
0
 62
     0
100
AcDbLine
 10
211.9841694884878
 20
394.6
 30
0.0
 11
213.8345541318752
 21
394.6
 31
0.0
  0
LINE
  5
101F
330
100E
100
AcDbEntity
  8
0
 62
     0
100
AcDbLine
 10
314.1744590030448
 20
394.6
 30
0.0
 11
316.0248436464317
 21
394.6
 31
0.0
  0
LINE
  5
1020
330
100E
100
AcDbEntity
  8
0
 62
     0
100
AcDbLine
 10
211.9953197688949
 20
394.7
 30
0.0
 11
213.8083692722027
 21
394.7
 31
0.0
  0
LINE
  5
1021
330
100E
100
AcDbEntity
  8
0
 62
     0
100
AcDbLine
 10
314.2006438627173
 20
394.7
 30
0.0
 11
316.0136933660246
 21
394.7
 31
0.0
  0
LINE
  5
1022
330
100E
100
AcDbEntity
  8
0
 62
     0
100
AcDbLine
 10
212.0079077608556
 20
394.8
 30
0.0
 11
213.7821844125302
 21
394.8
 31
0.0
  0
LINE
  5
1023
330
100E
100
AcDbEntity
  8
0
 62
     0
100
AcDbLine
 10
314.2268287223897
 20
394.8
 30
0.0
 11
316.0011053740639
 21
394.8
 31
0.0
  0
LINE
  5
1024
330
100E
100
AcDbEntity
  8
0
 62
     0
100
AcDbLine
 10
212.0219411905622
 20
394.9
 30
0.0
 11
213.7559995528578
 21
394.9
 31
0.0
  0
LINE
  5
1025
330
100E
100
AcDbEntity
  8
0
 62
     0
100
AcDbLine
 10
314.2530135820622
 20
394.9
 30
0.0
 11
315.9870719443573
 21
394.9
 31
0.0
  0
LINE
  5
1026
330
100E
100
AcDbEntity
  8
0
 62
     0
100
AcDbLine
 10
212.0374287367952
 20
395.0
 30
0.0
 11
213.7298146931853
 21
395.0
 31
0.0
  0
LINE
  5
1027
330
100E
100
AcDbEntity
  8
0
 62
     0
100
AcDbLine
 10
314.2791984417347
 20
395.0
 30
0.0
 11
315.9715843981242
 21
395.0
 31
0.0
  0
LINE
  5
1028
330
100E
100
AcDbEntity
  8
0
 62
     0
100
AcDbLine
 10
212.0543800584727
 20
395.1
 30
0.0
 11
213.7036298335129
 21
395.1
 31
0.0
  0
LINE
  5
1029
330
100E
100
AcDbEntity
  8
0
 62
     0
100
AcDbLine
 10
314.3053833014071
 20
395.1
 30
0.0
 11
315.9546330764467
 21
395.1
 31
0.0
  0
LINE
  5
102A
330
100E
100
AcDbEntity
  8
0
 62
     0
100
AcDbLine
 10
212.0728058257364
 20
395.2
 30
0.0
 11
213.6774449738404
 21
395.2
 31
0.0
  0
LINE
  5
102B
330
100E
100
AcDbEntity
  8
0
 62
     0
100
AcDbLine
 10
314.3315681610795
 20
395.2
 30
0.0
 11
315.9362073091831
 21
395.2
 31
0.0
  0
LINE
  5
102C
330
100E
100
AcDbEntity
  8
0
 62
     0
100
AcDbLine
 10
212.0927177548137
 20
395.3
 30
0.0
 11
213.6512601141679
 21
395.3
 31
0.0
  0
LINE
  5
102D
330
100E
100
AcDbEntity
  8
0
 62
     0
100
AcDbLine
 10
314.357753020752
 20
395.3
 30
0.0
 11
315.9162953801058
 21
395.3
 31
0.0
  0
LINE
  5
102E
330
100E
100
AcDbEntity
  8
0
 62
     0
100
AcDbLine
 10
212.1141286469322
 20
395.4
 30
0.0
 11
213.6250752544955
 21
395.4
 31
0.0
  0
LINE
  5
102F
330
100E
100
AcDbEntity
  8
0
 62
     0
100
AcDbLine
 10
314.3839378804245
 20
395.4
 30
0.0
 11
315.8948844879873
 21
395.4
 31
0.0
  0
LINE
  5
1030
330
100E
100
AcDbEntity
  8
0
 62
     0
100
AcDbLine
 10
212.1370524315998
 20
395.5
 30
0.0
 11
213.598890394823
 21
395.5
 31
0.0
  0
LINE
  5
1031
330
100E
100
AcDbEntity
  8
0
 62
     0
100
AcDbLine
 10
314.410122740097
 20
395.5
 30
0.0
 11
315.8719607033197
 21
395.5
 31
0.0
  0
LINE
  5
1032
330
100E
100
AcDbEntity
  8
0
 62
     0
100
AcDbLine
 10
212.1615042146087
 20
395.6
 30
0.0
 11
213.5727055351505
 21
395.6
 31
0.0
  0
LINE
  5
1033
330
100E
100
AcDbEntity
  8
0
 62
     0
100
AcDbLine
 10
314.4363075997694
 20
395.6
 30
0.0
 11
315.8475089203108
 21
395.6
 31
0.0
  0
LINE
  5
1034
330
100E
100
AcDbEntity
  8
0
 62
     0
100
AcDbLine
 10
212.1875003311693
 20
395.7000000000001
 30
0.0
 11
213.5465206754781
 21
395.7000000000001
 31
0.0
  0
LINE
  5
1035
330
100E
100
AcDbEntity
  8
0
 62
     0
100
AcDbLine
 10
314.4624924594419
 20
395.7000000000001
 30
0.0
 11
315.8215128037502
 21
395.7000000000001
 31
0.0
  0
LINE
  5
1036
330
100E
100
AcDbEntity
  8
0
 62
     0
100
AcDbLine
 10
212.2150584046372
 20
395.8
 30
0.0
 11
213.5203358158056
 21
395.8
 31
0.0
  0
LINE
  5
1037
330
100E
100
AcDbEntity
  8
0
 62
     0
100
AcDbLine
 10
314.4886773191143
 20
395.8
 30
0.0
 11
315.7939547302823
 21
395.8
 31
0.0
  0
LINE
  5
1038
330
100E
100
AcDbEntity
  8
0
 62
     0
100
AcDbLine
 10
212.244197411357
 20
395.9000000000001
 30
0.0
 11
213.4941509561332
 21
395.9000000000001
 31
0.0
  0
LINE
  5
1039
330
100E
100
AcDbEntity
  8
0
 62
     0
100
AcDbLine
 10
314.5148620806565
 20
395.9000000000001
 30
0.0
 11
315.7648157235624
 21
395.9000000000001
 31
0.0
  0
LINE
  5
103A
330
100E
100
AcDbEntity
  8
0
 62
     0
100
AcDbLine
 10
212.2749377522225
 20
396.0
 30
0.0
 11
213.4683217427338
 21
396.0
 31
0.0
  0
LINE
  5
103B
330
100E
100
AcDbEntity
  8
0
 62
     0
100
AcDbLine
 10
314.5406913921861
 20
396.0
 30
0.0
 11
315.734075382697
 21
396.0
 31
0.0
  0
LINE
  5
103C
330
100E
100
AcDbEntity
  8
0
 62
     0
100
AcDbLine
 10
212.3073013316305
 20
396.1
 30
0.0
 11
213.4432249824537
 21
396.1
 31
0.0
  0
LINE
  5
103D
330
100E
100
AcDbEntity
  8
0
 62
     0
100
AcDbLine
 10
314.5657881524663
 20
396.1
 30
0.0
 11
315.701711803289
 21
396.1
 31
0.0
  0
LINE
  5
103E
330
100E
100
AcDbEntity
  8
0
 62
     0
100
AcDbLine
 10
212.3413116446054
 20
396.2000000000001
 30
0.0
 11
213.4188569920352
 21
396.2000000000001
 31
0.0
  0
LINE
  5
103F
330
100E
100
AcDbEntity
  8
0
 62
     0
100
AcDbLine
 10
314.5901561428847
 20
396.2000000000001
 30
0.0
 11
315.6677014903141
 21
396.2000000000001
 31
0.0
  0
LINE
  5
1040
330
100E
100
AcDbEntity
  8
0
 62
     0
100
AcDbLine
 10
212.376993872978
 20
396.3
 30
0.0
 11
213.3952141247599
 21
396.3
 31
0.0
  0
LINE
  5
1041
330
100E
100
AcDbEntity
  8
0
 62
     0
100
AcDbLine
 10
314.61379901016
 20
396.3
 30
0.0
 11
315.6320192619414
 21
396.3
 31
0.0
  0
LINE
  5
1042
330
100E
100
AcDbEntity
  8
0
 62
     0
100
AcDbLine
 10
212.4143749916289
 20
396.4
 30
0.0
 11
213.3722928656451
 21
396.4
 31
0.0
  0
LINE
  5
1043
330
100E
100
AcDbEntity
  8
0
 62
     0
100
AcDbLine
 10
314.6367202692748
 20
396.4
 30
0.0
 11
315.5946381432905
 21
396.4
 31
0.0
  0
LINE
  5
1044
330
100E
100
AcDbEntity
  8
0
 62
     0
100
AcDbLine
 10
212.4534838859559
 20
396.5
 30
0.0
 11
213.3500898286463
 21
396.5
 31
0.0
  0
LINE
  5
1045
330
100E
100
AcDbEntity
  8
0
 62
     0
100
AcDbLine
 10
314.6589233062736
 20
396.5
 30
0.0
 11
315.5555292489636
 21
396.5
 31
0.0
  0
LINE
  5
1046
330
100E
100
AcDbEntity
  8
0
 62
     0
100
AcDbLine
 10
212.4943514818954
 20
396.6
 30
0.0
 11
213.3286017539888
 21
396.6
 31
0.0
  0
LINE
  5
1047
330
100E
100
AcDbEntity
  8
0
 62
     0
100
AcDbLine
 10
314.6804113809312
 20
396.6
 30
0.0
 11
315.5146616530241
 21
396.6
 31
0.0
  0
LINE
  5
1048
330
100E
100
AcDbEntity
  8
0
 62
     0
100
AcDbLine
 10
212.5370108900289
 20
396.7
 30
0.0
 11
213.3078255056246
 21
396.7
 31
0.0
  0
LINE
  5
1049
330
100E
100
AcDbEntity
  8
0
 62
     0
100
AcDbLine
 10
314.7011876292954
 20
396.7
 30
0.0
 11
315.4720022448905
 21
396.7
 31
0.0
  0
LINE
  5
104A
330
100E
100
AcDbEntity
  8
0
 62
     0
100
AcDbLine
 10
212.5814975655431
 20
396.8
 30
0.0
 11
213.2877580688087
 21
396.8
 31
0.0
  0
LINE
  5
104B
330
100E
100
AcDbEntity
  8
0
 62
     0
100
AcDbLine
 10
314.7212550661113
 20
396.8
 30
0.0
 11
315.4275155693763
 21
396.8
 31
0.0
  0
LINE
  5
104C
330
100E
100
AcDbEntity
  8
0
 62
     0
100
AcDbLine
 10
212.6278494860882
 20
396.9
 30
0.0
 11
213.2683965477906
 21
396.9
 31
0.0
  0
LINE
  5
104D
330
100E
100
AcDbEntity
  8
0
 62
     0
100
AcDbLine
 10
314.7406165871294
 20
396.9
 30
0.0
 11
315.3811636488313
 21
396.9
 31
0.0
  0
LINE
  5
104E
330
100E
100
AcDbEntity
  8
0
 62
     0
100
AcDbLine
 10
212.6761073499131
 20
397.0
 30
0.0
 11
213.2497381636169
 21
397.0
 31
0.0
  0
LINE
  5
104F
330
100E
100
AcDbEntity
  8
0
 62
     0
100
AcDbLine
 10
314.759274971303
 20
397.0
 30
0.0
 11
315.3329057850064
 21
397.0
 31
0.0
  0
LINE
  5
1050
330
100E
100
AcDbEntity
  8
0
 62
     0
100
AcDbLine
 10
212.7263147970445
 20
397.1
 30
0.0
 11
213.2317802520404
 21
397.1
 31
0.0
  0
LINE
  5
1051
330
100E
100
AcDbEntity
  8
0
 62
     0
100
AcDbLine
 10
314.7772328828795
 20
397.1
 30
0.0
 11
315.2826983378749
 21
397.1
 31
0.0
  0
LINE
  5
1052
330
100E
100
AcDbEntity
  8
0
 62
     0
100
AcDbLine
 10
212.7785186567474
 20
397.2
 30
0.0
 11
213.2145202615321
 21
397.2
 31
0.0
  0
LINE
  5
1053
330
100E
100
AcDbEntity
  8
0
 62
     0
100
AcDbLine
 10
314.7944928733878
 20
397.2
 30
0.0
 11
315.230494478172
 21
397.2
 31
0.0
  0
LINE
  5
1054
330
100E
100
AcDbEntity
  8
0
 62
     0
100
AcDbLine
 10
212.832769225066
 20
397.3
 30
0.0
 11
213.1979557513928
 21
397.3
 31
0.0
  0
LINE
  5
1055
330
100E
100
AcDbEntity
  8
0
 62
     0
100
AcDbLine
 10
314.8110573835272
 20
397.3
 30
0.0
 11
315.1762439098534
 21
397.3
 31
0.0
  0
LINE
  5
1056
330
100E
100
AcDbEntity
  8
0
 62
     0
100
AcDbLine
 10
212.8891205769217
 20
397.4000000000001
 30
0.0
 11
213.1820843899606
 21
397.4000000000001
 31
0.0
  0
LINE
  5
1057
330
100E
100
AcDbEntity
  8
0
 62
     0
100
AcDbLine
 10
314.8269287449593
 20
397.4000000000001
 30
0.0
 11
315.1198925579977
 21
397.4000000000001
 31
0.0
  0
LINE
  5
1058
330
100E
100
AcDbEntity
  8
0
 62
     0
100
AcDbLine
 10
212.9476309180614
 20
397.5
 30
0.0
 11
213.166903952911
 21
397.5
 31
0.0
  0
LINE
  5
1059
330
100E
100
AcDbEntity
  8
0
 62
     0
100
AcDbLine
 10
314.8421091820089
 20
397.5
 30
0.0
 11
315.061382216858
 21
397.5
 31
0.0
  0
LINE
  5
105A
330
100E
100
AcDbEntity
  8
0
 62
     0
100
AcDbLine
 10
213.0083629831519
 20
397.6
 30
0.0
 11
213.1524123216469
 21
397.6
 31
0.0
  0
LINE
  5
105B
330
100E
100
AcDbEntity
  8
0
 62
     0
100
AcDbLine
 10
314.856600813273
 20
397.6
 30
0.0
 11
315.0006501517674
 21
397.6
 31
0.0
  0
LINE
  5
105C
330
100E
100
AcDbEntity
  8
0
 62
     0
100
AcDbLine
 10
213.0713844875326
 20
397.7000000000001
 30
0.0
 11
213.1386074817754
 21
397.7000000000001
 31
0.0
  0
LINE
  5
105D
330
100E
100
AcDbEntity
  8
0
 62
     0
100
AcDbLine
 10
314.8704056531446
 20
397.7000000000001
 30
0.0
 11
314.9376286473868
 21
397.7000000000001
 31
0.0
  0
LINE
  5
105E
330
100E
100
AcDbEntity
  8
0
 62
     0
100
AcDbLine
 10
211.9460956826138
 20
393.8
 30
0.0
 11
214.0440330092549
 21
393.8
 31
0.0
  0
LINE
  5
105F
330
100E
100
AcDbEntity
  8
0
 62
     0
100
AcDbLine
 10
313.9649801256651
 20
393.8
 30
0.0
 11
316.0629174523057
 21
393.8
 31
0.0
  0
LINE
  5
1060
330
100E
100
AcDbEntity
  8
0
 62
     0
100
AcDbLine
 10
211.9476846802454
 20
393.7000000000001
 30
0.0
 11
214.0702178689273
 21
393.7000000000001
 31
0.0
  0
LINE
  5
1061
330
100E
100
AcDbEntity
  8
0
 62
     0
100
AcDbLine
 10
313.9387952659926
 20
393.7000000000001
 30
0.0
 11
316.0613284546741
 21
393.7000000000001
 31
0.0
  0
LINE
  5
1062
330
100E
100
AcDbEntity
  8
0
 62
     0
100
AcDbLine
 10
211.9506826457977
 20
393.6
 30
0.0
 11
214.0964027285998
 21
393.6
 31
0.0
  0
LINE
  5
1063
330
100E
100
AcDbEntity
  8
0
 62
     0
100
AcDbLine
 10
313.9126104063202
 20
393.6
 30
0.0
 11
316.0583304891218
 21
393.6
 31
0.0
  0
LINE
  5
1064
330
100E
100
AcDbEntity
  8
0
 62
     0
100
AcDbLine
 10
211.9550913655664
 20
393.5
 30
0.0
 11
214.1225875882722
 21
393.5
 31
0.0
  0
LINE
  5
1065
330
100E
100
AcDbEntity
  8
0
 62
     0
100
AcDbLine
 10
313.8864255466477
 20
393.5
 30
0.0
 11
316.0539217693531
 21
393.5
 31
0.0
  0
LINE
  5
1066
330
100E
100
AcDbEntity
  8
0
 62
     0
100
AcDbLine
 10
211.9609134719158
 20
393.4000000000001
 30
0.0
 11
214.1487724479447
 21
393.4000000000001
 31
0.0
  0
LINE
  5
1067
330
100E
100
AcDbEntity
  8
0
 62
     0
100
AcDbLine
 10
313.8602406869753
 20
393.4000000000001
 30
0.0
 11
316.0480996630037
 21
393.4000000000001
 31
0.0
  0
LINE
  5
1068
330
100E
100
AcDbEntity
  8
0
 62
     0
100
AcDbLine
 10
211.9681524511634
 20
393.3
 30
0.0
 11
214.1749573076172
 21
393.3
 31
0.0
  0
LINE
  5
1069
330
100E
100
AcDbEntity
  8
0
 62
     0
100
AcDbLine
 10
313.8340558273028
 20
393.3
 30
0.0
 11
316.0408606837561
 21
393.3
 31
0.0
  0
LINE
  5
106A
330
100E
100
AcDbEntity
  8
0
 62
     0
100
AcDbLine
 10
211.9768126540731
 20
393.2
 30
0.0
 11
214.2011421672896
 21
393.2
 31
0.0
  0
LINE
  5
106B
330
100E
100
AcDbEntity
  8
0
 62
     0
100
AcDbLine
 10
313.8078709676303
 20
393.2
 30
0.0
 11
316.0322004808463
 21
393.2
 31
0.0
  0
LINE
  5
106C
330
100E
100
AcDbEntity
  8
0
 62
     0
100
AcDbLine
 10
211.9868993090308
 20
393.1
 30
0.0
 11
214.2273270269621
 21
393.1
 31
0.0
  0
LINE
  5
106D
330
100E
100
AcDbEntity
  8
0
 62
     0
100
AcDbLine
 10
313.7816861079579
 20
393.1
 30
0.0
 11
316.0221138258887
 21
393.1
 31
0.0
  0
LINE
  5
106E
330
100E
100
AcDbEntity
  8
0
 62
     0
100
AcDbLine
 10
211.9984185379947
 20
393.0
 30
0.0
 11
214.2535118866346
 21
393.0
 31
0.0
  0
LINE
  5
106F
330
100E
100
AcDbEntity
  8
0
 62
     0
100
AcDbLine
 10
313.7555012482854
 20
393.0
 30
0.0
 11
316.0105945969247
 21
393.0
 31
0.0
  0
LINE
  5
1070
330
100E
100
AcDbEntity
  8
0
 62
     0
100
AcDbLine
 10
212.0113773753386
 20
392.9
 30
0.0
 11
214.279696746307
 21
392.9
 31
0.0
  0
LINE
  5
1071
330
100E
100
AcDbEntity
  8
0
 62
     0
100
AcDbLine
 10
313.729316388613
 20
392.9
 30
0.0
 11
315.9976357595809
 21
392.9
 31
0.0
  0
LINE
  5
1072
330
100E
100
AcDbEntity
  8
0
 62
     0
100
AcDbLine
 10
212.0257837897213
 20
392.8
 30
0.0
 11
214.3058816059795
 21
392.8
 31
0.0
  0
LINE
  5
1073
330
100E
100
AcDbEntity
  8
0
 62
     0
100
AcDbLine
 10
313.7031315289405
 20
392.8
 30
0.0
 11
315.9832293451982
 21
392.8
 31
0.0
  0
LINE
  5
1074
330
100E
100
AcDbEntity
  8
0
 62
     0
100
AcDbLine
 10
212.0416467091473
 20
392.7000000000001
 30
0.0
 11
214.3320664656519
 21
392.7000000000001
 31
0.0
  0
LINE
  5
1075
330
100E
100
AcDbEntity
  8
0
 62
     0
100
AcDbLine
 10
313.676946669268
 20
392.7000000000001
 30
0.0
 11
315.9673664257722
 21
392.7000000000001
 31
0.0
  0
LINE
  5
1076
330
100E
100
AcDbEntity
  8
0
 62
     0
100
AcDbLine
 10
212.0589760494041
 20
392.6
 30
0.0
 11
214.3582513253244
 21
392.6
 31
0.0
  0
LINE
  5
1077
330
100E
100
AcDbEntity
  8
0
 62
     0
100
AcDbLine
 10
313.6507618095956
 20
392.6
 30
0.0
 11
315.9500370855154
 21
392.6
 31
0.0
  0
LINE
  5
1078
330
100E
100
AcDbEntity
  8
0
 62
     0
100
AcDbLine
 10
212.0777827460949
 20
392.5
 30
0.0
 11
214.3844361849969
 21
392.5
 31
0.0
  0
LINE
  5
1079
330
100E
100
AcDbEntity
  8
0
 62
     0
100
AcDbLine
 10
313.6245769499231
 20
392.5
 30
0.0
 11
315.9312303888246
 21
392.5
 31
0.0
  0
LINE
  5
107A
330
100E
100
AcDbEntity
  8
0
 62
     0
100
AcDbLine
 10
212.0980787905145
 20
392.4
 30
0.0
 11
214.4106210446693
 21
392.4
 31
0.0
  0
LINE
  5
107B
330
100E
100
AcDbEntity
  8
0
 62
     0
100
AcDbLine
 10
313.5983920902506
 20
392.4
 30
0.0
 11
315.910934344405
 21
392.4
 31
0.0
  0
LINE
  5
107C
330
100E
100
AcDbEntity
  8
0
 62
     0
100
AcDbLine
 10
212.1198772696549
 20
392.3
 30
0.0
 11
214.4368059043418
 21
392.3
 31
0.0
  0
LINE
  5
107D
330
100E
100
AcDbEntity
  8
0
 62
     0
100
AcDbLine
 10
313.5722072305782
 20
392.3
 30
0.0
 11
315.8891358652646
 21
392.3
 31
0.0
  0
LINE
  5
107E
330
100E
100
AcDbEntity
  8
0
 62
     0
100
AcDbLine
 10
212.1431924106635
 20
392.2
 30
0.0
 11
214.4629907640142
 21
392.2
 31
0.0
  0
LINE
  5
107F
330
100E
100
AcDbEntity
  8
0
 62
     0
100
AcDbLine
 10
313.5460223709058
 20
392.2
 30
0.0
 11
315.8658207242559
 21
392.2
 31
0.0
  0
LINE
  5
1080
330
100E
100
AcDbEntity
  8
0
 62
     0
100
AcDbLine
 10
212.1680396301255
 20
392.1
 30
0.0
 11
214.4891756236867
 21
392.1
 31
0.0
  0
LINE
  5
1081
330
100E
100
AcDbEntity
  8
0
 62
     0
100
AcDbLine
 10
313.5198375112333
 20
392.1
 30
0.0
 11
315.840973504794
 21
392.1
 31
0.0
  0
LINE
  5
1082
330
100E
100
AcDbEntity
  8
0
 62
     0
100
AcDbLine
 10
212.1944355885889
 20
392.0
 30
0.0
 11
214.5153604833592
 21
392.0
 31
0.0
  0
LINE
  5
1083
330
100E
100
AcDbEntity
  8
0
 62
     0
100
AcDbLine
 10
313.4936526515608
 20
392.0
 30
0.0
 11
315.8145775463306
 21
392.0
 31
0.0
  0
LINE
  5
1084
330
100E
100
AcDbEntity
  8
0
 62
     0
100
AcDbLine
 10
212.2223982508113
 20
391.9
 30
0.0
 11
214.5415453430316
 21
391.9
 31
0.0
  0
LINE
  5
1085
330
100E
100
AcDbEntity
  8
0
 62
     0
100
AcDbLine
 10
313.4674677918884
 20
391.9
 30
0.0
 11
315.7866148841081
 21
391.9
 31
0.0
  0
LINE
  5
1086
330
100E
100
AcDbEntity
  8
0
 62
     0
100
AcDbLine
 10
212.2519469522707
 20
391.8
 30
0.0
 11
214.5677302027041
 21
391.8
 31
0.0
  0
LINE
  5
1087
330
100E
100
AcDbEntity
  8
0
 62
     0
100
AcDbLine
 10
313.4412829322159
 20
391.8
 30
0.0
 11
315.7570661826487
 21
391.8
 31
0.0
  0
LINE
  5
1088
330
100E
100
AcDbEntity
  8
0
 62
     0
100
AcDbLine
 10
212.2831024725574
 20
391.7000000000001
 30
0.0
 11
214.5939150623765
 21
391.7000000000001
 31
0.0
  0
LINE
  5
1089
330
100E
100
AcDbEntity
  8
0
 62
     0
100
AcDbLine
 10
313.4150980725434
 20
391.7000000000001
 30
0.0
 11
315.7259106623621
 21
391.7000000000001
 31
0.0
  0
LINE
  5
108A
330
100E
100
AcDbEntity
  8
0
 62
     0
100
AcDbLine
 10
212.315887116351
 20
391.6
 30
0.0
 11
214.620099922049
 21
391.6
 31
0.0
  0
LINE
  5
108B
330
100E
100
AcDbEntity
  8
0
 62
     0
100
AcDbLine
 10
313.3889132128709
 20
391.6
 30
0.0
 11
315.6931260185685
 21
391.6
 31
0.0
  0
LINE
  5
108C
330
100E
100
AcDbEntity
  8
0
 62
     0
100
AcDbLine
 10
212.3503248027835
 20
391.5
 30
0.0
 11
214.6462847817215
 21
391.5
 31
0.0
  0
LINE
  5
108D
330
100E
100
AcDbEntity
  8
0
 62
     0
100
AcDbLine
 10
313.3627283531985
 20
391.5
 30
0.0
 11
315.658688332136
 21
391.5
 31
0.0
  0
LINE
  5
108E
330
100E
100
AcDbEntity
  8
0
 62
     0
100
AcDbLine
 10
212.3864411641034
 20
391.4000000000001
 30
0.0
 11
214.672469641394
 21
391.4000000000001
 31
0.0
  0
LINE
  5
108F
330
100E
100
AcDbEntity
  8
0
 62
     0
100
AcDbLine
 10
313.3365434935261
 20
391.4000000000001
 30
0.0
 11
315.6225719708161
 21
391.4000000000001
 31
0.0
  0
LINE
  5
1090
330
100E
100
AcDbEntity
  8
0
 62
     0
100
AcDbLine
 10
212.424263654688
 20
391.3
 30
0.0
 11
214.6986545010664
 21
391.3
 31
0.0
  0
LINE
  5
1091
330
100E
100
AcDbEntity
  8
0
 62
     0
100
AcDbLine
 10
313.3103586338536
 20
391.3
 30
0.0
 11
315.5847494802315
 21
391.3
 31
0.0
  0
LINE
  5
1092
330
100E
100
AcDbEntity
  8
0
 62
     0
100
AcDbLine
 10
212.4638216716037
 20
391.2
 30
0.0
 11
214.7248393607389
 21
391.2
 31
0.0
  0
LINE
  5
1093
330
100E
100
AcDbEntity
  8
0
 62
     0
100
AcDbLine
 10
313.2841737741811
 20
391.2
 30
0.0
 11
315.5451914633158
 21
391.2
 31
0.0
  0
LINE
  5
1094
330
100E
100
AcDbEntity
  8
0
 62
     0
100
AcDbLine
 10
212.5051466880937
 20
391.1000000000001
 30
0.0
 11
214.7510242204113
 21
391.1000000000001
 31
0.0
  0
LINE
  5
1095
330
100E
100
AcDbEntity
  8
0
 62
     0
100
AcDbLine
 10
313.2579889145087
 20
391.1000000000001
 30
0.0
 11
315.5038664468257
 21
391.1000000000001
 31
0.0
  0
LINE
  5
1096
330
100E
100
AcDbEntity
  8
0
 62
     0
100
AcDbLine
 10
212.5482724015817
 20
391.0
 30
0.0
 11
214.7772090800838
 21
391.0
 31
0.0
  0
LINE
  5
1097
330
100E
100
AcDbEntity
  8
0
 62
     0
100
AcDbLine
 10
313.2318040548362
 20
391.0
 30
0.0
 11
315.4607407333378
 21
391.0
 31
0.0
  0
LINE
  5
1098
330
100E
100
AcDbEntity
  8
0
 62
     0
100
AcDbLine
 10
212.5932348980247
 20
390.9
 30
0.0
 11
214.8033939397562
 21
390.9
 31
0.0
  0
LINE
  5
1099
330
100E
100
AcDbEntity
  8
0
 62
     0
100
AcDbLine
 10
313.2056191951637
 20
390.9
 30
0.0
 11
315.4157782368947
 21
390.9
 31
0.0
  0
LINE
  5
109A
330
100E
100
AcDbEntity
  8
0
 62
     0
100
AcDbLine
 10
212.6400728347447
 20
390.8
 30
0.0
 11
214.8295787994287
 21
390.8
 31
0.0
  0
LINE
  5
109B
330
100E
100
AcDbEntity
  8
0
 62
     0
100
AcDbLine
 10
313.1794343354912
 20
390.8
 30
0.0
 11
315.3689403001747
 21
390.8
 31
0.0
  0
LINE
  5
109C
330
100E
100
AcDbEntity
  8
0
 62
     0
100
AcDbLine
 10
212.6888276442056
 20
390.7
 30
0.0
 11
214.8557636591012
 21
390.7
 31
0.0
  0
LINE
  5
109D
330
100E
100
AcDbEntity
  8
0
 62
     0
100
AcDbLine
 10
313.1532494758188
 20
390.7
 30
0.0
 11
315.3201854907138
 21
390.7
 31
0.0
  0
LINE
  5
109E
330
100E
100
AcDbEntity
  8
0
 62
     0
100
AcDbLine
 10
212.7395437616196
 20
390.6
 30
0.0
 11
214.8819485187736
 21
390.6
 31
0.0
  0
LINE
  5
109F
330
100E
100
AcDbEntity
  8
0
 62
     0
100
AcDbLine
 10
313.1270646161464
 20
390.6
 30
0.0
 11
315.2694693732998
 21
390.6
 31
0.0
  0
LINE
  5
10A0
330
100E
100
AcDbEntity
  8
0
 62
     0
100
AcDbLine
 10
212.792268879754
 20
390.5
 30
0.0
 11
214.9081333784461
 21
390.5
 31
0.0
  0
LINE
  5
10A1
330
100E
100
AcDbEntity
  8
0
 62
     0
100
AcDbLine
 10
313.1008797564739
 20
390.5
 30
0.0
 11
315.2167442551654
 21
390.5
 31
0.0
  0
LINE
  5
10A2
330
100E
100
AcDbEntity
  8
0
 62
     0
100
AcDbLine
 10
212.8470542348989
 20
390.4
 30
0.0
 11
214.9343182381186
 21
390.4
 31
0.0
  0
LINE
  5
10A3
330
100E
100
AcDbEntity
  8
0
 62
     0
100
AcDbLine
 10
313.0746948968014
 20
390.4
 30
0.0
 11
315.1619589000205
 21
390.4
 31
0.0
  0
LINE
  5
10A4
330
100E
100
AcDbEntity
  8
0
 62
     0
100
AcDbLine
 10
212.9039549286684
 20
390.3
 30
0.0
 11
214.960503097791
 21
390.3
 31
0.0
  0
LINE
  5
10A5
330
100E
100
AcDbEntity
  8
0
 62
     0
100
AcDbLine
 10
313.048510037129
 20
390.3
 30
0.0
 11
315.105058206251
 21
390.3
 31
0.0
  0
LINE
  5
10A6
330
100E
100
AcDbEntity
  8
0
 62
     0
100
AcDbLine
 10
212.9630302911678
 20
390.2000000000001
 30
0.0
 11
214.9866879574635
 21
390.2000000000001
 31
0.0
  0
LINE
  5
10A7
330
100E
100
AcDbEntity
  8
0
 62
     0
100
AcDbLine
 10
313.0223251774565
 20
390.2000000000001
 30
0.0
 11
315.0459828437516
 21
390.2000000000001
 31
0.0
  0
ENDBLK
  5
10A8
330
100E
100
AcDbEntity
  8
0
100
AcDbBlockEnd
  0
BLOCK
  5
10D7
330
10D6
100
AcDbEntity
  8
0
100
AcDbBlockBegin
  2
*X3
 70
     1
 10
0.0
 20
0.0
 30
0.0
  3
*X3
  1

  0
LINE
  5
10D8
330
10D6
100
AcDbEntity
  8
0
 62
     0
100
AcDbLine
 10
213.00450656746
 20
327.9321810402488
 30
0.0
 11
207.8047368935151
 21
333.1319507141937
 31
0.0
  0
LINE
  5
10D9
330
10D6
100
AcDbEntity
  8
0
 62
     0
100
AcDbLine
 10
213.00450656746
 20
325.2805306107993
 30
0.0
 11
205.1530864640656
 21
333.1319507141937
 31
0.0
  0
LINE
  5
10DA
330
10D6
100
AcDbEntity
  8
0
 62
     0
100
AcDbLine
 10
213.00450656746
 20
322.6288801813497
 30
0.0
 11
202.501436034616
 21
333.1319507141937
 31
0.0
  0
LINE
  5
10DB
330
10D6
100
AcDbEntity
  8
0
 62
     0
100
AcDbLine
 10
213.00450656746
 20
319.9772297519002
 30
0.0
 11
200.063447886429
 21
332.9182884329312
 31
0.0
  0
LINE
  5
10DC
330
10D6
100
AcDbEntity
  8
0
 62
     0
100
AcDbLine
 10
213.00450656746
 20
317.3255793224506
 30
0.0
 11
201.0736004309812
 21
329.2564854589294
 31
0.0
  0
LINE
  5
10DD
330
10D6
100
AcDbEntity
  8
0
 62
     0
100
AcDbLine
 10
213.00450656746
 20
314.6739288930011
 30
0.0
 11
202.0837529755334
 21
325.5946824849277
 31
0.0
  0
LINE
  5
10DE
330
10D6
100
AcDbEntity
  8
0
 62
     0
100
AcDbLine
 10
213.00450656746
 20
312.0222784635515
 30
0.0
 11
203.0939055200855
 21
321.9328795109259
 31
0.0
  0
LINE
  5
10DF
330
10D6
100
AcDbEntity
  8
0
 62
     0
100
AcDbLine
 10
213.00450656746
 20
309.370628034102
 30
0.0
 11
204.1040580646377
 21
318.2710765369242
 31
0.0
  0
LINE
  5
10E0
330
10D6
100
AcDbEntity
  8
0
 62
     0
100
AcDbLine
 10
213.00450656746
 20
306.7189776046524
 30
0.0
 11
205.1142106091899
 21
314.6092735629224
 31
0.0
  0
LINE
  5
10E1
330
10D6
100
AcDbEntity
  8
0
 62
     0
100
AcDbLine
 10
212.9398830284692
 20
304.1319507141937
 30
0.0
 11
206.1243631537421
 21
310.9474705889208
 31
0.0
  0
LINE
  5
10E2
330
10D6
100
AcDbEntity
  8
0
 62
     0
100
AcDbLine
 10
210.2882325990196
 20
304.1319507141937
 30
0.0
 11
207.1345156982943
 21
307.285667614919
 31
0.0
  0
LINE
  5
10E3
330
10D6
100
AcDbEntity
  8
0
 62
     0
100
AcDbLine
 10
316.3542497770017
 20
304.1319507141936
 30
0.0
 11
315.00450656746
 21
305.4816939237353
 31
0.0
  0
LINE
  5
10E4
330
10D6
100
AcDbEntity
  8
0
 62
     0
100
AcDbLine
 10
319.0059002064512
 20
304.1319507141936
 30
0.0
 11
315.00450656746
 21
308.1333443531848
 31
0.0
  0
LINE
  5
10E5
330
10D6
100
AcDbEntity
  8
0
 62
     0
100
AcDbLine
 10
320.361921501177
 20
305.4275798489174
 30
0.0
 11
315.00450656746
 21
310.7849947826344
 31
0.0
  0
LINE
  5
10E6
330
10D6
100
AcDbEntity
  8
0
 62
     0
100
AcDbLine
 10
320.9352513237607
 20
307.5059004557833
 30
0.0
 11
315.00450656746
 21
313.4366452120839
 31
0.0
  0
LINE
  5
10E7
330
10D6
100
AcDbEntity
  8
0
 62
     0
100
AcDbLine
 10
321.5085811463443
 20
309.5842210626492
 30
0.0
 11
315.00450656746
 21
316.0882956415335
 31
0.0
  0
LINE
  5
10E8
330
10D6
100
AcDbEntity
  8
0
 62
     0
100
AcDbLine
 10
322.081910968928
 20
311.6625416695151
 30
0.0
 11
315.00450656746
 21
318.739946070983
 31
0.0
  0
LINE
  5
10E9
330
10D6
100
AcDbEntity
  8
0
 62
     0
100
AcDbLine
 10
322.6552407915117
 20
313.740862276381
 30
0.0
 11
315.00450656746
 21
321.3915965004326
 31
0.0
  0
LINE
  5
10EA
330
10D6
100
AcDbEntity
  8
0
 62
     0
100
AcDbLine
 10
323.2285706140954
 20
315.8191828832468
 30
0.0
 11
315.00450656746
 21
324.0432469298821
 31
0.0
  0
LINE
  5
10EB
330
10D6
100
AcDbEntity
  8
0
 62
     0
100
AcDbLine
 10
323.8019004366791
 20
317.8975034901127
 30
0.0
 11
315.00450656746
 21
326.6948973593317
 31
0.0
  0
LINE
  5
10EC
330
10D6
100
AcDbEntity
  8
0
 62
     0
100
AcDbLine
 10
324.3752302592628
 20
319.9758240969786
 30
0.0
 11
315.00450656746
 21
329.3465477887813
 31
0.0
  0
LINE
  5
10ED
330
10D6
100
AcDbEntity
  8
0
 62
     0
100
AcDbLine
 10
324.9485600818464
 20
322.0541447038444
 30
0.0
 11
316.5028473823091
 21
330.4998574033817
 31
0.0
  0
LINE
  5
10EE
330
10D6
100
AcDbEntity
  8
0
 62
     0
100
AcDbLine
 10
325.5218899044301
 20
324.1324653107103
 30
0.0
 11
317.907447478558
 21
331.7469077365824
 31
0.0
  0
LINE
  5
10EF
330
10D6
100
AcDbEntity
  8
0
 62
     0
100
AcDbLine
 10
326.0952197270138
 20
326.2107859175762
 30
0.0
 11
319.1740549303963
 21
333.1319507141937
 31
0.0
  0
LINE
  5
10F0
330
10D6
100
AcDbEntity
  8
0
 62
     0
100
AcDbLine
 10
326.6685495495975
 20
328.2891065244421
 30
0.0
 11
321.8257053598459
 21
333.1319507141937
 31
0.0
  0
LINE
  5
10F1
330
10D6
100
AcDbEntity
  8
0
 62
     0
100
AcDbLine
 10
327.2418793721812
 20
330.3674271313079
 30
0.0
 11
324.4773557892954
 21
333.1319507141937
 31
0.0
  0
LINE
  5
10F2
330
10D6
100
AcDbEntity
  8
0
 62
     0
100
AcDbLine
 10
327.8152091947649
 20
332.4457477381738
 30
0.0
 11
327.129006218745
 21
333.1319507141937
 31
0.0
  0
LINE
  5
10F3
330
10D6
100
AcDbEntity
  8
0
 62
     0
100
AcDbLine
 10
315.00450656746
 20
328.2627587147078
 30
0.0
 11
319.8736985669459
 21
333.1319507141937
 31
0.0
  0
LINE
  5
10F4
330
10D6
100
AcDbEntity
  8
0
 62
     0
100
AcDbLine
 10
315.00450656746
 20
325.6111082852582
 30
0.0
 11
322.5253489963955
 21
333.1319507141937
 31
0.0
  0
LINE
  5
10F5
330
10D6
100
AcDbEntity
  8
0
 62
     0
100
AcDbLine
 10
315.00450656746
 20
322.9594578558087
 30
0.0
 11
325.176999425845
 21
333.1319507141937
 31
0.0
  0
LINE
  5
10F6
330
10D6
100
AcDbEntity
  8
0
 62
     0
100
AcDbLine
 10
315.00450656746
 20
320.3078074263591
 30
0.0
 11
327.8286498552946
 21
333.1319507141937
 31
0.0
  0
LINE
  5
10F7
330
10D6
100
AcDbEntity
  8
0
 62
     0
100
AcDbLine
 10
315.00450656746
 20
317.6561569969096
 30
0.0
 11
327.0613470561137
 21
329.7129974855633
 31
0.0
  0
LINE
  5
10F8
330
10D6
100
AcDbEntity
  8
0
 62
     0
100
AcDbLine
 10
315.00450656746
 20
315.00450656746
 30
0.0
 11
326.0511945115615
 21
326.0511945115615
 31
0.0
  0
LINE
  5
10F9
330
10D6
100
AcDbEntity
  8
0
 62
     0
100
AcDbLine
 10
315.00450656746
 20
312.3528561380104
 30
0.0
 11
325.0410419670093
 21
322.3893915375597
 31
0.0
  0
LINE
  5
10FA
330
10D6
100
AcDbEntity
  8
0
 62
     0
100
AcDbLine
 10
315.00450656746
 20
309.7012057085609
 30
0.0
 11
324.0308894224571
 21
318.727588563558
 31
0.0
  0
LINE
  5
10FB
330
10D6
100
AcDbEntity
  8
0
 62
     0
100
AcDbLine
 10
315.00450656746
 20
307.0495552791113
 30
0.0
 11
323.020736877905
 21
315.0657855895563
 31
0.0
  0
LINE
  5
10FC
330
10D6
100
AcDbEntity
  8
0
 62
     0
100
AcDbLine
 10
315.00450656746
 20
304.3979048496618
 30
0.0
 11
322.0105843333527
 21
311.4039826155545
 31
0.0
  0
LINE
  5
10FD
330
10D6
100
AcDbEntity
  8
0
 62
     0
100
AcDbLine
 10
317.3902028614414
 20
304.1319507141936
 30
0.0
 11
321.0004317888005
 21
307.7421796415527
 31
0.0
  0
LINE
  5
10FE
330
10D6
100
AcDbEntity
  8
0
 62
     0
100
AcDbLine
 10
211.3241856834593
 20
304.1319507141937
 30
0.0
 11
213.00450656746
 21
305.8122715981943
 31
0.0
  0
LINE
  5
10FF
330
10D6
100
AcDbEntity
  8
0
 62
     0
100
AcDbLine
 10
208.6725352540098
 20
304.1319507141937
 30
0.0
 11
213.00450656746
 21
308.4639220276438
 31
0.0
  0
LINE
  5
1100
330
10D6
100
AcDbEntity
  8
0
 62
     0
100
AcDbLine
 10
207.5756153798059
 20
305.6866812694394
 30
0.0
 11
213.00450656746
 21
311.1155724570934
 31
0.0
  0
LINE
  5
1101
330
10D6
100
AcDbEntity
  8
0
 62
     0
100
AcDbLine
 10
207.0022855572223
 20
307.7650018763052
 30
0.0
 11
213.00450656746
 21
313.767222886543
 31
0.0
  0
LINE
  5
1102
330
10D6
100
AcDbEntity
  8
0
 62
     0
100
AcDbLine
 10
206.4289557346385
 20
309.8433224831711
 30
0.0
 11
213.00450656746
 21
316.4188733159925
 31
0.0
  0
LINE
  5
1103
330
10D6
100
AcDbEntity
  8
0
 62
     0
100
AcDbLine
 10
205.8556259120549
 20
311.921643090037
 30
0.0
 11
213.00450656746
 21
319.0705237454421
 31
0.0
  0
LINE
  5
1104
330
10D6
100
AcDbEntity
  8
0
 62
     0
100
AcDbLine
 10
205.2822960894712
 20
313.9999636969029
 30
0.0
 11
213.00450656746
 21
321.7221741748916
 31
0.0
  0
LINE
  5
1105
330
10D6
100
AcDbEntity
  8
0
 62
     0
100
AcDbLine
 10
204.7089662668875
 20
316.0782843037687
 30
0.0
 11
213.00450656746
 21
324.3738246043412
 31
0.0
  0
LINE
  5
1106
330
10D6
100
AcDbEntity
  8
0
 62
     0
100
AcDbLine
 10
204.1356364443038
 20
318.1566049106346
 30
0.0
 11
213.00450656746
 21
327.0254750337907
 31
0.0
  0
LINE
  5
1107
330
10D6
100
AcDbEntity
  8
0
 62
     0
100
AcDbLine
 10
203.5623066217202
 20
320.2349255175005
 30
0.0
 11
213.00450656746
 21
329.6771254632403
 31
0.0
  0
LINE
  5
1108
330
10D6
100
AcDbEntity
  8
0
 62
     0
100
AcDbLine
 10
202.9889767991365
 20
322.3132461243663
 30
0.0
 11
211.299765492422
 21
330.6240348176519
 31
0.0
  0
LINE
  5
1109
330
10D6
100
AcDbEntity
  8
0
 62
     0
100
AcDbLine
 10
202.4156469765528
 20
324.3915667312322
 30
0.0
 11
209.966101676876
 21
331.9420214315555
 31
0.0
  0
LINE
  5
110A
330
10D6
100
AcDbEntity
  8
0
 62
     0
100
AcDbLine
 10
201.8423171539691
 20
326.4698873380981
 30
0.0
 11
208.5043805300647
 21
333.1319507141937
 31
0.0
  0
LINE
  5
110B
330
10D6
100
AcDbEntity
  8
0
 62
     0
100
AcDbLine
 10
201.2689873313854
 20
328.548207944964
 30
0.0
 11
205.8527301006151
 21
333.1319507141937
 31
0.0
  0
LINE
  5
110C
330
10D6
100
AcDbEntity
  8
0
 62
     0
100
AcDbLine
 10
200.6956575088018
 20
330.6265285518299
 30
0.0
 11
203.2010796711656
 21
333.1319507141937
 31
0.0
  0
LINE
  5
110D
330
10D6
100
AcDbEntity
  8
0
 62
     0
100
AcDbLine
 10
200.1223276862181
 20
332.7048491586957
 30
0.0
 11
200.549429241716
 21
333.1319507141937
 31
0.0
  0
ENDBLK
  5
110E
330
10D6
100
AcDbEntity
  8
0
100
AcDbBlockEnd
  0
BLOCK
  5
1110
330
110F
100
AcDbEntity
  8
0
100
AcDbBlockBegin
  2
*X4
 70
     1
 10
0.0
 20
0.0
 30
0.0
  3
*X4
  1

  0
LINE
  5
1111
330
110F
100
AcDbEntity
  8
0
 62
     0
100
AcDbLine
 10
320.0045065674599
 20
160.8281046393924
 30
0.0
 11
317.00450656746
 21
163.8281046393923
 31
0.0
  0
LINE
  5
1112
330
110F
100
AcDbEntity
  8
0
 62
     0
100
AcDbLine
 10
211.00450656746
 20
269.8281046393923
 30
0.0
 11
208.00450656746
 21
272.8281046393923
 31
0.0
  0
LINE
  5
1113
330
110F
100
AcDbEntity
  8
0
 62
     0
100
AcDbLine
 10
317.00450656746
 20
163.8281046393923
 30
0.0
 11
315.00450656746
 21
165.8281046393923
 31
0.0
  0
LINE
  5
1114
330
110F
100
AcDbEntity
  8
0
 62
     0
100
AcDbLine
 10
213.00450656746
 20
267.8281046393923
 30
0.0
 11
211.00450656746
 21
269.8281046393923
 31
0.0
  0
LINE
  5
1115
330
110F
100
AcDbEntity
  8
0
 62
     0
100
AcDbLine
 10
320.0045065674599
 20
157.2925707334596
 30
0.0
 11
317.00450656746
 21
160.2925707334595
 31
0.0
  0
LINE
  5
1116
330
110F
100
AcDbEntity
  8
0
 62
     0
100
AcDbLine
 10
211.00450656746
 20
266.2925707334596
 30
0.0
 11
208.00450656746
 21
269.2925707334596
 31
0.0
  0
LINE
  5
1117
330
110F
100
AcDbEntity
  8
0
 62
     0
100
AcDbLine
 10
317.00450656746
 20
160.2925707334595
 30
0.0
 11
315.00450656746
 21
162.2925707334595
 31
0.0
  0
LINE
  5
1118
330
110F
100
AcDbEntity
  8
0
 62
     0
100
AcDbLine
 10
213.00450656746
 20
264.2925707334596
 30
0.0
 11
211.00450656746
 21
266.2925707334596
 31
0.0
  0
LINE
  5
1119
330
110F
100
AcDbEntity
  8
0
 62
     0
100
AcDbLine
 10
320.0045065674599
 20
153.7570368275269
 30
0.0
 11
317.00450656746
 21
156.7570368275268
 31
0.0
  0
LINE
  5
111A
330
110F
100
AcDbEntity
  8
0
 62
     0
100
AcDbLine
 10
211.00450656746
 20
262.7570368275268
 30
0.0
 11
208.00450656746
 21
265.7570368275269
 31
0.0
  0
LINE
  5
111B
330
110F
100
AcDbEntity
  8
0
 62
     0
100
AcDbLine
 10
317.00450656746
 20
156.7570368275268
 30
0.0
 11
315.00450656746
 21
158.7570368275268
 31
0.0
  0
LINE
  5
111C
330
110F
100
AcDbEntity
  8
0
 62
     0
100
AcDbLine
 10
213.00450656746
 20
260.7570368275268
 30
0.0
 11
211.00450656746
 21
262.7570368275268
 31
0.0
  0
LINE
  5
111D
330
110F
100
AcDbEntity
  8
0
 62
     0
100
AcDbLine
 10
320.0045065674599
 20
150.2215029215942
 30
0.0
 11
317.00450656746
 21
153.221502921594
 31
0.0
  0
LINE
  5
111E
330
110F
100
AcDbEntity
  8
0
 62
     0
100
AcDbLine
 10
211.00450656746
 20
259.2215029215941
 30
0.0
 11
208.00450656746
 21
262.2215029215941
 31
0.0
  0
LINE
  5
111F
330
110F
100
AcDbEntity
  8
0
 62
     0
100
AcDbLine
 10
317.00450656746
 20
153.221502921594
 30
0.0
 11
315.00450656746
 21
155.2215029215941
 31
0.0
  0
LINE
  5
1120
330
110F
100
AcDbEntity
  8
0
 62
     0
100
AcDbLine
 10
213.00450656746
 20
257.2215029215941
 30
0.0
 11
211.00450656746
 21
259.2215029215941
 31
0.0
  0
LINE
  5
1121
330
110F
100
AcDbEntity
  8
0
 62
     0
100
AcDbLine
 10
320.0045065674599
 20
146.6859690156614
 30
0.0
 11
317.00450656746
 21
149.6859690156613
 31
0.0
  0
LINE
  5
1122
330
110F
100
AcDbEntity
  8
0
 62
     0
100
AcDbLine
 10
211.00450656746
 20
255.6859690156613
 30
0.0
 11
208.00450656746
 21
258.6859690156614
 31
0.0
  0
LINE
  5
1123
330
110F
100
AcDbEntity
  8
0
 62
     0
100
AcDbLine
 10
317.00450656746
 20
149.6859690156613
 30
0.0
 11
315.00450656746
 21
151.6859690156613
 31
0.0
  0
LINE
  5
1124
330
110F
100
AcDbEntity
  8
0
 62
     0
100
AcDbLine
 10
213.00450656746
 20
253.6859690156613
 30
0.0
 11
211.00450656746
 21
255.6859690156613
 31
0.0
  0
LINE
  5
1125
330
110F
100
AcDbEntity
  8
0
 62
     0
100
AcDbLine
 10
320.0045065674599
 20
143.1504351097287
 30
0.0
 11
317.00450656746
 21
146.1504351097286
 31
0.0
  0
LINE
  5
1126
330
110F
100
AcDbEntity
  8
0
 62
     0
100
AcDbLine
 10
211.00450656746
 20
252.1504351097286
 30
0.0
 11
208.00450656746
 21
255.1504351097286
 31
0.0
  0
LINE
  5
1127
330
110F
100
AcDbEntity
  8
0
 62
     0
100
AcDbLine
 10
317.00450656746
 20
146.1504351097286
 30
0.0
 11
315.00450656746
 21
148.1504351097286
 31
0.0
  0
LINE
  5
1128
330
110F
100
AcDbEntity
  8
0
 62
     0
100
AcDbLine
 10
213.00450656746
 20
250.1504351097286
 30
0.0
 11
211.00450656746
 21
252.1504351097286
 31
0.0
  0
LINE
  5
1129
330
110F
100
AcDbEntity
  8
0
 62
     0
100
AcDbLine
 10
320.0045065674598
 20
139.6149012037959
 30
0.0
 11
317.00450656746
 21
142.6149012037958
 31
0.0
  0
LINE
  5
112A
330
110F
100
AcDbEntity
  8
0
 62
     0
100
AcDbLine
 10
211.00450656746
 20
248.6149012037959
 30
0.0
 11
208.00450656746
 21
251.6149012037959
 31
0.0
  0
LINE
  5
112B
330
110F
100
AcDbEntity
  8
0
 62
     0
100
AcDbLine
 10
317.00450656746
 20
142.6149012037958
 30
0.0
 11
315.00450656746
 21
144.6149012037959
 31
0.0
  0
LINE
  5
112C
330
110F
100
AcDbEntity
  8
0
 62
     0
100
AcDbLine
 10
213.00450656746
 20
246.6149012037959
 30
0.0
 11
211.00450656746
 21
248.6149012037959
 31
0.0
  0
LINE
  5
112D
330
110F
100
AcDbEntity
  8
0
 62
     0
100
AcDbLine
 10
318.9519231511294
 20
137.1319507141936
 30
0.0
 11
317.00450656746
 21
139.0793672978631
 31
0.0
  0
LINE
  5
112E
330
110F
100
AcDbEntity
  8
0
 62
     0
100
AcDbLine
 10
211.00450656746
 20
245.0793672978631
 30
0.0
 11
208.00450656746
 21
248.0793672978632
 31
0.0
  0
LINE
  5
112F
330
110F
100
AcDbEntity
  8
0
 62
     0
100
AcDbLine
 10
317.00450656746
 20
139.0793672978631
 30
0.0
 11
315.00450656746
 21
141.0793672978631
 31
0.0
  0
LINE
  5
1130
330
110F
100
AcDbEntity
  8
0
 62
     0
100
AcDbLine
 10
213.00450656746
 20
243.0793672978631
 30
0.0
 11
211.00450656746
 21
245.0793672978631
 31
0.0
  0
LINE
  5
1131
330
110F
100
AcDbEntity
  8
0
 62
     0
100
AcDbLine
 10
315.4163892451967
 20
137.1319507141936
 30
0.0
 11
315.00450656746
 21
137.5438333919304
 31
0.0
  0
LINE
  5
1132
330
110F
100
AcDbEntity
  8
0
 62
     0
100
AcDbLine
 10
211.00450656746
 20
241.5438333919304
 30
0.0
 11
208.0045065674599
 21
244.5438333919304
 31
0.0
  0
LINE
  5
1133
330
110F
100
AcDbEntity
  8
0
 62
     0
100
AcDbLine
 10
213.00450656746
 20
239.5438333919304
 30
0.0
 11
211.00450656746
 21
241.5438333919304
 31
0.0
  0
LINE
  5
1134
330
110F
100
AcDbEntity
  8
0
 62
     0
100
AcDbLine
 10
213.00450656746
 20
236.0082994859976
 30
0.0
 11
211.00450656746
 21
238.0082994859977
 31
0.0
  0
LINE
  5
1135
330
110F
100
AcDbEntity
  8
0
 62
     0
100
AcDbLine
 10
211.00450656746
 20
238.0082994859977
 30
0.0
 11
208.0045065674599
 21
241.0082994859977
 31
0.0
  0
LINE
  5
1136
330
110F
100
AcDbEntity
  8
0
 62
     0
100
AcDbLine
 10
213.00450656746
 20
232.4727655800649
 30
0.0
 11
211.00450656746
 21
234.472765580065
 31
0.0
  0
LINE
  5
1137
330
110F
100
AcDbEntity
  8
0
 62
     0
100
AcDbLine
 10
211.00450656746
 20
234.472765580065
 30
0.0
 11
208.0045065674599
 21
237.472765580065
 31
0.0
  0
LINE
  5
1138
330
110F
100
AcDbEntity
  8
0
 62
     0
100
AcDbLine
 10
213.00450656746
 20
228.9372316741322
 30
0.0
 11
211.00450656746
 21
230.9372316741322
 31
0.0
  0
LINE
  5
1139
330
110F
100
AcDbEntity
  8
0
 62
     0
100
AcDbLine
 10
211.00450656746
 20
230.9372316741322
 30
0.0
 11
208.0045065674599
 21
233.9372316741322
 31
0.0
  0
LINE
  5
113A
330
110F
100
AcDbEntity
  8
0
 62
     0
100
AcDbLine
 10
213.00450656746
 20
225.4016977681994
 30
0.0
 11
211.00450656746
 21
227.4016977681994
 31
0.0
  0
LINE
  5
113B
330
110F
100
AcDbEntity
  8
0
 62
     0
100
AcDbLine
 10
211.00450656746
 20
227.4016977681994
 30
0.0
 11
208.0045065674599
 21
230.4016977681995
 31
0.0
  0
LINE
  5
113C
330
110F
100
AcDbEntity
  8
0
 62
     0
100
AcDbLine
 10
213.00450656746
 20
221.8661638622667
 30
0.0
 11
211.00450656746
 21
223.8661638622668
 31
0.0
  0
LINE
  5
113D
330
110F
100
AcDbEntity
  8
0
 62
     0
100
AcDbLine
 10
211.00450656746
 20
223.8661638622668
 30
0.0
 11
208.0045065674599
 21
226.8661638622667
 31
0.0
  0
LINE
  5
113E
330
110F
100
AcDbEntity
  8
0
 62
     0
100
AcDbLine
 10
213.00450656746
 20
218.3306299563339
 30
0.0
 11
211.00450656746
 21
220.330629956334
 31
0.0
  0
LINE
  5
113F
330
110F
100
AcDbEntity
  8
0
 62
     0
100
AcDbLine
 10
211.00450656746
 20
220.330629956334
 30
0.0
 11
208.0045065674599
 21
223.330629956334
 31
0.0
  0
LINE
  5
1140
330
110F
100
AcDbEntity
  8
0
 62
     0
100
AcDbLine
 10
213.00450656746
 20
214.7950960504012
 30
0.0
 11
211.00450656746
 21
216.7950960504013
 31
0.0
  0
LINE
  5
1141
330
110F
100
AcDbEntity
  8
0
 62
     0
100
AcDbLine
 10
211.00450656746
 20
216.7950960504013
 30
0.0
 11
208.0045065674599
 21
219.7950960504013
 31
0.0
  0
LINE
  5
1142
330
110F
100
AcDbEntity
  8
0
 62
     0
100
AcDbLine
 10
213.00450656746
 20
211.2595621444685
 30
0.0
 11
211.00450656746
 21
213.2595621444685
 31
0.0
  0
LINE
  5
1143
330
110F
100
AcDbEntity
  8
0
 62
     0
100
AcDbLine
 10
211.00450656746
 20
213.2595621444685
 30
0.0
 11
208.0045065674599
 21
216.2595621444685
 31
0.0
  0
LINE
  5
1144
330
110F
100
AcDbEntity
  8
0
 62
     0
100
AcDbLine
 10
213.00450656746
 20
207.7240282385357
 30
0.0
 11
211.00450656746
 21
209.7240282385358
 31
0.0
  0
LINE
  5
1145
330
110F
100
AcDbEntity
  8
0
 62
     0
100
AcDbLine
 10
211.00450656746
 20
209.7240282385358
 30
0.0
 11
208.0045065674599
 21
212.7240282385358
 31
0.0
  0
LINE
  5
1146
330
110F
100
AcDbEntity
  8
0
 62
     0
100
AcDbLine
 10
213.00450656746
 20
204.188494332603
 30
0.0
 11
211.00450656746
 21
206.1884943326031
 31
0.0
  0
LINE
  5
1147
330
110F
100
AcDbEntity
  8
0
 62
     0
100
AcDbLine
 10
211.00450656746
 20
206.1884943326031
 30
0.0
 11
208.0045065674599
 21
209.1884943326031
 31
0.0
  0
LINE
  5
1148
330
110F
100
AcDbEntity
  8
0
 62
     0
100
AcDbLine
 10
213.00450656746
 20
200.6529604266702
 30
0.0
 11
211.00450656746
 21
202.6529604266703
 31
0.0
  0
LINE
  5
1149
330
110F
100
AcDbEntity
  8
0
 62
     0
100
AcDbLine
 10
211.00450656746
 20
202.6529604266703
 30
0.0
 11
208.0045065674599
 21
205.6529604266704
 31
0.0
  0
LINE
  5
114A
330
110F
100
AcDbEntity
  8
0
 62
     0
100
AcDbLine
 10
213.00450656746
 20
197.1174265207375
 30
0.0
 11
211.00450656746
 21
199.1174265207376
 31
0.0
  0
LINE
  5
114B
330
110F
100
AcDbEntity
  8
0
 62
     0
100
AcDbLine
 10
211.00450656746
 20
199.1174265207376
 30
0.0
 11
208.0045065674599
 21
202.1174265207376
 31
0.0
  0
LINE
  5
114C
330
110F
100
AcDbEntity
  8
0
 62
     0
100
AcDbLine
 10
213.00450656746
 20
193.5818926148048
 30
0.0
 11
211.0045065674599
 21
195.5818926148048
 31
0.0
  0
LINE
  5
114D
330
110F
100
AcDbEntity
  8
0
 62
     0
100
AcDbLine
 10
211.0045065674599
 20
195.5818926148048
 30
0.0
 11
208.0045065674599
 21
198.5818926148049
 31
0.0
  0
LINE
  5
114E
330
110F
100
AcDbEntity
  8
0
 62
     0
100
AcDbLine
 10
213.00450656746
 20
190.046358708872
 30
0.0
 11
211.0045065674599
 21
192.0463587088721
 31
0.0
  0
LINE
  5
114F
330
110F
100
AcDbEntity
  8
0
 62
     0
100
AcDbLine
 10
211.0045065674599
 20
192.0463587088721
 30
0.0
 11
208.0045065674599
 21
195.0463587088721
 31
0.0
  0
LINE
  5
1150
330
110F
100
AcDbEntity
  8
0
 62
     0
100
AcDbLine
 10
213.00450656746
 20
186.5108248029393
 30
0.0
 11
211.0045065674599
 21
188.5108248029393
 31
0.0
  0
LINE
  5
1151
330
110F
100
AcDbEntity
  8
0
 62
     0
100
AcDbLine
 10
211.0045065674599
 20
188.5108248029393
 30
0.0
 11
208.0045065674599
 21
191.5108248029394
 31
0.0
  0
LINE
  5
1152
330
110F
100
AcDbEntity
  8
0
 62
     0
100
AcDbLine
 10
213.00450656746
 20
182.9752908970066
 30
0.0
 11
211.0045065674599
 21
184.9752908970066
 31
0.0
  0
LINE
  5
1153
330
110F
100
AcDbEntity
  8
0
 62
     0
100
AcDbLine
 10
211.0045065674599
 20
184.9752908970066
 30
0.0
 11
208.0045065674599
 21
187.9752908970066
 31
0.0
  0
LINE
  5
1154
330
110F
100
AcDbEntity
  8
0
 62
     0
100
AcDbLine
 10
213.00450656746
 20
179.4397569910738
 30
0.0
 11
211.0045065674599
 21
181.4397569910738
 31
0.0
  0
LINE
  5
1155
330
110F
100
AcDbEntity
  8
0
 62
     0
100
AcDbLine
 10
211.0045065674599
 20
181.4397569910738
 30
0.0
 11
208.0045065674599
 21
184.4397569910739
 31
0.0
  0
LINE
  5
1156
330
110F
100
AcDbEntity
  8
0
 62
     0
100
AcDbLine
 10
213.00450656746
 20
175.9042230851411
 30
0.0
 11
211.0045065674599
 21
177.9042230851412
 31
0.0
  0
LINE
  5
1157
330
110F
100
AcDbEntity
  8
0
 62
     0
100
AcDbLine
 10
211.0045065674599
 20
177.9042230851412
 30
0.0
 11
208.0045065674599
 21
180.9042230851412
 31
0.0
  0
LINE
  5
1158
330
110F
100
AcDbEntity
  8
0
 62
     0
100
AcDbLine
 10
213.00450656746
 20
172.3686891792083
 30
0.0
 11
211.0045065674599
 21
174.3686891792084
 31
0.0
  0
LINE
  5
1159
330
110F
100
AcDbEntity
  8
0
 62
     0
100
AcDbLine
 10
211.0045065674599
 20
174.3686891792084
 30
0.0
 11
208.0045065674599
 21
177.3686891792084
 31
0.0
  0
LINE
  5
115A
330
110F
100
AcDbEntity
  8
0
 62
     0
100
AcDbLine
 10
213.00450656746
 20
168.8331552732756
 30
0.0
 11
211.0045065674599
 21
170.8331552732757
 31
0.0
  0
LINE
  5
115B
330
110F
100
AcDbEntity
  8
0
 62
     0
100
AcDbLine
 10
211.0045065674599
 20
170.8331552732757
 30
0.0
 11
208.0045065674599
 21
173.8331552732757
 31
0.0
  0
LINE
  5
115C
330
110F
100
AcDbEntity
  8
0
 62
     0
100
AcDbLine
 10
213.00450656746
 20
165.2976213673429
 30
0.0
 11
211.0045065674599
 21
167.2976213673429
 31
0.0
  0
LINE
  5
115D
330
110F
100
AcDbEntity
  8
0
 62
     0
100
AcDbLine
 10
211.0045065674599
 20
167.2976213673429
 30
0.0
 11
208.0045065674599
 21
170.297621367343
 31
0.0
  0
LINE
  5
115E
330
110F
100
AcDbEntity
  8
0
 62
     0
100
AcDbLine
 10
213.00450656746
 20
161.7620874614101
 30
0.0
 11
211.0045065674599
 21
163.7620874614102
 31
0.0
  0
LINE
  5
115F
330
110F
100
AcDbEntity
  8
0
 62
     0
100
AcDbLine
 10
211.0045065674599
 20
163.7620874614102
 30
0.0
 11
208.0045065674599
 21
166.7620874614102
 31
0.0
  0
LINE
  5
1160
330
110F
100
AcDbEntity
  8
0
 62
     0
100
AcDbLine
 10
213.00450656746
 20
158.2265535554774
 30
0.0
 11
211.0045065674599
 21
160.2265535554775
 31
0.0
  0
LINE
  5
1161
330
110F
100
AcDbEntity
  8
0
 62
     0
100
AcDbLine
 10
211.0045065674599
 20
160.2265535554775
 30
0.0
 11
208.0045065674599
 21
163.2265535554775
 31
0.0
  0
LINE
  5
1162
330
110F
100
AcDbEntity
  8
0
 62
     0
100
AcDbLine
 10
213.00450656746
 20
154.6910196495447
 30
0.0
 11
211.0045065674599
 21
156.6910196495447
 31
0.0
  0
LINE
  5
1163
330
110F
100
AcDbEntity
  8
0
 62
     0
100
AcDbLine
 10
211.0045065674599
 20
156.6910196495447
 30
0.0
 11
208.0045065674599
 21
159.6910196495448
 31
0.0
  0
LINE
  5
1164
330
110F
100
AcDbEntity
  8
0
 62
     0
100
AcDbLine
 10
213.00450656746
 20
151.1554857436119
 30
0.0
 11
211.0045065674599
 21
153.155485743612
 31
0.0
  0
LINE
  5
1165
330
110F
100
AcDbEntity
  8
0
 62
     0
100
AcDbLine
 10
211.0045065674599
 20
153.155485743612
 30
0.0
 11
208.0045065674599
 21
156.155485743612
 31
0.0
  0
LINE
  5
1166
330
110F
100
AcDbEntity
  8
0
 62
     0
100
AcDbLine
 10
213.00450656746
 20
147.6199518376792
 30
0.0
 11
211.0045065674599
 21
149.6199518376793
 31
0.0
  0
LINE
  5
1167
330
110F
100
AcDbEntity
  8
0
 62
     0
100
AcDbLine
 10
211.0045065674599
 20
149.6199518376793
 30
0.0
 11
208.0045065674599
 21
152.6199518376793
 31
0.0
  0
LINE
  5
1168
330
110F
100
AcDbEntity
  8
0
 62
     0
100
AcDbLine
 10
213.00450656746
 20
144.0844179317464
 30
0.0
 11
211.0045065674599
 21
146.0844179317465
 31
0.0
  0
LINE
  5
1169
330
110F
100
AcDbEntity
  8
0
 62
     0
100
AcDbLine
 10
211.0045065674599
 20
146.0844179317465
 30
0.0
 11
208.0045065674599
 21
149.0844179317466
 31
0.0
  0
LINE
  5
116A
330
110F
100
AcDbEntity
  8
0
 62
     0
100
AcDbLine
 10
213.00450656746
 20
140.5488840258137
 30
0.0
 11
211.0045065674599
 21
142.5488840258138
 31
0.0
  0
LINE
  5
116B
330
110F
100
AcDbEntity
  8
0
 62
     0
100
AcDbLine
 10
211.0045065674599
 20
142.5488840258138
 30
0.0
 11
208.0045065674599
 21
145.5488840258138
 31
0.0
  0
LINE
  5
116C
330
110F
100
AcDbEntity
  8
0
 62
     0
100
AcDbLine
 10
212.8859059731473
 20
137.1319507141936
 30
0.0
 11
211.0045065674599
 21
139.013350119881
 31
0.0
  0
LINE
  5
116D
330
110F
100
AcDbEntity
  8
0
 62
     0
100
AcDbLine
 10
211.0045065674599
 20
139.013350119881
 30
0.0
 11
208.0045065674599
 21
142.0133501198811
 31
0.0
  0
LINE
  5
116E
330
110F
100
AcDbEntity
  8
0
 62
     0
100
AcDbLine
 10
209.3503720672146
 20
137.1319507141936
 30
0.0
 11
208.0045065674599
 21
138.4778162139483
 31
0.0
  0
LINE
  5
116F
330
110F
100
AcDbEntity
  8
0
 62
     0
100
AcDbLine
 10
320.0045065674599
 20
164.3636385453251
 30
0.0
 11
317.00450656746
 21
167.363638545325
 31
0.0
  0
LINE
  5
1170
330
110F
100
AcDbEntity
  8
0
 62
     0
100
AcDbLine
 10
211.00450656746
 20
273.363638545325
 30
0.0
 11
208.00450656746
 21
276.3636385453251
 31
0.0
  0
LINE
  5
1171
330
110F
100
AcDbEntity
  8
0
 62
     0
100
AcDbLine
 10
317.00450656746
 20
167.363638545325
 30
0.0
 11
315.00450656746
 21
169.363638545325
 31
0.0
  0
LINE
  5
1172
330
110F
100
AcDbEntity
  8
0
 62
     0
100
AcDbLine
 10
213.00450656746
 20
271.363638545325
 30
0.0
 11
211.00450656746
 21
273.363638545325
 31
0.0
  0
LINE
  5
1173
330
110F
100
AcDbEntity
  8
0
 62
     0
100
AcDbLine
 10
320.0045065674599
 20
167.8991724512578
 30
0.0
 11
317.00450656746
 21
170.8991724512577
 31
0.0
  0
LINE
  5
1174
330
110F
100
AcDbEntity
  8
0
 62
     0
100
AcDbLine
 10
211.00450656746
 20
276.8991724512578
 30
0.0
 11
208.00450656746
 21
279.8991724512578
 31
0.0
  0
LINE
  5
1175
330
110F
100
AcDbEntity
  8
0
 62
     0
100
AcDbLine
 10
317.00450656746
 20
170.8991724512577
 30
0.0
 11
315.00450656746
 21
172.8991724512577
 31
0.0
  0
LINE
  5
1176
330
110F
100
AcDbEntity
  8
0
 62
     0
100
AcDbLine
 10
213.00450656746
 20
274.8991724512578
 30
0.0
 11
211.00450656746
 21
276.8991724512578
 31
0.0
  0
LINE
  5
1177
330
110F
100
AcDbEntity
  8
0
 62
     0
100
AcDbLine
 10
320.0045065674599
 20
171.4347063571906
 30
0.0
 11
317.00450656746
 21
174.4347063571905
 31
0.0
  0
LINE
  5
1178
330
110F
100
AcDbEntity
  8
0
 62
     0
100
AcDbLine
 10
211.00450656746
 20
280.4347063571905
 30
0.0
 11
208.00450656746
 21
283.4347063571905
 31
0.0
  0
LINE
  5
1179
330
110F
100
AcDbEntity
  8
0
 62
     0
100
AcDbLine
 10
317.00450656746
 20
174.4347063571905
 30
0.0
 11
315.00450656746
 21
176.4347063571905
 31
0.0
  0
LINE
  5
117A
330
110F
100
AcDbEntity
  8
0
 62
     0
100
AcDbLine
 10
213.00450656746
 20
278.4347063571905
 30
0.0
 11
211.00450656746
 21
280.4347063571905
 31
0.0
  0
LINE
  5
117B
330
110F
100
AcDbEntity
  8
0
 62
     0
100
AcDbLine
 10
320.0045065674599
 20
174.9702402631233
 30
0.0
 11
317.00450656746
 21
177.9702402631232
 31
0.0
  0
LINE
  5
117C
330
110F
100
AcDbEntity
  8
0
 62
     0
100
AcDbLine
 10
211.00450656746
 20
283.9702402631232
 30
0.0
 11
208.00450656746
 21
286.9702402631233
 31
0.0
  0
LINE
  5
117D
330
110F
100
AcDbEntity
  8
0
 62
     0
100
AcDbLine
 10
317.00450656746
 20
177.9702402631232
 30
0.0
 11
315.00450656746
 21
179.9702402631232
 31
0.0
  0
LINE
  5
117E
330
110F
100
AcDbEntity
  8
0
 62
     0
100
AcDbLine
 10
213.00450656746
 20
281.9702402631232
 30
0.0
 11
211.00450656746
 21
283.9702402631232
 31
0.0
  0
LINE
  5
117F
330
110F
100
AcDbEntity
  8
0
 62
     0
100
AcDbLine
 10
320.0045065674599
 20
178.505774169056
 30
0.0
 11
317.00450656746
 21
181.505774169056
 31
0.0
  0
LINE
  5
1180
330
110F
100
AcDbEntity
  8
0
 62
     0
100
AcDbLine
 10
211.00450656746
 20
287.505774169056
 30
0.0
 11
208.00450656746
 21
290.505774169056
 31
0.0
  0
LINE
  5
1181
330
110F
100
AcDbEntity
  8
0
 62
     0
100
AcDbLine
 10
317.00450656746
 20
181.505774169056
 30
0.0
 11
315.00450656746
 21
183.505774169056
 31
0.0
  0
LINE
  5
1182
330
110F
100
AcDbEntity
  8
0
 62
     0
100
AcDbLine
 10
213.00450656746
 20
285.505774169056
 30
0.0
 11
211.00450656746
 21
287.505774169056
 31
0.0
  0
LINE
  5
1183
330
110F
100
AcDbEntity
  8
0
 62
     0
100
AcDbLine
 10
320.0045065674599
 20
182.0413080749888
 30
0.0
 11
317.00450656746
 21
185.0413080749887
 31
0.0
  0
LINE
  5
1184
330
110F
100
AcDbEntity
  8
0
 62
     0
100
AcDbLine
 10
211.00450656746
 20
291.0413080749887
 30
0.0
 11
208.00450656746
 21
294.0413080749887
 31
0.0
  0
LINE
  5
1185
330
110F
100
AcDbEntity
  8
0
 62
     0
100
AcDbLine
 10
317.00450656746
 20
185.0413080749887
 30
0.0
 11
315.00450656746
 21
187.0413080749887
 31
0.0
  0
LINE
  5
1186
330
110F
100
AcDbEntity
  8
0
 62
     0
100
AcDbLine
 10
213.00450656746
 20
289.0413080749887
 30
0.0
 11
211.00450656746
 21
291.0413080749887
 31
0.0
  0
LINE
  5
1187
330
110F
100
AcDbEntity
  8
0
 62
     0
100
AcDbLine
 10
320.0045065674599
 20
185.5768419809215
 30
0.0
 11
317.00450656746
 21
188.5768419809214
 31
0.0
  0
LINE
  5
1188
330
110F
100
AcDbEntity
  8
0
 62
     0
100
AcDbLine
 10
211.00450656746
 20
294.5768419809215
 30
0.0
 11
208.00450656746
 21
297.5768419809215
 31
0.0
  0
LINE
  5
1189
330
110F
100
AcDbEntity
  8
0
 62
     0
100
AcDbLine
 10
317.00450656746
 20
188.5768419809214
 30
0.0
 11
315.00450656746
 21
190.5768419809214
 31
0.0
  0
LINE
  5
118A
330
110F
100
AcDbEntity
  8
0
 62
     0
100
AcDbLine
 10
213.00450656746
 20
292.5768419809215
 30
0.0
 11
211.00450656746
 21
294.5768419809215
 31
0.0
  0
LINE
  5
118B
330
110F
100
AcDbEntity
  8
0
 62
     0
100
AcDbLine
 10
320.0045065674599
 20
189.1123758868543
 30
0.0
 11
317.00450656746
 21
192.1123758868542
 31
0.0
  0
LINE
  5
118C
330
110F
100
AcDbEntity
  8
0
 62
     0
100
AcDbLine
 10
211.00450656746
 20
298.1123758868542
 30
0.0
 11
208.00450656746
 21
301.1123758868542
 31
0.0
  0
LINE
  5
118D
330
110F
100
AcDbEntity
  8
0
 62
     0
100
AcDbLine
 10
317.00450656746
 20
192.1123758868542
 30
0.0
 11
315.00450656746
 21
194.1123758868542
 31
0.0
  0
LINE
  5
118E
330
110F
100
AcDbEntity
  8
0
 62
     0
100
AcDbLine
 10
213.00450656746
 20
296.1123758868542
 30
0.0
 11
211.00450656746
 21
298.1123758868542
 31
0.0
  0
LINE
  5
118F
330
110F
100
AcDbEntity
  8
0
 62
     0
100
AcDbLine
 10
320.0045065674599
 20
192.647909792787
 30
0.0
 11
317.00450656746
 21
195.6479097927869
 31
0.0
  0
LINE
  5
1190
330
110F
100
AcDbEntity
  8
0
 62
     0
100
AcDbLine
 10
211.00450656746
 20
301.6479097927869
 30
0.0
 11
210.5204656460534
 21
302.1319507141936
 31
0.0
  0
LINE
  5
1191
330
110F
100
AcDbEntity
  8
0
 62
     0
100
AcDbLine
 10
317.00450656746
 20
195.6479097927869
 30
0.0
 11
315.00450656746
 21
197.6479097927869
 31
0.0
  0
LINE
  5
1192
330
110F
100
AcDbEntity
  8
0
 62
     0
100
AcDbLine
 10
213.00450656746
 20
299.647909792787
 30
0.0
 11
211.00450656746
 21
301.6479097927869
 31
0.0
  0
LINE
  5
1193
330
110F
100
AcDbEntity
  8
0
 62
     0
100
AcDbLine
 10
320.0045065674599
 20
196.1834436987197
 30
0.0
 11
317.00450656746
 21
199.1834436987196
 31
0.0
  0
LINE
  5
1194
330
110F
100
AcDbEntity
  8
0
 62
     0
100
AcDbLine
 10
317.00450656746
 20
199.1834436987196
 30
0.0
 11
315.00450656746
 21
201.1834436987196
 31
0.0
  0
LINE
  5
1195
330
110F
100
AcDbEntity
  8
0
 62
     0
100
AcDbLine
 10
320.0045065674599
 20
199.7189776046524
 30
0.0
 11
317.00450656746
 21
202.7189776046524
 31
0.0
  0
LINE
  5
1196
330
110F
100
AcDbEntity
  8
0
 62
     0
100
AcDbLine
 10
317.00450656746
 20
202.7189776046524
 30
0.0
 11
315.00450656746
 21
204.7189776046524
 31
0.0
  0
LINE
  5
1197
330
110F
100
AcDbEntity
  8
0
 62
     0
100
AcDbLine
 10
320.0045065674599
 20
203.2545115105852
 30
0.0
 11
317.00450656746
 21
206.2545115105851
 31
0.0
  0
LINE
  5
1198
330
110F
100
AcDbEntity
  8
0
 62
     0
100
AcDbLine
 10
317.00450656746
 20
206.2545115105851
 30
0.0
 11
315.00450656746
 21
208.2545115105851
 31
0.0
  0
LINE
  5
1199
330
110F
100
AcDbEntity
  8
0
 62
     0
100
AcDbLine
 10
320.0045065674599
 20
206.7900454165179
 30
0.0
 11
317.00450656746
 21
209.7900454165179
 31
0.0
  0
LINE
  5
119A
330
110F
100
AcDbEntity
  8
0
 62
     0
100
AcDbLine
 10
317.00450656746
 20
209.7900454165179
 30
0.0
 11
315.00450656746
 21
211.7900454165179
 31
0.0
  0
LINE
  5
119B
330
110F
100
AcDbEntity
  8
0
 62
     0
100
AcDbLine
 10
320.0045065674599
 20
210.3255793224507
 30
0.0
 11
317.00450656746
 21
213.3255793224506
 31
0.0
  0
LINE
  5
119C
330
110F
100
AcDbEntity
  8
0
 62
     0
100
AcDbLine
 10
317.00450656746
 20
213.3255793224506
 30
0.0
 11
315.00450656746
 21
215.3255793224506
 31
0.0
  0
LINE
  5
119D
330
110F
100
AcDbEntity
  8
0
 62
     0
100
AcDbLine
 10
320.0045065674599
 20
213.8611132283834
 30
0.0
 11
317.00450656746
 21
216.8611132283833
 31
0.0
  0
LINE
  5
119E
330
110F
100
AcDbEntity
  8
0
 62
     0
100
AcDbLine
 10
317.00450656746
 20
216.8611132283833
 30
0.0
 11
315.00450656746
 21
218.8611132283833
 31
0.0
  0
LINE
  5
119F
330
110F
100
AcDbEntity
  8
0
 62
     0
100
AcDbLine
 10
320.0045065674599
 20
217.3966471343161
 30
0.0
 11
317.00450656746
 21
220.3966471343161
 31
0.0
  0
LINE
  5
11A0
330
110F
100
AcDbEntity
  8
0
 62
     0
100
AcDbLine
 10
317.00450656746
 20
220.3966471343161
 30
0.0
 11
315.00450656746
 21
222.3966471343161
 31
0.0
  0
LINE
  5
11A1
330
110F
100
AcDbEntity
  8
0
 62
     0
100
AcDbLine
 10
320.0045065674599
 20
220.9321810402489
 30
0.0
 11
317.00450656746
 21
223.9321810402488
 31
0.0
  0
LINE
  5
11A2
330
110F
100
AcDbEntity
  8
0
 62
     0
100
AcDbLine
 10
317.00450656746
 20
223.9321810402488
 30
0.0
 11
315.00450656746
 21
225.9321810402488
 31
0.0
  0
LINE
  5
11A3
330
110F
100
AcDbEntity
  8
0
 62
     0
100
AcDbLine
 10
320.0045065674599
 20
224.4677149461816
 30
0.0
 11
317.00450656746
 21
227.4677149461815
 31
0.0
  0
LINE
  5
11A4
330
110F
100
AcDbEntity
  8
0
 62
     0
100
AcDbLine
 10
317.00450656746
 20
227.4677149461815
 30
0.0
 11
315.00450656746
 21
229.4677149461815
 31
0.0
  0
LINE
  5
11A5
330
110F
100
AcDbEntity
  8
0
 62
     0
100
AcDbLine
 10
320.0045065674599
 20
228.0032488521143
 30
0.0
 11
317.00450656746
 21
231.0032488521143
 31
0.0
  0
LINE
  5
11A6
330
110F
100
AcDbEntity
  8
0
 62
     0
100
AcDbLine
 10
317.00450656746
 20
231.0032488521143
 30
0.0
 11
315.00450656746
 21
233.0032488521143
 31
0.0
  0
LINE
  5
11A7
330
110F
100
AcDbEntity
  8
0
 62
     0
100
AcDbLine
 10
320.0045065674599
 20
231.5387827580471
 30
0.0
 11
317.00450656746
 21
234.538782758047
 31
0.0
  0
LINE
  5
11A8
330
110F
100
AcDbEntity
  8
0
 62
     0
100
AcDbLine
 10
317.00450656746
 20
234.538782758047
 30
0.0
 11
315.00450656746
 21
236.538782758047
 31
0.0
  0
LINE
  5
11A9
330
110F
100
AcDbEntity
  8
0
 62
     0
100
AcDbLine
 10
320.0045065674599
 20
235.0743166639798
 30
0.0
 11
317.00450656746
 21
238.0743166639798
 31
0.0
  0
LINE
  5
11AA
330
110F
100
AcDbEntity
  8
0
 62
     0
100
AcDbLine
 10
317.00450656746
 20
238.0743166639798
 30
0.0
 11
315.00450656746
 21
240.0743166639798
 31
0.0
  0
LINE
  5
11AB
330
110F
100
AcDbEntity
  8
0
 62
     0
100
AcDbLine
 10
320.0045065674599
 20
238.6098505699125
 30
0.0
 11
317.00450656746
 21
241.6098505699125
 31
0.0
  0
LINE
  5
11AC
330
110F
100
AcDbEntity
  8
0
 62
     0
100
AcDbLine
 10
317.00450656746
 20
241.6098505699125
 30
0.0
 11
315.00450656746
 21
243.6098505699125
 31
0.0
  0
LINE
  5
11AD
330
110F
100
AcDbEntity
  8
0
 62
     0
100
AcDbLine
 10
320.0045065674599
 20
242.1453844758453
 30
0.0
 11
317.00450656746
 21
245.1453844758452
 31
0.0
  0
LINE
  5
11AE
330
110F
100
AcDbEntity
  8
0
 62
     0
100
AcDbLine
 10
317.00450656746
 20
245.1453844758452
 30
0.0
 11
315.00450656746
 21
247.1453844758452
 31
0.0
  0
LINE
  5
11AF
330
110F
100
AcDbEntity
  8
0
 62
     0
100
AcDbLine
 10
320.0045065674599
 20
245.680918381778
 30
0.0
 11
317.00450656746
 21
248.680918381778
 31
0.0
  0
LINE
  5
11B0
330
110F
100
AcDbEntity
  8
0
 62
     0
100
AcDbLine
 10
317.00450656746
 20
248.680918381778
 30
0.0
 11
315.00450656746
 21
250.680918381778
 31
0.0
  0
LINE
  5
11B1
330
110F
100
AcDbEntity
  8
0
 62
     0
100
AcDbLine
 10
320.0045065674599
 20
249.2164522877108
 30
0.0
 11
317.00450656746
 21
252.2164522877107
 31
0.0
  0
LINE
  5
11B2
330
110F
100
AcDbEntity
  8
0
 62
     0
100
AcDbLine
 10
317.00450656746
 20
252.2164522877107
 30
0.0
 11
315.00450656746
 21
254.2164522877107
 31
0.0
  0
LINE
  5
11B3
330
110F
100
AcDbEntity
  8
0
 62
     0
100
AcDbLine
 10
320.0045065674599
 20
252.7519861936435
 30
0.0
 11
317.00450656746
 21
255.7519861936435
 31
0.0
  0
LINE
  5
11B4
330
110F
100
AcDbEntity
  8
0
 62
     0
100
AcDbLine
 10
317.00450656746
 20
255.7519861936435
 30
0.0
 11
315.00450656746
 21
257.7519861936435
 31
0.0
  0
LINE
  5
11B5
330
110F
100
AcDbEntity
  8
0
 62
     0
100
AcDbLine
 10
320.0045065674599
 20
256.2875200995762
 30
0.0
 11
317.00450656746
 21
259.2875200995762
 31
0.0
  0
LINE
  5
11B6
330
110F
100
AcDbEntity
  8
0
 62
     0
100
AcDbLine
 10
317.00450656746
 20
259.2875200995762
 30
0.0
 11
315.00450656746
 21
261.2875200995762
 31
0.0
  0
LINE
  5
11B7
330
110F
100
AcDbEntity
  8
0
 62
     0
100
AcDbLine
 10
320.0045065674599
 20
259.823054005509
 30
0.0
 11
317.00450656746
 21
262.8230540055089
 31
0.0
  0
LINE
  5
11B8
330
110F
100
AcDbEntity
  8
0
 62
     0
100
AcDbLine
 10
317.00450656746
 20
262.8230540055089
 30
0.0
 11
315.00450656746
 21
264.8230540055089
 31
0.0
  0
LINE
  5
11B9
330
110F
100
AcDbEntity
  8
0
 62
     0
100
AcDbLine
 10
320.0045065674599
 20
263.3585879114417
 30
0.0
 11
317.00450656746
 21
266.3585879114417
 31
0.0
  0
LINE
  5
11BA
330
110F
100
AcDbEntity
  8
0
 62
     0
100
AcDbLine
 10
317.00450656746
 20
266.3585879114417
 30
0.0
 11
315.00450656746
 21
268.3585879114417
 31
0.0
  0
LINE
  5
11BB
330
110F
100
AcDbEntity
  8
0
 62
     0
100
AcDbLine
 10
320.0045065674599
 20
266.8941218173744
 30
0.0
 11
317.00450656746
 21
269.8941218173744
 31
0.0
  0
LINE
  5
11BC
330
110F
100
AcDbEntity
  8
0
 62
     0
100
AcDbLine
 10
317.00450656746
 20
269.8941218173744
 30
0.0
 11
315.00450656746
 21
271.8941218173744
 31
0.0
  0
LINE
  5
11BD
330
110F
100
AcDbEntity
  8
0
 62
     0
100
AcDbLine
 10
320.0045065674599
 20
270.4296557233072
 30
0.0
 11
317.00450656746
 21
273.4296557233071
 31
0.0
  0
LINE
  5
11BE
330
110F
100
AcDbEntity
  8
0
 62
     0
100
AcDbLine
 10
317.00450656746
 20
273.4296557233071
 30
0.0
 11
315.00450656746
 21
275.4296557233071
 31
0.0
  0
LINE
  5
11BF
330
110F
100
AcDbEntity
  8
0
 62
     0
100
AcDbLine
 10
320.0045065674599
 20
273.9651896292399
 30
0.0
 11
317.00450656746
 21
276.9651896292399
 31
0.0
  0
LINE
  5
11C0
330
110F
100
AcDbEntity
  8
0
 62
     0
100
AcDbLine
 10
317.00450656746
 20
276.9651896292399
 30
0.0
 11
315.00450656746
 21
278.9651896292399
 31
0.0
  0
LINE
  5
11C1
330
110F
100
AcDbEntity
  8
0
 62
     0
100
AcDbLine
 10
320.0045065674599
 20
277.5007235351726
 30
0.0
 11
317.00450656746
 21
280.5007235351726
 31
0.0
  0
LINE
  5
11C2
330
110F
100
AcDbEntity
  8
0
 62
     0
100
AcDbLine
 10
317.00450656746
 20
280.5007235351726
 30
0.0
 11
315.00450656746
 21
282.5007235351726
 31
0.0
  0
LINE
  5
11C3
330
110F
100
AcDbEntity
  8
0
 62
     0
100
AcDbLine
 10
320.00450656746
 20
281.0362574411054
 30
0.0
 11
317.00450656746
 21
284.0362574411054
 31
0.0
  0
LINE
  5
11C4
330
110F
100
AcDbEntity
  8
0
 62
     0
100
AcDbLine
 10
317.00450656746
 20
284.0362574411054
 30
0.0
 11
315.00450656746
 21
286.0362574411053
 31
0.0
  0
LINE
  5
11C5
330
110F
100
AcDbEntity
  8
0
 62
     0
100
AcDbLine
 10
320.00450656746
 20
284.5717913470381
 30
0.0
 11
317.00450656746
 21
287.5717913470381
 31
0.0
  0
LINE
  5
11C6
330
110F
100
AcDbEntity
  8
0
 62
     0
100
AcDbLine
 10
317.00450656746
 20
287.5717913470381
 30
0.0
 11
315.00450656746
 21
289.5717913470381
 31
0.0
  0
LINE
  5
11C7
330
110F
100
AcDbEntity
  8
0
 62
     0
100
AcDbLine
 10
320.00450656746
 20
288.1073252529708
 30
0.0
 11
317.00450656746
 21
291.1073252529708
 31
0.0
  0
LINE
  5
11C8
330
110F
100
AcDbEntity
  8
0
 62
     0
100
AcDbLine
 10
317.00450656746
 20
291.1073252529708
 30
0.0
 11
315.00450656746
 21
293.1073252529708
 31
0.0
  0
LINE
  5
11C9
330
110F
100
AcDbEntity
  8
0
 62
     0
100
AcDbLine
 10
320.00450656746
 20
291.6428591589036
 30
0.0
 11
317.00450656746
 21
294.6428591589036
 31
0.0
  0
LINE
  5
11CA
330
110F
100
AcDbEntity
  8
0
 62
     0
100
AcDbLine
 10
317.00450656746
 20
294.6428591589036
 30
0.0
 11
315.00450656746
 21
296.6428591589036
 31
0.0
  0
LINE
  5
11CB
330
110F
100
AcDbEntity
  8
0
 62
     0
100
AcDbLine
 10
320.00450656746
 20
295.1783930648363
 30
0.0
 11
317.00450656746
 21
298.1783930648363
 31
0.0
  0
LINE
  5
11CC
330
110F
100
AcDbEntity
  8
0
 62
     0
100
AcDbLine
 10
317.00450656746
 20
298.1783930648363
 30
0.0
 11
315.00450656746
 21
300.1783930648362
 31
0.0
  0
LINE
  5
11CD
330
110F
100
AcDbEntity
  8
0
 62
     0
100
AcDbLine
 10
320.00450656746
 20
298.7139269707691
 30
0.0
 11
317.00450656746
 21
301.7139269707691
 31
0.0
  0
LINE
  5
11CE
330
110F
100
AcDbEntity
  8
0
 62
     0
100
AcDbLine
 10
317.00450656746
 20
301.7139269707691
 30
0.0
 11
316.5864828240355
 21
302.1319507141936
 31
0.0
  0
LINE
  5
11CF
330
110F
100
AcDbEntity
  8
0
 62
     0
100
AcDbLine
 10
208.0045065674599
 20
165.578099696267
 30
0.0
 11
211.0045065674599
 21
168.5780996962671
 31
0.0
  0
LINE
  5
11D0
330
110F
100
AcDbEntity
  8
0
 62
     0
100
AcDbLine
 10
317.00450656746
 20
274.5780996962671
 30
0.0
 11
320.00450656746
 21
277.5780996962672
 31
0.0
  0
LINE
  5
11D1
330
110F
100
AcDbEntity
  8
0
 62
     0
100
AcDbLine
 10
211.0045065674599
 20
168.5780996962671
 30
0.0
 11
213.00450656746
 21
170.5780996962671
 31
0.0
  0
LINE
  5
11D2
330
110F
100
AcDbEntity
  8
0
 62
     0
100
AcDbLine
 10
315.00450656746
 20
272.5780996962672
 30
0.0
 11
317.00450656746
 21
274.5780996962671
 31
0.0
  0
LINE
  5
11D3
330
110F
100
AcDbEntity
  8
0
 62
     0
100
AcDbLine
 10
208.0045065674599
 20
162.0425657903343
 30
0.0
 11
211.0045065674599
 21
165.0425657903343
 31
0.0
  0
LINE
  5
11D4
330
110F
100
AcDbEntity
  8
0
 62
     0
100
AcDbLine
 10
317.00450656746
 20
271.0425657903344
 30
0.0
 11
320.00450656746
 21
274.0425657903344
 31
0.0
  0
LINE
  5
11D5
330
110F
100
AcDbEntity
  8
0
 62
     0
100
AcDbLine
 10
211.0045065674599
 20
165.0425657903343
 30
0.0
 11
213.00450656746
 21
167.0425657903344
 31
0.0
  0
LINE
  5
11D6
330
110F
100
AcDbEntity
  8
0
 62
     0
100
AcDbLine
 10
315.00450656746
 20
269.0425657903344
 30
0.0
 11
317.00450656746
 21
271.0425657903344
 31
0.0
  0
LINE
  5
11D7
330
110F
100
AcDbEntity
  8
0
 62
     0
100
AcDbLine
 10
208.0045065674599
 20
158.5070318844015
 30
0.0
 11
211.0045065674599
 21
161.5070318844016
 31
0.0
  0
LINE
  5
11D8
330
110F
100
AcDbEntity
  8
0
 62
     0
100
AcDbLine
 10
317.00450656746
 20
267.5070318844017
 30
0.0
 11
320.00450656746
 21
270.5070318844017
 31
0.0
  0
LINE
  5
11D9
330
110F
100
AcDbEntity
  8
0
 62
     0
100
AcDbLine
 10
211.0045065674599
 20
161.5070318844016
 30
0.0
 11
213.00450656746
 21
163.5070318844016
 31
0.0
  0
LINE
  5
11DA
330
110F
100
AcDbEntity
  8
0
 62
     0
100
AcDbLine
 10
315.00450656746
 20
265.5070318844017
 30
0.0
 11
317.00450656746
 21
267.5070318844017
 31
0.0
  0
LINE
  5
11DB
330
110F
100
AcDbEntity
  8
0
 62
     0
100
AcDbLine
 10
208.0045065674599
 20
154.9714979784688
 30
0.0
 11
211.0045065674599
 21
157.9714979784688
 31
0.0
  0
LINE
  5
11DC
330
110F
100
AcDbEntity
  8
0
 62
     0
100
AcDbLine
 10
317.00450656746
 20
263.9714979784689
 30
0.0
 11
320.00450656746
 21
266.9714979784689
 31
0.0
  0
LINE
  5
11DD
330
110F
100
AcDbEntity
  8
0
 62
     0
100
AcDbLine
 10
211.0045065674599
 20
157.9714979784688
 30
0.0
 11
213.00450656746
 21
159.9714979784689
 31
0.0
  0
LINE
  5
11DE
330
110F
100
AcDbEntity
  8
0
 62
     0
100
AcDbLine
 10
315.00450656746
 20
261.9714979784689
 30
0.0
 11
317.00450656746
 21
263.9714979784689
 31
0.0
  0
LINE
  5
11DF
330
110F
100
AcDbEntity
  8
0
 62
     0
100
AcDbLine
 10
208.0045065674599
 20
151.4359640725361
 30
0.0
 11
211.0045065674599
 21
154.4359640725361
 31
0.0
  0
LINE
  5
11E0
330
110F
100
AcDbEntity
  8
0
 62
     0
100
AcDbLine
 10
317.00450656746
 20
260.4359640725362
 30
0.0
 11
320.00450656746
 21
263.4359640725362
 31
0.0
  0
LINE
  5
11E1
330
110F
100
AcDbEntity
  8
0
 62
     0
100
AcDbLine
 10
211.0045065674599
 20
154.4359640725361
 30
0.0
 11
213.00450656746
 21
156.4359640725362
 31
0.0
  0
LINE
  5
11E2
330
110F
100
AcDbEntity
  8
0
 62
     0
100
AcDbLine
 10
315.00450656746
 20
258.4359640725363
 30
0.0
 11
317.00450656746
 21
260.4359640725362
 31
0.0
  0
LINE
  5
11E3
330
110F
100
AcDbEntity
  8
0
 62
     0
100
AcDbLine
 10
208.0045065674599
 20
147.9004301666033
 30
0.0
 11
211.0045065674599
 21
150.9004301666033
 31
0.0
  0
LINE
  5
11E4
330
110F
100
AcDbEntity
  8
0
 62
     0
100
AcDbLine
 10
317.00450656746
 20
256.9004301666035
 30
0.0
 11
320.00450656746
 21
259.9004301666034
 31
0.0
  0
LINE
  5
11E5
330
110F
100
AcDbEntity
  8
0
 62
     0
100
AcDbLine
 10
211.0045065674599
 20
150.9004301666033
 30
0.0
 11
213.00450656746
 21
152.9004301666034
 31
0.0
  0
LINE
  5
11E6
330
110F
100
AcDbEntity
  8
0
 62
     0
100
AcDbLine
 10
315.00450656746
 20
254.9004301666035
 30
0.0
 11
317.00450656746
 21
256.9004301666035
 31
0.0
  0
LINE
  5
11E7
330
110F
100
AcDbEntity
  8
0
 62
     0
100
AcDbLine
 10
208.0045065674599
 20
144.3648962606706
 30
0.0
 11
211.0045065674599
 21
147.3648962606706
 31
0.0
  0
LINE
  5
11E8
330
110F
100
AcDbEntity
  8
0
 62
     0
100
AcDbLine
 10
317.00450656746
 20
253.3648962606707
 30
0.0
 11
320.00450656746
 21
256.3648962606707
 31
0.0
  0
LINE
  5
11E9
330
110F
100
AcDbEntity
  8
0
 62
     0
100
AcDbLine
 10
211.0045065674599
 20
147.3648962606706
 30
0.0
 11
213.00450656746
 21
149.3648962606707
 31
0.0
  0
LINE
  5
11EA
330
110F
100
AcDbEntity
  8
0
 62
     0
100
AcDbLine
 10
315.00450656746
 20
251.3648962606708
 30
0.0
 11
317.00450656746
 21
253.3648962606707
 31
0.0
  0
LINE
  5
11EB
330
110F
100
AcDbEntity
  8
0
 62
     0
100
AcDbLine
 10
208.0045065674599
 20
140.8293623547378
 30
0.0
 11
211.0045065674599
 21
143.8293623547379
 31
0.0
  0
LINE
  5
11EC
330
110F
100
AcDbEntity
  8
0
 62
     0
100
AcDbLine
 10
317.00450656746
 20
249.829362354738
 30
0.0
 11
320.00450656746
 21
252.829362354738
 31
0.0
  0
LINE
  5
11ED
330
110F
100
AcDbEntity
  8
0
 62
     0
100
AcDbLine
 10
211.0045065674599
 20
143.8293623547379
 30
0.0
 11
213.00450656746
 21
145.829362354738
 31
0.0
  0
LINE
  5
11EE
330
110F
100
AcDbEntity
  8
0
 62
     0
100
AcDbLine
 10
315.00450656746
 20
247.829362354738
 30
0.0
 11
317.00450656746
 21
249.829362354738
 31
0.0
  0
LINE
  5
11EF
330
110F
100
AcDbEntity
  8
0
 62
     0
100
AcDbLine
 10
208.0045065674599
 20
137.2938284488051
 30
0.0
 11
211.0045065674599
 21
140.2938284488051
 31
0.0
  0
LINE
  5
11F0
330
110F
100
AcDbEntity
  8
0
 62
     0
100
AcDbLine
 10
317.00450656746
 20
246.2938284488052
 30
0.0
 11
320.00450656746
 21
249.2938284488052
 31
0.0
  0
LINE
  5
11F1
330
110F
100
AcDbEntity
  8
0
 62
     0
100
AcDbLine
 10
211.0045065674599
 20
140.2938284488051
 30
0.0
 11
213.00450656746
 21
142.2938284488052
 31
0.0
  0
LINE
  5
11F2
330
110F
100
AcDbEntity
  8
0
 62
     0
100
AcDbLine
 10
315.00450656746
 20
244.2938284488053
 30
0.0
 11
317.00450656746
 21
246.2938284488052
 31
0.0
  0
LINE
  5
11F3
330
110F
100
AcDbEntity
  8
0
 62
     0
100
AcDbLine
 10
211.3781627387811
 20
137.1319507141936
 30
0.0
 11
213.00450656746
 21
138.7582945428725
 31
0.0
  0
LINE
  5
11F4
330
110F
100
AcDbEntity
  8
0
 62
     0
100
AcDbLine
 10
317.00450656746
 20
242.7582945428725
 30
0.0
 11
320.00450656746
 21
245.7582945428725
 31
0.0
  0
LINE
  5
11F5
330
110F
100
AcDbEntity
  8
0
 62
     0
100
AcDbLine
 10
315.00450656746
 20
240.7582945428725
 30
0.0
 11
317.00450656746
 21
242.7582945428725
 31
0.0
  0
LINE
  5
11F6
330
110F
100
AcDbEntity
  8
0
 62
     0
100
AcDbLine
 10
315.00450656746
 20
237.2227606369398
 30
0.0
 11
317.00450656746
 21
239.2227606369398
 31
0.0
  0
LINE
  5
11F7
330
110F
100
AcDbEntity
  8
0
 62
     0
100
AcDbLine
 10
317.00450656746
 20
239.2227606369398
 30
0.0
 11
320.0045065674599
 21
242.2227606369397
 31
0.0
  0
LINE
  5
11F8
330
110F
100
AcDbEntity
  8
0
 62
     0
100
AcDbLine
 10
315.00450656746
 20
233.6872267310071
 30
0.0
 11
317.00450656746
 21
235.687226731007
 31
0.0
  0
LINE
  5
11F9
330
110F
100
AcDbEntity
  8
0
 62
     0
100
AcDbLine
 10
317.00450656746
 20
235.687226731007
 30
0.0
 11
320.0045065674599
 21
238.687226731007
 31
0.0
  0
LINE
  5
11FA
330
110F
100
AcDbEntity
  8
0
 62
     0
100
AcDbLine
 10
315.00450656746
 20
230.1516928250743
 30
0.0
 11
317.00450656746
 21
232.1516928250743
 31
0.0
  0
LINE
  5
11FB
330
110F
100
AcDbEntity
  8
0
 62
     0
100
AcDbLine
 10
317.00450656746
 20
232.1516928250743
 30
0.0
 11
320.0045065674599
 21
235.1516928250743
 31
0.0
  0
LINE
  5
11FC
330
110F
100
AcDbEntity
  8
0
 62
     0
100
AcDbLine
 10
315.00450656746
 20
226.6161589191416
 30
0.0
 11
317.00450656746
 21
228.6161589191415
 31
0.0
  0
LINE
  5
11FD
330
110F
100
AcDbEntity
  8
0
 62
     0
100
AcDbLine
 10
317.00450656746
 20
228.6161589191415
 30
0.0
 11
320.0045065674599
 21
231.6161589191415
 31
0.0
  0
LINE
  5
11FE
330
110F
100
AcDbEntity
  8
0
 62
     0
100
AcDbLine
 10
315.00450656746
 20
223.0806250132089
 30
0.0
 11
317.00450656746
 21
225.0806250132088
 31
0.0
  0
LINE
  5
11FF
330
110F
100
AcDbEntity
  8
0
 62
     0
100
AcDbLine
 10
317.00450656746
 20
225.0806250132088
 30
0.0
 11
320.0045065674599
 21
228.0806250132088
 31
0.0
  0
LINE
  5
1200
330
110F
100
AcDbEntity
  8
0
 62
     0
100
AcDbLine
 10
315.00450656746
 20
219.5450911072761
 30
0.0
 11
317.00450656746
 21
221.5450911072761
 31
0.0
  0
LINE
  5
1201
330
110F
100
AcDbEntity
  8
0
 62
     0
100
AcDbLine
 10
317.00450656746
 20
221.5450911072761
 30
0.0
 11
320.0045065674599
 21
224.5450911072761
 31
0.0
  0
LINE
  5
1202
330
110F
100
AcDbEntity
  8
0
 62
     0
100
AcDbLine
 10
315.00450656746
 20
216.0095572013434
 30
0.0
 11
317.00450656746
 21
218.0095572013434
 31
0.0
  0
LINE
  5
1203
330
110F
100
AcDbEntity
  8
0
 62
     0
100
AcDbLine
 10
317.00450656746
 20
218.0095572013434
 30
0.0
 11
320.0045065674599
 21
221.0095572013433
 31
0.0
  0
LINE
  5
1204
330
110F
100
AcDbEntity
  8
0
 62
     0
100
AcDbLine
 10
315.00450656746
 20
212.4740232954106
 30
0.0
 11
317.00450656746
 21
214.4740232954106
 31
0.0
  0
LINE
  5
1205
330
110F
100
AcDbEntity
  8
0
 62
     0
100
AcDbLine
 10
317.00450656746
 20
214.4740232954106
 30
0.0
 11
320.0045065674599
 21
217.4740232954106
 31
0.0
  0
LINE
  5
1206
330
110F
100
AcDbEntity
  8
0
 62
     0
100
AcDbLine
 10
315.00450656746
 20
208.9384893894779
 30
0.0
 11
317.00450656746
 21
210.9384893894779
 31
0.0
  0
LINE
  5
1207
330
110F
100
AcDbEntity
  8
0
 62
     0
100
AcDbLine
 10
317.00450656746
 20
210.9384893894779
 30
0.0
 11
320.0045065674599
 21
213.9384893894778
 31
0.0
  0
LINE
  5
1208
330
110F
100
AcDbEntity
  8
0
 62
     0
100
AcDbLine
 10
315.00450656746
 20
205.4029554835452
 30
0.0
 11
317.00450656746
 21
207.4029554835451
 31
0.0
  0
LINE
  5
1209
330
110F
100
AcDbEntity
  8
0
 62
     0
100
AcDbLine
 10
317.00450656746
 20
207.4029554835451
 30
0.0
 11
320.0045065674599
 21
210.4029554835451
 31
0.0
  0
LINE
  5
120A
330
110F
100
AcDbEntity
  8
0
 62
     0
100
AcDbLine
 10
315.00450656746
 20
201.8674215776124
 30
0.0
 11
317.00450656746
 21
203.8674215776124
 31
0.0
  0
LINE
  5
120B
330
110F
100
AcDbEntity
  8
0
 62
     0
100
AcDbLine
 10
317.00450656746
 20
203.8674215776124
 30
0.0
 11
320.0045065674599
 21
206.8674215776123
 31
0.0
  0
LINE
  5
120C
330
110F
100
AcDbEntity
  8
0
 62
     0
100
AcDbLine
 10
315.00450656746
 20
198.3318876716797
 30
0.0
 11
317.00450656746
 21
200.3318876716797
 31
0.0
  0
LINE
  5
120D
330
110F
100
AcDbEntity
  8
0
 62
     0
100
AcDbLine
 10
317.00450656746
 20
200.3318876716797
 30
0.0
 11
320.0045065674599
 21
203.3318876716796
 31
0.0
  0
LINE
  5
120E
330
110F
100
AcDbEntity
  8
0
 62
     0
100
AcDbLine
 10
315.00450656746
 20
194.7963537657469
 30
0.0
 11
317.00450656746
 21
196.7963537657469
 31
0.0
  0
LINE
  5
120F
330
110F
100
AcDbEntity
  8
0
 62
     0
100
AcDbLine
 10
317.00450656746
 20
196.7963537657469
 30
0.0
 11
320.0045065674599
 21
199.7963537657468
 31
0.0
  0
LINE
  5
1210
330
110F
100
AcDbEntity
  8
0
 62
     0
100
AcDbLine
 10
315.00450656746
 20
191.2608198598142
 30
0.0
 11
317.00450656746
 21
193.2608198598142
 31
0.0
  0
LINE
  5
1211
330
110F
100
AcDbEntity
  8
0
 62
     0
100
AcDbLine
 10
317.00450656746
 20
193.2608198598142
 30
0.0
 11
320.0045065674599
 21
196.2608198598141
 31
0.0
  0
LINE
  5
1212
330
110F
100
AcDbEntity
  8
0
 62
     0
100
AcDbLine
 10
315.00450656746
 20
187.7252859538814
 30
0.0
 11
317.00450656746
 21
189.7252859538814
 31
0.0
  0
LINE
  5
1213
330
110F
100
AcDbEntity
  8
0
 62
     0
100
AcDbLine
 10
317.00450656746
 20
189.7252859538814
 30
0.0
 11
320.0045065674599
 21
192.7252859538814
 31
0.0
  0
LINE
  5
1214
330
110F
100
AcDbEntity
  8
0
 62
     0
100
AcDbLine
 10
315.00450656746
 20
184.1897520479487
 30
0.0
 11
317.00450656746
 21
186.1897520479487
 31
0.0
  0
LINE
  5
1215
330
110F
100
AcDbEntity
  8
0
 62
     0
100
AcDbLine
 10
317.00450656746
 20
186.1897520479487
 30
0.0
 11
320.0045065674599
 21
189.1897520479486
 31
0.0
  0
LINE
  5
1216
330
110F
100
AcDbEntity
  8
0
 62
     0
100
AcDbLine
 10
315.00450656746
 20
180.654218142016
 30
0.0
 11
317.00450656746
 21
182.6542181420159
 31
0.0
  0
LINE
  5
1217
330
110F
100
AcDbEntity
  8
0
 62
     0
100
AcDbLine
 10
317.00450656746
 20
182.6542181420159
 30
0.0
 11
320.0045065674599
 21
185.6542181420159
 31
0.0
  0
LINE
  5
1218
330
110F
100
AcDbEntity
  8
0
 62
     0
100
AcDbLine
 10
315.00450656746
 20
177.1186842360832
 30
0.0
 11
317.00450656746
 21
179.1186842360832
 31
0.0
  0
LINE
  5
1219
330
110F
100
AcDbEntity
  8
0
 62
     0
100
AcDbLine
 10
317.00450656746
 20
179.1186842360832
 30
0.0
 11
320.0045065674599
 21
182.1186842360831
 31
0.0
  0
LINE
  5
121A
330
110F
100
AcDbEntity
  8
0
 62
     0
100
AcDbLine
 10
315.00450656746
 20
173.5831503301505
 30
0.0
 11
317.00450656746
 21
175.5831503301505
 31
0.0
  0
LINE
  5
121B
330
110F
100
AcDbEntity
  8
0
 62
     0
100
AcDbLine
 10
317.00450656746
 20
175.5831503301505
 30
0.0
 11
320.0045065674599
 21
178.5831503301504
 31
0.0
  0
LINE
  5
121C
330
110F
100
AcDbEntity
  8
0
 62
     0
100
AcDbLine
 10
315.00450656746
 20
170.0476164242177
 30
0.0
 11
317.00450656746
 21
172.0476164242177
 31
0.0
  0
LINE
  5
121D
330
110F
100
AcDbEntity
  8
0
 62
     0
100
AcDbLine
 10
317.00450656746
 20
172.0476164242177
 30
0.0
 11
320.0045065674599
 21
175.0476164242176
 31
0.0
  0
LINE
  5
121E
330
110F
100
AcDbEntity
  8
0
 62
     0
100
AcDbLine
 10
315.00450656746
 20
166.512082518285
 30
0.0
 11
317.00450656746
 21
168.512082518285
 31
0.0
  0
LINE
  5
121F
330
110F
100
AcDbEntity
  8
0
 62
     0
100
AcDbLine
 10
317.00450656746
 20
168.512082518285
 30
0.0
 11
320.0045065674599
 21
171.5120825182849
 31
0.0
  0
LINE
  5
1220
330
110F
100
AcDbEntity
  8
0
 62
     0
100
AcDbLine
 10
315.00450656746
 20
162.9765486123522
 30
0.0
 11
317.00450656746
 21
164.9765486123522
 31
0.0
  0
LINE
  5
1221
330
110F
100
AcDbEntity
  8
0
 62
     0
100
AcDbLine
 10
317.00450656746
 20
164.9765486123522
 30
0.0
 11
320.0045065674599
 21
167.9765486123522
 31
0.0
  0
LINE
  5
1222
330
110F
100
AcDbEntity
  8
0
 62
     0
100
AcDbLine
 10
315.00450656746
 20
159.4410147064195
 30
0.0
 11
317.00450656746
 21
161.4410147064195
 31
0.0
  0
LINE
  5
1223
330
110F
100
AcDbEntity
  8
0
 62
     0
100
AcDbLine
 10
317.00450656746
 20
161.4410147064195
 30
0.0
 11
320.0045065674599
 21
164.4410147064194
 31
0.0
  0
LINE
  5
1224
330
110F
100
AcDbEntity
  8
0
 62
     0
100
AcDbLine
 10
315.00450656746
 20
155.9054808004868
 30
0.0
 11
317.00450656746
 21
157.9054808004868
 31
0.0
  0
LINE
  5
1225
330
110F
100
AcDbEntity
  8
0
 62
     0
100
AcDbLine
 10
317.00450656746
 20
157.9054808004868
 30
0.0
 11
320.0045065674599
 21
160.9054808004867
 31
0.0
  0
LINE
  5
1226
330
110F
100
AcDbEntity
  8
0
 62
     0
100
AcDbLine
 10
315.00450656746
 20
152.369946894554
 30
0.0
 11
317.00450656746
 21
154.369946894554
 31
0.0
  0
LINE
  5
1227
330
110F
100
AcDbEntity
  8
0
 62
     0
100
AcDbLine
 10
317.00450656746
 20
154.369946894554
 30
0.0
 11
320.0045065674599
 21
157.3699468945539
 31
0.0
  0
LINE
  5
1228
330
110F
100
AcDbEntity
  8
0
 62
     0
100
AcDbLine
 10
315.00450656746
 20
148.8344129886213
 30
0.0
 11
317.00450656746
 21
150.8344129886213
 31
0.0
  0
LINE
  5
1229
330
110F
100
AcDbEntity
  8
0
 62
     0
100
AcDbLine
 10
317.00450656746
 20
150.8344129886213
 30
0.0
 11
320.0045065674599
 21
153.8344129886212
 31
0.0
  0
LINE
  5
122A
330
110F
100
AcDbEntity
  8
0
 62
     0
100
AcDbLine
 10
315.00450656746
 20
145.2988790826886
 30
0.0
 11
317.00450656746
 21
147.2988790826886
 31
0.0
  0
LINE
  5
122B
330
110F
100
AcDbEntity
  8
0
 62
     0
100
AcDbLine
 10
317.00450656746
 20
147.2988790826886
 30
0.0
 11
320.0045065674599
 21
150.2988790826885
 31
0.0
  0
LINE
  5
122C
330
110F
100
AcDbEntity
  8
0
 62
     0
100
AcDbLine
 10
315.00450656746
 20
141.7633451767559
 30
0.0
 11
317.00450656746
 21
143.7633451767559
 31
0.0
  0
LINE
  5
122D
330
110F
100
AcDbEntity
  8
0
 62
     0
100
AcDbLine
 10
317.00450656746
 20
143.7633451767559
 30
0.0
 11
320.0045065674599
 21
146.7633451767557
 31
0.0
  0
LINE
  5
122E
330
110F
100
AcDbEntity
  8
0
 62
     0
100
AcDbLine
 10
315.00450656746
 20
138.2278112708231
 30
0.0
 11
317.00450656746
 21
140.2278112708231
 31
0.0
  0
LINE
  5
122F
330
110F
100
AcDbEntity
  8
0
 62
     0
100
AcDbLine
 10
317.00450656746
 20
140.2278112708231
 30
0.0
 11
320.0045065674599
 21
143.227811270823
 31
0.0
  0
LINE
  5
1230
330
110F
100
AcDbEntity
  8
0
 62
     0
100
AcDbLine
 10
317.4441799167632
 20
137.1319507141936
 30
0.0
 11
320.0045065674599
 21
139.6922773648903
 31
0.0
  0
LINE
  5
1231
330
110F
100
AcDbEntity
  8
0
 62
     0
100
AcDbLine
 10
208.0045065674599
 20
169.1136336021997
 30
0.0
 11
211.0045065674599
 21
172.1136336021998
 31
0.0
  0
LINE
  5
1232
330
110F
100
AcDbEntity
  8
0
 62
     0
100
AcDbLine
 10
318.7544657207797
 20
279.8635927555196
 30
0.0
 11
320.00450656746
 21
281.1136336021999
 31
0.0
  0
LINE
  5
1233
330
110F
100
AcDbEntity
  8
0
 62
     0
100
AcDbLine
 10
211.0045065674599
 20
172.1136336021998
 30
0.0
 11
213.00450656746
 21
174.1136336021998
 31
0.0
  0
LINE
  5
1234
330
110F
100
AcDbEntity
  8
0
 62
     0
100
AcDbLine
 10
317.00450656746
 20
278.1136336021999
 30
0.0
 11
318.7544657207797
 21
279.8635927555196
 31
0.0
  0
LINE
  5
1235
330
110F
100
AcDbEntity
  8
0
 62
     0
100
AcDbLine
 10
315.00450656746
 20
276.1136336021999
 30
0.0
 11
317.00450656746
 21
278.1136336021999
 31
0.0
  0
LINE
  5
1236
330
110F
100
AcDbEntity
  8
0
 62
     0
100
AcDbLine
 10
208.0045065674599
 20
172.6491675081325
 30
0.0
 11
211.0045065674599
 21
175.6491675081325
 31
0.0
  0
LINE
  5
1237
330
110F
100
AcDbEntity
  8
0
 62
     0
100
AcDbLine
 10
317.1922447671251
 20
281.8369057077978
 30
0.0
 11
320.00450656746
 21
284.6491675081326
 31
0.0
  0
LINE
  5
1238
330
110F
100
AcDbEntity
  8
0
 62
     0
100
AcDbLine
 10
211.0045065674599
 20
175.6491675081325
 30
0.0
 11
213.00450656746
 21
177.6491675081326
 31
0.0
  0
LINE
  5
1239
330
110F
100
AcDbEntity
  8
0
 62
     0
100
AcDbLine
 10
317.00450656746
 20
281.6491675081326
 30
0.0
 11
317.1922447671251
 21
281.8369057077978
 31
0.0
  0
LINE
  5
123A
330
110F
100
AcDbEntity
  8
0
 62
     0
100
AcDbLine
 10
315.00450656746
 20
279.6491675081327
 30
0.0
 11
317.00450656746
 21
281.6491675081326
 31
0.0
  0
LINE
  5
123B
330
110F
100
AcDbEntity
  8
0
 62
     0
100
AcDbLine
 10
208.0045065674599
 20
176.1847014140653
 30
0.0
 11
211.0045065674599
 21
179.1847014140653
 31
0.0
  0
LINE
  5
123C
330
110F
100
AcDbEntity
  8
0
 62
     0
100
AcDbLine
 10
317.00450656746
 20
285.1847014140653
 30
0.0
 11
320.00450656746
 21
288.1847014140654
 31
0.0
  0
LINE
  5
123D
330
110F
100
AcDbEntity
  8
0
 62
     0
100
AcDbLine
 10
211.0045065674599
 20
179.1847014140653
 30
0.0
 11
213.00450656746
 21
181.1847014140653
 31
0.0
  0
LINE
  5
123E
330
110F
100
AcDbEntity
  8
0
 62
     0
100
AcDbLine
 10
315.6300238134706
 20
283.810218660076
 30
0.0
 11
317.00450656746
 21
285.1847014140653
 31
0.0
  0
LINE
  5
123F
330
110F
100
AcDbEntity
  8
0
 62
     0
100
AcDbLine
 10
315.00450656746
 20
283.1847014140654
 30
0.0
 11
315.6300238134706
 21
283.810218660076
 31
0.0
  0
LINE
  5
1240
330
110F
100
AcDbEntity
  8
0
 62
     0
100
AcDbLine
 10
208.0045065674599
 20
179.720235319998
 30
0.0
 11
211.0045065674599
 21
182.720235319998
 31
0.0
  0
LINE
  5
1241
330
110F
100
AcDbEntity
  8
0
 62
     0
100
AcDbLine
 10
317.00450656746
 20
288.7202353199981
 30
0.0
 11
320.00450656746
 21
291.7202353199981
 31
0.0
  0
LINE
  5
1242
330
110F
100
AcDbEntity
  8
0
 62
     0
100
AcDbLine
 10
211.0045065674599
 20
182.720235319998
 30
0.0
 11
213.00450656746
 21
184.720235319998
 31
0.0
  0
LINE
  5
1243
330
110F
100
AcDbEntity
  8
0
 62
     0
100
AcDbLine
 10
315.00450656746
 20
286.7202353199981
 30
0.0
 11
317.00450656746
 21
288.7202353199981
 31
0.0
  0
LINE
  5
1244
330
110F
100
AcDbEntity
  8
0
 62
     0
100
AcDbLine
 10
208.0045065674599
 20
183.2557692259307
 30
0.0
 11
211.0045065674599
 21
186.2557692259308
 31
0.0
  0
LINE
  5
1245
330
110F
100
AcDbEntity
  8
0
 62
     0
100
AcDbLine
 10
317.00450656746
 20
292.2557692259308
 30
0.0
 11
320.00450656746
 21
295.2557692259309
 31
0.0
  0
LINE
  5
1246
330
110F
100
AcDbEntity
  8
0
 62
     0
100
AcDbLine
 10
211.0045065674599
 20
186.2557692259308
 30
0.0
 11
213.00450656746
 21
188.2557692259308
 31
0.0
  0
LINE
  5
1247
330
110F
100
AcDbEntity
  8
0
 62
     0
100
AcDbLine
 10
315.00450656746
 20
290.2557692259309
 30
0.0
 11
317.00450656746
 21
292.2557692259308
 31
0.0
  0
LINE
  5
1248
330
110F
100
AcDbEntity
  8
0
 62
     0
100
AcDbLine
 10
208.0045065674599
 20
186.7913031318635
 30
0.0
 11
211.0045065674599
 21
189.7913031318635
 31
0.0
  0
LINE
  5
1249
330
110F
100
AcDbEntity
  8
0
 62
     0
100
AcDbLine
 10
317.00450656746
 20
295.7913031318636
 30
0.0
 11
320.00450656746
 21
298.7913031318636
 31
0.0
  0
LINE
  5
124A
330
110F
100
AcDbEntity
  8
0
 62
     0
100
AcDbLine
 10
211.0045065674599
 20
189.7913031318635
 30
0.0
 11
213.00450656746
 21
191.7913031318635
 31
0.0
  0
LINE
  5
124B
330
110F
100
AcDbEntity
  8
0
 62
     0
100
AcDbLine
 10
315.00450656746
 20
293.7913031318636
 30
0.0
 11
317.00450656746
 21
295.7913031318636
 31
0.0
  0
LINE
  5
124C
330
110F
100
AcDbEntity
  8
0
 62
     0
100
AcDbLine
 10
208.0045065674599
 20
190.3268370377962
 30
0.0
 11
211.0045065674599
 21
193.3268370377962
 31
0.0
  0
LINE
  5
124D
330
110F
100
AcDbEntity
  8
0
 62
     0
100
AcDbLine
 10
317.00450656746
 20
299.3268370377963
 30
0.0
 11
319.8096202438573
 21
302.1319507141936
 31
0.0
  0
LINE
  5
124E
330
110F
100
AcDbEntity
  8
0
 62
     0
100
AcDbLine
 10
211.0045065674599
 20
193.3268370377962
 30
0.0
 11
213.00450656746
 21
195.3268370377962
 31
0.0
  0
LINE
  5
124F
330
110F
100
AcDbEntity
  8
0
 62
     0
100
AcDbLine
 10
315.00450656746
 20
297.3268370377963
 30
0.0
 11
317.00450656746
 21
299.3268370377963
 31
0.0
  0
LINE
  5
1250
330
110F
100
AcDbEntity
  8
0
 62
     0
100
AcDbLine
 10
208.0045065674599
 20
193.8623709437289
 30
0.0
 11
211.0045065674599
 21
196.862370943729
 31
0.0
  0
LINE
  5
1251
330
110F
100
AcDbEntity
  8
0
 62
     0
100
AcDbLine
 10
315.00450656746
 20
300.8623709437291
 30
0.0
 11
316.2740863379245
 21
302.1319507141936
 31
0.0
  0
LINE
  5
1252
330
110F
100
AcDbEntity
  8
0
 62
     0
100
AcDbLine
 10
211.0045065674599
 20
196.862370943729
 30
0.0
 11
213.00450656746
 21
198.862370943729
 31
0.0
  0
LINE
  5
1253
330
110F
100
AcDbEntity
  8
0
 62
     0
100
AcDbLine
 10
208.0045065674599
 20
197.3979048496617
 30
0.0
 11
211.0045065674599
 21
200.3979048496617
 31
0.0
  0
LINE
  5
1254
330
110F
100
AcDbEntity
  8
0
 62
     0
100
AcDbLine
 10
211.0045065674599
 20
200.3979048496617
 30
0.0
 11
213.00450656746
 21
202.3979048496618
 31
0.0
  0
LINE
  5
1255
330
110F
100
AcDbEntity
  8
0
 62
     0
100
AcDbLine
 10
208.0045065674599
 20
200.9334387555945
 30
0.0
 11
211.0045065674599
 21
203.9334387555945
 31
0.0
  0
LINE
  5
1256
330
110F
100
AcDbEntity
  8
0
 62
     0
100
AcDbLine
 10
211.0045065674599
 20
203.9334387555945
 30
0.0
 11
213.00450656746
 21
205.9334387555945
 31
0.0
  0
LINE
  5
1257
330
110F
100
AcDbEntity
  8
0
 62
     0
100
AcDbLine
 10
208.0045065674599
 20
204.4689726615272
 30
0.0
 11
211.0045065674599
 21
207.4689726615272
 31
0.0
  0
LINE
  5
1258
330
110F
100
AcDbEntity
  8
0
 62
     0
100
AcDbLine
 10
211.0045065674599
 20
207.4689726615272
 30
0.0
 11
213.00450656746
 21
209.4689726615272
 31
0.0
  0
LINE
  5
1259
330
110F
100
AcDbEntity
  8
0
 62
     0
100
AcDbLine
 10
208.0045065674599
 20
208.0045065674599
 30
0.0
 11
211.00450656746
 21
211.00450656746
 31
0.0
  0
LINE
  5
125A
330
110F
100
AcDbEntity
  8
0
 62
     0
100
AcDbLine
 10
211.00450656746
 20
211.00450656746
 30
0.0
 11
213.00450656746
 21
213.00450656746
 31
0.0
  0
LINE
  5
125B
330
110F
100
AcDbEntity
  8
0
 62
     0
100
AcDbLine
 10
208.0045065674599
 20
211.5400404733926
 30
0.0
 11
211.00450656746
 21
214.5400404733927
 31
0.0
  0
LINE
  5
125C
330
110F
100
AcDbEntity
  8
0
 62
     0
100
AcDbLine
 10
211.00450656746
 20
214.5400404733927
 30
0.0
 11
213.00450656746
 21
216.5400404733927
 31
0.0
  0
LINE
  5
125D
330
110F
100
AcDbEntity
  8
0
 62
     0
100
AcDbLine
 10
208.0045065674599
 20
215.0755743793254
 30
0.0
 11
211.00450656746
 21
218.0755743793254
 31
0.0
  0
LINE
  5
125E
330
110F
100
AcDbEntity
  8
0
 62
     0
100
AcDbLine
 10
211.00450656746
 20
218.0755743793254
 30
0.0
 11
213.00450656746
 21
220.0755743793255
 31
0.0
  0
LINE
  5
125F
330
110F
100
AcDbEntity
  8
0
 62
     0
100
AcDbLine
 10
208.0045065674599
 20
218.6111082852581
 30
0.0
 11
211.00450656746
 21
221.6111082852582
 31
0.0
  0
LINE
  5
1260
330
110F
100
AcDbEntity
  8
0
 62
     0
100
AcDbLine
 10
211.00450656746
 20
221.6111082852582
 30
0.0
 11
213.00450656746
 21
223.6111082852582
 31
0.0
  0
LINE
  5
1261
330
110F
100
AcDbEntity
  8
0
 62
     0
100
AcDbLine
 10
208.0045065674599
 20
222.1466421911909
 30
0.0
 11
211.00450656746
 21
225.1466421911909
 31
0.0
  0
LINE
  5
1262
330
110F
100
AcDbEntity
  8
0
 62
     0
100
AcDbLine
 10
211.00450656746
 20
225.1466421911909
 30
0.0
 11
213.00450656746
 21
227.1466421911909
 31
0.0
  0
LINE
  5
1263
330
110F
100
AcDbEntity
  8
0
 62
     0
100
AcDbLine
 10
208.0045065674599
 20
225.6821760971236
 30
0.0
 11
211.00450656746
 21
228.6821760971236
 31
0.0
  0
LINE
  5
1264
330
110F
100
AcDbEntity
  8
0
 62
     0
100
AcDbLine
 10
211.00450656746
 20
228.6821760971236
 30
0.0
 11
213.00450656746
 21
230.6821760971236
 31
0.0
  0
LINE
  5
1265
330
110F
100
AcDbEntity
  8
0
 62
     0
100
AcDbLine
 10
208.0045065674599
 20
229.2177100030563
 30
0.0
 11
211.00450656746
 21
232.2177100030564
 31
0.0
  0
LINE
  5
1266
330
110F
100
AcDbEntity
  8
0
 62
     0
100
AcDbLine
 10
211.00450656746
 20
232.2177100030564
 30
0.0
 11
213.00450656746
 21
234.2177100030564
 31
0.0
  0
LINE
  5
1267
330
110F
100
AcDbEntity
  8
0
 62
     0
100
AcDbLine
 10
208.0045065674599
 20
232.7532439089891
 30
0.0
 11
211.00450656746
 21
235.7532439089891
 31
0.0
  0
LINE
  5
1268
330
110F
100
AcDbEntity
  8
0
 62
     0
100
AcDbLine
 10
211.00450656746
 20
235.7532439089891
 30
0.0
 11
213.00450656746
 21
237.7532439089891
 31
0.0
  0
LINE
  5
1269
330
110F
100
AcDbEntity
  8
0
 62
     0
100
AcDbLine
 10
208.0045065674599
 20
236.2887778149219
 30
0.0
 11
211.00450656746
 21
239.2887778149219
 31
0.0
  0
LINE
  5
126A
330
110F
100
AcDbEntity
  8
0
 62
     0
100
AcDbLine
 10
211.00450656746
 20
239.2887778149219
 30
0.0
 11
213.00450656746
 21
241.2887778149219
 31
0.0
  0
LINE
  5
126B
330
110F
100
AcDbEntity
  8
0
 62
     0
100
AcDbLine
 10
208.0045065674599
 20
239.8243117208546
 30
0.0
 11
211.00450656746
 21
242.8243117208546
 31
0.0
  0
LINE
  5
126C
330
110F
100
AcDbEntity
  8
0
 62
     0
100
AcDbLine
 10
211.00450656746
 20
242.8243117208546
 30
0.0
 11
213.00450656746
 21
244.8243117208546
 31
0.0
  0
LINE
  5
126D
330
110F
100
AcDbEntity
  8
0
 62
     0
100
AcDbLine
 10
208.0045065674599
 20
243.3598456267873
 30
0.0
 11
211.00450656746
 21
246.3598456267873
 31
0.0
  0
LINE
  5
126E
330
110F
100
AcDbEntity
  8
0
 62
     0
100
AcDbLine
 10
211.00450656746
 20
246.3598456267873
 30
0.0
 11
213.00450656746
 21
248.3598456267873
 31
0.0
  0
LINE
  5
126F
330
110F
100
AcDbEntity
  8
0
 62
     0
100
AcDbLine
 10
208.0045065674599
 20
246.89537953272
 30
0.0
 11
211.00450656746
 21
249.8953795327201
 31
0.0
  0
LINE
  5
1270
330
110F
100
AcDbEntity
  8
0
 62
     0
100
AcDbLine
 10
211.00450656746
 20
249.8953795327201
 30
0.0
 11
213.00450656746
 21
251.8953795327201
 31
0.0
  0
LINE
  5
1271
330
110F
100
AcDbEntity
  8
0
 62
     0
100
AcDbLine
 10
208.0045065674599
 20
250.4309134386528
 30
0.0
 11
211.00450656746
 21
253.4309134386528
 31
0.0
  0
LINE
  5
1272
330
110F
100
AcDbEntity
  8
0
 62
     0
100
AcDbLine
 10
211.00450656746
 20
253.4309134386528
 30
0.0
 11
213.00450656746
 21
255.4309134386528
 31
0.0
  0
LINE
  5
1273
330
110F
100
AcDbEntity
  8
0
 62
     0
100
AcDbLine
 10
208.0045065674599
 20
253.9664473445855
 30
0.0
 11
211.00450656746
 21
256.9664473445856
 31
0.0
  0
LINE
  5
1274
330
110F
100
AcDbEntity
  8
0
 62
     0
100
AcDbLine
 10
211.00450656746
 20
256.9664473445856
 30
0.0
 11
213.00450656746
 21
258.9664473445856
 31
0.0
  0
LINE
  5
1275
330
110F
100
AcDbEntity
  8
0
 62
     0
100
AcDbLine
 10
208.0045065674599
 20
257.5019812505183
 30
0.0
 11
211.00450656746
 21
260.5019812505183
 31
0.0
  0
LINE
  5
1276
330
110F
100
AcDbEntity
  8
0
 62
     0
100
AcDbLine
 10
211.00450656746
 20
260.5019812505183
 30
0.0
 11
213.00450656746
 21
262.5019812505183
 31
0.0
  0
LINE
  5
1277
330
110F
100
AcDbEntity
  8
0
 62
     0
100
AcDbLine
 10
208.00450656746
 20
261.0375151564511
 30
0.0
 11
211.00450656746
 21
264.037515156451
 31
0.0
  0
LINE
  5
1278
330
110F
100
AcDbEntity
  8
0
 62
     0
100
AcDbLine
 10
211.00450656746
 20
264.037515156451
 30
0.0
 11
213.00450656746
 21
266.037515156451
 31
0.0
  0
LINE
  5
1279
330
110F
100
AcDbEntity
  8
0
 62
     0
100
AcDbLine
 10
208.00450656746
 20
264.5730490623837
 30
0.0
 11
211.00450656746
 21
267.5730490623838
 31
0.0
  0
LINE
  5
127A
330
110F
100
AcDbEntity
  8
0
 62
     0
100
AcDbLine
 10
211.00450656746
 20
267.5730490623838
 30
0.0
 11
213.00450656746
 21
269.5730490623838
 31
0.0
  0
LINE
  5
127B
330
110F
100
AcDbEntity
  8
0
 62
     0
100
AcDbLine
 10
208.00450656746
 20
268.1085829683165
 30
0.0
 11
211.00450656746
 21
271.1085829683165
 31
0.0
  0
LINE
  5
127C
330
110F
100
AcDbEntity
  8
0
 62
     0
100
AcDbLine
 10
211.00450656746
 20
271.1085829683165
 30
0.0
 11
213.00450656746
 21
273.1085829683165
 31
0.0
  0
LINE
  5
127D
330
110F
100
AcDbEntity
  8
0
 62
     0
100
AcDbLine
 10
208.00450656746
 20
271.6441168742492
 30
0.0
 11
211.00450656746
 21
274.6441168742493
 31
0.0
  0
LINE
  5
127E
330
110F
100
AcDbEntity
  8
0
 62
     0
100
AcDbLine
 10
211.00450656746
 20
274.6441168742493
 30
0.0
 11
213.00450656746
 21
276.6441168742493
 31
0.0
  0
LINE
  5
127F
330
110F
100
AcDbEntity
  8
0
 62
     0
100
AcDbLine
 10
208.00450656746
 20
275.179650780182
 30
0.0
 11
211.00450656746
 21
278.179650780182
 31
0.0
  0
LINE
  5
1280
330
110F
100
AcDbEntity
  8
0
 62
     0
100
AcDbLine
 10
211.00450656746
 20
278.179650780182
 30
0.0
 11
213.00450656746
 21
280.179650780182
 31
0.0
  0
LINE
  5
1281
330
110F
100
AcDbEntity
  8
0
 62
     0
100
AcDbLine
 10
208.00450656746
 20
278.7151846861147
 30
0.0
 11
211.00450656746
 21
281.7151846861147
 31
0.0
  0
LINE
  5
1282
330
110F
100
AcDbEntity
  8
0
 62
     0
100
AcDbLine
 10
211.00450656746
 20
281.7151846861147
 30
0.0
 11
213.00450656746
 21
283.7151846861147
 31
0.0
  0
LINE
  5
1283
330
110F
100
AcDbEntity
  8
0
 62
     0
100
AcDbLine
 10
208.00450656746
 20
282.2507185920475
 30
0.0
 11
211.00450656746
 21
285.2507185920475
 31
0.0
  0
LINE
  5
1284
330
110F
100
AcDbEntity
  8
0
 62
     0
100
AcDbLine
 10
211.00450656746
 20
285.2507185920475
 30
0.0
 11
213.00450656746
 21
287.2507185920475
 31
0.0
  0
LINE
  5
1285
330
110F
100
AcDbEntity
  8
0
 62
     0
100
AcDbLine
 10
208.00450656746
 20
285.7862524979802
 30
0.0
 11
211.00450656746
 21
288.7862524979802
 31
0.0
  0
LINE
  5
1286
330
110F
100
AcDbEntity
  8
0
 62
     0
100
AcDbLine
 10
211.00450656746
 20
288.7862524979802
 30
0.0
 11
213.00450656746
 21
290.7862524979802
 31
0.0
  0
LINE
  5
1287
330
110F
100
AcDbEntity
  8
0
 62
     0
100
AcDbLine
 10
208.00450656746
 20
289.3217864039129
 30
0.0
 11
211.00450656746
 21
292.321786403913
 31
0.0
  0
LINE
  5
1288
330
110F
100
AcDbEntity
  8
0
 62
     0
100
AcDbLine
 10
211.00450656746
 20
292.321786403913
 30
0.0
 11
213.00450656746
 21
294.3217864039129
 31
0.0
  0
LINE
  5
1289
330
110F
100
AcDbEntity
  8
0
 62
     0
100
AcDbLine
 10
208.00450656746
 20
292.8573203098457
 30
0.0
 11
211.00450656746
 21
295.8573203098457
 31
0.0
  0
LINE
  5
128A
330
110F
100
AcDbEntity
  8
0
 62
     0
100
AcDbLine
 10
211.00450656746
 20
295.8573203098457
 30
0.0
 11
213.00450656746
 21
297.8573203098457
 31
0.0
  0
LINE
  5
128B
330
110F
100
AcDbEntity
  8
0
 62
     0
100
AcDbLine
 10
208.00450656746
 20
296.3928542157784
 30
0.0
 11
211.00450656746
 21
299.3928542157785
 31
0.0
  0
LINE
  5
128C
330
110F
100
AcDbEntity
  8
0
 62
     0
100
AcDbLine
 10
211.00450656746
 20
299.3928542157785
 30
0.0
 11
213.00450656746
 21
301.3928542157784
 31
0.0
  0
LINE
  5
128D
330
110F
100
AcDbEntity
  8
0
 62
     0
100
AcDbLine
 10
208.00450656746
 20
299.9283881217111
 30
0.0
 11
210.2080691599424
 21
302.1319507141936
 31
0.0
  0
ENDBLK
  5
128E
330
110F
100
AcDbEntity
  8
0
100
AcDbBlockEnd
  0
BLOCK
  5
129D
330
129C
100
AcDbEntity
  8
0
100
AcDbBlockBegin
  2
*X5
 70
     1
 10
0.0
 20
0.0
 30
0.0
  3
*X5
  1

  0
LINE
  5
129E
330
129C
100
AcDbEntity
  8
0
 62
     0
100
AcDbLine
 10
366.7285760211365
 20
734.4241022381411
 30
0.0
 11
368.7285760211365
 21
736.4241022381411
 31
0.0
  0
LINE
  5
129F
330
129C
100
AcDbEntity
  8
0
 62
     0
100
AcDbLine
 10
466.7285760211365
 20
834.4241022381412
 30
0.0
 11
468.7285760211365
 21
836.4241022381412
 31
0.0
  0
LINE
  5
12A0
330
129C
100
AcDbEntity
  8
0
 62
     0
100
AcDbLine
 10
363.9001488963903
 20
734.4241022381411
 30
0.0
 11
365.9001488963903
 21
736.4241022381411
 31
0.0
  0
LINE
  5
12A1
330
129C
100
AcDbEntity
  8
0
 62
     0
100
AcDbLine
 10
463.9001488963903
 20
834.4241022381412
 30
0.0
 11
465.9001488963903
 21
836.4241022381412
 31
0.0
  0
LINE
  5
12A2
330
129C
100
AcDbEntity
  8
0
 62
     0
100
AcDbLine
 10
361.0717217716441
 20
734.4241022381411
 30
0.0
 11
363.0717217716441
 21
736.4241022381411
 31
0.0
  0
LINE
  5
12A3
330
129C
100
AcDbEntity
  8
0
 62
     0
100
AcDbLine
 10
461.0717217716442
 20
834.4241022381412
 30
0.0
 11
463.0717217716441
 21
836.4241022381412
 31
0.0
  0
LINE
  5
12A4
330
129C
100
AcDbEntity
  8
0
 62
     0
100
AcDbLine
 10
358.2432946468979
 20
734.4241022381411
 30
0.0
 11
360.2432946468979
 21
736.4241022381411
 31
0.0
  0
LINE
  5
12A5
330
129C
100
AcDbEntity
  8
0
 62
     0
100
AcDbLine
 10
458.243294646898
 20
834.4241022381412
 30
0.0
 11
460.2432946468979
 21
836.4241022381412
 31
0.0
  0
LINE
  5
12A6
330
129C
100
AcDbEntity
  8
0
 62
     0
100
AcDbLine
 10
355.4148675221517
 20
734.4241022381411
 30
0.0
 11
357.4148675221517
 21
736.4241022381411
 31
0.0
  0
LINE
  5
12A7
330
129C
100
AcDbEntity
  8
0
 62
     0
100
AcDbLine
 10
455.4148675221518
 20
834.4241022381412
 30
0.0
 11
457.4148675221517
 21
836.4241022381412
 31
0.0
  0
LINE
  5
12A8
330
129C
100
AcDbEntity
  8
0
 62
     0
100
AcDbLine
 10
352.5864403974055
 20
734.4241022381411
 30
0.0
 11
354.5864403974055
 21
736.4241022381411
 31
0.0
  0
LINE
  5
12A9
330
129C
100
AcDbEntity
  8
0
 62
     0
100
AcDbLine
 10
452.5864403974056
 20
834.4241022381412
 30
0.0
 11
454.5864403974055
 21
836.4241022381412
 31
0.0
  0
LINE
  5
12AA
330
129C
100
AcDbEntity
  8
0
 62
     0
100
AcDbLine
 10
349.7580132726593
 20
734.4241022381411
 30
0.0
 11
351.7580132726593
 21
736.4241022381411
 31
0.0
  0
LINE
  5
12AB
330
129C
100
AcDbEntity
  8
0
 62
     0
100
AcDbLine
 10
449.7580132726594
 20
834.4241022381412
 30
0.0
 11
451.7580132726593
 21
836.4241022381412
 31
0.0
  0
LINE
  5
12AC
330
129C
100
AcDbEntity
  8
0
 62
     0
100
AcDbLine
 10
346.9295861479131
 20
734.4241022381411
 30
0.0
 11
348.9295861479131
 21
736.4241022381411
 31
0.0
  0
LINE
  5
12AD
330
129C
100
AcDbEntity
  8
0
 62
     0
100
AcDbLine
 10
446.9295861479132
 20
834.4241022381412
 30
0.0
 11
448.9295861479131
 21
836.4241022381412
 31
0.0
  0
LINE
  5
12AE
330
129C
100
AcDbEntity
  8
0
 62
     0
100
AcDbLine
 10
344.1011590231669
 20
734.4241022381411
 30
0.0
 11
346.1011590231669
 21
736.4241022381411
 31
0.0
  0
LINE
  5
12AF
330
129C
100
AcDbEntity
  8
0
 62
     0
100
AcDbLine
 10
444.101159023167
 20
834.4241022381412
 30
0.0
 11
446.1011590231669
 21
836.4241022381412
 31
0.0
  0
LINE
  5
12B0
330
129C
100
AcDbEntity
  8
0
 62
     0
100
AcDbLine
 10
341.2727318984208
 20
734.4241022381411
 30
0.0
 11
343.2727318984208
 21
736.4241022381411
 31
0.0
  0
LINE
  5
12B1
330
129C
100
AcDbEntity
  8
0
 62
     0
100
AcDbLine
 10
441.2727318984208
 20
834.4241022381412
 30
0.0
 11
443.2727318984207
 21
836.4241022381412
 31
0.0
  0
LINE
  5
12B2
330
129C
100
AcDbEntity
  8
0
 62
     0
100
AcDbLine
 10
338.4443047736746
 20
734.4241022381411
 30
0.0
 11
340.4443047736746
 21
736.4241022381411
 31
0.0
  0
LINE
  5
12B3
330
129C
100
AcDbEntity
  8
0
 62
     0
100
AcDbLine
 10
438.4443047736747
 20
834.4241022381412
 30
0.0
 11
440.4443047736746
 21
836.4241022381412
 31
0.0
  0
LINE
  5
12B4
330
129C
100
AcDbEntity
  8
0
 62
     0
100
AcDbLine
 10
335.6158776489284
 20
734.4241022381411
 30
0.0
 11
337.6158776489284
 21
736.4241022381411
 31
0.0
  0
LINE
  5
12B5
330
129C
100
AcDbEntity
  8
0
 62
     0
100
AcDbLine
 10
435.6158776489285
 20
834.4241022381412
 30
0.0
 11
437.6158776489283
 21
836.4241022381412
 31
0.0
  0
LINE
  5
12B6
330
129C
100
AcDbEntity
  8
0
 62
     0
100
AcDbLine
 10
332.7874505241822
 20
734.4241022381411
 30
0.0
 11
334.7874505241822
 21
736.4241022381411
 31
0.0
  0
LINE
  5
12B7
330
129C
100
AcDbEntity
  8
0
 62
     0
100
AcDbLine
 10
432.7874505241822
 20
834.4241022381412
 30
0.0
 11
434.7874505241821
 21
836.4241022381412
 31
0.0
  0
LINE
  5
12B8
330
129C
100
AcDbEntity
  8
0
 62
     0
100
AcDbLine
 10
329.959023399436
 20
734.4241022381411
 30
0.0
 11
331.959023399436
 21
736.4241022381411
 31
0.0
  0
LINE
  5
12B9
330
129C
100
AcDbEntity
  8
0
 62
     0
100
AcDbLine
 10
429.9590233994361
 20
834.4241022381412
 30
0.0
 11
431.959023399436
 21
836.4241022381412
 31
0.0
  0
LINE
  5
12BA
330
129C
100
AcDbEntity
  8
0
 62
     0
100
AcDbLine
 10
327.1305962746898
 20
734.4241022381411
 30
0.0
 11
329.1305962746898
 21
736.4241022381411
 31
0.0
  0
LINE
  5
12BB
330
129C
100
AcDbEntity
  8
0
 62
     0
100
AcDbLine
 10
427.1305962746898
 20
834.4241022381412
 30
0.0
 11
429.1305962746898
 21
836.4241022381412
 31
0.0
  0
LINE
  5
12BC
330
129C
100
AcDbEntity
  8
0
 62
     0
100
AcDbLine
 10
324.3021691499436
 20
734.4241022381411
 30
0.0
 11
326.3021691499436
 21
736.4241022381411
 31
0.0
  0
LINE
  5
12BD
330
129C
100
AcDbEntity
  8
0
 62
     0
100
AcDbLine
 10
424.3021691499436
 20
834.4241022381412
 30
0.0
 11
426.3021691499436
 21
836.4241022381412
 31
0.0
  0
LINE
  5
12BE
330
129C
100
AcDbEntity
  8
0
 62
     0
100
AcDbLine
 10
321.4737420251974
 20
734.4241022381411
 30
0.0
 11
323.4737420251974
 21
736.4241022381411
 31
0.0
  0
LINE
  5
12BF
330
129C
100
AcDbEntity
  8
0
 62
     0
100
AcDbLine
 10
421.4737420251974
 20
834.4241022381412
 30
0.0
 11
423.4737420251974
 21
836.4241022381412
 31
0.0
  0
LINE
  5
12C0
330
129C
100
AcDbEntity
  8
0
 62
     0
100
AcDbLine
 10
318.6453149004512
 20
734.4241022381411
 30
0.0
 11
320.6453149004512
 21
736.4241022381411
 31
0.0
  0
LINE
  5
12C1
330
129C
100
AcDbEntity
  8
0
 62
     0
100
AcDbLine
 10
418.6453149004512
 20
834.4241022381412
 30
0.0
 11
420.6453149004512
 21
836.4241022381412
 31
0.0
  0
LINE
  5
12C2
330
129C
100
AcDbEntity
  8
0
 62
     0
100
AcDbLine
 10
315.8168877757051
 20
734.4241022381411
 30
0.0
 11
317.816887775705
 21
736.4241022381411
 31
0.0
  0
LINE
  5
12C3
330
129C
100
AcDbEntity
  8
0
 62
     0
100
AcDbLine
 10
415.8168877757051
 20
834.4241022381412
 30
0.0
 11
417.816887775705
 21
836.4241022381412
 31
0.0
  0
LINE
  5
12C4
330
129C
100
AcDbEntity
  8
0
 62
     0
100
AcDbLine
 10
312.9884606509589
 20
734.4241022381411
 30
0.0
 11
314.9884606509589
 21
736.4241022381411
 31
0.0
  0
LINE
  5
12C5
330
129C
100
AcDbEntity
  8
0
 62
     0
100
AcDbLine
 10
412.9884606509589
 20
834.4241022381412
 30
0.0
 11
414.9884606509588
 21
836.4241022381412
 31
0.0
  0
LINE
  5
12C6
330
129C
100
AcDbEntity
  8
0
 62
     0
100
AcDbLine
 10
310.1600335262127
 20
734.4241022381411
 30
0.0
 11
312.1600335262126
 21
736.4241022381411
 31
0.0
  0
LINE
  5
12C7
330
129C
100
AcDbEntity
  8
0
 62
     0
100
AcDbLine
 10
410.1600335262127
 20
834.4241022381412
 30
0.0
 11
412.1600335262127
 21
836.4241022381412
 31
0.0
  0
LINE
  5
12C8
330
129C
100
AcDbEntity
  8
0
 62
     0
100
AcDbLine
 10
307.3316064014665
 20
734.4241022381411
 30
0.0
 11
309.3316064014665
 21
736.4241022381411
 31
0.0
  0
LINE
  5
12C9
330
129C
100
AcDbEntity
  8
0
 62
     0
100
AcDbLine
 10
407.3316064014665
 20
834.4241022381412
 30
0.0
 11
409.3316064014665
 21
836.4241022381412
 31
0.0
  0
LINE
  5
12CA
330
129C
100
AcDbEntity
  8
0
 62
     0
100
AcDbLine
 10
304.5031792767203
 20
734.4241022381411
 30
0.0
 11
306.5031792767203
 21
736.4241022381411
 31
0.0
  0
LINE
  5
12CB
330
129C
100
AcDbEntity
  8
0
 62
     0
100
AcDbLine
 10
404.5031792767203
 20
834.4241022381412
 30
0.0
 11
406.5031792767203
 21
836.4241022381412
 31
0.0
  0
LINE
  5
12CC
330
129C
100
AcDbEntity
  8
0
 62
     0
100
AcDbLine
 10
301.6747521519741
 20
734.4241022381411
 30
0.0
 11
303.6747521519741
 21
736.4241022381411
 31
0.0
  0
LINE
  5
12CD
330
129C
100
AcDbEntity
  8
0
 62
     0
100
AcDbLine
 10
401.6747521519741
 20
834.4241022381412
 30
0.0
 11
403.6747521519741
 21
836.4241022381412
 31
0.0
  0
LINE
  5
12CE
330
129C
100
AcDbEntity
  8
0
 62
     0
100
AcDbLine
 10
298.8463250272279
 20
734.4241022381411
 30
0.0
 11
300.8463250272279
 21
736.4241022381411
 31
0.0
  0
LINE
  5
12CF
330
129C
100
AcDbEntity
  8
0
 62
     0
100
AcDbLine
 10
398.846325027228
 20
834.4241022381412
 30
0.0
 11
400.8463250272279
 21
836.4241022381412
 31
0.0
  0
LINE
  5
12D0
330
129C
100
AcDbEntity
  8
0
 62
     0
100
AcDbLine
 10
296.0178979024817
 20
734.4241022381411
 30
0.0
 11
298.0178979024818
 21
736.4241022381411
 31
0.0
  0
LINE
  5
12D1
330
129C
100
AcDbEntity
  8
0
 62
     0
100
AcDbLine
 10
396.0178979024818
 20
834.4241022381412
 30
0.0
 11
398.0178979024818
 21
836.4241022381412
 31
0.0
  0
LINE
  5
12D2
330
129C
100
AcDbEntity
  8
0
 62
     0
100
AcDbLine
 10
293.1894707777356
 20
734.4241022381411
 30
0.0
 11
295.1894707777356
 21
736.4241022381411
 31
0.0
  0
LINE
  5
12D3
330
129C
100
AcDbEntity
  8
0
 62
     0
100
AcDbLine
 10
393.1894707777356
 20
834.4241022381412
 30
0.0
 11
395.1894707777356
 21
836.4241022381412
 31
0.0
  0
LINE
  5
12D4
330
129C
100
AcDbEntity
  8
0
 62
     0
100
AcDbLine
 10
290.3610436529893
 20
734.4241022381411
 30
0.0
 11
292.3610436529894
 21
736.4241022381411
 31
0.0
  0
LINE
  5
12D5
330
129C
100
AcDbEntity
  8
0
 62
     0
100
AcDbLine
 10
390.3610436529894
 20
834.4241022381412
 30
0.0
 11
392.3610436529894
 21
836.4241022381412
 31
0.0
  0
LINE
  5
12D6
330
129C
100
AcDbEntity
  8
0
 62
     0
100
AcDbLine
 10
287.7097656228203
 20
734.6012513327183
 30
0.0
 11
289.5488652539976
 21
736.4403509638956
 31
0.0
  0
LINE
  5
12D7
330
129C
100
AcDbEntity
  8
0
 62
     0
100
AcDbLine
 10
387.5326165282432
 20
834.4241022381412
 30
0.0
 11
389.5326165282432
 21
836.4241022381412
 31
0.0
  0
LINE
  5
12D8
330
129C
100
AcDbEntity
  8
0
 62
     0
100
AcDbLine
 10
285.1088859818541
 20
734.8287988164983
 30
0.0
 11
286.9479856130314
 21
736.6678984476755
 31
0.0
  0
LINE
  5
12D9
330
129C
100
AcDbEntity
  8
0
 62
     0
100
AcDbLine
 10
384.704189403497
 20
834.4241022381412
 30
0.0
 11
386.704189403497
 21
836.4241022381412
 31
0.0
  0
LINE
  5
12DA
330
129C
100
AcDbEntity
  8
0
 62
     0
100
AcDbLine
 10
282.5080063408878
 20
735.0563463002782
 30
0.0
 11
284.3471059720652
 21
736.8954459314554
 31
0.0
  0
LINE
  5
12DB
330
129C
100
AcDbEntity
  8
0
 62
     0
100
AcDbLine
 10
381.8757622787509
 20
834.4241022381412
 30
0.0
 11
383.8757622787508
 21
836.4241022381412
 31
0.0
  0
LINE
  5
12DC
330
129C
100
AcDbEntity
  8
0
 62
     0
100
AcDbLine
 10
279.9071266999217
 20
735.2838937840581
 30
0.0
 11
281.7462263310989
 21
737.1229934152354
 31
0.0
  0
LINE
  5
12DD
330
129C
100
AcDbEntity
  8
0
 62
     0
100
AcDbLine
 10
379.0473351540047
 20
834.4241022381412
 30
0.0
 11
381.0473351540046
 21
836.4241022381412
 31
0.0
  0
LINE
  5
12DE
330
129C
100
AcDbEntity
  8
0
 62
     0
100
AcDbLine
 10
376.2189080292584
 20
834.4241022381412
 30
0.0
 11
378.2189080292584
 21
836.4241022381412
 31
0.0
  0
LINE
  5
12DF
330
129C
100
AcDbEntity
  8
0
 62
     0
100
AcDbLine
 10
373.3904809045123
 20
834.4241022381412
 30
0.0
 11
375.3904809045122
 21
836.4241022381412
 31
0.0
  0
LINE
  5
12E0
330
129C
100
AcDbEntity
  8
0
 62
     0
100
AcDbLine
 10
370.5620537797661
 20
834.4241022381412
 30
0.0
 11
372.562053779766
 21
836.4241022381412
 31
0.0
  0
LINE
  5
12E1
330
129C
100
AcDbEntity
  8
0
 62
     0
100
AcDbLine
 10
367.7336266550199
 20
834.4241022381412
 30
0.0
 11
369.7336266550199
 21
836.4241022381412
 31
0.0
  0
LINE
  5
12E2
330
129C
100
AcDbEntity
  8
0
 62
     0
100
AcDbLine
 10
364.9051995302737
 20
834.4241022381412
 30
0.0
 11
366.9051995302737
 21
836.4241022381412
 31
0.0
  0
LINE
  5
12E3
330
129C
100
AcDbEntity
  8
0
 62
     0
100
AcDbLine
 10
362.0767724055275
 20
834.4241022381412
 30
0.0
 11
364.0767724055274
 21
836.4241022381412
 31
0.0
  0
LINE
  5
12E4
330
129C
100
AcDbEntity
  8
0
 62
     0
100
AcDbLine
 10
359.2483452807814
 20
834.4241022381412
 30
0.0
 11
361.2483452807813
 21
836.4241022381412
 31
0.0
  0
LINE
  5
12E5
330
129C
100
AcDbEntity
  8
0
 62
     0
100
AcDbLine
 10
356.4199181560351
 20
834.4241022381412
 30
0.0
 11
358.4199181560351
 21
836.4241022381412
 31
0.0
  0
LINE
  5
12E6
330
129C
100
AcDbEntity
  8
0
 62
     0
100
AcDbLine
 10
353.591491031289
 20
834.4241022381412
 30
0.0
 11
355.5914910312889
 21
836.4241022381412
 31
0.0
  0
LINE
  5
12E7
330
129C
100
AcDbEntity
  8
0
 62
     0
100
AcDbLine
 10
350.7630639065427
 20
834.4241022381412
 30
0.0
 11
352.7630639065427
 21
836.4241022381412
 31
0.0
  0
LINE
  5
12E8
330
129C
100
AcDbEntity
  8
0
 62
     0
100
AcDbLine
 10
347.9346367817965
 20
834.4241022381412
 30
0.0
 11
349.9346367817965
 21
836.4241022381412
 31
0.0
  0
LINE
  5
12E9
330
129C
100
AcDbEntity
  8
0
 62
     0
100
AcDbLine
 10
345.1062096570504
 20
834.4241022381412
 30
0.0
 11
347.1062096570503
 21
836.4241022381412
 31
0.0
  0
LINE
  5
12EA
330
129C
100
AcDbEntity
  8
0
 62
     0
100
AcDbLine
 10
342.2777825323042
 20
834.4241022381412
 30
0.0
 11
344.2777825323041
 21
836.4241022381412
 31
0.0
  0
LINE
  5
12EB
330
129C
100
AcDbEntity
  8
0
 62
     0
100
AcDbLine
 10
339.449355407558
 20
834.4241022381412
 30
0.0
 11
341.449355407558
 21
836.4241022381412
 31
0.0
  0
LINE
  5
12EC
330
129C
100
AcDbEntity
  8
0
 62
     0
100
AcDbLine
 10
336.6209282828118
 20
834.4241022381412
 30
0.0
 11
338.6209282828117
 21
836.4241022381412
 31
0.0
  0
LINE
  5
12ED
330
129C
100
AcDbEntity
  8
0
 62
     0
100
AcDbLine
 10
333.7925011580656
 20
834.4241022381412
 30
0.0
 11
335.7925011580655
 21
836.4241022381412
 31
0.0
  0
LINE
  5
12EE
330
129C
100
AcDbEntity
  8
0
 62
     0
100
AcDbLine
 10
330.9640740333194
 20
834.4241022381412
 30
0.0
 11
332.9640740333194
 21
836.4241022381412
 31
0.0
  0
LINE
  5
12EF
330
129C
100
AcDbEntity
  8
0
 62
     0
100
AcDbLine
 10
328.1356469085732
 20
834.4241022381412
 30
0.0
 11
330.1356469085732
 21
836.4241022381412
 31
0.0
  0
LINE
  5
12F0
330
129C
100
AcDbEntity
  8
0
 62
     0
100
AcDbLine
 10
325.307219783827
 20
834.4241022381412
 30
0.0
 11
327.307219783827
 21
836.4241022381412
 31
0.0
  0
LINE
  5
12F1
330
129C
100
AcDbEntity
  8
0
 62
     0
100
AcDbLine
 10
322.4787926590809
 20
834.4241022381412
 30
0.0
 11
324.4787926590808
 21
836.4241022381412
 31
0.0
  0
LINE
  5
12F2
330
129C
100
AcDbEntity
  8
0
 62
     0
100
AcDbLine
 10
319.6503655343347
 20
834.4241022381412
 30
0.0
 11
321.6503655343346
 21
836.4241022381412
 31
0.0
  0
LINE
  5
12F3
330
129C
100
AcDbEntity
  8
0
 62
     0
100
AcDbLine
 10
316.8219384095885
 20
834.4241022381412
 30
0.0
 11
318.8219384095884
 21
836.4241022381412
 31
0.0
  0
LINE
  5
12F4
330
129C
100
AcDbEntity
  8
0
 62
     0
100
AcDbLine
 10
313.9935112848423
 20
834.4241022381412
 30
0.0
 11
315.9935112848422
 21
836.4241022381412
 31
0.0
  0
LINE
  5
12F5
330
129C
100
AcDbEntity
  8
0
 62
     0
100
AcDbLine
 10
311.165084160096
 20
834.4241022381412
 30
0.0
 11
313.165084160096
 21
836.4241022381412
 31
0.0
  0
LINE
  5
12F6
330
129C
100
AcDbEntity
  8
0
 62
     0
100
AcDbLine
 10
308.3366570353499
 20
834.4241022381412
 30
0.0
 11
310.3366570353498
 21
836.4241022381412
 31
0.0
  0
LINE
  5
12F7
330
129C
100
AcDbEntity
  8
0
 62
     0
100
AcDbLine
 10
305.5082299106037
 20
834.4241022381412
 30
0.0
 11
307.5082299106036
 21
836.4241022381412
 31
0.0
  0
LINE
  5
12F8
330
129C
100
AcDbEntity
  8
0
 62
     0
100
AcDbLine
 10
302.6798027858575
 20
834.4241022381412
 30
0.0
 11
304.6798027858575
 21
836.4241022381412
 31
0.0
  0
LINE
  5
12F9
330
129C
100
AcDbEntity
  8
0
 62
     0
100
AcDbLine
 10
299.8513756611113
 20
834.4241022381412
 30
0.0
 11
301.8513756611113
 21
836.4241022381412
 31
0.0
  0
LINE
  5
12FA
330
129C
100
AcDbEntity
  8
0
 62
     0
100
AcDbLine
 10
297.0229485363651
 20
834.4241022381412
 30
0.0
 11
299.022948536365
 21
836.4241022381412
 31
0.0
  0
LINE
  5
12FB
330
129C
100
AcDbEntity
  8
0
 62
     0
100
AcDbLine
 10
294.194521411619
 20
834.4241022381412
 30
0.0
 11
296.1945214116189
 21
836.4241022381412
 31
0.0
  0
LINE
  5
12FC
330
129C
100
AcDbEntity
  8
0
 62
     0
100
AcDbLine
 10
291.3660942868727
 20
834.4241022381412
 30
0.0
 11
293.3660942868727
 21
836.4241022381412
 31
0.0
  0
LINE
  5
12FD
330
129C
100
AcDbEntity
  8
0
 62
     0
100
AcDbLine
 10
288.4229101271324
 20
834.3093452031469
 30
0.0
 11
290.5376671621265
 21
836.4241022381412
 31
0.0
  0
LINE
  5
12FE
330
129C
100
AcDbEntity
  8
0
 62
     0
100
AcDbLine
 10
285.3233024711057
 20
834.0381646718665
 30
0.0
 11
287.5150560636999
 21
836.2299182644608
 31
0.0
  0
LINE
  5
12FF
330
129C
100
AcDbEntity
  8
0
 62
     0
100
AcDbLine
 10
282.223694815079
 20
833.766984140586
 30
0.0
 11
284.4154484076732
 21
835.9587377331802
 31
0.0
  0
LINE
  5
1300
330
129C
100
AcDbEntity
  8
0
 62
     0
100
AcDbLine
 10
279.7345890392239
 20
834.1063054894771
 30
0.0
 11
281.3158407516464
 21
835.6875572018997
 31
0.0
  0
LINE
  5
1301
330
129C
100
AcDbEntity
  8
0
 62
     0
100
AcDbLine
 10
369.5570031458826
 20
734.4241022381411
 30
0.0
 11
371.5570031458826
 21
736.4241022381411
 31
0.0
  0
LINE
  5
1302
330
129C
100
AcDbEntity
  8
0
 62
     0
100
AcDbLine
 10
469.5570031458827
 20
834.4241022381412
 30
0.0
 11
471.5570031458827
 21
836.4241022381412
 31
0.0
  0
LINE
  5
1303
330
129C
100
AcDbEntity
  8
0
 62
     0
100
AcDbLine
 10
372.3854302706288
 20
734.4241022381411
 30
0.0
 11
374.3854302706288
 21
736.4241022381411
 31
0.0
  0
LINE
  5
1304
330
129C
100
AcDbEntity
  8
0
 62
     0
100
AcDbLine
 10
472.3854302706289
 20
834.4241022381412
 30
0.0
 11
474.3854302706289
 21
836.4241022381412
 31
0.0
  0
LINE
  5
1305
330
129C
100
AcDbEntity
  8
0
 62
     0
100
AcDbLine
 10
375.213857395375
 20
734.4241022381411
 30
0.0
 11
377.213857395375
 21
736.4241022381411
 31
0.0
  0
LINE
  5
1306
330
129C
100
AcDbEntity
  8
0
 62
     0
100
AcDbLine
 10
475.2138573953751
 20
834.4241022381412
 30
0.0
 11
477.213857395375
 21
836.4241022381412
 31
0.0
  0
LINE
  5
1307
330
129C
100
AcDbEntity
  8
0
 62
     0
100
AcDbLine
 10
378.0422845201212
 20
734.4241022381411
 30
0.0
 11
380.0422845201212
 21
736.4241022381411
 31
0.0
  0
LINE
  5
1308
330
129C
100
AcDbEntity
  8
0
 62
     0
100
AcDbLine
 10
478.0422845201213
 20
834.4241022381412
 30
0.0
 11
480.0422845201212
 21
836.4241022381412
 31
0.0
  0
LINE
  5
1309
330
129C
100
AcDbEntity
  8
0
 62
     0
100
AcDbLine
 10
380.8707116448673
 20
734.4241022381411
 30
0.0
 11
382.8707116448673
 21
736.4241022381411
 31
0.0
  0
LINE
  5
130A
330
129C
100
AcDbEntity
  8
0
 62
     0
100
AcDbLine
 10
480.8707116448675
 20
834.4241022381412
 30
0.0
 11
482.8707116448675
 21
836.4241022381412
 31
0.0
  0
LINE
  5
130B
330
129C
100
AcDbEntity
  8
0
 62
     0
100
AcDbLine
 10
383.6991387696136
 20
734.4241022381411
 30
0.0
 11
385.6991387696136
 21
736.4241022381411
 31
0.0
  0
LINE
  5
130C
330
129C
100
AcDbEntity
  8
0
 62
     0
100
AcDbLine
 10
483.6991387696136
 20
834.4241022381412
 30
0.0
 11
485.6991387696136
 21
836.4241022381412
 31
0.0
  0
LINE
  5
130D
330
129C
100
AcDbEntity
  8
0
 62
     0
100
AcDbLine
 10
386.5275658943597
 20
734.4241022381411
 30
0.0
 11
388.5275658943598
 21
736.424102238141
 31
0.0
  0
LINE
  5
130E
330
129C
100
AcDbEntity
  8
0
 62
     0
100
AcDbLine
 10
486.5275658943598
 20
834.4241022381412
 30
0.0
 11
488.5275658943598
 21
836.4241022381412
 31
0.0
  0
LINE
  5
130F
330
129C
100
AcDbEntity
  8
0
 62
     0
100
AcDbLine
 10
389.3559930191059
 20
734.424102238141
 30
0.0
 11
391.3559930191059
 21
736.424102238141
 31
0.0
  0
LINE
  5
1310
330
129C
100
AcDbEntity
  8
0
 62
     0
100
AcDbLine
 10
489.355993019106
 20
834.4241022381412
 30
0.0
 11
491.355993019106
 21
836.4241022381412
 31
0.0
  0
LINE
  5
1311
330
129C
100
AcDbEntity
  8
0
 62
     0
100
AcDbLine
 10
392.1844201438521
 20
734.424102238141
 30
0.0
 11
394.1844201438522
 21
736.424102238141
 31
0.0
  0
LINE
  5
1312
330
129C
100
AcDbEntity
  8
0
 62
     0
100
AcDbLine
 10
492.1844201438522
 20
834.4241022381412
 30
0.0
 11
494.1844201438522
 21
836.4241022381412
 31
0.0
  0
LINE
  5
1313
330
129C
100
AcDbEntity
  8
0
 62
     0
100
AcDbLine
 10
395.0128472685983
 20
734.424102238141
 30
0.0
 11
397.0128472685983
 21
736.424102238141
 31
0.0
  0
LINE
  5
1314
330
129C
100
AcDbEntity
  8
0
 62
     0
100
AcDbLine
 10
495.0128472685983
 20
834.4241022381412
 30
0.0
 11
495.569873736391
 21
834.9811287059338
 31
0.0
  0
LINE
  5
1315
330
129C
100
AcDbEntity
  8
0
 62
     0
100
AcDbLine
 10
397.8412743933445
 20
734.424102238141
 30
0.0
 11
399.8412743933445
 21
736.424102238141
 31
0.0
  0
LINE
  5
1316
330
129C
100
AcDbEntity
  8
0
 62
     0
100
AcDbLine
 10
400.6697015180907
 20
734.424102238141
 30
0.0
 11
402.6697015180906
 21
736.424102238141
 31
0.0
  0
LINE
  5
1317
330
129C
100
AcDbEntity
  8
0
 62
     0
100
AcDbLine
 10
403.4981286428368
 20
734.424102238141
 30
0.0
 11
405.4981286428368
 21
736.424102238141
 31
0.0
  0
LINE
  5
1318
330
129C
100
AcDbEntity
  8
0
 62
     0
100
AcDbLine
 10
406.326555767583
 20
734.424102238141
 30
0.0
 11
408.326555767583
 21
736.424102238141
 31
0.0
  0
LINE
  5
1319
330
129C
100
AcDbEntity
  8
0
 62
     0
100
AcDbLine
 10
409.1549828923292
 20
734.424102238141
 30
0.0
 11
411.1549828923291
 21
736.424102238141
 31
0.0
  0
LINE
  5
131A
330
129C
100
AcDbEntity
  8
0
 62
     0
100
AcDbLine
 10
411.9834100170754
 20
734.424102238141
 30
0.0
 11
413.9834100170753
 21
736.424102238141
 31
0.0
  0
LINE
  5
131B
330
129C
100
AcDbEntity
  8
0
 62
     0
100
AcDbLine
 10
414.8118371418215
 20
734.424102238141
 30
0.0
 11
416.8118371418215
 21
736.424102238141
 31
0.0
  0
LINE
  5
131C
330
129C
100
AcDbEntity
  8
0
 62
     0
100
AcDbLine
 10
417.6402642665677
 20
734.424102238141
 30
0.0
 11
419.6402642665677
 21
736.424102238141
 31
0.0
  0
LINE
  5
131D
330
129C
100
AcDbEntity
  8
0
 62
     0
100
AcDbLine
 10
420.4686913913139
 20
734.424102238141
 30
0.0
 11
422.4686913913139
 21
736.424102238141
 31
0.0
  0
LINE
  5
131E
330
129C
100
AcDbEntity
  8
0
 62
     0
100
AcDbLine
 10
423.2971185160601
 20
734.424102238141
 30
0.0
 11
425.2971185160602
 21
736.424102238141
 31
0.0
  0
LINE
  5
131F
330
129C
100
AcDbEntity
  8
0
 62
     0
100
AcDbLine
 10
426.1255456408063
 20
734.424102238141
 30
0.0
 11
428.1255456408064
 21
736.424102238141
 31
0.0
  0
LINE
  5
1320
330
129C
100
AcDbEntity
  8
0
 62
     0
100
AcDbLine
 10
428.9539727655525
 20
734.424102238141
 30
0.0
 11
430.9539727655525
 21
736.424102238141
 31
0.0
  0
LINE
  5
1321
330
129C
100
AcDbEntity
  8
0
 62
     0
100
AcDbLine
 10
431.7823998902987
 20
734.424102238141
 30
0.0
 11
433.7823998902987
 21
736.424102238141
 31
0.0
  0
LINE
  5
1322
330
129C
100
AcDbEntity
  8
0
 62
     0
100
AcDbLine
 10
434.6108270150448
 20
734.424102238141
 30
0.0
 11
436.6108270150449
 21
736.424102238141
 31
0.0
  0
LINE
  5
1323
330
129C
100
AcDbEntity
  8
0
 62
     0
100
AcDbLine
 10
437.439254139791
 20
734.424102238141
 30
0.0
 11
439.4392541397911
 21
736.424102238141
 31
0.0
  0
LINE
  5
1324
330
129C
100
AcDbEntity
  8
0
 62
     0
100
AcDbLine
 10
440.2676812645372
 20
734.424102238141
 30
0.0
 11
442.2676812645372
 21
736.424102238141
 31
0.0
  0
LINE
  5
1325
330
129C
100
AcDbEntity
  8
0
 62
     0
100
AcDbLine
 10
443.0961083892834
 20
734.424102238141
 30
0.0
 11
445.0961083892834
 21
736.424102238141
 31
0.0
  0
LINE
  5
1326
330
129C
100
AcDbEntity
  8
0
 62
     0
100
AcDbLine
 10
445.9245355140296
 20
734.424102238141
 30
0.0
 11
447.9245355140296
 21
736.424102238141
 31
0.0
  0
LINE
  5
1327
330
129C
100
AcDbEntity
  8
0
 62
     0
100
AcDbLine
 10
448.7529626387758
 20
734.424102238141
 30
0.0
 11
450.7529626387758
 21
736.424102238141
 31
0.0
  0
LINE
  5
1328
330
129C
100
AcDbEntity
  8
0
 62
     0
100
AcDbLine
 10
451.581389763522
 20
734.424102238141
 30
0.0
 11
453.581389763522
 21
736.424102238141
 31
0.0
  0
LINE
  5
1329
330
129C
100
AcDbEntity
  8
0
 62
     0
100
AcDbLine
 10
454.4098168882682
 20
734.424102238141
 30
0.0
 11
456.4098168882682
 21
736.424102238141
 31
0.0
  0
LINE
  5
132A
330
129C
100
AcDbEntity
  8
0
 62
     0
100
AcDbLine
 10
457.2382440130144
 20
734.424102238141
 30
0.0
 11
459.2382440130144
 21
736.424102238141
 31
0.0
  0
LINE
  5
132B
330
129C
100
AcDbEntity
  8
0
 62
     0
100
AcDbLine
 10
460.0666711377606
 20
734.424102238141
 30
0.0
 11
462.0666711377605
 21
736.424102238141
 31
0.0
  0
LINE
  5
132C
330
129C
100
AcDbEntity
  8
0
 62
     0
100
AcDbLine
 10
462.8950982625068
 20
734.424102238141
 30
0.0
 11
464.8950982625067
 21
736.424102238141
 31
0.0
  0
LINE
  5
132D
330
129C
100
AcDbEntity
  8
0
 62
     0
100
AcDbLine
 10
465.7235253872529
 20
734.424102238141
 30
0.0
 11
467.7235253872529
 21
736.424102238141
 31
0.0
  0
LINE
  5
132E
330
129C
100
AcDbEntity
  8
0
 62
     0
100
AcDbLine
 10
468.5519525119992
 20
734.424102238141
 30
0.0
 11
470.5519525119991
 21
736.424102238141
 31
0.0
  0
LINE
  5
132F
330
129C
100
AcDbEntity
  8
0
 62
     0
100
AcDbLine
 10
471.3803796367454
 20
734.424102238141
 30
0.0
 11
473.3803796367452
 21
736.424102238141
 31
0.0
  0
LINE
  5
1330
330
129C
100
AcDbEntity
  8
0
 62
     0
100
AcDbLine
 10
474.2088067614915
 20
734.424102238141
 30
0.0
 11
476.2088067614915
 21
736.424102238141
 31
0.0
  0
LINE
  5
1331
330
129C
100
AcDbEntity
  8
0
 62
     0
100
AcDbLine
 10
477.0372338862377
 20
734.424102238141
 30
0.0
 11
479.0372338862377
 21
736.424102238141
 31
0.0
  0
LINE
  5
1332
330
129C
100
AcDbEntity
  8
0
 62
     0
100
AcDbLine
 10
479.8656610109839
 20
734.424102238141
 30
0.0
 11
481.8656610109838
 21
736.424102238141
 31
0.0
  0
LINE
  5
1333
330
129C
100
AcDbEntity
  8
0
 62
     0
100
AcDbLine
 10
482.6940881357301
 20
734.424102238141
 30
0.0
 11
484.69408813573
 21
736.424102238141
 31
0.0
  0
LINE
  5
1334
330
129C
100
AcDbEntity
  8
0
 62
     0
100
AcDbLine
 10
485.5225152604762
 20
734.424102238141
 30
0.0
 11
487.5225152604762
 21
736.424102238141
 31
0.0
  0
LINE
  5
1335
330
129C
100
AcDbEntity
  8
0
 62
     0
100
AcDbLine
 10
488.3509423852224
 20
734.424102238141
 30
0.0
 11
490.3509423852224
 21
736.424102238141
 31
0.0
  0
LINE
  5
1336
330
129C
100
AcDbEntity
  8
0
 62
     0
100
AcDbLine
 10
491.1793695099686
 20
734.424102238141
 30
0.0
 11
493.1793695099686
 21
736.424102238141
 31
0.0
  0
LINE
  5
1337
330
129C
100
AcDbEntity
  8
0
 62
     0
100
AcDbLine
 10
494.0077966347148
 20
734.424102238141
 30
0.0
 11
496.0077966347149
 21
736.424102238141
 31
0.0
  0
LINE
  5
1338
330
129C
100
AcDbEntity
  8
0
 62
     0
100
AcDbLine
 10
496.836223759461
 20
734.424102238141
 30
0.0
 11
498.8362237594611
 21
736.424102238141
 31
0.0
  0
LINE
  5
1339
330
129C
100
AcDbEntity
  8
0
 62
     0
100
AcDbLine
 10
499.6646508842072
 20
734.424102238141
 30
0.0
 11
501.6646508842072
 21
736.424102238141
 31
0.0
  0
LINE
  5
133A
330
129C
100
AcDbEntity
  8
0
 62
     0
100
AcDbLine
 10
502.4930780089534
 20
734.424102238141
 30
0.0
 11
504.4930780089534
 21
736.424102238141
 31
0.0
  0
LINE
  5
133B
330
129C
100
AcDbEntity
  8
0
 62
     0
100
AcDbLine
 10
505.3215051336995
 20
734.424102238141
 30
0.0
 11
507.3215051336996
 21
736.424102238141
 31
0.0
  0
LINE
  5
133C
330
129C
100
AcDbEntity
  8
0
 62
     0
100
AcDbLine
 10
508.1499322584457
 20
734.424102238141
 30
0.0
 11
510.1499322584458
 21
736.424102238141
 31
0.0
  0
LINE
  5
133D
330
129C
100
AcDbEntity
  8
0
 62
     0
100
AcDbLine
 10
510.9783593831919
 20
734.424102238141
 30
0.0
 11
512.978359383192
 21
736.424102238141
 31
0.0
  0
LINE
  5
133E
330
129C
100
AcDbEntity
  8
0
 62
     0
100
AcDbLine
 10
513.806786507938
 20
734.424102238141
 30
0.0
 11
515.8067865079381
 21
736.424102238141
 31
0.0
  0
LINE
  5
133F
330
129C
100
AcDbEntity
  8
0
 62
     0
100
AcDbLine
 10
516.6352136326842
 20
734.424102238141
 30
0.0
 11
518.6352136326843
 21
736.424102238141
 31
0.0
  0
LINE
  5
1340
330
129C
100
AcDbEntity
  8
0
 62
     0
100
AcDbLine
 10
519.4636407574305
 20
734.424102238141
 30
0.0
 11
521.4636407574305
 21
736.4241022381409
 31
0.0
  0
LINE
  5
1341
330
129C
100
AcDbEntity
  8
0
 62
     0
100
AcDbLine
 10
522.2920678821767
 20
734.4241022381408
 30
0.0
 11
524.2920678821767
 21
736.4241022381409
 31
0.0
  0
LINE
  5
1342
330
129C
100
AcDbEntity
  8
0
 62
     0
100
AcDbLine
 10
525.1204950069229
 20
734.4241022381408
 30
0.0
 11
527.1204950069229
 21
736.4241022381409
 31
0.0
  0
LINE
  5
1343
330
129C
100
AcDbEntity
  8
0
 62
     0
100
AcDbLine
 10
527.9489221316691
 20
734.4241022381408
 30
0.0
 11
529.948922131669
 21
736.4241022381409
 31
0.0
  0
LINE
  5
1344
330
129C
100
AcDbEntity
  8
0
 62
     0
100
AcDbLine
 10
530.7773492564153
 20
734.4241022381408
 30
0.0
 11
532.7773492564152
 21
736.4241022381409
 31
0.0
  0
LINE
  5
1345
330
129C
100
AcDbEntity
  8
0
 62
     0
100
AcDbLine
 10
533.6057763811615
 20
734.4241022381408
 30
0.0
 11
535.6057763811614
 21
736.4241022381409
 31
0.0
  0
LINE
  5
1346
330
129C
100
AcDbEntity
  8
0
 62
     0
100
AcDbLine
 10
536.4342035059077
 20
734.4241022381408
 30
0.0
 11
538.4342035059076
 21
736.4241022381409
 31
0.0
  0
LINE
  5
1347
330
129C
100
AcDbEntity
  8
0
 62
     0
100
AcDbLine
 10
539.2626306306538
 20
734.4241022381408
 30
0.0
 11
541.2626306306537
 21
736.4241022381409
 31
0.0
  0
LINE
  5
1348
330
129C
100
AcDbEntity
  8
0
 62
     0
100
AcDbLine
 10
542.0910577554
 20
734.4241022381408
 30
0.0
 11
544.0910577553999
 21
736.4241022381409
 31
0.0
  0
LINE
  5
1349
330
129C
100
AcDbEntity
  8
0
 62
     0
100
AcDbLine
 10
544.9194848801462
 20
734.4241022381408
 30
0.0
 11
546.9194848801462
 21
736.4241022381409
 31
0.0
  0
LINE
  5
134A
330
129C
100
AcDbEntity
  8
0
 62
     0
100
AcDbLine
 10
547.7479120048924
 20
734.4241022381408
 30
0.0
 11
549.7479120048924
 21
736.4241022381409
 31
0.0
  0
LINE
  5
134B
330
129C
100
AcDbEntity
  8
0
 62
     0
100
AcDbLine
 10
550.5763391296386
 20
734.4241022381408
 30
0.0
 11
552.5763391296386
 21
736.4241022381409
 31
0.0
  0
LINE
  5
134C
330
129C
100
AcDbEntity
  8
0
 62
     0
100
AcDbLine
 10
553.4047662543847
 20
734.4241022381408
 30
0.0
 11
554.7345890392239
 21
735.75392502298
 31
0.0
  0
ENDBLK
  5
134D
330
129C
100
AcDbEntity
  8
0
100
AcDbBlockEnd
  0
BLOCK
  5
1368
330
1367
100
AcDbEntity
  8
0
100
AcDbBlockBegin
  2
*X6
 70
     1
 10
0.0
 20
0.0
 30
0.0
  3
*X6
  1

  0
LINE
  5
1369
330
1367
100
AcDbEntity
  8
0
 62
     0
100
AcDbLine
 10
432.0053945194559
 20
389.5789876482631
 30
0.0
 11
432.816091093286
 21
390.3896842220932
 31
0.0
  0
LINE
  5
136A
330
1367
100
AcDbEntity
  8
0
 62
     0
100
AcDbLine
 10
429.3537440900061
 20
389.5789876482629
 30
0.0
 11
432.816091093286
 21
393.0413346515427
 31
0.0
  0
LINE
  5
136B
330
1367
100
AcDbEntity
  8
0
 62
     0
100
AcDbLine
 10
424.6540971329594
 20
387.5309911206657
 30
0.0
 11
432.816091093286
 21
395.6929850809924
 31
0.0
  0
LINE
  5
136C
330
1367
100
AcDbEntity
  8
0
 62
     0
100
AcDbLine
 10
420.8979208137657
 20
386.4264652309216
 30
0.0
 11
426.6493617877953
 21
392.1779062049512
 31
0.0
  0
LINE
  5
136D
330
1367
100
AcDbEntity
  8
0
 62
     0
100
AcDbLine
 10
428.8160910932861
 20
394.3446355104419
 30
0.0
 11
432.816091093286
 21
398.3446355104419
 31
0.0
  0
LINE
  5
136E
330
1367
100
AcDbEntity
  8
0
 62
     0
100
AcDbLine
 10
418.8160910932856
 20
386.996285939891
 30
0.0
 11
423.0271399392113
 21
391.2073347858166
 31
0.0
  0
LINE
  5
136F
330
1367
100
AcDbEntity
  8
0
 62
     0
100
AcDbLine
 10
428.034644092566
 20
396.2148389391714
 30
0.0
 11
431.8987928016577
 21
400.0789876482631
 31
0.0
  0
LINE
  5
1370
330
1367
100
AcDbEntity
  8
0
 62
     0
100
AcDbLine
 10
418.8160910932856
 20
389.6479363693405
 30
0.0
 11
419.4049180906272
 21
390.2367633666822
 31
0.0
  0
LINE
  5
1371
330
1367
100
AcDbEntity
  8
0
 62
     0
100
AcDbLine
 10
425.7471423722079
 20
396.5789876482629
 30
0.0
 11
429.2471423722082
 21
400.0789876482631
 31
0.0
  0
LINE
  5
1372
330
1367
100
AcDbEntity
  8
0
 62
     0
100
AcDbLine
 10
423.0954919427584
 20
396.5789876482629
 30
0.0
 11
426.5954919427586
 21
400.0789876482631
 31
0.0
  0
LINE
  5
1373
330
1367
100
AcDbEntity
  8
0
 62
     0
100
AcDbLine
 10
420.4438415133088
 20
396.5789876482629
 30
0.0
 11
423.9438415133091
 21
400.0789876482631
 31
0.0
  0
LINE
  5
1374
330
1367
100
AcDbEntity
  8
0
 62
     0
100
AcDbLine
 10
418.8160910932856
 20
397.6028876576892
 30
0.0
 11
421.2921910838595
 21
400.0789876482631
 31
0.0
  0
LINE
  5
1375
330
1367
100
AcDbEntity
  8
0
 62
     0
100
AcDbLine
 10
418.8160910932859
 20
262.3687157557624
 30
0.0
 11
420.2976724681825
 21
263.8502971306589
 31
0.0
  0
LINE
  5
1376
330
1367
100
AcDbEntity
  8
0
 62
     0
100
AcDbLine
 10
419.1015302292628
 20
260.0025044622896
 30
0.0
 11
422.4511135406596
 21
263.3520877736865
 31
0.0
  0
LINE
  5
1377
330
1367
100
AcDbEntity
  8
0
 62
     0
100
AcDbLine
 10
421.1928209886073
 20
259.4421447921846
 30
0.0
 11
424.4532716540494
 21
262.7025954576268
 31
0.0
  0
LINE
  5
1378
330
1367
100
AcDbEntity
  8
0
 62
     0
100
AcDbLine
 10
423.2841117479519
 20
258.8817851220797
 30
0.0
 11
426.3226316959522
 21
261.9203050700799
 31
0.0
  0
LINE
  5
1379
330
1367
100
AcDbEntity
  8
0
 62
     0
100
AcDbLine
 10
418.8160910932859
 20
251.7621140379642
 30
0.0
 11
420.6329647035848
 21
253.5789876482629
 31
0.0
  0
LINE
  5
137A
330
1367
100
AcDbEntity
  8
0
 62
     0
100
AcDbLine
 10
425.3754025072964
 20
258.3214254519747
 30
0.0
 11
428.0719074846017
 21
261.01793042928
 31
0.0
  0
LINE
  5
137B
330
1367
100
AcDbEntity
  8
0
 62
     0
100
AcDbLine
 10
419.8003531131602
 20
250.0947256283888
 30
0.0
 11
423.2846151330343
 21
253.5789876482629
 31
0.0
  0
LINE
  5
137C
330
1367
100
AcDbEntity
  8
0
 62
     0
100
AcDbLine
 10
427.4659100277842
 20
257.7602825430128
 30
0.0
 11
430.2846151330343
 21
260.5789876482629
 31
0.0
  0
LINE
  5
137D
330
1367
100
AcDbEntity
  8
0
 62
     0
100
AcDbLine
 10
422.4362655624839
 20
250.0789876482629
 30
0.0
 11
425.9362655624839
 21
253.5789876482629
 31
0.0
  0
LINE
  5
137E
330
1367
100
AcDbEntity
  8
0
 62
     0
100
AcDbLine
 10
428.7594234705462
 20
256.4021455563253
 30
0.0
 11
432.816091093286
 21
260.4588131790651
 31
0.0
  0
LINE
  5
137F
330
1367
100
AcDbEntity
  8
0
 62
     0
100
AcDbLine
 10
425.0879159919334
 20
250.0789876482629
 30
0.0
 11
432.816091093286
 21
257.8071627496156
 31
0.0
  0
LINE
  5
1380
330
1367
100
AcDbEntity
  8
0
 62
     0
100
AcDbLine
 10
427.7395664213829
 20
250.0789876482629
 30
0.0
 11
432.816091093286
 21
255.155512320166
 31
0.0
  0
LINE
  5
1381
330
1367
100
AcDbEntity
  8
0
 62
     0
100
AcDbLine
 10
430.3912168508325
 20
250.0789876482629
 30
0.0
 11
432.816091093286
 21
252.5038618907165
 31
0.0
  0
LINE
  5
1382
330
1367
100
AcDbEntity
  8
0
 62
     0
100
AcDbLine
 10
432.816091093286
 20
259.2646709930472
 30
0.0
 11
431.5017744380703
 21
260.5789876482629
 31
0.0
  0
LINE
  5
1383
330
1367
100
AcDbEntity
  8
0
 62
     0
100
AcDbLine
 10
432.816091093286
 20
256.6130205635977
 30
0.0
 11
428.8501240086207
 21
260.5789876482629
 31
0.0
  0
LINE
  5
1384
330
1367
100
AcDbEntity
  8
0
 62
     0
100
AcDbLine
 10
432.816091093286
 20
253.9613701341481
 30
0.0
 11
423.8643682591546
 21
262.9130929682796
 31
0.0
  0
LINE
  5
1385
330
1367
100
AcDbEntity
  8
0
 62
     0
100
AcDbLine
 10
432.816091093286
 20
251.3097197046985
 30
0.0
 11
428.8091446407454
 21
255.3166661572392
 31
0.0
  0
LINE
  5
1386
330
1367
100
AcDbEntity
  8
0
 62
     0
100
AcDbLine
 10
425.9614039627666
 20
258.164406835218
 30
0.0
 11
420.2704958388344
 21
263.8553149591502
 31
0.0
  0
LINE
  5
1387
330
1367
100
AcDbEntity
  8
0
 62
     0
100
AcDbLine
 10
431.3951727202721
 20
250.0789876482629
 30
0.0
 11
427.7177639670484
 21
253.7563964014867
 31
0.0
  0
LINE
  5
1388
330
1367
100
AcDbEntity
  8
0
 62
     0
100
AcDbLine
 10
422.3391821141827
 20
259.1349782543524
 30
0.0
 11
418.8160910932859
 21
262.658069275249
 31
0.0
  0
LINE
  5
1389
330
1367
100
AcDbEntity
  8
0
 62
     0
100
AcDbLine
 10
428.7435222908225
 20
250.0789876482629
 30
0.0
 11
425.2435222908226
 21
253.5789876482629
 31
0.0
  0
LINE
  5
138A
330
1367
100
AcDbEntity
  8
0
 62
     0
100
AcDbLine
 10
426.091871861373
 20
250.0789876482629
 30
0.0
 11
422.5918718613731
 21
253.5789876482629
 31
0.0
  0
LINE
  5
138B
330
1367
100
AcDbEntity
  8
0
 62
     0
100
AcDbLine
 10
423.4402214319234
 20
250.0789876482629
 30
0.0
 11
419.9402214319235
 21
253.5789876482629
 31
0.0
  0
LINE
  5
138C
330
1367
100
AcDbEntity
  8
0
 62
     0
100
AcDbLine
 10
420.7885710024739
 20
250.0789876482629
 30
0.0
 11
418.8160910932859
 21
252.0514675574509
 31
0.0
  0
LINE
  5
138D
330
1367
100
AcDbEntity
  8
0
 62
     0
100
AcDbLine
 10
419.8695077861718
 20
386.2322227664923
 30
0.0
 11
418.8160910932856
 21
387.2856394593784
 31
0.0
  0
LINE
  5
138E
330
1367
100
AcDbEntity
  8
0
 62
     0
100
AcDbLine
 10
422.0544440632319
 20
386.6989369188817
 30
0.0
 11
418.8160910932856
 21
389.9372898888281
 31
0.0
  0
LINE
  5
138F
330
1367
100
AcDbEntity
  8
0
 62
     0
100
AcDbLine
 10
424.0836930844168
 20
387.3213383271464
 30
0.0
 11
420.7956283531361
 21
390.6094030584271
 31
0.0
  0
LINE
  5
1390
330
1367
100
AcDbEntity
  8
0
 62
     0
100
AcDbLine
 10
425.9771529538479
 20
388.0795288871648
 30
0.0
 11
422.8869191124806
 21
391.1697627285321
 31
0.0
  0
LINE
  5
1391
330
1367
100
AcDbEntity
  8
0
 62
     0
100
AcDbLine
 10
427.7484579823108
 20
388.9598742881515
 30
0.0
 11
424.9782098718251
 21
391.7301223986372
 31
0.0
  0
LINE
  5
1392
330
1367
100
AcDbEntity
  8
0
 62
     0
100
AcDbLine
 10
420.1293446221994
 20
396.5789876482629
 30
0.0
 11
418.8160910932856
 21
397.8922411771767
 31
0.0
  0
LINE
  5
1393
330
1367
100
AcDbEntity
  8
0
 62
     0
100
AcDbLine
 10
429.7809950516489
 20
389.578987648263
 30
0.0
 11
427.0695006311696
 21
392.2904820687422
 31
0.0
  0
LINE
  5
1394
330
1367
100
AcDbEntity
  8
0
 62
     0
100
AcDbLine
 10
422.7809950516489
 20
396.5789876482629
 30
0.0
 11
419.5485430724671
 21
399.8114396274447
 31
0.0
  0
LINE
  5
1395
330
1367
100
AcDbEntity
  8
0
 62
     0
100
AcDbLine
 10
432.4326454810983
 20
389.5789876482631
 30
0.0
 11
428.6252197566549
 21
393.3864133727066
 31
0.0
  0
LINE
  5
1396
330
1367
100
AcDbEntity
  8
0
 62
     0
100
AcDbLine
 10
425.4326454810985
 20
396.5789876482629
 30
0.0
 11
421.9326454810982
 21
400.0789876482631
 31
0.0
  0
LINE
  5
1397
330
1367
100
AcDbEntity
  8
0
 62
     0
100
AcDbLine
 10
432.816091093286
 20
391.847192465525
 30
0.0
 11
424.5842959105478
 21
400.0789876482631
 31
0.0
  0
LINE
  5
1398
330
1367
100
AcDbEntity
  8
0
 62
     0
100
AcDbLine
 10
432.816091093286
 20
394.4988428949745
 30
0.0
 11
427.2359463399974
 21
400.0789876482631
 31
0.0
  0
LINE
  5
1399
330
1367
100
AcDbEntity
  8
0
 62
     0
100
AcDbLine
 10
432.816091093286
 20
397.150493324424
 30
0.0
 11
429.8875967694469
 21
400.0789876482631
 31
0.0
  0
LINE
  5
139A
330
1367
100
AcDbEntity
  8
0
 62
     0
100
AcDbLine
 10
432.816091093286
 20
399.8021437538736
 30
0.0
 11
432.5392471988965
 21
400.0789876482631
 31
0.0
  0
ENDBLK
  5
139B
330
1367
100
AcDbEntity
  8
0
100
AcDbBlockEnd
  0
BLOCK
  5
139D
330
139C
100
AcDbEntity
  8
0
100
AcDbBlockBegin
  2
*X7
 70
     1
 10
0.0
 20
0.0
 30
0.0
  3
*X7
  1

  0
LINE
  5
139E
330
139C
100
AcDbEntity
  8
0
 62
     0
100
AcDbLine
 10
453.8646657669176
 20
383.1539876482629
 30
0.0
 11
454.5528784301013
 21
383.8422003114466
 31
0.0
  0
LINE
  5
139F
330
139C
100
AcDbEntity
  8
0
 62
     0
100
AcDbLine
 10
450.3291318609848
 20
383.1539876482629
 30
0.0
 11
452.254131860984
 21
385.078987648262
 31
0.0
  0
LINE
  5
13A0
330
139C
100
AcDbEntity
  8
0
 62
     0
100
AcDbLine
 10
446.7935979550522
 20
383.1539876482629
 30
0.0
 11
448.7185979550512
 21
385.078987648262
 31
0.0
  0
LINE
  5
13A1
330
139C
100
AcDbEntity
  8
0
 62
     0
100
AcDbLine
 10
443.2580640491194
 20
383.1539876482629
 30
0.0
 11
445.1830640491185
 21
385.078987648262
 31
0.0
  0
LINE
  5
13A2
330
139C
100
AcDbEntity
  8
0
 62
     0
100
AcDbLine
 10
450.1830640491194
 20
390.0789876482629
 30
0.0
 11
453.316091093286
 21
393.2120146924295
 31
0.0
  0
LINE
  5
13A3
330
139C
100
AcDbEntity
  8
0
 62
     0
100
AcDbLine
 10
439.7225301431866
 20
383.1539876482629
 30
0.0
 11
441.6475301431858
 21
385.078987648262
 31
0.0
  0
LINE
  5
13A4
330
139C
100
AcDbEntity
  8
0
 62
     0
100
AcDbLine
 10
446.6475301431866
 20
390.0789876482629
 30
0.0
 11
453.316091093286
 21
396.7475485983623
 31
0.0
  0
LINE
  5
13A5
330
139C
100
AcDbEntity
  8
0
 62
     0
100
AcDbLine
 10
436.1869962372539
 20
383.1539876482629
 30
0.0
 11
438.111996237253
 21
385.078987648262
 31
0.0
  0
LINE
  5
13A6
330
139C
100
AcDbEntity
  8
0
 62
     0
100
AcDbLine
 10
449.8160910932857
 20
396.7830825042947
 30
0.0
 11
453.111996237254
 21
400.0789876482628
 31
0.0
  0
LINE
  5
13A7
330
139C
100
AcDbEntity
  8
0
 62
     0
100
AcDbLine
 10
443.1119962372539
 20
390.0789876482629
 30
0.0
 11
448.1119962372539
 21
395.0789876482629
 31
0.0
  0
LINE
  5
13A8
330
139C
100
AcDbEntity
  8
0
 62
     0
100
AcDbLine
 10
432.6514623313212
 20
383.1539876482629
 30
0.0
 11
436.316091093286
 21
386.8186164102277
 31
0.0
  0
LINE
  5
13A9
330
139C
100
AcDbEntity
  8
0
 62
     0
100
AcDbLine
 10
439.5764623313212
 20
390.0789876482629
 30
0.0
 11
444.5764623313212
 21
395.0789876482629
 31
0.0
  0
LINE
  5
13AA
330
139C
100
AcDbEntity
  8
0
 62
     0
100
AcDbLine
 10
430.8160910932859
 20
384.8541503161604
 30
0.0
 11
441.0409284253884
 21
395.0789876482629
 31
0.0
  0
LINE
  5
13AB
330
139C
100
AcDbEntity
  8
0
 62
     0
100
AcDbLine
 10
430.8160910932859
 20
388.3896842220932
 30
0.0
 11
432.0053945194559
 21
389.5789876482631
 31
0.0
  0
LINE
  5
13AC
330
139C
100
AcDbEntity
  8
0
 62
     0
100
AcDbLine
 10
432.816091093286
 20
390.3896842220932
 30
0.0
 11
437.5053945194557
 21
395.0789876482629
 31
0.0
  0
LINE
  5
13AD
330
139C
100
AcDbEntity
  8
0
 62
     0
100
AcDbLine
 10
432.816091093286
 20
393.9252181280259
 30
0.0
 11
433.969860613523
 21
395.0789876482629
 31
0.0
  0
LINE
  5
13AE
330
139C
100
AcDbEntity
  8
0
 62
     0
100
AcDbLine
 10
430.8160910932861
 20
264.6459975144474
 30
0.0
 11
433.1740812271014
 21
267.0039876482628
 31
0.0
  0
LINE
  5
13AF
330
139C
100
AcDbEntity
  8
0
 62
     0
100
AcDbLine
 10
430.8160910932861
 20
261.1104636085147
 30
0.0
 11
436.7096151330342
 21
267.0039876482628
 31
0.0
  0
LINE
  5
13B0
330
139C
100
AcDbEntity
  8
0
 62
     0
100
AcDbLine
 10
432.816091093286
 20
259.574929702582
 30
0.0
 11
436.316091093286
 21
263.0749297025819
 31
0.0
  0
LINE
  5
13B1
330
139C
100
AcDbEntity
  8
0
 62
     0
100
AcDbLine
 10
438.3201490389681
 20
265.078987648264
 30
0.0
 11
440.2451490389669
 21
267.0039876482628
 31
0.0
  0
LINE
  5
13B2
330
139C
100
AcDbEntity
  8
0
 62
     0
100
AcDbLine
 10
432.816091093286
 20
256.0393957966492
 30
0.0
 11
436.316091093286
 21
259.5393957966492
 31
0.0
  0
LINE
  5
13B3
330
139C
100
AcDbEntity
  8
0
 62
     0
100
AcDbLine
 10
441.8556829449008
 20
265.078987648264
 30
0.0
 11
443.7806829448996
 21
267.0039876482628
 31
0.0
  0
LINE
  5
13B4
330
139C
100
AcDbEntity
  8
0
 62
     0
100
AcDbLine
 10
432.816091093286
 20
252.5038618907165
 30
0.0
 11
436.316091093286
 21
256.0038618907165
 31
0.0
  0
LINE
  5
13B5
330
139C
100
AcDbEntity
  8
0
 62
     0
100
AcDbLine
 10
445.3912168508336
 20
265.0789876482639
 30
0.0
 11
447.3162168508324
 21
267.0039876482628
 31
0.0
  0
LINE
  5
13B6
330
139C
100
AcDbEntity
  8
0
 62
     0
100
AcDbLine
 10
433.9267507567653
 20
250.0789876482629
 30
0.0
 11
438.9267507567652
 21
255.0789876482629
 31
0.0
  0
LINE
  5
13B7
330
139C
100
AcDbEntity
  8
0
 62
     0
100
AcDbLine
 10
448.9267507567662
 20
265.0789876482639
 30
0.0
 11
450.8517507567652
 21
267.0039876482628
 31
0.0
  0
LINE
  5
13B8
330
139C
100
AcDbEntity
  8
0
 62
     0
100
AcDbLine
 10
437.4622846626979
 20
250.0789876482629
 30
0.0
 11
442.462284662698
 21
255.0789876482629
 31
0.0
  0
LINE
  5
13B9
330
139C
100
AcDbEntity
  8
0
 62
     0
100
AcDbLine
 10
452.4622846626989
 20
265.0789876482639
 30
0.0
 11
454.3872846626978
 21
267.0039876482628
 31
0.0
  0
LINE
  5
13BA
330
139C
100
AcDbEntity
  8
0
 62
     0
100
AcDbLine
 10
440.9978185686307
 20
250.0789876482629
 30
0.0
 11
445.9978185686306
 21
255.0789876482629
 31
0.0
  0
LINE
  5
13BB
330
139C
100
AcDbEntity
  8
0
 62
     0
100
AcDbLine
 10
444.5333524745634
 20
250.0789876482629
 30
0.0
 11
449.5333524745634
 21
255.0789876482629
 31
0.0
  0
LINE
  5
13BC
330
139C
100
AcDbEntity
  8
0
 62
     0
100
AcDbLine
 10
448.0688863804962
 20
250.0789876482629
 30
0.0
 11
453.0688863804961
 21
255.0789876482629
 31
0.0
  0
LINE
  5
13BD
330
139C
100
AcDbEntity
  8
0
 62
     0
100
AcDbLine
 10
451.6044202864289
 20
250.0789876482629
 30
0.0
 11
453.316091093286
 21
251.79065845512
 31
0.0
  0
LINE
  5
13BE
330
139C
100
AcDbEntity
  8
0
 62
     0
100
AcDbLine
 10
454.7430101276502
 20
266.5059066826282
 30
0.0
 11
454.2449291620155
 21
267.0039876482628
 31
0.0
  0
LINE
  5
13BF
330
139C
100
AcDbEntity
  8
0
 62
     0
100
AcDbLine
 10
452.6343952560818
 20
265.0789876482639
 30
0.0
 11
450.7093952560827
 21
267.0039876482628
 31
0.0
  0
LINE
  5
13C0
330
139C
100
AcDbEntity
  8
0
 62
     0
100
AcDbLine
 10
449.098861350149
 20
265.0789876482639
 30
0.0
 11
447.1738613501499
 21
267.0039876482628
 31
0.0
  0
LINE
  5
13C1
330
139C
100
AcDbEntity
  8
0
 62
     0
100
AcDbLine
 10
445.5633274442162
 20
265.0789876482639
 30
0.0
 11
443.6383274442173
 21
267.0039876482628
 31
0.0
  0
LINE
  5
13C2
330
139C
100
AcDbEntity
  8
0
 62
     0
100
AcDbLine
 10
453.316091093286
 20
253.7906900932614
 30
0.0
 11
452.0277935382845
 21
255.0789876482629
 31
0.0
  0
LINE
  5
13C3
330
139C
100
AcDbEntity
  8
0
 62
     0
100
AcDbLine
 10
442.0277935382834
 20
265.078987648264
 30
0.0
 11
440.1027935382844
 21
267.0039876482628
 31
0.0
  0
LINE
  5
13C4
330
139C
100
AcDbEntity
  8
0
 62
     0
100
AcDbLine
 10
453.316091093286
 20
250.2551561873287
 30
0.0
 11
448.4922596323517
 21
255.0789876482629
 31
0.0
  0
LINE
  5
13C5
330
139C
100
AcDbEntity
  8
0
 62
     0
100
AcDbLine
 10
438.4922596323506
 20
265.078987648264
 30
0.0
 11
436.5672596323518
 21
267.0039876482628
 31
0.0
  0
LINE
  5
13C6
330
139C
100
AcDbEntity
  8
0
 62
     0
100
AcDbLine
 10
449.956725726419
 20
250.0789876482629
 30
0.0
 11
444.956725726419
 21
255.0789876482629
 31
0.0
  0
LINE
  5
13C7
330
139C
100
AcDbEntity
  8
0
 62
     0
100
AcDbLine
 10
436.316091093286
 20
263.7196222813959
 30
0.0
 11
433.031725726419
 21
267.0039876482628
 31
0.0
  0
LINE
  5
13C8
330
139C
100
AcDbEntity
  8
0
 62
     0
100
AcDbLine
 10
446.4211918204863
 20
250.0789876482629
 30
0.0
 11
441.4211918204863
 21
255.0789876482629
 31
0.0
  0
LINE
  5
13C9
330
139C
100
AcDbEntity
  8
0
 62
     0
100
AcDbLine
 10
436.316091093286
 20
260.1840883754631
 30
0.0
 11
430.8160910932861
 21
265.6840883754632
 31
0.0
  0
LINE
  5
13CA
330
139C
100
AcDbEntity
  8
0
 62
     0
100
AcDbLine
 10
442.8856579145535
 20
250.0789876482629
 30
0.0
 11
437.8856579145534
 21
255.0789876482629
 31
0.0
  0
LINE
  5
13CB
330
139C
100
AcDbEntity
  8
0
 62
     0
100
AcDbLine
 10
432.3856579145536
 20
260.5789876482629
 30
0.0
 11
430.8160910932861
 21
262.1485544695304
 31
0.0
  0
LINE
  5
13CC
330
139C
100
AcDbEntity
  8
0
 62
     0
100
AcDbLine
 10
436.316091093286
 20
256.6485544695304
 30
0.0
 11
432.816091093286
 21
260.1485544695304
 31
0.0
  0
LINE
  5
13CD
330
139C
100
AcDbEntity
  8
0
 62
     0
100
AcDbLine
 10
439.3501240086208
 20
250.0789876482629
 30
0.0
 11
432.816091093286
 21
256.6130205635977
 31
0.0
  0
LINE
  5
13CE
330
139C
100
AcDbEntity
  8
0
 62
     0
100
AcDbLine
 10
435.8145901026881
 20
250.0789876482629
 30
0.0
 11
432.816091093286
 21
253.0774866576649
 31
0.0
  0
LINE
  5
13CF
330
139C
100
AcDbEntity
  8
0
 62
     0
100
AcDbLine
 10
433.5543446221993
 20
383.1539876482629
 30
0.0
 11
430.8160910932859
 21
385.8922411771763
 31
0.0
  0
LINE
  5
13D0
330
139C
100
AcDbEntity
  8
0
 62
     0
100
AcDbLine
 10
437.0898785281321
 20
383.1539876482629
 30
0.0
 11
430.8160910932859
 21
389.427775083109
 31
0.0
  0
LINE
  5
13D1
330
139C
100
AcDbEntity
  8
0
 62
     0
100
AcDbLine
 10
440.6254124340647
 20
383.1539876482629
 30
0.0
 11
438.7004124340657
 21
385.078987648262
 31
0.0
  0
LINE
  5
13D2
330
139C
100
AcDbEntity
  8
0
 62
     0
100
AcDbLine
 10
436.316091093286
 20
387.4633089890417
 30
0.0
 11
432.816091093286
 21
390.9633089890418
 31
0.0
  0
LINE
  5
13D3
330
139C
100
AcDbEntity
  8
0
 62
     0
100
AcDbLine
 10
444.1609463399975
 20
383.1539876482629
 30
0.0
 11
442.2359463399984
 21
385.078987648262
 31
0.0
  0
LINE
  5
13D4
330
139C
100
AcDbEntity
  8
0
 62
     0
100
AcDbLine
 10
437.2359463399975
 20
390.0789876482629
 30
0.0
 11
432.816091093286
 21
394.4988428949745
 31
0.0
  0
LINE
  5
13D5
330
139C
100
AcDbEntity
  8
0
 62
     0
100
AcDbLine
 10
447.6964802459303
 20
383.1539876482629
 30
0.0
 11
445.7714802459312
 21
385.078987648262
 31
0.0
  0
LINE
  5
13D6
330
139C
100
AcDbEntity
  8
0
 62
     0
100
AcDbLine
 10
440.7714802459302
 20
390.0789876482629
 30
0.0
 11
435.7714802459303
 21
395.0789876482629
 31
0.0
  0
LINE
  5
13D7
330
139C
100
AcDbEntity
  8
0
 62
     0
100
AcDbLine
 10
451.232014151863
 20
383.1539876482629
 30
0.0
 11
449.3070141518639
 21
385.078987648262
 31
0.0
  0
LINE
  5
13D8
330
139C
100
AcDbEntity
  8
0
 62
     0
100
AcDbLine
 10
444.307014151863
 20
390.0789876482629
 30
0.0
 11
439.3070141518631
 21
395.0789876482629
 31
0.0
  0
LINE
  5
13D9
330
139C
100
AcDbEntity
  8
0
 62
     0
100
AcDbLine
 10
454.7675480577957
 20
383.1539876482629
 30
0.0
 11
452.8425480577967
 21
385.078987648262
 31
0.0
  0
LINE
  5
13DA
330
139C
100
AcDbEntity
  8
0
 62
     0
100
AcDbLine
 10
447.8425480577958
 20
390.0789876482629
 30
0.0
 11
442.8425480577957
 21
395.0789876482629
 31
0.0
  0
LINE
  5
13DB
330
139C
100
AcDbEntity
  8
0
 62
     0
100
AcDbLine
 10
451.3780819637284
 20
390.0789876482629
 30
0.0
 11
446.3780819637285
 21
395.0789876482629
 31
0.0
  0
LINE
  5
13DC
330
139C
100
AcDbEntity
  8
0
 62
     0
100
AcDbLine
 10
453.316091093286
 20
391.6765124246382
 30
0.0
 11
449.8160910932855
 21
395.1765124246387
 31
0.0
  0
LINE
  5
13DD
330
139C
100
AcDbEntity
  8
0
 62
     0
100
AcDbLine
 10
453.316091093286
 20
395.212046330571
 30
0.0
 11
449.8160910932859
 21
398.7120463305711
 31
0.0
  0
LINE
  5
13DE
330
139C
100
AcDbEntity
  8
0
 62
     0
100
AcDbLine
 10
453.316091093286
 20
398.7475802365037
 30
0.0
 11
451.9846836815268
 21
400.0789876482628
 31
0.0
  0
ENDBLK
  5
13DF
330
139C
100
AcDbEntity
  8
0
100
AcDbBlockEnd
  0
BLOCK
  5
13F9
330
13F8
100
AcDbEntity
  8
0
100
AcDbBlockBegin
  2
*X8
 70
     1
 10
0.0
 20
0.0
 30
0.0
  3
*X8
  1

  0
LINE
  5
13FA
330
13F8
100
AcDbEntity
  8
0
 62
     0
100
AcDbLine
 10
311.9201457999596
 20
265.0789876482631
 30
0.0
 11
309.9201457999597
 21
267.0789876482631
 31
0.0
  0
LINE
  5
13FB
330
13F8
100
AcDbEntity
  8
0
 62
     0
100
AcDbLine
 10
202.9201457999597
 20
374.078987648263
 30
0.0
 11
200.9201457999598
 21
376.078987648263
 31
0.0
  0
LINE
  5
13FC
330
13F8
100
AcDbEntity
  8
0
 62
     0
100
AcDbLine
 10
309.0917186752134
 20
265.0789876482631
 30
0.0
 11
307.0917186752135
 21
267.0789876482631
 31
0.0
  0
LINE
  5
13FD
330
13F8
100
AcDbEntity
  8
0
 62
     0
100
AcDbLine
 10
200.0917186752136
 20
374.078987648263
 30
0.0
 11
198.0917186752136
 21
376.078987648263
 31
0.0
  0
LINE
  5
13FE
330
13F8
100
AcDbEntity
  8
0
 62
     0
100
AcDbLine
 10
306.2632915504673
 20
265.0789876482631
 30
0.0
 11
304.2632915504673
 21
267.0789876482631
 31
0.0
  0
LINE
  5
13FF
330
13F8
100
AcDbEntity
  8
0
 62
     0
100
AcDbLine
 10
197.2632915504674
 20
374.078987648263
 30
0.0
 11
195.2632915504674
 21
376.078987648263
 31
0.0
  0
LINE
  5
1400
330
13F8
100
AcDbEntity
  8
0
 62
     0
100
AcDbLine
 10
303.4348644257211
 20
265.0789876482631
 30
0.0
 11
301.4348644257211
 21
267.0789876482631
 31
0.0
  0
LINE
  5
1401
330
13F8
100
AcDbEntity
  8
0
 62
     0
100
AcDbLine
 10
194.4348644257211
 20
374.078987648263
 30
0.0
 11
192.4348644257212
 21
376.078987648263
 31
0.0
  0
LINE
  5
1402
330
13F8
100
AcDbEntity
  8
0
 62
     0
100
AcDbLine
 10
300.6064373009749
 20
265.0789876482631
 30
0.0
 11
298.6064373009749
 21
267.0789876482631
 31
0.0
  0
LINE
  5
1403
330
13F8
100
AcDbEntity
  8
0
 62
     0
100
AcDbLine
 10
191.606437300975
 20
374.078987648263
 30
0.0
 11
189.606437300975
 21
376.078987648263
 31
0.0
  0
LINE
  5
1404
330
13F8
100
AcDbEntity
  8
0
 62
     0
100
AcDbLine
 10
297.7780101762287
 20
265.0789876482631
 30
0.0
 11
295.7780101762288
 21
267.0789876482631
 31
0.0
  0
LINE
  5
1405
330
13F8
100
AcDbEntity
  8
0
 62
     0
100
AcDbLine
 10
188.7780101762288
 20
374.078987648263
 30
0.0
 11
186.7780101762288
 21
376.078987648263
 31
0.0
  0
LINE
  5
1406
330
13F8
100
AcDbEntity
  8
0
 62
     0
100
AcDbLine
 10
294.9495830514825
 20
265.0789876482631
 30
0.0
 11
292.9495830514825
 21
267.0789876482631
 31
0.0
  0
LINE
  5
1407
330
13F8
100
AcDbEntity
  8
0
 62
     0
100
AcDbLine
 10
185.9495830514826
 20
374.078987648263
 30
0.0
 11
183.9495830514826
 21
376.078987648263
 31
0.0
  0
LINE
  5
1408
330
13F8
100
AcDbEntity
  8
0
 62
     0
100
AcDbLine
 10
292.1211559267363
 20
265.0789876482631
 30
0.0
 11
290.1211559267363
 21
267.0789876482631
 31
0.0
  0
LINE
  5
1409
330
13F8
100
AcDbEntity
  8
0
 62
     0
100
AcDbLine
 10
183.1211559267364
 20
374.078987648263
 30
0.0
 11
181.1211559267364
 21
376.078987648263
 31
0.0
  0
LINE
  5
140A
330
13F8
100
AcDbEntity
  8
0
 62
     0
100
AcDbLine
 10
289.2927288019901
 20
265.0789876482631
 30
0.0
 11
287.2927288019901
 21
267.0789876482631
 31
0.0
  0
LINE
  5
140B
330
13F8
100
AcDbEntity
  8
0
 62
     0
100
AcDbLine
 10
180.2927288019902
 20
374.078987648263
 30
0.0
 11
178.2927288019902
 21
376.078987648263
 31
0.0
  0
LINE
  5
140C
330
13F8
100
AcDbEntity
  8
0
 62
     0
100
AcDbLine
 10
286.4643016772439
 20
265.0789876482631
 30
0.0
 11
284.4643016772439
 21
267.0789876482631
 31
0.0
  0
LINE
  5
140D
330
13F8
100
AcDbEntity
  8
0
 62
     0
100
AcDbLine
 10
177.464301677244
 20
374.078987648263
 30
0.0
 11
175.464301677244
 21
376.078987648263
 31
0.0
  0
LINE
  5
140E
330
13F8
100
AcDbEntity
  8
0
 62
     0
100
AcDbLine
 10
283.6358745524977
 20
265.0789876482631
 30
0.0
 11
281.6358745524977
 21
267.0789876482631
 31
0.0
  0
LINE
  5
140F
330
13F8
100
AcDbEntity
  8
0
 62
     0
100
AcDbLine
 10
174.6358745524978
 20
374.078987648263
 30
0.0
 11
172.6358745524978
 21
376.078987648263
 31
0.0
  0
LINE
  5
1410
330
13F8
100
AcDbEntity
  8
0
 62
     0
100
AcDbLine
 10
280.8074474277515
 20
265.0789876482631
 30
0.0
 11
278.8074474277516
 21
267.0789876482631
 31
0.0
  0
LINE
  5
1411
330
13F8
100
AcDbEntity
  8
0
 62
     0
100
AcDbLine
 10
171.8074474277516
 20
374.078987648263
 30
0.0
 11
169.8074474277516
 21
376.078987648263
 31
0.0
  0
LINE
  5
1412
330
13F8
100
AcDbEntity
  8
0
 62
     0
100
AcDbLine
 10
277.9790203030053
 20
265.0789876482631
 30
0.0
 11
275.9790203030054
 21
267.0789876482631
 31
0.0
  0
LINE
  5
1413
330
13F8
100
AcDbEntity
  8
0
 62
     0
100
AcDbLine
 10
168.9790203030054
 20
374.078987648263
 30
0.0
 11
166.9790203030054
 21
376.078987648263
 31
0.0
  0
LINE
  5
1414
330
13F8
100
AcDbEntity
  8
0
 62
     0
100
AcDbLine
 10
275.1505931782591
 20
265.0789876482631
 30
0.0
 11
273.1505931782592
 21
267.0789876482631
 31
0.0
  0
LINE
  5
1415
330
13F8
100
AcDbEntity
  8
0
 62
     0
100
AcDbLine
 10
166.1505931782592
 20
374.078987648263
 30
0.0
 11
164.1505931782592
 21
376.078987648263
 31
0.0
  0
LINE
  5
1416
330
13F8
100
AcDbEntity
  8
0
 62
     0
100
AcDbLine
 10
272.3221660535129
 20
265.0789876482631
 30
0.0
 11
270.2140929103324
 21
267.1870607914436
 31
0.0
  0
LINE
  5
1417
330
13F8
100
AcDbEntity
  8
0
 62
     0
100
AcDbLine
 10
163.322166053513
 20
374.078987648263
 30
0.0
 11
162.7671104149951
 21
374.634043286781
 31
0.0
  0
LINE
  5
1418
330
13F8
100
AcDbEntity
  8
0
 62
     0
100
AcDbLine
 10
269.2569405306056
 20
265.3157860464243
 30
0.0
 11
266.060594030622
 21
268.5121325464078
 31
0.0
  0
LINE
  5
1419
330
13F8
100
AcDbEntity
  8
0
 62
     0
100
AcDbLine
 10
160.4937389287669
 20
374.078987648263
 30
0.0
 11
158.4937389287668
 21
376.078987648263
 31
0.0
  0
LINE
  5
141A
330
13F8
100
AcDbEntity
  8
0
 62
     0
100
AcDbLine
 10
264.9055832946217
 20
266.838716157662
 30
0.0
 11
260.9179992583561
 21
270.8263001939276
 31
0.0
  0
LINE
  5
141B
330
13F8
100
AcDbEntity
  8
0
 62
     0
100
AcDbLine
 10
157.6653118040207
 20
374.078987648263
 30
0.0
 11
155.6653118040206
 21
376.078987648263
 31
0.0
  0
LINE
  5
141C
330
13F8
100
AcDbEntity
  8
0
 62
     0
100
AcDbLine
 10
259.7629885223558
 20
269.1528838051817
 30
0.0
 11
255.7754044860901
 21
273.1404678414474
 31
0.0
  0
LINE
  5
141D
330
13F8
100
AcDbEntity
  8
0
 62
     0
100
AcDbLine
 10
154.8368846792745
 20
374.078987648263
 30
0.0
 11
152.8368846792744
 21
376.078987648263
 31
0.0
  0
LINE
  5
141E
330
13F8
100
AcDbEntity
  8
0
 62
     0
100
AcDbLine
 10
254.6203937500899
 20
271.4670514527014
 30
0.0
 11
250.7570072670775
 21
275.3304379357139
 31
0.0
  0
LINE
  5
141F
330
13F8
100
AcDbEntity
  8
0
 62
     0
100
AcDbLine
 10
152.0084575545283
 20
374.078987648263
 30
0.0
 11
150.0084575545282
 21
376.078987648263
 31
0.0
  0
LINE
  5
1420
330
13F8
100
AcDbEntity
  8
0
 62
     0
100
AcDbLine
 10
249.6850297030104
 20
273.5739883750347
 30
0.0
 11
247.2139136903293
 21
276.0451043877158
 31
0.0
  0
LINE
  5
1421
330
13F8
100
AcDbEntity
  8
0
 62
     0
100
AcDbLine
 10
149.1800304297821
 20
374.078987648263
 30
0.0
 11
147.180030429782
 21
376.078987648263
 31
0.0
  0
LINE
  5
1422
330
13F8
100
AcDbEntity
  8
0
 62
     0
100
AcDbLine
 10
246.3521227016024
 20
274.0784682516966
 30
0.0
 11
244.3516033050356
 21
276.0789876482633
 31
0.0
  0
LINE
  5
1423
330
13F8
100
AcDbEntity
  8
0
 62
     0
100
AcDbLine
 10
146.3516033050359
 20
374.0789876482631
 30
0.0
 11
144.3516033050358
 21
376.078987648263
 31
0.0
  0
LINE
  5
1424
330
13F8
100
AcDbEntity
  8
0
 62
     0
100
AcDbLine
 10
243.5231761802894
 20
274.0789876482634
 30
0.0
 11
241.5231761802894
 21
276.0789876482633
 31
0.0
  0
LINE
  5
1425
330
13F8
100
AcDbEntity
  8
0
 62
     0
100
AcDbLine
 10
143.5231761802897
 20
374.0789876482631
 30
0.0
 11
141.5231761802897
 21
376.078987648263
 31
0.0
  0
LINE
  5
1426
330
13F8
100
AcDbEntity
  8
0
 62
     0
100
AcDbLine
 10
240.6947490555432
 20
274.0789876482634
 30
0.0
 11
238.6947490555432
 21
276.0789876482633
 31
0.0
  0
LINE
  5
1427
330
13F8
100
AcDbEntity
  8
0
 62
     0
100
AcDbLine
 10
140.6947490555435
 20
374.0789876482631
 30
0.0
 11
138.6947490555435
 21
376.078987648263
 31
0.0
  0
LINE
  5
1428
330
13F8
100
AcDbEntity
  8
0
 62
     0
100
AcDbLine
 10
237.866321930797
 20
274.0789876482634
 30
0.0
 11
235.866321930797
 21
276.0789876482633
 31
0.0
  0
LINE
  5
1429
330
13F8
100
AcDbEntity
  8
0
 62
     0
100
AcDbLine
 10
137.8663219307973
 20
374.0789876482631
 30
0.0
 11
135.8663219307973
 21
376.078987648263
 31
0.0
  0
LINE
  5
142A
330
13F8
100
AcDbEntity
  8
0
 62
     0
100
AcDbLine
 10
235.0378948060508
 20
274.0789876482634
 30
0.0
 11
233.0378948060508
 21
276.0789876482633
 31
0.0
  0
LINE
  5
142B
330
13F8
100
AcDbEntity
  8
0
 62
     0
100
AcDbLine
 10
135.0378948060511
 20
374.0789876482631
 30
0.0
 11
133.0378948060511
 21
376.078987648263
 31
0.0
  0
LINE
  5
142C
330
13F8
100
AcDbEntity
  8
0
 62
     0
100
AcDbLine
 10
232.2094676813046
 20
274.0789876482634
 30
0.0
 11
230.2094676813047
 21
276.0789876482633
 31
0.0
  0
LINE
  5
142D
330
13F8
100
AcDbEntity
  8
0
 62
     0
100
AcDbLine
 10
132.2094676813049
 20
374.0789876482631
 30
0.0
 11
130.2094676813049
 21
376.0789876482631
 31
0.0
  0
LINE
  5
142E
330
13F8
100
AcDbEntity
  8
0
 62
     0
100
AcDbLine
 10
229.3810405565584
 20
274.0789876482634
 30
0.0
 11
227.3810405565585
 21
276.0789876482633
 31
0.0
  0
LINE
  5
142F
330
13F8
100
AcDbEntity
  8
0
 62
     0
100
AcDbLine
 10
129.3810405565587
 20
374.0789876482631
 30
0.0
 11
127.3810405565587
 21
376.0789876482631
 31
0.0
  0
LINE
  5
1430
330
13F8
100
AcDbEntity
  8
0
 62
     0
100
AcDbLine
 10
226.5526134318122
 20
274.0789876482634
 30
0.0
 11
224.5526134318123
 21
276.0789876482633
 31
0.0
  0
LINE
  5
1431
330
13F8
100
AcDbEntity
  8
0
 62
     0
100
AcDbLine
 10
126.5526134318125
 20
374.0789876482631
 30
0.0
 11
124.5526134318125
 21
376.0789876482631
 31
0.0
  0
LINE
  5
1432
330
13F8
100
AcDbEntity
  8
0
 62
     0
100
AcDbLine
 10
223.7241863070661
 20
274.0789876482634
 30
0.0
 11
221.7241863070661
 21
276.0789876482633
 31
0.0
  0
LINE
  5
1433
330
13F8
100
AcDbEntity
  8
0
 62
     0
100
AcDbLine
 10
123.7241863070663
 20
374.0789876482631
 30
0.0
 11
121.7241863070663
 21
376.0789876482631
 31
0.0
  0
LINE
  5
1434
330
13F8
100
AcDbEntity
  8
0
 62
     0
100
AcDbLine
 10
220.8957591823199
 20
274.0789876482634
 30
0.0
 11
218.8957591823199
 21
276.0789876482633
 31
0.0
  0
LINE
  5
1435
330
13F8
100
AcDbEntity
  8
0
 62
     0
100
AcDbLine
 10
120.8957591823201
 20
374.0789876482631
 30
0.0
 11
118.8957591823201
 21
376.0789876482631
 31
0.0
  0
LINE
  5
1436
330
13F8
100
AcDbEntity
  8
0
 62
     0
100
AcDbLine
 10
218.0673320575737
 20
274.0789876482634
 30
0.0
 11
216.0673320575737
 21
276.0789876482633
 31
0.0
  0
LINE
  5
1437
330
13F8
100
AcDbEntity
  8
0
 62
     0
100
AcDbLine
 10
118.067332057574
 20
374.0789876482631
 30
0.0
 11
116.0673320575739
 21
376.0789876482631
 31
0.0
  0
LINE
  5
1438
330
13F8
100
AcDbEntity
  8
0
 62
     0
100
AcDbLine
 10
215.2389049328275
 20
274.0789876482634
 30
0.0
 11
213.2389049328275
 21
276.0789876482633
 31
0.0
  0
LINE
  5
1439
330
13F8
100
AcDbEntity
  8
0
 62
     0
100
AcDbLine
 10
115.2389049328278
 20
374.0789876482631
 30
0.0
 11
113.2389049328277
 21
376.0789876482631
 31
0.0
  0
LINE
  5
143A
330
13F8
100
AcDbEntity
  8
0
 62
     0
100
AcDbLine
 10
212.4104778080813
 20
274.0789876482634
 30
0.0
 11
210.4104778080813
 21
276.0789876482633
 31
0.0
  0
LINE
  5
143B
330
13F8
100
AcDbEntity
  8
0
 62
     0
100
AcDbLine
 10
112.4104778080815
 20
374.0789876482631
 30
0.0
 11
110.4104778080815
 21
376.0789876482631
 31
0.0
  0
LINE
  5
143C
330
13F8
100
AcDbEntity
  8
0
 62
     0
100
AcDbLine
 10
209.5820506833351
 20
274.0789876482634
 30
0.0
 11
207.5820506833351
 21
276.0789876482633
 31
0.0
  0
LINE
  5
143D
330
13F8
100
AcDbEntity
  8
0
 62
     0
100
AcDbLine
 10
109.5820506833353
 20
374.0789876482631
 30
0.0
 11
107.5820506833353
 21
376.0789876482631
 31
0.0
  0
LINE
  5
143E
330
13F8
100
AcDbEntity
  8
0
 62
     0
100
AcDbLine
 10
206.7536235585889
 20
274.0789876482634
 30
0.0
 11
204.7536235585889
 21
276.0789876482633
 31
0.0
  0
LINE
  5
143F
330
13F8
100
AcDbEntity
  8
0
 62
     0
100
AcDbLine
 10
106.7536235585892
 20
374.0789876482631
 30
0.0
 11
104.7536235585891
 21
376.0789876482631
 31
0.0
  0
LINE
  5
1440
330
13F8
100
AcDbEntity
  8
0
 62
     0
100
AcDbLine
 10
203.9251964338427
 20
274.0789876482634
 30
0.0
 11
201.9251964338427
 21
276.0789876482633
 31
0.0
  0
LINE
  5
1441
330
13F8
100
AcDbEntity
  8
0
 62
     0
100
AcDbLine
 10
103.925196433843
 20
374.0789876482631
 30
0.0
 11
101.9251964338429
 21
376.0789876482631
 31
0.0
  0
LINE
  5
1442
330
13F8
100
AcDbEntity
  8
0
 62
     0
100
AcDbLine
 10
201.0967693090965
 20
274.0789876482634
 30
0.0
 11
199.0967693090965
 21
276.0789876482633
 31
0.0
  0
LINE
  5
1443
330
13F8
100
AcDbEntity
  8
0
 62
     0
100
AcDbLine
 10
101.0967693090968
 20
374.0789876482631
 30
0.0
 11
99.09676930909675
 21
376.0789876482631
 31
0.0
  0
LINE
  5
1444
330
13F8
100
AcDbEntity
  8
0
 62
     0
100
AcDbLine
 10
198.2683421843503
 20
274.0789876482634
 30
0.0
 11
196.2683421843503
 21
276.0789876482633
 31
0.0
  0
LINE
  5
1445
330
13F8
100
AcDbEntity
  8
0
 62
     0
100
AcDbLine
 10
98.2683421843506
 20
374.0789876482631
 30
0.0
 11
96.26834218435057
 21
376.0789876482631
 31
0.0
  0
LINE
  5
1446
330
13F8
100
AcDbEntity
  8
0
 62
     0
100
AcDbLine
 10
195.4399150596041
 20
274.0789876482634
 30
0.0
 11
193.4399150596042
 21
276.0789876482633
 31
0.0
  0
LINE
  5
1447
330
13F8
100
AcDbEntity
  8
0
 62
     0
100
AcDbLine
 10
95.43991505960441
 20
374.0789876482631
 30
0.0
 11
93.43991505960437
 21
376.0789876482631
 31
0.0
  0
LINE
  5
1448
330
13F8
100
AcDbEntity
  8
0
 62
     0
100
AcDbLine
 10
192.6114879348579
 20
274.0789876482634
 30
0.0
 11
190.611487934858
 21
276.0789876482633
 31
0.0
  0
LINE
  5
1449
330
13F8
100
AcDbEntity
  8
0
 62
     0
100
AcDbLine
 10
92.61148793485821
 20
374.0789876482631
 30
0.0
 11
90.62794829668485
 21
376.0625272864365
 31
0.0
  0
LINE
  5
144A
330
13F8
100
AcDbEntity
  8
0
 62
     0
100
AcDbLine
 10
189.7830608101117
 20
274.0789876482634
 30
0.0
 11
187.7830608101118
 21
276.0789876482633
 31
0.0
  0
LINE
  5
144B
330
13F8
100
AcDbEntity
  8
0
 62
     0
100
AcDbLine
 10
89.87319334871298
 20
373.9888551096622
 30
0.0
 11
88.02706865571854
 21
375.8349798026566
 31
0.0
  0
LINE
  5
144C
330
13F8
100
AcDbEntity
  8
0
 62
     0
100
AcDbLine
 10
186.9546336853655
 20
274.0789876482634
 30
0.0
 11
184.9546336853656
 21
276.0789876482633
 31
0.0
  0
LINE
  5
144D
330
13F8
100
AcDbEntity
  8
0
 62
     0
100
AcDbLine
 10
87.27231370774671
 20
373.7613076258822
 30
0.0
 11
85.4261890147522
 21
375.6074323188767
 31
0.0
  0
LINE
  5
144E
330
13F8
100
AcDbEntity
  8
0
 62
     0
100
AcDbLine
 10
184.1262065606193
 20
274.0789876482634
 30
0.0
 11
182.1262065606194
 21
276.0789876482633
 31
0.0
  0
LINE
  5
144F
330
13F8
100
AcDbEntity
  8
0
 62
     0
100
AcDbLine
 10
84.67143406678044
 20
373.5337601421023
 30
0.0
 11
82.8253093737859
 21
375.3798848350968
 31
0.0
  0
LINE
  5
1450
330
13F8
100
AcDbEntity
  8
0
 62
     0
100
AcDbLine
 10
181.2977794358732
 20
274.0789876482634
 30
0.0
 11
179.2977794358732
 21
276.0789876482633
 31
0.0
  0
LINE
  5
1451
330
13F8
100
AcDbEntity
  8
0
 62
     0
100
AcDbLine
 10
82.07055442581415
 20
373.3062126583224
 30
0.0
 11
80.22442973281959
 21
375.1523373513169
 31
0.0
  0
LINE
  5
1452
330
13F8
100
AcDbEntity
  8
0
 62
     0
100
AcDbLine
 10
178.469352311127
 20
274.0789876482634
 30
0.0
 11
176.469352311127
 21
276.0789876482633
 31
0.0
  0
LINE
  5
1453
330
13F8
100
AcDbEntity
  8
0
 62
     0
100
AcDbLine
 10
79.46967478484788
 20
373.0786651745425
 30
0.0
 11
78.81609109328582
 21
373.7322488661046
 31
0.0
  0
LINE
  5
1454
330
13F8
100
AcDbEntity
  8
0
 62
     0
100
AcDbLine
 10
175.6409251863808
 20
274.0789876482634
 30
0.0
 11
173.6409251863808
 21
276.0789876482633
 31
0.0
  0
LINE
  5
1455
330
13F8
100
AcDbEntity
  8
0
 62
     0
100
AcDbLine
 10
172.8124980616346
 20
274.0789876482634
 30
0.0
 11
170.8124980616346
 21
276.0789876482633
 31
0.0
  0
LINE
  5
1456
330
13F8
100
AcDbEntity
  8
0
 62
     0
100
AcDbLine
 10
169.9840709368884
 20
274.0789876482634
 30
0.0
 11
167.9840709368884
 21
276.0789876482633
 31
0.0
  0
LINE
  5
1457
330
13F8
100
AcDbEntity
  8
0
 62
     0
100
AcDbLine
 10
167.1556438121422
 20
274.0789876482634
 30
0.0
 11
165.1556438121422
 21
276.0789876482633
 31
0.0
  0
LINE
  5
1458
330
13F8
100
AcDbEntity
  8
0
 62
     0
100
AcDbLine
 10
161.4987895626498
 20
274.0789876482633
 30
0.0
 11
159.4987895626499
 21
276.0789876482633
 31
0.0
  0
LINE
  5
1459
330
13F8
100
AcDbEntity
  8
0
 62
     0
100
AcDbLine
 10
158.6703624379036
 20
274.0789876482633
 30
0.0
 11
156.6703624379036
 21
276.0789876482633
 31
0.0
  0
LINE
  5
145A
330
13F8
100
AcDbEntity
  8
0
 62
     0
100
AcDbLine
 10
155.8419353131575
 20
274.0789876482633
 30
0.0
 11
153.8419353131575
 21
276.0789876482633
 31
0.0
  0
LINE
  5
145B
330
13F8
100
AcDbEntity
  8
0
 62
     0
100
AcDbLine
 10
153.0135081884113
 20
274.0789876482633
 30
0.0
 11
151.0135081884113
 21
276.0789876482633
 31
0.0
  0
LINE
  5
145C
330
13F8
100
AcDbEntity
  8
0
 62
     0
100
AcDbLine
 10
150.1850810636651
 20
274.0789876482633
 30
0.0
 11
148.1850810636651
 21
276.0789876482633
 31
0.0
  0
LINE
  5
145D
330
13F8
100
AcDbEntity
  8
0
 62
     0
100
AcDbLine
 10
147.3566539389189
 20
274.0789876482633
 30
0.0
 11
145.3566539389189
 21
276.0789876482633
 31
0.0
  0
LINE
  5
145E
330
13F8
100
AcDbEntity
  8
0
 62
     0
100
AcDbLine
 10
144.5282268141727
 20
274.0789876482633
 30
0.0
 11
142.5282268141727
 21
276.0789876482633
 31
0.0
  0
LINE
  5
145F
330
13F8
100
AcDbEntity
  8
0
 62
     0
100
AcDbLine
 10
141.6997996894265
 20
274.0789876482633
 30
0.0
 11
139.6997996894265
 21
276.0789876482633
 31
0.0
  0
LINE
  5
1460
330
13F8
100
AcDbEntity
  8
0
 62
     0
100
AcDbLine
 10
138.8713725646803
 20
274.0789876482633
 30
0.0
 11
136.8713725646803
 21
276.0789876482633
 31
0.0
  0
LINE
  5
1461
330
13F8
100
AcDbEntity
  8
0
 62
     0
100
AcDbLine
 10
136.0429454399341
 20
274.0789876482633
 30
0.0
 11
134.0429454399341
 21
276.0789876482633
 31
0.0
  0
LINE
  5
1462
330
13F8
100
AcDbEntity
  8
0
 62
     0
100
AcDbLine
 10
133.2145183151879
 20
274.0789876482633
 30
0.0
 11
131.214518315188
 21
276.0789876482633
 31
0.0
  0
LINE
  5
1463
330
13F8
100
AcDbEntity
  8
0
 62
     0
100
AcDbLine
 10
130.3860911904417
 20
274.0789876482633
 30
0.0
 11
128.3860911904417
 21
276.0789876482633
 31
0.0
  0
LINE
  5
1464
330
13F8
100
AcDbEntity
  8
0
 62
     0
100
AcDbLine
 10
127.5576640656955
 20
274.0789876482633
 30
0.0
 11
125.5576640656955
 21
276.0789876482633
 31
0.0
  0
LINE
  5
1465
330
13F8
100
AcDbEntity
  8
0
 62
     0
100
AcDbLine
 10
124.7292369409493
 20
274.0789876482633
 30
0.0
 11
122.7292369409494
 21
276.0789876482633
 31
0.0
  0
LINE
  5
1466
330
13F8
100
AcDbEntity
  8
0
 62
     0
100
AcDbLine
 10
121.9008098162032
 20
274.0789876482633
 30
0.0
 11
119.9008098162032
 21
276.0789876482633
 31
0.0
  0
LINE
  5
1467
330
13F8
100
AcDbEntity
  8
0
 62
     0
100
AcDbLine
 10
119.072382691457
 20
274.0789876482633
 30
0.0
 11
117.072382691457
 21
276.0789876482633
 31
0.0
  0
LINE
  5
1468
330
13F8
100
AcDbEntity
  8
0
 62
     0
100
AcDbLine
 10
116.2439555667108
 20
274.0789876482633
 30
0.0
 11
114.2439555667108
 21
276.0789876482633
 31
0.0
  0
LINE
  5
1469
330
13F8
100
AcDbEntity
  8
0
 62
     0
100
AcDbLine
 10
113.4155284419646
 20
274.0789876482633
 30
0.0
 11
111.4155284419646
 21
276.0789876482633
 31
0.0
  0
LINE
  5
146A
330
13F8
100
AcDbEntity
  8
0
 62
     0
100
AcDbLine
 10
110.5871013172184
 20
274.0789876482633
 30
0.0
 11
108.5871013172184
 21
276.0789876482633
 31
0.0
  0
LINE
  5
146B
330
13F8
100
AcDbEntity
  8
0
 62
     0
100
AcDbLine
 10
107.7586741924722
 20
274.0789876482633
 30
0.0
 11
105.7586741924722
 21
276.0789876482633
 31
0.0
  0
LINE
  5
146C
330
13F8
100
AcDbEntity
  8
0
 62
     0
100
AcDbLine
 10
104.930247067726
 20
274.0789876482633
 30
0.0
 11
102.930247067726
 21
276.0789876482633
 31
0.0
  0
LINE
  5
146D
330
13F8
100
AcDbEntity
  8
0
 62
     0
100
AcDbLine
 10
102.1018199429798
 20
274.0789876482633
 30
0.0
 11
100.1018199429798
 21
276.0789876482633
 31
0.0
  0
LINE
  5
146E
330
13F8
100
AcDbEntity
  8
0
 62
     0
100
AcDbLine
 10
99.27339281823366
 20
274.0789876482633
 30
0.0
 11
97.27339281823368
 21
276.0789876482633
 31
0.0
  0
LINE
  5
146F
330
13F8
100
AcDbEntity
  8
0
 62
     0
100
AcDbLine
 10
96.44496569348747
 20
274.0789876482633
 30
0.0
 11
94.44496569348748
 21
276.0789876482633
 31
0.0
  0
LINE
  5
1470
330
13F8
100
AcDbEntity
  8
0
 62
     0
100
AcDbLine
 10
93.61653856874129
 20
274.0789876482633
 30
0.0
 11
91.6165385687413
 21
276.0789876482633
 31
0.0
  0
LINE
  5
1471
330
13F8
100
AcDbEntity
  8
0
 62
     0
100
AcDbLine
 10
90.78542884485953
 20
274.081670247399
 30
0.0
 11
88.58530310960661
 21
276.2817959826519
 31
0.0
  0
LINE
  5
1472
330
13F8
100
AcDbEntity
  8
0
 62
     0
100
AcDbLine
 10
87.68582118883285
 20
274.3528507786795
 30
0.0
 11
85.48569545357995
 21
276.5529765139323
 31
0.0
  0
LINE
  5
1473
330
13F8
100
AcDbEntity
  8
0
 62
     0
100
AcDbLine
 10
84.58621353280619
 20
274.6240313099599
 30
0.0
 11
82.38608779755328
 21
276.8241570452128
 31
0.0
  0
LINE
  5
1474
330
13F8
100
AcDbEntity
  8
0
 62
     0
100
AcDbLine
 10
81.48660587677953
 20
274.8952118412404
 30
0.0
 11
79.28648014152661
 21
277.0953375764933
 31
0.0
  0
LINE
  5
1475
330
13F8
100
AcDbEntity
  8
0
 62
     0
100
AcDbLine
 10
314.7485729247059
 20
265.0789876482631
 30
0.0
 11
312.7485729247059
 21
267.0789876482631
 31
0.0
  0
LINE
  5
1476
330
13F8
100
AcDbEntity
  8
0
 62
     0
100
AcDbLine
 10
205.748572924706
 20
374.078987648263
 30
0.0
 11
203.748572924706
 21
376.078987648263
 31
0.0
  0
LINE
  5
1477
330
13F8
100
AcDbEntity
  8
0
 62
     0
100
AcDbLine
 10
317.577000049452
 20
265.0789876482631
 30
0.0
 11
315.5770000494521
 21
267.0789876482631
 31
0.0
  0
LINE
  5
1478
330
13F8
100
AcDbEntity
  8
0
 62
     0
100
AcDbLine
 10
208.5770000494521
 20
374.078987648263
 30
0.0
 11
206.5770000494521
 21
376.0789876482629
 31
0.0
  0
LINE
  5
1479
330
13F8
100
AcDbEntity
  8
0
 62
     0
100
AcDbLine
 10
320.4054271741982
 20
265.0789876482631
 30
0.0
 11
318.4054271741983
 21
267.0789876482631
 31
0.0
  0
LINE
  5
147A
330
13F8
100
AcDbEntity
  8
0
 62
     0
100
AcDbLine
 10
211.4054271741983
 20
374.078987648263
 30
0.0
 11
209.4054271741984
 21
376.0789876482629
 31
0.0
  0
LINE
  5
147B
330
13F8
100
AcDbEntity
  8
0
 62
     0
100
AcDbLine
 10
323.2338542989444
 20
265.0789876482631
 30
0.0
 11
321.2338542989445
 21
267.0789876482631
 31
0.0
  0
LINE
  5
147C
330
13F8
100
AcDbEntity
  8
0
 62
     0
100
AcDbLine
 10
214.2338542989445
 20
374.078987648263
 30
0.0
 11
212.2338542989445
 21
376.0789876482629
 31
0.0
  0
LINE
  5
147D
330
13F8
100
AcDbEntity
  8
0
 62
     0
100
AcDbLine
 10
326.0622814236906
 20
265.0789876482631
 30
0.0
 11
324.0622814236907
 21
267.0789876482631
 31
0.0
  0
LINE
  5
147E
330
13F8
100
AcDbEntity
  8
0
 62
     0
100
AcDbLine
 10
217.0622814236907
 20
374.078987648263
 30
0.0
 11
215.0622814236907
 21
376.0789876482629
 31
0.0
  0
LINE
  5
147F
330
13F8
100
AcDbEntity
  8
0
 62
     0
100
AcDbLine
 10
328.8907085484368
 20
265.0789876482631
 30
0.0
 11
326.8907085484368
 21
267.078987648263
 31
0.0
  0
LINE
  5
1480
330
13F8
100
AcDbEntity
  8
0
 62
     0
100
AcDbLine
 10
219.8907085484369
 20
374.078987648263
 30
0.0
 11
217.8907085484369
 21
376.0789876482629
 31
0.0
  0
LINE
  5
1481
330
13F8
100
AcDbEntity
  8
0
 62
     0
100
AcDbLine
 10
331.719135673183
 20
265.0789876482631
 30
0.0
 11
329.7191356731831
 21
267.078987648263
 31
0.0
  0
LINE
  5
1482
330
13F8
100
AcDbEntity
  8
0
 62
     0
100
AcDbLine
 10
222.7191356731831
 20
374.078987648263
 30
0.0
 11
220.7191356731831
 21
376.0789876482629
 31
0.0
  0
LINE
  5
1483
330
13F8
100
AcDbEntity
  8
0
 62
     0
100
AcDbLine
 10
334.5475627979292
 20
265.078987648263
 30
0.0
 11
332.5475627979293
 21
267.078987648263
 31
0.0
  0
LINE
  5
1484
330
13F8
100
AcDbEntity
  8
0
 62
     0
100
AcDbLine
 10
225.5475627979293
 20
374.078987648263
 30
0.0
 11
223.5475627979293
 21
376.0789876482629
 31
0.0
  0
LINE
  5
1485
330
13F8
100
AcDbEntity
  8
0
 62
     0
100
AcDbLine
 10
337.3759899226754
 20
265.078987648263
 30
0.0
 11
335.3759899226754
 21
267.078987648263
 31
0.0
  0
LINE
  5
1486
330
13F8
100
AcDbEntity
  8
0
 62
     0
100
AcDbLine
 10
228.3759899226755
 20
374.078987648263
 30
0.0
 11
226.3759899226755
 21
376.0789876482629
 31
0.0
  0
LINE
  5
1487
330
13F8
100
AcDbEntity
  8
0
 62
     0
100
AcDbLine
 10
340.2044170474216
 20
265.078987648263
 30
0.0
 11
338.2044170474217
 21
267.078987648263
 31
0.0
  0
LINE
  5
1488
330
13F8
100
AcDbEntity
  8
0
 62
     0
100
AcDbLine
 10
231.2044170474217
 20
374.078987648263
 30
0.0
 11
229.2044170474217
 21
376.0789876482629
 31
0.0
  0
LINE
  5
1489
330
13F8
100
AcDbEntity
  8
0
 62
     0
100
AcDbLine
 10
343.0328441721678
 20
265.078987648263
 30
0.0
 11
341.0328441721679
 21
267.078987648263
 31
0.0
  0
LINE
  5
148A
330
13F8
100
AcDbEntity
  8
0
 62
     0
100
AcDbLine
 10
234.0328441721679
 20
374.0789876482629
 30
0.0
 11
232.0328441721679
 21
376.0789876482629
 31
0.0
  0
LINE
  5
148B
330
13F8
100
AcDbEntity
  8
0
 62
     0
100
AcDbLine
 10
345.861271296914
 20
265.078987648263
 30
0.0
 11
343.861271296914
 21
267.078987648263
 31
0.0
  0
LINE
  5
148C
330
13F8
100
AcDbEntity
  8
0
 62
     0
100
AcDbLine
 10
236.8612712969141
 20
374.0789876482629
 30
0.0
 11
234.8612712969141
 21
376.0789876482629
 31
0.0
  0
LINE
  5
148D
330
13F8
100
AcDbEntity
  8
0
 62
     0
100
AcDbLine
 10
348.6896984216602
 20
265.078987648263
 30
0.0
 11
346.6896984216603
 21
267.078987648263
 31
0.0
  0
LINE
  5
148E
330
13F8
100
AcDbEntity
  8
0
 62
     0
100
AcDbLine
 10
239.6896984216603
 20
374.0789876482629
 30
0.0
 11
237.6896984216603
 21
376.0789876482629
 31
0.0
  0
LINE
  5
148F
330
13F8
100
AcDbEntity
  8
0
 62
     0
100
AcDbLine
 10
351.5181255464064
 20
265.078987648263
 30
0.0
 11
349.5181255464065
 21
267.078987648263
 31
0.0
  0
LINE
  5
1490
330
13F8
100
AcDbEntity
  8
0
 62
     0
100
AcDbLine
 10
242.5181255464065
 20
374.0789876482629
 30
0.0
 11
240.5181255464065
 21
376.0789876482629
 31
0.0
  0
LINE
  5
1491
330
13F8
100
AcDbEntity
  8
0
 62
     0
100
AcDbLine
 10
354.3465526711525
 20
265.078987648263
 30
0.0
 11
352.3465526711526
 21
267.078987648263
 31
0.0
  0
LINE
  5
1492
330
13F8
100
AcDbEntity
  8
0
 62
     0
100
AcDbLine
 10
245.3465526711527
 20
374.0789876482629
 30
0.0
 11
243.3465526711527
 21
376.0789876482629
 31
0.0
  0
LINE
  5
1493
330
13F8
100
AcDbEntity
  8
0
 62
     0
100
AcDbLine
 10
357.1749797958988
 20
265.078987648263
 30
0.0
 11
355.1749797958988
 21
267.078987648263
 31
0.0
  0
LINE
  5
1494
330
13F8
100
AcDbEntity
  8
0
 62
     0
100
AcDbLine
 10
248.0566735728418
 20
374.19729387132
 30
0.0
 11
246.1749797958989
 21
376.0789876482629
 31
0.0
  0
LINE
  5
1495
330
13F8
100
AcDbEntity
  8
0
 62
     0
100
AcDbLine
 10
360.003406920645
 20
265.078987648263
 30
0.0
 11
358.003406920645
 21
267.078987648263
 31
0.0
  0
LINE
  5
1496
330
13F8
100
AcDbEntity
  8
0
 62
     0
100
AcDbLine
 10
250.3780327032141
 20
374.7043618656939
 30
0.0
 11
248.7401670660831
 21
376.3422275028249
 31
0.0
  0
LINE
  5
1497
330
13F8
100
AcDbEntity
  8
0
 62
     0
100
AcDbLine
 10
362.8318340453911
 20
265.078987648263
 30
0.0
 11
360.8318340453913
 21
267.078987648263
 31
0.0
  0
LINE
  5
1498
330
13F8
100
AcDbEntity
  8
0
 62
     0
100
AcDbLine
 10
252.4084456947008
 20
375.5023759989534
 30
0.0
 11
250.8931469164414
 21
377.0176747772127
 31
0.0
  0
LINE
  5
1499
330
13F8
100
AcDbEntity
  8
0
 62
     0
100
AcDbLine
 10
365.6602611701373
 20
265.078987648263
 30
0.0
 11
363.6602611701374
 21
267.078987648263
 31
0.0
  0
LINE
  5
149A
330
13F8
100
AcDbEntity
  8
0
 62
     0
100
AcDbLine
 10
254.3590850910774
 20
376.380163727323
 30
0.0
 11
252.8465532152525
 21
377.8926956031479
 31
0.0
  0
LINE
  5
149B
330
13F8
100
AcDbEntity
  8
0
 62
     0
100
AcDbLine
 10
368.4886882948835
 20
265.078987648263
 30
0.0
 11
366.4886882948836
 21
267.078987648263
 31
0.0
  0
LINE
  5
149C
330
13F8
100
AcDbEntity
  8
0
 62
     0
100
AcDbLine
 10
256.3097244874541
 20
377.2579514556925
 30
0.0
 11
254.7971926116291
 21
378.7704833315174
 31
0.0
  0
LINE
  5
149D
330
13F8
100
AcDbEntity
  8
0
 62
     0
100
AcDbLine
 10
371.3171154196297
 20
265.078987648263
 30
0.0
 11
369.3171154196298
 21
267.078987648263
 31
0.0
  0
LINE
  5
149E
330
13F8
100
AcDbEntity
  8
0
 62
     0
100
AcDbLine
 10
258.2603638838307
 20
378.1357391840621
 30
0.0
 11
256.7478320080058
 21
379.648271059887
 31
0.0
  0
LINE
  5
149F
330
13F8
100
AcDbEntity
  8
0
 62
     0
100
AcDbLine
 10
374.1455425443759
 20
265.078987648263
 30
0.0
 11
372.145542544376
 21
267.078987648263
 31
0.0
  0
LINE
  5
14A0
330
13F8
100
AcDbEntity
  8
0
 62
     0
100
AcDbLine
 10
260.2110032802074
 20
379.0135269124316
 30
0.0
 11
258.6984714043825
 21
380.5260587882565
 31
0.0
  0
LINE
  5
14A1
330
13F8
100
AcDbEntity
  8
0
 62
     0
100
AcDbLine
 10
376.9739696691221
 20
265.078987648263
 30
0.0
 11
374.9739696691222
 21
267.078987648263
 31
0.0
  0
LINE
  5
14A2
330
13F8
100
AcDbEntity
  8
0
 62
     0
100
AcDbLine
 10
262.161642676584
 20
379.8913146408011
 30
0.0
 11
260.6491108007591
 21
381.403846516626
 31
0.0
  0
LINE
  5
14A3
330
13F8
100
AcDbEntity
  8
0
 62
     0
100
AcDbLine
 10
379.8023967938683
 20
265.078987648263
 30
0.0
 11
377.8023967938684
 21
267.078987648263
 31
0.0
  0
LINE
  5
14A4
330
13F8
100
AcDbEntity
  8
0
 62
     0
100
AcDbLine
 10
264.1122820729607
 20
380.7691023691706
 30
0.0
 11
262.5997501971358
 21
382.2816342449955
 31
0.0
  0
LINE
  5
14A5
330
13F8
100
AcDbEntity
  8
0
 62
     0
100
AcDbLine
 10
382.6308239186145
 20
265.078987648263
 30
0.0
 11
380.6308239186146
 21
267.078987648263
 31
0.0
  0
LINE
  5
14A6
330
13F8
100
AcDbEntity
  8
0
 62
     0
100
AcDbLine
 10
266.0629214693373
 20
381.6468900975402
 30
0.0
 11
264.5503895935125
 21
383.1594219733651
 31
0.0
  0
LINE
  5
14A7
330
13F8
100
AcDbEntity
  8
0
 62
     0
100
AcDbLine
 10
385.4592510433607
 20
265.078987648263
 30
0.0
 11
383.4592510433608
 21
267.078987648263
 31
0.0
  0
LINE
  5
14A8
330
13F8
100
AcDbEntity
  8
0
 62
     0
100
AcDbLine
 10
268.0628986097754
 20
382.4753400818483
 30
0.0
 11
266.5069768931912
 21
384.0312617984324
 31
0.0
  0
LINE
  5
14A9
330
13F8
100
AcDbEntity
  8
0
 62
     0
100
AcDbLine
 10
388.2876781681069
 20
265.078987648263
 30
0.0
 11
386.287678168107
 21
267.078987648263
 31
0.0
  0
LINE
  5
14AA
330
13F8
100
AcDbEntity
  8
0
 62
     0
100
AcDbLine
 10
270.3751029250973
 20
382.9915628912726
 30
0.0
 11
268.6512303872829
 21
384.7154354290871
 31
0.0
  0
LINE
  5
14AB
330
13F8
100
AcDbEntity
  8
0
 62
     0
100
AcDbLine
 10
391.1161052928531
 20
265.078987648263
 30
0.0
 11
389.1161052928532
 21
267.078987648263
 31
0.0
  0
LINE
  5
14AC
330
13F8
100
AcDbEntity
  8
0
 62
     0
100
AcDbLine
 10
273.116105292853
 20
383.0789876482631
 30
0.0
 11
271.1330185951591
 21
385.062074345957
 31
0.0
  0
LINE
  5
14AD
330
13F8
100
AcDbEntity
  8
0
 62
     0
100
AcDbLine
 10
393.9445324175993
 20
265.078987648263
 30
0.0
 11
391.9445324175994
 21
267.078987648263
 31
0.0
  0
LINE
  5
14AE
330
13F8
100
AcDbEntity
  8
0
 62
     0
100
AcDbLine
 10
275.9445324175991
 20
383.0789876482631
 30
0.0
 11
273.9445324175991
 21
385.0789876482632
 31
0.0
  0
LINE
  5
14AF
330
13F8
100
AcDbEntity
  8
0
 62
     0
100
AcDbLine
 10
396.7729595423455
 20
265.078987648263
 30
0.0
 11
394.7729595423456
 21
267.078987648263
 31
0.0
  0
LINE
  5
14B0
330
13F8
100
AcDbEntity
  8
0
 62
     0
100
AcDbLine
 10
278.7729595423453
 20
383.0789876482631
 30
0.0
 11
276.7729595423453
 21
385.0789876482632
 31
0.0
  0
LINE
  5
14B1
330
13F8
100
AcDbEntity
  8
0
 62
     0
100
AcDbLine
 10
399.6013866670917
 20
265.078987648263
 30
0.0
 11
397.6013866670917
 21
267.0789876482629
 31
0.0
  0
LINE
  5
14B2
330
13F8
100
AcDbEntity
  8
0
 62
     0
100
AcDbLine
 10
281.6013866670916
 20
383.0789876482631
 30
0.0
 11
279.6013866670916
 21
385.0789876482632
 31
0.0
  0
LINE
  5
14B3
330
13F8
100
AcDbEntity
  8
0
 62
     0
100
AcDbLine
 10
402.4298137918378
 20
265.078987648263
 30
0.0
 11
400.4298137918379
 21
267.0789876482629
 31
0.0
  0
LINE
  5
14B4
330
13F8
100
AcDbEntity
  8
0
 62
     0
100
AcDbLine
 10
284.4298137918377
 20
383.0789876482631
 30
0.0
 11
282.4298137918377
 21
385.0789876482632
 31
0.0
  0
LINE
  5
14B5
330
13F8
100
AcDbEntity
  8
0
 62
     0
100
AcDbLine
 10
405.258240916584
 20
265.0789876482629
 30
0.0
 11
403.2582409165841
 21
267.0789876482629
 31
0.0
  0
LINE
  5
14B6
330
13F8
100
AcDbEntity
  8
0
 62
     0
100
AcDbLine
 10
287.2582409165839
 20
383.0789876482631
 30
0.0
 11
285.2582409165839
 21
385.0789876482632
 31
0.0
  0
LINE
  5
14B7
330
13F8
100
AcDbEntity
  8
0
 62
     0
100
AcDbLine
 10
408.0866680413302
 20
265.0789876482629
 30
0.0
 11
406.0866680413303
 21
267.0789876482629
 31
0.0
  0
LINE
  5
14B8
330
13F8
100
AcDbEntity
  8
0
 62
     0
100
AcDbLine
 10
290.0866680413301
 20
383.0789876482631
 30
0.0
 11
288.0866680413301
 21
385.0789876482632
 31
0.0
  0
LINE
  5
14B9
330
13F8
100
AcDbEntity
  8
0
 62
     0
100
AcDbLine
 10
410.9150951660764
 20
265.0789876482629
 30
0.0
 11
408.9150951660765
 21
267.0789876482629
 31
0.0
  0
LINE
  5
14BA
330
13F8
100
AcDbEntity
  8
0
 62
     0
100
AcDbLine
 10
292.9150951660763
 20
383.0789876482631
 30
0.0
 11
290.9150951660763
 21
385.0789876482632
 31
0.0
  0
LINE
  5
14BB
330
13F8
100
AcDbEntity
  8
0
 62
     0
100
AcDbLine
 10
413.7435222908226
 20
265.0789876482629
 30
0.0
 11
411.7435222908227
 21
267.0789876482629
 31
0.0
  0
LINE
  5
14BC
330
13F8
100
AcDbEntity
  8
0
 62
     0
100
AcDbLine
 10
295.7435222908225
 20
383.0789876482631
 30
0.0
 11
293.7435222908225
 21
385.0789876482632
 31
0.0
  0
LINE
  5
14BD
330
13F8
100
AcDbEntity
  8
0
 62
     0
100
AcDbLine
 10
416.665287487877
 20
264.9856495759546
 30
0.0
 11
414.5720277157616
 21
267.0789093480701
 31
0.0
  0
LINE
  5
14BE
330
13F8
100
AcDbEntity
  8
0
 62
     0
100
AcDbLine
 10
298.5719494155686
 20
383.0789876482631
 30
0.0
 11
296.5719494155686
 21
385.0789876482631
 31
0.0
  0
LINE
  5
14BF
330
13F8
100
AcDbEntity
  8
0
 62
     0
100
AcDbLine
 10
420.0145926209845
 20
264.4647715675934
 30
0.0
 11
417.5752826877319
 21
266.9040815008459
 31
0.0
  0
LINE
  5
14C0
330
13F8
100
AcDbEntity
  8
0
 62
     0
100
AcDbLine
 10
301.4003765403148
 20
383.0789876482631
 30
0.0
 11
299.4003765403148
 21
385.0789876482631
 31
0.0
  0
LINE
  5
14C1
330
13F8
100
AcDbEntity
  8
0
 62
     0
100
AcDbLine
 10
424.1730589724824
 20
263.1347323408416
 30
0.0
 11
421.0281400844269
 21
266.2796512288972
 31
0.0
  0
LINE
  5
14C2
330
13F8
100
AcDbEntity
  8
0
 62
     0
100
AcDbLine
 10
304.228803665061
 20
383.0789876482631
 30
0.0
 11
302.2288036650611
 21
385.0789876482631
 31
0.0
  0
LINE
  5
14C3
330
13F8
100
AcDbEntity
  8
0
 62
     0
100
AcDbLine
 10
428.1794452703654
 20
261.9567731677049
 30
0.0
 11
425.3146692415876
 21
264.8215491964826
 31
0.0
  0
LINE
  5
14C4
330
13F8
100
AcDbEntity
  8
0
 62
     0
100
AcDbLine
 10
307.0572307898072
 20
383.0789876482631
 30
0.0
 11
305.0572307898072
 21
385.0789876482631
 31
0.0
  0
LINE
  5
14C5
330
13F8
100
AcDbEntity
  8
0
 62
     0
100
AcDbLine
 10
309.8856579145533
 20
383.0789876482631
 30
0.0
 11
307.8856579145534
 21
385.0789876482631
 31
0.0
  0
LINE
  5
14C6
330
13F8
100
AcDbEntity
  8
0
 62
     0
100
AcDbLine
 10
312.7140850392996
 20
383.0789876482631
 30
0.0
 11
310.7140850392996
 21
385.0789876482631
 31
0.0
  0
LINE
  5
14C7
330
13F8
100
AcDbEntity
  8
0
 62
     0
100
AcDbLine
 10
315.5425121640457
 20
383.0789876482631
 30
0.0
 11
313.5425121640458
 21
385.0789876482631
 31
0.0
  0
LINE
  5
14C8
330
13F8
100
AcDbEntity
  8
0
 62
     0
100
AcDbLine
 10
318.3709392887919
 20
383.0789876482631
 30
0.0
 11
316.370939288792
 21
385.0789876482631
 31
0.0
  0
LINE
  5
14C9
330
13F8
100
AcDbEntity
  8
0
 62
     0
100
AcDbLine
 10
321.1993664135381
 20
383.0789876482631
 30
0.0
 11
319.1993664135382
 21
385.0789876482631
 31
0.0
  0
LINE
  5
14CA
330
13F8
100
AcDbEntity
  8
0
 62
     0
100
AcDbLine
 10
324.0277935382843
 20
383.0789876482631
 30
0.0
 11
322.0277935382844
 21
385.0789876482631
 31
0.0
  0
LINE
  5
14CB
330
13F8
100
AcDbEntity
  8
0
 62
     0
100
AcDbLine
 10
326.8562206630305
 20
383.0789876482631
 30
0.0
 11
324.8562206630306
 21
385.0789876482631
 31
0.0
  0
LINE
  5
14CC
330
13F8
100
AcDbEntity
  8
0
 62
     0
100
AcDbLine
 10
329.6846477877767
 20
383.0789876482631
 30
0.0
 11
327.6846477877768
 21
385.0789876482631
 31
0.0
  0
LINE
  5
14CD
330
13F8
100
AcDbEntity
  8
0
 62
     0
100
AcDbLine
 10
332.5130749125229
 20
383.0789876482631
 30
0.0
 11
330.513074912523
 21
385.078987648263
 31
0.0
  0
LINE
  5
14CE
330
13F8
100
AcDbEntity
  8
0
 62
     0
100
AcDbLine
 10
335.3415020372691
 20
383.0789876482631
 30
0.0
 11
333.3415020372691
 21
385.078987648263
 31
0.0
  0
LINE
  5
14CF
330
13F8
100
AcDbEntity
  8
0
 62
     0
100
AcDbLine
 10
338.1699291620153
 20
383.0789876482631
 30
0.0
 11
336.1699291620154
 21
385.078987648263
 31
0.0
  0
LINE
  5
14D0
330
13F8
100
AcDbEntity
  8
0
 62
     0
100
AcDbLine
 10
340.9983562867615
 20
383.0789876482631
 30
0.0
 11
338.9983562867616
 21
385.078987648263
 31
0.0
  0
LINE
  5
14D1
330
13F8
100
AcDbEntity
  8
0
 62
     0
100
AcDbLine
 10
343.8267834115076
 20
383.0789876482631
 30
0.0
 11
341.8267834115078
 21
385.078987648263
 31
0.0
  0
LINE
  5
14D2
330
13F8
100
AcDbEntity
  8
0
 62
     0
100
AcDbLine
 10
346.6552105362538
 20
383.0789876482631
 30
0.0
 11
344.655210536254
 21
385.078987648263
 31
0.0
  0
LINE
  5
14D3
330
13F8
100
AcDbEntity
  8
0
 62
     0
100
AcDbLine
 10
349.483637661
 20
383.0789876482631
 30
0.0
 11
347.4836376610002
 21
385.078987648263
 31
0.0
  0
LINE
  5
14D4
330
13F8
100
AcDbEntity
  8
0
 62
     0
100
AcDbLine
 10
352.3120647857462
 20
383.0789876482631
 30
0.0
 11
350.3120647857463
 21
385.078987648263
 31
0.0
  0
LINE
  5
14D5
330
13F8
100
AcDbEntity
  8
0
 62
     0
100
AcDbLine
 10
355.1404919104924
 20
383.0789876482631
 30
0.0
 11
353.1404919104925
 21
385.078987648263
 31
0.0
  0
LINE
  5
14D6
330
13F8
100
AcDbEntity
  8
0
 62
     0
100
AcDbLine
 10
357.9689190352386
 20
383.0789876482631
 30
0.0
 11
355.9689190352387
 21
385.078987648263
 31
0.0
  0
LINE
  5
14D7
330
13F8
100
AcDbEntity
  8
0
 62
     0
100
AcDbLine
 10
360.7973461599848
 20
383.0789876482631
 30
0.0
 11
358.7973461599849
 21
385.078987648263
 31
0.0
  0
LINE
  5
14D8
330
13F8
100
AcDbEntity
  8
0
 62
     0
100
AcDbLine
 10
363.625773284731
 20
383.0789876482631
 30
0.0
 11
361.6257732847311
 21
385.078987648263
 31
0.0
  0
LINE
  5
14D9
330
13F8
100
AcDbEntity
  8
0
 62
     0
100
AcDbLine
 10
366.4542004094772
 20
383.0789876482631
 30
0.0
 11
364.4542004094773
 21
385.078987648263
 31
0.0
  0
LINE
  5
14DA
330
13F8
100
AcDbEntity
  8
0
 62
     0
100
AcDbLine
 10
369.2826275342234
 20
383.0789876482631
 30
0.0
 11
367.2826275342235
 21
385.078987648263
 31
0.0
  0
LINE
  5
14DB
330
13F8
100
AcDbEntity
  8
0
 62
     0
100
AcDbLine
 10
372.1110546589696
 20
383.0789876482631
 30
0.0
 11
370.1110546589697
 21
385.078987648263
 31
0.0
  0
LINE
  5
14DC
330
13F8
100
AcDbEntity
  8
0
 62
     0
100
AcDbLine
 10
374.9394817837157
 20
383.0789876482631
 30
0.0
 11
372.9394817837159
 21
385.078987648263
 31
0.0
  0
LINE
  5
14DD
330
13F8
100
AcDbEntity
  8
0
 62
     0
100
AcDbLine
 10
377.767908908462
 20
383.0789876482631
 30
0.0
 11
375.7679089084621
 21
385.078987648263
 31
0.0
  0
LINE
  5
14DE
330
13F8
100
AcDbEntity
  8
0
 62
     0
100
AcDbLine
 10
380.5963360332081
 20
383.0789876482631
 30
0.0
 11
378.5963360332083
 21
385.078987648263
 31
0.0
  0
LINE
  5
14DF
330
13F8
100
AcDbEntity
  8
0
 62
     0
100
AcDbLine
 10
383.4247631579543
 20
383.0789876482631
 30
0.0
 11
381.4247631579545
 21
385.078987648263
 31
0.0
  0
LINE
  5
14E0
330
13F8
100
AcDbEntity
  8
0
 62
     0
100
AcDbLine
 10
386.2531902827005
 20
383.0789876482631
 30
0.0
 11
384.2531902827007
 21
385.078987648263
 31
0.0
  0
LINE
  5
14E1
330
13F8
100
AcDbEntity
  8
0
 62
     0
100
AcDbLine
 10
389.0816174074467
 20
383.0789876482631
 30
0.0
 11
387.0816174074469
 21
385.078987648263
 31
0.0
  0
LINE
  5
14E2
330
13F8
100
AcDbEntity
  8
0
 62
     0
100
AcDbLine
 10
391.9100445321929
 20
383.0789876482631
 30
0.0
 11
389.9100445321931
 21
385.078987648263
 31
0.0
  0
LINE
  5
14E3
330
13F8
100
AcDbEntity
  8
0
 62
     0
100
AcDbLine
 10
394.738471656939
 20
383.0789876482631
 30
0.0
 11
392.7384716569393
 21
385.078987648263
 31
0.0
  0
LINE
  5
14E4
330
13F8
100
AcDbEntity
  8
0
 62
     0
100
AcDbLine
 10
397.5668987816853
 20
383.0789876482631
 30
0.0
 11
395.5668987816854
 21
385.078987648263
 31
0.0
  0
LINE
  5
14E5
330
13F8
100
AcDbEntity
  8
0
 62
     0
100
AcDbLine
 10
400.3953259064314
 20
383.0789876482631
 30
0.0
 11
398.3953259064317
 21
385.078987648263
 31
0.0
  0
LINE
  5
14E6
330
13F8
100
AcDbEntity
  8
0
 62
     0
100
AcDbLine
 10
403.2237530311776
 20
383.0789876482631
 30
0.0
 11
401.2237530311778
 21
385.0789876482629
 31
0.0
  0
LINE
  5
14E7
330
13F8
100
AcDbEntity
  8
0
 62
     0
100
AcDbLine
 10
406.0521801559238
 20
383.0789876482631
 30
0.0
 11
404.052180155924
 21
385.0789876482629
 31
0.0
  0
LINE
  5
14E8
330
13F8
100
AcDbEntity
  8
0
 62
     0
100
AcDbLine
 10
408.88060728067
 20
383.0789876482631
 30
0.0
 11
406.8806072806702
 21
385.0789876482629
 31
0.0
  0
LINE
  5
14E9
330
13F8
100
AcDbEntity
  8
0
 62
     0
100
AcDbLine
 10
411.7090344054162
 20
383.0789876482631
 30
0.0
 11
409.7090344054164
 21
385.0789876482629
 31
0.0
  0
LINE
  5
14EA
330
13F8
100
AcDbEntity
  8
0
 62
     0
100
AcDbLine
 10
414.5374443695537
 20
383.0790048088719
 30
0.0
 11
412.5374615301626
 21
385.0789876482629
 31
0.0
  0
LINE
  5
14EB
330
13F8
100
AcDbEntity
  8
0
 62
     0
100
AcDbLine
 10
417.2283912620596
 20
383.216485041112
 30
0.0
 11
415.3516171234593
 21
385.0932591797124
 31
0.0
  0
LINE
  5
14EC
330
13F8
100
AcDbEntity
  8
0
 62
     0
100
AcDbLine
 10
419.6918191085921
 20
383.5814843193258
 30
0.0
 11
417.9553515562779
 21
385.31795187164
 31
0.0
  0
LINE
  5
14ED
330
13F8
100
AcDbEntity
  8
0
 62
     0
100
AcDbLine
 10
421.9706513751651
 20
384.1310791774989
 30
0.0
 11
420.3341474071737
 21
385.7675831454904
 31
0.0
  0
LINE
  5
14EE
330
13F8
100
AcDbEntity
  8
0
 62
     0
100
AcDbLine
 10
424.0924068236833
 20
384.837750853727
 30
0.0
 11
422.5291251288812
 21
386.401032548529
 31
0.0
  0
LINE
  5
14EF
330
13F8
100
AcDbEntity
  8
0
 62
     0
100
AcDbLine
 10
426.0756362891338
 20
385.6829485130226
 30
0.0
 11
424.5664423254499
 21
387.1921424767066
 31
0.0
  0
LINE
  5
14F0
330
13F8
100
AcDbEntity
  8
0
 62
     0
100
AcDbLine
 10
427.9331779991079
 20
386.6538339277947
 30
0.0
 11
426.4634891934923
 21
388.1235227334103
 31
0.0
  0
ENDBLK
  5
14F1
330
13F8
100
AcDbEntity
  8
0
100
AcDbBlockEnd
  0
BLOCK
  5
17B5
330
17AA
100
AcDbEntity
  8
0
100
AcDbBlockBegin
  2
*D9
 70
     1
 10
0.0
 20
0.0
 30
0.0
  3
*D9
  1

  0
LINE
  5
196D
330
17AA
100
AcDbEntity
  8
BEM
 62
     0
370
    -2
100
AcDbLine
 10
167.9959283173768
 20
450.1941389834541
 30
0.0
 11
92.79476082090306
 21
450.1941389834542
 31
0.0
  0
LINE
  5
196E
330
17AA
100
AcDbEntity
  8
BEM
 62
     0
370
    -2
100
AcDbLine
 10
137.9959283173768
 20
553.6941389834542
 30
0.0
 11
92.7947608209031
 21
553.6941389834542
 31
0.0
  0
LINE
  5
196F
330
17AA
100
AcDbEntity
  8
BEM
 62
     0
370
    -2
100
AcDbLine
 10
94.79476082090306
 20
457.1941389834542
 30
0.0
 11
94.79476082090309
 21
546.6941389834541
 31
0.0
  0
SOLID
  5
1970
330
17AA
100
AcDbEntity
  8
BEM
 62
     0
100
AcDbTrace
 10
93.62809415423638
 20
457.1941389834542
 30
0.0
 11
95.96142748756973
 21
457.1941389834542
 31
0.0
 12
94.79476082090306
 22
450.1941389834542
 32
0.0
 13
94.79476082090306
 23
450.1941389834542
 33
0.0
  0
SOLID
  5
1971
330
17AA
100
AcDbEntity
  8
BEM
 62
     0
100
AcDbTrace
 10
93.62809415423642
 20
546.6941389834541
 30
0.0
 11
95.96142748756976
 21
546.6941389834541
 31
0.0
 12
94.79476082090309
 22
553.6941389834542
 32
0.0
 13
94.79476082090309
 23
553.6941389834542
 33
0.0
  0
MTEXT
  5
1972
330
17AA
100
AcDbEntity
  8
BEM
 62
     1
100
AcDbMText
 10
88.294760820903
 20
501.9441389834542
 30
0.0
 40
7.0
 41
0.0
 71
     5
 72
     1
  1
\A1;min.100-max.170
 11
0.0000000000000001
 21
1.0
 31
0.0
 73
     1
 44
1.0
  0
POINT
  5
1973
330
17AA
100
AcDbEntity
  8
DEFPOINTS
 62
     0
100
AcDbPoint
 10
169.9959283173768
 20
450.1941389834541
 30
0.0
  0
POINT
  5
1974
330
17AA
100
AcDbEntity
  8
DEFPOINTS
 62
     0
100
AcDbPoint
 10
139.9959283173768
 20
553.6941389834542
 30
0.0
  0
POINT
  5
1975
330
17AA
100
AcDbEntity
  8
DEFPOINTS
 62
     0
100
AcDbPoint
 10
94.79476082090309
 20
553.6941389834542
 30
0.0
  0
ENDBLK
  5
17B6
330
17AA
100
AcDbEntity
  8
0
100
AcDbBlockEnd
  0
BLOCK
  5
17CF
330
17C4
100
AcDbEntity
  8
0
100
AcDbBlockBegin
  2
*D10
 70
     1
 10
0.0
 20
0.0
 30
0.0
  3
*D10
  1

  0
LINE
  5
1952
330
17C4
100
AcDbEntity
  8
BEM
 62
     0
370
    -2
100
AcDbLine
 10
193.0457922796873
 20
75.69413898345408
 30
0.0
 11
92.73267174170625
 21
75.69413898345411
 31
0.0
  0
LINE
  5
1953
330
17C4
100
AcDbEntity
  8
BEM
 62
     0
370
    -2
100
AcDbLine
 10
178.4959283173766
 20
425.6941389834538
 30
0.0
 11
92.73267174170632
 21
425.6941389834539
 31
0.0
  0
LINE
  5
1954
330
17C4
100
AcDbEntity
  8
BEM
 62
     0
370
    -2
100
AcDbLine
 10
94.73267174170624
 20
82.6941389834541
 30
0.0
 11
94.73267174170633
 21
418.6941389834538
 31
0.0
  0
SOLID
  5
1955
330
17C4
100
AcDbEntity
  8
BEM
 62
     0
100
AcDbTrace
 10
93.56600507503957
 20
82.6941389834541
 30
0.0
 11
95.89933840837291
 21
82.6941389834541
 31
0.0
 12
94.73267174170624
 22
75.69413898345411
 32
0.0
 13
94.73267174170624
 23
75.69413898345411
 33
0.0
  0
SOLID
  5
1956
330
17C4
100
AcDbEntity
  8
BEM
 62
     0
100
AcDbTrace
 10
93.56600507503966
 20
418.6941389834538
 30
0.0
 11
95.899338408373
 21
418.6941389834538
 31
0.0
 12
94.73267174170633
 22
425.6941389834539
 32
0.0
 13
94.73267174170633
 23
425.6941389834539
 33
0.0
  0
MTEXT
  5
1957
330
17C4
100
AcDbEntity
  8
BEM
 62
     1
100
AcDbMText
 10
88.23267174170624
 20
250.694138983454
 30
0.0
 40
7.0
 41
0.0
 71
     5
 72
     1
  1
\A1;2500
 11
0.0000000000000001
 21
1.0
 31
0.0
 73
     1
 44
1.0
  0
POINT
  5
1958
330
17C4
100
AcDbEntity
  8
DEFPOINTS
 62
     0
100
AcDbPoint
 10
195.0457922796873
 20
75.69413898345408
 30
0.0
  0
POINT
  5
1959
330
17C4
100
AcDbEntity
  8
DEFPOINTS
 62
     0
100
AcDbPoint
 10
180.4959283173766
 20
425.6941389834538
 30
0.0
  0
POINT
  5
195A
330
17C4
100
AcDbEntity
  8
DEFPOINTS
 62
     0
100
AcDbPoint
 10
94.73267174170633
 20
425.6941389834539
 30
0.0
  0
ENDBLK
  5
17D0
330
17C4
100
AcDbEntity
  8
0
100
AcDbBlockEnd
  0
BLOCK
  5
17DC
330
17D1
100
AcDbEntity
  8
0
100
AcDbBlockBegin
  2
*D11
 70
     1
 10
0.0
 20
0.0
 30
0.0
  3
*D11
  1

  0
LINE
  5
18F5
330
17D1
100
AcDbEntity
  8
BEM
 62
     0
370
    -2
100
AcDbLine
 10
185.9959283173772
 20
783.2158519315306
 30
0.0
 11
185.9959283173772
 21
808.2339074265714
 31
0.0
  0
LINE
  5
18F6
330
17D1
100
AcDbEntity
  8
BEM
 62
     0
370
    -2
100
AcDbLine
 10
303.9959283173771
 20
783.2158519315306
 30
0.0
 11
303.9959283173771
 21
808.2339074265714
 31
0.0
  0
LINE
  5
18F7
330
17D1
100
AcDbEntity
  8
BEM
 62
     0
370
    -2
100
AcDbLine
 10
192.9959283173772
 20
806.2339074265715
 30
0.0
 11
296.9959283173771
 21
806.2339074265715
 31
0.0
  0
SOLID
  5
18F8
330
17D1
100
AcDbEntity
  8
BEM
 62
     0
100
AcDbTrace
 10
192.9959283173772
 20
807.4005740932381
 30
0.0
 11
192.9959283173772
 21
805.0672407599048
 31
0.0
 12
185.9959283173772
 22
806.2339074265715
 32
0.0
 13
185.9959283173772
 23
806.2339074265715
 33
0.0
  0
SOLID
  5
18F9
330
17D1
100
AcDbEntity
  8
BEM
 62
     0
100
AcDbTrace
 10
296.9959283173771
 20
807.4005740932381
 30
0.0
 11
296.9959283173771
 21
805.0672407599048
 31
0.0
 12
303.9959283173771
 22
806.2339074265715
 32
0.0
 13
303.9959283173771
 23
806.2339074265715
 33
0.0
  0
MTEXT
  5
18FA
330
17D1
100
AcDbEntity
  8
BEM
 62
     1
100
AcDbMText
 10
244.9959283173772
 20
812.7339074265714
 30
0.0
 40
7.0
 41
0.0
 71
     5
 72
     1
  1
\A1;%%C118
 73
     1
 44
1.0
  0
POINT
  5
18FB
330
17D1
100
AcDbEntity
  8
DEFPOINTS
 62
     0
100
AcDbPoint
 10
185.9959283173772
 20
781.2158519315305
 30
0.0
  0
POINT
  5
18FC
330
17D1
100
AcDbEntity
  8
DEFPOINTS
 62
     0
100
AcDbPoint
 10
303.9959283173771
 20
781.2158519315305
 30
0.0
  0
POINT
  5
18FD
330
17D1
100
AcDbEntity
  8
DEFPOINTS
 62
     0
100
AcDbPoint
 10
303.9959283173771
 20
806.2339074265715
 30
0.0
  0
ENDBLK
  5
17DD
330
17D1
100
AcDbEntity
  8
0
100
AcDbBlockEnd
  0
BLOCK
  5
17E9
330
17DE
100
AcDbEntity
  8
0
100
AcDbBlockBegin
  2
*D12
 70
     1
 10
0.0
 20
0.0
 30
0.0
  3
*D12
  1

  0
LINE
  5
1976
330
17DE
100
AcDbEntity
  8
BEM
 62
     0
370
    -2
100
AcDbLine
 10
139.9959283173768
 20
549.6941389834542
 30
0.0
 11
139.9959283173768
 21
502.2350398331627
 31
0.0
  0
LINE
  5
1977
330
17DE
100
AcDbEntity
  8
BEM
 62
     0
370
    -2
100
AcDbLine
 10
349.9959283173769
 20
549.6941389834542
 30
0.0
 11
349.9959283173769
 21
502.2350398331627
 31
0.0
  0
LINE
  5
1978
330
17DE
100
AcDbEntity
  8
BEM
 62
     0
370
    -2
100
AcDbLine
 10
146.9959283173768
 20
504.2350398331628
 30
0.0
 11
342.9959283173769
 21
504.2350398331628
 31
0.0
  0
SOLID
  5
1979
330
17DE
100
AcDbEntity
  8
BEM
 62
     0
100
AcDbTrace
 10
146.9959283173768
 20
505.4017064998294
 30
0.0
 11
146.9959283173768
 21
503.0683731664961
 31
0.0
 12
139.9959283173768
 22
504.2350398331628
 32
0.0
 13
139.9959283173768
 23
504.2350398331628
 33
0.0
  0
SOLID
  5
197A
330
17DE
100
AcDbEntity
  8
BEM
 62
     0
100
AcDbTrace
 10
342.9959283173769
 20
505.4017064998294
 30
0.0
 11
342.9959283173769
 21
503.0683731664961
 31
0.0
 12
349.9959283173769
 22
504.2350398331628
 32
0.0
 13
349.9959283173769
 23
504.2350398331628
 33
0.0
  0
MTEXT
  5
197B
330
17DE
100
AcDbEntity
  8
BEM
 62
     1
100
AcDbMText
 10
244.9959283173769
 20
510.7350398331627
 30
0.0
 40
7.0
 41
0.0
 71
     5
 72
     1
  1
\A1;%%C210
 73
     1
 44
1.0
  0
POINT
  5
197C
330
17DE
100
AcDbEntity
  8
DEFPOINTS
 62
     0
100
AcDbPoint
 10
139.9959283173768
 20
551.6941389834541
 30
0.0
  0
POINT
  5
197D
330
17DE
100
AcDbEntity
  8
DEFPOINTS
 62
     0
100
AcDbPoint
 10
349.9959283173769
 20
551.6941389834541
 30
0.0
  0
POINT
  5
197E
330
17DE
100
AcDbEntity
  8
DEFPOINTS
 62
     0
100
AcDbPoint
 10
349.9959283173769
 20
504.2350398331628
 30
0.0
  0
ENDBLK
  5
17EA
330
17DE
100
AcDbEntity
  8
0
100
AcDbBlockEnd
  0
BLOCK
  5
1887
330
187D
100
AcDbEntity
  8
0
100
AcDbBlockBegin
  2
*D13
 70
     1
 10
0.0
 20
0.0
 30
0.0
  3
*D13
  1

  0
LINE
  5
18E3
330
187D
100
AcDbEntity
  8
BEM
 62
     0
370
    -2
100
AcDbLine
 10
193.9959283173766
 20
85.69413898345374
 30
0.0
 11
193.9959283173766
 21
50.45800905605211
 31
0.0
  0
LINE
  5
18E4
330
187D
100
AcDbEntity
  8
BEM
 62
     0
370
    -2
100
AcDbLine
 10
295.9959283173764
 20
85.69413898345464
 30
0.0
 11
295.9959283173764
 21
50.45800905605211
 31
0.0
  0
LINE
  5
18E5
330
187D
100
AcDbEntity
  8
BEM
 62
     0
370
    -2
100
AcDbLine
 10
200.9959283173766
 20
52.45800905605211
 30
0.0
 11
288.9959283173764
 21
52.45800905605211
 31
0.0
  0
SOLID
  5
18E6
330
187D
100
AcDbEntity
  8
BEM
 62
     0
100
AcDbTrace
 10
200.9959283173766
 20
53.62467572271877
 30
0.0
 11
200.9959283173766
 21
51.29134238938544
 31
0.0
 12
193.9959283173766
 22
52.45800905605211
 32
0.0
 13
193.9959283173766
 23
52.45800905605211
 33
0.0
  0
SOLID
  5
18E7
330
187D
100
AcDbEntity
  8
BEM
 62
     0
100
AcDbTrace
 10
288.9959283173764
 20
53.62467572271877
 30
0.0
 11
288.9959283173764
 21
51.29134238938544
 31
0.0
 12
295.9959283173764
 22
52.45800905605211
 32
0.0
 13
295.9959283173764
 23
52.45800905605211
 33
0.0
  0
MTEXT
  5
18E8
330
187D
100
AcDbEntity
  8
BEM
 62
     1
100
AcDbMText
 10
244.9959283173765
 20
58.9580090560521
 30
0.0
 40
7.0
 41
0.0
 71
     5
 72
     1
  1
\A1;%%c102
 73
     1
 44
1.0
  0
POINT
  5
18E9
330
187D
100
AcDbEntity
  8
DEFPOINTS
 62
     0
100
AcDbPoint
 10
193.9959283173766
 20
87.69413898345375
 30
0.0
  0
POINT
  5
18EA
330
187D
100
AcDbEntity
  8
DEFPOINTS
 62
     0
100
AcDbPoint
 10
295.9959283173764
 20
87.69413898345465
 30
0.0
  0
POINT
  5
18EB
330
187D
100
AcDbEntity
  8
DEFPOINTS
 62
     0
100
AcDbPoint
 10
295.9959283173764
 20
52.45800905605211
 30
0.0
  0
ENDBLK
  5
1888
330
187D
100
AcDbEntity
  8
0
100
AcDbBlockEnd
  0
ENDSEC
  0
SECTION
  2
ENTITIES
  0
TEXT
  5
8F
330
1E
100
AcDbEntity
  8
VOLL
100
AcDbText
 10
78.07675471698113
 20
31.02594776470585
 30
0.0
 40
1.8
  1

  7
GREEKS
100
AcDbText
  0
LINE
  5
855
330
1E
100
AcDbEntity
  8
STEMPEL
100
AcDbLine
 10
483.9999999999998
 20
830.0
 30
0.0
 11
483.9999999999998
 21
470.0000000000001
 31
0.0
  0
LINE
  5
856
330
1E
100
AcDbEntity
  8
STEMPEL
100
AcDbLine
 10
483.9999999999998
 20
566.0000000000002
 30
0.0
 11
583.9999999999998
 21
566.0000000000001
 31
0.0
  0
LINE
  5
857
330
1E
100
AcDbEntity
  8
STEMPEL
100
AcDbLine
 10
483.9999999999998
 20
650.0
 30
0.0
 11
583.9999999999998
 21
650.0
 31
0.0
  0
LINE
  5
858
330
1E
100
AcDbEntity
  8
STEMPEL
100
AcDbLine
 10
484.0
 20
752.0000000000001
 30
0.0
 11
553.9999999999998
 21
752.0000000000001
 31
0.0
  0
LINE
  5
859
330
1E
100
AcDbEntity
  8
STEMPEL
100
AcDbLine
 10
563.9999999999998
 20
566.0
 30
0.0
 11
563.9999999999997
 21
470.0000000000001
 31
0.0
  0
LINE
  5
85A
330
1E
100
AcDbEntity
  8
STEMPEL
100
AcDbLine
 10
553.9999999999998
 20
830.0
 30
0.0
 11
553.9999999999999
 21
566.0000000000002
 31
0.0
  0
LINE
  5
85B
330
1E
100
AcDbEntity
  8
STEMPEL
100
AcDbLine
 10
513.9999999999997
 20
830.0
 30
0.0
 11
513.9999999999998
 21
566.0000000000002
 31
0.0
  0
LINE
  5
85C
330
1E
100
AcDbEntity
  8
VOLL
100
AcDbLine
 10
483.9999999999998
 20
484.0000000000002
 30
0.0
 11
583.9999999999998
 21
484.0000000000001
 31
0.0
  0
LINE
  5
85D
330
1E
100
AcDbEntity
  8
VOLL
100
AcDbLine
 10
483.9999999999998
 20
524.0000000000001
 30
0.0
 11
583.9999999999998
 21
524.0000000000001
 31
0.0
  0
LINE
  5
85E
330
1E
100
AcDbEntity
  8
VOLL
100
AcDbLine
 10
483.9999999999998
 20
544.0000000000002
 30
0.0
 11
583.9999999999998
 21
544.0000000000001
 31
0.0
  0
LINE
  5
85F
330
1E
100
AcDbEntity
  8
VOLL
100
AcDbLine
 10
513.9999999999998
 20
584.0000000000002
 30
0.0
 11
553.9999999999999
 21
584.0000000000002
 31
0.0
  0
LINE
  5
860
330
1E
100
AcDbEntity
  8
VOLL
100
AcDbLine
 10
484.0
 20
610.0000000000002
 30
0.0
 11
553.9999999999999
 21
610.0000000000001
 31
0.0
  0
LINE
  5
861
330
1E
100
AcDbEntity
  8
HILF
100
AcDbLine
 10
493.9999999999997
 20
470.0000000000001
 30
0.0
 11
493.9999999999997
 21
566.0000000000002
 31
0.0
  0
LINE
  5
862
330
1E
100
AcDbEntity
  8
HILF
100
AcDbLine
 10
503.9999999999998
 20
470.0000000000001
 30
0.0
 11
503.9999999999998
 21
566.0000000000002
 31
0.0
  0
LINE
  5
863
330
1E
100
AcDbEntity
  8
HILF
100
AcDbLine
 10
513.9999999999998
 20
470.0000000000001
 30
0.0
 11
513.9999999999998
 21
566.0000000000002
 31
0.0
  0
LINE
  5
864
330
1E
100
AcDbEntity
  8
HILF
100
AcDbLine
 10
523.9999999999999
 20
470.0000000000001
 30
0.0
 11
523.9999999999999
 21
566.0000000000002
 31
0.0
  0
LINE
  5
865
330
1E
100
AcDbEntity
  8
HILF
100
AcDbLine
 10
533.9999999999998
 20
470.0000000000001
 30
0.0
 11
533.9999999999998
 21
566.0000000000002
 31
0.0
  0
LINE
  5
866
330
1E
100
AcDbEntity
  8
HILF
100
AcDbLine
 10
543.9999999999997
 20
470.0000000000001
 30
0.0
 11
543.9999999999998
 21
566.0000000000002
 31
0.0
  0
LINE
  5
867
330
1E
100
AcDbEntity
  8
HILF
100
AcDbLine
 10
553.9999999999998
 20
470.0000000000001
 30
0.0
 11
553.9999999999999
 21
566.0000000000002
 31
0.0
  0
LINE
  5
868
330
1E
100
AcDbEntity
  8
HILF
100
AcDbLine
 10
523.9999999999999
 20
566.0000000000002
 30
0.0
 11
523.9999999999999
 21
650.0
 31
0.0
  0
LINE
  5
869
330
1E
100
AcDbEntity
  8
HILF
100
AcDbLine
 10
533.9999999999998
 20
566.0000000000002
 30
0.0
 11
533.9999999999998
 21
650.0
 31
0.0
  0
LINE
  5
86A
330
1E
100
AcDbEntity
  8
HILF
100
AcDbLine
 10
543.9999999999998
 20
566.0000000000002
 30
0.0
 11
543.9999999999998
 21
650.0
 31
0.0
  0
LINE
  5
86B
330
1E
100
AcDbEntity
  8
HILF
100
AcDbLine
 10
509.9624175243584
 20
654.7736801096948
 30
0.0
 11
509.9624175243584
 21
744.8353916556311
 31
0.0
  0
LINE
  5
86C
330
1E
100
AcDbEntity
  8
HILF
100
AcDbLine
 10
523.9999999999999
 20
654.7736801096948
 30
0.0
 11
523.9999999999999
 21
744.835391655631
 31
0.0
  0
LINE
  5
86D
330
1E
100
AcDbEntity
  8
HILF
100
AcDbLine
 10
533.9999999999998
 20
654.7736801096948
 30
0.0
 11
533.9999999999998
 21
744.835391655631
 31
0.0
  0
LINE
  5
86E
330
1E
100
AcDbEntity
  8
HILF
100
AcDbLine
 10
543.9999999999998
 20
654.7736801096948
 30
0.0
 11
543.9999999999998
 21
744.835391655631
 31
0.0
  0
LINE
  5
86F
330
1E
100
AcDbEntity
  8
VOLL
100
AcDbLine
 10
533.9999999999998
 20
752.0000000000001
 30
0.0
 11
533.9999999999998
 21
830.0
 31
0.0
  0
LINE
  5
870
330
1E
100
AcDbEntity
  8
HILF
100
AcDbLine
 10
510.2201636304415
 20
756.7238616296994
 30
0.0
 11
510.2201636304415
 21
824.8588839326728
 31
0.0
  0
LINE
  5
871
330
1E
100
AcDbEntity
  8
HILF
100
AcDbLine
 10
579.1060174197166
 20
653.4909699289886
 30
0.0
 11
579.1060174197166
 21
824.8588839326728
 31
0.0
  0
TEXT
  5
872
330
1E
100
AcDbEntity
  8
TEXT
100
AcDbText
 10
575.3261810501585
 20
492.7826069847976
 30
0.0
 40
4.0
  1
Änderung
 50
90.0
 41
0.8
  7
GREEKS
 72
     1
 11
575.3261810501585
 21
503.5254641276548
 31
0.0
100
AcDbText
  0
TEXT
  5
873
330
1E
100
AcDbEntity
  8
TEXT
100
AcDbText
 10
491.537910491291
 20
573.5163572150378
 30
0.0
 40
5.0
  1
Maßstab
 50
90.0
 41
0.8
  7
GREEKS
100
AcDbText
  0
TEXT
  5
874
330
1E
100
AcDbEntity
  8
TEXT
100
AcDbText
 10
491.5815831565179
 20
614.2858954734053
 30
0.0
 40
5.0
  1
Zul. Abw.
 50
90.0
 41
0.8
  7
GREEKS
100
AcDbText
  0
TEXT
  5
875
330
1E
100
AcDbEntity
  8
TEXT
100
AcDbText
 10
491.4510671988218
 20
654.8779403809011
 30
0.0
 40
5.0
  1
Benennung
 50
90.0
 41
0.8
  7
GREEKS
100
AcDbText
  0
TEXT
  5
876
330
1E
100
AcDbEntity
  8
TEXT
100
AcDbText
 10
491.6867965462862
 20
756.1787549576341
 30
0.0
 40
5.0
  1
Zeichnungs Nr.
 50
90.0
 41
0.8
  7
GREEKS
100
AcDbText
  0
TEXT
  5
877
330
1E
100
AcDbEntity
  8
TEXT
100
AcDbText
 10
563.1543942980693
 20
654.742238391136
 30
0.0
 40
5.0
  1
Bauvorhaben
 50
90.0
 41
0.8
  7
GREEKS
100
AcDbText
  0
TEXT
  5
878
330
1E
100
AcDbEntity
  8
TEXT
100
AcDbText
 10
520.8188176290001
 20
756.7238616296994
 30
0.0
 40
5.0
  1
Ersatz für:
 50
90.0
 41
0.8
  7
GREEKS
100
AcDbText
  0
TEXT
  5
879
330
1E
100
AcDbEntity
  8
TEXT
100
AcDbText
 10
580.3453415397278
 20
478.2664110704577
 30
0.0
 40
4.0
  1
Index
 50
180.0
 41
0.8
  7
GREEKS
100
AcDbText
  0
TEXT
  5
87A
330
1E
100
AcDbEntity
  8
TEXT
100
AcDbText
 10
575.3284373066017
 20
530.0571803261056
 30
0.0
 40
4.0
  1
Tag
 50
90.0
 41
0.8
  7
GREEKS
 72
     1
 11
575.3284373066017
 21
533.7905136594389
 31
0.0
100
AcDbText
  0
TEXT
  5
87B
330
1E
100
AcDbEntity
  8
TEXT
100
AcDbText
 10
575.4067578303358
 20
548.6614567187548
 30
0.0
 40
4.0
  1
Name
 50
90.0
 41
0.8
  7
GREEKS
 72
     1
 11
575.4067578303358
 21
554.9852662425642
 31
0.0
100
AcDbText
  0
TEXT
  5
87C
330
1E
100
AcDbEntity
  8
TEXT
100
AcDbText
 10
520.6811949877005
 20
592.3311673153651
 30
0.0
 40
4.0
  1
Tag
 50
90.0
 41
0.8
  7
GREEKS
100
AcDbText
  0
TEXT
  5
87D
330
1E
100
AcDbEntity
  8
TEXT
100
AcDbText
 10
520.6903890808475
 20
622.4626584226296
 30
0.0
 40
4.0
  1
Name
 50
90.0
 41
0.8
  7
GREEKS
100
AcDbText
  0
TEXT
  5
87E
330
1E
100
AcDbEntity
  8
TEXT
100
AcDbText
 10
530.3700963038202
 20
567.5836127167616
 30
0.0
 40
4.0
  1
Gez.
 50
90.0
 41
0.8
  7
GREEKS
100
AcDbText
  0
TEXT
  5
87F
330
1E
100
AcDbEntity
  8
TEXT
100
AcDbText
 10
540.310737085716
 20
567.5515086571673
 30
0.0
 40
4.0
  1
Gepr.
 50
90.0
 41
0.8
  7
GREEKS
100
AcDbText
  0
TEXT
  5
880
330
1E
100
AcDbEntity
  8
TEXT
100
AcDbText
 10
550.4705361035018
 20
567.6006777387304
 30
0.0
 40
4.0
  1
Norm.
 50
90.0
 41
0.8
  7
GREEKS
100
AcDbText
  0
LINE
  5
881
330
1E
100
AcDbEntity
  8
STEMPEL
100
AcDbLine
 10
583.9999999999998
 20
480.0
 30
0.0
 11
583.9999999999998
 21
830.0
 31
0.0
  0
TEXT
  5
882
330
1E
100
AcDbEntity
  8
TEXT
100
AcDbText
 10
541.9258382212137
 20
757.2400861497007
 30
0.0
 40
5.0
  1
ersetzt durch:
 50
90.0
 41
0.8
  7
GREEKS
100
AcDbText
  0
LINE
  5
883
330
1E
100
AcDbEntity
  8
STEMPEL
100
AcDbLine
 10
583.9999999999998
 20
830.0
 30
0.0
 11
583.9999999999998
 21
40.00000000000011
 31
0.0
  0
LINE
  5
884
330
1E
100
AcDbEntity
  8
STEMPEL
100
AcDbLine
 10
583.9999999999998
 20
830.0
 30
0.0
 11
9.999999999999772
 21
830.0
 31
0.0
  0
LINE
  5
885
330
1E
100
AcDbEntity
  8
STEMPEL
100
AcDbLine
 10
583.9999999999998
 20
470.0000000000001
 30
0.0
 11
483.9999999999998
 21
470.0000000000001
 31
0.0
  0
LINE
  5
886
330
1E
100
AcDbEntity
  8
STEMPEL
100
AcDbLine
 10
9.999999999999772
 20
830.0
 30
0.0
 11
9.999999999999772
 21
40.00000000000003
 31
0.0
  0
LINE
  5
887
330
1E
100
AcDbEntity
  8
HILF
100
AcDbLine
 10
-0.0000000000004547
 20
840.0
 30
0.0
 11
0.0
 21
-0.0000000000000205
 31
0.0
  0
LINE
  5
888
330
1E
100
AcDbEntity
  8
HILF
100
AcDbLine
 10
593.9999999999997
 20
840.0000000000002
 30
0.0
 11
593.9999999999997
 21
0.0000000000001137
 31
0.0
  0
LINE
  5
889
330
1E
100
AcDbEntity
  8
HILF
100
AcDbLine
 10
296.9999999999999
 20
31.08767135713863
 30
0.0
 11
296.9999999999999
 21
0.0000000000001887
 31
0.0
  0
TEXT
  5
88A
330
1E
100
AcDbEntity
  8
TEXT
100
AcDbText
 10
520.8597452884832
 20
568.622109822104
 30
0.0
 40
4.0
  1
2012
 50
90.0
 41
0.8
  7
GREEKS
100
AcDbText
  0
LINE
  5
88B
330
1E
100
AcDbEntity
  8
HILF
100
AcDbLine
 10
593.9999999999998
 20
840.0000000000002
 30
0.0
 11
-0.0000000000002274
 21
840.0
 31
0.0
  0
TEXT
  5
88C
330
1E
100
AcDbEntity
  8
VOLL
100
AcDbText
 10
531.948104470588
 20
156.1535094339624
 30
0.0
 40
3.6
  1

 50
90.0
  7
GREEKS
100
AcDbText
  0
TEXT
  5
88D
330
1E
100
AcDbEntity
  8
TEXT
100
AcDbText
 10
482.3279999999998
 20
471.8550995097769
 30
0.0
 40
5.0
  1
Erstellt mit AUTOCAD 2004
 50
90.0
 41
0.8
  7
GREEKS
100
AcDbText
  0
TEXT
  5
88E
330
1E
100
AcDbEntity
  8
TEXT
100
AcDbText
 10
530.9103608027647
 20
624.4216048581258
 30
0.0
 40
4.0
  1
Koeh
 50
90.0
 41
0.8
  7
GREEKS
 72
     1
 11
530.9103608027647
 21
629.6787477152687
 31
0.0
100
AcDbText
  0
TEXT
  5
88F
330
1E
100
AcDbEntity
  8
TEXT
 62
     1
100
AcDbText
 10
505.8509857108602
 20
768.3132494462936
 30
0.0
 40
7.0
  1
16728100W
 50
90.0
 41
0.8
  7
GREEKS
 72
     1
 11
505.8509857108602
 21
791.246582779627
 31
0.0
100
AcDbText
  0
TEXT
  5
890
330
1E
100
AcDbEntity
  8
TEXT
 62
     1
100
AcDbText
 10
505.8509857108602
 20
580.5006306481888
 30
0.0
 40
7.0
  1
1:2
 50
90.0
 41
0.8
  7
GREEKS
100
AcDbText
  0
TEXT
  5
891
330
1E
100
AcDbEntity
  8
TEXT
100
AcDbText
 10
530.8923495917424
 20
590.3989971082362
 30
0.0
 40
4.0
  1
09.03.
 50
90.0
 41
0.8
  7
GREEKS
 72
     1
 11
530.8923495917424
 21
597.40852091776
 31
0.0
100
AcDbText
  0
TEXT
  5
892
330
1E
100
AcDbEntity
  8
TEXT
 62
     1
100
AcDbText
 10
506.582512107462
 20
654.4942536306288
 30
0.0
 40
7.0
  1
Balkondirektablauf DN100
 50
90.0
 41
0.7
  7
GREEKS
100
AcDbText
  0
TEXT
  5
893
330
1E
100
AcDbEntity
  8
TEXT
100
AcDbText
 10
522.4966558241469
 20
655.1296391125316
 30
0.0
 40
5.0
  1
für Balkongeschosse
 50
90.0
 41
0.8
  7
GREEKS
100
AcDbText
  0
TEXT
  5
894
330
1E
100
AcDbEntity
  8
TEXT
100
AcDbText
 10
531.8841929322513
 20
655.1296391125316
 30
0.0
 40
5.0
  1
geschoßhoch
 50
90.0
 41
0.8
  7
GREEKS
100
AcDbText
  0
TEXT
  5
895
330
1E
100
AcDbEntity
  8
TEXT
100
AcDbText
 10
542.3598805695782
 20
655.1296391125316
 30
0.0
 40
5.0
  1
EDV-Art.Nr. 16728.100X
 50
90.0
 41
0.8
  7
GREEKS
100
AcDbText
  0
TEXT
  5
896
330
1E
100
AcDbEntity
  8
TEXT
100
AcDbText
 10
551.3702584697734
 20
654.9837501577827
 30
0.0
 40
4.0
  1
16728100W.DWG
 50
90.0
 41
0.8
  7
GREEKS
100
AcDbText
  0
TEXT
  5
897
330
1E
100
AcDbEntity
  8
TEXT
100
AcDbText
 10
503.2363615897696
 20
612.626132208084
 30
0.0
 40
4.0
  1
DIN EN1123-2
 50
90.0
 41
0.8
  7
GREEKS
 72
     1
 11
503.2363615897696
 21
629.6166083985602
 31
0.0
100
AcDbText
  0
INSERT
  5
898
330
1E
100
AcDbEntity
  8
STEMPEL
100
AcDbBlockReference
  2
LOGO
 10
548.9789472355165
 20
570.9955485457795
 30
0.0
 41
2.0
 42
2.0
 43
2.0
 50
90.0
  0
LINE
  5
899
330
1E
100
AcDbEntity
  8
HILF
100
AcDbLine
 10
593.9999999999997
 20
0.0000000000001137
 30
0.0
 11
0.0
 21
-0.0000000000000205
 31
0.0
  0
LINE
  5
89A
330
1E
100
AcDbEntity
  8
STEMPEL
100
AcDbLine
 10
583.9999999999998
 20
40.00000000000011
 30
0.0
 11
9.999999999999772
 21
40.00000000000003
 31
0.0
  0
LINE
  5
89B
330
1E
100
AcDbEntity
  8
HILF
 62
     7
100
AcDbLine
 10
594.0000000000001
 20
460.0000000000001
 30
0.0
 11
583.9999999999998
 21
460.0000000000001
 31
0.0
  0
LINE
  5
89C
330
1E
100
AcDbEntity
  8
HILF
 62
     7
100
AcDbLine
 10
9.999999999999772
 20
460.0
 30
0.0
 11
-0.0000000000001137
 21
460.0
 31
0.0
  0
TEXT
  5
89D
330
1E
100
AcDbEntity
  8
BEM
100
AcDbText
 10
583.8320989200111
 20
837.3022923857167
 30
0.0
 40
4.0
  1
Diese Zeichnung ist urheberrechtlich geschützt und bleibt unser Eigentum. Sie darf weder ganz noch teilweise verfielfältigt und nicht an Dritte weitergegeben werden.
 50
180.0
 41
0.8
  7
GREEKS
100
AcDbText
  0
TEXT
  5
8A7
330
1E
100
AcDbEntity
  8
TEXT
 62
     1
100
AcDbText
 10
531.4320308255118
 20
791.246582779627
 30
0.0
 40
7.0
  1

 50
90.0
 41
0.8
  7
GREEKS
 72
     1
 11
531.4320308255118
 21
791.246582779627
 31
0.0
100
AcDbText
  0
TEXT
  5
FD9
330
1E
100
AcDbEntity
  8
TEXT
 62
     1
100
AcDbText
 10
232.0199813685592
 20
119.2447984110343
 30
0.0
 40
7.0
  1
DN100
 50
90.0
 41
0.8
  7
GREEKS
100
AcDbText
  0
SOLID
  5
1650
330
1E
100
AcDbEntity
  8
BEM
100
AcDbTrace
 10
93.56600507503982
 20
786.8206033941016
 30
0.0
 11
95.89933840837307
 21
786.8206033941016
 31
0.0
 12
94.73267174170633
 22
793.8206033941017
 32
0.0
 13
94.73267174170633
 23
793.8206033941017
 33
0.0
  0
POINT
  5
1651
330
1E
100
AcDbEntity
  8
BEM
100
AcDbPoint
 10
94.73267174170644
 20
793.8206033941017
 30
0.0
  0
LINE
  5
1652
330
1E
100
AcDbEntity
  8
STEMPEL
100
AcDbLine
 10
185.9959283173772
 20
781.2158519315305
 30
0.0
 11
185.9959283173771
 21
763.0536033941013
 31
0.0
  0
ARC
  5
1653
330
1E
100
AcDbEntity
  8
STEMPEL
100
AcDbCircle
 10
210.9959283173771
 20
781.2158519315305
 30
0.0
 40
25.0
100
AcDbArc
 50
155.0000000000006
 51
180.0
  0
LINE
  5
1654
330
1E
100
AcDbEntity
  8
STEMPEL
100
AcDbLine
 10
189.289172479452
 20
793.8206033941017
 30
0.0
 11
188.338233641461
 21
791.781308475048
 31
0.0
  0
POINT
  5
1655
330
1E
100
AcDbEntity
  8
STEMPEL
100
AcDbPoint
 10
189.289172479452
 20
793.8206033941017
 30
0.0
  0
LINE
  5
1656
330
1E
100
AcDbEntity
  8
BEM
100
AcDbLine
 10
188.289172479452
 20
793.8206033941017
 30
0.0
 11
93.73267174170644
 21
793.8206033941017
 31
0.0
  0
TEXT
  5
1657
330
1E
100
AcDbEntity
  8
BEM
 62
     1
100
AcDbText
 10
91.23267174170633
 20
677.188808415349
 30
0.0
 40
7.0
  1
400
 50
90.0
 41
0.8
  7
GREEKS
 72
     1
 11
87.73267174170632
 21
684.3888084153491
 31
0.0
100
AcDbText
 73
     2
  0
ARC
  5
1658
330
1E
100
AcDbEntity
  8
STEMPEL
100
AcDbCircle
 10
177.9959283173771
 20
746.3206033941016
 30
0.0
 40
12.0
100
AcDbArc
 50
0.0
 51
26.88777065901912
  0
LINE
  5
1659
330
1E
100
AcDbEntity
  8
STEMPEL
100
AcDbLine
 10
189.9959283173773
 20
746.3206033941016
 30
0.0
 11
189.9959283173773
 21
701.7277914468673
 31
0.0
  0
LINE
  5
165A
330
1E
100
AcDbEntity
  8
STEMPEL
100
AcDbLine
 10
189.9959283173773
 20
699.7277914468663
 30
0.0
 11
189.9959283173771
 21
640.6216278604015
 31
0.0
  0
SOLID
  5
165B
330
1E
100
AcDbEntity
  8
BEM
100
AcDbTrace
 10
93.56600507503982
 20
560.6941389834542
 30
0.0
 11
95.89933840837307
 21
560.6941389834542
 31
0.0
 12
94.73267174170633
 22
553.6941389834542
 32
0.0
 13
94.73267174170633
 23
553.6941389834542
 33
0.0
  0
POINT
  5
165C
330
1E
100
AcDbEntity
  8
BEM
100
AcDbPoint
 10
94.73267174170633
 20
553.6941389834542
 30
0.0
  0
LINE
  5
165D
330
1E
100
AcDbEntity
  8
STEMPEL
100
AcDbLine
 10
139.9959283173768
 20
553.6941389834542
 30
0.0
 11
139.9959283173768
 21
551.6941389834541
 31
0.0
  0
POINT
  5
165E
330
1E
100
AcDbEntity
  8
BEM
100
AcDbPoint
 10
139.9959283173768
 20
553.6941389834542
 30
0.0
  0
POINT
  5
165F
330
1E
100
AcDbEntity
  8
BEM
100
AcDbPoint
 10
139.9959283173768
 20
553.6941389834542
 30
0.0
  0
LINE
  5
1660
330
1E
100
AcDbEntity
  8
STEMPEL
100
AcDbLine
 10
180.9959283173768
 20
551.6941389834541
 30
0.0
 11
188.9959283173768
 21
522.6941389834542
 31
0.0
  0
LINE
  5
1661
330
1E
100
AcDbEntity
  8
STEMPEL
100
AcDbLine
 10
169.9959283173768
 20
446.6941389834541
 30
0.0
 11
169.9959283173768
 21
450.1941389834541
 31
0.0
  0
LINE
  5
1662
330
1E
100
AcDbEntity
  8
STEMPEL
100
AcDbLine
 10
169.9959283173768
 20
446.6941389834541
 30
0.0
 11
174.9959283173768
 21
446.6941389834537
 31
0.0
  0
LINE
  5
1663
330
1E
100
AcDbEntity
  8
STEMPEL
100
AcDbLine
 10
169.9959283173768
 20
450.1941389834541
 30
0.0
 11
169.9959283173768
 21
446.6941389834541
 31
0.0
  0
LINE
  5
1664
330
1E
100
AcDbEntity
  8
STEMPEL
100
AcDbLine
 10
169.9959283173768
 20
446.6941389834541
 30
0.0
 11
174.9959283173768
 21
446.6941389834537
 31
0.0
  0
LINE
  5
1665
330
1E
100
AcDbEntity
  8
STEMPEL
100
AcDbLine
 10
169.9959283173768
 20
446.6941389834541
 30
0.0
 11
174.9959283173768
 21
446.6941389834537
 31
0.0
  0
LINE
  5
1666
330
1E
100
AcDbEntity
  8
STEMPEL
100
AcDbLine
 10
186.9209283173768
 20
452.1191389834529
 30
0.0
 11
184.9959283173778
 21
450.1941389834541
 31
0.0
  0
LINE
  5
1667
330
1E
100
AcDbEntity
  8
STEMPEL
100
AcDbLine
 10
188.9959283173768
 20
453.6941389834542
 30
0.0
 11
188.4959283173778
 21
453.6941389834542
 31
0.0
  0
LINE
  5
1668
330
1E
100
AcDbEntity
  8
STEMPEL
100
AcDbLine
 10
188.4959283173778
 20
453.6941389834542
 30
0.0
 11
186.9209283173768
 21
452.1191389834529
 31
0.0
  0
LINE
  5
1669
330
1E
100
AcDbEntity
  8
STEMPEL
100
AcDbLine
 10
186.9209283173768
 20
452.1191389834529
 30
0.0
 11
184.9959283173778
 21
450.1941389834541
 31
0.0
  0
LINE
  5
166A
330
1E
100
AcDbEntity
  8
STEMPEL
100
AcDbLine
 10
188.9959283173768
 20
453.6941389834542
 30
0.0
 11
188.4959283173778
 21
453.6941389834542
 31
0.0
  0
LINE
  5
166B
330
1E
100
AcDbEntity
  8
STEMPEL
100
AcDbLine
 10
169.9959283173768
 20
450.1941389834541
 30
0.0
 11
184.9959283173778
 21
450.1941389834541
 31
0.0
  0
LINE
  5
166C
330
1E
100
AcDbEntity
  8
BEM
100
AcDbLine
 10
138.9959283173768
 20
553.6941389834542
 30
0.0
 11
92.27667431360169
 21
553.6941389834542
 31
0.0
  0
DIMENSION
  5
166E
330
1E
100
AcDbEntity
  8
BEM
100
AcDbDimension
  2
*D9
 10
94.79476082090309
 20
553.6941389834542
 30
0.0
 11
88.294760820903
 21
501.9441389834542
 31
0.0
 70
    32
  1
min.100-max.170
 71
     5
 42
103.4999999999999
  3
Standard
100
AcDbAlignedDimension
 13
169.9959283173768
 23
450.1941389834541
 33
0.0
 14
139.9959283173768
 24
553.6941389834542
 34
0.0
 50
90.0
100
AcDbRotatedDimension
1001
ACAD
1000
DSTYLE
1002
{
1070
    40
1040
2.0
1070
    41
1040
3.5
1070
    42
1040
1.0
1070
    43
1040
7.0
1070
    44
1040
1.0
1070
    73
1070
     0
1070
    74
1070
     0
1070
    77
1070
     1
1070
    78
1070
     8
1070
    79
1070
     2
1070
   140
1040
3.5
1070
   141
1040
1.5
1070
   146
1040
0.5142857142857144
1070
   147
1040
1.5
1070
   172
1070
     1
1070
   178
1070
     1
1070
   179
1070
     2
1070
   271
1070
     2
1070
   272
1070
     2
1070
   284
1070
     8
1070
   285
1070
     8
1070
   286
1070
     8
1002
}
  0
TEXT
  5
166F
330
1E
100
AcDbEntity
  8
TEXT
 62
     1
100
AcDbText
 10
360.7526267181115
 20
278.5415185154842
 30
0.0
 40
7.0
  1
Fallrohr DN100
 41
0.8
  7
GREEKS
100
AcDbText
  0
TEXT
  5
1670
330
1E
100
AcDbEntity
  8
TEXT
 62
     1
100
AcDbText
 10
360.7526267181115
 20
267.2724602651655
 30
0.0
 40
7.0
  1
EDV-Art.Nr.16721.100X
 41
0.8
  7
GREEKS
100
AcDbText
  0
LINE
  5
1671
330
1E
100
AcDbEntity
  8
TEXT
 62
     2
100
AcDbLine
 10
359.3046167253433
 20
276.1551425987444
 30
0.0
 11
461.6648633715683
 21
276.1551425987444
 31
0.0
  0
LINE
  5
1672
330
1E
100
AcDbEntity
  8
STEMPEL
100
AcDbLine
 10
169.9959283173766
 20
429.6941389834541
 30
0.0
 11
169.9959283173766
 21
416.6941389834537
 31
0.0
  0
LINE
  5
1673
330
1E
100
AcDbEntity
  8
STEMPEL
100
AcDbLine
 10
169.9959283173766
 20
416.6941389834537
 30
0.0
 11
170.9959283173766
 21
415.6941389834537
 31
0.0
  0
ARC
  5
1674
330
1E
100
AcDbEntity
  8
STEMPEL
100
AcDbCircle
 10
175.3959283173767
 20
423.7941389834541
 30
0.0
 40
1.9
100
AcDbArc
 50
90.0
 51
180.0
  0
LINE
  5
1675
330
1E
100
AcDbEntity
  8
STEMPEL
100
AcDbLine
 10
175.3959283173767
 20
425.6941389834541
 30
0.0
 11
175.8585151159054
 21
425.6941389834541
 31
0.0
  0
LINE
  5
1676
330
1E
100
AcDbEntity
  8
STEMPEL
100
AcDbLine
 10
173.4959283173768
 20
423.794138983454
 30
0.0
 11
173.4959283173768
 21
415.6941389834542
 31
0.0
  0
LINE
  5
1677
330
1E
100
AcDbEntity
  8
STEMPEL
100
AcDbLine
 10
174.9959283173766
 20
429.6941389834541
 30
0.0
 11
169.9959283173766
 21
429.6941389834541
 31
0.0
  0
ARC
  5
1678
330
1E
100
AcDbEntity
  8
STEMPEL
100
AcDbCircle
 10
159.1852936112109
 20
412.6229168362956
 30
0.0
 40
25.0
100
AcDbArc
 50
7.056548564393372
 51
31.52354387398621
  0
LINE
  5
1679
330
1E
100
AcDbEntity
  8
STEMPEL
100
AcDbLine
 10
180.4959283173766
 20
429.6941389834537
 30
0.0
 11
180.4959283173768
 21
425.6941389834537
 31
0.0
  0
LINE
  5
167A
330
1E
100
AcDbEntity
  8
STEMPEL
100
AcDbLine
 10
177.6937741858548
 20
424.2858951691487
 30
0.0
 11
179.9959283173769
 21
415.6941389834542
 31
0.0
  0
ARC
  5
167B
330
1E
100
AcDbEntity
  8
STEMPEL
100
AcDbCircle
 10
159.9959283173769
 20
411.3850509621998
 30
0.0
 40
25.0
100
AcDbArc
 50
0.0
 51
32.00317268118462
  0
ARC
  5
167C
330
1E
100
AcDbEntity
  8
STEMPEL
100
AcDbCircle
 10
159.9959283173769
 20
411.3850509621998
 30
0.0
 40
27.0
100
AcDbArc
 50
0.0
 51
32.00317268118462
  0
LINE
  5
167D
330
1E
100
AcDbEntity
  8
STEMPEL
100
AcDbLine
 10
181.1963970985901
 20
424.6342065374351
 30
0.0
 11
182.8924346010872
 21
425.6941389834541
 31
0.0
  0
LINE
  5
167E
330
1E
100
AcDbEntity
  8
STEMPEL
100
AcDbLine
 10
180.4959283173768
 20
427.6941389834542
 30
0.0
 11
180.4959283173768
 21
429.6941389834541
 31
0.0
  0
LINE
  5
167F
330
1E
100
AcDbEntity
  8
STEMPEL
100
AcDbLine
 10
179.9959283173769
 20
433.1941389834542
 30
0.0
 11
184.9959283173778
 21
433.1941389834542
 31
0.0
  0
LINE
  5
1680
330
1E
100
AcDbEntity
  8
STEMPEL
100
AcDbLine
 10
180.4959283173768
 20
429.6941389834541
 30
0.0
 11
180.4959283173768
 21
427.6941389834542
 31
0.0
  0
LINE
  5
1681
330
1E
100
AcDbEntity
  8
STEMPEL
100
AcDbLine
 10
180.4959283173768
 20
427.6941389834542
 30
0.0
 11
186.9209283173768
 21
427.6941389834542
 31
0.0
  0
LINE
  5
1682
330
1E
100
AcDbEntity
  8
STEMPEL
100
AcDbLine
 10
184.9959283173778
 20
433.1941389834542
 30
0.0
 11
179.9959283173769
 21
433.1941389834542
 31
0.0
  0
LINE
  5
1683
330
1E
100
AcDbEntity
  8
STEMPEL
100
AcDbLine
 10
186.9209283173768
 20
427.6941389834542
 30
0.0
 11
190.0959283173768
 21
427.6941389834542
 31
0.0
  0
LINE
  5
1684
330
1E
100
AcDbEntity
  8
STEMPEL
100
AcDbLine
 10
180.4959283173768
 20
427.6941389834542
 30
0.0
 11
186.9209283173768
 21
427.6941389834542
 31
0.0
  0
LINE
  5
1685
330
1E
100
AcDbEntity
  8
STEMPEL
100
AcDbLine
 10
186.9209283173768
 20
427.6941389834542
 30
0.0
 11
188.9959283173768
 21
427.6941389834542
 31
0.0
  0
LINE
  5
1686
330
1E
100
AcDbEntity
  8
STEMPEL
100
AcDbLine
 10
188.9959283173768
 20
425.6941389834541
 30
0.0
 11
180.4959283173766
 21
425.6941389834541
 31
0.0
  0
ARC
  5
1687
330
1E
100
AcDbEntity
  8
STEMPEL
100
AcDbCircle
 10
175.8585151159054
 20
423.7941389834541
 30
0.0
 40
1.9
100
AcDbArc
 50
15.00000000000115
 51
90.0
  0
LINE
  5
1688
330
1E
100
AcDbEntity
  8
STEMPEL
100
AcDbLine
 10
184.62176354027
 20
415.6941389834537
 30
0.0
 11
170.9959283173766
 21
415.6941389834537
 31
0.0
  0
LINE
  5
1689
330
1E
100
AcDbEntity
  8
STEMPEL
100
AcDbLine
 10
170.3718705343804
 20
429.6941389834541
 30
0.0
 11
180.4959283173768
 21
429.6941389834541
 31
0.0
  0
LINE
  5
168A
330
1E
100
AcDbEntity
  8
STEMPEL
100
AcDbLine
 10
174.9959283173768
 20
429.6941389834541
 30
0.0
 11
180.4959283173768
 21
429.6941389834541
 31
0.0
  0
ARC
  5
168B
330
1E
100
AcDbEntity
  8
STEMPEL
100
AcDbCircle
 10
198.9959283173766
 20
268.6990246270605
 30
0.0
 40
12.0
100
AcDbArc
 50
180.0
 51
204.2277453179511
  0
ARC
  5
168C
330
1E
100
AcDbEntity
  8
STEMPEL
100
AcDbCircle
 10
198.9959283173766
 20
268.6990246270605
 30
0.0
 40
14.0
100
AcDbArc
 50
180.0
 51
204.2277453179511
  0
LINE
  5
168D
330
1E
100
AcDbEntity
  8
STEMPEL
100
AcDbLine
 10
186.9959283173766
 20
268.6990246270605
 30
0.0
 11
186.9959283173766
 21
411.3850509621998
 31
0.0
  0
LINE
  5
168E
330
1E
100
AcDbEntity
  8
STEMPEL
100
AcDbLine
 10
184.9959283173766
 20
268.6990246270605
 30
0.0
 11
184.9959283173769
 21
411.3850509621998
 31
0.0
  0
LINE
  5
168F
330
1E
100
AcDbEntity
  8
TEXT
 62
     2
100
AcDbLine
 10
285.8144852729891
 20
297.9428025645812
 30
0.0
 11
359.3046167253433
 21
276.1551425987444
 31
0.0
  0
LINE
  5
1690
330
1E
100
AcDbEntity
  8
STEMPEL
100
AcDbLine
 10
170.3718705343804
 20
446.6941389834541
 30
0.0
 11
170.3718705343804
 21
429.6941389834541
 31
0.0
  0
LINE
  5
1691
330
1E
100
AcDbEntity
  8
STEMPEL
100
AcDbLine
 10
174.9959283173768
 20
446.6941389834537
 30
0.0
 11
174.9959283173768
 21
429.6941389834541
 31
0.0
  0
LINE
  5
1692
330
1E
100
AcDbEntity
  8
HILF
100
AcDbLine
 10
186.9209283173768
 20
427.6941389834542
 30
0.0
 11
186.9209283173768
 21
452.1191389834529
 31
0.0
  0
LINE
  5
1693
330
1E
100
AcDbEntity
  8
STEMPEL
100
AcDbLine
 10
184.9959283173778
 20
433.1941389834542
 30
0.0
 11
184.9959283173778
 21
450.1941389834541
 31
0.0
  0
LINE
  5
1694
330
1E
100
AcDbEntity
  8
STEMPEL
100
AcDbLine
 10
179.9959283173769
 20
433.1941389834542
 30
0.0
 11
179.9959283173769
 21
450.1941389834541
 31
0.0
  0
LINE
  5
1695
330
1E
100
AcDbEntity
  8
STEMPEL
100
AcDbLine
 10
186.9209283173768
 20
427.6941389834542
 30
0.0
 11
186.9209283173768
 21
452.1191389834529
 31
0.0
  0
LINE
  5
1696
330
1E
100
AcDbEntity
  8
STEMPEL
100
AcDbLine
 10
184.9959283173778
 20
450.1941389834541
 30
0.0
 11
184.9959283173778
 21
433.1941389834542
 31
0.0
  0
LINE
  5
1697
330
1E
100
AcDbEntity
  8
STEMPEL
100
AcDbLine
 10
179.9959283173769
 20
433.1941389834542
 30
0.0
 11
179.9959283173769
 21
450.1941389834541
 31
0.0
  0
LINE
  5
1698
330
1E
100
AcDbEntity
  8
STEMPEL
100
AcDbLine
 10
174.9959283173768
 20
446.6941389834537
 30
0.0
 11
174.9959283173768
 21
429.6941389834541
 31
0.0
  0
LINE
  5
1699
330
1E
100
AcDbEntity
  8
STEMPEL
100
AcDbLine
 10
174.9959283173768
 20
446.6941389834537
 30
0.0
 11
174.9959283173768
 21
429.6941389834541
 31
0.0
  0
LINE
  5
169A
330
1E
100
AcDbEntity
  8
STEMPEL
100
AcDbLine
 10
188.9959283173768
 20
520.6941389834542
 30
0.0
 11
188.9959283173768
 21
355.6941389834542
 31
0.0
  0
ARC
  5
169B
330
1E
100
AcDbEntity
  8
STEMPEL
100
AcDbCircle
 10
210.9959283173771
 20
763.0536033941013
 30
0.0
 40
24.99990931069965
100
AcDbArc
 50
180.0
 51
206.8877706590191
  0
LINE
  5
169C
330
1E
100
AcDbEntity
  8
BEM
100
AcDbLine
 10
94.73267174170633
 20
560.6941389834542
 30
0.0
 11
94.73267174170644
 21
786.8206033941016
 31
0.0
  0
ARC
  5
169D
330
1E
100
AcDbEntity
  8
STEMPEL
100
AcDbCircle
 10
278.9959283173771
 20
781.2158519315305
 30
0.0
 40
25.0
100
AcDbArc
 50
0.0
 51
24.99999999999272
  0
LINE
  5
169E
330
1E
100
AcDbEntity
  8
STEMPEL
100
AcDbLine
 10
300.7026841553024
 20
793.8206033941017
 30
0.0
 11
301.6536229932935
 21
791.781308475048
 31
0.0
  0
LINE
  5
169F
330
1E
100
AcDbEntity
  8
STEMPEL
100
AcDbLine
 10
303.9959283173771
 20
781.2158519315305
 30
0.0
 11
303.9959283173771
 21
763.0536033941013
 31
0.0
  0
LINE
  5
16A0
330
1E
100
AcDbEntity
  8
STEMPEL
100
AcDbLine
 10
193.9959283173768
 20
623.6941389834542
 30
0.0
 11
193.9959283173768
 21
618.2634489654837
 31
0.0
  0
LINE
  5
16A1
330
1E
100
AcDbEntity
  8
STEMPEL
100
AcDbLine
 10
193.995928317377
 20
627.6601464635859
 30
0.0
 11
193.995928317377
 21
618.2634489654837
 31
0.0
  0
ARC
  5
16A2
330
1E
100
AcDbEntity
  8
STEMPEL
100
AcDbCircle
 10
185.9959283173771
 20
627.6601464635859
 30
0.0
 40
8.0
100
AcDbArc
 50
0.0
 51
34.30115275678971
  0
ARC
  5
16A3
330
1E
100
AcDbEntity
  8
STEMPEL
100
AcDbCircle
 10
208.9959283173769
 20
618.2634489654837
 30
0.0
 40
15.0
100
AcDbArc
 50
180.0
 51
194.6733816365808
  0
LINE
  5
16A4
330
1E
100
AcDbEntity
  8
STEMPEL
100
AcDbLine
 10
194.485145235871
 20
614.4638207782163
 30
0.0
 11
195.9959283173768
 21
608.6941389834541
 31
0.0
  0
LINE
  5
16A5
330
1E
100
AcDbEntity
  8
STEMPEL
100
AcDbLine
 10
193.995928317377
 20
608.6941389834541
 30
0.0
 11
193.995928317377
 21
601.3887006367972
 31
0.0
  0
ARC
  5
16A6
330
1E
100
AcDbEntity
  8
SCHRAFF
100
AcDbCircle
 10
200.0405856103946
 20
612.4250432298022
 30
0.0
 40
7.103346273795855
100
AcDbArc
 50
146.4776558506142
 51
211.6838577275708
  0
ARC
  5
16A7
330
1E
100
AcDbEntity
  8
SCHRAFF
100
AcDbCircle
 10
206.9479004061843
 20
611.5389011218117
 30
0.0
 40
8.717801077182686
100
AcDbArc
 50
146.5206905241459
 51
199.0453524624751
  0
ARC
  5
16A8
330
1E
100
AcDbEntity
  8
SCHRAFF
100
AcDbCircle
 10
211.3785595070606
 20
611.5389011218117
 30
0.0
 40
8.717801077182686
100
AcDbArc
 50
146.5206905241459
 51
199.0453524624751
  0
ARC
  5
16A9
330
1E
100
AcDbEntity
  8
SCHRAFF
100
AcDbCircle
 10
215.9476762030163
 20
611.5389011218117
 30
0.0
 40
8.717801077182686
100
AcDbArc
 50
146.5206905241459
 51
199.0453524624751
  0
ARC
  5
16AA
330
1E
100
AcDbEntity
  8
SCHRAFF
100
AcDbCircle
 10
220.2398777088129
 20
611.5389011218117
 30
0.0
 40
8.717801077182686
100
AcDbArc
 50
146.5206905241459
 51
199.0453524624751
  0
ARC
  5
16AB
330
1E
100
AcDbEntity
  8
SCHRAFF
100
AcDbCircle
 10
224.3936216195298
 20
611.5389011218117
 30
0.0
 40
8.717801077182686
100
AcDbArc
 50
146.5206905241459
 51
199.0453524624751
  0
ARC
  5
16AC
330
1E
100
AcDbEntity
  8
SCHRAFF
100
AcDbCircle
 10
228.5473655302467
 20
611.5389011218117
 30
0.0
 40
8.717801077182686
100
AcDbArc
 50
146.5206905241459
 51
199.0453524624751
  0
ARC
  5
16AD
330
1E
100
AcDbEntity
  8
SCHRAFF
100
AcDbCircle
 10
237.4086837319989
 20
611.5389011218117
 30
0.0
 40
8.717801077182686
100
AcDbArc
 50
146.5206905241459
 51
199.0453524624751
  0
ARC
  5
16AE
330
1E
100
AcDbEntity
  8
SCHRAFF
100
AcDbCircle
 10
241.5624276427159
 20
611.5389011218117
 30
0.0
 40
8.717801077182686
100
AcDbArc
 50
146.5206905241459
 51
199.0453524624751
  0
ARC
  5
16AF
330
1E
100
AcDbEntity
  8
SCHRAFF
100
AcDbCircle
 10
233.1164822262024
 20
611.5389011218117
 30
0.0
 40
8.717801077182686
100
AcDbArc
 50
146.5206905241459
 51
199.0453524624751
  0
ARC
  5
16B0
330
1E
100
AcDbEntity
  8
SCHRAFF
100
AcDbCircle
 10
245.7161715534328
 20
611.5389011218117
 30
0.0
 40
8.717801077182686
100
AcDbArc
 50
146.5206905241459
 51
199.0453524624751
  0
ARC
  5
16B1
330
1E
100
AcDbEntity
  8
SCHRAFF
100
AcDbCircle
 10
249.8699154641497
 20
611.5389011218117
 30
0.0
 40
8.717801077182686
100
AcDbArc
 50
146.5206905241459
 51
199.0453524624751
  0
ARC
  5
16B2
330
1E
100
AcDbEntity
  8
SCHRAFF
100
AcDbCircle
 10
254.0236593748666
 20
611.5389011218117
 30
0.0
 40
8.717801077182686
100
AcDbArc
 50
146.5206905241459
 51
199.0453524624751
  0
LINE
  5
16B3
330
1E
100
AcDbEntity
  8
HILF
  6
Continuous
100
AcDbLine
 10
195.8809326669841
 20
616.3479524531653
 30
0.0
 11
244.9959283173769
 21
616.3479524531653
 31
0.0
  0
LINE
  5
16B4
330
1E
100
AcDbEntity
  8
STEMPEL
100
AcDbLine
 10
198.1532815358832
 20
600.4552053191455
 30
0.0
 11
200.0184771339875
 21
593.3320218404651
 31
0.0
  0
LWPOLYLINE
  5
16B5
330
1E
100
AcDbEntity
  8
STEMPEL
100
AcDbPolyline
 90
        5
 70
     0
 43
0.0
 10
196.1916428103366
 20
558.6941389834541
 42
0.0347164163935535
 10
196.3339925421294
 20
556.6464309758739
 42
0.046657234759923
 10
196.6855865306563
 20
555.1586050775212
 42
0.0897609786521566
 10
197.357279521965
 20
553.9416788370431
 42
0.2255649566365662
 10
197.8780721593014
 20
553.6941389834542
 42
0.2255649566364823
  0
LWPOLYLINE
  5
16B6
330
1E
100
AcDbEntity
  8
STEMPEL
100
AcDbPolyline
 90
        5
 70
     0
 43
0.0
 10
197.8780721593014
 20
553.6941389834542
 42
0.1946374076670043
 10
198.5778709974813
 20
553.977279461687
 42
0.0996739220583098
 10
199.3915670313874
 20
555.1586050775212
 42
0.0573087403535078
 10
199.839508691485
 20
556.6597671793925
 42
0.0439013926780003
 10
200.0184771339875
 20
558.6941389834541
 42
0.0439013926779672
  0
LWPOLYLINE
  5
16B7
330
1E
100
AcDbEntity
  8
STEMPEL
100
AcDbPolyline
 90
        4
 70
     0
 43
0.0
 10
198.0487143352786
 20
558.6941389834541
 42
0.034526994685778
 10
198.1903025595145
 20
556.6461843857705
 42
0.0464276344868177
 10
198.5399304992377
 20
555.1586050775212
 42
0.0569648930389204
 10
198.916293033308
 20
554.3538157662555
 42
0.2262769562435221
  0
LINE
  5
16B8
102
{ACAD_REACTORS
330
1992
102
}
330
1E
100
AcDbEntity
  8
STEMPEL
100
AcDbLine
 10
202.9959283173771
 20
548.1817921183992
 30
0.0
 11
202.9959283173769
 21
533.6941389834541
 31
0.0
  0
LINE
  5
16B9
102
{ACAD_REACTORS
330
1992
102
}
330
1E
100
AcDbEntity
  8
STEMPEL
100
AcDbLine
 10
204.9959283173771
 20
547.9037352028813
 30
0.0
 11
204.9959283173769
 21
533.6941389834541
 31
0.0
  0
LINE
  5
16BA
330
1E
100
AcDbEntity
  8
STEMPEL
100
AcDbLine
 10
205.5716775215917
 20
558.6941389834541
 30
0.0
 11
205.5716775215917
 21
598.6941389834542
 31
0.0
  0
LINE
  5
16BB
330
1E
100
AcDbEntity
  8
STEMPEL
100
AcDbLine
 10
200.0184771339875
 20
558.6941389834541
 30
0.0
 11
200.0184771339875
 21
598.6941389834542
 31
0.0
  0
LINE
  5
16BC
330
1E
100
AcDbEntity
  8
STEMPEL
100
AcDbLine
 10
196.1916428103366
 20
558.6941389834541
 30
0.0
 11
196.1916428103366
 21
598.6941389834542
 31
0.0
  0
LINE
  5
16BD
330
1E
100
AcDbEntity
  8
STEMPEL
100
AcDbLine
 10
198.0487143352786
 20
558.6941389834541
 30
0.0
 11
198.0487143352786
 21
598.6941389834542
 31
0.0
  0
LINE
  5
16BE
330
1E
100
AcDbEntity
  8
HILF
100
AcDbLine
 10
212.642745333457
 20
585.7717011932486
 30
0.0
 11
206.9930185322162
 21
585.7717011932486
 31
0.0
  0
LWPOLYLINE
  5
16BF
330
1E
100
AcDbEntity
  8
STEMPEL
100
AcDbPolyline
 90
        5
 70
     0
 43
0.0
 10
208.9334824768632
 20
553.6941389834542
 42
0.1280001435432668
 10
210.2919683621219
 20
554.0477045920065
 42
0.1062214317046736
 10
211.556327395964
 20
555.1586050775212
 42
0.0852403443595585
 10
212.3464218511756
 20
556.7209846438932
 42
0.0746701075953954
 10
212.642745333457
 20
558.6941389834541
 42
0.0746701075953857
  0
LWPOLYLINE
  5
16C0
330
1E
100
AcDbEntity
  8
STEMPEL
100
AcDbPolyline
 90
        5
 70
     0
 43
0.0
 10
206.9930185322162
 20
558.6941389834541
 42
0.0678714651261374
 10
207.2641959469545
 20
556.7056138663565
 42
0.0801414130830183
 10
207.9755808253283
 20
555.1586050775212
 42
0.1070947598812462
 10
209.1408131665168
 20
554.0366743842501
 42
0.0641139117469334
 10
209.6753783242761
 20
553.794713982084
 42
0.1391609519102831
  0
LINE
  5
16C1
330
1E
100
AcDbEntity
  8
STEMPEL
100
AcDbLine
 10
220.9536970347813
 20
558.6941389834541
 30
0.0
 11
220.9536970347813
 21
598.6941389834542
 31
0.0
  0
LINE
  5
16C2
330
1E
100
AcDbEntity
  8
STEMPEL
100
AcDbLine
 10
212.642745333457
 20
558.6941389834541
 30
0.0
 11
212.642745333457
 21
598.6941389834542
 31
0.0
  0
LINE
  5
16C3
330
1E
100
AcDbEntity
  8
STEMPEL
100
AcDbLine
 10
206.9930185322162
 20
558.6941389834541
 30
0.0
 11
206.9930185322162
 21
598.6941389834542
 31
0.0
  0
LWPOLYLINE
  5
16C4
330
1E
100
AcDbEntity
  8
STEMPEL
100
AcDbPolyline
 90
        5
 70
     0
 43
0.0
 10
205.5716775215917
 20
558.6941389834541
 42
0.0680091074726458
 10
205.8433686885585
 20
556.7059160783379
 42
0.0802506873074188
 10
206.556327395964
 20
555.1586050775212
 42
0.1070861376092301
 10
207.7235605867224
 20
554.0369171356019
 42
0.1389193076588219
 10
208.9334824768632
 20
553.6941389834542
 42
0.1389193076588268
  0
LINE
  5
16C5
330
1E
100
AcDbEntity
  8
HILF
100
AcDbLine
 10
230.1924923598942
 20
585.7717011932486
 30
0.0
 11
221.7229212467091
 21
585.7717011932486
 31
0.0
  0
LWPOLYLINE
  5
16C6
330
1E
100
AcDbEntity
  8
STEMPEL
100
AcDbPolyline
 90
        5
 70
     0
 43
0.0
 10
225.4790732667573
 20
553.6941389834542
 42
0.1038718110768174
 10
227.2691803460782
 20
554.0700784558807
 42
0.100559581367275
 10
228.8119638700885
 20
555.1586050775212
 42
0.0962044251214297
 10
229.8296152329742
 20
556.7671476979263
 42
0.0933361443398568
 10
230.1924923598942
 20
558.6941389834541
 42
0.0933361443398714
  0
LWPOLYLINE
  5
16C7
330
1E
100
AcDbEntity
  8
STEMPEL
100
AcDbPolyline
 90
        5
 70
     0
 43
0.0
 10
221.7229212467091
 20
558.6941389834541
 42
0.0898400221833224
 10
222.07361528361
 20
556.7581226270431
 42
0.0944770720223859
 10
223.0472434667977
 20
555.1586050775212
 42
0.1018709584481127
 10
224.536914747541
 20
554.0665958532399
 42
0.107796033393048
 10
226.2444401314876
 20
553.6941389834542
 42
0.107796033393061
  0
LINE
  5
16C8
330
1E
100
AcDbEntity
  8
STEMPEL
100
AcDbLine
 10
230.1924923598942
 20
558.6941389834541
 30
0.0
 11
230.1924923598942
 21
598.6941389834542
 31
0.0
  0
LINE
  5
16C9
330
1E
100
AcDbEntity
  8
STEMPEL
100
AcDbLine
 10
221.7229212467089
 20
558.6941389834541
 30
0.0
 11
221.7229212467091
 21
598.6941389834542
 31
0.0
  0
LINE
  5
16CA
330
1E
100
AcDbEntity
  8
HILF
100
AcDbLine
 10
249.9959283173771
 20
585.7717011932486
 30
0.0
 11
239.9959283173769
 21
585.7717011932486
 31
0.0
  0
ARC
  5
16CB
330
1E
100
AcDbEntity
  8
STEMPEL
100
AcDbCircle
 10
244.9959283173769
 20
558.6941389834541
 30
0.0
 40
5.0
100
AcDbArc
 50
180.0
 51
0.0
  0
LINE
  5
16CC
330
1E
100
AcDbEntity
  8
STEMPEL
100
AcDbLine
 10
239.9959283173769
 20
558.6941389834541
 30
0.0
 11
239.9959283173769
 21
598.6941389834542
 31
0.0
  0
LINE
  5
16CD
330
1E
100
AcDbEntity
  8
STEMPEL
100
AcDbLine
 10
249.9959283173771
 20
558.6941389834541
 30
0.0
 11
249.9959283173771
 21
598.6941389834542
 31
0.0
  0
LWPOLYLINE
  5
16CE
330
1E
100
AcDbEntity
  8
STEMPEL
100
AcDbPolyline
 90
        5
 70
     0
 43
0.0
 10
220.9536970347813
 20
558.6941389834541
 42
0.0899106392812953
 10
221.3046384512634
 20
556.7583033812566
 42
0.0945134029505367
 10
222.2791490457069
 20
555.1586050775212
 42
0.1018453269126725
 10
223.7698879903291
 20
554.0666689699929
 42
0.1077144041550089
 10
225.4790732667573
 20
553.6941389834542
 42
0.1077144041550036
  0
ARC
  5
16CF
330
1E
100
AcDbEntity
  8
STEMPEL
100
AcDbCircle
 10
244.9959283173769
 20
598.6941389834542
 30
0.0
 40
5.0
100
AcDbArc
 50
0.0
 51
180.0
  0
LWPOLYLINE
  5
16D0
330
1E
100
AcDbEntity
  8
STEMPEL
100
AcDbPolyline
 90
        5
 70
     0
 43
0.0
 10
225.4790732667573
 20
603.6941389834542
 42
0.1077144041550071
 10
223.7698879903294
 20
603.321608996915
 42
0.1018453269126967
 10
222.2791490457069
 20
602.2296728893866
 42
0.0945134029505288
 10
221.3046384512634
 20
600.6299745856518
 42
0.0899106392812926
 10
220.9536970347813
 20
598.6941389834542
 42
0.0899106392813071
  0
LWPOLYLINE
  5
16D1
330
1E
100
AcDbEntity
  8
STEMPEL
100
AcDbPolyline
 90
        5
 70
     0
 43
0.0
 10
230.1924923598942
 20
598.6941389834542
 42
0.0933361443398535
 10
229.8296152329742
 20
600.6211302689816
 42
0.0962044251214492
 10
228.8119638700885
 20
602.2296728893866
 42
0.1005595813672714
 10
227.2691803460782
 20
603.3181995110271
 42
0.1038718110768053
 10
225.4790732667573
 20
603.6941389834542
 42
0.1038718110768142
  0
LWPOLYLINE
  5
16D2
330
1E
100
AcDbEntity
  8
STEMPEL
100
AcDbPolyline
 90
        5
 70
     0
 43
0.0
 10
212.642745333457
 20
598.6941389834542
 42
0.0746701075953814
 10
212.3464218511758
 20
600.6672933230151
 42
0.0852403443595439
 10
211.556327395964
 20
602.2296728893866
 42
0.106221431704672
 10
210.2919683621219
 20
603.3405733749019
 42
0.1280001435432521
 10
208.9334824768632
 20
603.6941389834542
 42
0.1280001435432617
  0
LWPOLYLINE
  5
16D3
330
1E
100
AcDbEntity
  8
STEMPEL
100
AcDbPolyline
 90
        5
 70
     0
 43
0.0
 10
208.9334824768632
 20
603.6941389834542
 42
0.1389193076588204
 10
207.7235605867224
 20
603.351360831306
 42
0.1070861376092292
 10
206.556327395964
 20
602.2296728893866
 42
0.0802506873074274
 10
205.8433686885585
 20
600.6823618885705
 42
0.0680091074726524
 10
205.5716775215917
 20
598.6941389834542
 42
0.0680091074726542
  0
LWPOLYLINE
  5
16D4
330
1E
100
AcDbEntity
  8
STEMPEL
100
AcDbPolyline
 90
        5
 70
     0
 43
0.0
 10
200.0184771339875
 20
598.6941389834542
 42
0.043901392678008
 10
199.839508691485
 20
600.7285107875159
 42
0.0573087403534992
 10
199.3915670313874
 20
602.2296728893866
 42
0.0996739220583098
 10
198.5778709974813
 20
603.4109985052213
 42
0.1946374076670043
 10
197.8780721593014
 20
603.6941389834542
 42
0.194637407667019
  0
LWPOLYLINE
  5
16D5
330
1E
100
AcDbEntity
  8
STEMPEL
100
AcDbPolyline
 90
        5
 70
     0
 43
0.0
 10
197.8780721593014
 20
603.6941389834542
 42
0.2255649566364823
 10
197.3572795219647
 20
603.4465991298652
 42
0.0897609786521186
 10
196.6855865306563
 20
602.2296728893866
 42
0.046657234759922
 10
196.3339925421294
 20
600.741846991034
 42
0.0347164163935399
 10
196.1916428103366
 20
598.6941389834542
 42
0.0347164163935555
  0
LWPOLYLINE
  5
16D6
330
1E
100
AcDbEntity
  8
STEMPEL
100
AcDbPolyline
 90
        5
 70
     0
 43
0.0
 10
226.2444401314876
 20
603.6941389834542
 42
0.1077960333930359
 10
224.536914747541
 20
603.3216821136679
 42
0.1018709584481094
 10
223.0472434667977
 20
602.2296728893866
 42
0.0944770720223779
 10
222.07361528361
 20
600.6301553398652
 42
0.0898400221833202
 10
221.7229212467091
 20
598.6941389834542
 42
0.0898400221833173
  0
LWPOLYLINE
  5
16D7
330
1E
100
AcDbEntity
  8
STEMPEL
100
AcDbPolyline
 90
        5
 70
     0
 43
0.0
 10
209.6753783242761
 20
603.5935639848243
 42
0.0641139117469442
 10
209.1408131665168
 20
603.3516035826578
 42
0.1070947598812344
 10
207.9755808253283
 20
602.2296728893866
 42
0.0801414130830311
 10
207.2641959469545
 20
600.6826641005513
 42
0.0678714651261309
 10
206.9930185322162
 20
598.6941389834542
 42
0.0678714651260952
  0
LWPOLYLINE
  5
16D8
330
1E
100
AcDbEntity
  8
STEMPEL
100
AcDbPolyline
 90
        4
 70
     0
 43
0.0
 10
198.916293033308
 20
603.0344622006523
 42
0.056964893038902
 10
198.5399304992377
 20
602.2296728893866
 42
0.0464276344868347
 10
198.1903025595145
 20
600.7420935811373
 42
0.0345269946857819
 10
198.0487143352786
 20
598.6941389834542
 42
0.0345269946857709
  0
LINE
  5
16D9
330
1E
100
AcDbEntity
  8
STEMPEL
100
AcDbLine
 10
193.9959283173768
 20
608.6941389834541
 30
0.0
 11
193.9959283173768
 21
553.6941389834542
 31
0.0
  0
ARC
  5
16DA
330
1E
100
AcDbEntity
  8
SCHRAFF
100
AcDbCircle
 10
271.1924653980527
 20
611.5389011218117
 30
0.0
 40
8.717801077182686
100
AcDbArc
 50
146.5206905241459
 51
199.0453524624751
  0
ARC
  5
16DB
330
1E
100
AcDbEntity
  8
SCHRAFF
100
AcDbCircle
 10
267.0387214873358
 20
611.5389011218117
 30
0.0
 40
8.717801077182686
100
AcDbArc
 50
146.5206905241459
 51
199.0453524624751
  0
ARC
  5
16DC
330
1E
100
AcDbEntity
  8
SCHRAFF
100
AcDbCircle
 10
262.8849775766189
 20
611.5389011218117
 30
0.0
 40
8.717801077182686
100
AcDbArc
 50
146.5206905241459
 51
199.0453524624751
  0
ARC
  5
16DD
330
1E
100
AcDbEntity
  8
SCHRAFF
100
AcDbCircle
 10
285.7305610563979
 20
611.5389011218117
 30
0.0
 40
8.717801077182686
100
AcDbArc
 50
146.5206905241459
 51
199.0453524624751
  0
ARC
  5
16DE
330
1E
100
AcDbEntity
  8
SCHRAFF
100
AcDbCircle
 10
280.6076113037357
 20
611.5389011218117
 30
0.0
 40
8.717801077182686
100
AcDbArc
 50
146.5206905241459
 51
199.0453524624751
  0
ARC
  5
16DF
330
1E
100
AcDbEntity
  8
SCHRAFF
100
AcDbCircle
 10
276.1769522028596
 20
611.5389011218117
 30
0.0
 40
8.717801077182686
100
AcDbArc
 50
146.5206905241459
 51
199.0453524624751
  0
ARC
  5
16E0
330
1E
100
AcDbEntity
  8
STEMPEL
100
AcDbCircle
 10
311.9959283173771
 20
746.3206033941016
 30
0.0
 40
12.0
100
AcDbArc
 50
153.1122293409809
 51
180.0
  0
LINE
  5
16E1
330
1E
100
AcDbEntity
  8
STEMPEL
100
AcDbLine
 10
299.9959283173771
 20
746.3206033941016
 30
0.0
 11
299.9959283173771
 21
711.3553727901194
 31
0.0
  0
LWPOLYLINE
  5
16E2
330
1E
100
AcDbEntity
  8
STEMPEL
100
AcDbPolyline
 90
        2
 70
     0
 43
0.0
 10
281.058374157891
 20
603.6941389834542
 42
-0.1025533367124252
 10
281.9752940445858
 20
603.5040736429936
 42
-0.1070861376092292
  0
ARC
  5
16E3
330
1E
100
AcDbEntity
  8
SCHRAFF
100
AcDbCircle
 10
300.4071196625987
 20
611.5389011218117
 30
0.0
 40
8.717801077182686
100
AcDbArc
 50
146.5206905241459
 51
186.1472812129197
  0
ARC
  5
16E4
330
1E
100
AcDbEntity
  8
SCHRAFF
100
AcDbCircle
 10
295.5610851000954
 20
611.5389011218117
 30
0.0
 40
8.717801077182686
100
AcDbArc
 50
146.5206905241459
 51
199.0453524624751
  0
ARC
  5
16E5
330
1E
100
AcDbEntity
  8
SCHRAFF
100
AcDbCircle
 10
290.5765956189011
 20
611.5389011218117
 30
0.0
 40
8.717801077182686
100
AcDbArc
 50
146.5206905241459
 51
199.0453524624751
  0
LINE
  5
16E6
330
1E
100
AcDbEntity
  8
STEMPEL
100
AcDbLine
 10
295.9959283173771
 20
627.6601464635859
 30
0.0
 11
295.9959283173771
 21
618.2634489654837
 31
0.0
  0
ARC
  5
16E7
330
1E
100
AcDbEntity
  8
STEMPEL
100
AcDbCircle
 10
284.9959283173771
 20
640.6216278604015
 30
0.0
 40
15.0
100
AcDbArc
 50
325.6988472432103
 51
0.0
  0
ARC
  5
16E8
330
1E
100
AcDbEntity
  8
STEMPEL
100
AcDbCircle
 10
303.9959283173771
 20
627.6601464635859
 30
0.0
 40
8.0
100
AcDbArc
 50
145.6988472432103
 51
180.0
  0
ARC
  5
16E9
330
1E
100
AcDbEntity
  8
STEMPEL
100
AcDbCircle
 10
280.9959283173768
 20
618.2634489654837
 30
0.0
 40
15.0
100
AcDbArc
 50
345.3266183634192
 51
0.0
  0
LINE
  5
16EA
330
1E
100
AcDbEntity
  8
STEMPEL
100
AcDbLine
 10
295.9959283173771
 20
608.6941389834541
 30
0.0
 11
295.9959283173771
 21
601.3887006367972
 31
0.0
  0
ARC
  5
16EB
330
1E
100
AcDbEntity
  8
SCHRAFF
100
AcDbCircle
 10
289.9512710243596
 20
612.4250432298022
 30
0.0
 40
7.103346273795855
100
AcDbArc
 50
328.3161422724292
 51
33.52234414938582
  0
LINE
  5
16EC
330
1E
100
AcDbEntity
  8
STEMPEL
100
AcDbLine
 10
295.9959283173769
 20
608.6941389834541
 30
0.0
 11
293.9959283173771
 21
608.6941389834541
 31
0.0
  0
LINE
  5
16ED
330
1E
100
AcDbEntity
  8
STEMPEL
100
AcDbLine
 10
299.9959283173771
 20
709.3553727901198
 30
0.0
 11
299.9959283173771
 21
640.6216278604015
 31
0.0
  0
LWPOLYLINE
  5
16EE
330
1E
100
AcDbEntity
  8
STEMPEL
100
AcDbPolyline
 90
        3
 70
     0
 43
0.0
 10
280.3164783104778
 20
603.5935639848243
 42
-0.0641139117469442
 10
280.8510434682369
 20
603.3516035826578
 42
-0.0510333567642585
 10
281.4677024313371
 20
602.8778643628697
 42
-0.0801414130830311
  0
LWPOLYLINE
  5
16EF
330
1E
100
AcDbEntity
  8
STEMPEL
100
AcDbPolyline
 90
        5
 70
     0
 43
0.0
 10
264.5127833679965
 20
553.6941389834542
 42
-0.1038718110768174
 10
262.722676288676
 20
554.0700784558807
 42
-0.100559581367275
 10
261.1798927646653
 20
555.1586050775212
 42
-0.0962044251214297
 10
260.1622414017795
 20
556.7671476979263
 42
-0.0933361443398568
 10
259.7993642748599
 20
558.6941389834541
 42
-0.0933361443398714
  0
LINE
  5
16F0
330
1E
100
AcDbEntity
  8
STEMPEL
100
AcDbLine
 10
259.7993642748599
 20
558.6941389834541
 30
0.0
 11
259.7993642748599
 21
598.6941389834542
 31
0.0
  0
LINE
  5
16F1
330
1E
100
AcDbEntity
  8
STEMPEL
100
AcDbLine
 10
277.3491113012967
 20
595.5757068838588
 30
0.0
 11
277.349111301297
 21
598.6941389834542
 31
0.0
  0
LINE
  5
16F2
330
1E
100
AcDbEntity
  8
STEMPEL
100
AcDbLine
 10
268.2689353880448
 20
558.6941389834541
 30
0.0
 11
268.2689353880448
 21
598.6941389834542
 31
0.0
  0
LINE
  5
16F3
330
1E
100
AcDbEntity
  8
STEMPEL
100
AcDbLine
 10
269.0381595999727
 20
558.6941389834541
 30
0.0
 11
269.0381595999727
 21
598.6941389834542
 31
0.0
  0
LWPOLYLINE
  5
16F4
330
1E
100
AcDbEntity
  8
STEMPEL
100
AcDbPolyline
 90
        5
 70
     0
 43
0.0
 10
268.2689353880448
 20
558.6941389834541
 42
-0.0898400221833224
 10
267.9182413511441
 20
556.7581226270431
 42
-0.0944770720223859
 10
266.9446131679563
 20
555.1586050775212
 42
-0.1018709584481127
 10
265.4549418872132
 20
554.0665958532399
 42
-0.107796033393048
 10
263.7474165032663
 20
553.6941389834542
 42
-0.107796033393061
  0
LWPOLYLINE
  5
16F5
330
1E
100
AcDbEntity
  8
STEMPEL
100
AcDbPolyline
 90
        5
 70
     0
 43
0.0
 10
269.0381595999727
 20
558.6941389834541
 42
-0.0899106392812953
 10
268.6872181834904
 20
556.7583033812566
 42
-0.0945134029505367
 10
267.7127075890473
 20
555.1586050775212
 42
-0.1018453269126725
 10
266.2219686444248
 20
554.0666689699929
 42
-0.1077144041550089
 10
264.5127833679965
 20
553.6941389834542
 42
-0.1077144041550036
  0
LINE
  5
16F6
330
1E
100
AcDbEntity
  8
HILF
100
AcDbLine
 10
268.2689353880448
 20
585.7717011932486
 30
0.0
 11
259.7993642748599
 21
585.7717011932486
 31
0.0
  0
ARC
  5
16F7
102
{ACAD_REACTORS
330
1992
102
}
330
1E
100
AcDbEntity
  8
STEMPEL
100
AcDbCircle
 10
294.9959283173771
 20
584.7501030533457
 30
0.0
 40
8.0
100
AcDbArc
 50
165.3266183634192
 51
180.0
  0
LWPOLYLINE
  5
16F8
330
1E
100
AcDbEntity
  8
STEMPEL
100
AcDbPolyline
 90
        2
 70
     0
 43
0.0
 10
291.9429597238241
 20
598.7678550767209
 42
-0.0012383684691459
 10
291.9431422994751
 20
598.6941389834542
 42
-0.0345269946857751
  0
ARC
  5
16F9
102
{ACAD_REACTORS
330
1992
102
}
330
1E
100
AcDbEntity
  8
STEMPEL
100
AcDbCircle
 10
294.9959283173771
 20
584.7501030533457
 30
0.0
 40
10.0
100
AcDbArc
 50
165.3266183634192
 51
180.0
  0
LWPOLYLINE
  5
16FA
330
1E
100
AcDbEntity
  8
STEMPEL
100
AcDbPolyline
 90
        5
 70
     0
 43
0.0
 10
290.2660254104301
 20
553.6941389834542
 42
0.2262769562435402
 10
290.7832486786379
 20
553.940841897378
 42
0.0894997721685157
 10
291.4519261355165
 20
555.1586050775212
 42
0.0464276344868311
 10
291.8015540752392
 20
556.646184385771
 42
0.0345269946857776
 10
291.9431422994751
 20
558.6941389834541
 42
0.0345269946857751
  0
LWPOLYLINE
  5
16FB
330
1E
100
AcDbEntity
  8
STEMPEL
100
AcDbPolyline
 90
        5
 70
     0
 43
0.0
 10
288.1163079758242
 20
558.6941389834541
 42
0.044088717934643
 10
288.2960166136939
 20
556.6600662555897
 42
0.0575157024409206
 10
288.7459456347853
 20
555.1586050775212
 42
0.099824494906065
 10
289.5624669762956
 20
553.9779129381168
 42
0.1940745864117619
 10
290.2660254104301
 20
553.6941389834542
 42
0.1940745864117183
  0
LWPOLYLINE
  5
16FC
330
1E
100
AcDbEntity
  8
STEMPEL
100
AcDbPolyline
 90
        4
 70
     0
 43
0.0
 10
289.9733795007662
 20
558.6941389834541
 42
0.0439013926780182
 10
290.1523479432687
 20
556.659767179392
 42
0.0573087403535062
 10
290.6002896033667
 20
555.1586050775212
 42
0.0645744498616765
 10
291.0755636014462
 20
554.3538157662555
 42
0.1946374076670043
  0
LINE
  5
16FD
102
{ACAD_REACTORS
330
1992
102
}
330
1E
100
AcDbEntity
  8
STEMPEL
100
AcDbLine
 10
286.9959283173771
 20
584.7501030533457
 30
0.0
 11
286.9959283173771
 21
533.6941389834541
 31
0.0
  0
LINE
  5
16FE
330
1E
100
AcDbEntity
  8
STEMPEL
100
AcDbLine
 10
289.9733795007662
 20
558.6941389834541
 30
0.0
 11
289.9733795007662
 21
595.8934931871631
 31
0.0
  0
LINE
  5
16FF
330
1E
100
AcDbEntity
  8
STEMPEL
100
AcDbLine
 10
291.9431422994751
 20
558.6941389834541
 30
0.0
 11
291.9431422994751
 21
598.6941389834542
 31
0.0
  0
LINE
  5
1700
330
1E
100
AcDbEntity
  8
STEMPEL
100
AcDbLine
 10
288.1163079758242
 20
558.6941389834541
 30
0.0
 11
288.1163079758244
 21
589.6610048396041
 31
0.0
  0
LINE
  5
1701
102
{ACAD_REACTORS
330
1992
102
}
330
1E
100
AcDbEntity
  8
STEMPEL
100
AcDbLine
 10
284.9959283173771
 20
584.7501030533457
 30
0.0
 11
284.9959283173771
 21
533.6941389834541
 31
0.0
  0
LINE
  5
1702
330
1E
100
AcDbEntity
  8
STEMPEL
100
AcDbLine
 10
308.9959283173769
 20
551.6941389834541
 30
0.0
 11
300.9959283173771
 21
522.6941389834542
 31
0.0
  0
LINE
  5
1703
330
1E
100
AcDbEntity
  8
STEMPEL
100
AcDbLine
 10
295.9959283173771
 20
522.6941389834542
 30
0.0
 11
300.9959283173771
 21
522.6941389834542
 31
0.0
  0
ARC
  5
1704
330
1E
100
AcDbEntity
  8
SCHRAFF
100
AcDbCircle
 10
295.290226972146
 20
552.959094318362
 30
0.0
 40
4.477140827639991
100
AcDbArc
 50
279.0689661314388
 51
343.5883554091556
  0
INSERT
  5
1705
330
1E
100
AcDbEntity
  8
SCHRAFF
100
AcDbBlockReference
  2
*X1
 10
555.9516372698506
 20
201.9231870761219
 30
0.0
 41
-1.0
1001
ACAD
1000
HATCH
1002
{
1070
    16
1000
_U,I
1040
0.1
1040
2.356194490192344
1070
     0
1002
}
  0
LINE
  5
1706
330
1E
100
AcDbEntity
  8
STEMPEL
100
AcDbLine
 10
300.9959283173769
 20
520.6941389834542
 30
0.0
 11
295.9959283173769
 21
520.6941389834542
 31
0.0
  0
LINE
  5
1707
330
1E
100
AcDbEntity
  8
STEMPEL
100
AcDbLine
 10
303.0709283173769
 20
452.1191389834529
 30
0.0
 11
301.4959283173757
 21
453.6941389834542
 31
0.0
  0
LINE
  5
1708
330
1E
100
AcDbEntity
  8
STEMPEL
100
AcDbLine
 10
301.4959283173757
 20
453.6941389834542
 30
0.0
 11
300.9959283173769
 21
453.6941389834542
 31
0.0
  0
LINE
  5
1709
330
1E
100
AcDbEntity
  8
STEMPEL
100
AcDbLine
 10
304.9959283173759
 20
450.1941389834537
 30
0.0
 11
303.0709283173769
 21
452.1191389834529
 31
0.0
  0
LINE
  5
170A
330
1E
100
AcDbEntity
  8
STEMPEL
100
AcDbLine
 10
303.0709283173769
 20
452.1191389834529
 30
0.0
 11
301.4959283173757
 21
453.6941389834542
 31
0.0
  0
LINE
  5
170B
330
1E
100
AcDbEntity
  8
STEMPEL
100
AcDbLine
 10
304.9959283173759
 20
450.1941389834537
 30
0.0
 11
303.0709283173769
 21
452.1191389834529
 31
0.0
  0
LINE
  5
170C
330
1E
100
AcDbEntity
  8
HILF
100
AcDbLine
 10
284.0394933453401
 20
585.7717011932486
 30
0.0
 11
274.3102215513195
 21
585.7717011932486
 31
0.0
  0
LWPOLYLINE
  5
170D
330
1E
100
AcDbEntity
  8
STEMPEL
100
AcDbPolyline
 90
        5
 70
     0
 43
0.0
 10
277.349111301297
 20
598.6941389834542
 42
-0.0746701075953814
 10
277.6454347835781
 20
600.6672933230151
 42
-0.0852403443595439
 10
278.4355292387898
 20
602.2296728893866
 42
-0.106221431704672
 10
279.6998882726323
 20
603.3405733749019
 42
-0.1280001435432521
 10
281.058374157891
 20
603.6941389834542
 42
-0.1280001435432617
  0
LWPOLYLINE
  5
170E
330
1E
100
AcDbEntity
  8
STEMPEL
100
AcDbPolyline
 90
        5
 70
     0
 43
0.0
 10
263.7474165032663
 20
603.6941389834542
 42
-0.1077960333930359
 10
265.454941887213
 20
603.3216821136679
 42
-0.1018709584481094
 10
266.9446131679563
 20
602.2296728893866
 42
-0.0944770720223779
 10
267.9182413511441
 20
600.6301553398652
 42
-0.0898400221833202
 10
268.2689353880448
 20
598.6941389834542
 42
-0.0898400221833173
  0
LWPOLYLINE
  5
170F
330
1E
100
AcDbEntity
  8
STEMPEL
100
AcDbPolyline
 90
        5
 70
     0
 43
0.0
 10
264.5127833679965
 20
603.6941389834542
 42
-0.1077144041550071
 10
266.2219686444244
 20
603.321608996915
 42
-0.1018453269126967
 10
267.7127075890473
 20
602.2296728893866
 42
-0.0945134029505288
 10
268.6872181834904
 20
600.6299745856518
 42
-0.0899106392812926
 10
269.0381595999727
 20
598.6941389834542
 42
-0.0899106392813071
  0
LWPOLYLINE
  5
1710
330
1E
100
AcDbEntity
  8
STEMPEL
100
AcDbPolyline
 90
        5
 70
     0
 43
0.0
 10
259.7993642748599
 20
598.6941389834542
 42
-0.0933361443398535
 10
260.1622414017795
 20
600.6211302689816
 42
-0.0962044251214492
 10
261.1798927646653
 20
602.2296728893866
 42
-0.1005595813672714
 10
262.722676288676
 20
603.3181995110271
 42
-0.1038718110768053
 10
264.5127833679965
 20
603.6941389834542
 42
-0.1038718110768142
  0
LINE
  5
1711
102
{ACAD_REACTORS
330
1992
102
}
330
1E
100
AcDbEntity
  8
STEMPEL
100
AcDbLine
 10
295.506711398883
 20
614.4638207782163
 30
0.0
 11
287.2568440072405
 21
586.776571419888
 31
0.0
  0
LWPOLYLINE
  5
1712
330
1E
100
AcDbEntity
  8
STEMPEL
100
AcDbPolyline
 90
        2
 70
     0
 43
0.0
 10
291.6634833959593
 20
601.5656241156066
 42
-0.0485809373212443
 10
291.9431422994751
 20
598.6941389834542
 42
-0.0345269946857751
  0
LINE
  5
1713
102
{ACAD_REACTORS
330
1992
102
}
330
1E
100
AcDbEntity
  8
STEMPEL
100
AcDbLine
 10
292.524170493138
 20
610.9690040591799
 30
0.0
 11
285.3220729297063
 21
587.2831885115238
 31
0.0
  0
LINE
  5
1714
330
1E
100
AcDbEntity
  8
HILF
100
AcDbLine
 10
195.8809326669841
 20
629.172326680441
 30
0.0
 11
294.1109239677696
 21
629.172326680441
 31
0.0
  0
LINE
  5
1715
330
1E
100
AcDbEntity
  8
HILF
100
AcDbLine
 10
192.1673570953901
 20
638.5174034421411
 30
0.0
 11
297.8244995393641
 21
638.5174034421411
 31
0.0
  0
LINE
  5
1716
102
{ACAD_REACTORS
330
1992
102
}
330
1E
100
AcDbEntity
  8
STEMPEL
100
AcDbLine
 10
286.9959283173771
 20
533.6941389834541
 30
0.0
 11
202.9959283173769
 21
533.6941389834541
 31
0.0
  0
LWPOLYLINE
  5
1717
102
{ACAD_REACTORS
330
1992
102
}
330
1E
100
AcDbEntity
  8
HILF
100
AcDbPolyline
 90
       49
 70
     0
 43
0.0
 10
294.8771086707968
 20
612.0593674568627
 10
291.3067202215823
 20
610.4048314739384
 10
287.5249387138872
 20
608.2062910082572
 10
284.5318586391452
 20
605.9970863775729
 10
282.2087548422094
 20
603.7920912425779
 10
280.4369021679329
 20
601.6061792639643
 10
279.0975754611695
 20
599.4542241024246
 10
278.0720495667722
 20
597.3510994186518
 10
277.2415993295938
 20
595.3116788733382
 10
276.5068192865785
 20
593.3430718919352
 10
275.845582743031
 20
591.4213309589285
 10
275.2550826963463
 20
589.5147443235623
 10
274.7325121439201
 20
587.5916002350809
 10
274.2750640831475
 20
585.6201869427287
 10
273.8799315114238
 20
583.5687926957502
 10
273.5443074261441
 20
581.4057057433902
 10
273.2653848247039
 20
579.0992143348922
 10
273.0369882990146
 20
576.6318723285953
 10
272.8394688190531
 20
574.0432960192151
 10
272.6498089493118
 20
571.3873673105622
 10
272.4449912542843
 20
568.7179681064463
 10
272.2019982984627
 20
566.0889803106774
 10
271.8978126463403
 20
563.5542858270659
 10
271.5094168624101
 20
561.167766559422
 10
271.013793511165
 20
558.9833044115562
 10
270.3914806963321
 20
557.0429946208191
 10
269.6372386785781
 20
555.3417857587292
 10
268.7493832578036
 20
553.8628397303455
 10
267.7262302339093
 20
552.5893184407273
 10
266.566095406796
 20
551.5043837949347
 10
265.2672945763645
 20
550.5911976980264
 10
263.8281435425154
 20
549.8329220550617
 10
262.2469581051498
 20
549.2127187711003
 10
260.5149897694416
 20
548.7133755734812
 10
258.5952328616588
 20
548.3161834786655
 10
256.4436174133418
 20
548.0020593253938
 10
254.0160734560316
 20
547.7519199524071
 10
251.2685310212694
 20
547.5466821984459
 10
248.1569201405957
 20
547.3672629022512
 10
244.637170845552
 20
547.194578902564
 10
240.6652131676785
 20
547.0095470381251
 10
236.2100128310358
 20
546.8067809087906
 10
231.2926783297582
 20
546.6356811588812
 10
225.9473538504997
 20
546.5593451938325
 10
220.2081835799142
 20
546.6408704190803
 10
214.1093117046555
 20
546.9433542400602
 10
207.684882411377
 20
547.5298940622082
 10
200.9690398867331
 20
548.4635872909607
 10
193.9959283173768
 20
549.8075313317526
  0
LINE
  5
1718
330
1E
100
AcDbEntity
  8
STEMPEL
100
AcDbLine
 10
288.3641020042446
 20
608.6941389834541
 30
0.0
 11
193.995928317377
 21
608.6941389834541
 31
0.0
  0
LINE
  5
1719
330
1E
100
AcDbEntity
  8
HILF
  6
Continuous
100
AcDbLine
 10
244.9959283173769
 20
616.3479524531653
 30
0.0
 11
294.1109239677696
 21
616.3479524531653
 31
0.0
  0
INSERT
  5
171A
330
1E
100
AcDbEntity
  8
SCHRAFF
100
AcDbBlockReference
  2
*X2
 10
-19.00857825008302
 20
218.5621882692604
 30
0.0
1001
ACAD
1000
HATCH
1002
{
1070
    16
1000
_U,I
1040
0.1
1040
0.0
1070
     0
1002
}
  0
ARC
  5
171B
330
1E
100
AcDbEntity
  8
SCHRAFF
100
AcDbCircle
 10
258.5927760708223
 20
611.5389011218117
 30
0.0
 40
8.717801077182686
100
AcDbArc
 50
146.5206905241459
 51
199.0453524624751
  0
LINE
  5
171C
330
1E
100
AcDbEntity
  8
STEMPEL
100
AcDbLine
 10
193.9959283173768
 20
343.6941389834542
 30
0.0
 11
194.8708149526362
 21
333.6941389834542
 31
0.0
  0
LINE
  5
171D
330
1E
100
AcDbEntity
  8
STEMPEL
100
AcDbLine
 10
195.9959283173768
 20
343.6941389834542
 30
0.0
 11
196.8708149526362
 21
333.6941389834542
 31
0.0
  0
POINT
  5
171E
330
1E
100
AcDbEntity
  8
SCHRAFF
100
AcDbPoint
 10
194.8708149526362
 20
333.6941389834542
 30
0.0
  0
ARC
  5
171F
330
1E
100
AcDbEntity
  8
STEMPEL
100
AcDbCircle
 10
181.9959283173768
 20
243.1185227175056
 30
0.0
 40
12.0
100
AcDbArc
 50
0.0
 51
24.22774531795116
  0
ARC
  5
1720
330
1E
100
AcDbEntity
  8
STEMPEL
100
AcDbCircle
 10
181.9959283173768
 20
243.1185227175056
 30
0.0
 40
14.0
100
AcDbArc
 50
0.0
 51
24.22774531795116
  0
LINE
  5
1721
330
1E
100
AcDbEntity
  8
STEMPEL
100
AcDbLine
 10
195.9959283173768
 20
160.035977266991
 30
0.0
 11
195.9959283173768
 21
243.1185227175056
 31
0.0
  0
LINE
  5
1722
330
1E
100
AcDbEntity
  8
STEMPEL
100
AcDbLine
 10
193.9959283173768
 20
158.5839161770975
 30
0.0
 11
193.9959283173768
 21
243.1185227175056
 31
0.0
  0
LINE
  5
1723
330
1E
100
AcDbEntity
  8
STEMPEL
100
AcDbLine
 10
309.4959283173769
 20
429.6941389834537
 30
0.0
 11
309.4959283173769
 21
425.6941389834537
 31
0.0
  0
ARC
  5
1724
330
1E
100
AcDbEntity
  8
STEMPEL
100
AcDbCircle
 10
330.8065630235426
 20
412.6229168362956
 30
0.0
 40
25.0
100
AcDbArc
 50
148.4764561260138
 51
172.9434514356065
  0
POINT
  5
1725
330
1E
100
AcDbEntity
  8
SCHRAFF
100
AcDbPoint
 10
309.9959283173769
 20
415.6941389834542
 30
0.0
  0
POINT
  5
1726
330
1E
100
AcDbEntity
  8
SCHRAFF
100
AcDbPoint
 10
306.3269276906567
 20
417.6971117447441
 30
0.0
  0
LINE
  5
1727
330
1E
100
AcDbEntity
  8
STEMPEL
100
AcDbLine
 10
309.4959283173769
 20
425.6941389834537
 30
0.0
 11
300.9959283173769
 21
425.6941389834537
 31
0.0
  0
ARC
  5
1728
330
1E
100
AcDbEntity
  8
STEMPEL
100
AcDbCircle
 10
329.9959283173769
 20
411.3850509621998
 30
0.0
 40
27.0
100
AcDbArc
 50
147.9968273188154
 51
180.0
  0
ARC
  5
1729
330
1E
100
AcDbEntity
  8
STEMPEL
100
AcDbCircle
 10
329.9959283173769
 20
411.3850509621998
 30
0.0
 40
25.0
100
AcDbArc
 50
147.9968273188154
 51
180.0
  0
LINE
  5
172A
330
1E
100
AcDbEntity
  8
STEMPEL
100
AcDbLine
 10
308.7954595361634
 20
424.6342065374351
 30
0.0
 11
307.0994220336663
 21
425.6941389834541
 31
0.0
  0
LINE
  5
172B
330
1E
100
AcDbEntity
  8
STEMPEL
100
AcDbLine
 10
309.4959283173769
 20
427.6941389834542
 30
0.0
 11
309.4959283173769
 21
429.6941389834541
 31
0.0
  0
LINE
  5
172C
330
1E
100
AcDbEntity
  8
STEMPEL
100
AcDbLine
 10
303.0709283173769
 20
427.6941389834542
 30
0.0
 11
309.4959283173769
 21
427.6941389834542
 31
0.0
  0
LINE
  5
172D
330
1E
100
AcDbEntity
  8
STEMPEL
100
AcDbLine
 10
309.4959283173769
 20
427.6941389834542
 30
0.0
 11
309.4959283173769
 21
429.6941389834541
 31
0.0
  0
LINE
  5
172E
330
1E
100
AcDbEntity
  8
STEMPEL
100
AcDbLine
 10
300.9959283173769
 20
427.6941389834542
 30
0.0
 11
303.0709283173769
 21
427.6941389834542
 31
0.0
  0
LINE
  5
172F
330
1E
100
AcDbEntity
  8
STEMPEL
100
AcDbLine
 10
303.0709283173769
 20
427.6941389834542
 30
0.0
 11
309.4959283173769
 21
427.6941389834542
 31
0.0
  0
LINE
  5
1730
330
1E
100
AcDbEntity
  8
STEMPEL
100
AcDbLine
 10
309.4959283173769
 20
427.6941389834542
 30
0.0
 11
309.4959283173769
 21
429.6941389834541
 31
0.0
  0
LINE
  5
1731
330
1E
100
AcDbEntity
  8
STEMPEL
100
AcDbLine
 10
293.9959283173769
 20
343.6941389834542
 30
0.0
 11
293.1210416821175
 21
333.6941389834542
 31
0.0
  0
LINE
  5
1732
330
1E
100
AcDbEntity
  8
STEMPEL
100
AcDbLine
 10
300.9959283173769
 20
355.6941389834542
 30
0.0
 11
295.9959283173769
 21
355.6941389834542
 31
0.0
  0
LINE
  5
1733
330
1E
100
AcDbEntity
  8
STEMPEL
100
AcDbLine
 10
295.9959283173769
 20
343.6941389834542
 30
0.0
 11
295.1210416821175
 21
333.6941389834542
 31
0.0
  0
ARC
  5
1734
330
1E
100
AcDbEntity
  8
STEMPEL
100
AcDbCircle
 10
307.9959283173764
 20
243.1185227175056
 30
0.0
 40
14.0
100
AcDbArc
 50
155.7722546820488
 51
180.0
  0
ARC
  5
1735
330
1E
100
AcDbEntity
  8
STEMPEL
100
AcDbCircle
 10
290.9959283173766
 20
268.6990246270603
 30
0.0
 40
12.0
100
AcDbArc
 50
335.7722546820489
 51
0.0
  0
ARC
  5
1736
330
1E
100
AcDbEntity
  8
STEMPEL
100
AcDbCircle
 10
290.9959283173766
 20
268.6990246270605
 30
0.0
 40
14.0
100
AcDbArc
 50
335.7722546820489
 51
0.0
  0
LINE
  5
1737
330
1E
100
AcDbEntity
  8
STEMPEL
100
AcDbLine
 10
303.7628293898281
 20
262.9539191444571
 30
0.0
 11
297.0528702552751
 21
248.042898845451
 31
0.0
  0
ARC
  5
1738
330
1E
100
AcDbEntity
  8
STEMPEL
100
AcDbCircle
 10
307.9959283173764
 20
243.1185227175056
 30
0.0
 40
12.0
100
AcDbArc
 50
155.7722546820488
 51
180.0
  0
LINE
  5
1739
330
1E
100
AcDbEntity
  8
STEMPEL
100
AcDbLine
 10
301.9389863794779
 20
263.7746484991146
 30
0.0
 11
295.229027244925
 21
248.8636282001087
 31
0.0
  0
LINE
  5
173A
330
1E
100
AcDbEntity
  8
STEMPEL
100
AcDbLine
 10
293.9959283173764
 20
160.718100340689
 30
0.0
 11
293.9959283173764
 21
243.1185227175056
 31
0.0
  0
LINE
  5
173B
330
1E
100
AcDbEntity
  8
STEMPEL
100
AcDbLine
 10
295.9959283173764
 20
161.9105457904994
 30
0.0
 11
295.9959283173764
 21
243.1185227175056
 31
0.0
  0
LINE
  5
173C
330
1E
100
AcDbEntity
  8
STEMPEL
100
AcDbLine
 10
302.9959283173766
 20
268.6990246270602
 30
0.0
 11
302.9959283173769
 21
411.3850509621995
 31
0.0
  0
LINE
  5
173D
330
1E
100
AcDbEntity
  8
STEMPEL
100
AcDbLine
 10
304.9959283173766
 20
268.6990246270605
 30
0.0
 11
304.9959283173769
 21
411.3850509621995
 31
0.0
  0
LINE
  5
173E
330
1E
100
AcDbEntity
  8
HILF
100
AcDbLine
 10
292.2045952244871
 20
245.694138983454
 30
0.0
 11
197.7872614102662
 21
245.694138983454
 31
0.0
  0
LINE
  5
173F
330
1E
100
AcDbEntity
  8
STEMPEL
100
AcDbLine
 10
295.1210416821175
 20
333.6941389834542
 30
0.0
 11
194.8708149526362
 21
333.6941389834542
 31
0.0
  0
LINE
  5
1740
330
1E
100
AcDbEntity
  8
HILF
100
AcDbLine
 10
291.9429074838179
 20
343.6941389834542
 30
0.0
 11
197.3977541600416
 21
343.6941389834542
 31
0.0
  0
LWPOLYLINE
  5
1741
330
1E
100
AcDbEntity
  8
HILF
100
AcDbPolyline
 90
        7
 70
     0
 43
0.0
 10
193.9959283173768
 20
158.5839161770975
 42
-0.0860991373306557
 10
212.7717024327935
 20
168.2684477027249
 42
-0.1154029691580267
 10
231.1535098466996
 20
169.6430737525985
 42
-0.1381456708875928
 10
249.2977598741857
 20
161.3283245267693
 42
0.1494847871479613
 10
266.2864561565168
 20
153.9953176210197
 42
0.0892966141021285
 10
279.4538042779209
 20
154.8842919179004
 42
0.0782220348590402
 10
295.9959283173764
 20
161.9105457904994
  0
LWPOLYLINE
  5
1742
330
1E
100
AcDbEntity
  8
HILF
100
AcDbPolyline
 90
        7
 70
     0
 43
0.0
 10
193.9959283173768
 20
156.5839161770968
 42
-0.0860991373306568
 10
212.7717024327935
 20
166.268447702725
 42
-0.1154029691580267
 10
231.1535098466996
 20
167.6430737525985
 42
-0.1381456708875928
 10
249.2977598741857
 20
159.3283245267693
 42
0.1494847871479613
 10
266.2864561565168
 20
151.9953176210197
 42
0.0892966141021285
 10
279.4538042779209
 20
152.8842919179004
 42
0.0782220348590411
 10
295.9959283173764
 20
159.9105457905
  0
LINE
  5
1743
330
1E
100
AcDbEntity
  8
HILF
100
AcDbLine
 10
303.0709283173769
 20
427.6941389834542
 30
0.0
 11
303.0709283173769
 21
452.1191389834529
 31
0.0
  0
LINE
  5
1744
330
1E
100
AcDbEntity
  8
STEMPEL
100
AcDbLine
 10
304.9959283173757
 20
433.1941389834542
 30
0.0
 11
304.9959283173759
 21
450.1941389834537
 31
0.0
  0
LINE
  5
1745
330
1E
100
AcDbEntity
  8
STEMPEL
100
AcDbLine
 10
303.0709283173769
 20
427.6941389834542
 30
0.0
 11
303.0709283173769
 21
452.1191389834529
 31
0.0
  0
LINE
  5
1746
330
1E
100
AcDbEntity
  8
STEMPEL
100
AcDbLine
 10
304.9959283173757
 20
433.1941389834542
 30
0.0
 11
304.9959283173759
 21
450.1941389834537
 31
0.0
  0
LINE
  5
1747
330
1E
100
AcDbEntity
  8
STEMPEL
100
AcDbLine
 10
303.0709283173769
 20
452.1191389834529
 30
0.0
 11
303.0709283173769
 21
427.6941389834542
 31
0.0
  0
LINE
  5
1748
330
1E
100
AcDbEntity
  8
STEMPEL
100
AcDbLine
 10
303.0709283173769
 20
427.6941389834542
 30
0.0
 11
303.0709283173769
 21
452.1191389834529
 31
0.0
  0
LINE
  5
1749
330
1E
100
AcDbEntity
  8
STEMPEL
100
AcDbLine
 10
304.9959283173757
 20
433.1941389834542
 30
0.0
 11
304.9959283173759
 21
450.1941389834537
 31
0.0
  0
LINE
  5
174A
330
1E
100
AcDbEntity
  8
STEMPEL
100
AcDbLine
 10
303.0709283173769
 20
452.1191389834529
 30
0.0
 11
303.0709283173769
 21
427.6941389834542
 31
0.0
  0
LINE
  5
174B
102
{ACAD_REACTORS
330
1984
102
}
330
1E
100
AcDbEntity
  8
STEMPEL
100
AcDbLine
 10
295.9959283173771
 20
608.6941389834541
 30
0.0
 11
295.9959283173769
 21
343.6941389834542
 31
0.0
  0
LINE
  5
174C
330
1E
100
AcDbEntity
  8
STEMPEL
100
AcDbLine
 10
293.9959283173771
 20
608.6941389834541
 30
0.0
 11
293.9959283173769
 21
343.6941389834542
 31
0.0
  0
LINE
  5
174D
330
1E
100
AcDbEntity
  8
STEMPEL
100
AcDbLine
 10
195.9959283173768
 20
549.4220666715578
 30
0.0
 11
195.9959283173768
 21
343.6941389834542
 31
0.0
  0
LINE
  5
174E
330
1E
100
AcDbEntity
  8
STEMPEL
100
AcDbLine
 10
193.9959283173768
 20
551.6941389834541
 30
0.0
 11
193.9959283173768
 21
343.6941389834542
 31
0.0
  0
LINE
  5
174F
330
1E
100
AcDbEntity
  8
STEMPEL
100
AcDbLine
 10
300.9959283173769
 20
520.6941389834542
 30
0.0
 11
300.9959283173769
 21
355.6941389834542
 31
0.0
  0
LINE
  5
1750
330
1E
100
AcDbEntity
  8
HILF
100
AcDbLine
 10
297.9959283173769
 20
520.6941389834542
 30
0.0
 11
297.9959283173769
 21
355.6941389834542
 31
0.0
  0
LINE
  5
1751
330
1E
100
AcDbEntity
  8
HILF
100
AcDbLine
 10
191.9959283173768
 20
520.6941389834542
 30
0.0
 11
191.9959283173768
 21
355.6941389834542
 31
0.0
  0
LWPOLYLINE
  5
1752
330
1E
100
AcDbEntity
  8
STEMPEL
100
AcDbPolyline
 90
        5
 70
     0
 43
0.0
 10
300.9959283173769
 20
427.6941389834542
 10
303.0709283173769
 20
427.6941389834542
 10
303.0709283173769
 20
452.1191389834529
 10
301.4959283173757
 20
453.6941389834542
 10
300.9959283173769
 20
453.6941389834542
  0
INSERT
  5
1753
330
1E
100
AcDbEntity
  8
SCHRAFF
100
AcDbBlockReference
  2
*X5
 10
1030.420030555518
 20
53.95954994423028
 30
0.0
 50
90.0
1001
ACAD
1000
HATCH
1002
{
1070
    16
1000
_U,I
1040
2.0
1040
0.7853981633974483
1070
     0
1002
}
  0
LINE
  5
1754
102
{ACAD_REACTORS
330
1984
102
}
330
1E
100
AcDbEntity
  8
STEMPEL
100
AcDbLine
 10
349.9959283173769
 20
553.6941389834542
 30
0.0
 11
349.9959283173769
 21
551.6941389834541
 31
0.0
  0
LINE
  5
1755
330
1E
100
AcDbEntity
  8
STEMPEL
100
AcDbLine
 10
319.9959283173769
 20
450.1941389834541
 30
0.0
 11
314.9959283173769
 21
450.1941389834541
 31
0.0
  0
LINE
  5
1756
330
1E
100
AcDbEntity
  8
STEMPEL
100
AcDbLine
 10
319.9959283173769
 20
450.1941389834541
 30
0.0
 11
314.9959283173769
 21
450.1941389834541
 31
0.0
  0
TEXT
  5
1757
330
1E
100
AcDbEntity
  8
TEXT
 62
     1
100
AcDbText
 10
342.0322325184676
 20
742.4197839146265
 30
0.0
 40
7.0
  1
EDV-Art.Nr. 16713.0100X
 41
0.8
  7
GREEKS
100
AcDbText
  0
LINE
  5
1758
330
1E
100
AcDbEntity
  8
TEXT
 62
     2
100
AcDbLine
 10
340.584222525699
 20
751.3024662482052
 30
0.0
 11
454.8961951001991
 21
751.3024662482052
 31
0.0
  0
TEXT
  5
1759
330
1E
100
AcDbEntity
  8
TEXT
 62
     1
100
AcDbText
 10
342.0322325184676
 20
753.6888421649453
 30
0.0
 40
7.0
  1
Ablaufkörper DN100
 41
0.8
  7
GREEKS
100
AcDbText
  0
LINE
  5
175A
330
1E
100
AcDbEntity
  8
STEMPEL
100
AcDbLine
 10
319.9959283173769
 20
429.6941389834537
 30
0.0
 11
319.9959283173769
 21
416.6941389834541
 31
0.0
  0
LINE
  5
175B
330
1E
100
AcDbEntity
  8
STEMPEL
100
AcDbLine
 10
319.9959283173769
 20
416.6941389834541
 30
0.0
 11
318.9959283173769
 21
415.6941389834542
 31
0.0
  0
LINE
  5
175C
330
1E
100
AcDbEntity
  8
STEMPEL
100
AcDbLine
 10
316.4959283173768
 20
423.794138983454
 30
0.0
 11
316.4959283173768
 21
415.6941389834542
 31
0.0
  0
LINE
  5
175D
330
1E
100
AcDbEntity
  8
STEMPEL
100
AcDbLine
 10
314.5959283173768
 20
425.6941389834541
 30
0.0
 11
314.133341518848
 21
425.6941389834541
 31
0.0
  0
ARC
  5
175E
330
1E
100
AcDbEntity
  8
STEMPEL
100
AcDbCircle
 10
314.5959283173768
 20
423.7941389834541
 30
0.0
 40
1.9
100
AcDbArc
 50
0.0
 51
90.0
  0
ARC
  5
175F
330
1E
100
AcDbEntity
  8
STEMPEL
100
AcDbCircle
 10
314.133341518848
 20
423.7941389834541
 30
0.0
 40
1.9
100
AcDbArc
 50
90.0
 51
164.9999999999988
  0
LINE
  5
1760
330
1E
100
AcDbEntity
  8
STEMPEL
100
AcDbLine
 10
319.9959283173769
 20
429.6941389834541
 30
0.0
 11
319.9959283173769
 21
450.1941389834541
 31
0.0
  0
LINE
  5
1761
330
1E
100
AcDbEntity
  8
STEMPEL
100
AcDbLine
 10
314.9959283173769
 20
433.1941389834542
 30
0.0
 11
314.9959283173769
 21
450.1941389834541
 31
0.0
  0
LINE
  5
1762
330
1E
100
AcDbEntity
  8
STEMPEL
100
AcDbLine
 10
319.9959283173769
 20
429.6941389834541
 30
0.0
 11
319.9959283173769
 21
450.1941389834541
 31
0.0
  0
LINE
  5
1763
330
1E
100
AcDbEntity
  8
STEMPEL
100
AcDbLine
 10
314.9959283173769
 20
450.1941389834541
 30
0.0
 11
314.9959283173769
 21
433.1941389834542
 31
0.0
  0
LINE
  5
1764
330
1E
100
AcDbEntity
  8
STEMPEL
100
AcDbLine
 10
319.9959283173769
 20
429.6941389834541
 30
0.0
 11
319.9959283173769
 21
450.1941389834541
 31
0.0
  0
LINE
  5
1765
330
1E
100
AcDbEntity
  8
STEMPEL
100
AcDbLine
 10
314.9959283173769
 20
450.1941389834541
 30
0.0
 11
314.9959283173769
 21
433.1941389834542
 31
0.0
  0
LINE
  5
1766
330
1E
100
AcDbEntity
  8
TEXT
 62
     2
100
AcDbLine
 10
340.584222525699
 20
751.3024662482052
 30
0.0
 11
266.3073105003148
 21
729.5092822492242
 31
0.0
  0
LINE
  5
1767
330
1E
100
AcDbEntity
  8
STEMPEL
100
AcDbLine
 10
318.9959283173769
 20
415.6941389834542
 30
0.0
 11
305.3700930944838
 21
415.6941389834542
 31
0.0
  0
LINE
  5
1768
330
1E
100
AcDbEntity
  8
STEMPEL
100
AcDbLine
 10
319.9959283173769
 20
429.6941389834537
 30
0.0
 11
309.4959283173769
 21
429.6941389834537
 31
0.0
  0
LINE
  5
1769
330
1E
100
AcDbEntity
  8
STEMPEL
100
AcDbLine
 10
312.2980824488986
 20
424.2858951691487
 30
0.0
 11
309.9959283173769
 21
415.6941389834542
 31
0.0
  0
LINE
  5
176A
330
1E
100
AcDbEntity
  8
STEMPEL
100
AcDbLine
 10
309.4959283173769
 20
429.6941389834541
 30
0.0
 11
319.9959283173769
 21
429.6941389834541
 31
0.0
  0
LINE
  5
176B
330
1E
100
AcDbEntity
  8
STEMPEL
100
AcDbLine
 10
304.9959283173757
 20
450.1941389834541
 30
0.0
 11
319.9959283173769
 21
450.1941389834541
 31
0.0
  0
LINE
  5
176C
330
1E
100
AcDbEntity
  8
STEMPEL
100
AcDbLine
 10
304.9959283173757
 20
433.1941389834542
 30
0.0
 11
314.9959283173769
 21
433.1941389834542
 31
0.0
  0
LINE
  5
176D
330
1E
100
AcDbEntity
  8
STEMPEL
100
AcDbLine
 10
309.4959283173769
 20
429.6941389834541
 30
0.0
 11
319.9959283173769
 21
429.6941389834541
 31
0.0
  0
LINE
  5
176E
330
1E
100
AcDbEntity
  8
STEMPEL
100
AcDbLine
 10
314.9959283173769
 20
433.1941389834542
 30
0.0
 11
304.9959283173757
 21
433.1941389834542
 31
0.0
  0
LINE
  5
176F
330
1E
100
AcDbEntity
  8
STEMPEL
100
AcDbLine
 10
314.9959283173769
 20
433.1941389834542
 30
0.0
 11
304.9959283173757
 21
433.1941389834542
 31
0.0
  0
LINE
  5
1770
330
1E
100
AcDbEntity
  8
STEMPEL
100
AcDbLine
 10
309.4959283173769
 20
429.6941389834541
 30
0.0
 11
319.9959283173769
 21
429.6941389834541
 31
0.0
  0
LINE
  5
1771
102
{ACAD_REACTORS
330
1984
102
}
330
1E
100
AcDbEntity
  8
STEMPEL
100
AcDbLine
 10
349.9959283173769
 20
553.6941389834542
 30
0.0
 11
295.9959283173769
 21
553.6941389834542
 31
0.0
  0
LINE
  5
1772
102
{ACAD_REACTORS
330
1984
102
}
330
1E
100
AcDbEntity
  8
STEMPEL
100
AcDbLine
 10
349.9959283173769
 20
551.6941389834541
 30
0.0
 11
295.9959283173769
 21
551.6941389834541
 31
0.0
  0
LINE
  5
1774
330
1E
100
AcDbEntity
  8
STEMPEL
100
AcDbLine
 10
193.9959283173766
 20
87.69413898345375
 30
0.0
 11
195.0457922796875
 21
75.69413898345397
 31
0.0
  0
LINE
  5
1775
330
1E
100
AcDbEntity
  8
STEMPEL
100
AcDbLine
 10
195.9959283173766
 20
87.78146086927108
 30
0.0
 11
197.0534319547744
 21
75.69413898345397
 31
0.0
  0
LINE
  5
1776
330
1E
100
AcDbEntity
  8
STEMPEL
100
AcDbLine
 10
293.9959283173764
 20
87.78146086927154
 30
0.0
 11
292.9384246799786
 21
75.69413898345397
 31
0.0
  0
LINE
  5
1777
330
1E
100
AcDbEntity
  8
STEMPEL
100
AcDbLine
 10
295.9959283173764
 20
87.69413898345465
 30
0.0
 11
294.9460643550653
 21
75.69413898345397
 31
0.0
  0
LINE
  5
1778
330
1E
100
AcDbEntity
  8
STEMPEL
100
AcDbLine
 10
294.9460643550653
 20
75.69413898345397
 30
0.0
 11
195.0457922796875
 21
75.69413898345397
 31
0.0
  0
LINE
  5
1779
330
1E
100
AcDbEntity
  8
HILF
100
AcDbLine
 10
292.2045952244868
 20
87.69413898345396
 30
0.0
 11
197.7872614102659
 21
87.69413898345396
 31
0.0
  0
LINE
  5
177A
330
1E
100
AcDbEntity
  8
MITTEL
100
AcDbLine
 10
244.9959283173764
 20
70.69413898345397
 30
0.0
 11
244.9959283173769
 21
499.2360498579107
 31
0.0
  0
LINE
  5
177B
330
1E
100
AcDbEntity
  8
STEMPEL
100
AcDbLine
 10
193.9959283173766
 20
87.69413898345375
 30
0.0
 11
193.9959283173768
 21
156.5839161770968
 31
0.0
  0
LINE
  5
177C
330
1E
100
AcDbEntity
  8
STEMPEL
100
AcDbLine
 10
195.9959283173766
 20
87.78146086927108
 30
0.0
 11
195.9959283173768
 21
158.0359772669906
 31
0.0
  0
LINE
  5
177D
330
1E
100
AcDbEntity
  8
STEMPEL
100
AcDbLine
 10
295.9959283173764
 20
87.69413898345465
 30
0.0
 11
295.9959283173764
 21
159.9105457905
 31
0.0
  0
LINE
  5
177E
330
1E
100
AcDbEntity
  8
STEMPEL
100
AcDbLine
 10
293.9959283173764
 20
87.78146086927154
 30
0.0
 11
293.9959283173764
 21
158.7181003406895
 31
0.0
  0
DIMENSION
  5
1780
330
1E
100
AcDbEntity
  8
BEM
100
AcDbDimension
  2
*D10
 10
94.73267174170633
 20
425.6941389834539
 30
0.0
 11
88.23267174170624
 21
250.694138983454
 31
0.0
 70
    32
  1
2500
 71
     5
 42
349.9999999999998
  3
Standard
100
AcDbAlignedDimension
 13
195.0457922796873
 23
75.69413898345408
 33
0.0
 14
180.4959283173766
 24
425.6941389834538
 34
0.0
 50
90.0
100
AcDbRotatedDimension
1001
ACAD
1000
DSTYLE
1002
{
1070
    40
1040
2.0
1070
    41
1040
3.5
1070
    42
1040
1.0
1070
    43
1040
7.0
1070
    44
1040
1.0
1070
    73
1070
     0
1070
    74
1070
     0
1070
    77
1070
     1
1070
    78
1070
     8
1070
    79
1070
     2
1070
   140
1040
3.5
1070
   141
1040
1.5
1070
   146
1040
0.5142857142857144
1070
   147
1040
1.5
1070
   172
1070
     1
1070
   178
1070
     1
1070
   179
1070
     2
1070
   271
1070
     2
1070
   272
1070
     2
1070
   284
1070
     8
1070
   285
1070
     8
1070
   286
1070
     8
1002
}
  0
ARC
  5
1781
330
1E
100
AcDbEntity
  8
STEMPEL
100
AcDbCircle
 10
278.9959283173771
 20
763.0536033941013
 30
0.0
 40
24.99990931069965
100
AcDbArc
 50
333.1122293409809
 51
0.0
  0
LINE
  5
1782
330
1E
100
AcDbEntity
  8
MITTEL
100
AcDbLine
 10
244.9959283173771
 20
798.8206033941017
 30
0.0
 11
244.9959283173769
 21
516.7534994273319
 31
0.0
  0
LINE
  5
1783
330
1E
100
AcDbEntity
  8
HILF
100
AcDbLine
 10
300.5337824926535
 20
265.6941389834539
 30
0.0
 11
189.4580741420998
 21
265.6941389834542
 31
0.0
  0
LINE
  5
1784
330
1E
100
AcDbEntity
  8
STEMPEL
100
AcDbLine
 10
186.2290272449252
 20
262.9539191444574
 30
0.0
 11
192.9389863794781
 21
248.0428988454512
 31
0.0
  0
LINE
  5
1785
330
1E
100
AcDbEntity
  8
STEMPEL
100
AcDbLine
 10
188.0528702552753
 20
263.7746484991148
 30
0.0
 11
194.7628293898283
 21
248.8636282001089
 31
0.0
  0
LINE
  5
1786
330
1E
100
AcDbEntity
  8
STEMPEL
100
AcDbLine
 10
300.702684155302
 20
793.8206033941017
 30
0.0
 11
189.289172479452
 21
793.8206033941017
 31
0.0
  0
LINE
  5
1787
330
1E
100
AcDbEntity
  8
STEMPEL
100
AcDbLine
 10
268.6138482803183
 20
553.6941389834542
 30
0.0
 11
139.9959283173768
 21
553.6941389834542
 31
0.0
  0
LINE
  5
1788
330
1E
100
AcDbEntity
  8
STEMPEL
100
AcDbLine
 10
266.7690031152745
 20
551.6941389834541
 30
0.0
 11
139.9959283173768
 21
551.6941389834541
 31
0.0
  0
ARC
  5
1789
330
1E
100
AcDbEntity
  8
SCHRAFF
100
AcDbCircle
 10
194.7016296626077
 20
552.959094318362
 30
0.0
 40
4.477140827639991
100
AcDbArc
 50
196.4116445908444
 51
260.9310338685613
  0
INSERT
  5
178A
330
1E
100
AcDbEntity
  8
SCHRAFF
100
AcDbBlockReference
  2
*X1
 10
-65.95978063509687
 20
201.9231870761219
 30
0.0
1001
ACAD
1000
HATCH
1002
{
1070
    16
1000
_U,I
1040
0.1
1040
2.356194490192344
1070
     0
1002
}
  0
LINE
  5
178B
330
1E
100
AcDbEntity
  8
STEMPEL
100
AcDbLine
 10
193.9959283173768
 20
522.6941389834542
 30
0.0
 11
188.9959283173768
 21
522.6941389834542
 31
0.0
  0
LINE
  5
178C
330
1E
100
AcDbEntity
  8
STEMPEL
100
AcDbLine
 10
193.9959283173768
 20
520.6941389834542
 30
0.0
 11
188.9959283173768
 21
520.6941389834542
 31
0.0
  0
LINE
  5
178D
330
1E
100
AcDbEntity
  8
STEMPEL
100
AcDbLine
 10
193.9959283173768
 20
355.6941389834542
 30
0.0
 11
188.9959283173768
 21
355.6941389834542
 31
0.0
  0
ARC
  5
178E
330
1E
100
AcDbEntity
  8
STEMPEL
100
AcDbCircle
 10
204.9959283173773
 20
640.6216278604015
 30
0.0
 40
15.0
100
AcDbArc
 50
180.0
 51
214.3011527567897
  0
LINE
  5
178F
330
1E
100
AcDbEntity
  8
STEMPEL
100
AcDbLine
 10
189.289172479452
 20
793.8206033941017
 30
0.0
 11
300.7026841553024
 21
793.8206033941017
 31
0.0
  0
LINE
  5
1790
330
1E
100
AcDbEntity
  8
HILF
  6
Continuous
100
AcDbLine
 10
191.7505597868
 20
748.9302227418909
 30
0.0
 11
298.2412968479541
 21
748.9302227418911
 31
0.0
  0
DIMENSION
  5
1791
330
1E
100
AcDbEntity
  8
BEM
100
AcDbDimension
  2
*D11
 10
303.9959283173771
 20
806.2339074265715
 30
0.0
 11
244.9959283173772
 21
812.7339074265714
 31
0.0
 70
    32
  1
%%C<>
 71
     5
 42
117.9999999999999
  3
Standard
100
AcDbAlignedDimension
 13
185.9959283173772
 23
781.2158519315305
 33
0.0
 14
303.9959283173771
 24
781.2158519315305
 34
0.0
100
AcDbRotatedDimension
1001
ACAD
1000
DSTYLE
1002
{
1070
    40
1040
2.0
1070
    41
1040
3.5
1070
    42
1040
1.0
1070
    43
1040
7.0
1070
    44
1040
1.0
1070
    73
1070
     0
1070
    74
1070
     0
1070
    77
1070
     1
1070
    78
1070
     8
1070
    79
1070
     2
1070
   140
1040
3.5
1070
   141
1040
1.5
1070
   146
1040
0.5142857142857144
1070
   147
1040
1.5
1070
   172
1070
     1
1070
   178
1070
     1
1070
   179
1070
     2
1070
   271
1070
     2
1070
   272
1070
     2
1070
   284
1070
     8
1070
   285
1070
     8
1070
   286
1070
     8
1002
}
  0
DIMENSION
  5
1792
330
1E
100
AcDbEntity
  8
BEM
100
AcDbDimension
  2
*D12
 10
349.9959283173769
 20
504.2350398331628
 30
0.0
 11
244.9959283173769
 21
510.7350398331627
 31
0.0
 70
    32
  1
%%C<>
 71
     5
 42
210.0
  3
Standard
100
AcDbAlignedDimension
 13
139.9959283173768
 23
551.6941389834541
 33
0.0
 14
349.9959283173769
 24
551.6941389834541
 34
0.0
100
AcDbRotatedDimension
1001
ACAD
1000
DSTYLE
1002
{
1070
    40
1040
2.0
1070
    41
1040
3.5
1070
    42
1040
1.0
1070
    43
1040
7.0
1070
    44
1040
1.0
1070
    73
1070
     0
1070
    74
1070
     0
1070
    77
1070
     1
1070
    78
1070
     8
1070
    79
1070
     2
1070
   140
1040
3.5
1070
   141
1040
1.5
1070
   146
1040
0.5142857142857144
1070
   147
1040
1.5
1070
   172
1070
     1
1070
   178
1070
     1
1070
   179
1070
     2
1070
   271
1070
     2
1070
   272
1070
     2
1070
   284
1070
     8
1070
   285
1070
     8
1070
   286
1070
     8
1002
}
  0
INSERT
  5
1793
330
1E
100
AcDbEntity
  8
SCHRAFF
100
AcDbBlockReference
  2
*X3
 10
-19.00857825008302
 20
218.5621882692604
 30
0.0
1001
ACAD
1000
HATCH
1002
{
1070
    16
1000
NET,I
1040
15.0
1040
2.356194490192344
1002
}
  0
INSERT
  5
1794
330
1E
100
AcDbEntity
  8
SCHRAFF
100
AcDbBlockReference
  2
*X4
 10
-19.00857825008302
 20
218.5621882692604
 30
0.0
1001
ACAD
1000
HATCH
1002
{
1070
    16
1000
NET,I
1040
20.0
1040
2.356194490192344
1002
}
  0
POLYLINE
  5
1795
330
1E
100
AcDbEntity
  8
HILF
100
AcDb2dPolyline
 66
     1
 10
0.0
 20
0.0
 30
0.0
 70
     2
  0
VERTEX
  5
1796
330
1795
100
AcDbEntity
  8
HILF
100
AcDbVertex
100
AcDb2dVertex
 10
189.9959283173772
 20
699.7277914468663
 30
0.0
 42
-0.1146798215756212
  0
VERTEX
  5
1797
330
1795
100
AcDbEntity
  8
HILF
100
AcDbVertex
100
AcDb2dVertex
 10
214.0974718877269
 20
713.9399150407305
 30
0.0
 42
-0.1154029691580267
 70
     1
  0
VERTEX
  5
1798
330
1795
100
AcDbEntity
  8
HILF
100
AcDbVertex
100
AcDb2dVertex
 10
232.4792793016329
 20
715.3145410906041
 30
0.0
 42
-0.1381456708875928
  0
VERTEX
  5
1799
330
1795
100
AcDbEntity
  8
HILF
100
AcDbVertex
100
AcDb2dVertex
 10
250.623529329119
 20
706.9997918647747
 30
0.0
 42
0.1494847871479613
 70
     1
  0
VERTEX
  5
179A
330
1795
100
AcDbEntity
  8
HILF
100
AcDbVertex
100
AcDb2dVertex
 10
267.6122256114504
 20
699.6667849590253
 30
0.0
 42
0.0892966141021285
  0
VERTEX
  5
179B
330
1795
100
AcDbEntity
  8
HILF
100
AcDbVertex
100
AcDb2dVertex
 10
280.7795737328543
 20
700.555759255906
 30
0.0
 42
0.0922055876646665
 70
     1
  0
VERTEX
  5
179C
330
1795
100
AcDbEntity
  8
HILF
100
AcDbVertex
100
AcDb2dVertex
 10
299.9959283173771
 20
709.3553727901198
 30
0.0
  0
SEQEND
  5
179D
330
1795
100
AcDbEntity
  8
HILF
  0
POLYLINE
  5
179E
330
1E
100
AcDbEntity
  8
HILF
100
AcDb2dPolyline
 66
     1
 10
0.0
 20
0.0
 30
0.0
 70
     2
  0
VERTEX
  5
179F
330
179E
100
AcDbEntity
  8
HILF
100
AcDbVertex
100
AcDb2dVertex
 10
189.9959283173772
 20
701.7277914468673
 30
0.0
 42
-0.1146798215756195
  0
VERTEX
  5
17A0
330
179E
100
AcDbEntity
  8
HILF
100
AcDbVertex
100
AcDb2dVertex
 10
214.0974718877269
 20
715.9399150407304
 30
0.0
 42
-0.1154029691580267
 70
     1
  0
VERTEX
  5
17A1
330
179E
100
AcDbEntity
  8
HILF
100
AcDbVertex
100
AcDb2dVertex
 10
232.4792793016329
 20
717.314541090604
 30
0.0
 42
-0.1381456708875928
  0
VERTEX
  5
17A2
330
179E
100
AcDbEntity
  8
HILF
100
AcDbVertex
100
AcDb2dVertex
 10
250.623529329119
 20
708.9997918647748
 30
0.0
 42
0.1494847871479613
 70
     1
  0
VERTEX
  5
17A3
330
179E
100
AcDbEntity
  8
HILF
100
AcDbVertex
100
AcDb2dVertex
 10
267.6122256114504
 20
701.6667849590253
 30
0.0
 42
0.0892966141021285
  0
VERTEX
  5
17A4
330
179E
100
AcDbEntity
  8
HILF
100
AcDbVertex
100
AcDb2dVertex
 10
280.7795737328543
 20
702.5557592559059
 30
0.0
 42
0.0922055876646653
 70
     1
  0
VERTEX
  5
17A5
330
179E
100
AcDbEntity
  8
HILF
100
AcDbVertex
100
AcDb2dVertex
 10
299.9959283173771
 20
711.3553727901194
 30
0.0
  0
SEQEND
  5
17A6
330
179E
100
AcDbEntity
  8
HILF
  0
INSERT
  5
17A7
330
1E
100
AcDbEntity
  8
SCHRAFF
100
AcDbBlockReference
  2
*X6
 10
570.0749159656397
 20
-3.121952109831909
 30
0.0
 50
90.0
1001
ACAD
1000
HATCH
1002
{
1070
    16
1000
NET,I
1040
15.0
1040
0.7853981633974483
1002
}
  0
INSERT
  5
17A8
330
1E
100
AcDbEntity
  8
SCHRAFF
100
AcDbBlockReference
  2
*X7
 10
570.0749159656397
 20
-3.121952109831909
 30
0.0
 50
90.0
1001
ACAD
1000
HATCH
1002
{
1070
    16
1000
NET,I
1040
20.0
1040
0.7853981633974483
1002
}
  0
INSERT
  5
17A9
330
1E
100
AcDbEntity
  8
SCHRAFF
100
AcDbBlockReference
  2
*X8
 10
570.0749159656397
 20
-3.121952109831909
 30
0.0
 50
90.0
1001
ACAD
1000
HATCH
1002
{
1070
    16
1000
_U,I
1040
2.0
1040
2.356194490192344
1070
     0
1002
}
  0
DIMENSION
  5
187C
330
1E
100
AcDbEntity
  8
BEM
100
AcDbDimension
  2
*D13
 10
295.9959283173764
 20
52.45800905605211
 30
0.0
 11
244.9959283173765
 21
58.9580090560521
 31
0.0
 70
    32
  1
%%c<>
 71
     5
 42
101.9999999999998
  3
Standard
100
AcDbAlignedDimension
 13
193.9959283173766
 23
87.69413898345375
 33
0.0
 14
295.9959283173764
 24
87.69413898345465
 34
0.0
100
AcDbRotatedDimension
1001
ACAD
1000
DSTYLE
1002
{
1070
    40
1040
2.0
1070
    41
1040
3.5
1070
    42
1040
1.0
1070
    43
1040
7.0
1070
    44
1040
1.0
1070
    73
1070
     0
1070
    74
1070
     0
1070
    77
1070
     1
1070
    78
1070
     8
1070
    79
1070
     2
1070
   140
1040
3.5
1070
   141
1040
1.5
1070
   146
1040
0.5142857142857144
1070
   147
1040
1.5
1070
   172
1070
     1
1070
   178
1070
     1
1070
   179
1070
     2
1070
   271
1070
     2
1070
   272
1070
     2
1070
   284
1070
     8
1070
   285
1070
     8
1070
   286
1070
     8
1002
}
  0
HATCH
  5
1984
330
1E
100
AcDbEntity
  8
SCHRAFF
100
AcDbHatch
 10
0.0
 20
0.0
 30
0.0
210
0.0
220
0.0
230
1.0
  2
_USER
 70
     0
 71
     1
 91
        1
 92
        7
 72
     0
 73
     1
 93
        4
 10
295.995928317377
 20
553.6941389834542
 10
295.995928317377
 20
551.6941389834541
 10
349.9959283173769
 20
551.6941389834543
 10
349.9959283173769
 20
553.6941389834542
 97
        4
330
1771
330
174B
330
1772
330
1754
 75
     0
 76
     0
 52
45.0
 41
2.0
 77
     0
 78
     1
 53
45.0
 43
0.0
 44
0.0
 45
-1.414213562373094
 46
1.414213562373095
 79
     0
 47
0.2253738727917301
 98
        1
 10
311.5982434843031
 20
552.914261558247
  0
HATCH
  5
1992
330
1E
100
AcDbEntity
  8
SCHRAFF
100
AcDbHatch
 10
0.0
 20
0.0
 30
0.0
210
0.0
220
0.0
230
1.0
  2
_USER
 70
     0
 71
     1
 91
        2
 92
        7
 72
     1
 73
     1
 93
        8
 10
284.9959283173771
 20
533.6941389834541
 42
0.0
 10
286.9959283173771
 20
533.6941389834541
 42
0.0
 10
286.9959283173771
 20
584.7501030533457
 42
-0.0641123317365854
 10
287.2568440072405
 20
586.776571419888
 42
0.0
 10
294.7763530879829
 20
612.0126768125203
 42
0.0
 10
292.524170493138
 20
610.9690040591799
 42
0.0
 10
285.3220729297063
 20
587.2831885115238
 42
0.064112331736594
 10
284.9959283173771
 20
584.7501030533456
 42
0.0
 97
        8
330
16F7
330
1711
330
1717
330
1713
330
16F9
330
1701
330
1716
330
16FD
 92
        7
 72
     0
 73
     1
 93
        4
 10
204.995928317377
 20
547.9037352028813
 10
202.9959283173771
 20
548.1817921183989
 10
202.9959283173769
 20
533.6941389834542
 10
204.9959283173769
 20
533.6941389834542
 97
        4
330
1717
330
16B8
330
1716
330
16B9
 75
     0
 76
     0
 52
45.0
 41
2.0
 77
     0
 78
     1
 53
45.0
 43
0.0
 44
0.0
 45
-1.414213562373094
 46
1.414213562373095
 79
     0
 47
0.2253738727917301
 98
        2
 10
285.6708171552286
 20
553.3650085713509
 10
204.0557968479097
 20
539.3918280163036
  0
ENDSEC
  0
SECTION
  2
OBJECTS
  0
DICTIONARY
  5
C
330
0
100
AcDbDictionary
281
     1
  3
ACAD_COLOR
350
DF
  3
ACAD_GROUP
350
D
  3
ACAD_LAYOUT
350
19
  3
ACAD_MATERIAL
350
DE
  3
ACAD_MLINESTYLE
350
16
  3
ACAD_PLOTSETTINGS
350
18
  3
ACAD_PLOTSTYLENAME
350
E
  3
AcDbVariableDictionary
350
EA
  0
DICTIONARY
  5
A0
330
1E
100
AcDbDictionary
280
     1
281
     1
  3
ACAD_LAYOUTSELFREF
360
D4
  0
DICTIONARY
  5
A2
330
1A
100
AcDbDictionary
280
     1
281
     1
  3
ACAD_LAYOUTSELFREF
360
D3
  0
DICTIONARY
  5
DF
102
{ACAD_REACTORS
330
C
102
}
330
C
100
AcDbDictionary
281
     1
  0
DICTIONARY
  5
D
102
{ACAD_REACTORS
330
C
102
}
330
C
100
AcDbDictionary
281
     1
  0
DICTIONARY
  5
19
102
{ACAD_REACTORS
330
C
102
}
330
C
100
AcDbDictionary
281
     1
  3
Layout1
350
1D
  3
Model
350
21
  0
DICTIONARY
  5
DE
102
{ACAD_REACTORS
330
C
102
}
330
C
100
AcDbDictionary
281
     1
  0
DICTIONARY
  5
16
102
{ACAD_REACTORS
330
C
102
}
330
C
100
AcDbDictionary
281
     1
  3
Standard
350
17
  0
DICTIONARY
  5
18
102
{ACAD_REACTORS
330
C
102
}
330
C
100
AcDbDictionary
281
     1
  0
ACDBDICTIONARYWDFLT
  5
E
102
{ACAD_REACTORS
330
C
102
}
330
C
100
AcDbDictionary
281
     1
  3
Normal
350
F
100
AcDbDictionaryWithDefault
340
F
  0
DICTIONARY
  5
EA
102
{ACAD_REACTORS
330
C
102
}
330
C
100
AcDbDictionary
281
     1
  3
DIMASSOC
350
EB
  3
PROJECTNAME
350
EC
  0
XRECORD
  5
D4
102
{ACAD_REACTORS
330
A0
102
}
330
A0
100
AcDbXrecord
280
     1
340
1E
  0
XRECORD
  5
D3
102
{ACAD_REACTORS
330
A2
102
}
330
A2
100
AcDbXrecord
280
     1
340
1A
  0
LAYOUT
  5
1D
102
{ACAD_REACTORS
330
19
102
}
330
19
100
AcDbPlotSettings
  1

  2
\\NT_WORK01\HP LaserJet 5000 PCL 6
  4

  6

 40
0.0
 41
0.0
 42
0.0
 43
0.0
 44
0.0
 45
0.0
 46
0.0
 47
0.0
 48
0.0
 49
0.0
140
0.0
141
0.0
142
1.0
143
1.0
 70
   688
 72
     0
 73
     0
 74
     5
  7

 75
    16
147
1.0
 76
     0
 77
     2
 78
   300
148
0.0
149
0.0
100
AcDbLayout
  1
Layout1
 70
     0
 71
     1
 10
0.0
 20
0.0
 11
12.0
 21
9.0
 12
0.0
 22
0.0
 32
0.0
 14
1.000000000000000E+20
 24
1.000000000000000E+20
 34
1.000000000000000E+20
 15
-1.000000000000000E+20
 25
-1.000000000000000E+20
 35
-1.000000000000000E+20
146
0.0
 13
0.0
 23
0.0
 33
0.0
 16
1.0
 26
0.0
 36
0.0
 17
0.0
 27
1.0
 37
0.0
 76
     0
330
1A
  0
LAYOUT
  5
21
102
{ACAD_REACTORS
330
19
102
}
330
19
100
AcDbPlotSettings
  1

  2
none_device
  4
Letter_(8.50_x_11.00_Inches)
  6

 40
6.349999904632568
 41
6.349999904632568
 42
6.350006103515625
 43
6.350006103515625
 44
215.8999938964844
 45
279.3999938964844
 46
0.0
 47
0.0
 48
0.0
 49
0.0
140
0.0
141
0.0
142
1.0
143
1.0
 70
 11952
 72
     0
 73
     1
 74
     0
  7

 75
     0
147
1.0
 76
     0
 77
     2
 78
   300
148
3251.566150932968
149
127.4457819382556
100
AcDbLayout
  1
Model
 70
     1
 71
     0
 10
0.0
 20
0.0
 11
12.0
 21
9.0
 12
0.0
 22
0.0
 32
0.0
 14
0.0
 24
0.0
 34
0.0
 15
0.0
 25
0.0
 35
0.0
146
0.0
 13
0.0
 23
0.0
 33
0.0
 16
1.0
 26
0.0
 36
0.0
 17
0.0
 27
1.0
 37
0.0
 76
     0
330
1E
  0
MLINESTYLE
  5
17
102
{ACAD_REACTORS
330
16
102
}
330
16
100
AcDbMlineStyle
  2
STANDARD
 70
     0
  3

 62
   256
 51
90.0
 52
90.0
 71
     2
 49
0.5
 62
   256
  6
BYLAYER
 49
-0.5
 62
   256
  6
BYLAYER
  0
ACDBPLACEHOLDER
  5
F
102
{ACAD_REACTORS
330
E
102
}
330
E
  0
DICTIONARYVAR
  5
EB
102
{ACAD_REACTORS
330
EA
102
}
330
EA
100
DictionaryVariables
280
     0
  1
1
  0
DICTIONARYVAR
  5
EC
102
{ACAD_REACTORS
330
EA
102
}
330
EA
100
DictionaryVariables
280
     0
  1

  0
ENDSEC
  0
EOF
