  0
SECTION
  2
HEADER
  9
$ACADVER
  1
AC1018
  9
$ACADMAINTVER
 70
     2
  9
$DWGCODEPAGE
  3
ANSI_1252
  9
$INSBASE
 10
0.0
 20
0.0
 30
0.0
  9
$EXTMIN
 10
-0.0000000000004547
 20
-0.0000000000000205
 30
0.0
  9
$EXTMAX
 10
594.0000000000001
 20
840.0000000000002
 30
0.0
  9
$LIMMIN
 10
0.0
 20
0.0
  9
$LIMMAX
 10
593.9999999999997
 20
840.0000000000002
  9
$ORTHOMODE
 70
     1
  9
$REGENMODE
 70
     1
  9
$FILLMODE
 70
     1
  9
$QTEXTMODE
 70
     0
  9
$MIRRTEXT
 70
     1
  9
$LTSCALE
 40
20.0
  9
$ATTMODE
 70
     1
  9
$TEXTSIZE
 40
3.5
  9
$TRACEWID
 40
0.5
  9
$TEXTSTYLE
  7
STANDARD
  9
$CLAYER
  8
STEMPEL
  9
$CELTYPE
  6
ByLayer
  9
$CECOLOR
 62
   256
  9
$CELTSCALE
 40
1.0
  9
$DISPSILH
 70
     0
  9
$DIMSCALE
 40
2.0
  9
$DIMASZ
 40
3.5
  9
$DIMEXO
 40
1.0
  9
$DIMDLI
 40
7.0
  9
$DIMRND
 40
0.0
  9
$DIMDLE
 40
0.0
  9
$DIMEXE
 40
1.0
  9
$DIMTP
 40
0.0
  9
$DIMTM
 40
0.0
  9
$DIMTXT
 40
3.5
  9
$DIMCEN
 40
1.5
  9
$DIMTSZ
 40
0.0
  9
$DIMTOL
 70
     0
  9
$DIMLIM
 70
     0
  9
$DIMTIH
 70
     0
  9
$DIMTOH
 70
     0
  9
$DIMSE1
 70
     0
  9
$DIMSE2
 70
     0
  9
$DIMTAD
 70
     1
  9
$DIMZIN
 70
     8
  9
$DIMBLK
  1

  9
$DIMASO
 70
     1
  9
$DIMSHO
 70
     0
  9
$DIMPOST
  1

  9
$DIMAPOST
  1

  9
$DIMALT
 70
     0
  9
$DIMALTD
 70
     2
  9
$DIMALTF
 40
25.4
  9
$DIMLFAC
 40
1.0
  9
$DIMTOFL
 70
     1
  9
$DIMTVP
 40
0.0
  9
$DIMTIX
 70
     0
  9
$DIMSOXD
 70
     0
  9
$DIMSAH
 70
     0
  9
$DIMBLK1
  1

  9
$DIMBLK2
  1

  9
$DIMSTYLE
  2
Standard
  9
$DIMCLRD
 70
     0
  9
$DIMCLRE
 70
     0
  9
$DIMCLRT
 70
     1
  9
$DIMTFAC
 40
0.5142857142857144
  9
$DIMGAP
 40
1.5
  9
$DIMJUST
 70
     0
  9
$DIMSD1
 70
     0
  9
$DIMSD2
 70
     0
  9
$DIMTOLJ
 70
     1
  9
$DIMTZIN
 70
     8
  9
$DIMALTZ
 70
     8
  9
$DIMALTTZ
 70
     8
  9
$DIMUPT
 70
     0
  9
$DIMDEC
 70
     2
  9
$DIMTDEC
 70
     2
  9
$DIMALTU
 70
     2
  9
$DIMALTTD
 70
     2
  9
$DIMTXSTY
  7
STANDARD
  9
$DIMAUNIT
 70
     0
  9
$DIMADEC
 70
     2
  9
$DIMALTRND
 40
0.0
  9
$DIMAZIN
 70
     2
  9
$DIMDSEP
 70
    46
  9
$DIMATFIT
 70
     3
  9
$DIMFRAC
 70
     0
  9
$DIMLDRBLK
  1

  9
$DIMLUNIT
 70
     2
  9
$DIMLWD
 70
    -2
  9
$DIMLWE
 70
    -2
  9
$DIMTMOVE
 70
     0
  9
$LUNITS
 70
     2
  9
$LUPREC
 70
     2
  9
$SKETCHINC
 40
1.0
  9
$FILLETRAD
 40
0.0
  9
$AUNITS
 70
     0
  9
$AUPREC
 70
     0
  9
$MENU
  1
ACAD
  9
$ELEVATION
 40
0.0
  9
$PELEVATION
 40
0.0
  9
$THICKNESS
 40
0.0
  9
$LIMCHECK
 70
     0
  9
$CHAMFERA
 40
0.0
  9
$CHAMFERB
 40
0.0
  9
$CHAMFERC
 40
0.0
  9
$CHAMFERD
 40
0.0
  9
$SKPOLY
 70
     0
  9
$TDCREATE
 40
2455397.823042361
  9
$TDUCREATE
 40
2455397.781375695
  9
$TDUPDATE
 40
2455996.362359445
  9
$TDUUPDATE
 40
2455996.320692778
  9
$TDINDWG
 40
0.0699188542
  9
$TDUSRTIMER
 40
0.0699188542
  9
$USRTIMER
 70
     1
  9
$ANGBASE
 50
0.0
  9
$ANGDIR
 70
     0
  9
$PDMODE
 70
     0
  9
$PDSIZE
 40
0.0
  9
$PLINEWID
 40
0.0
  9
$SPLFRAME
 70
     0
  9
$SPLINETYPE
 70
     6
  9
$SPLINESEGS
 70
     8
  9
$HANDSEED
  5
1077
  9
$SURFTAB1
 70
     6
  9
$SURFTAB2
 70
     6
  9
$SURFTYPE
 70
     6
  9
$SURFU
 70
     6
  9
$SURFV
 70
     6
  9
$UCSBASE
  2

  9
$UCSNAME
  2

  9
$UCSORG
 10
0.0
 20
0.0
 30
0.0
  9
$UCSXDIR
 10
1.0
 20
0.0
 30
0.0
  9
$UCSYDIR
 10
0.0
 20
1.0
 30
0.0
  9
$UCSORTHOREF
  2

  9
$UCSORTHOVIEW
 70
     0
  9
$UCSORGTOP
 10
0.0
 20
0.0
 30
0.0
  9
$UCSORGBOTTOM
 10
0.0
 20
0.0
 30
0.0
  9
$UCSORGLEFT
 10
0.0
 20
0.0
 30
0.0
  9
$UCSORGRIGHT
 10
0.0
 20
0.0
 30
0.0
  9
$UCSORGFRONT
 10
0.0
 20
0.0
 30
0.0
  9
$UCSORGBACK
 10
0.0
 20
0.0
 30
0.0
  9
$PUCSBASE
  2

  9
$PUCSNAME
  2

  9
$PUCSORG
 10
0.0
 20
0.0
 30
0.0
  9
$PUCSXDIR
 10
1.0
 20
0.0
 30
0.0
  9
$PUCSYDIR
 10
0.0
 20
1.0
 30
0.0
  9
$PUCSORTHOREF
  2

  9
$PUCSORTHOVIEW
 70
     0
  9
$PUCSORGTOP
 10
0.0
 20
0.0
 30
0.0
  9
$PUCSORGBOTTOM
 10
0.0
 20
0.0
 30
0.0
  9
$PUCSORGLEFT
 10
0.0
 20
0.0
 30
0.0
  9
$PUCSORGRIGHT
 10
0.0
 20
0.0
 30
0.0
  9
$PUCSORGFRONT
 10
0.0
 20
0.0
 30
0.0
  9
$PUCSORGBACK
 10
0.0
 20
0.0
 30
0.0
  9
$USERI1
 70
     0
  9
$USERI2
 70
     0
  9
$USERI3
 70
     0
  9
$USERI4
 70
     0
  9
$USERI5
 70
     0
  9
$USERR1
 40
0.0
  9
$USERR2
 40
0.0
  9
$USERR3
 40
0.0
  9
$USERR4
 40
0.0
  9
$USERR5
 40
0.0
  9
$WORLDVIEW
 70
     1
  9
$SHADEDGE
 70
     3
  9
$SHADEDIF
 70
    70
  9
$TILEMODE
 70
     1
  9
$MAXACTVP
 70
    16
  9
$PINSBASE
 10
0.0
 20
0.0
 30
0.0
  9
$PLIMCHECK
 70
     0
  9
$PEXTMIN
 10
1.000000000000000E+20
 20
1.000000000000000E+20
 30
1.000000000000000E+20
  9
$PEXTMAX
 10
-1.000000000000000E+20
 20
-1.000000000000000E+20
 30
-1.000000000000000E+20
  9
$PLIMMIN
 10
0.0
 20
0.0
  9
$PLIMMAX
 10
12.0
 20
9.0
  9
$UNITMODE
 70
     0
  9
$VISRETAIN
 70
     0
  9
$PLINEGEN
 70
     0
  9
$PSLTSCALE
 70
     0
  9
$TREEDEPTH
 70
  3020
  9
$CMLSTYLE
  2
Standard
  9
$CMLJUST
 70
     0
  9
$CMLSCALE
 40
1.0
  9
$PROXYGRAPHICS
 70
     1
  9
$MEASUREMENT
 70
     0
  9
$CELWEIGHT
370
    -1
  9
$ENDCAPS
280
     0
  9
$JOINSTYLE
280
     0
  9
$LWDISPLAY
290
     0
  9
$INSUNITS
 70
     0
  9
$HYPERLINKBASE
  1

  9
$STYLESHEET
  1
monochrome1.ctb
  9
$XEDIT
290
     1
  9
$CEPSNTYPE
380
     0
  9
$PSTYLEMODE
290
     1
  9
$FINGERPRINTGUID
  2
{D68B0D02-A558-11D7-B632-000102183313}
  9
$VERSIONGUID
  2
{68D65511-D29C-4D38-830E-CBA24F51FD5B}
  9
$EXTNAMES
290
     1
  9
$PSVPSCALE
 40
0.0
  9
$OLESTARTUP
290
     0
  9
$SORTENTS
280
   127
  9
$INDEXCTL
280
     0
  9
$HIDETEXT
280
     0
  9
$XCLIPFRAME
290
     0
  9
$HALOGAP
280
     0
  9
$OBSCOLOR
 70
   257
  9
$OBSLTYPE
280
     0
  9
$INTERSECTIONDISPLAY
280
     0
  9
$INTERSECTIONCOLOR
 70
   257
  9
$DIMASSOC
280
     1
  9
$PROJECTNAME
  1

  0
ENDSEC
  0
SECTION
  2
CLASSES
  0
CLASS
  1
ACDBDICTIONARYWDFLT
  2
AcDbDictionaryWithDefault
  3
ObjectDBX Classes
 90
        0
 91
        1
280
     0
281
     0
  0
CLASS
  1
DICTIONARYVAR
  2
AcDbDictionaryVar
  3
ObjectDBX Classes
 90
        0
 91
        2
280
     0
281
     0
  0
ENDSEC
  0
SECTION
  2
TABLES
  0
TABLE
  2
VPORT
  5
8
330
0
100
AcDbSymbolTable
 70
     2
  0
VPORT
  5
1076
330
8
100
AcDbSymbolTableRecord
100
AcDbViewportTableRecord
  2
*Active
 70
     0
 10
0.0
 20
0.0
 11
1.0
 21
1.0
 12
296.9999999999999
 22
420.0000000000001
 13
0.0
 23
0.0
 14
1.0
 24
1.0
 15
10.0
 25
10.0
 16
0.0
 26
0.0
 36
1.0
 17
0.0
 27
0.0
 37
0.0
 40
840.1604542534643
 41
1.374331550802138
 42
50.0
 43
0.0
 44
0.0
 50
0.0
 51
0.0
 71
     0
 72
  1500
 73
     1
 74
     0
 75
     0
 76
     0
 77
     0
 78
     0
281
     0
 65
     1
110
0.0
120
0.0
130
0.0
111
1.0
121
0.0
131
0.0
112
0.0
122
1.0
132
0.0
 79
     0
146
0.0
  0
ENDTAB
  0
TABLE
  2
LTYPE
  5
5
330
0
100
AcDbSymbolTable
 70
     2
  0
LTYPE
  5
13
330
5
100
AcDbSymbolTableRecord
100
AcDbLinetypeTableRecord
  2
ByBlock
 70
     0
  3

 72
    65
 73
     0
 40
0.0
  0
LTYPE
  5
14
330
5
100
AcDbSymbolTableRecord
100
AcDbLinetypeTableRecord
  2
ByLayer
 70
     0
  3

 72
    65
 73
     0
 40
0.0
  0
LTYPE
  5
15
330
5
100
AcDbSymbolTableRecord
100
AcDbLinetypeTableRecord
  2
Continuous
 70
     0
  3
Solid line
 72
    65
 73
     0
 40
0.0
  0
LTYPE
  5
25
330
5
100
AcDbSymbolTableRecord
100
AcDbLinetypeTableRecord
  2
STRICHPUNKT
 70
     0
  3
__ . __ . __ . __ . __ . __ . __ . __ . __ . __
 72
    65
 73
     4
 40
1.0
 49
0.5
 74
     0
 49
-0.25
 74
     0
 49
0.0
 74
     0
 49
-0.25
 74
     0
  0
ENDTAB
  0
TABLE
  2
LAYER
  5
2
330
0
100
AcDbSymbolTable
 70
     9
  0
LAYER
  5
10
330
2
100
AcDbSymbolTableRecord
100
AcDbLayerTableRecord
  2
0
 70
     0
 62
     7
  6
Continuous
370
    -3
390
F
  0
LAYER
  5
2A
330
2
100
AcDbSymbolTableRecord
100
AcDbLayerTableRecord
  2
VOLL
 70
     0
 62
     1
  6
Continuous
370
    -3
390
F
  0
LAYER
  5
2B
330
2
100
AcDbSymbolTableRecord
100
AcDbLayerTableRecord
  2
HILF
 70
     0
 62
     2
  6
Continuous
370
    -3
390
F
  0
LAYER
  5
2C
330
2
100
AcDbSymbolTableRecord
100
AcDbLayerTableRecord
  2
MITTEL
 70
     0
 62
     2
  6
STRICHPUNKT
370
    -3
390
F
  0
LAYER
  5
2F
330
2
100
AcDbSymbolTableRecord
100
AcDbLayerTableRecord
  2
BEM
 70
     0
 62
     7
  6
Continuous
370
    -3
390
F
  0
LAYER
  5
30
330
2
100
AcDbSymbolTableRecord
100
AcDbLayerTableRecord
  2
STEMPEL
 70
     0
 62
     3
  6
Continuous
370
    -3
390
F
  0
LAYER
  5
31
330
2
100
AcDbSymbolTableRecord
100
AcDbLayerTableRecord
  2
TEXT
 70
     0
 62
     7
  6
Continuous
370
    -3
390
F
  0
LAYER
  5
2B4
330
2
100
AcDbSymbolTableRecord
100
AcDbLayerTableRecord
  2
DEFPOINTS
 70
     0
 62
     7
  6
Continuous
290
     0
370
    -3
390
F
  0
LAYER
  5
2B5
330
2
100
AcDbSymbolTableRecord
100
AcDbLayerTableRecord
  2
SCHRAFF
 70
     0
 62
     7
  6
Continuous
370
    -3
390
F
  0
ENDTAB
  0
TABLE
  2
STYLE
  5
3
330
0
100
AcDbSymbolTable
 70
     2
  0
STYLE
  5
11
330
3
100
AcDbSymbolTableRecord
100
AcDbTextStyleTableRecord
  2
STANDARD
 70
     0
 40
0.0
 41
0.8
 50
0.0
 71
     0
 42
3.5
  3
simplex.shx
  4

  0
STYLE
  5
24
330
3
100
AcDbSymbolTableRecord
100
AcDbTextStyleTableRecord
  2
GREEKS
 70
     0
 40
0.0
 41
0.8
 50
0.0
 71
     0
 42
2.5
  3
SIMPLEX.shx
  4

  0
ENDTAB
  0
TABLE
  2
VIEW
  5
6
330
0
100
AcDbSymbolTable
 70
     0
  0
ENDTAB
  0
TABLE
  2
UCS
  5
7
330
0
100
AcDbSymbolTable
 70
     0
  0
ENDTAB
  0
TABLE
  2
APPID
  5
9
330
0
100
AcDbSymbolTable
 70
     1
  0
APPID
  5
12
330
9
100
AcDbSymbolTableRecord
100
AcDbRegAppTableRecord
  2
ACAD
 70
     0
  0
ENDTAB
  0
TABLE
  2
DIMSTYLE
  5
A
330
0
100
AcDbSymbolTable
 70
     1
100
AcDbDimStyleTable
 71
     1
340
9D
  0
DIMSTYLE
105
9D
102
{ACAD_REACTORS
330
E0B
330
E05
330
DC6
330
D79
330
CEA
102
}
330
A
100
AcDbSymbolTableRecord
100
AcDbDimStyleTableRecord
  2
Standard
 70
     0
340
11
  0
ENDTAB
  0
TABLE
  2
BLOCK_RECORD
  5
1
330
0
100
AcDbSymbolTable
 70
    18
  0
BLOCK_RECORD
  5
1E
102
{ACAD_XDICTIONARY
360
A0
102
}
330
1
100
AcDbSymbolTableRecord
100
AcDbBlockTableRecord
  2
*Model_Space
340
21
  0
BLOCK_RECORD
  5
1A
102
{ACAD_XDICTIONARY
360
A2
102
}
330
1
100
AcDbSymbolTableRecord
100
AcDbBlockTableRecord
  2
*Paper_Space
340
1D
  0
BLOCK_RECORD
  5
22
330
1
100
AcDbSymbolTableRecord
100
AcDbBlockTableRecord
  2
LOGO
340
0
102
{BLKREFS
331
898
102
}
  0
BLOCK_RECORD
  5
8BD
330
1
100
AcDbSymbolTableRecord
100
AcDbBlockTableRecord
  2
*X1
340
0
102
{BLKREFS
331
D00
102
}
  0
BLOCK_RECORD
  5
8D2
330
1
100
AcDbSymbolTableRecord
100
AcDbBlockTableRecord
  2
*X2
340
0
102
{BLKREFS
331
D03
102
}
  0
BLOCK_RECORD
  5
8F9
330
1
100
AcDbSymbolTableRecord
100
AcDbBlockTableRecord
  2
*X3
340
0
102
{BLKREFS
331
CD2
102
}
  0
BLOCK_RECORD
  5
919
330
1
100
AcDbSymbolTableRecord
100
AcDbBlockTableRecord
  2
*X4
340
0
102
{BLKREFS
331
D50
102
}
  0
BLOCK_RECORD
  5
9C4
330
1
100
AcDbSymbolTableRecord
100
AcDbBlockTableRecord
  2
*X5
340
0
102
{BLKREFS
331
E04
102
}
  0
BLOCK_RECORD
  5
9ED
330
1
100
AcDbSymbolTableRecord
100
AcDbBlockTableRecord
  2
*X6
340
0
102
{BLKREFS
331
DAF
102
}
  0
BLOCK_RECORD
  5
A52
330
1
100
AcDbSymbolTableRecord
100
AcDbBlockTableRecord
  2
*X7
340
0
102
{BLKREFS
331
DB0
102
}
  0
BLOCK_RECORD
  5
A6E
330
1
100
AcDbSymbolTableRecord
100
AcDbBlockTableRecord
  2
*X8
340
0
102
{BLKREFS
331
D94
102
}
  0
BLOCK_RECORD
  5
AD3
330
1
100
AcDbSymbolTableRecord
100
AcDbBlockTableRecord
  2
*X9
340
0
102
{BLKREFS
331
D7A
102
}
  0
BLOCK_RECORD
  5
B00
330
1
100
AcDbSymbolTableRecord
100
AcDbBlockTableRecord
  2
*X10
340
0
102
{BLKREFS
331
D7B
102
}
  0
BLOCK_RECORD
  5
B22
330
1
100
AcDbSymbolTableRecord
100
AcDbBlockTableRecord
  2
*X11
340
0
102
{BLKREFS
331
DB1
102
}
  0
BLOCK_RECORD
  5
B34
330
1
100
AcDbSymbolTableRecord
100
AcDbBlockTableRecord
  2
*X12
340
0
102
{BLKREFS
331
DB2
102
}
  0
BLOCK_RECORD
  5
E0C
330
1
100
AcDbSymbolTableRecord
100
AcDbBlockTableRecord
  2
*D13
340
0
  0
BLOCK_RECORD
  5
E19
330
1
100
AcDbSymbolTableRecord
100
AcDbBlockTableRecord
  2
*D14
340
0
  0
BLOCK_RECORD
  5
E26
330
1
100
AcDbSymbolTableRecord
100
AcDbBlockTableRecord
  2
*D15
340
0
  0
BLOCK_RECORD
  5
E33
330
1
100
AcDbSymbolTableRecord
100
AcDbBlockTableRecord
  2
*D16
340
0
  0
BLOCK_RECORD
  5
E40
330
1
100
AcDbSymbolTableRecord
100
AcDbBlockTableRecord
  2
*D17
340
0
  0
ENDTAB
  0
ENDSEC
  0
SECTION
  2
BLOCKS
  0
BLOCK
  5
35
330
1E
100
AcDbEntity
  8
0
100
AcDbBlockBegin
  2
*Model_Space
 70
     0
 10
0.0
 20
0.0
 30
0.0
  3
*Model_Space
  1

  0
ENDBLK
  5
36
330
1E
100
AcDbEntity
  8
0
100
AcDbBlockEnd
  0
BLOCK
  5
33
330
1A
100
AcDbEntity
 67
     1
  8
0
100
AcDbBlockBegin
  2
*Paper_Space
 70
     0
 10
0.0
 20
0.0
 30
0.0
  3
*Paper_Space
  1

  0
ENDBLK
  5
34
330
1A
100
AcDbEntity
 67
     1
  8
0
100
AcDbBlockEnd
  0
BLOCK
  5
37
330
22
100
AcDbEntity
  8
0
100
AcDbBlockBegin
  2
LOGO
 70
     0
 10
0.0
 20
0.0
 30
0.0
  3
LOGO
  1

  0
ARC
  5
38
330
22
100
AcDbEntity
  8
0
100
AcDbCircle
 10
11.59973089678112
 20
-9.271599258481501
 30
0.0
 40
4.5
100
AcDbArc
 50
270.0
 51
231.0575587310159
  0
LINE
  5
39
330
22
100
AcDbEntity
  8
0
100
AcDbLine
 10
3.599730896781125
 20
-4.771599258481529
 30
0.0
 11
3.599730896781153
 21
-11.77159925848133
 31
0.0
  0
LINE
  5
3A
330
22
100
AcDbEntity
  8
0
100
AcDbLine
 10
2.599730896781125
 20
-4.771599258481529
 30
0.0
 11
2.599730896781153
 21
-11.77159925848133
 31
0.0
  0
CIRCLE
  5
3B
330
22
100
AcDbEntity
  8
0
100
AcDbCircle
 10
11.59973089678112
 20
-9.271599258481501
 30
0.0
 40
3.5
  0
ARC
  5
3C
330
22
100
AcDbEntity
  8
0
100
AcDbCircle
 10
31.59973089678115
 20
-9.271599258481472
 30
0.0
 40
4.5
100
AcDbArc
 50
270.0
 51
231.0575587310182
  0
LINE
  5
3D
330
22
100
AcDbEntity
  8
0
100
AcDbLine
 10
17.59973089678112
 20
-4.771599258481472
 30
0.0
 11
17.59973089678115
 21
-13.77159925848147
 31
0.0
  0
ARC
  5
3E
330
22
100
AcDbEntity
  8
0
100
AcDbCircle
 10
22.59973089678116
 20
-7.271599258481472
 30
0.0
 40
2.5
100
AcDbArc
 50
293.1161887722295
 51
90.0
  0
CIRCLE
  5
3F
330
22
100
AcDbEntity
  8
0
100
AcDbCircle
 10
31.59973089678115
 20
-9.271599258481472
 30
0.0
 40
3.5
  0
ARC
  5
40
330
22
100
AcDbEntity
  8
0
100
AcDbCircle
 10
4.599730896781153
 20
-11.77159925848133
 30
0.0
 40
1.0
100
AcDbArc
 50
180.0
 51
270.0
  0
ARC
  5
41
330
22
100
AcDbEntity
  8
0
100
AcDbCircle
 10
4.599730896781153
 20
-11.77159925848133
 30
0.0
 40
2.0
100
AcDbArc
 50
179.9999999999992
 51
270.0
  0
LINE
  5
42
330
22
100
AcDbEntity
  8
0
100
AcDbLine
 10
11.59973089678115
 20
-13.77159925848144
 30
0.0
 11
4.599730896781153
 21
-13.77159925848147
 31
0.0
  0
LINE
  5
43
330
22
100
AcDbEntity
  8
0
100
AcDbLine
 10
8.771303772034769
 20
-12.77159925848136
 30
0.0
 11
4.599730896781153
 21
-12.77159925848133
 31
0.0
  0
LINE
  5
44
330
22
100
AcDbEntity
  8
0
100
AcDbLine
 10
31.59973089678115
 20
-13.77159925848147
 30
0.0
 11
23.6715276665056
 21
-13.77159925848144
 31
0.0
  0
LINE
  5
45
330
22
100
AcDbEntity
  8
0
100
AcDbLine
 10
23.56565672307022
 20
-9.51278021337896
 30
0.0
 11
24.4388546544846
 21
-12.77159925848144
 31
0.0
  0
LINE
  5
46
330
22
100
AcDbEntity
  8
0
100
AcDbLine
 10
22.59973089678116
 20
-9.771599258481472
 30
0.0
 11
18.59973089678112
 21
-9.771599258481472
 31
0.0
  0
LINE
  5
47
330
22
100
AcDbEntity
  8
0
100
AcDbLine
 10
18.59973089678115
 20
-13.77159925848144
 30
0.0
 11
17.59973089678115
 21
-13.77159925848144
 31
0.0
  0
LINE
  5
48
330
22
100
AcDbEntity
  8
0
100
AcDbLine
 10
18.59973089678115
 20
-9.771599258481472
 30
0.0
 11
18.59973089678115
 21
-13.77159925848144
 31
0.0
  0
LINE
  5
49
330
22
100
AcDbEntity
  8
0
100
AcDbLine
 10
22.59973089678116
 20
-9.771599258481472
 30
0.0
 11
23.67152766650562
 21
-13.77159925848147
 31
0.0
  0
ARC
  5
4A
330
22
100
AcDbEntity
  8
0
100
AcDbCircle
 10
22.59973089678116
 20
-7.271599258481472
 30
0.0
 40
2.5
100
AcDbArc
 50
270.0
 51
270.0000000000007
  0
LINE
  5
4B
330
22
100
AcDbEntity
  8
0
100
AcDbLine
 10
28.77130377203494
 20
-12.77159925848147
 30
0.0
 11
24.43885465448463
 21
-12.77159925848144
 31
0.0
  0
LINE
  5
4C
330
22
100
AcDbEntity
  8
0
100
AcDbLine
 10
3.599730896781125
 20
-4.771599258481472
 30
0.0
 11
2.599730896781125
 21
-4.771599258481472
 31
0.0
  0
LINE
  5
4D
330
22
100
AcDbEntity
  8
0
100
AcDbLine
 10
22.59973089678116
 20
-8.771599258481472
 30
0.0
 11
18.59973089678115
 21
-8.771599258481472
 31
0.0
  0
LINE
  5
4E
330
22
100
AcDbEntity
  8
0
100
AcDbLine
 10
22.59973089678116
 20
-5.771599258481472
 30
0.0
 11
18.59973089678115
 21
-5.771599258481472
 31
0.0
  0
LINE
  5
4F
330
22
100
AcDbEntity
  8
0
100
AcDbLine
 10
22.59973089678116
 20
-4.771599258481472
 30
0.0
 11
17.59973089678115
 21
-4.771599258481472
 31
0.0
  0
LINE
  5
50
330
22
100
AcDbEntity
  8
0
100
AcDbLine
 10
18.59973089678115
 20
-5.771599258481472
 30
0.0
 11
18.59973089678115
 21
-8.771599258481472
 31
0.0
  0
ARC
  5
51
330
22
100
AcDbEntity
  8
0
100
AcDbCircle
 10
22.59973089678116
 20
-7.271599258481472
 30
0.0
 40
1.5
100
AcDbArc
 50
270.0
 51
90.0
  0
ENDBLK
  5
52
330
22
100
AcDbEntity
  8
0
100
AcDbBlockEnd
  0
BLOCK
  5
8BE
330
8BD
100
AcDbEntity
  8
0
100
AcDbBlockBegin
  2
*X1
 70
     1
 10
0.0
 20
0.0
 30
0.0
  3
*X1
  1

  0
LINE
  5
8BF
330
8BD
100
AcDbEntity
  8
0
 62
     0
100
AcDbLine
 10
185.0
 20
393.1
 30
0.0
 11
186.3092944051313
 21
393.1
 31
0.0
  0
LINE
  5
8C0
330
8BD
100
AcDbEntity
  8
0
 62
     0
100
AcDbLine
 10
185.0
 20
393.2
 30
0.0
 11
186.384705712159
 21
393.2
 31
0.0
  0
LINE
  5
8C1
330
8BD
100
AcDbEntity
  8
0
 62
     0
100
AcDbLine
 10
185.0
 20
393.3
 30
0.0
 11
186.4521212303382
 21
393.3
 31
0.0
  0
LINE
  5
8C2
330
8BD
100
AcDbEntity
  8
0
 62
     0
100
AcDbLine
 10
185.0
 20
393.4000000000001
 30
0.0
 11
186.5123424217142
 21
393.4000000000001
 31
0.0
  0
LINE
  5
8C3
330
8BD
100
AcDbEntity
  8
0
 62
     0
100
AcDbLine
 10
185.0
 20
393.5
 30
0.0
 11
186.5659967452162
 21
393.5
 31
0.0
  0
LINE
  5
8C4
330
8BD
100
AcDbEntity
  8
0
 62
     0
100
AcDbLine
 10
185.0
 20
393.6
 30
0.0
 11
186.6135830068877
 21
393.6
 31
0.0
  0
LINE
  5
8C5
330
8BD
100
AcDbEntity
  8
0
 62
     0
100
AcDbLine
 10
185.0
 20
393.7000000000001
 30
0.0
 11
186.655502058055
 21
393.7000000000001
 31
0.0
  0
LINE
  5
8C6
330
8BD
100
AcDbEntity
  8
0
 62
     0
100
AcDbLine
 10
185.0
 20
393.8
 30
0.0
 11
186.6920781905767
 21
393.8
 31
0.0
  0
LINE
  5
8C7
330
8BD
100
AcDbEntity
  8
0
 62
     0
100
AcDbLine
 10
185.0
 20
393.9
 30
0.0
 11
186.7235743983727
 21
393.9
 31
0.0
  0
LINE
  5
8C8
330
8BD
100
AcDbEntity
  8
0
 62
     0
100
AcDbLine
 10
185.0
 20
394.0
 30
0.0
 11
186.7502034575977
 21
394.0
 31
0.0
  0
LINE
  5
8C9
330
8BD
100
AcDbEntity
  8
0
 62
     0
100
AcDbLine
 10
185.0
 20
393.0
 30
0.0
 11
186.2248423780445
 21
393.0
 31
0.0
  0
LINE
  5
8CA
330
8BD
100
AcDbEntity
  8
0
 62
     0
100
AcDbLine
 10
185.0
 20
392.9
 30
0.0
 11
186.1299499173385
 21
392.9
 31
0.0
  0
LINE
  5
8CB
330
8BD
100
AcDbEntity
  8
0
 62
     0
100
AcDbLine
 10
185.0
 20
392.8
 30
0.0
 11
186.0226736974946
 21
392.8
 31
0.0
  0
LINE
  5
8CC
330
8BD
100
AcDbEntity
  8
0
 62
     0
100
AcDbLine
 10
185.0
 20
392.7000000000001
 30
0.0
 11
185.9001818762345
 21
392.7000000000001
 31
0.0
  0
LINE
  5
8CD
330
8BD
100
AcDbEntity
  8
0
 62
     0
100
AcDbLine
 10
185.0
 20
392.6
 30
0.0
 11
185.7580580298832
 21
392.6
 31
0.0
  0
LINE
  5
8CE
330
8BD
100
AcDbEntity
  8
0
 62
     0
100
AcDbLine
 10
185.0
 20
392.5
 30
0.0
 11
185.5886805451021
 21
392.5
 31
0.0
  0
LINE
  5
8CF
330
8BD
100
AcDbEntity
  8
0
 62
     0
100
AcDbLine
 10
185.0
 20
392.4
 30
0.0
 11
185.3764900821786
 21
392.4
 31
0.0
  0
LINE
  5
8D0
330
8BD
100
AcDbEntity
  8
0
 62
     0
100
AcDbLine
 10
185.0
 20
392.3
 30
0.0
 11
185.0764189883935
 21
392.3
 31
0.0
  0
ENDBLK
  5
8D1
330
8BD
100
AcDbEntity
  8
0
100
AcDbBlockEnd
  0
BLOCK
  5
8D3
330
8D2
100
AcDbEntity
  8
0
100
AcDbBlockBegin
  2
*X2
 70
     1
 10
0.0
 20
0.0
 30
0.0
  3
*X2
  1

  0
LINE
  5
8D4
330
8D2
100
AcDbEntity
  8
0
 62
     0
100
AcDbLine
 10
345.2758150318406
 20
355.8824167496388
 30
0.0
 11
354.5495326962139
 21
365.1561344140122
 31
0.0
  0
LINE
  5
8D5
330
8D2
100
AcDbEntity
  8
0
 62
     0
100
AcDbLine
 10
345.2758150318406
 20
357.6501837026052
 30
0.0
 11
355.014734525942
 21
367.3891031967065
 31
0.0
  0
LINE
  5
8D6
330
8D2
100
AcDbEntity
  8
0
 62
     0
100
AcDbLine
 10
345.2758150318406
 20
359.4179506555716
 30
0.0
 11
355.47993635567
 21
369.6220719794009
 31
0.0
  0
LINE
  5
8D7
330
8D2
100
AcDbEntity
  8
0
 62
     0
100
AcDbLine
 10
345.2758150318406
 20
361.185717608538
 30
0.0
 11
355.9451381853979
 21
371.8550407620953
 31
0.0
  0
LINE
  5
8D8
330
8D2
100
AcDbEntity
  8
0
 62
     0
100
AcDbLine
 10
345.2758150318406
 20
362.9534845615043
 30
0.0
 11
355.7646200953566
 21
373.4422896250202
 31
0.0
  0
LINE
  5
8D9
330
8D2
100
AcDbEntity
  8
0
 62
     0
100
AcDbLine
 10
345.2758150318406
 20
364.7212515144707
 30
0.0
 11
353.9968531423902
 21
373.4422896250202
 31
0.0
  0
LINE
  5
8DA
330
8D2
100
AcDbEntity
  8
0
 62
     0
100
AcDbLine
 10
345.2758150318406
 20
366.4890184674371
 30
0.0
 11
352.2290861894238
 21
373.4422896250202
 31
0.0
  0
LINE
  5
8DB
330
8D2
100
AcDbEntity
  8
0
 62
     0
100
AcDbLine
 10
345.2758150318406
 20
368.2567854204034
 30
0.0
 11
350.4613192364574
 21
373.4422896250202
 31
0.0
  0
LINE
  5
8DC
330
8D2
100
AcDbEntity
  8
0
 62
     0
100
AcDbLine
 10
345.2758150318406
 20
370.0245523733698
 30
0.0
 11
348.693552283491
 21
373.4422896250202
 31
0.0
  0
LINE
  5
8DD
330
8D2
100
AcDbEntity
  8
0
 62
     0
100
AcDbLine
 10
345.2758150318406
 20
354.1146497966725
 30
0.0
 11
354.084330866486
 21
362.9231656313178
 31
0.0
  0
LINE
  5
8DE
330
8D2
100
AcDbEntity
  8
0
 62
     0
100
AcDbLine
 10
345.2758150318406
 20
352.3468828437061
 30
0.0
 11
353.6191290367579
 21
360.6901968486234
 31
0.0
  0
LINE
  5
8DF
330
8D2
100
AcDbEntity
  8
0
 62
     0
100
AcDbLine
 10
345.2758150318406
 20
350.5791158907397
 30
0.0
 11
353.15392720703
 21
358.4572280659291
 31
0.0
  0
LINE
  5
8E0
330
8D2
100
AcDbEntity
  8
0
 62
     0
100
AcDbLine
 10
345.9067557190875
 20
349.4422896250203
 30
0.0
 11
352.688725377302
 21
356.2242592832348
 31
0.0
  0
LINE
  5
8E1
330
8D2
100
AcDbEntity
  8
0
 62
     0
100
AcDbLine
 10
347.6745226720538
 20
349.4422896250203
 30
0.0
 11
352.223523547574
 21
353.9912905005404
 31
0.0
  0
LINE
  5
8E2
330
8D2
100
AcDbEntity
  8
0
 62
     0
100
AcDbLine
 10
349.4422896250203
 20
349.4422896250203
 30
0.0
 11
351.758321717846
 21
351.758321717846
 31
0.0
  0
LINE
  5
8E3
330
8D2
100
AcDbEntity
  8
0
 62
     0
100
AcDbLine
 10
351.2100565779866
 20
349.4422896250203
 30
0.0
 11
351.293119888118
 21
349.5253529351517
 31
0.0
  0
LINE
  5
8E4
330
8D2
100
AcDbEntity
  8
0
 62
     0
100
AcDbLine
 10
352.9868857966026
 20
357.6554292958776
 30
0.0
 11
345.2758150318406
 21
365.3665000606395
 31
0.0
  0
LINE
  5
8E5
330
8D2
100
AcDbEntity
  8
0
 62
     0
100
AcDbLine
 10
352.6820983909187
 20
356.1924497485951
 30
0.0
 11
345.2758150318406
 21
363.5987331076731
 31
0.0
  0
LINE
  5
8E6
330
8D2
100
AcDbEntity
  8
0
 62
     0
100
AcDbLine
 10
352.3773109852348
 20
354.7294702013126
 30
0.0
 11
345.2758150318406
 21
361.8309661547068
 31
0.0
  0
LINE
  5
8E7
330
8D2
100
AcDbEntity
  8
0
 62
     0
100
AcDbLine
 10
352.072523579551
 20
353.2664906540301
 30
0.0
 11
345.2758150318406
 21
360.0631992017404
 31
0.0
  0
LINE
  5
8E8
330
8D2
100
AcDbEntity
  8
0
 62
     0
100
AcDbLine
 10
351.7677361738671
 20
351.8035111067475
 30
0.0
 11
345.2758150318406
 21
358.295432248774
 31
0.0
  0
LINE
  5
8E9
330
8D2
100
AcDbEntity
  8
0
 62
     0
100
AcDbLine
 10
351.4629487681833
 20
350.340531559465
 30
0.0
 11
345.2758150318406
 21
356.5276652958076
 31
0.0
  0
LINE
  5
8EA
330
8D2
100
AcDbEntity
  8
0
 62
     0
100
AcDbLine
 10
350.5934237496617
 20
349.4422896250203
 30
0.0
 11
345.2758150318406
 21
354.7598983428413
 31
0.0
  0
LINE
  5
8EB
330
8D2
100
AcDbEntity
  8
0
 62
     0
100
AcDbLine
 10
348.8256567966953
 20
349.4422896250203
 30
0.0
 11
345.2758150318406
 21
352.9921313898749
 31
0.0
  0
LINE
  5
8EC
330
8D2
100
AcDbEntity
  8
0
 62
     0
100
AcDbLine
 10
347.057889843729
 20
349.4422896250203
 30
0.0
 11
345.2758150318406
 21
351.2243644369086
 31
0.0
  0
LINE
  5
8ED
330
8D2
100
AcDbEntity
  8
0
 62
     0
100
AcDbLine
 10
345.2901228907626
 20
349.4422896250203
 30
0.0
 11
345.2758150318406
 21
349.4565974839422
 31
0.0
  0
LINE
  5
8EE
330
8D2
100
AcDbEntity
  8
0
 62
     0
100
AcDbLine
 10
353.2916732022864
 20
359.1184088431601
 30
0.0
 11
345.2758150318406
 21
367.1342670136059
 31
0.0
  0
LINE
  5
8EF
330
8D2
100
AcDbEntity
  8
0
 62
     0
100
AcDbLine
 10
353.5964606079703
 20
360.5813883904426
 30
0.0
 11
345.2758150318406
 21
368.9020339665723
 31
0.0
  0
LINE
  5
8F0
330
8D2
100
AcDbEntity
  8
0
 62
     0
100
AcDbLine
 10
353.9012480136542
 20
362.0443679377251
 30
0.0
 11
345.2758150318406
 21
370.6698009195386
 31
0.0
  0
LINE
  5
8F1
330
8D2
100
AcDbEntity
  8
0
 62
     0
100
AcDbLine
 10
354.206035419338
 20
363.5073474850076
 30
0.0
 11
345.8477309577821
 21
371.8656519465636
 31
0.0
  0
LINE
  5
8F2
330
8D2
100
AcDbEntity
  8
0
 62
     0
100
AcDbLine
 10
354.5108228250219
 20
364.9703270322901
 30
0.0
 11
346.7580462258258
 21
372.7231036314862
 31
0.0
  0
LINE
  5
8F3
330
8D2
100
AcDbEntity
  8
0
 62
     0
100
AcDbLine
 10
354.8156102307057
 20
366.4333065795727
 30
0.0
 11
347.8066271852582
 21
373.4422896250202
 31
0.0
  0
LINE
  5
8F4
330
8D2
100
AcDbEntity
  8
0
 62
     0
100
AcDbLine
 10
355.1203976363896
 20
367.8962861268552
 30
0.0
 11
349.5743941382245
 21
373.4422896250202
 31
0.0
  0
LINE
  5
8F5
330
8D2
100
AcDbEntity
  8
0
 62
     0
100
AcDbLine
 10
355.4251850420734
 20
369.3592656741377
 30
0.0
 11
351.3421610911909
 21
373.4422896250202
 31
0.0
  0
LINE
  5
8F6
330
8D2
100
AcDbEntity
  8
0
 62
     0
100
AcDbLine
 10
355.7299724477573
 20
370.8222452214202
 30
0.0
 11
353.1099280441572
 21
373.4422896250202
 31
0.0
  0
LINE
  5
8F7
330
8D2
100
AcDbEntity
  8
0
 62
     0
100
AcDbLine
 10
356.0347598534411
 20
372.2852247687027
 30
0.0
 11
354.8776949971236
 21
373.4422896250202
 31
0.0
  0
ENDBLK
  5
8F8
330
8D2
100
AcDbEntity
  8
0
100
AcDbBlockEnd
  0
BLOCK
  5
8FA
330
8F9
100
AcDbEntity
  8
0
100
AcDbBlockBegin
  2
*X3
 70
     1
 10
0.0
 20
0.0
 30
0.0
  3
*X3
  1

  0
LINE
  5
8FB
330
8F9
100
AcDbEntity
  8
0
 62
     0
100
AcDbLine
 10
265.0707046856155
 20
355.2268192869004
 30
0.0
 11
272.2758150318406
 21
362.4319296331254
 31
0.0
  0
LINE
  5
8FC
330
8F9
100
AcDbEntity
  8
0
 62
     0
100
AcDbLine
 10
264.7659172799317
 20
356.6897988341829
 30
0.0
 11
272.2758150318406
 21
364.1996965860918
 31
0.0
  0
LINE
  5
8FD
330
8F9
100
AcDbEntity
  8
0
 62
     0
100
AcDbLine
 10
264.4611298742479
 20
358.1527783814654
 30
0.0
 11
272.2758150318406
 21
365.9674635390582
 31
0.0
  0
LINE
  5
8FE
330
8F9
100
AcDbEntity
  8
0
 62
     0
100
AcDbLine
 10
264.156342468564
 20
359.6157579287479
 30
0.0
 11
272.1253838867669
 21
367.5847993469508
 31
0.0
  0
LINE
  5
8FF
330
8F9
100
AcDbEntity
  8
0
 62
     0
100
AcDbLine
 10
263.8515550628802
 20
361.0787374760304
 30
0.0
 11
270.3504666901519
 21
367.5776491033021
 31
0.0
  0
LINE
  5
900
330
8F9
100
AcDbEntity
  8
0
 62
     0
100
AcDbLine
 10
263.5467676571963
 20
362.5417170233129
 30
0.0
 11
268.5786663837637
 21
367.5736157498803
 31
0.0
  0
LINE
  5
901
330
8F9
100
AcDbEntity
  8
0
 62
     0
100
AcDbLine
 10
263.2419802515124
 20
364.0046965705955
 30
0.0
 11
266.808303208615
 21
367.571019527698
 31
0.0
  0
LINE
  5
902
330
8F9
100
AcDbEntity
  8
0
 62
     0
100
AcDbLine
 10
262.9371928458286
 20
365.4676761178779
 30
0.0
 11
265.0393499431122
 21
367.5698332151615
 31
0.0
  0
LINE
  5
903
330
8F9
100
AcDbEntity
  8
0
 62
     0
100
AcDbLine
 10
262.6324054401447
 20
366.9306556651605
 30
0.0
 11
263.2712152339617
 21
367.5694654589774
 31
0.0
  0
LINE
  5
904
330
8F9
100
AcDbEntity
  8
0
 62
     0
100
AcDbLine
 10
265.3754920912994
 20
353.7638397396179
 30
0.0
 11
272.2758150318406
 21
360.664162680159
 31
0.0
  0
LINE
  5
905
330
8F9
100
AcDbEntity
  8
0
 62
     0
100
AcDbLine
 10
265.6802794969833
 20
352.3008601923353
 30
0.0
 11
272.2758150318406
 21
358.8963957271927
 31
0.0
  0
LINE
  5
906
330
8F9
100
AcDbEntity
  8
0
 62
     0
100
AcDbLine
 10
265.9850669026671
 20
350.8378806450529
 30
0.0
 11
272.2758150318406
 21
357.1286287742263
 31
0.0
  0
LINE
  5
907
330
8F9
100
AcDbEntity
  8
0
 62
     0
100
AcDbLine
 10
266.3572428356009
 20
349.4422896250203
 30
0.0
 11
272.2758150318406
 21
355.36086182126
 31
0.0
  0
LINE
  5
908
330
8F9
100
AcDbEntity
  8
0
 62
     0
100
AcDbLine
 10
268.1250097885672
 20
349.4422896250203
 30
0.0
 11
272.2758150318406
 21
353.5930948682936
 31
0.0
  0
LINE
  5
909
330
8F9
100
AcDbEntity
  8
0
 62
     0
100
AcDbLine
 10
269.8927767415336
 20
349.4422896250203
 30
0.0
 11
272.2758150318406
 21
351.8253279153273
 31
0.0
  0
LINE
  5
90A
330
8F9
100
AcDbEntity
  8
0
 62
     0
100
AcDbLine
 10
271.6605436945
 20
349.4422896250203
 30
0.0
 11
272.2758150318406
 21
350.0575609623609
 31
0.0
  0
LINE
  5
90B
330
8F9
100
AcDbEntity
  8
0
 62
     0
100
AcDbLine
 10
272.2758150318406
 20
353.5136863182539
 30
0.0
 11
263.6254474809896
 21
362.1640538691049
 31
0.0
  0
LINE
  5
90C
330
8F9
100
AcDbEntity
  8
0
 62
     0
100
AcDbLine
 10
272.2758150318406
 20
351.7459193652875
 30
0.0
 11
264.0906493107176
 21
359.9310850864106
 31
0.0
  0
LINE
  5
90D
330
8F9
100
AcDbEntity
  8
0
 62
     0
100
AcDbLine
 10
272.2758150318406
 20
349.9781524123211
 30
0.0
 11
264.5558511404456
 21
357.6981163037162
 31
0.0
  0
LINE
  5
90E
330
8F9
100
AcDbEntity
  8
0
 62
     0
100
AcDbLine
 10
271.0439108661752
 20
349.4422896250203
 30
0.0
 11
265.0210529701736
 21
355.4651475210218
 31
0.0
  0
LINE
  5
90F
330
8F9
100
AcDbEntity
  8
0
 62
     0
100
AcDbLine
 10
269.2761439132088
 20
349.4422896250203
 30
0.0
 11
265.4862547999016
 21
353.2321787383275
 31
0.0
  0
LINE
  5
910
330
8F9
100
AcDbEntity
  8
0
 62
     0
100
AcDbLine
 10
267.5083769602425
 20
349.4422896250203
 30
0.0
 11
265.9514566296296
 21
350.9992099556331
 31
0.0
  0
LINE
  5
911
330
8F9
100
AcDbEntity
  8
0
 62
     0
100
AcDbLine
 10
272.2758150318406
 20
355.2814532712202
 30
0.0
 11
263.1602456512616
 21
364.3970226517993
 31
0.0
  0
LINE
  5
912
330
8F9
100
AcDbEntity
  8
0
 62
     0
100
AcDbLine
 10
272.2758150318406
 20
357.0492202241866
 30
0.0
 11
262.6950438215336
 21
366.6299914344937
 31
0.0
  0
LINE
  5
913
330
8F9
100
AcDbEntity
  8
0
 62
     0
100
AcDbLine
 10
272.2758150318406
 20
358.816987177153
 30
0.0
 11
263.5232843219035
 21
367.5695178870902
 31
0.0
  0
LINE
  5
914
330
8F9
100
AcDbEntity
  8
0
 62
     0
100
AcDbLine
 10
272.2758150318406
 20
360.5847541301193
 30
0.0
 11
265.2906836716339
 21
367.5698854903262
 31
0.0
  0
LINE
  5
915
330
8F9
100
AcDbEntity
  8
0
 62
     0
100
AcDbLine
 10
272.2758150318406
 20
362.3525210830857
 30
0.0
 11
267.0569519460198
 21
367.5713841689066
 31
0.0
  0
LINE
  5
916
330
8F9
100
AcDbEntity
  8
0
 62
     0
100
AcDbLine
 10
272.2758150318406
 20
364.1202880360521
 30
0.0
 11
268.8221302803278
 21
367.5739727875649
 31
0.0
  0
LINE
  5
917
330
8F9
100
AcDbEntity
  8
0
 62
     0
100
AcDbLine
 10
272.2758150318406
 20
365.8880549890184
 30
0.0
 11
270.585274993666
 21
367.5785950271932
 31
0.0
  0
ENDBLK
  5
918
330
8F9
100
AcDbEntity
  8
0
100
AcDbBlockEnd
  0
BLOCK
  5
91A
330
919
100
AcDbEntity
  8
0
100
AcDbBlockBegin
  2
*X4
 70
     1
 10
0.0
 20
0.0
 30
0.0
  3
*X4
  1

  0
LINE
  5
91B
330
919
100
AcDbEntity
  8
0
 62
     0
100
AcDbLine
 10
271.0556667274603
 20
431.8
 30
0.0
 11
273.6015000399245
 21
431.8
 31
0.0
  0
LINE
  5
91C
330
919
100
AcDbEntity
  8
0
 62
     0
100
AcDbLine
 10
343.9501300237567
 20
431.8
 30
0.0
 11
346.4959633362231
 21
431.8
 31
0.0
  0
LINE
  5
91D
330
919
100
AcDbEntity
  8
0
 62
     0
100
AcDbLine
 10
271.0569832584374
 20
431.9
 30
0.0
 11
273.5651030164979
 21
431.9
 31
0.0
  0
LINE
  5
91E
330
919
100
AcDbEntity
  8
0
 62
     0
100
AcDbLine
 10
343.9865270471833
 20
431.9
 30
0.0
 11
346.494646805246
 21
431.9
 31
0.0
  0
LINE
  5
91F
330
919
100
AcDbEntity
  8
0
 62
     0
100
AcDbLine
 10
271.0596065244754
 20
432.0
 30
0.0
 11
273.5287059930713
 21
432.0
 31
0.0
  0
LINE
  5
920
330
919
100
AcDbEntity
  8
0
 62
     0
100
AcDbLine
 10
344.0229240706099
 20
432.0
 30
0.0
 11
346.492023539208
 21
432.0
 31
0.0
  0
LINE
  5
921
330
919
100
AcDbEntity
  8
0
 62
     0
100
AcDbLine
 10
271.0635378699591
 20
432.1
 30
0.0
 11
273.4923089696447
 21
432.1
 31
0.0
  0
LINE
  5
922
330
919
100
AcDbEntity
  8
0
 62
     0
100
AcDbLine
 10
344.0593210940366
 20
432.1
 30
0.0
 11
346.4880921937243
 21
432.1
 31
0.0
  0
LINE
  5
923
330
919
100
AcDbEntity
  8
0
 62
     0
100
AcDbLine
 10
271.0687793131002
 20
432.2
 30
0.0
 11
273.455911946218
 21
432.2
 31
0.0
  0
LINE
  5
924
330
919
100
AcDbEntity
  8
0
 62
     0
100
AcDbLine
 10
344.0957181174632
 20
432.2
 30
0.0
 11
346.4828507505832
 21
432.2
 31
0.0
  0
LINE
  5
925
330
919
100
AcDbEntity
  8
0
 62
     0
100
AcDbLine
 10
271.0753335511315
 20
432.3
 30
0.0
 11
273.4195149227915
 21
432.3
 31
0.0
  0
LINE
  5
926
330
919
100
AcDbEntity
  8
0
 62
     0
100
AcDbLine
 10
344.1321151408898
 20
432.3
 30
0.0
 11
346.4762965125519
 21
432.3
 31
0.0
  0
LINE
  5
927
330
919
100
AcDbEntity
  8
0
 62
     0
100
AcDbLine
 10
271.0832039672768
 20
432.4
 30
0.0
 11
273.3831178993648
 21
432.4
 31
0.0
  0
LINE
  5
928
330
919
100
AcDbEntity
  8
0
 62
     0
100
AcDbLine
 10
344.1685121643164
 20
432.4
 30
0.0
 11
346.4684260964067
 21
432.4
 31
0.0
  0
LINE
  5
929
330
919
100
AcDbEntity
  8
0
 62
     0
100
AcDbLine
 10
271.0923946395379
 20
432.5
 30
0.0
 11
273.3467208759382
 21
432.5
 31
0.0
  0
LINE
  5
92A
330
919
100
AcDbEntity
  8
0
 62
     0
100
AcDbLine
 10
344.204909187743
 20
432.5
 30
0.0
 11
346.4592354241455
 21
432.5
 31
0.0
  0
LINE
  5
92B
330
919
100
AcDbEntity
  8
0
 62
     0
100
AcDbLine
 10
271.1029103513539
 20
432.6
 30
0.0
 11
273.3103238525116
 21
432.6
 31
0.0
  0
LINE
  5
92C
330
919
100
AcDbEntity
  8
0
 62
     0
100
AcDbLine
 10
344.2413062111697
 20
432.6
 30
0.0
 11
346.4487197123296
 21
432.6
 31
0.0
  0
LINE
  5
92D
330
919
100
AcDbEntity
  8
0
 62
     0
100
AcDbLine
 10
271.1147566041957
 20
432.7
 30
0.0
 11
273.2739268290849
 21
432.7
 31
0.0
  0
LINE
  5
92E
330
919
100
AcDbEntity
  8
0
 62
     0
100
AcDbLine
 10
344.2777032345963
 20
432.7
 30
0.0
 11
346.4368734594877
 21
432.7
 31
0.0
  0
LINE
  5
92F
330
919
100
AcDbEntity
  8
0
 62
     0
100
AcDbLine
 10
271.1279396321771
 20
432.8
 30
0.0
 11
273.2375298056584
 21
432.8
 31
0.0
  0
LINE
  5
930
330
919
100
AcDbEntity
  8
0
 62
     0
100
AcDbLine
 10
344.3141002580229
 20
432.8
 30
0.0
 11
346.4236904315063
 21
432.8
 31
0.0
  0
LINE
  5
931
330
919
100
AcDbEntity
  8
0
 62
     0
100
AcDbLine
 10
271.1424664187723
 20
432.9
 30
0.0
 11
273.2011327822317
 21
432.9
 31
0.0
  0
LINE
  5
932
330
919
100
AcDbEntity
  8
0
 62
     0
100
AcDbLine
 10
344.3504972814495
 20
432.9
 30
0.0
 11
346.4091636449111
 21
432.9
 31
0.0
  0
LINE
  5
933
330
919
100
AcDbEntity
  8
0
 62
     0
100
AcDbLine
 10
271.1583447157468
 20
433.0
 30
0.0
 11
273.1647357588051
 21
433.0
 31
0.0
  0
LINE
  5
934
330
919
100
AcDbEntity
  8
0
 62
     0
100
AcDbLine
 10
344.3868943048761
 20
433.0
 30
0.0
 11
346.3932853479367
 21
433.0
 31
0.0
  0
LINE
  5
935
330
919
100
AcDbEntity
  8
0
 62
     0
100
AcDbLine
 10
271.1755830644251
 20
433.1
 30
0.0
 11
273.1283387353784
 21
433.1
 31
0.0
  0
LINE
  5
936
330
919
100
AcDbEntity
  8
0
 62
     0
100
AcDbLine
 10
344.4232913283027
 20
433.1
 30
0.0
 11
346.3760469992583
 21
433.1
 31
0.0
  0
LINE
  5
937
330
919
100
AcDbEntity
  8
0
 62
     0
100
AcDbLine
 10
271.1941908194337
 20
433.2
 30
0.0
 11
273.0919417119519
 21
433.2
 31
0.0
  0
LINE
  5
938
330
919
100
AcDbEntity
  8
0
 62
     0
100
AcDbLine
 10
344.4596883517294
 20
433.2
 30
0.0
 11
346.3574392442497
 21
433.2
 31
0.0
  0
LINE
  5
939
330
919
100
AcDbEntity
  8
0
 62
     0
100
AcDbLine
 10
271.2141781750796
 20
433.3
 30
0.0
 11
273.0555446885252
 21
433.3
 31
0.0
  0
LINE
  5
93A
330
919
100
AcDbEntity
  8
0
 62
     0
100
AcDbLine
 10
344.496085375156
 20
433.3
 30
0.0
 11
346.3374518886039
 21
433.3
 31
0.0
  0
LINE
  5
93B
330
919
100
AcDbEntity
  8
0
 62
     0
100
AcDbLine
 10
271.2355561945423
 20
433.4
 30
0.0
 11
273.0191476650986
 21
433.4
 31
0.0
  0
LINE
  5
93C
330
919
100
AcDbEntity
  8
0
 62
     0
100
AcDbLine
 10
344.5324823985826
 20
433.4
 30
0.0
 11
346.3160738691411
 21
433.4
 31
0.0
  0
LINE
  5
93D
330
919
100
AcDbEntity
  8
0
 62
     0
100
AcDbLine
 10
271.2583368420861
 20
433.4999999999999
 30
0.0
 11
272.9828568696651
 21
433.4999999999999
 31
0.0
  0
LINE
  5
93E
330
919
100
AcDbEntity
  8
0
 62
     0
100
AcDbLine
 10
344.5687731940149
 20
433.4999999999999
 30
0.0
 11
346.2932932215974
 21
433.4999999999999
 31
0.0
  0
LINE
  5
93F
330
919
100
AcDbEntity
  8
0
 62
     0
100
AcDbLine
 10
271.2825330185172
 20
433.6
 30
0.0
 11
272.9474194379645
 21
433.6
 31
0.0
  0
LINE
  5
940
330
919
100
AcDbEntity
  8
0
 62
     0
100
AcDbLine
 10
344.6042106257155
 20
433.6
 30
0.0
 11
346.2690970451662
 21
433.6
 31
0.0
  0
LINE
  5
941
330
919
100
AcDbEntity
  8
0
 62
     0
100
AcDbLine
 10
271.3081586001482
 20
433.7
 30
0.0
 11
272.9129725437104
 21
433.7
 31
0.0
  0
LINE
  5
942
330
919
100
AcDbEntity
  8
0
 62
     0
100
AcDbLine
 10
344.6386575199696
 20
433.7
 30
0.0
 11
346.2434714635352
 21
433.7
 31
0.0
  0
LINE
  5
943
330
919
100
AcDbEntity
  8
0
 62
     0
100
AcDbLine
 10
271.3352284815578
 20
433.8
 30
0.0
 11
272.8795072047959
 21
433.8
 31
0.0
  0
LINE
  5
944
330
919
100
AcDbEntity
  8
0
 62
     0
100
AcDbLine
 10
344.6721228588841
 20
433.8
 30
0.0
 11
346.2164015821257
 21
433.8
 31
0.0
  0
LINE
  5
945
330
919
100
AcDbEntity
  8
0
 62
     0
100
AcDbLine
 10
271.3637586224745
 20
433.9
 30
0.0
 11
272.8470147987687
 21
433.9
 31
0.0
  0
LINE
  5
946
330
919
100
AcDbEntity
  8
0
 62
     0
100
AcDbLine
 10
344.7046152649114
 20
433.9
 30
0.0
 11
346.187871441209
 21
433.9
 31
0.0
  0
LINE
  5
947
330
919
100
AcDbEntity
  8
0
 62
     0
100
AcDbLine
 10
271.3937660991533
 20
434.0
 30
0.0
 11
272.8154870502264
 21
434.0
 31
0.0
  0
LINE
  5
948
330
919
100
AcDbEntity
  8
0
 62
     0
100
AcDbLine
 10
344.7361430134536
 20
434.0
 30
0.0
 11
346.1578639645302
 21
434.0
 31
0.0
  0
LINE
  5
949
330
919
100
AcDbEntity
  8
0
 62
     0
100
AcDbLine
 10
271.4252691606598
 20
434.1
 30
0.0
 11
272.7849160189316
 21
434.1
 31
0.0
  0
LINE
  5
94A
330
919
100
AcDbEntity
  8
0
 62
     0
100
AcDbLine
 10
344.7667140447484
 20
434.1
 30
0.0
 11
346.1263609030237
 21
434.1
 31
0.0
  0
LINE
  5
94B
330
919
100
AcDbEntity
  8
0
 62
     0
100
AcDbLine
 10
271.4582872905332
 20
434.2
 30
0.0
 11
272.7552940886029
 21
434.2
 31
0.0
  0
LINE
  5
94C
330
919
100
AcDbEntity
  8
0
 62
     0
100
AcDbLine
 10
344.7963359750771
 20
434.2
 30
0.0
 11
346.0933427731503
 21
434.2
 31
0.0
  0
LINE
  5
94D
330
919
100
AcDbEntity
  8
0
 62
     0
100
AcDbLine
 10
271.4928412743549
 20
434.2999999999999
 30
0.0
 11
272.7266139563427
 21
434.2999999999999
 31
0.0
  0
LINE
  5
94E
330
919
100
AcDbEntity
  8
0
 62
     0
100
AcDbLine
 10
344.8250161073373
 20
434.2999999999999
 30
0.0
 11
346.0587887893286
 21
434.2999999999999
 31
0.0
  0
LINE
  5
94F
330
919
100
AcDbEntity
  8
0
 62
     0
100
AcDbLine
 10
271.5289532738262
 20
434.4
 30
0.0
 11
272.6988686226623
 21
434.4
 31
0.0
  0
LINE
  5
950
330
919
100
AcDbEntity
  8
0
 62
     0
100
AcDbLine
 10
344.8527614410177
 20
434.4
 30
0.0
 11
346.0226767898574
 21
434.4
 31
0.0
  0
LINE
  5
951
330
919
100
AcDbEntity
  8
0
 62
     0
100
AcDbLine
 10
271.566646908031
 20
434.4999999999999
 30
0.0
 11
272.672051382072
 21
434.4999999999999
 31
0.0
  0
LINE
  5
952
330
919
100
AcDbEntity
  8
0
 62
     0
100
AcDbLine
 10
344.879578681608
 20
434.4999999999999
 30
0.0
 11
345.9849831556525
 21
434.4999999999999
 31
0.0
  0
LINE
  5
953
330
919
100
AcDbEntity
  8
0
 62
     0
100
AcDbLine
 10
271.6059473426575
 20
434.6
 30
0.0
 11
272.6461558142025
 21
434.6
 31
0.0
  0
LINE
  5
954
330
919
100
AcDbEntity
  8
0
 62
     0
100
AcDbLine
 10
344.9054742494776
 20
434.6
 30
0.0
 11
345.945682721026
 21
434.6
 31
0.0
  0
LINE
  5
955
330
919
100
AcDbEntity
  8
0
 62
     0
100
AcDbLine
 10
271.6468813880551
 20
434.7
 30
0.0
 11
272.6211757754286
 21
434.7
 31
0.0
  0
LINE
  5
956
330
919
100
AcDbEntity
  8
0
 62
     0
100
AcDbLine
 10
344.9304542882515
 20
434.7
 30
0.0
 11
345.9047486756284
 21
434.7
 31
0.0
  0
LINE
  5
957
330
919
100
AcDbEntity
  8
0
 62
     0
100
AcDbLine
 10
271.6894776071271
 20
434.7999999999999
 30
0.0
 11
272.5971053909683
 21
434.7999999999999
 31
0.0
  0
LINE
  5
958
330
919
100
AcDbEntity
  8
0
 62
     0
100
AcDbLine
 10
344.9545246727118
 20
434.7999999999999
 30
0.0
 11
345.8621524565564
 21
434.7999999999999
 31
0.0
  0
LINE
  5
959
330
919
100
AcDbEntity
  8
0
 62
     0
100
AcDbLine
 10
271.7337664342037
 20
434.9
 30
0.0
 11
272.5739390474307
 21
434.9
 31
0.0
  0
LINE
  5
95A
330
919
100
AcDbEntity
  8
0
 62
     0
100
AcDbLine
 10
344.9776910162493
 20
434.9
 30
0.0
 11
345.8178636294799
 21
434.9
 31
0.0
  0
LINE
  5
95B
330
919
100
AcDbEntity
  8
0
 62
     0
100
AcDbLine
 10
271.7797803062033
 20
435.0
 30
0.0
 11
272.5516713857907
 21
435.0
 31
0.0
  0
LINE
  5
95C
330
919
100
AcDbEntity
  8
0
 62
     0
100
AcDbLine
 10
344.9999586778894
 20
435.0
 30
0.0
 11
345.7718497574803
 21
435.0
 31
0.0
  0
LINE
  5
95D
330
919
100
AcDbEntity
  8
0
 62
     0
100
AcDbLine
 10
271.8275538075889
 20
435.0999999999999
 30
0.0
 11
272.5302972947667
 21
435.0999999999999
 31
0.0
  0
LINE
  5
95E
330
919
100
AcDbEntity
  8
0
 62
     0
100
AcDbLine
 10
345.0213327689133
 20
435.0999999999999
 30
0.0
 11
345.7240762560947
 21
435.0999999999999
 31
0.0
  0
LINE
  5
95F
330
919
100
AcDbEntity
  8
0
 62
     0
100
AcDbLine
 10
271.8771238308509
 20
435.2
 30
0.0
 11
272.5098119045836
 21
435.2
 31
0.0
  0
LINE
  5
960
330
919
100
AcDbEntity
  8
0
 62
     0
100
AcDbLine
 10
345.0418181590965
 20
435.2
 30
0.0
 11
345.6745062328328
 21
435.2
 31
0.0
  0
LINE
  5
961
330
919
100
AcDbEntity
  8
0
 62
     0
100
AcDbLine
 10
271.9285297545201
 20
435.3
 30
0.0
 11
272.4902105810997
 21
435.3
 31
0.0
  0
LINE
  5
962
330
919
100
AcDbEntity
  8
0
 62
     0
100
AcDbLine
 10
345.0614194825805
 20
435.3
 30
0.0
 11
345.6231003091636
 21
435.3
 31
0.0
  0
LINE
  5
963
330
919
100
AcDbEntity
  8
0
 62
     0
100
AcDbLine
 10
271.9818136410331
 20
435.4
 30
0.0
 11
272.4714889202817
 21
435.4
 31
0.0
  0
LINE
  5
964
330
919
100
AcDbEntity
  8
0
 62
     0
100
AcDbLine
 10
345.0801411433984
 20
435.4
 30
0.0
 11
345.5698164226505
 21
435.4
 31
0.0
  0
LINE
  5
965
330
919
100
AcDbEntity
  8
0
 62
     0
100
AcDbLine
 10
272.0370204571477
 20
435.5
 30
0.0
 11
272.4536427430126
 21
435.5
 31
0.0
  0
LINE
  5
966
330
919
100
AcDbEntity
  8
0
 62
     0
100
AcDbLine
 10
345.0979873206675
 20
435.5
 30
0.0
 11
345.514609606536
 21
435.5
 31
0.0
  0
LINE
  5
967
330
919
100
AcDbEntity
  8
0
 62
     0
100
AcDbLine
 10
272.0941983200602
 20
435.6
 30
0.0
 11
272.4366680902134
 21
435.6
 31
0.0
  0
LINE
  5
968
330
919
100
AcDbEntity
  8
0
 62
     0
100
AcDbLine
 10
345.1149619734666
 20
435.6
 30
0.0
 11
345.4574317436235
 21
435.6
 31
0.0
  0
LINE
  5
969
330
919
100
AcDbEntity
  8
0
 62
     0
100
AcDbLine
 10
272.1533987729168
 20
435.7
 30
0.0
 11
272.4205612182716
 21
435.7
 31
0.0
  0
LINE
  5
96A
330
919
100
AcDbEntity
  8
0
 62
     0
100
AcDbLine
 10
345.1310688454085
 20
435.7
 30
0.0
 11
345.398231290767
 21
435.7
 31
0.0
  0
LINE
  5
96B
330
919
100
AcDbEntity
  8
0
 62
     0
100
AcDbLine
 10
272.2146770940565
 20
435.8
 30
0.0
 11
272.4053185947556
 21
435.8
 31
0.0
  0
LINE
  5
96C
330
919
100
AcDbEntity
  8
0
 62
     0
100
AcDbLine
 10
345.1463114689245
 20
435.8
 30
0.0
 11
345.3369529696272
 21
435.8
 31
0.0
  0
LINE
  5
96D
330
919
100
AcDbEntity
  8
0
 62
     0
100
AcDbLine
 10
272.2780926451154
 20
435.9
 30
0.0
 11
272.390936894411
 21
435.9
 31
0.0
  0
LINE
  5
96E
330
919
100
AcDbEntity
  8
0
 62
     0
100
AcDbLine
 10
345.160693169269
 20
435.9
 30
0.0
 11
345.2735374185684
 21
435.9
 31
0.0
  0
LINE
  5
96F
330
919
100
AcDbEntity
  8
0
 62
     0
100
AcDbLine
 10
272.3437092640675
 20
436.0
 30
0.0
 11
272.3774129954218
 21
436.0
 31
0.0
  0
LINE
  5
970
330
919
100
AcDbEntity
  8
0
 62
     0
100
AcDbLine
 10
345.1742170682583
 20
436.0
 30
0.0
 11
345.2079207996163
 21
436.0
 31
0.0
  0
LINE
  5
971
330
919
100
AcDbEntity
  8
0
 62
     0
100
AcDbLine
 10
271.055656257536
 20
431.7
 30
0.0
 11
273.6378970633511
 21
431.7
 31
0.0
  0
LINE
  5
972
330
919
100
AcDbEntity
  8
0
 62
     0
100
AcDbLine
 10
343.9137330003301
 20
431.7
 30
0.0
 11
346.4959738061474
 21
431.7
 31
0.0
  0
LINE
  5
973
330
919
100
AcDbEntity
  8
0
 62
     0
100
AcDbLine
 10
271.0569518433062
 20
431.6
 30
0.0
 11
273.6742940867777
 21
431.6
 31
0.0
  0
LINE
  5
974
330
919
100
AcDbEntity
  8
0
 62
     0
100
AcDbLine
 10
343.8773359769034
 20
431.6
 30
0.0
 11
346.4946782203772
 21
431.6
 31
0.0
  0
LINE
  5
975
330
919
100
AcDbEntity
  8
0
 62
     0
100
AcDbLine
 10
271.0595541480487
 20
431.5
 30
0.0
 11
273.7106911102044
 21
431.5
 31
0.0
  0
LINE
  5
976
330
919
100
AcDbEntity
  8
0
 62
     0
100
AcDbLine
 10
343.8409389534768
 20
431.5
 30
0.0
 11
346.4920759156347
 21
431.5
 31
0.0
  0
LINE
  5
977
330
919
100
AcDbEntity
  8
0
 62
     0
100
AcDbLine
 10
271.0634645053767
 20
431.4
 30
0.0
 11
273.747088133631
 21
431.4
 31
0.0
  0
LINE
  5
978
330
919
100
AcDbEntity
  8
0
 62
     0
100
AcDbLine
 10
343.8045419300502
 20
431.4
 30
0.0
 11
346.4881655583067
 21
431.4
 31
0.0
  0
LINE
  5
979
330
919
100
AcDbEntity
  8
0
 62
     0
100
AcDbLine
 10
271.0686849226613
 20
431.3
 30
0.0
 11
273.7834851570577
 21
431.3
 31
0.0
  0
LINE
  5
97A
330
919
100
AcDbEntity
  8
0
 62
     0
100
AcDbLine
 10
343.7681449066236
 20
431.3
 30
0.0
 11
346.4829451410221
 21
431.3
 31
0.0
  0
LINE
  5
97B
330
919
100
AcDbEntity
  8
0
 62
     0
100
AcDbLine
 10
271.0752180861977
 20
431.2
 30
0.0
 11
273.8198821804842
 21
431.2
 31
0.0
  0
LINE
  5
97C
330
919
100
AcDbEntity
  8
0
 62
     0
100
AcDbLine
 10
343.731747883197
 20
431.2
 30
0.0
 11
346.4764119774857
 21
431.2
 31
0.0
  0
LINE
  5
97D
330
919
100
AcDbEntity
  8
0
 62
     0
100
AcDbLine
 10
271.0830673681457
 20
431.0999999999999
 30
0.0
 11
273.8562792039109
 21
431.0999999999999
 31
0.0
  0
LINE
  5
97E
330
919
100
AcDbEntity
  8
0
 62
     0
100
AcDbLine
 10
343.6953508597704
 20
431.0999999999999
 30
0.0
 11
346.4685626955378
 21
431.0999999999999
 31
0.0
  0
LINE
  5
97F
330
919
100
AcDbEntity
  8
0
 62
     0
100
AcDbLine
 10
271.0922368352882
 20
431.0
 30
0.0
 11
273.8926762273375
 21
431.0
 31
0.0
  0
LINE
  5
980
330
919
100
AcDbEntity
  8
0
 62
     0
100
AcDbLine
 10
343.6589538363437
 20
431.0
 30
0.0
 11
346.4593932283952
 21
431.0
 31
0.0
  0
LINE
  5
981
330
919
100
AcDbEntity
  8
0
 62
     0
100
AcDbLine
 10
271.1027312596588
 20
430.9
 30
0.0
 11
273.9290732507641
 21
430.9
 31
0.0
  0
LINE
  5
982
330
919
100
AcDbEntity
  8
0
 62
     0
100
AcDbLine
 10
343.6225568129172
 20
430.9
 30
0.0
 11
346.4488988040247
 21
430.9
 31
0.0
  0
LINE
  5
983
330
919
100
AcDbEntity
  8
0
 62
     0
100
AcDbLine
 10
271.1145561311056
 20
430.7999999999999
 30
0.0
 11
273.9654702741908
 21
430.7999999999999
 31
0.0
  0
LINE
  5
984
330
919
100
AcDbEntity
  8
0
 62
     0
100
AcDbLine
 10
343.5861597894905
 20
430.7999999999999
 30
0.0
 11
346.4370739325778
 21
430.7999999999999
 31
0.0
  0
LINE
  5
985
330
919
100
AcDbEntity
  8
0
 62
     0
100
AcDbLine
 10
271.127717671869
 20
430.7
 30
0.0
 11
274.0018672976173
 21
430.7
 31
0.0
  0
LINE
  5
986
330
919
100
AcDbEntity
  8
0
 62
     0
100
AcDbLine
 10
343.5497627660639
 20
430.7
 30
0.0
 11
346.4239123918144
 21
430.7
 31
0.0
  0
LINE
  5
987
330
919
100
AcDbEntity
  8
0
 62
     0
100
AcDbLine
 10
271.1422228532644
 20
430.6
 30
0.0
 11
274.038264321044
 21
430.6
 31
0.0
  0
LINE
  5
988
330
919
100
AcDbEntity
  8
0
 62
     0
100
AcDbLine
 10
343.5133657426372
 20
430.6
 30
0.0
 11
346.409407210419
 21
430.6
 31
0.0
  0
LINE
  5
989
330
919
100
AcDbEntity
  8
0
 62
     0
100
AcDbLine
 10
271.1580794145772
 20
430.4999999999999
 30
0.0
 11
274.0746613444706
 21
430.4999999999999
 31
0.0
  0
LINE
  5
98A
330
919
100
AcDbEntity
  8
0
 62
     0
100
AcDbLine
 10
343.4769687192106
 20
430.4999999999999
 30
0.0
 11
346.3935506491062
 21
430.4999999999999
 31
0.0
  0
LINE
  5
98B
330
919
100
AcDbEntity
  8
0
 62
     0
100
AcDbLine
 10
271.1752958842913
 20
430.4
 30
0.0
 11
272.2758150318406
 21
430.4
 31
0.0
  0
LINE
  5
98C
330
919
100
AcDbEntity
  8
0
 62
     0
100
AcDbLine
 10
345.2758150318406
 20
430.4
 30
0.0
 11
346.3763341793921
 21
430.4
 31
0.0
  0
LINE
  5
98D
330
919
100
AcDbEntity
  8
0
 62
     0
100
AcDbLine
 10
271.1938816037918
 20
430.2999999999999
 30
0.0
 11
272.2758150318406
 21
430.2999999999999
 31
0.0
  0
LINE
  5
98E
330
919
100
AcDbEntity
  8
0
 62
     0
100
AcDbLine
 10
345.2758150318406
 20
430.2999999999999
 30
0.0
 11
346.3577484598916
 21
430.2999999999999
 31
0.0
  0
LINE
  5
98F
330
919
100
AcDbEntity
  8
0
 62
     0
100
AcDbLine
 10
271.2138467536993
 20
430.2
 30
0.0
 11
272.2758150318406
 21
430.2
 31
0.0
  0
LINE
  5
990
330
919
100
AcDbEntity
  8
0
 62
     0
100
AcDbLine
 10
345.2758150318406
 20
430.2
 30
0.0
 11
346.3377833099841
 21
430.2
 31
0.0
  0
LINE
  5
991
330
919
100
AcDbEntity
  8
0
 62
     0
100
AcDbLine
 10
271.2352023830163
 20
430.1
 30
0.0
 11
272.2758150318406
 21
430.1
 31
0.0
  0
LINE
  5
992
330
919
100
AcDbEntity
  8
0
 62
     0
100
AcDbLine
 10
345.2758150318406
 20
430.1
 30
0.0
 11
346.3164276806672
 21
430.1
 31
0.0
  0
LINE
  5
993
330
919
100
AcDbEntity
  8
0
 62
     0
100
AcDbLine
 10
271.2579604412878
 20
430.0
 30
0.0
 11
272.2758150318406
 21
430.0
 31
0.0
  0
LINE
  5
994
330
919
100
AcDbEntity
  8
0
 62
     0
100
AcDbLine
 10
345.2758150318406
 20
430.0
 30
0.0
 11
346.2936696223957
 21
430.0
 31
0.0
  0
LINE
  5
995
330
919
100
AcDbEntity
  8
0
 62
     0
100
AcDbLine
 10
271.2821338140058
 20
429.9
 30
0.0
 11
272.2758150318406
 21
429.9
 31
0.0
  0
LINE
  5
996
330
919
100
AcDbEntity
  8
0
 62
     0
100
AcDbLine
 10
345.2758150318406
 20
429.9
 30
0.0
 11
346.2694962496776
 21
429.9
 31
0.0
  0
LINE
  5
997
330
919
100
AcDbEntity
  8
0
 62
     0
100
AcDbLine
 10
271.3077363615147
 20
429.8
 30
0.0
 11
272.2758150318406
 21
429.8
 31
0.0
  0
LINE
  5
998
330
919
100
AcDbEntity
  8
0
 62
     0
100
AcDbLine
 10
345.2758150318406
 20
429.8
 30
0.0
 11
346.2438937021688
 21
429.8
 31
0.0
  0
LINE
  5
999
330
919
100
AcDbEntity
  8
0
 62
     0
100
AcDbLine
 10
271.3347829617075
 20
429.7
 30
0.0
 11
272.2758150318406
 21
429.7
 31
0.0
  0
LINE
  5
99A
330
919
100
AcDbEntity
  8
0
 62
     0
100
AcDbLine
 10
345.2758150318406
 20
429.7
 30
0.0
 11
346.2168471019759
 21
429.7
 31
0.0
  0
LINE
  5
99B
330
919
100
AcDbEntity
  8
0
 62
     0
100
AcDbLine
 10
271.3632895568414
 20
429.6
 30
0.0
 11
272.2758150318406
 21
429.6
 31
0.0
  0
LINE
  5
99C
330
919
100
AcDbEntity
  8
0
 62
     0
100
AcDbLine
 10
345.2758150318406
 20
429.6
 30
0.0
 11
346.188340506842
 21
429.6
 31
0.0
  0
LINE
  5
99D
330
919
100
AcDbEntity
  8
0
 62
     0
100
AcDbLine
 10
271.3932732048383
 20
429.4999999999999
 30
0.0
 11
272.2758150318406
 21
429.4999999999999
 31
0.0
  0
LINE
  5
99E
330
919
100
AcDbEntity
  8
0
 62
     0
100
AcDbLine
 10
345.2758150318406
 20
429.4999999999999
 30
0.0
 11
346.1583568588452
 21
429.4999999999999
 31
0.0
  0
LINE
  5
99F
330
919
100
AcDbEntity
  8
0
 62
     0
100
AcDbLine
 10
271.4247521354873
 20
429.4
 30
0.0
 11
272.2758150318406
 21
429.4
 31
0.0
  0
LINE
  5
9A0
330
919
100
AcDbEntity
  8
0
 62
     0
100
AcDbLine
 10
345.2758150318406
 20
429.4
 30
0.0
 11
346.1268779281962
 21
429.4
 31
0.0
  0
LINE
  5
9A1
330
919
100
AcDbEntity
  8
0
 62
     0
100
AcDbLine
 10
271.4577458120171
 20
429.3
 30
0.0
 11
272.2758150318406
 21
429.3
 31
0.0
  0
LINE
  5
9A2
330
919
100
AcDbEntity
  8
0
 62
     0
100
AcDbLine
 10
345.2758150318406
 20
429.3
 30
0.0
 11
346.0938842516664
 21
429.3
 31
0.0
  0
LINE
  5
9A3
330
919
100
AcDbEntity
  8
0
 62
     0
100
AcDbLine
 10
271.4922749985662
 20
429.2
 30
0.0
 11
272.2758150318406
 21
429.2
 31
0.0
  0
LINE
  5
9A4
330
919
100
AcDbEntity
  8
0
 62
     0
100
AcDbLine
 10
345.2758150318406
 20
429.2
 30
0.0
 11
346.0593550651173
 21
429.2
 31
0.0
  0
LINE
  5
9A5
330
919
100
AcDbEntity
  8
0
 62
     0
100
AcDbLine
 10
271.5283618341496
 20
429.1
 30
0.0
 11
272.2758150318406
 21
429.1
 31
0.0
  0
LINE
  5
9A6
330
919
100
AcDbEntity
  8
0
 62
     0
100
AcDbLine
 10
345.2758150318406
 20
429.1
 30
0.0
 11
346.0232682295339
 21
429.1
 31
0.0
  0
LINE
  5
9A7
330
919
100
AcDbEntity
  8
0
 62
     0
100
AcDbLine
 10
271.566029913802
 20
429.0
 30
0.0
 11
272.2758150318406
 21
429.0
 31
0.0
  0
LINE
  5
9A8
330
919
100
AcDbEntity
  8
0
 62
     0
100
AcDbLine
 10
345.2758150318406
 20
429.0
 30
0.0
 11
345.9856001498815
 21
429.0
 31
0.0
  0
LINE
  5
9A9
330
919
100
AcDbEntity
  8
0
 62
     0
100
AcDbLine
 10
271.6053043776641
 20
428.9
 30
0.0
 11
272.2758150318406
 21
428.9
 31
0.0
  0
LINE
  5
9AA
330
919
100
AcDbEntity
  8
0
 62
     0
100
AcDbLine
 10
345.2758150318406
 20
428.9
 30
0.0
 11
345.9463256860194
 21
428.9
 31
0.0
  0
LINE
  5
9AB
330
919
100
AcDbEntity
  8
0
 62
     0
100
AcDbLine
 10
271.6462120088912
 20
428.8
 30
0.0
 11
272.2758150318406
 21
428.8
 31
0.0
  0
LINE
  5
9AC
330
919
100
AcDbEntity
  8
0
 62
     0
100
AcDbLine
 10
345.2758150318406
 20
428.8
 30
0.0
 11
345.9054180547924
 21
428.8
 31
0.0
  0
LINE
  5
9AD
330
919
100
AcDbEntity
  8
0
 62
     0
100
AcDbLine
 10
271.6887813413788
 20
428.7
 30
0.0
 11
272.2758150318406
 21
428.7
 31
0.0
  0
LINE
  5
9AE
330
919
100
AcDbEntity
  8
0
 62
     0
100
AcDbLine
 10
345.2758150318406
 20
428.7
 30
0.0
 11
345.8628487223048
 21
428.7
 31
0.0
  0
LINE
  5
9AF
330
919
100
AcDbEntity
  8
0
 62
     0
100
AcDbLine
 10
271.7330427784504
 20
428.6
 30
0.0
 11
272.2758150318406
 21
428.6
 31
0.0
  0
LINE
  5
9B0
330
919
100
AcDbEntity
  8
0
 62
     0
100
AcDbLine
 10
345.2758150318406
 20
428.6
 30
0.0
 11
345.8185872852332
 21
428.6
 31
0.0
  0
LINE
  5
9B1
330
919
100
AcDbEntity
  8
0
 62
     0
100
AcDbLine
 10
271.77902872381
 20
428.5
 30
0.0
 11
272.2758150318406
 21
428.5
 31
0.0
  0
LINE
  5
9B2
330
919
100
AcDbEntity
  8
0
 62
     0
100
AcDbLine
 10
345.2758150318406
 20
428.5
 30
0.0
 11
345.7726013398736
 21
428.5
 31
0.0
  0
LINE
  5
9B3
330
919
100
AcDbEntity
  8
0
 62
     0
100
AcDbLine
 10
271.8267737262642
 20
428.4
 30
0.0
 11
272.2758150318406
 21
428.4
 31
0.0
  0
LINE
  5
9B4
330
919
100
AcDbEntity
  8
0
 62
     0
100
AcDbLine
 10
345.2758150318406
 20
428.4
 30
0.0
 11
345.7248563374193
 21
428.4
 31
0.0
  0
LINE
  5
9B5
330
919
100
AcDbEntity
  8
0
 62
     0
100
AcDbLine
 10
271.8763146399417
 20
428.3
 30
0.0
 11
272.2758150318406
 21
428.3
 31
0.0
  0
LINE
  5
9B6
330
919
100
AcDbEntity
  8
0
 62
     0
100
AcDbLine
 10
345.2758150318406
 20
428.3
 30
0.0
 11
345.675315423742
 21
428.3
 31
0.0
  0
LINE
  5
9B7
330
919
100
AcDbEntity
  8
0
 62
     0
100
AcDbLine
 10
271.9276908020069
 20
428.2
 30
0.0
 11
272.2758150318406
 21
428.2
 31
0.0
  0
LINE
  5
9B8
330
919
100
AcDbEntity
  8
0
 62
     0
100
AcDbLine
 10
345.2758150318406
 20
428.2
 30
0.0
 11
345.6239392616768
 21
428.2
 31
0.0
  0
LINE
  5
9B9
330
919
100
AcDbEntity
  8
0
 62
     0
100
AcDbLine
 10
271.9809442301876
 20
428.1
 30
0.0
 11
272.2758150318406
 21
428.1
 31
0.0
  0
LINE
  5
9BA
330
919
100
AcDbEntity
  8
0
 62
     0
100
AcDbLine
 10
345.2758150318406
 20
428.1
 30
0.0
 11
345.5706858334961
 21
428.1
 31
0.0
  0
LINE
  5
9BB
330
919
100
AcDbEntity
  8
0
 62
     0
100
AcDbLine
 10
272.0361198428045
 20
428.0
 30
0.0
 11
272.2758150318406
 21
428.0
 31
0.0
  0
LINE
  5
9BC
330
919
100
AcDbEntity
  8
0
 62
     0
100
AcDbLine
 10
345.2758150318406
 20
428.0
 30
0.0
 11
345.5155102208792
 21
428.0
 31
0.0
  0
LINE
  5
9BD
330
919
100
AcDbEntity
  8
0
 62
     0
100
AcDbLine
 10
272.0932657044499
 20
427.9
 30
0.0
 11
272.2758150318406
 21
427.9
 31
0.0
  0
LINE
  5
9BE
330
919
100
AcDbEntity
  8
0
 62
     0
100
AcDbLine
 10
345.2758150318406
 20
427.9
 30
0.0
 11
345.4583643592338
 21
427.9
 31
0.0
  0
LINE
  5
9BF
330
919
100
AcDbEntity
  8
0
 62
     0
100
AcDbLine
 10
272.1524333009942
 20
427.8
 30
0.0
 11
272.2758150318406
 21
427.8
 31
0.0
  0
LINE
  5
9C0
330
919
100
AcDbEntity
  8
0
 62
     0
100
AcDbLine
 10
345.2758150318406
 20
427.8
 30
0.0
 11
345.3991967626895
 21
427.8
 31
0.0
  0
LINE
  5
9C1
330
919
100
AcDbEntity
  8
0
 62
     0
100
AcDbLine
 10
272.2136778482512
 20
427.7
 30
0.0
 11
272.2758150318406
 21
427.7
 31
0.0
  0
LINE
  5
9C2
330
919
100
AcDbEntity
  8
0
 62
     0
100
AcDbLine
 10
345.2758150318406
 20
427.7
 30
0.0
 11
345.3379522154326
 21
427.7
 31
0.0
  0
ENDBLK
  5
9C3
330
919
100
AcDbEntity
  8
0
100
AcDbBlockEnd
  0
BLOCK
  5
9C5
330
9C4
100
AcDbEntity
  8
0
100
AcDbBlockBegin
  2
*X5
 70
     1
 10
0.0
 20
0.0
 30
0.0
  3
*X5
  1

  0
LINE
  5
9C6
330
9C4
100
AcDbEntity
  8
0
 62
     0
100
AcDbLine
 10
164.8343025922801
 20
222.6
 30
0.0
 11
167.9697043475556
 21
222.6
 31
0.0
  0
LINE
  5
9C7
330
9C4
100
AcDbEntity
  8
0
 62
     0
100
AcDbLine
 10
164.9047907403175
 20
222.7
 30
0.0
 11
168.1697043475556
 21
222.7
 31
0.0
  0
LINE
  5
9C8
330
9C4
100
AcDbEntity
  8
0
 62
     0
100
AcDbLine
 10
164.9797802569385
 20
222.8
 30
0.0
 11
168.3697043475556
 21
222.8
 31
0.0
  0
LINE
  5
9C9
330
9C4
100
AcDbEntity
  8
0
 62
     0
100
AcDbLine
 10
165.0595833618161
 20
222.9
 30
0.0
 11
168.5697043475556
 21
222.9
 31
0.0
  0
LINE
  5
9CA
330
9C4
100
AcDbEntity
  8
0
 62
     0
100
AcDbLine
 10
165.1445649188855
 20
223.0
 30
0.0
 11
168.7697043475556
 21
223.0
 31
0.0
  0
LINE
  5
9CB
330
9C4
100
AcDbEntity
  8
0
 62
     0
100
AcDbLine
 10
165.2351552571325
 20
223.1
 30
0.0
 11
168.9697043475556
 21
223.1
 31
0.0
  0
LINE
  5
9CC
330
9C4
100
AcDbEntity
  8
0
 62
     0
100
AcDbLine
 10
165.3318673929381
 20
223.2
 30
0.0
 11
169.1697043475556
 21
223.2
 31
0.0
  0
LINE
  5
9CD
330
9C4
100
AcDbEntity
  8
0
 62
     0
100
AcDbLine
 10
165.4353206583142
 20
223.3
 30
0.0
 11
169.3697043475556
 21
223.3
 31
0.0
  0
LINE
  5
9CE
330
9C4
100
AcDbEntity
  8
0
 62
     0
100
AcDbLine
 10
165.546273919725
 20
223.4
 30
0.0
 11
169.5697043475556
 21
223.4
 31
0.0
  0
LINE
  5
9CF
330
9C4
100
AcDbEntity
  8
0
 62
     0
100
AcDbLine
 10
165.6656736368377
 20
223.5
 30
0.0
 11
169.7697043475556
 21
223.5
 31
0.0
  0
LINE
  5
9D0
330
9C4
100
AcDbEntity
  8
0
 62
     0
100
AcDbLine
 10
165.7947257957781
 20
223.6
 30
0.0
 11
169.9697043475556
 21
223.6
 31
0.0
  0
LINE
  5
9D1
330
9C4
100
AcDbEntity
  8
0
 62
     0
100
AcDbLine
 10
165.9350080908235
 20
223.7
 30
0.0
 11
170.1697043475556
 21
223.7
 31
0.0
  0
LINE
  5
9D2
330
9C4
100
AcDbEntity
  8
0
 62
     0
100
AcDbLine
 10
166.0886539605325
 20
223.8
 30
0.0
 11
170.3697043475556
 21
223.8
 31
0.0
  0
LINE
  5
9D3
330
9C4
100
AcDbEntity
  8
0
 62
     0
100
AcDbLine
 10
166.2586744884473
 20
223.9
 30
0.0
 11
170.3470637717072
 21
223.9
 31
0.0
  0
LINE
  5
9D4
330
9C4
100
AcDbEntity
  8
0
 62
     0
100
AcDbLine
 10
166.4495708139136
 20
224.0
 30
0.0
 11
170.1561674462409
 21
224.0
 31
0.0
  0
LINE
  5
9D5
330
9C4
100
AcDbEntity
  8
0
 62
     0
100
AcDbLine
 10
166.6686422289031
 20
224.1
 30
0.0
 11
169.9370960312514
 21
224.1
 31
0.0
  0
LINE
  5
9D6
330
9C4
100
AcDbEntity
  8
0
 62
     0
100
AcDbLine
 10
166.929304249794
 20
224.2
 30
0.0
 11
169.6764340103605
 21
224.2
 31
0.0
  0
LINE
  5
9D7
330
9C4
100
AcDbEntity
  8
0
 62
     0
100
AcDbLine
 10
167.2623580075159
 20
224.3
 30
0.0
 11
169.3433802526386
 21
224.3
 31
0.0
  0
LINE
  5
9D8
330
9C4
100
AcDbEntity
  8
0
 62
     0
100
AcDbLine
 10
167.7942963112988
 20
224.4
 30
0.0
 11
168.8114419488558
 21
224.4
 31
0.0
  0
LINE
  5
9D9
330
9C4
100
AcDbEntity
  8
0
 62
     0
100
AcDbLine
 10
164.8326355583662
 20
149.4
 30
0.0
 11
167.9648213268927
 21
149.4
 31
0.0
  0
LINE
  5
9DA
330
9C4
100
AcDbEntity
  8
0
 62
     0
100
AcDbLine
 10
164.9030173303478
 20
149.3
 30
0.0
 11
168.1648213268927
 21
149.3
 31
0.0
  0
LINE
  5
9DB
330
9C4
100
AcDbEntity
  8
0
 62
     0
100
AcDbLine
 10
164.9778934191861
 20
149.2
 30
0.0
 11
168.3648213268927
 21
149.2
 31
0.0
  0
LINE
  5
9DC
330
9C4
100
AcDbEntity
  8
0
 62
     0
100
AcDbLine
 10
165.0575748913512
 20
149.1
 30
0.0
 11
168.5648213268927
 21
149.1
 31
0.0
  0
LINE
  5
9DD
330
9C4
100
AcDbEntity
  8
0
 62
     0
100
AcDbLine
 10
165.1424251875589
 20
149.0
 30
0.0
 11
168.7648213268927
 21
149.0
 31
0.0
  0
LINE
  5
9DE
330
9C4
100
AcDbEntity
  8
0
 62
     0
100
AcDbLine
 10
165.2328728545594
 20
148.9
 30
0.0
 11
168.9648213268927
 21
148.9
 31
0.0
  0
LINE
  5
9DF
330
9C4
100
AcDbEntity
  8
0
 62
     0
100
AcDbLine
 10
165.3294286397384
 20
148.8
 30
0.0
 11
169.1648213268927
 21
148.8
 31
0.0
  0
LINE
  5
9E0
330
9C4
100
AcDbEntity
  8
0
 62
     0
100
AcDbLine
 10
165.4327089311547
 20
148.7
 30
0.0
 11
169.3648213268927
 21
148.7
 31
0.0
  0
LINE
  5
9E1
330
9C4
100
AcDbEntity
  8
0
 62
     0
100
AcDbLine
 10
165.5434686906029
 20
148.6
 30
0.0
 11
169.5648213268927
 21
148.6
 31
0.0
  0
LINE
  5
9E2
330
9C4
100
AcDbEntity
  8
0
 62
     0
100
AcDbLine
 10
165.6626490628737
 20
148.5
 30
0.0
 11
169.7648213268927
 21
148.5
 31
0.0
  0
LINE
  5
9E3
330
9C4
100
AcDbEntity
  8
0
 62
     0
100
AcDbLine
 10
165.7914485716767
 20
148.4
 30
0.0
 11
169.9648213268927
 21
148.4
 31
0.0
  0
LINE
  5
9E4
330
9C4
100
AcDbEntity
  8
0
 62
     0
100
AcDbLine
 10
165.9314340289097
 20
148.3
 30
0.0
 11
170.1648213268927
 21
148.3
 31
0.0
  0
LINE
  5
9E5
330
9C4
100
AcDbEntity
  8
0
 62
     0
100
AcDbLine
 10
166.084722233016
 20
148.2
 30
0.0
 11
170.3648213268927
 21
148.2
 31
0.0
  0
LINE
  5
9E6
330
9C4
100
AcDbEntity
  8
0
 62
     0
100
AcDbLine
 10
166.2542972190049
 20
148.1
 30
0.0
 11
170.3514410411496
 21
148.1
 31
0.0
  0
LINE
  5
9E7
330
9C4
100
AcDbEntity
  8
0
 62
     0
100
AcDbLine
 10
166.4446123951971
 20
148.0
 30
0.0
 11
170.1611258649574
 21
148.0
 31
0.0
  0
LINE
  5
9E8
330
9C4
100
AcDbEntity
  8
0
 62
     0
100
AcDbLine
 10
166.6628723890378
 20
147.9
 30
0.0
 11
169.9428658711167
 21
147.9
 31
0.0
  0
LINE
  5
9E9
330
9C4
100
AcDbEntity
  8
0
 62
     0
100
AcDbLine
 10
166.9222676204038
 20
147.8
 30
0.0
 11
169.6834706397507
 21
147.8
 31
0.0
  0
LINE
  5
9EA
330
9C4
100
AcDbEntity
  8
0
 62
     0
100
AcDbLine
 10
167.2528540128502
 20
147.7
 30
0.0
 11
169.3528842473043
 21
147.7
 31
0.0
  0
LINE
  5
9EB
330
9C4
100
AcDbEntity
  8
0
 62
     0
100
AcDbLine
 10
167.7746618182216
 20
147.6
 30
0.0
 11
168.831076441933
 21
147.6
 31
0.0
  0
ENDBLK
  5
9EC
330
9C4
100
AcDbEntity
  8
0
100
AcDbBlockEnd
  0
BLOCK
  5
9EE
330
9ED
100
AcDbEntity
  8
0
100
AcDbBlockBegin
  2
*X6
 70
     1
 10
0.0
 20
0.0
 30
0.0
  3
*X6
  1

  0
LINE
  5
9EF
330
9ED
100
AcDbEntity
  8
0
 62
     0
100
AcDbLine
 10
95.96007594826735
 20
341.6796824105926
 30
0.0
 11
98.34357594826737
 21
344.0631824105926
 31
0.0
  0
LINE
  5
9F0
330
9ED
100
AcDbEntity
  8
0
 62
     0
100
AcDbLine
 10
98.34357594826736
 20
344.0631824105926
 30
0.0
 11
100.4600759482674
 21
346.1796824105927
 31
0.0
  0
LINE
  5
9F1
330
9ED
100
AcDbEntity
  8
0
 62
     0
100
AcDbLine
 10
94.19230899530099
 20
341.6796824105926
 30
0.0
 11
96.57580899530101
 21
344.0631824105926
 31
0.0
  0
LINE
  5
9F2
330
9ED
100
AcDbEntity
  8
0
 62
     0
100
AcDbLine
 10
96.57580899530099
 20
344.0631824105926
 30
0.0
 11
98.69230899530101
 21
346.1796824105927
 31
0.0
  0
LINE
  5
9F3
330
9ED
100
AcDbEntity
  8
0
 62
     0
100
AcDbLine
 10
92.42454204233462
 20
341.6796824105926
 30
0.0
 11
94.80804204233463
 21
344.0631824105926
 31
0.0
  0
LINE
  5
9F4
330
9ED
100
AcDbEntity
  8
0
 62
     0
100
AcDbLine
 10
94.80804204233463
 20
344.0631824105926
 30
0.0
 11
96.92454204233465
 21
346.1796824105927
 31
0.0
  0
LINE
  5
9F5
330
9ED
100
AcDbEntity
  8
0
 62
     0
100
AcDbLine
 10
90.65677508936826
 20
341.6796824105926
 30
0.0
 11
93.04027508936826
 21
344.0631824105926
 31
0.0
  0
LINE
  5
9F6
330
9ED
100
AcDbEntity
  8
0
 62
     0
100
AcDbLine
 10
93.04027508936824
 20
344.0631824105926
 30
0.0
 11
95.15677508936828
 21
346.1796824105927
 31
0.0
  0
LINE
  5
9F7
330
9ED
100
AcDbEntity
  8
0
 62
     0
100
AcDbLine
 10
88.88900813640189
 20
341.6796824105926
 30
0.0
 11
91.27250813640189
 21
344.0631824105926
 31
0.0
  0
LINE
  5
9F8
330
9ED
100
AcDbEntity
  8
0
 62
     0
100
AcDbLine
 10
91.27250813640188
 20
344.0631824105926
 30
0.0
 11
93.38900813640192
 21
346.1796824105927
 31
0.0
  0
LINE
  5
9F9
330
9ED
100
AcDbEntity
  8
0
 62
     0
100
AcDbLine
 10
87.12124118343551
 20
341.6796824105926
 30
0.0
 11
89.50474118343553
 21
344.0631824105926
 31
0.0
  0
LINE
  5
9FA
330
9ED
100
AcDbEntity
  8
0
 62
     0
100
AcDbLine
 10
89.50474118343551
 20
344.0631824105926
 30
0.0
 11
91.62124118343554
 21
346.1796824105927
 31
0.0
  0
LINE
  5
9FB
330
9ED
100
AcDbEntity
  8
0
 62
     0
100
AcDbLine
 10
85.35347423046914
 20
341.6796824105926
 30
0.0
 11
87.73697423046916
 21
344.0631824105926
 31
0.0
  0
LINE
  5
9FC
330
9ED
100
AcDbEntity
  8
0
 62
     0
100
AcDbLine
 10
87.73697423046915
 20
344.0631824105926
 30
0.0
 11
89.85347423046917
 21
346.1796824105927
 31
0.0
  0
LINE
  5
9FD
330
9ED
100
AcDbEntity
  8
0
 62
     0
100
AcDbLine
 10
83.58570727750278
 20
341.6796824105926
 30
0.0
 11
85.96920727750278
 21
344.0631824105926
 31
0.0
  0
LINE
  5
9FE
330
9ED
100
AcDbEntity
  8
0
 62
     0
100
AcDbLine
 10
85.96920727750278
 20
344.0631824105926
 30
0.0
 11
88.0857072775028
 21
346.1796824105927
 31
0.0
  0
LINE
  5
9FF
330
9ED
100
AcDbEntity
  8
0
 62
     0
100
AcDbLine
 10
81.81794032453641
 20
341.6796824105926
 30
0.0
 11
84.20144032453642
 21
344.0631824105926
 31
0.0
  0
LINE
  5
A00
330
9ED
100
AcDbEntity
  8
0
 62
     0
100
AcDbLine
 10
84.2014403245364
 20
344.0631824105926
 30
0.0
 11
86.31794032453644
 21
346.1796824105927
 31
0.0
  0
LINE
  5
A01
330
9ED
100
AcDbEntity
  8
0
 62
     0
100
AcDbLine
 10
80.05017337157005
 20
341.6796824105926
 30
0.0
 11
82.43367337157005
 21
344.0631824105926
 31
0.0
  0
LINE
  5
A02
330
9ED
100
AcDbEntity
  8
0
 62
     0
100
AcDbLine
 10
82.43367337157003
 20
344.0631824105926
 30
0.0
 11
84.55017337157007
 21
346.1796824105927
 31
0.0
  0
LINE
  5
A03
330
9ED
100
AcDbEntity
  8
0
 62
     0
100
AcDbLine
 10
78.28240641860367
 20
341.6796824105926
 30
0.0
 11
80.66590641860369
 21
344.0631824105926
 31
0.0
  0
LINE
  5
A04
330
9ED
100
AcDbEntity
  8
0
 62
     0
100
AcDbLine
 10
80.66590641860367
 20
344.0631824105926
 30
0.0
 11
82.78240641860369
 21
346.1796824105927
 31
0.0
  0
LINE
  5
A05
330
9ED
100
AcDbEntity
  8
0
 62
     0
100
AcDbLine
 10
77.50338122615875
 20
342.6684241711141
 30
0.0
 11
78.89813946563731
 21
344.0631824105926
 31
0.0
  0
LINE
  5
A06
330
9ED
100
AcDbEntity
  8
0
 62
     0
100
AcDbLine
 10
78.8981394656373
 20
344.0631824105926
 30
0.0
 11
81.01463946563733
 21
346.1796824105927
 31
0.0
  0
LINE
  5
A07
330
9ED
100
AcDbEntity
  8
0
 62
     0
100
AcDbLine
 10
77.20079087976269
 20
344.1336007776844
 30
0.0
 11
79.24687251267096
 21
346.1796824105927
 31
0.0
  0
LINE
  5
A08
330
9ED
100
AcDbEntity
  8
0
 62
     0
100
AcDbLine
 10
76.98218385195419
 20
345.6827607028423
 30
0.0
 11
77.47910555970459
 21
346.1796824105927
 31
0.0
  0
LINE
  5
A09
330
9ED
100
AcDbEntity
  8
0
 62
     0
100
AcDbLine
 10
97.72784290123373
 20
341.6796824105926
 30
0.0
 11
100.1113429012337
 21
344.0631824105926
 31
0.0
  0
LINE
  5
A0A
330
9ED
100
AcDbEntity
  8
0
 62
     0
100
AcDbLine
 10
100.1113429012337
 20
344.0631824105926
 30
0.0
 11
102.2278429012337
 21
346.1796824105927
 31
0.0
  0
LINE
  5
A0B
330
9ED
100
AcDbEntity
  8
0
 62
     0
100
AcDbLine
 10
99.4956098542001
 20
341.6796824105926
 30
0.0
 11
101.8791098542001
 21
344.0631824105926
 31
0.0
  0
LINE
  5
A0C
330
9ED
100
AcDbEntity
  8
0
 62
     0
100
AcDbLine
 10
101.8791098542001
 20
344.0631824105926
 30
0.0
 11
103.9956098542001
 21
346.1796824105927
 31
0.0
  0
LINE
  5
A0D
330
9ED
100
AcDbEntity
  8
0
 62
     0
100
AcDbLine
 10
101.2633768071664
 20
341.6796824105926
 30
0.0
 11
103.6468768071665
 21
344.0631824105926
 31
0.0
  0
LINE
  5
A0E
330
9ED
100
AcDbEntity
  8
0
 62
     0
100
AcDbLine
 10
103.6468768071664
 20
344.0631824105926
 30
0.0
 11
105.7633768071665
 21
346.1796824105927
 31
0.0
  0
LINE
  5
A0F
330
9ED
100
AcDbEntity
  8
0
 62
     0
100
AcDbLine
 10
103.0311437601328
 20
341.6796824105926
 30
0.0
 11
105.4146437601328
 21
344.0631824105926
 31
0.0
  0
LINE
  5
A10
330
9ED
100
AcDbEntity
  8
0
 62
     0
100
AcDbLine
 10
105.4146437601328
 20
344.0631824105926
 30
0.0
 11
107.5311437601328
 21
346.1796824105927
 31
0.0
  0
LINE
  5
A11
330
9ED
100
AcDbEntity
  8
0
 62
     0
100
AcDbLine
 10
104.7989107130992
 20
341.6796824105926
 30
0.0
 11
107.1824107130992
 21
344.0631824105926
 31
0.0
  0
LINE
  5
A12
330
9ED
100
AcDbEntity
  8
0
 62
     0
100
AcDbLine
 10
107.1824107130992
 20
344.0631824105926
 30
0.0
 11
109.2989107130992
 21
346.1796824105927
 31
0.0
  0
LINE
  5
A13
330
9ED
100
AcDbEntity
  8
0
 62
     0
100
AcDbLine
 10
106.5666776660656
 20
341.6796824105926
 30
0.0
 11
108.9501776660656
 21
344.0631824105926
 31
0.0
  0
LINE
  5
A14
330
9ED
100
AcDbEntity
  8
0
 62
     0
100
AcDbLine
 10
108.9501776660656
 20
344.0631824105926
 30
0.0
 11
111.0666776660656
 21
346.1796824105927
 31
0.0
  0
LINE
  5
A15
330
9ED
100
AcDbEntity
  8
0
 62
     0
100
AcDbLine
 10
108.3344446190319
 20
341.6796824105926
 30
0.0
 11
110.7179446190319
 21
344.0631824105926
 31
0.0
  0
LINE
  5
A16
330
9ED
100
AcDbEntity
  8
0
 62
     0
100
AcDbLine
 10
110.7179446190319
 20
344.0631824105926
 30
0.0
 11
112.834444619032
 21
346.1796824105927
 31
0.0
  0
LINE
  5
A17
330
9ED
100
AcDbEntity
  8
0
 62
     0
100
AcDbLine
 10
110.1022115719983
 20
341.6796824105926
 30
0.0
 11
112.4857115719983
 21
344.0631824105926
 31
0.0
  0
LINE
  5
A18
330
9ED
100
AcDbEntity
  8
0
 62
     0
100
AcDbLine
 10
112.4857115719983
 20
344.0631824105926
 30
0.0
 11
114.6022115719983
 21
346.1796824105927
 31
0.0
  0
LINE
  5
A19
330
9ED
100
AcDbEntity
  8
0
 62
     0
100
AcDbLine
 10
111.8699785249646
 20
341.6796824105926
 30
0.0
 11
114.2534785249647
 21
344.0631824105926
 31
0.0
  0
LINE
  5
A1A
330
9ED
100
AcDbEntity
  8
0
 62
     0
100
AcDbLine
 10
114.2534785249647
 20
344.0631824105926
 30
0.0
 11
116.3699785249647
 21
346.1796824105927
 31
0.0
  0
LINE
  5
A1B
330
9ED
100
AcDbEntity
  8
0
 62
     0
100
AcDbLine
 10
113.637745477931
 20
341.6796824105926
 30
0.0
 11
116.021245477931
 21
344.0631824105926
 31
0.0
  0
LINE
  5
A1C
330
9ED
100
AcDbEntity
  8
0
 62
     0
100
AcDbLine
 10
116.021245477931
 20
344.0631824105926
 30
0.0
 11
118.137745477931
 21
346.1796824105927
 31
0.0
  0
LINE
  5
A1D
330
9ED
100
AcDbEntity
  8
0
 62
     0
100
AcDbLine
 10
115.4055124308974
 20
341.6796824105926
 30
0.0
 11
117.7890124308974
 21
344.0631824105926
 31
0.0
  0
LINE
  5
A1E
330
9ED
100
AcDbEntity
  8
0
 62
     0
100
AcDbLine
 10
117.7890124308974
 20
344.0631824105926
 30
0.0
 11
118.9116744153807
 21
345.1858443950759
 31
0.0
  0
LINE
  5
A1F
330
9ED
100
AcDbEntity
  8
0
 62
     0
100
AcDbLine
 10
117.1732793838638
 20
341.6796824105926
 30
0.0
 11
118.3518187585331
 21
342.8582217852619
 31
0.0
  0
LINE
  5
A20
330
9ED
100
AcDbEntity
  8
0
 62
     0
100
AcDbLine
 10
100.2620558309995
 20
341.6796824105926
 30
0.0
 11
97.87855583099954
 21
344.0631824105926
 31
0.0
  0
LINE
  5
A21
330
9ED
100
AcDbEntity
  8
0
 62
     0
100
AcDbLine
 10
97.87855583099956
 20
344.0631824105926
 30
0.0
 11
95.76205583099953
 21
346.1796824105927
 31
0.0
  0
LINE
  5
A22
330
9ED
100
AcDbEntity
  8
0
 62
     0
100
AcDbLine
 10
98.49428887803318
 20
341.6796824105926
 30
0.0
 11
96.11078887803317
 21
344.0631824105926
 31
0.0
  0
LINE
  5
A23
330
9ED
100
AcDbEntity
  8
0
 62
     0
100
AcDbLine
 10
96.11078887803319
 20
344.0631824105926
 30
0.0
 11
93.99428887803315
 21
346.1796824105927
 31
0.0
  0
LINE
  5
A24
330
9ED
100
AcDbEntity
  8
0
 62
     0
100
AcDbLine
 10
96.72652192506681
 20
341.6796824105926
 30
0.0
 11
94.34302192506681
 21
344.0631824105926
 31
0.0
  0
LINE
  5
A25
330
9ED
100
AcDbEntity
  8
0
 62
     0
100
AcDbLine
 10
94.34302192506683
 20
344.0631824105926
 30
0.0
 11
92.22652192506679
 21
346.1796824105927
 31
0.0
  0
LINE
  5
A26
330
9ED
100
AcDbEntity
  8
0
 62
     0
100
AcDbLine
 10
94.95875497210043
 20
341.6796824105926
 30
0.0
 11
92.57525497210044
 21
344.0631824105926
 31
0.0
  0
LINE
  5
A27
330
9ED
100
AcDbEntity
  8
0
 62
     0
100
AcDbLine
 10
92.57525497210044
 20
344.0631824105926
 30
0.0
 11
90.45875497210042
 21
346.1796824105927
 31
0.0
  0
LINE
  5
A28
330
9ED
100
AcDbEntity
  8
0
 62
     0
100
AcDbLine
 10
93.19098801913407
 20
341.6796824105926
 30
0.0
 11
90.80748801913406
 21
344.0631824105926
 31
0.0
  0
LINE
  5
A29
330
9ED
100
AcDbEntity
  8
0
 62
     0
100
AcDbLine
 10
90.80748801913408
 20
344.0631824105926
 30
0.0
 11
88.69098801913406
 21
346.1796824105927
 31
0.0
  0
LINE
  5
A2A
330
9ED
100
AcDbEntity
  8
0
 62
     0
100
AcDbLine
 10
91.4232210661677
 20
341.6796824105926
 30
0.0
 11
89.0397210661677
 21
344.0631824105926
 31
0.0
  0
LINE
  5
A2B
330
9ED
100
AcDbEntity
  8
0
 62
     0
100
AcDbLine
 10
89.03972106616771
 20
344.0631824105926
 30
0.0
 11
86.92322106616769
 21
346.1796824105927
 31
0.0
  0
LINE
  5
A2C
330
9ED
100
AcDbEntity
  8
0
 62
     0
100
AcDbLine
 10
89.65545411320134
 20
341.6796824105926
 30
0.0
 11
87.27195411320133
 21
344.0631824105926
 31
0.0
  0
LINE
  5
A2D
330
9ED
100
AcDbEntity
  8
0
 62
     0
100
AcDbLine
 10
87.27195411320135
 20
344.0631824105926
 30
0.0
 11
85.15545411320131
 21
346.1796824105927
 31
0.0
  0
LINE
  5
A2E
330
9ED
100
AcDbEntity
  8
0
 62
     0
100
AcDbLine
 10
87.88768716023495
 20
341.6796824105926
 30
0.0
 11
85.50418716023497
 21
344.0631824105926
 31
0.0
  0
LINE
  5
A2F
330
9ED
100
AcDbEntity
  8
0
 62
     0
100
AcDbLine
 10
85.50418716023498
 20
344.0631824105926
 30
0.0
 11
83.38768716023494
 21
346.1796824105927
 31
0.0
  0
LINE
  5
A30
330
9ED
100
AcDbEntity
  8
0
 62
     0
100
AcDbLine
 10
86.11992020726859
 20
341.6796824105926
 30
0.0
 11
83.7364202072686
 21
344.0631824105926
 31
0.0
  0
LINE
  5
A31
330
9ED
100
AcDbEntity
  8
0
 62
     0
100
AcDbLine
 10
83.7364202072686
 20
344.0631824105926
 30
0.0
 11
81.61992020726856
 21
346.1796824105927
 31
0.0
  0
LINE
  5
A32
330
9ED
100
AcDbEntity
  8
0
 62
     0
100
AcDbLine
 10
84.35215325430222
 20
341.6796824105926
 30
0.0
 11
81.96865325430222
 21
344.0631824105926
 31
0.0
  0
LINE
  5
A33
330
9ED
100
AcDbEntity
  8
0
 62
     0
100
AcDbLine
 10
81.96865325430223
 20
344.0631824105926
 30
0.0
 11
79.85215325430219
 21
346.1796824105927
 31
0.0
  0
LINE
  5
A34
330
9ED
100
AcDbEntity
  8
0
 62
     0
100
AcDbLine
 10
82.58438630133586
 20
341.6796824105926
 30
0.0
 11
80.20088630133585
 21
344.0631824105926
 31
0.0
  0
LINE
  5
A35
330
9ED
100
AcDbEntity
  8
0
 62
     0
100
AcDbLine
 10
80.20088630133587
 20
344.0631824105926
 30
0.0
 11
78.08438630133583
 21
346.1796824105927
 31
0.0
  0
LINE
  5
A36
330
9ED
100
AcDbEntity
  8
0
 62
     0
100
AcDbLine
 10
80.81661934836949
 20
341.6796824105926
 30
0.0
 11
78.43311934836949
 21
344.0631824105926
 31
0.0
  0
LINE
  5
A37
330
9ED
100
AcDbEntity
  8
0
 62
     0
100
AcDbLine
 10
78.4331193483695
 20
344.0631824105926
 30
0.0
 11
77.00349110837217
 21
345.4928106505899
 31
0.0
  0
LINE
  5
A38
330
9ED
100
AcDbEntity
  8
0
 62
     0
100
AcDbLine
 10
79.04885239540312
 20
341.6796824105926
 30
0.0
 11
77.34355006899922
 21
343.3849847369965
 31
0.0
  0
LINE
  5
A39
330
9ED
100
AcDbEntity
  8
0
 62
     0
100
AcDbLine
 10
102.0298227839659
 20
341.6796824105926
 30
0.0
 11
99.64632278396592
 21
344.0631824105926
 31
0.0
  0
LINE
  5
A3A
330
9ED
100
AcDbEntity
  8
0
 62
     0
100
AcDbLine
 10
99.64632278396592
 20
344.0631824105926
 30
0.0
 11
97.5298227839659
 21
346.1796824105927
 31
0.0
  0
LINE
  5
A3B
330
9ED
100
AcDbEntity
  8
0
 62
     0
100
AcDbLine
 10
103.7975897369322
 20
341.6796824105926
 30
0.0
 11
101.4140897369323
 21
344.0631824105926
 31
0.0
  0
LINE
  5
A3C
330
9ED
100
AcDbEntity
  8
0
 62
     0
100
AcDbLine
 10
101.4140897369323
 20
344.0631824105926
 30
0.0
 11
99.29758973693227
 21
346.1796824105927
 31
0.0
  0
LINE
  5
A3D
330
9ED
100
AcDbEntity
  8
0
 62
     0
100
AcDbLine
 10
105.5653566898986
 20
341.6796824105926
 30
0.0
 11
103.1818566898986
 21
344.0631824105926
 31
0.0
  0
LINE
  5
A3E
330
9ED
100
AcDbEntity
  8
0
 62
     0
100
AcDbLine
 10
103.1818566898986
 20
344.0631824105926
 30
0.0
 11
101.0653566898986
 21
346.1796824105927
 31
0.0
  0
LINE
  5
A3F
330
9ED
100
AcDbEntity
  8
0
 62
     0
100
AcDbLine
 10
107.333123642865
 20
341.6796824105926
 30
0.0
 11
104.949623642865
 21
344.0631824105926
 31
0.0
  0
LINE
  5
A40
330
9ED
100
AcDbEntity
  8
0
 62
     0
100
AcDbLine
 10
104.949623642865
 20
344.0631824105926
 30
0.0
 11
102.833123642865
 21
346.1796824105927
 31
0.0
  0
LINE
  5
A41
330
9ED
100
AcDbEntity
  8
0
 62
     0
100
AcDbLine
 10
109.1008905958314
 20
341.6796824105926
 30
0.0
 11
106.7173905958314
 21
344.0631824105926
 31
0.0
  0
LINE
  5
A42
330
9ED
100
AcDbEntity
  8
0
 62
     0
100
AcDbLine
 10
106.7173905958314
 20
344.0631824105926
 30
0.0
 11
104.6008905958313
 21
346.1796824105927
 31
0.0
  0
LINE
  5
A43
330
9ED
100
AcDbEntity
  8
0
 62
     0
100
AcDbLine
 10
110.8686575487977
 20
341.6796824105926
 30
0.0
 11
108.4851575487977
 21
344.0631824105926
 31
0.0
  0
LINE
  5
A44
330
9ED
100
AcDbEntity
  8
0
 62
     0
100
AcDbLine
 10
108.4851575487977
 20
344.0631824105926
 30
0.0
 11
106.3686575487977
 21
346.1796824105927
 31
0.0
  0
LINE
  5
A45
330
9ED
100
AcDbEntity
  8
0
 62
     0
100
AcDbLine
 10
112.6364245017641
 20
341.6796824105926
 30
0.0
 11
110.2529245017641
 21
344.0631824105926
 31
0.0
  0
LINE
  5
A46
330
9ED
100
AcDbEntity
  8
0
 62
     0
100
AcDbLine
 10
110.2529245017641
 20
344.0631824105926
 30
0.0
 11
108.1364245017641
 21
346.1796824105927
 31
0.0
  0
LINE
  5
A47
330
9ED
100
AcDbEntity
  8
0
 62
     0
100
AcDbLine
 10
114.4041914547305
 20
341.6796824105926
 30
0.0
 11
112.0206914547305
 21
344.0631824105926
 31
0.0
  0
LINE
  5
A48
330
9ED
100
AcDbEntity
  8
0
 62
     0
100
AcDbLine
 10
112.0206914547305
 20
344.0631824105926
 30
0.0
 11
109.9041914547305
 21
346.1796824105927
 31
0.0
  0
LINE
  5
A49
330
9ED
100
AcDbEntity
  8
0
 62
     0
100
AcDbLine
 10
116.1719584076968
 20
341.6796824105926
 30
0.0
 11
113.7884584076968
 21
344.0631824105926
 31
0.0
  0
LINE
  5
A4A
330
9ED
100
AcDbEntity
  8
0
 62
     0
100
AcDbLine
 10
113.7884584076969
 20
344.0631824105926
 30
0.0
 11
111.6719584076968
 21
346.1796824105927
 31
0.0
  0
LINE
  5
A4B
330
9ED
100
AcDbEntity
  8
0
 62
     0
100
AcDbLine
 10
117.9397253606632
 20
341.6796824105926
 30
0.0
 11
115.5562253606632
 21
344.0631824105926
 31
0.0
  0
LINE
  5
A4C
330
9ED
100
AcDbEntity
  8
0
 62
     0
100
AcDbLine
 10
115.5562253606632
 20
344.0631824105926
 30
0.0
 11
113.4397253606632
 21
346.1796824105927
 31
0.0
  0
LINE
  5
A4D
330
9ED
100
AcDbEntity
  8
0
 62
     0
100
AcDbLine
 10
118.3865126779004
 20
343.0006620463218
 30
0.0
 11
117.3239923136296
 21
344.0631824105926
 31
0.0
  0
LINE
  5
A4E
330
9ED
100
AcDbEntity
  8
0
 62
     0
100
AcDbLine
 10
117.3239923136296
 20
344.0631824105926
 30
0.0
 11
115.2074923136296
 21
346.1796824105927
 31
0.0
  0
LINE
  5
A4F
330
9ED
100
AcDbEntity
  8
0
 62
     0
100
AcDbLine
 10
118.7302538595879
 20
344.4246878176007
 30
0.0
 11
116.9752592665959
 21
346.1796824105927
 31
0.0
  0
LINE
  5
A50
330
9ED
100
AcDbEntity
  8
0
 62
     0
100
AcDbLine
 10
119.0694324165659
 20
345.853276213589
 30
0.0
 11
118.7430262195623
 21
346.1796824105927
 31
0.0
  0
ENDBLK
  5
A51
330
9ED
100
AcDbEntity
  8
0
100
AcDbBlockEnd
  0
BLOCK
  5
A53
330
A52
100
AcDbEntity
  8
0
100
AcDbBlockBegin
  2
*X7
 70
     1
 10
0.0
 20
0.0
 30
0.0
  3
*X7
  1

  0
LINE
  5
A54
330
A52
100
AcDbEntity
  8
0
 62
     0
100
AcDbLine
 10
99.32659152853659
 20
351.2333823262441
 30
0.0
 11
103.2728916128851
 21
355.1796824105927
 31
0.0
  0
LINE
  5
A55
330
A52
100
AcDbEntity
  8
0
 62
     0
100
AcDbLine
 10
107.1846763163772
 20
359.0914671140847
 30
0.0
 11
111.3265915285366
 21
363.2333823262441
 31
0.0
  0
LINE
  5
A56
330
A52
100
AcDbEntity
  8
0
 62
     0
100
AcDbLine
 10
99.32659152853659
 20
353.8850327556937
 30
0.0
 11
100.6212411834354
 21
355.1796824105925
 31
0.0
  0
LINE
  5
A57
330
A52
100
AcDbEntity
  8
0
 62
     0
100
AcDbLine
 10
106.065714678643
 20
360.6241559058001
 30
0.0
 11
110.4739163559861
 21
365.0323575831432
 31
0.0
  0
LINE
  5
A58
330
A52
100
AcDbEntity
  8
0
 62
     0
100
AcDbLine
 10
103.969590753986
 20
361.1796824105927
 30
0.0
 11
107.969590753986
 21
365.1796824105927
 31
0.0
  0
LINE
  5
A59
330
A52
100
AcDbEntity
  8
0
 62
     0
100
AcDbLine
 10
101.3179403245364
 20
361.1796824105927
 30
0.0
 11
105.3179403245364
 21
365.1796824105927
 31
0.0
  0
LINE
  5
A5A
330
A52
100
AcDbEntity
  8
0
 62
     0
100
AcDbLine
 10
99.32659152853659
 20
361.8399840440424
 30
0.0
 11
102.6662898950869
 21
365.1796824105927
 31
0.0
  0
LINE
  5
A5B
330
A52
100
AcDbEntity
  8
0
 62
     0
100
AcDbLine
 10
99.32659152853659
 20
364.4916344734919
 30
0.0
 11
100.0146394656373
 21
365.1796824105927
 31
0.0
  0
LINE
  5
A5C
330
A52
100
AcDbEntity
  8
0
 62
     0
100
AcDbLine
 10
100.9245420423346
 20
350.1796824105927
 30
0.0
 11
111.3265915285366
 21
360.5817318967946
 31
0.0
  0
LINE
  5
A5D
330
A52
100
AcDbEntity
  8
0
 62
     0
100
AcDbLine
 10
103.5761924717842
 20
350.1796824105927
 30
0.0
 11
111.3265915285367
 21
357.9300814673451
 31
0.0
  0
LINE
  5
A5E
330
A52
100
AcDbEntity
  8
0
 62
     0
100
AcDbLine
 10
106.6376597012022
 20
350.5894992105611
 30
0.0
 11
110.0484274314153
 21
354.0002669407741
 31
0.0
  0
LINE
  5
A5F
330
A52
100
AcDbEntity
  8
0
 62
     0
100
AcDbLine
 10
110.9778429012336
 20
354.9296824105925
 30
0.0
 11
111.3265915285367
 21
355.2784310378956
 31
0.0
  0
LINE
  5
A60
330
A52
100
AcDbEntity
  8
0
 62
     0
100
AcDbLine
 10
109.0589369927018
 20
352.3282377315203
 30
0.0
 11
105.8132345407556
 21
355.5739401834665
 31
0.0
  0
LINE
  5
A61
330
A52
100
AcDbEntity
  8
0
 62
     0
100
AcDbLine
 10
100.2074923136295
 20
361.1796824105927
 30
0.0
 11
99.32659152853659
 21
362.0605831956857
 31
0.0
  0
LINE
  5
A62
330
A52
100
AcDbEntity
  8
0
 62
     0
100
AcDbLine
 10
107.6416792361339
 20
351.0938450586387
 30
0.0
 11
103.55584188418
 21
355.1796824105927
 31
0.0
  0
LINE
  5
A63
330
A52
100
AcDbEntity
  8
0
 62
     0
100
AcDbLine
 10
105.7610433732839
 20
350.3228304920392
 30
0.0
 11
100.9041914547305
 21
355.1796824105925
 31
0.0
  0
LINE
  5
A64
330
A52
100
AcDbEntity
  8
0
 62
     0
100
AcDbLine
 10
103.2525410252809
 20
350.1796824105927
 30
0.0
 11
99.32659152853659
 21
354.105631907337
 31
0.0
  0
LINE
  5
A65
330
A52
100
AcDbEntity
  8
0
 62
     0
100
AcDbLine
 10
100.6008905958313
 20
350.1796824105927
 30
0.0
 11
99.32659152853659
 21
351.4539814778874
 31
0.0
  0
LINE
  5
A66
330
A52
100
AcDbEntity
  8
0
 62
     0
100
AcDbLine
 10
110.0456553250022
 20
353.9931698286695
 30
0.0
 11
107.0709524963788
 21
356.967872657293
 31
0.0
  0
LINE
  5
A67
330
A52
100
AcDbEntity
  8
0
 62
     0
100
AcDbLine
 10
102.8591427430791
 20
361.1796824105927
 30
0.0
 11
99.32659152853659
 21
364.7122336251352
 31
0.0
  0
LINE
  5
A68
330
A52
100
AcDbEntity
  8
0
 62
     0
100
AcDbLine
 10
111.3265915285367
 20
355.3638840545846
 30
0.0
 11
106.7695686116381
 21
359.9209069714832
 31
0.0
  0
LINE
  5
A69
330
A52
100
AcDbEntity
  8
0
 62
     0
100
AcDbLine
 10
106.0678160894271
 20
360.6226594936942
 30
0.0
 11
101.5107931725286
 21
365.1796824105927
 31
0.0
  0
LINE
  5
A6A
330
A52
100
AcDbEntity
  8
0
 62
     0
100
AcDbLine
 10
111.3265915285367
 20
358.0155344840342
 30
0.0
 11
104.1624436019782
 21
365.1796824105927
 31
0.0
  0
LINE
  5
A6B
330
A52
100
AcDbEntity
  8
0
 62
     0
100
AcDbLine
 10
111.3265915285366
 20
360.6671849134838
 30
0.0
 11
106.8140940314277
 21
365.1796824105927
 31
0.0
  0
LINE
  5
A6C
330
A52
100
AcDbEntity
  8
0
 62
     0
100
AcDbLine
 10
111.3265915285366
 20
363.3188353429334
 30
0.0
 11
109.4657444608773
 21
365.1796824105927
 31
0.0
  0
ENDBLK
  5
A6D
330
A52
100
AcDbEntity
  8
0
100
AcDbBlockEnd
  0
BLOCK
  5
A6F
330
A6E
100
AcDbEntity
  8
0
100
AcDbBlockBegin
  2
*X8
 70
     1
 10
0.0
 20
0.0
 30
0.0
  3
*X8
  1

  0
LINE
  5
A70
330
A6E
100
AcDbEntity
  8
0
 62
     0
100
AcDbLine
 10
110.3265915285367
 20
347.2073632260301
 30
0.0
 11
114.8265915285366
 21
351.70736322603
 31
0.0
  0
LINE
  5
A71
330
A6E
100
AcDbEntity
  8
0
 62
     0
100
AcDbLine
 10
110.3265915285367
 20
350.7428971319628
 30
0.0
 11
114.8265915285366
 21
355.2428971319628
 31
0.0
  0
LINE
  5
A72
330
A6E
100
AcDbEntity
  8
0
 62
     0
100
AcDbLine
 10
119.7633768071664
 20
360.1796824105926
 30
0.0
 11
122.5325612558795
 21
362.9488668593056
 31
0.0
  0
LINE
  5
A73
330
A6E
100
AcDbEntity
  8
0
 62
     0
100
AcDbLine
 10
110.3265915285367
 20
354.2784310378956
 30
0.0
 11
110.7278429012336
 21
354.6796824105925
 31
0.0
  0
LINE
  5
A74
330
A6E
100
AcDbEntity
  8
0
 62
     0
100
AcDbLine
 10
116.2278429012337
 20
360.1796824105926
 30
0.0
 11
121.2278429012337
 21
365.1796824105927
 31
0.0
  0
LINE
  5
A75
330
A6E
100
AcDbEntity
  8
0
 62
     0
100
AcDbLine
 10
111.3265915285367
 20
355.2784310378956
 30
0.0
 11
114.8265915285366
 21
358.7784310378955
 31
0.0
  0
LINE
  5
A76
330
A6E
100
AcDbEntity
  8
0
 62
     0
100
AcDbLine
 10
111.3265915285367
 20
358.8139649438283
 30
0.0
 11
117.692308995301
 21
365.1796824105927
 31
0.0
  0
LINE
  5
A77
330
A6E
100
AcDbEntity
  8
0
 62
     0
100
AcDbLine
 10
111.3265915285366
 20
362.349498849761
 30
0.0
 11
114.1567750893683
 21
365.1796824105927
 31
0.0
  0
LINE
  5
A78
330
A6E
100
AcDbEntity
  8
0
 62
     0
100
AcDbLine
 10
112.834444619032
 20
346.1796824105927
 30
0.0
 11
116.8344446190319
 21
350.1796824105926
 31
0.0
  0
LINE
  5
A79
330
A6E
100
AcDbEntity
  8
0
 62
     0
100
AcDbLine
 10
116.3699785249647
 20
346.1796824105927
 30
0.0
 11
119.9732916576705
 21
349.7829955432985
 31
0.0
  0
LINE
  5
A7A
330
A6E
100
AcDbEntity
  8
0
 62
     0
100
AcDbLine
 10
120.059271705192
 20
350.166737783862
 30
0.0
 11
120.0463270784615
 21
350.1796824105926
 31
0.0
  0
LINE
  5
A7B
330
A6E
100
AcDbEntity
  8
0
 62
     0
100
AcDbLine
 10
114.8265915285366
 20
355.3994179605175
 30
0.0
 11
111.3265915285367
 21
358.8994179605174
 31
0.0
  0
LINE
  5
A7C
330
A6E
100
AcDbEntity
  8
0
 62
     0
100
AcDbLine
 10
119.4040165705387
 20
347.2864590125826
 30
0.0
 11
116.5107931725287
 21
350.1796824105926
 31
0.0
  0
LINE
  5
A7D
330
A6E
100
AcDbEntity
  8
0
 62
     0
100
AcDbLine
 10
114.8265915285366
 20
351.8638840545847
 30
0.0
 11
111.3265915285367
 21
355.3638840545846
 31
0.0
  0
LINE
  5
A7E
330
A6E
100
AcDbEntity
  8
0
 62
     0
100
AcDbLine
 10
116.9752592665959
 20
346.1796824105927
 30
0.0
 11
110.3265915285367
 21
352.8283501486519
 31
0.0
  0
LINE
  5
A7F
330
A6E
100
AcDbEntity
  8
0
 62
     0
100
AcDbLine
 10
113.4397253606632
 20
346.1796824105927
 30
0.0
 11
110.3265915285367
 21
349.2928162427191
 31
0.0
  0
LINE
  5
A80
330
A6E
100
AcDbEntity
  8
0
 62
     0
100
AcDbLine
 10
114.8265915285366
 20
358.9349518664502
 30
0.0
 11
111.3265915285366
 21
362.4349518664502
 31
0.0
  0
LINE
  5
A81
330
A6E
100
AcDbEntity
  8
0
 62
     0
100
AcDbLine
 10
117.1173948903269
 20
360.1796824105926
 30
0.0
 11
112.1173948903269
 21
365.1796824105927
 31
0.0
  0
LINE
  5
A82
330
A6E
100
AcDbEntity
  8
0
 62
     0
100
AcDbLine
 10
120.6529287962597
 20
360.1796824105926
 30
0.0
 11
115.6529287962596
 21
365.1796824105927
 31
0.0
  0
LINE
  5
A83
330
A6E
100
AcDbEntity
  8
0
 62
     0
100
AcDbLine
 10
122.3741045002656
 20
361.9940406125194
 30
0.0
 11
119.1884627021924
 21
365.1796824105927
 31
0.0
  0
LINE
  5
A84
330
A6E
100
AcDbEntity
  8
0
 62
     0
100
AcDbLine
 10
122.8655580827428
 20
365.0381209359749
 30
0.0
 11
122.7239966081251
 21
365.1796824105927
 31
0.0
  0
ENDBLK
  5
A85
330
A6E
100
AcDbEntity
  8
0
100
AcDbBlockEnd
  0
BLOCK
  5
AD4
330
AD3
100
AcDbEntity
  8
0
100
AcDbBlockBegin
  2
*X9
 70
     1
 10
0.0
 20
0.0
 30
0.0
  3
*X9
  1

  0
LINE
  5
AD5
330
AD3
100
AcDbEntity
  8
0
 62
     0
100
AcDbLine
 10
562.8147799592169
 20
285.7133574646401
 30
0.0
 11
561.2147799592169
 21
287.3133574646401
 31
0.0
  0
LINE
  5
AD6
330
AD3
100
AcDbEntity
  8
0
 62
     0
100
AcDbLine
 10
491.414779959217
 20
357.11335746464
 30
0.0
 11
489.814779959217
 21
358.7133574646399
 31
0.0
  0
LINE
  5
AD7
330
AD3
100
AcDbEntity
  8
0
 62
     0
100
AcDbLine
 10
559.9863528344707
 20
285.7133574646401
 30
0.0
 11
558.3863528344706
 21
287.3133574646401
 31
0.0
  0
LINE
  5
AD8
330
AD3
100
AcDbEntity
  8
0
 62
     0
100
AcDbLine
 10
488.5863528344707
 20
357.11335746464
 30
0.0
 11
486.9863528344708
 21
358.7133574646399
 31
0.0
  0
LINE
  5
AD9
330
AD3
100
AcDbEntity
  8
0
 62
     0
100
AcDbLine
 10
557.1579257097245
 20
285.7133574646401
 30
0.0
 11
555.5579257097244
 21
287.3133574646401
 31
0.0
  0
LINE
  5
ADA
330
AD3
100
AcDbEntity
  8
0
 62
     0
100
AcDbLine
 10
485.7579257097246
 20
357.11335746464
 30
0.0
 11
484.1579257097246
 21
358.7133574646399
 31
0.0
  0
LINE
  5
ADB
330
AD3
100
AcDbEntity
  8
0
 62
     0
100
AcDbLine
 10
554.3294985849782
 20
285.7133574646401
 30
0.0
 11
552.7294985849782
 21
287.3133574646401
 31
0.0
  0
LINE
  5
ADC
330
AD3
100
AcDbEntity
  8
0
 62
     0
100
AcDbLine
 10
482.9294985849784
 20
357.11335746464
 30
0.0
 11
482.5791195534093
 21
357.463736496209
 31
0.0
  0
LINE
  5
ADD
330
AD3
100
AcDbEntity
  8
0
 62
     0
100
AcDbLine
 10
551.501071460232
 20
285.7133574646401
 30
0.0
 11
549.901071460232
 21
287.3133574646401
 31
0.0
  0
LINE
  5
ADE
330
AD3
100
AcDbEntity
  8
0
 62
     0
100
AcDbLine
 10
548.672644335486
 20
285.7133574646401
 30
0.0
 11
547.0726443354859
 21
287.3133574646401
 31
0.0
  0
LINE
  5
ADF
330
AD3
100
AcDbEntity
  8
0
 62
     0
100
AcDbLine
 10
545.8442172107397
 20
285.7133574646401
 30
0.0
 11
544.2442172107397
 21
287.3133574646401
 31
0.0
  0
LINE
  5
AE0
330
AD3
100
AcDbEntity
  8
0
 62
     0
100
AcDbLine
 10
543.0157900859935
 20
285.7133574646401
 30
0.0
 11
541.4157900859935
 21
287.3133574646401
 31
0.0
  0
LINE
  5
AE1
330
AD3
100
AcDbEntity
  8
0
 62
     0
100
AcDbLine
 10
540.1873629612473
 20
285.7133574646401
 30
0.0
 11
538.5873629612473
 21
287.3133574646401
 31
0.0
  0
LINE
  5
AE2
330
AD3
100
AcDbEntity
  8
0
 62
     0
100
AcDbLine
 10
537.3589358365012
 20
285.7133574646401
 30
0.0
 11
535.7589358365011
 21
287.3133574646401
 31
0.0
  0
LINE
  5
AE3
330
AD3
100
AcDbEntity
  8
0
 62
     0
100
AcDbLine
 10
534.530508711755
 20
285.7133574646401
 30
0.0
 11
532.9305087117549
 21
287.3133574646401
 31
0.0
  0
LINE
  5
AE4
330
AD3
100
AcDbEntity
  8
0
 62
     0
100
AcDbLine
 10
531.7020815870088
 20
285.7133574646401
 30
0.0
 11
530.1020815870088
 21
287.3133574646401
 31
0.0
  0
LINE
  5
AE5
330
AD3
100
AcDbEntity
  8
0
 62
     0
100
AcDbLine
 10
528.8736544622626
 20
285.7133574646401
 30
0.0
 11
527.2736544622626
 21
287.3133574646401
 31
0.0
  0
LINE
  5
AE6
330
AD3
100
AcDbEntity
  8
0
 62
     0
100
AcDbLine
 10
526.0452273375164
 20
285.71335746464
 30
0.0
 11
524.4452273375164
 21
287.3133574646401
 31
0.0
  0
LINE
  5
AE7
330
AD3
100
AcDbEntity
  8
0
 62
     0
100
AcDbLine
 10
523.2168002127703
 20
285.71335746464
 30
0.0
 11
521.6168002127701
 21
287.3133574646401
 31
0.0
  0
LINE
  5
AE8
330
AD3
100
AcDbEntity
  8
0
 62
     0
100
AcDbLine
 10
520.3883730880241
 20
285.71335746464
 30
0.0
 11
518.7883730880239
 21
287.3133574646401
 31
0.0
  0
LINE
  5
AE9
330
AD3
100
AcDbEntity
  8
0
 62
     0
100
AcDbLine
 10
517.5599459632779
 20
285.71335746464
 30
0.0
 11
515.9599459632778
 21
287.3133574646401
 31
0.0
  0
LINE
  5
AEA
330
AD3
100
AcDbEntity
  8
0
 62
     0
100
AcDbLine
 10
514.7315188385316
 20
285.71335746464
 30
0.0
 11
513.1315188385316
 21
287.3133574646401
 31
0.0
  0
LINE
  5
AEB
330
AD3
100
AcDbEntity
  8
0
 62
     0
100
AcDbLine
 10
511.9030917137854
 20
285.71335746464
 30
0.0
 11
510.3030917137854
 21
287.3133574646401
 31
0.0
  0
LINE
  5
AEC
330
AD3
100
AcDbEntity
  8
0
 62
     0
100
AcDbLine
 10
509.0746645890392
 20
285.71335746464
 30
0.0
 11
507.4746645890392
 21
287.3133574646401
 31
0.0
  0
LINE
  5
AED
330
AD3
100
AcDbEntity
  8
0
 62
     0
100
AcDbLine
 10
506.2462374642931
 20
285.71335746464
 30
0.0
 11
504.646237464293
 21
287.3133574646401
 31
0.0
  0
LINE
  5
AEE
330
AD3
100
AcDbEntity
  8
0
 62
     0
100
AcDbLine
 10
503.4178103395468
 20
285.71335746464
 30
0.0
 11
501.8178103395468
 21
287.3133574646401
 31
0.0
  0
LINE
  5
AEF
330
AD3
100
AcDbEntity
  8
0
 62
     0
100
AcDbLine
 10
500.5893832148007
 20
285.71335746464
 30
0.0
 11
498.9893832148006
 21
287.3133574646401
 31
0.0
  0
LINE
  5
AF0
330
AD3
100
AcDbEntity
  8
0
 62
     0
100
AcDbLine
 10
497.7609560900545
 20
285.71335746464
 30
0.0
 11
496.1609560900544
 21
287.3133574646401
 31
0.0
  0
LINE
  5
AF1
330
AD3
100
AcDbEntity
  8
0
 62
     0
100
AcDbLine
 10
494.9325289653083
 20
285.71335746464
 30
0.0
 11
493.3325289653082
 21
287.3133574646401
 31
0.0
  0
LINE
  5
AF2
330
AD3
100
AcDbEntity
  8
0
 62
     0
100
AcDbLine
 10
492.1041018405621
 20
285.71335746464
 30
0.0
 11
490.504101840562
 21
287.3133574646401
 31
0.0
  0
LINE
  5
AF3
330
AD3
100
AcDbEntity
  8
0
 62
     0
100
AcDbLine
 10
489.2756747158159
 20
285.71335746464
 30
0.0
 11
487.6756747158158
 21
287.3133574646401
 31
0.0
  0
LINE
  5
AF4
330
AD3
100
AcDbEntity
  8
0
 62
     0
100
AcDbLine
 10
486.4472475910698
 20
285.71335746464
 30
0.0
 11
484.8472475910697
 21
287.3133574646401
 31
0.0
  0
LINE
  5
AF5
330
AD3
100
AcDbEntity
  8
0
 62
     0
100
AcDbLine
 10
483.6188204663236
 20
285.71335746464
 30
0.0
 11
482.9446090152734
 21
286.3875689156902
 31
0.0
  0
LINE
  5
AF6
330
AD3
100
AcDbEntity
  8
0
 62
     0
100
AcDbLine
 10
565.643207083963
 20
285.7133574646401
 30
0.0
 11
564.0432070839629
 21
287.3133574646401
 31
0.0
  0
LINE
  5
AF7
330
AD3
100
AcDbEntity
  8
0
 62
     0
100
AcDbLine
 10
494.2432070839632
 20
357.11335746464
 30
0.0
 11
492.6432070839632
 21
358.7133574646399
 31
0.0
  0
LINE
  5
AF8
330
AD3
100
AcDbEntity
  8
0
 62
     0
100
AcDbLine
 10
568.4716342087092
 20
285.7133574646401
 30
0.0
 11
566.8716342087092
 21
287.3133574646401
 31
0.0
  0
LINE
  5
AF9
330
AD3
100
AcDbEntity
  8
0
 62
     0
100
AcDbLine
 10
497.0716342087093
 20
357.11335746464
 30
0.0
 11
495.4716342087094
 21
358.7133574646399
 31
0.0
  0
LINE
  5
AFA
330
AD3
100
AcDbEntity
  8
0
 62
     0
100
AcDbLine
 10
571.3000613334554
 20
285.7133574646401
 30
0.0
 11
569.7000613334554
 21
287.3133574646401
 31
0.0
  0
LINE
  5
AFB
330
AD3
100
AcDbEntity
  8
0
 62
     0
100
AcDbLine
 10
499.9000613334555
 20
357.11335746464
 30
0.0
 11
498.3000613334556
 21
358.7133574646399
 31
0.0
  0
LINE
  5
AFC
330
AD3
100
AcDbEntity
  8
0
 62
     0
100
AcDbLine
 10
502.7284884582017
 20
357.11335746464
 30
0.0
 11
501.1284884582018
 21
358.7133574646399
 31
0.0
  0
LINE
  5
AFD
330
AD3
100
AcDbEntity
  8
0
 62
     0
100
AcDbLine
 10
505.5569155829479
 20
357.11335746464
 30
0.0
 11
503.956915582948
 21
358.7133574646399
 31
0.0
  0
LINE
  5
AFE
330
AD3
100
AcDbEntity
  8
0
 62
     0
100
AcDbLine
 10
508.3853427076941
 20
357.11335746464
 30
0.0
 11
506.7853427076941
 21
358.7133574646399
 31
0.0
  0
ENDBLK
  5
AFF
330
AD3
100
AcDbEntity
  8
0
100
AcDbBlockEnd
  0
BLOCK
  5
B01
330
B00
100
AcDbEntity
  8
0
100
AcDbBlockBegin
  2
*X10
 70
     1
 10
0.0
 20
0.0
 30
0.0
  3
*X10
  1

  0
LINE
  5
B02
330
B00
100
AcDbEntity
  8
0
 62
     0
100
AcDbLine
 10
517.6591003195889
 20
294.2133574646399
 30
0.0
 11
519.259100319589
 21
295.8133574646401
 31
0.0
  0
LINE
  5
B03
330
B00
100
AcDbEntity
  8
0
 62
     0
100
AcDbLine
 10
514.8306731948427
 20
294.2133574646399
 30
0.0
 11
516.4306731948429
 21
295.8133574646401
 31
0.0
  0
LINE
  5
B04
330
B00
100
AcDbEntity
  8
0
 62
     0
100
AcDbLine
 10
512.0022460700965
 20
294.2133574646399
 30
0.0
 11
513.6022460700967
 21
295.8133574646401
 31
0.0
  0
LINE
  5
B05
330
B00
100
AcDbEntity
  8
0
 62
     0
100
AcDbLine
 10
509.1738189453503
 20
294.2133574646399
 30
0.0
 11
510.7738189453505
 21
295.8133574646401
 31
0.0
  0
LINE
  5
B06
330
B00
100
AcDbEntity
  8
0
 62
     0
100
AcDbLine
 10
506.3855008616011
 20
294.2534665056369
 30
0.0
 11
507.9453918206043
 21
295.8133574646401
 31
0.0
  0
LINE
  5
B07
330
B00
100
AcDbEntity
  8
0
 62
     0
100
AcDbLine
 10
507.0052764504266
 20
348.61335746464
 30
0.0
 11
508.6052764504266
 21
350.2133574646399
 31
0.0
  0
LINE
  5
B08
330
B00
100
AcDbEntity
  8
0
 62
     0
100
AcDbLine
 10
520.4875274443351
 20
294.2133574646399
 30
0.0
 11
522.0875274443352
 21
295.8133574646401
 31
0.0
  0
LINE
  5
B09
330
B00
100
AcDbEntity
  8
0
 62
     0
100
AcDbLine
 10
523.3159545690813
 20
294.2133574646399
 30
0.0
 11
524.9159545690814
 21
295.8133574646401
 31
0.0
  0
LINE
  5
B0A
330
B00
100
AcDbEntity
  8
0
 62
     0
100
AcDbLine
 10
526.1443816938275
 20
294.2133574646399
 30
0.0
 11
527.7443816938276
 21
295.8133574646401
 31
0.0
  0
LINE
  5
B0B
330
B00
100
AcDbEntity
  8
0
 62
     0
100
AcDbLine
 10
528.9728088185736
 20
294.2133574646399
 30
0.0
 11
530.5728088185738
 21
295.8133574646401
 31
0.0
  0
LINE
  5
B0C
330
B00
100
AcDbEntity
  8
0
 62
     0
100
AcDbLine
 10
531.8012359433198
 20
294.2133574646399
 30
0.0
 11
533.40123594332
 21
295.8133574646401
 31
0.0
  0
LINE
  5
B0D
330
B00
100
AcDbEntity
  8
0
 62
     0
100
AcDbLine
 10
534.6296630680661
 20
294.2133574646399
 30
0.0
 11
536.2296630680662
 21
295.8133574646401
 31
0.0
  0
LINE
  5
B0E
330
B00
100
AcDbEntity
  8
0
 62
     0
100
AcDbLine
 10
537.4580901928123
 20
294.2133574646399
 30
0.0
 11
539.0580901928124
 21
295.8133574646401
 31
0.0
  0
LINE
  5
B0F
330
B00
100
AcDbEntity
  8
0
 62
     0
100
AcDbLine
 10
540.2865173175585
 20
294.2133574646399
 30
0.0
 11
541.8865173175586
 21
295.8133574646401
 31
0.0
  0
LINE
  5
B10
330
B00
100
AcDbEntity
  8
0
 62
     0
100
AcDbLine
 10
543.1149444423046
 20
294.2133574646399
 30
0.0
 11
544.7149444423048
 21
295.8133574646401
 31
0.0
  0
LINE
  5
B11
330
B00
100
AcDbEntity
  8
0
 62
     0
100
AcDbLine
 10
545.9433715670508
 20
294.2133574646399
 30
0.0
 11
547.5433715670511
 21
295.8133574646401
 31
0.0
  0
LINE
  5
B12
330
B00
100
AcDbEntity
  8
0
 62
     0
100
AcDbLine
 10
548.771798691797
 20
294.2133574646399
 30
0.0
 11
550.3717986917971
 21
295.8133574646401
 31
0.0
  0
LINE
  5
B13
330
B00
100
AcDbEntity
  8
0
 62
     0
100
AcDbLine
 10
551.6002258165432
 20
294.2133574646399
 30
0.0
 11
553.0875897042242
 21
295.7007213523209
 31
0.0
  0
LINE
  5
B14
330
B00
100
AcDbEntity
  8
0
 62
     0
100
AcDbLine
 10
554.0508266084493
 20
293.8355311317998
 30
0.0
 11
555.3042758011295
 21
295.08898032448
 31
0.0
  0
LINE
  5
B15
330
B00
100
AcDbEntity
  8
0
 62
     0
100
AcDbLine
 10
556.1296183639679
 20
293.0858957625722
 30
0.0
 11
557.3779479779037
 21
294.3342253765081
 31
0.0
  0
LINE
  5
B16
330
B00
100
AcDbEntity
  8
0
 62
     0
100
AcDbLine
 10
558.2032905407422
 20
292.3311408146004
 30
0.0
 11
559.4516201546781
 21
293.5794704285363
 31
0.0
  0
LINE
  5
B17
330
B00
100
AcDbEntity
  8
0
 62
     0
100
AcDbLine
 10
560.2769627175166
 20
291.5763858666285
 30
0.0
 11
561.5252923314524
 21
292.8247154805644
 31
0.0
  0
LINE
  5
B18
330
B00
100
AcDbEntity
  8
0
 62
     0
100
AcDbLine
 10
562.3506348942909
 20
290.8216309186567
 30
0.0
 11
563.5989645082267
 21
292.0699605325925
 31
0.0
  0
LINE
  5
B19
330
B00
100
AcDbEntity
  8
0
 62
     0
100
AcDbLine
 10
564.4243070710652
 20
290.0668759706849
 30
0.0
 11
565.672636685001
 21
291.3152055846207
 31
0.0
  0
LINE
  5
B1A
330
B00
100
AcDbEntity
  8
0
 62
     0
100
AcDbLine
 10
566.4979792478397
 20
289.312121022713
 30
0.0
 11
567.7463088617754
 21
290.5604506366488
 31
0.0
  0
LINE
  5
B1B
330
B00
100
AcDbEntity
  8
0
 62
     0
100
AcDbLine
 10
568.5716514246139
 20
288.5573660747411
 30
0.0
 11
569.8199810385497
 21
289.805695688677
 31
0.0
  0
LINE
  5
B1C
330
B00
100
AcDbEntity
  8
0
 62
     0
100
AcDbLine
 10
570.6453236013883
 20
287.8026111267693
 30
0.0
 11
571.893653215324
 21
289.0509407407051
 31
0.0
  0
LINE
  5
B1D
330
B00
100
AcDbEntity
  8
0
 62
     0
100
AcDbLine
 10
572.7189957781625
 20
287.0478561787974
 30
0.0
 11
573.9673253920983
 21
288.2961857927332
 31
0.0
  0
LINE
  5
B1E
330
B00
100
AcDbEntity
  8
0
 62
     0
100
AcDbLine
 10
574.7985241569514
 20
286.2989574328401
 30
0.0
 11
576.0951305227039
 21
287.5955637985926
 31
0.0
  0
LINE
  5
B1F
330
B00
100
AcDbEntity
  8
0
 62
     0
100
AcDbLine
 10
577.1210130667911
 20
285.7930192179335
 30
0.0
 11
578.6413513134975
 21
287.31335746464
 31
0.0
  0
LINE
  5
B20
330
B00
100
AcDbEntity
  8
0
 62
     0
100
AcDbLine
 10
579.8697784382437
 20
285.7133574646399
 30
0.0
 11
579.9147654643642
 21
285.7583444907605
 31
0.0
  0
ENDBLK
  5
B21
330
B00
100
AcDbEntity
  8
0
100
AcDbBlockEnd
  0
BLOCK
  5
B23
330
B22
100
AcDbEntity
  8
0
100
AcDbBlockBegin
  2
*X11
 70
     1
 10
0.0
 20
0.0
 30
0.0
  3
*X11
  1

  0
LINE
  5
B24
330
B22
100
AcDbEntity
  8
0
 62
     0
100
AcDbLine
 10
381.1061220941155
 20
357.11335746464
 30
0.0
 11
379.5061220941156
 21
358.7133574646399
 31
0.0
  0
LINE
  5
B25
330
B22
100
AcDbEntity
  8
0
 62
     0
100
AcDbLine
 10
378.2776949693693
 20
357.11335746464
 30
0.0
 11
376.6776949693694
 21
358.7133574646399
 31
0.0
  0
LINE
  5
B26
330
B22
100
AcDbEntity
  8
0
 62
     0
100
AcDbLine
 10
375.4492678446231
 20
357.11335746464
 30
0.0
 11
373.8492678446232
 21
358.7133574646399
 31
0.0
  0
LINE
  5
B27
330
B22
100
AcDbEntity
  8
0
 62
     0
100
AcDbLine
 10
372.6208407198769
 20
357.11335746464
 30
0.0
 11
371.020840719877
 21
358.7133574646399
 31
0.0
  0
LINE
  5
B28
330
B22
100
AcDbEntity
  8
0
 62
     0
100
AcDbLine
 10
369.7924135951307
 20
357.11335746464
 30
0.0
 11
368.1924135951308
 21
358.7133574646399
 31
0.0
  0
LINE
  5
B29
330
B22
100
AcDbEntity
  8
0
 62
     0
100
AcDbLine
 10
366.9639864703845
 20
357.11335746464
 30
0.0
 11
365.3639864703846
 21
358.7133574646399
 31
0.0
  0
LINE
  5
B2A
330
B22
100
AcDbEntity
  8
0
 62
     0
100
AcDbLine
 10
364.1355593456383
 20
357.11335746464
 30
0.0
 11
362.5355593456384
 21
358.7133574646399
 31
0.0
  0
LINE
  5
B2B
330
B22
100
AcDbEntity
  8
0
 62
     0
100
AcDbLine
 10
383.9345492188617
 20
357.11335746464
 30
0.0
 11
382.3345492188618
 21
358.7133574646399
 31
0.0
  0
LINE
  5
B2C
330
B22
100
AcDbEntity
  8
0
 62
     0
100
AcDbLine
 10
386.7629763436079
 20
357.11335746464
 30
0.0
 11
385.162976343608
 21
358.7133574646399
 31
0.0
  0
LINE
  5
B2D
330
B22
100
AcDbEntity
  8
0
 62
     0
100
AcDbLine
 10
389.591403468354
 20
357.11335746464
 30
0.0
 11
387.9914034683542
 21
358.7133574646399
 31
0.0
  0
LINE
  5
B2E
330
B22
100
AcDbEntity
  8
0
 62
     0
100
AcDbLine
 10
392.4198305931002
 20
357.11335746464
 30
0.0
 11
390.8198305931003
 21
358.7133574646399
 31
0.0
  0
LINE
  5
B2F
330
B22
100
AcDbEntity
  8
0
 62
     0
100
AcDbLine
 10
395.2482577178465
 20
357.11335746464
 30
0.0
 11
393.6482577178466
 21
358.7133574646399
 31
0.0
  0
LINE
  5
B30
330
B22
100
AcDbEntity
  8
0
 62
     0
100
AcDbLine
 10
398.0766848425926
 20
357.11335746464
 30
0.0
 11
396.4766848425927
 21
358.7133574646399
 31
0.0
  0
LINE
  5
B31
330
B22
100
AcDbEntity
  8
0
 62
     0
100
AcDbLine
 10
400.9051119673388
 20
357.11335746464
 30
0.0
 11
399.3051119673389
 21
358.7133574646399
 31
0.0
  0
LINE
  5
B32
330
B22
100
AcDbEntity
  8
0
 62
     0
100
AcDbLine
 10
402.5246591947015
 20
358.3222373620236
 30
0.0
 11
402.1335390920851
 21
358.7133574646399
 31
0.0
  0
ENDBLK
  5
B33
330
B22
100
AcDbEntity
  8
0
100
AcDbBlockEnd
  0
BLOCK
  5
B35
330
B34
100
AcDbEntity
  8
0
100
AcDbBlockBegin
  2
*X12
 70
     1
 10
0.0
 20
0.0
 30
0.0
  3
*X12
  1

  0
LINE
  5
B36
330
B34
100
AcDbEntity
  8
0
 62
     0
100
AcDbLine
 10
362.2849303398939
 20
365.1133574646401
 30
0.0
 11
363.8849303398938
 21
366.7133574646399
 31
0.0
  0
LINE
  5
B37
330
B34
100
AcDbEntity
  8
0
 62
     0
100
AcDbLine
 10
365.1133574646401
 20
365.1133574646401
 30
0.0
 11
366.7133574646399
 21
366.7133574646399
 31
0.0
  0
LINE
  5
B38
330
B34
100
AcDbEntity
  8
0
 62
     0
100
AcDbLine
 10
367.9417845893862
 20
365.1133574646401
 30
0.0
 11
369.5417845893862
 21
366.7133574646399
 31
0.0
  0
LINE
  5
B39
330
B34
100
AcDbEntity
  8
0
 62
     0
100
AcDbLine
 10
370.7702117141325
 20
365.1133574646401
 30
0.0
 11
372.3702117141323
 21
366.7133574646399
 31
0.0
  0
LINE
  5
B3A
330
B34
100
AcDbEntity
  8
0
 62
     0
100
AcDbLine
 10
373.5986388388786
 20
365.1133574646401
 30
0.0
 11
375.1986388388786
 21
366.7133574646399
 31
0.0
  0
LINE
  5
B3B
330
B34
100
AcDbEntity
  8
0
 62
     0
100
AcDbLine
 10
376.4270659636248
 20
365.1133574646401
 30
0.0
 11
378.0270659636247
 21
366.7133574646399
 31
0.0
  0
LINE
  5
B3C
330
B34
100
AcDbEntity
  8
0
 62
     0
100
AcDbLine
 10
379.255493088371
 20
365.1133574646401
 30
0.0
 11
380.8554930883709
 21
366.7133574646399
 31
0.0
  0
LINE
  5
B3D
330
B34
100
AcDbEntity
  8
0
 62
     0
100
AcDbLine
 10
382.0839202131172
 20
365.1133574646401
 30
0.0
 11
383.6839202131171
 21
366.7133574646399
 31
0.0
  0
LINE
  5
B3E
330
B34
100
AcDbEntity
  8
0
 62
     0
100
AcDbLine
 10
384.9123473378634
 20
365.1133574646401
 30
0.0
 11
386.5123473378633
 21
366.7133574646399
 31
0.0
  0
LINE
  5
B3F
330
B34
100
AcDbEntity
  8
0
 62
     0
100
AcDbLine
 10
387.7407744626096
 20
365.1133574646401
 30
0.0
 11
389.3916406861044
 21
366.7642236881349
 31
0.0
  0
LINE
  5
B40
330
B34
100
AcDbEntity
  8
0
 62
     0
100
AcDbLine
 10
390.9319380479475
 20
365.4760939252317
 30
0.0
 11
394.3119039126679
 21
368.8560597899522
 31
0.0
  0
ENDBLK
  5
B41
330
B34
100
AcDbEntity
  8
0
100
AcDbBlockEnd
  0
BLOCK
  5
E17
330
E0C
100
AcDbEntity
  8
0
100
AcDbBlockBegin
  2
*D13
 70
     1
 10
0.0
 20
0.0
 30
0.0
  3
*D13
  1

  0
LINE
  5
1050
330
E0C
100
AcDbEntity
  8
BEM
 62
     0
370
    -2
100
AcDbLine
 10
224.8205468007457
 20
807.3320509989303
 30
0.0
 11
153.430447320633
 21
807.3320509989303
 31
0.0
  0
LINE
  5
1051
330
E0C
100
AcDbEntity
  8
BEM
 62
     0
370
    -2
100
AcDbLine
 10
173.0859441290208
 20
525.9816063419298
 30
0.0
 11
153.430447320633
 21
525.9816063419298
 31
0.0
  0
LINE
  5
1052
330
E0C
100
AcDbEntity
  8
BEM
 62
     0
370
    -2
100
AcDbLine
 10
155.430447320633
 20
800.3320509989302
 30
0.0
 11
155.430447320633
 21
532.9816063419298
 31
0.0
  0
SOLID
  5
1053
330
E0C
100
AcDbEntity
  8
BEM
 62
     0
100
AcDbTrace
 10
154.2637806539664
 20
800.3320509989302
 30
0.0
 11
156.5971139872997
 21
800.3320509989302
 31
0.0
 12
155.430447320633
 22
807.3320509989303
 32
0.0
 13
155.430447320633
 23
807.3320509989303
 33
0.0
  0
SOLID
  5
1054
330
E0C
100
AcDbEntity
  8
BEM
 62
     0
100
AcDbTrace
 10
154.2637806539663
 20
532.9816063419298
 30
0.0
 11
156.5971139872996
 21
532.9816063419298
 31
0.0
 12
155.430447320633
 22
525.9816063419298
 32
0.0
 13
155.430447320633
 23
525.9816063419298
 33
0.0
  0
MTEXT
  5
1055
330
E0C
100
AcDbEntity
  8
BEM
 62
     1
100
AcDbMText
 10
148.9304473206329
 20
666.6568286704301
 30
0.0
 40
7.0
 41
0.0
 71
     5
 72
     1
  1
\A1;400
 11
0.0000000000000001
 21
1.0
 31
0.0
 73
     1
 44
1.0
  0
POINT
  5
1056
330
E0C
100
AcDbEntity
  8
DEFPOINTS
 62
     0
100
AcDbPoint
 10
226.8205468007457
 20
807.3320509989303
 30
0.0
  0
POINT
  5
1057
330
E0C
100
AcDbEntity
  8
DEFPOINTS
 62
     0
100
AcDbPoint
 10
175.0859441290208
 20
525.9816063419298
 30
0.0
  0
POINT
  5
1058
330
E0C
100
AcDbEntity
  8
DEFPOINTS
 62
     0
100
AcDbPoint
 10
155.430447320633
 20
525.9816063419298
 30
0.0
  0
ENDBLK
  5
E18
330
E0C
100
AcDbEntity
  8
0
100
AcDbBlockEnd
  0
BLOCK
  5
E24
330
E19
100
AcDbEntity
  8
0
100
AcDbBlockBegin
  2
*D14
 70
     1
 10
0.0
 20
0.0
 30
0.0
  3
*D14
  1

  0
LINE
  5
102C
330
E19
100
AcDbEntity
  8
BEM
 62
     0
370
    -2
100
AcDbLine
 10
175.0859441290208
 20
521.9816063419302
 30
0.0
 11
175.0859441290208
 21
467.0266840991562
 31
0.0
  0
LINE
  5
102D
330
E19
100
AcDbEntity
  8
BEM
 62
     0
370
    -2
100
AcDbLine
 10
358.0859441290209
 20
521.9816063419302
 30
0.0
 11
358.0859441290209
 21
467.0266840991562
 31
0.0
  0
LINE
  5
102E
330
E19
100
AcDbEntity
  8
BEM
 62
     0
370
    -2
100
AcDbLine
 10
182.0859441290208
 20
469.0266840991561
 30
0.0
 11
351.0859441290208
 21
469.0266840991561
 31
0.0
  0
SOLID
  5
102F
330
E19
100
AcDbEntity
  8
BEM
 62
     0
100
AcDbTrace
 10
182.0859441290208
 20
470.1933507658229
 30
0.0
 11
182.0859441290208
 21
467.8600174324895
 31
0.0
 12
175.0859441290208
 22
469.0266840991561
 32
0.0
 13
175.0859441290208
 23
469.0266840991561
 33
0.0
  0
SOLID
  5
1030
330
E19
100
AcDbEntity
  8
BEM
 62
     0
100
AcDbTrace
 10
351.0859441290208
 20
470.1933507658229
 30
0.0
 11
351.0859441290208
 21
467.8600174324895
 31
0.0
 12
358.0859441290209
 22
469.0266840991561
 32
0.0
 13
358.0859441290209
 23
469.0266840991561
 33
0.0
  0
MTEXT
  5
1031
330
E19
100
AcDbEntity
  8
BEM
 62
     1
100
AcDbMText
 10
266.5859441290209
 20
475.5266840991562
 30
0.0
 40
7.0
 41
0.0
 71
     5
 72
     1
  1
\A1;%%c183
 73
     1
 44
1.0
  0
POINT
  5
1032
330
E19
100
AcDbEntity
  8
DEFPOINTS
 62
     0
100
AcDbPoint
 10
175.0859441290208
 20
523.9816063419302
 30
0.0
  0
POINT
  5
1033
330
E19
100
AcDbEntity
  8
DEFPOINTS
 62
     0
100
AcDbPoint
 10
358.0859441290209
 20
523.9816063419302
 30
0.0
  0
POINT
  5
1034
330
E19
100
AcDbEntity
  8
DEFPOINTS
 62
     0
100
AcDbPoint
 10
358.0859441290209
 20
469.0266840991561
 30
0.0
  0
ENDBLK
  5
E25
330
E19
100
AcDbEntity
  8
0
100
AcDbBlockEnd
  0
BLOCK
  5
E31
330
E26
100
AcDbEntity
  8
0
100
AcDbBlockBegin
  2
*D15
 70
     1
 10
0.0
 20
0.0
 30
0.0
  3
*D15
  1

  0
LINE
  5
1047
330
E26
100
AcDbEntity
  8
BEM
 62
     0
370
    -2
100
AcDbLine
 10
228.9608307642802
 20
99.66088483383783
 30
0.0
 11
153.5918172308156
 21
99.66088483383785
 31
0.0
  0
LINE
  5
1048
330
E26
100
AcDbEntity
  8
BEM
 62
     0
370
    -2
100
AcDbLine
 10
214.8359441290208
 20
404.4816063419302
 30
0.0
 11
153.5918172308156
 21
404.4816063419302
 31
0.0
  0
LINE
  5
1049
330
E26
100
AcDbEntity
  8
BEM
 62
     0
370
    -2
100
AcDbLine
 10
155.5918172308156
 20
106.6608848338378
 30
0.0
 11
155.5918172308156
 21
397.4816063419303
 31
0.0
  0
SOLID
  5
104A
330
E26
100
AcDbEntity
  8
BEM
 62
     0
100
AcDbTrace
 10
154.4251505641489
 20
106.6608848338378
 30
0.0
 11
156.7584838974822
 21
106.6608848338378
 31
0.0
 12
155.5918172308156
 22
99.66088483383785
 32
0.0
 13
155.5918172308156
 23
99.66088483383785
 33
0.0
  0
SOLID
  5
104B
330
E26
100
AcDbEntity
  8
BEM
 62
     0
100
AcDbTrace
 10
154.425150564149
 20
397.4816063419303
 30
0.0
 11
156.7584838974823
 21
397.4816063419303
 31
0.0
 12
155.5918172308156
 22
404.4816063419302
 32
0.0
 13
155.5918172308156
 23
404.4816063419302
 33
0.0
  0
MTEXT
  5
104C
330
E26
100
AcDbEntity
  8
BEM
 62
     1
100
AcDbMText
 10
149.0918172308156
 20
252.0712455878841
 30
0.0
 40
7.0
 41
0.0
 71
     5
 72
     1
  1
\A1;2500
 11
0.0000000000000001
 21
1.0
 31
0.0
 73
     1
 44
1.0
  0
POINT
  5
104D
330
E26
100
AcDbEntity
  8
DEFPOINTS
 62
     0
100
AcDbPoint
 10
230.9608307642802
 20
99.66088483383783
 30
0.0
  0
POINT
  5
104E
330
E26
100
AcDbEntity
  8
DEFPOINTS
 62
     0
100
AcDbPoint
 10
216.8359441290208
 20
404.4816063419302
 30
0.0
  0
POINT
  5
104F
330
E26
100
AcDbEntity
  8
DEFPOINTS
 62
     0
100
AcDbPoint
 10
155.5918172308156
 20
404.4816063419302
 30
0.0
  0
ENDBLK
  5
E32
330
E26
100
AcDbEntity
  8
0
100
AcDbBlockEnd
  0
BLOCK
  5
E3E
330
E33
100
AcDbEntity
  8
0
100
AcDbBlockBegin
  2
*D16
 70
     1
 10
0.0
 20
0.0
 30
0.0
  3
*D16
  1

  0
LINE
  5
F77
330
E33
100
AcDbEntity
  8
BEM
 62
     0
370
    -2
100
AcDbLine
 10
303.0859441290208
 20
107.6608848338378
 30
0.0
 11
303.0859441290208
 21
76.97782708893453
 31
0.0
  0
LINE
  5
F78
330
E33
100
AcDbEntity
  8
BEM
 62
     0
370
    -2
100
AcDbLine
 10
230.0859441290208
 20
107.6608848338378
 30
0.0
 11
230.0859441290208
 21
76.97782708893453
 31
0.0
  0
LINE
  5
F79
330
E33
100
AcDbEntity
  8
BEM
 62
     0
370
    -2
100
AcDbLine
 10
296.0859441290208
 20
78.97782708893453
 30
0.0
 11
237.0859441290209
 21
78.97782708893453
 31
0.0
  0
SOLID
  5
F7A
330
E33
100
AcDbEntity
  8
BEM
 62
     0
100
AcDbTrace
 10
296.0859441290208
 20
80.1444937556012
 30
0.0
 11
296.0859441290208
 21
77.81116042226786
 31
0.0
 12
303.0859441290208
 22
78.97782708893453
 32
0.0
 13
303.0859441290208
 23
78.97782708893453
 33
0.0
  0
SOLID
  5
F7B
330
E33
100
AcDbEntity
  8
BEM
 62
     0
100
AcDbTrace
 10
237.0859441290209
 20
80.1444937556012
 30
0.0
 11
237.0859441290209
 21
77.81116042226786
 31
0.0
 12
230.0859441290208
 22
78.97782708893453
 32
0.0
 13
230.0859441290208
 23
78.97782708893453
 33
0.0
  0
MTEXT
  5
F7C
330
E33
100
AcDbEntity
  8
BEM
 62
     1
100
AcDbMText
 10
266.5859441290209
 20
85.47782708893453
 30
0.0
 40
7.0
 41
0.0
 71
     5
 72
     1
  1
\A1;%%C73
 73
     1
 44
1.0
  0
POINT
  5
F7D
330
E33
100
AcDbEntity
  8
DEFPOINTS
 62
     0
100
AcDbPoint
 10
303.0859441290208
 20
109.6608848338378
 30
0.0
  0
POINT
  5
F7E
330
E33
100
AcDbEntity
  8
DEFPOINTS
 62
     0
100
AcDbPoint
 10
230.0859441290208
 20
109.6608848338378
 30
0.0
  0
POINT
  5
F7F
330
E33
100
AcDbEntity
  8
DEFPOINTS
 62
     0
100
AcDbPoint
 10
230.0859441290208
 20
78.97782708893453
 30
0.0
  0
ENDBLK
  5
E3F
330
E33
100
AcDbEntity
  8
0
100
AcDbBlockEnd
  0
BLOCK
  5
E4B
330
E40
100
AcDbEntity
  8
0
100
AcDbBlockBegin
  2
*D17
 70
     1
 10
0.0
 20
0.0
 30
0.0
  3
*D17
  1

  0
LINE
  5
103E
330
E40
100
AcDbEntity
  8
BEM
 62
     0
370
    -2
100
AcDbLine
 10
204.5859441290208
 20
425.98160634193
 30
0.0
 11
153.4304473206329
 21
425.98160634193
 31
0.0
  0
LINE
  5
103F
330
E40
100
AcDbEntity
  8
BEM
 62
     0
370
    -2
100
AcDbLine
 10
173.0859441290208
 20
525.9816063419298
 30
0.0
 11
153.430447320633
 21
525.9816063419298
 31
0.0
  0
LINE
  5
1040
330
E40
100
AcDbEntity
  8
BEM
 62
     0
370
    -2
100
AcDbLine
 10
155.4304473206329
 20
432.98160634193
 30
0.0
 11
155.430447320633
 21
518.9816063419298
 31
0.0
  0
SOLID
  5
1041
330
E40
100
AcDbEntity
  8
BEM
 62
     0
100
AcDbTrace
 10
154.2637806539663
 20
432.98160634193
 30
0.0
 11
156.5971139872996
 21
432.98160634193
 31
0.0
 12
155.4304473206329
 22
425.98160634193
 32
0.0
 13
155.4304473206329
 23
425.98160634193
 33
0.0
  0
SOLID
  5
1042
330
E40
100
AcDbEntity
  8
BEM
 62
     0
100
AcDbTrace
 10
154.2637806539663
 20
518.9816063419298
 30
0.0
 11
156.5971139872996
 21
518.9816063419298
 31
0.0
 12
155.430447320633
 22
525.9816063419298
 32
0.0
 13
155.430447320633
 23
525.9816063419298
 33
0.0
  0
MTEXT
  5
1043
330
E40
100
AcDbEntity
  8
BEM
 62
     1
100
AcDbMText
 10
148.9304473206329
 20
475.9816063419299
 30
0.0
 40
7.0
 41
0.0
 71
     5
 72
     1
  1
\A1;min.100-max.170
 11
0.0000000000000001
 21
1.0
 31
0.0
 73
     1
 44
1.0
  0
POINT
  5
1044
330
E40
100
AcDbEntity
  8
DEFPOINTS
 62
     0
100
AcDbPoint
 10
206.5859441290208
 20
425.98160634193
 30
0.0
  0
POINT
  5
1045
330
E40
100
AcDbEntity
  8
DEFPOINTS
 62
     0
100
AcDbPoint
 10
175.0859441290208
 20
525.9816063419298
 30
0.0
  0
POINT
  5
1046
330
E40
100
AcDbEntity
  8
DEFPOINTS
 62
     0
100
AcDbPoint
 10
155.430447320633
 20
525.9816063419298
 30
0.0
  0
ENDBLK
  5
E4C
330
E40
100
AcDbEntity
  8
0
100
AcDbBlockEnd
  0
ENDSEC
  0
SECTION
  2
ENTITIES
  0
TEXT
  5
8F
330
1E
100
AcDbEntity
  8
VOLL
100
AcDbText
 10
78.07675471698113
 20
31.02594776470585
 30
0.0
 40
1.8
  1

  7
GREEKS
100
AcDbText
  0
LINE
  5
855
330
1E
100
AcDbEntity
  8
STEMPEL
100
AcDbLine
 10
483.9999999999998
 20
830.0
 30
0.0
 11
483.9999999999998
 21
470.0000000000001
 31
0.0
  0
LINE
  5
856
330
1E
100
AcDbEntity
  8
STEMPEL
100
AcDbLine
 10
483.9999999999998
 20
566.0000000000002
 30
0.0
 11
583.9999999999998
 21
566.0000000000001
 31
0.0
  0
LINE
  5
857
330
1E
100
AcDbEntity
  8
STEMPEL
100
AcDbLine
 10
483.9999999999998
 20
650.0
 30
0.0
 11
583.9999999999998
 21
650.0
 31
0.0
  0
LINE
  5
858
330
1E
100
AcDbEntity
  8
STEMPEL
100
AcDbLine
 10
484.0
 20
752.0000000000001
 30
0.0
 11
553.9999999999998
 21
752.0000000000001
 31
0.0
  0
LINE
  5
859
330
1E
100
AcDbEntity
  8
STEMPEL
100
AcDbLine
 10
563.9999999999998
 20
566.0
 30
0.0
 11
563.9999999999997
 21
470.0000000000001
 31
0.0
  0
LINE
  5
85A
330
1E
100
AcDbEntity
  8
STEMPEL
100
AcDbLine
 10
553.9999999999998
 20
830.0
 30
0.0
 11
553.9999999999999
 21
566.0000000000002
 31
0.0
  0
LINE
  5
85B
330
1E
100
AcDbEntity
  8
STEMPEL
100
AcDbLine
 10
513.9999999999997
 20
830.0
 30
0.0
 11
513.9999999999998
 21
566.0000000000002
 31
0.0
  0
LINE
  5
85C
330
1E
100
AcDbEntity
  8
VOLL
100
AcDbLine
 10
483.9999999999998
 20
484.0000000000002
 30
0.0
 11
583.9999999999998
 21
484.0000000000001
 31
0.0
  0
LINE
  5
85D
330
1E
100
AcDbEntity
  8
VOLL
100
AcDbLine
 10
483.9999999999998
 20
524.0000000000001
 30
0.0
 11
583.9999999999998
 21
524.0000000000001
 31
0.0
  0
LINE
  5
85E
330
1E
100
AcDbEntity
  8
VOLL
100
AcDbLine
 10
483.9999999999998
 20
544.0000000000002
 30
0.0
 11
583.9999999999998
 21
544.0000000000001
 31
0.0
  0
LINE
  5
85F
330
1E
100
AcDbEntity
  8
VOLL
100
AcDbLine
 10
513.9999999999998
 20
584.0000000000002
 30
0.0
 11
553.9999999999999
 21
584.0000000000002
 31
0.0
  0
LINE
  5
860
330
1E
100
AcDbEntity
  8
VOLL
100
AcDbLine
 10
484.0
 20
610.0000000000002
 30
0.0
 11
553.9999999999999
 21
610.0000000000001
 31
0.0
  0
LINE
  5
861
330
1E
100
AcDbEntity
  8
HILF
100
AcDbLine
 10
493.9999999999997
 20
470.0000000000001
 30
0.0
 11
493.9999999999997
 21
566.0000000000002
 31
0.0
  0
LINE
  5
862
330
1E
100
AcDbEntity
  8
HILF
100
AcDbLine
 10
503.9999999999998
 20
470.0000000000001
 30
0.0
 11
503.9999999999998
 21
566.0000000000002
 31
0.0
  0
LINE
  5
863
330
1E
100
AcDbEntity
  8
HILF
100
AcDbLine
 10
513.9999999999998
 20
470.0000000000001
 30
0.0
 11
513.9999999999998
 21
566.0000000000002
 31
0.0
  0
LINE
  5
864
330
1E
100
AcDbEntity
  8
HILF
100
AcDbLine
 10
523.9999999999999
 20
470.0000000000001
 30
0.0
 11
523.9999999999999
 21
566.0000000000002
 31
0.0
  0
LINE
  5
865
330
1E
100
AcDbEntity
  8
HILF
100
AcDbLine
 10
533.9999999999998
 20
470.0000000000001
 30
0.0
 11
533.9999999999998
 21
566.0000000000002
 31
0.0
  0
LINE
  5
866
330
1E
100
AcDbEntity
  8
HILF
100
AcDbLine
 10
543.9999999999997
 20
470.0000000000001
 30
0.0
 11
543.9999999999998
 21
566.0000000000002
 31
0.0
  0
LINE
  5
867
330
1E
100
AcDbEntity
  8
HILF
100
AcDbLine
 10
553.9999999999998
 20
470.0000000000001
 30
0.0
 11
553.9999999999999
 21
566.0000000000002
 31
0.0
  0
LINE
  5
868
330
1E
100
AcDbEntity
  8
HILF
100
AcDbLine
 10
523.9999999999999
 20
566.0000000000002
 30
0.0
 11
523.9999999999999
 21
650.0
 31
0.0
  0
LINE
  5
869
330
1E
100
AcDbEntity
  8
HILF
100
AcDbLine
 10
533.9999999999998
 20
566.0000000000002
 30
0.0
 11
533.9999999999998
 21
650.0
 31
0.0
  0
LINE
  5
86A
330
1E
100
AcDbEntity
  8
HILF
100
AcDbLine
 10
543.9999999999998
 20
566.0000000000002
 30
0.0
 11
543.9999999999998
 21
650.0
 31
0.0
  0
LINE
  5
86B
330
1E
100
AcDbEntity
  8
HILF
100
AcDbLine
 10
509.9624175243584
 20
654.7736801096948
 30
0.0
 11
509.9624175243584
 21
744.8353916556311
 31
0.0
  0
LINE
  5
86C
330
1E
100
AcDbEntity
  8
HILF
100
AcDbLine
 10
523.9999999999999
 20
654.7736801096948
 30
0.0
 11
523.9999999999999
 21
744.835391655631
 31
0.0
  0
LINE
  5
86D
330
1E
100
AcDbEntity
  8
HILF
100
AcDbLine
 10
533.9999999999998
 20
654.7736801096948
 30
0.0
 11
533.9999999999998
 21
744.835391655631
 31
0.0
  0
LINE
  5
86E
330
1E
100
AcDbEntity
  8
HILF
100
AcDbLine
 10
543.9999999999998
 20
654.7736801096948
 30
0.0
 11
543.9999999999998
 21
744.835391655631
 31
0.0
  0
LINE
  5
86F
330
1E
100
AcDbEntity
  8
VOLL
100
AcDbLine
 10
533.9999999999998
 20
752.0000000000001
 30
0.0
 11
533.9999999999998
 21
830.0
 31
0.0
  0
LINE
  5
870
330
1E
100
AcDbEntity
  8
HILF
100
AcDbLine
 10
510.2201636304415
 20
756.7238616296994
 30
0.0
 11
510.2201636304415
 21
824.8588839326728
 31
0.0
  0
LINE
  5
871
330
1E
100
AcDbEntity
  8
HILF
100
AcDbLine
 10
579.1060174197166
 20
653.4909699289886
 30
0.0
 11
579.1060174197166
 21
824.8588839326728
 31
0.0
  0
TEXT
  5
872
330
1E
100
AcDbEntity
  8
TEXT
100
AcDbText
 10
575.3261810501585
 20
492.7826069847976
 30
0.0
 40
4.0
  1
Änderung
 50
90.0
 41
0.8
  7
GREEKS
 72
     1
 11
575.3261810501585
 21
503.5254641276548
 31
0.0
100
AcDbText
  0
TEXT
  5
873
330
1E
100
AcDbEntity
  8
TEXT
100
AcDbText
 10
491.537910491291
 20
573.5163572150378
 30
0.0
 40
5.0
  1
Maßstab
 50
90.0
 41
0.8
  7
GREEKS
100
AcDbText
  0
TEXT
  5
874
330
1E
100
AcDbEntity
  8
TEXT
100
AcDbText
 10
491.5815831565179
 20
614.2858954734053
 30
0.0
 40
5.0
  1
Zul. Abw.
 50
90.0
 41
0.8
  7
GREEKS
100
AcDbText
  0
TEXT
  5
875
330
1E
100
AcDbEntity
  8
TEXT
100
AcDbText
 10
491.4510671988218
 20
654.8779403809011
 30
0.0
 40
5.0
  1
Benennung
 50
90.0
 41
0.8
  7
GREEKS
100
AcDbText
  0
TEXT
  5
876
330
1E
100
AcDbEntity
  8
TEXT
100
AcDbText
 10
491.6867965462862
 20
756.1787549576341
 30
0.0
 40
5.0
  1
Zeichnungs Nr.
 50
90.0
 41
0.8
  7
GREEKS
100
AcDbText
  0
TEXT
  5
877
330
1E
100
AcDbEntity
  8
TEXT
100
AcDbText
 10
563.1543942980693
 20
654.742238391136
 30
0.0
 40
5.0
  1
Bauvorhaben
 50
90.0
 41
0.8
  7
GREEKS
100
AcDbText
  0
TEXT
  5
878
330
1E
100
AcDbEntity
  8
TEXT
100
AcDbText
 10
520.8188176290001
 20
756.7238616296994
 30
0.0
 40
5.0
  1
Ersatz für:
 50
90.0
 41
0.8
  7
GREEKS
100
AcDbText
  0
TEXT
  5
879
330
1E
100
AcDbEntity
  8
TEXT
100
AcDbText
 10
580.3453415397278
 20
478.2664110704577
 30
0.0
 40
4.0
  1
Index
 50
180.0
 41
0.8
  7
GREEKS
100
AcDbText
  0
TEXT
  5
87A
330
1E
100
AcDbEntity
  8
TEXT
100
AcDbText
 10
575.3284373066017
 20
530.0571803261056
 30
0.0
 40
4.0
  1
Tag
 50
90.0
 41
0.8
  7
GREEKS
 72
     1
 11
575.3284373066017
 21
533.7905136594389
 31
0.0
100
AcDbText
  0
TEXT
  5
87B
330
1E
100
AcDbEntity
  8
TEXT
100
AcDbText
 10
575.4067578303358
 20
548.6614567187548
 30
0.0
 40
4.0
  1
Name
 50
90.0
 41
0.8
  7
GREEKS
 72
     1
 11
575.4067578303358
 21
554.9852662425642
 31
0.0
100
AcDbText
  0
TEXT
  5
87C
330
1E
100
AcDbEntity
  8
TEXT
100
AcDbText
 10
520.6811949877005
 20
592.3311673153651
 30
0.0
 40
4.0
  1
Tag
 50
90.0
 41
0.8
  7
GREEKS
100
AcDbText
  0
TEXT
  5
87D
330
1E
100
AcDbEntity
  8
TEXT
100
AcDbText
 10
520.6903890808475
 20
622.4626584226296
 30
0.0
 40
4.0
  1
Name
 50
90.0
 41
0.8
  7
GREEKS
100
AcDbText
  0
TEXT
  5
87E
330
1E
100
AcDbEntity
  8
TEXT
100
AcDbText
 10
530.3700963038202
 20
567.5836127167616
 30
0.0
 40
4.0
  1
Gez.
 50
90.0
 41
0.8
  7
GREEKS
100
AcDbText
  0
TEXT
  5
87F
330
1E
100
AcDbEntity
  8
TEXT
100
AcDbText
 10
540.310737085716
 20
567.5515086571673
 30
0.0
 40
4.0
  1
Gepr.
 50
90.0
 41
0.8
  7
GREEKS
100
AcDbText
  0
TEXT
  5
880
330
1E
100
AcDbEntity
  8
TEXT
100
AcDbText
 10
550.4705361035018
 20
567.6006777387304
 30
0.0
 40
4.0
  1
Norm.
 50
90.0
 41
0.8
  7
GREEKS
100
AcDbText
  0
LINE
  5
881
330
1E
100
AcDbEntity
  8
STEMPEL
100
AcDbLine
 10
583.9999999999998
 20
480.0
 30
0.0
 11
583.9999999999998
 21
830.0
 31
0.0
  0
TEXT
  5
882
330
1E
100
AcDbEntity
  8
TEXT
100
AcDbText
 10
541.9258382212137
 20
757.2400861497007
 30
0.0
 40
5.0
  1
ersetzt durch:
 50
90.0
 41
0.8
  7
GREEKS
100
AcDbText
  0
LINE
  5
883
330
1E
100
AcDbEntity
  8
STEMPEL
100
AcDbLine
 10
583.9999999999998
 20
830.0
 30
0.0
 11
583.9999999999998
 21
40.00000000000011
 31
0.0
  0
LINE
  5
884
330
1E
100
AcDbEntity
  8
STEMPEL
100
AcDbLine
 10
583.9999999999998
 20
830.0
 30
0.0
 11
9.999999999999772
 21
830.0
 31
0.0
  0
LINE
  5
885
330
1E
100
AcDbEntity
  8
STEMPEL
100
AcDbLine
 10
583.9999999999998
 20
470.0000000000001
 30
0.0
 11
483.9999999999998
 21
470.0000000000001
 31
0.0
  0
LINE
  5
886
330
1E
100
AcDbEntity
  8
STEMPEL
100
AcDbLine
 10
9.999999999999772
 20
830.0
 30
0.0
 11
9.999999999999772
 21
40.00000000000003
 31
0.0
  0
LINE
  5
887
330
1E
100
AcDbEntity
  8
HILF
100
AcDbLine
 10
-0.0000000000004547
 20
840.0
 30
0.0
 11
0.0
 21
-0.0000000000000205
 31
0.0
  0
LINE
  5
888
330
1E
100
AcDbEntity
  8
HILF
100
AcDbLine
 10
593.9999999999997
 20
840.0000000000002
 30
0.0
 11
593.9999999999997
 21
0.0000000000001137
 31
0.0
  0
LINE
  5
889
330
1E
100
AcDbEntity
  8
HILF
100
AcDbLine
 10
296.9999999999999
 20
31.08767135713863
 30
0.0
 11
296.9999999999999
 21
0.0000000000001887
 31
0.0
  0
TEXT
  5
88A
330
1E
100
AcDbEntity
  8
TEXT
100
AcDbText
 10
520.8597452884832
 20
568.622109822104
 30
0.0
 40
4.0
  1
2012
 50
90.0
 41
0.8
  7
GREEKS
100
AcDbText
  0
LINE
  5
88B
330
1E
100
AcDbEntity
  8
HILF
100
AcDbLine
 10
593.9999999999998
 20
840.0000000000002
 30
0.0
 11
-0.0000000000002274
 21
840.0
 31
0.0
  0
TEXT
  5
88C
330
1E
100
AcDbEntity
  8
VOLL
100
AcDbText
 10
531.948104470588
 20
156.1535094339624
 30
0.0
 40
3.6
  1

 50
90.0
  7
GREEKS
100
AcDbText
  0
TEXT
  5
88D
330
1E
100
AcDbEntity
  8
TEXT
100
AcDbText
 10
482.3279999999998
 20
471.8550995097769
 30
0.0
 40
5.0
  1
Erstellt mit AUTOCAD 2004
 50
90.0
 41
0.8
  7
GREEKS
100
AcDbText
  0
TEXT
  5
88E
330
1E
100
AcDbEntity
  8
TEXT
100
AcDbText
 10
530.9103608027647
 20
624.4216048581258
 30
0.0
 40
4.0
  1
Koeh
 50
90.0
 41
0.8
  7
GREEKS
 72
     1
 11
530.9103608027647
 21
629.6787477152687
 31
0.0
100
AcDbText
  0
TEXT
  5
88F
330
1E
100
AcDbEntity
  8
TEXT
 62
     1
100
AcDbText
 10
505.8509857108602
 20
767.7799161129603
 30
0.0
 40
7.0
  1
16728070W
 50
90.0
 41
0.8
  7
GREEKS
 72
     1
 11
505.8509857108602
 21
791.246582779627
 31
0.0
100
AcDbText
  0
TEXT
  5
890
330
1E
100
AcDbEntity
  8
TEXT
 62
     1
100
AcDbText
 10
505.8509857108602
 20
580.5006306481888
 30
0.0
 40
7.0
  1
1:2
 50
90.0
 41
0.8
  7
GREEKS
100
AcDbText
  0
TEXT
  5
891
330
1E
100
AcDbEntity
  8
TEXT
100
AcDbText
 10
530.8923495917424
 20
590.3989971082362
 30
0.0
 40
4.0
  1
09.03.
 50
90.0
 41
0.8
  7
GREEKS
 72
     1
 11
530.8923495917424
 21
597.40852091776
 31
0.0
100
AcDbText
  0
TEXT
  5
892
330
1E
100
AcDbEntity
  8
TEXT
 62
     1
100
AcDbText
 10
506.582512107462
 20
654.4942536306288
 30
0.0
 40
7.0
  1
Balkondirektablauf DN70
 50
90.0
 41
0.7
  7
GREEKS
100
AcDbText
  0
TEXT
  5
893
330
1E
100
AcDbEntity
  8
TEXT
100
AcDbText
 10
522.4966558241469
 20
655.1296391125316
 30
0.0
 40
5.0
  1
für Balkongeschosse
 50
90.0
 41
0.8
  7
GREEKS
100
AcDbText
  0
TEXT
  5
894
330
1E
100
AcDbEntity
  8
TEXT
100
AcDbText
 10
531.8841929322513
 20
655.1296391125316
 30
0.0
 40
5.0
  1
geschoßhoch
 50
90.0
 41
0.8
  7
GREEKS
100
AcDbText
  0
TEXT
  5
895
330
1E
100
AcDbEntity
  8
TEXT
100
AcDbText
 10
542.3598805695782
 20
655.1296391125316
 30
0.0
 40
5.0
  1
EDV-Art.Nr. 16728.070X
 50
90.0
 41
0.8
  7
GREEKS
100
AcDbText
  0
TEXT
  5
896
330
1E
100
AcDbEntity
  8
TEXT
100
AcDbText
 10
551.3702584697734
 20
654.9837501577827
 30
0.0
 40
4.0
  1
16728070W.DWG
 50
90.0
 41
0.8
  7
GREEKS
100
AcDbText
  0
TEXT
  5
897
330
1E
100
AcDbEntity
  8
TEXT
100
AcDbText
 10
503.2363615897696
 20
612.626132208084
 30
0.0
 40
4.0
  1
DIN EN1123-2
 50
90.0
 41
0.8
  7
GREEKS
 72
     1
 11
503.2363615897696
 21
629.6166083985602
 31
0.0
100
AcDbText
  0
INSERT
  5
898
330
1E
100
AcDbEntity
  8
STEMPEL
100
AcDbBlockReference
  2
LOGO
 10
548.9789472355165
 20
570.9955485457795
 30
0.0
 41
2.0
 42
2.0
 43
2.0
 50
90.0
  0
LINE
  5
899
330
1E
100
AcDbEntity
  8
HILF
100
AcDbLine
 10
593.9999999999997
 20
0.0000000000001137
 30
0.0
 11
0.0
 21
-0.0000000000000205
 31
0.0
  0
LINE
  5
89A
330
1E
100
AcDbEntity
  8
STEMPEL
100
AcDbLine
 10
583.9999999999998
 20
40.00000000000011
 30
0.0
 11
9.999999999999772
 21
40.00000000000003
 31
0.0
  0
LINE
  5
89B
330
1E
100
AcDbEntity
  8
HILF
 62
     7
100
AcDbLine
 10
594.0000000000001
 20
460.0000000000001
 30
0.0
 11
583.9999999999998
 21
460.0000000000001
 31
0.0
  0
LINE
  5
89C
330
1E
100
AcDbEntity
  8
HILF
 62
     7
100
AcDbLine
 10
9.999999999999772
 20
460.0
 30
0.0
 11
-0.0000000000001137
 21
460.0
 31
0.0
  0
TEXT
  5
89D
330
1E
100
AcDbEntity
  8
BEM
100
AcDbText
 10
583.8320989200111
 20
837.3022923857167
 30
0.0
 40
4.0
  1
Diese Zeichnung ist urheberrechtlich geschützt und bleibt unser Eigentum. Sie darf weder ganz noch teilweise verfielfältigt und nicht an Dritte weitergegeben werden.
 50
180.0
 41
0.8
  7
GREEKS
100
AcDbText
  0
POINT
  5
CA9
330
1E
100
AcDbEntity
  8
STEMPEL
100
AcDbPoint
 10
226.8205468007457
 20
807.3320509989303
 30
0.0
  0
ARC
  5
CAA
330
1E
100
AcDbEntity
  8
STEMPEL
100
AcDbCircle
 10
249.4859441290207
 20
796.7831285918114
 30
0.0
 40
25.0
100
AcDbArc
 50
155.0418036876904
 51
180.0
  0
ARC
  5
CAB
330
1E
100
AcDbEntity
  8
STEMPEL
100
AcDbCircle
 10
214.9859441290207
 20
774.3320509989302
 30
0.0
 40
12.0
100
AcDbArc
 50
0.0
 51
21.1831543930358
  0
ARC
  5
CAC
330
1E
100
AcDbEntity
  8
STEMPEL
100
AcDbCircle
 10
249.4859441290207
 20
787.7020509989302
 30
0.0
 40
25.00009324312574
100
AcDbArc
 50
179.8435140456656
 51
201.1831543930358
  0
LINE
  5
CAD
330
1E
100
AcDbEntity
  8
STEMPEL
100
AcDbLine
 10
224.4859441290209
 20
796.7831285918114
 30
0.0
 11
224.4859441290209
 21
787.6337709507366
 31
0.0
  0
ARC
  5
CAE
330
1E
100
AcDbEntity
  8
STEMPEL
100
AcDbCircle
 10
222.0859441290208
 20
600.6750066773611
 30
0.0
 40
8.0
100
AcDbArc
 50
0.0
 51
32.32806412216361
  0
ARC
  5
CAF
330
1E
100
AcDbEntity
  8
STEMPEL
100
AcDbCircle
 10
238.9859441290207
 20
611.370332759347
 30
0.0
 40
12.0
100
AcDbArc
 50
180.0
 51
212.3280641221636
  0
LINE
  5
CB0
330
1E
100
AcDbEntity
  8
STEMPEL
100
AcDbLine
 10
230.8096326795899
 20
583.9932883905235
 30
0.0
 11
231.9057953003519
 21
580.9816063419297
 31
0.0
  0
ARC
  5
CB1
330
1E
100
AcDbEntity
  8
STEMPEL
100
AcDbCircle
 10
242.0859441290208
 20
588.0975301104317
 30
0.0
 40
12.0
100
AcDbArc
 50
180.0
 51
200.0000000000026
  0
ARC
  5
CB2
330
1E
100
AcDbEntity
  8
SCHRAFF
100
AcDbCircle
 10
236.5230693192232
 20
582.2885150056236
 30
0.0
 40
7.657442013147875
100
AcDbArc
 50
145.9018102810813
 51
212.7926072625275
  0
ARC
  5
CB3
330
1E
100
AcDbEntity
  8
BEM
100
AcDbCircle
 10
224.4312207171834
 20
582.5234641614638
 30
0.0
 40
7.443040393312843
100
AcDbArc
 50
323.1956235832001
 51
36.80437641679991
  0
ARC
  5
CB4
330
1E
100
AcDbEntity
  8
SCHRAFF
100
AcDbCircle
 10
236.4962834000107
 20
582.5234641614638
 30
0.0
 40
7.443040393312843
100
AcDbArc
 50
323.1956235832001
 51
36.80437641679991
  0
ARC
  5
CB5
330
1E
100
AcDbEntity
  8
SCHRAFF
100
AcDbCircle
 10
230.4637520585973
 20
582.5234641614638
 30
0.0
 40
7.443040393312843
100
AcDbArc
 50
323.1956235832001
 51
36.80437641679991
  0
LWPOLYLINE
  5
CB6
330
1E
100
AcDbEntity
  8
STEMPEL
100
AcDbPolyline
 90
        5
 70
     0
 43
0.0
 10
235.9730762402805
 20
575.7911625633041
 42
0.0340277875279253
 10
235.8269186182756
 20
575.6857654496611
 42
0.1041580259530588
 10
234.9056797878388
 20
574.5240075408092
 42
0.0648500088297205
 10
234.3806751796928
 20
573.0078617716363
 42
0.0510027945188002
 10
234.1734467408055
 20
570.9816063419298
 42
0.0510027945188098
  0
LINE
  5
CB7
330
1E
100
AcDbEntity
  8
STEMPEL
100
AcDbLine
 10
234.5612605158067
 20
573.6857756243202
 30
0.0
 11
237.7740055112986
 21
564.8588312947402
 31
0.0
  0
LWPOLYLINE
  5
CB8
330
1E
100
AcDbEntity
  8
STEMPEL
100
AcDbPolyline
 90
        9
 70
     0
 43
0.0
 10
237.7740055112986
 20
570.9816063419298
 42
0.0510111269016906
 10
237.5667793246734
 20
573.0075070488119
 42
0.0648584830741748
 10
237.0417724642653
 20
574.5234135937362
 42
0.1041619196622654
 10
236.1205651373821
 20
575.6849535349756
 42
0.174928943450854
 10
235.2740055112986
 20
575.9904781927457
 42
0.174928943450854
 10
234.4274458852155
 20
575.6849535349756
 42
0.104161919662265
 10
233.5062385583324
 20
574.5234135937362
 42
0.0648584830741578
 10
232.9812316979237
 20
573.0075070488119
 42
0.0510111269016863
 10
232.7740055112986
 20
570.9816063419298
 42
0.0510111269016738
  0
LINE
  5
CB9
330
1E
100
AcDbEntity
  8
STEMPEL
100
AcDbLine
 10
230.0859441290208
 20
600.6750066773611
 30
0.0
 11
230.0859441290208
 21
588.0975301104317
 31
0.0
  0
ARC
  5
CBA
330
1E
100
AcDbEntity
  8
SCHRAFF
100
AcDbCircle
 10
242.5288147414246
 20
582.5234641614638
 30
0.0
 40
7.443040393312843
100
AcDbArc
 50
323.1956235832001
 51
36.80437641679991
  0
ARC
  5
CBB
330
1E
100
AcDbEntity
  8
SCHRAFF
100
AcDbCircle
 10
248.5613460828383
 20
582.5234641614638
 30
0.0
 40
7.443040393312843
100
AcDbArc
 50
323.1956235832001
 51
36.80437641679991
  0
ARC
  5
CBC
330
1E
100
AcDbEntity
  8
SCHRAFF
100
AcDbCircle
 10
260.6264087656657
 20
582.5234641614638
 30
0.0
 40
7.443040393312843
100
AcDbArc
 50
323.1956235832001
 51
36.80437641679991
  0
ARC
  5
CBD
330
1E
100
AcDbEntity
  8
SCHRAFF
100
AcDbCircle
 10
254.593877424252
 20
582.5234641614638
 30
0.0
 40
7.443040393312843
100
AcDbArc
 50
323.1956235832001
 51
36.80437641679991
  0
LWPOLYLINE
  5
CBE
330
1E
100
AcDbEntity
  8
STEMPEL
100
AcDbPolyline
 90
        5
 70
     0
 43
0.0
 10
252.8381149581519
 20
570.9816063419298
 42
0.0894856039465815
 10
252.4886632947578
 20
572.9185288934149
 42
0.0942938265008356
 10
251.5194596523597
 20
574.5171402478627
 42
0.1019990275861884
 10
250.035143752023
 20
575.6095182256858
 42
0.1082072415965859
 10
248.3359441290208
 20
575.9816063419298
 42
0.1082072415965768
  0
ARC
  5
CBF
330
1E
100
AcDbEntity
  8
STEMPEL
100
AcDbCircle
 10
266.5859441290209
 20
570.9816063419298
 30
0.0
 40
5.0
100
AcDbArc
 50
90.0
 51
180.0
  0
ARC
  5
CC0
330
1E
100
AcDbEntity
  8
SCHRAFF
100
AcDbCircle
 10
266.6589401070794
 20
582.5234641614638
 30
0.0
 40
7.443040393312843
100
AcDbArc
 50
323.1956235832001
 51
36.80437641679991
  0
ARC
  5
CC1
330
1E
100
AcDbEntity
  8
SCHRAFF
100
AcDbCircle
 10
272.6914714484931
 20
582.5234641614638
 30
0.0
 40
7.443040393312843
100
AcDbArc
 50
323.1956235832001
 51
36.80437641679991
  0
ARC
  5
CC2
330
1E
100
AcDbEntity
  8
SCHRAFF
100
AcDbCircle
 10
278.724002789907
 20
582.5234641614638
 30
0.0
 40
7.443040393312843
100
AcDbArc
 50
323.1956235832001
 51
36.80437641679991
  0
LWPOLYLINE
  5
CC3
330
1E
100
AcDbEntity
  8
STEMPEL
100
AcDbPolyline
 90
        5
 70
     0
 43
0.0
 10
280.3337732998898
 20
570.9816063419298
 42
-0.0894856039465815
 10
280.6832249632839
 20
572.9185288934149
 42
-0.0942938265008356
 10
281.652428605682
 20
574.5171402478627
 42
-0.1019990275861884
 10
283.1367445060189
 20
575.6095182256858
 42
-0.1082072415965859
 10
284.8359441290209
 20
575.9816063419298
 42
-0.1082072415965768
  0
LWPOLYLINE
  5
CC4
330
1E
100
AcDbEntity
  8
STEMPEL
100
AcDbPolyline
 90
        3
 70
     0
 43
0.0
 10
284.8359441290209
 20
575.9816063419298
 42
-0.116044809117607
 10
286.3871296458719
 20
575.6166780175558
 42
-0.0866977466030354
 10
287.5786255188186
 20
574.7386443988493
 42
-0.0907446640652515
  0
LWPOLYLINE
  5
CC5
330
1E
100
AcDbEntity
  8
STEMPEL
100
AcDbPolyline
 90
        4
 70
     0
 43
0.0
 10
284.4199509885477
 20
575.9602695482239
 42
-0.0881939002362183
 10
285.583704054839
 20
575.6168583452618
 42
-0.1041583937666652
 10
286.9705188980383
 20
574.5171402478627
 42
-0.0251436189823858
 10
287.2744392060777
 20
574.1110709958798
 42
-0.082976372916389
  0
LINE
  5
CC6
330
1E
100
AcDbEntity
  8
HILF
100
AcDbLine
 10
291.5106998443193
 20
562.8844549365003
 30
0.0
 11
280.3337732998898
 21
562.8844549365003
 31
0.0
  0
ARC
  5
CC7
330
1E
100
AcDbEntity
  8
STEMPEL
100
AcDbCircle
 10
266.5859441290209
 20
570.9816063419298
 30
0.0
 40
5.0
100
AcDbArc
 50
0.0
 51
90.0
  0
LINE
  5
CC8
330
1E
100
AcDbEntity
  8
HILF
100
AcDbLine
 10
271.5859441290208
 20
562.8844549365003
 30
0.0
 11
261.5859441290208
 21
562.8844549365003
 31
0.0
  0
LWPOLYLINE
  5
CC9
330
1E
100
AcDbEntity
  8
STEMPEL
100
AcDbPolyline
 90
        5
 70
     0
 43
0.0
 10
248.3359441290208
 20
575.9816063419298
 42
0.116044809117607
 10
246.78475861217
 20
575.6166780175558
 42
0.1041136907849951
 10
245.3957352954019
 20
574.5171402478627
 42
0.0907446640652515
 10
244.5047878429436
 20
572.9344977242603
 42
0.0831249348283856
 10
244.1778609203079
 20
570.9816063419298
 42
0.0831249348283806
  0
LWPOLYLINE
  5
CCA
330
1E
100
AcDbEntity
  8
STEMPEL
100
AcDbPolyline
 90
        5
 70
     0
 43
0.0
 10
248.7519372694942
 20
575.9602695482239
 42
0.0881939002362183
 10
247.5881842032027
 20
575.6168583452618
 42
0.1041583937666652
 10
246.2013693600034
 20
574.5171402478627
 42
0.0906557867322456
 10
245.3122243711623
 20
572.9348636911145
 42
0.082976372916389
 10
244.9858286908784
 20
570.9816063419298
 42
0.0829763729163673
  0
LINE
  5
CCB
330
1E
100
AcDbEntity
  8
HILF
100
AcDbLine
 10
252.8381149581519
 20
562.8844549365003
 30
0.0
 11
244.9858286908784
 21
562.8844549365003
 31
0.0
  0
LINE
  5
CCD
330
1E
100
AcDbEntity
  8
STEMPEL
100
AcDbLine
 10
175.0859441290208
 20
525.9816063419298
 30
0.0
 11
175.0859441290208
 21
523.9816063419302
 31
0.0
  0
LINE
  5
CCE
330
1E
100
AcDbEntity
  8
STEMPEL
100
AcDbLine
 10
238.5859441290208
 20
518.2113634318907
 30
0.0
 11
238.5859441290208
 21
515.9816063419298
 31
0.0
  0
LINE
  5
CCF
330
1E
100
AcDbEntity
  8
STEMPEL
100
AcDbLine
 10
240.1859441290207
 20
518.256479680836
 30
0.0
 11
240.1859441290207
 21
515.9816063419298
 31
0.0
  0
LINE
  5
CD0
330
1E
100
AcDbEntity
  8
STEMPEL
100
AcDbLine
 10
230.0859441290208
 20
499.9816063419302
 30
0.0
 11
224.0859441290208
 21
499.9816063419302
 31
0.0
  0
LINE
  5
CD1
330
1E
100
AcDbEntity
  8
STEMPEL
100
AcDbLine
 10
219.0859441290208
 20
523.9816063419302
 30
0.0
 11
224.0859441290208
 21
499.9816063419302
 31
0.0
  0
INSERT
  5
CD2
330
1E
100
AcDbEntity
  8
SCHRAFF
100
AcDbBlockReference
  2
*X3
 10
-42.18987090281973
 20
150.53931671691
 30
0.0
1001
ACAD
1000
HATCH
1002
{
1070
    16
1000
NET,I
1040
10.0
1040
0.7853981633974483
1002
}
  0
LWPOLYLINE
  5
CD3
330
1E
100
AcDbEntity
  8
STEMPEL
100
AcDbPolyline
 90
        9
 70
     0
 43
0.0
 10
232.7740055112986
 20
530.9816063419297
 42
0.0510111269016863
 10
232.9812316979237
 20
528.9557056350481
 42
0.0648584830741578
 10
233.5062385583324
 20
527.4397990901238
 42
0.1041619196622498
 10
234.4274458852155
 20
526.2782591488839
 42
0.1749289434508429
 10
235.2740055112986
 20
525.9727344911143
 42
0.174928943450854
 10
236.1205651373821
 20
526.2782591488839
 42
0.104161919662265
 10
237.0417724642653
 20
527.4397990901238
 42
0.0648584830741701
 10
237.5667793246737
 20
528.9557056350481
 42
0.051011126901681
 10
237.7740055112986
 20
530.98160634193
 42
0.0510111269017003
  0
LWPOLYLINE
  5
CD4
330
1E
100
AcDbEntity
  8
STEMPEL
100
AcDbPolyline
 90
        5
 70
     0
 43
0.0
 10
234.1734467408055
 20
530.9816063419297
 42
0.0448625346001936
 10
234.3562100577578
 20
528.9487800589922
 42
0.058366107133556
 10
234.8143588443288
 20
527.4460724359974
 42
0.1004267118962066
 10
235.6425274470425
 20
526.2679617372596
 42
0.0646530356134273
 10
235.8604233360579
 20
526.1094988480963
 42
0.1917760145803905
  0
ARC
  5
CD5
330
1E
100
AcDbEntity
  8
STEMPEL
100
AcDbCircle
 10
266.5859441290209
 20
530.98160634193
 30
0.0
 40
5.0
100
AcDbArc
 50
180.0
 51
270.0
  0
LWPOLYLINE
  5
CD6
330
1E
100
AcDbEntity
  8
STEMPEL
100
AcDbPolyline
 90
        5
 70
     0
 43
0.0
 10
248.3359441290208
 20
525.98160634193
 42
0.1082072415965644
 10
250.035143752023
 20
526.3536944581737
 42
0.1019990275861814
 10
251.5194596523597
 20
527.4460724359974
 42
0.0942938265008525
 10
252.4886632947578
 20
529.044683790445
 42
0.089485603946596
 10
252.8381149581521
 20
530.98160634193
 42
0.0894856039465907
  0
ARC
  5
CD7
330
1E
100
AcDbEntity
  8
STEMPEL
100
AcDbCircle
 10
266.5859441290209
 20
530.98160634193
 30
0.0
 40
5.0
100
AcDbArc
 50
270.0
 51
0.0
  0
LINE
  5
CD8
330
1E
100
AcDbEntity
  8
STEMPEL
100
AcDbLine
 10
272.1054705947465
 20
525.98160634193
 30
0.0
 11
175.0859441290208
 21
525.9816063419298
 31
0.0
  0
LINE
  5
CD9
330
1E
100
AcDbEntity
  8
STEMPEL
100
AcDbLine
 10
269.5624449223403
 20
523.9816063419298
 30
0.0
 11
175.0859441290208
 21
523.9816063419302
 31
0.0
  0
LWPOLYLINE
  5
CDA
330
1E
100
AcDbEntity
  8
STEMPEL
100
AcDbPolyline
 90
        5
 70
     0
 43
0.0
 10
244.1778609203079
 20
530.98160634193
 42
0.0831249348283902
 10
244.5047878429436
 20
529.0287149595997
 42
0.0907446640652638
 10
245.3957352954021
 20
527.4460724359974
 42
0.1041136907849957
 10
246.7847586121702
 20
526.3465346663042
 42
0.1160448091175973
 10
248.3359441290208
 20
525.98160634193
 42
0.1160448091175801
  0
LWPOLYLINE
  5
CDB
330
1E
100
AcDbEntity
  8
STEMPEL
100
AcDbPolyline
 90
        5
 70
     0
 43
0.0
 10
244.9858286908784
 20
530.98160634193
 42
0.082976372916373
 10
245.3122243711623
 20
529.0283489927455
 42
0.0906557867322319
 10
246.2013693600034
 20
527.4460724359974
 42
0.1041583937666244
 10
247.5881842032027
 20
526.3463543385983
 42
0.0881939002361597
 10
248.7519372694937
 20
526.002943135636
 42
0.1162388648590112
  0
LINE
  5
CDC
330
1E
100
AcDbEntity
  8
STEMPEL
100
AcDbLine
 10
230.0859441290208
 20
518.108621635562
 30
0.0
 11
230.0859441290208
 21
485.9816063419303
 31
0.0
  0
LINE
  5
CDD
330
1E
100
AcDbEntity
  8
STEMPEL
100
AcDbLine
 10
231.6859441290207
 20
518.1216347624531
 30
0.0
 11
231.6859441290207
 21
491.9966907927064
 31
0.0
  0
LINE
  5
CDE
330
1E
100
AcDbEntity
  8
STEMPEL
100
AcDbLine
 10
261.5859441290208
 20
570.9816063419298
 30
0.0
 11
261.5859441290208
 21
530.98160634193
 31
0.0
  0
LINE
  5
CDF
330
1E
100
AcDbEntity
  8
STEMPEL
100
AcDbLine
 10
252.8381149581519
 20
570.9816063419298
 30
0.0
 11
252.8381149581521
 21
530.98160634193
 31
0.0
  0
LINE
  5
CE0
330
1E
100
AcDbEntity
  8
STEMPEL
100
AcDbLine
 10
244.1778609203079
 20
570.9816063419298
 30
0.0
 11
244.1778609203079
 21
530.98160634193
 31
0.0
  0
LINE
  5
CE1
330
1E
100
AcDbEntity
  8
STEMPEL
100
AcDbLine
 10
237.7740055112986
 20
570.9816063419298
 30
0.0
 11
237.7740055112986
 21
530.98160634193
 31
0.0
  0
LINE
  5
CE2
330
1E
100
AcDbEntity
  8
STEMPEL
100
AcDbLine
 10
232.7740055112986
 20
570.9816063419298
 30
0.0
 11
232.7740055112986
 21
530.98160634193
 31
0.0
  0
LINE
  5
CE3
330
1E
100
AcDbEntity
  8
STEMPEL
100
AcDbLine
 10
234.1734467408055
 20
570.9816063419298
 30
0.0
 11
234.1734467408055
 21
530.9816063419297
 31
0.0
  0
LINE
  5
CE4
330
1E
100
AcDbEntity
  8
STEMPEL
100
AcDbLine
 10
244.9858286908784
 20
570.9816063419298
 30
0.0
 11
244.9858286908784
 21
530.98160634193
 31
0.0
  0
LINE
  5
CE5
330
1E
100
AcDbEntity
  8
STEMPEL
100
AcDbLine
 10
271.5859441290208
 20
570.9816063419298
 30
0.0
 11
271.5859441290208
 21
530.98160634193
 31
0.0
  0
LINE
  5
CE6
330
1E
100
AcDbEntity
  8
STEMPEL
100
AcDbLine
 10
280.3337732998898
 20
570.9816063419298
 30
0.0
 11
280.3337732998898
 21
547.5304804270292
 31
0.0
  0
LINE
  5
CE7
330
1E
100
AcDbEntity
  8
STEMPEL
100
AcDbLine
 10
230.0859441290208
 20
580.9816063419297
 30
0.0
 11
230.0859441290208
 21
525.9816063419298
 31
0.0
  0
LINE
  5
CE8
330
1E
100
AcDbEntity
  8
STEMPEL
100
AcDbLine
 10
226.985944129021
 20
774.3320509989302
 30
0.0
 11
226.9859441290209
 21
663.5634207845855
 31
0.0
  0
LINE
  5
CE9
330
1E
100
AcDbEntity
  8
MITTEL
100
AcDbLine
 10
266.5859441290211
 20
812.3320509989303
 30
0.0
 11
266.5859441290209
 21
481.9942459770865
 31
0.0
  0
DIMENSION
  5
CEA
330
1E
100
AcDbEntity
  8
BEM
100
AcDbDimension
  2
*D13
 10
155.430447320633
 20
525.9816063419298
 30
0.0
 11
148.9304473206329
 21
666.6568286704301
 31
0.0
 70
    32
  1
400
 71
     5
 42
281.3504446570005
  3
Standard
100
AcDbAlignedDimension
 13
226.8205468007457
 23
807.3320509989303
 33
0.0
 14
175.0859441290208
 24
525.9816063419298
 34
0.0
 50
90.0
100
AcDbRotatedDimension
1001
ACAD
1000
DSTYLE
1002
{
1070
    40
1040
2.0
1070
    41
1040
3.5
1070
    42
1040
1.0
1070
    43
1040
7.0
1070
    44
1040
1.0
1070
    73
1070
     0
1070
    74
1070
     0
1070
    77
1070
     1
1070
    78
1070
     8
1070
    79
1070
     2
1070
   140
1040
3.5
1070
   141
1040
1.5
1070
   146
1040
0.5142857142857144
1070
   147
1040
1.5
1070
   172
1070
     1
1070
   178
1070
     1
1070
   179
1070
     2
1070
   271
1070
     2
1070
   272
1070
     2
1070
   284
1070
     8
1070
   285
1070
     8
1070
   286
1070
     8
1002
}
  0
ARC
  5
CEB
330
1E
100
AcDbEntity
  8
STEMPEL
100
AcDbCircle
 10
283.6859441290208
 20
796.7831285918114
 30
0.0
 40
25.0
100
AcDbArc
 50
0.0
 51
24.95819631230365
  0
ARC
  5
CEC
330
1E
100
AcDbEntity
  8
STEMPEL
100
AcDbCircle
 10
318.1859441290208
 20
774.3320509989302
 30
0.0
 40
12.0
100
AcDbArc
 50
158.8168456069642
 51
180.0
  0
ARC
  5
CED
330
1E
100
AcDbEntity
  8
STEMPEL
100
AcDbCircle
 10
283.6859441290208
 20
787.7020509989302
 30
0.0
 40
25.00009324312574
100
AcDbArc
 50
338.8168456069642
 51
0.1564859543278008
  0
LINE
  5
CEE
330
1E
100
AcDbEntity
  8
STEMPEL
100
AcDbLine
 10
308.685944129021
 20
796.7831285918114
 30
0.0
 11
308.685944129021
 21
787.6337709507366
 31
0.0
  0
ARC
  5
CEF
330
1E
100
AcDbEntity
  8
STEMPEL
100
AcDbCircle
 10
311.0859441290208
 20
600.6750066773611
 30
0.0
 40
8.0
100
AcDbArc
 50
147.6719358778364
 51
180.0
  0
ARC
  5
CF0
330
1E
100
AcDbEntity
  8
STEMPEL
100
AcDbCircle
 10
294.1859441290207
 20
611.370332759347
 30
0.0
 40
12.0
100
AcDbArc
 50
327.6719358778364
 51
0.0
  0
LINE
  5
CF1
330
1E
100
AcDbEntity
  8
STEMPEL
100
AcDbLine
 10
301.4859441290209
 20
588.5644485512844
 30
0.0
 11
301.4859441290209
 21
588.0975301104317
 31
0.0
  0
ARC
  5
CF2
330
1E
100
AcDbEntity
  8
SCHRAFF
100
AcDbCircle
 10
290.7890654727344
 20
582.5234641614638
 30
0.0
 40
7.443040393312843
100
AcDbArc
 50
27.64507366279751
 51
36.80437641679991
  0
LINE
  5
CF3
330
1E
100
AcDbEntity
  8
STEMPEL
100
AcDbLine
 10
303.0859441290208
 20
580.9816063419303
 30
0.0
 11
301.26609295769
 21
580.9816063419303
 31
0.0
  0
ARC
  5
CF4
330
1E
100
AcDbEntity
  8
STEMPEL
100
AcDbCircle
 10
291.0859441290209
 20
588.0975301104317
 30
0.0
 40
12.0
100
AcDbArc
 50
339.9999999999974
 51
0.0
  0
ARC
  5
CF5
330
1E
100
AcDbEntity
  8
STEMPEL
100
AcDbCircle
 10
291.0859441290209
 20
588.0975301104317
 30
0.0
 40
10.4
100
AcDbArc
 50
339.9999999999974
 51
0.0
  0
ARC
  5
CF6
330
1E
100
AcDbEntity
  8
SCHRAFF
100
AcDbCircle
 10
296.6488189388185
 20
582.2885150056236
 30
0.0
 40
7.657442013147875
100
AcDbArc
 50
327.2073927374725
 51
34.0981897189187
  0
LWPOLYLINE
  5
CF7
330
1E
100
AcDbEntity
  8
STEMPEL
100
AcDbPolyline
 90
        4
 70
     0
 43
0.0
 10
299.1814953674125
 20
575.2542215339936
 42
-0.0611600535747248
 10
299.6656496997093
 20
574.5234135937362
 42
-0.0648584830741578
 10
300.190656560118
 20
573.0075070488119
 42
-0.0510111269016863
 10
300.3978827467431
 20
570.9816063419298
 42
-0.0510111269016738
  0
ARC
  5
CF8
330
1E
100
AcDbEntity
  8
STEMPEL
100
AcDbCircle
 10
302.5859441290208
 20
561.217432430898
 30
0.0
 40
8.0
100
AcDbArc
 50
159.9999999999974
 51
180.0
  0
ARC
  5
CF9
330
1E
100
AcDbEntity
  8
STEMPEL
100
AcDbCircle
 10
302.5859441290208
 20
561.217432430898
 30
0.0
 40
9.599999999999999
100
AcDbArc
 50
159.9999999999974
 51
180.0
  0
LINE
  5
CFA
330
1E
100
AcDbEntity
  8
STEMPEL
100
AcDbLine
 10
302.3622555784518
 20
583.9932883905235
 30
0.0
 11
295.0684031627338
 21
563.9535935775033
 31
0.0
  0
LINE
  5
CFB
330
1E
100
AcDbEntity
  8
STEMPEL
100
AcDbLine
 10
300.8587473851944
 20
584.5405206198448
 30
0.0
 11
293.564894969476
 21
564.5008258068243
 31
0.0
  0
LINE
  5
CFC
330
1E
100
AcDbEntity
  8
STEMPEL
100
AcDbLine
 10
303.0859441290208
 20
600.6750066773611
 30
0.0
 11
303.0859441290208
 21
588.0975301104317
 31
0.0
  0
TEXT
  5
CFE
330
1E
100
AcDbEntity
  8
TEXT
 62
     1
100
AcDbText
 10
349.6300830369388
 20
724.1606274887948
 30
0.0
 40
7.0
  1
Ablaufkörper
 41
0.8
  7
GREEKS
100
AcDbText
  0
ARC
  5
CFF
330
1E
100
AcDbEntity
  8
SCHRAFF
100
AcDbCircle
 10
302.5801723728339
 20
524.4610427511793
 30
0.0
 40
2.321389970326955
100
AcDbArc
 50
282.5842247085263
 51
348.0809281192454
  0
INSERT
  5
D00
330
1E
100
AcDbEntity
  8
SCHRAFF
100
AcDbBlockReference
  2
*X1
 10
118.0859441290208
 20
129.9138433093746
 30
0.0
1001
ACAD
1000
HATCH
1002
{
1070
    16
1000
_U,I
1040
0.1
1040
0.0
1070
     0
1002
}
  0
LINE
  5
D01
330
1E
100
AcDbEntity
  8
STEMPEL
100
AcDbLine
 10
309.0859441290208
 20
499.9816063419302
 30
0.0
 11
303.0859441290208
 21
499.9816063419302
 31
0.0
  0
LINE
  5
D02
330
1E
100
AcDbEntity
  8
STEMPEL
100
AcDbLine
 10
314.0859441290209
 20
523.9816063419302
 30
0.0
 11
309.0859441290208
 21
499.9816063419302
 31
0.0
  0
INSERT
  5
D03
330
1E
100
AcDbEntity
  8
SCHRAFF
100
AcDbBlockReference
  2
*X2
 10
-42.18987090281973
 20
150.53931671691
 30
0.0
1001
ACAD
1000
HATCH
1002
{
1070
    16
1000
NET,I
1040
10.0
1040
0.7853981633974483
1002
}
  0
LINE
  5
D04
102
{ACAD_REACTORS
330
106D
102
}
330
1E
100
AcDbEntity
  8
STEMPEL
100
AcDbLine
 10
358.0859441290209
 20
525.9816063419298
 30
0.0
 11
358.0859441290209
 21
523.9816063419302
 31
0.0
  0
LINE
  5
D05
102
{ACAD_REACTORS
330
106D
102
}
330
1E
100
AcDbEntity
  8
STEMPEL
100
AcDbLine
 10
358.0859441290209
 20
525.9816063419298
 30
0.0
 11
303.0859441290208
 21
525.9816063419298
 31
0.0
  0
LINE
  5
D06
102
{ACAD_REACTORS
330
106D
102
}
330
1E
100
AcDbEntity
  8
STEMPEL
100
AcDbLine
 10
358.0859441290209
 20
523.9816063419302
 30
0.0
 11
303.0859441290208
 21
523.98160634193
 31
0.0
  0
LWPOLYLINE
  5
D08
330
1E
100
AcDbEntity
  8
STEMPEL
100
AcDbPolyline
 90
        5
 70
     0
 43
0.0
 10
296.7973239762496
 20
530.9816063419297
 42
0.0448625346001936
 10
296.9800872932021
 20
528.9487800589922
 42
0.058366107133556
 10
297.4382360797731
 20
527.4460724359974
 42
0.1004267118962066
 10
298.2664046824869
 20
526.2679617372596
 42
0.0646530356134273
 10
298.484300571502
 20
526.1094988480963
 42
0.1917760145803905
  0
LWPOLYLINE
  5
D09
330
1E
100
AcDbEntity
  8
STEMPEL
100
AcDbPolyline
 90
        9
 70
     0
 43
0.0
 10
300.3978827467431
 20
530.9816063419297
 42
-0.0510111269016863
 10
300.190656560118
 20
528.9557056350481
 42
-0.0648584830741578
 10
299.6656496997093
 20
527.4397990901238
 42
-0.1041619196622498
 10
298.7444423728264
 20
526.2782591488839
 42
-0.1749289434508429
 10
297.8978827467431
 20
525.9727344911143
 42
-0.174928943450854
 10
297.0513231206596
 20
526.2782591488839
 42
-0.104161919662265
 10
296.1301157937764
 20
527.4397990901238
 42
-0.0648584830741701
 10
295.6051089333682
 20
528.9557056350481
 42
-0.051011126901681
 10
295.3978827467431
 20
530.98160634193
 42
-0.0510111269017003
  0
LINE
  5
D0A
330
1E
100
AcDbEntity
  8
STEMPEL
100
AcDbLine
 10
294.5859441290208
 20
561.217432430898
 30
0.0
 11
294.5859441290208
 21
515.9816063419298
 31
0.0
  0
LINE
  5
D0B
330
1E
100
AcDbEntity
  8
STEMPEL
100
AcDbLine
 10
296.7973239762496
 20
568.7037644726635
 30
0.0
 11
296.7973239762496
 21
530.9816063419297
 31
0.0
  0
LINE
  5
D0C
330
1E
100
AcDbEntity
  8
STEMPEL
100
AcDbLine
 10
300.3978827467431
 20
570.9816063419298
 30
0.0
 11
300.3978827467431
 21
530.98160634193
 31
0.0
  0
LINE
  5
D0D
330
1E
100
AcDbEntity
  8
STEMPEL
100
AcDbLine
 10
295.3978827467431
 20
564.8588312947402
 30
0.0
 11
295.3978827467431
 21
530.98160634193
 31
0.0
  0
LINE
  5
D0E
330
1E
100
AcDbEntity
  8
STEMPEL
100
AcDbLine
 10
292.9859441290209
 20
561.217432430898
 30
0.0
 11
292.9859441290209
 21
515.9816063419298
 31
0.0
  0
LINE
  5
D0F
330
1E
100
AcDbEntity
  8
STEMPEL
100
AcDbLine
 10
301.4859441290209
 20
580.9816063419303
 30
0.0
 11
301.4859441290209
 21
492.8795288715159
 31
0.0
  0
LINE
  5
D10
102
{ACAD_REACTORS
330
106D
102
}
330
1E
100
AcDbEntity
  8
STEMPEL
100
AcDbLine
 10
303.0859441290208
 20
580.9816063419303
 30
0.0
 11
303.0859441290208
 21
485.9816063419303
 31
0.0
  0
LINE
  5
D11
330
1E
100
AcDbEntity
  8
TEXT
 62
     2
100
AcDbLine
 10
347.628369841663
 20
721.2994914640803
 30
0.0
 11
292.5589964822366
 21
691.8551476442956
 31
0.0
  0
LINE
  5
D12
330
1E
100
AcDbEntity
  8
STEMPEL
100
AcDbLine
 10
306.1859441290208
 20
774.3320509989302
 30
0.0
 11
306.1859441290208
 21
663.5634207845856
 31
0.0
  0
TEXT
  5
D13
330
1E
100
AcDbEntity
  8
TEXT
 62
     1
100
AcDbText
 10
349.6300830369388
 20
712.8428906830044
 30
0.0
 40
7.0
  1
EDV-Art.Nr.16713.070X
 41
0.8
  7
GREEKS
100
AcDbText
  0
LINE
  5
D14
330
1E
100
AcDbEntity
  8
TEXT
 62
     2
100
AcDbLine
 10
347.628369841663
 20
721.2994914640804
 30
0.0
 11
450.492474581435
 21
721.2994914640804
 31
0.0
  0
LINE
  5
D15
330
1E
100
AcDbEntity
  8
STEMPEL
100
AcDbLine
 10
307.5859441290209
 20
485.98160634193
 30
0.0
 11
225.5859441290208
 21
485.9816063419303
 31
0.0
  0
POLYLINE
  5
D16
330
1E
100
AcDbEntity
  8
HILF
100
AcDb2dPolyline
 66
     1
 10
0.0
 20
0.0
 30
0.0
 70
     4
 75
     6
  0
VERTEX
  5
D17
330
D16
100
AcDbEntity
  8
HILF
100
AcDbVertex
100
AcDb2dVertex
 10
303.0859441290208
 20
589.538251249326
 30
0.0
 70
    16
  0
VERTEX
  5
D18
330
D16
100
AcDbEntity
  8
HILF
100
AcDbVertex
100
AcDb2dVertex
 10
303.0859441290208
 20
589.538251249326
 30
0.0
 70
     8
  0
VERTEX
  5
D19
330
D16
100
AcDbEntity
  8
HILF
100
AcDbVertex
100
AcDb2dVertex
 10
297.7601303742984
 20
586.296818872066
 30
0.0
 70
     8
  0
VERTEX
  5
D1A
330
D16
100
AcDbEntity
  8
HILF
100
AcDbVertex
100
AcDb2dVertex
 10
293.4810951391403
 20
582.6736336905296
 30
0.0
 70
     8
  0
VERTEX
  5
D1B
330
D16
100
AcDbEntity
  8
HILF
100
AcDbVertex
100
AcDb2dVertex
 10
290.1143757878865
 20
578.7617875896763
 30
0.0
 70
     8
  0
VERTEX
  5
D1C
330
D16
100
AcDbEntity
  8
HILF
100
AcDbVertex
100
AcDb2dVertex
 10
287.5255096848762
 20
574.654372454464
 30
0.0
 70
     8
  0
VERTEX
  5
D1D
330
D16
100
AcDbEntity
  8
HILF
100
AcDbVertex
100
AcDb2dVertex
 10
285.5800341944498
 20
570.4444801698514
 30
0.0
 70
     8
  0
VERTEX
  5
D1E
330
D16
100
AcDbEntity
  8
HILF
100
AcDbVertex
100
AcDb2dVertex
 10
284.1434866809466
 20
566.225202620797
 30
0.0
 70
     8
  0
VERTEX
  5
D1F
330
D16
100
AcDbEntity
  8
HILF
100
AcDbVertex
100
AcDb2dVertex
 10
283.0814045087063
 20
562.0896316922594
 30
0.0
 70
     8
  0
VERTEX
  5
D20
330
D16
100
AcDbEntity
  8
HILF
100
AcDbVertex
100
AcDb2dVertex
 10
282.2593250420689
 20
558.130859269197
 30
0.0
 70
     8
  0
VERTEX
  5
D21
330
D16
100
AcDbEntity
  8
HILF
100
AcDbVertex
100
AcDb2dVertex
 10
281.5607985829511
 20
554.4238830815943
 30
0.0
 70
     8
  0
VERTEX
  5
D22
330
D16
100
AcDbEntity
  8
HILF
100
AcDbVertex
100
AcDb2dVertex
 10
280.9414271835767
 20
550.9713242395369
 30
0.0
 70
     8
  0
VERTEX
  5
D23
330
D16
100
AcDbEntity
  8
HILF
100
AcDbVertex
100
AcDb2dVertex
 10
280.3748258337468
 20
547.7577096981362
 30
0.0
 70
     8
  0
VERTEX
  5
D24
330
D16
100
AcDbEntity
  8
HILF
100
AcDbVertex
100
AcDb2dVertex
 10
279.8346095232628
 20
544.7675664125042
 30
0.0
 70
     8
  0
VERTEX
  5
D25
330
D16
100
AcDbEntity
  8
HILF
100
AcDbVertex
100
AcDb2dVertex
 10
279.2943932419255
 20
541.985421337752
 30
0.0
 70
     8
  0
VERTEX
  5
D26
330
D16
100
AcDbEntity
  8
HILF
100
AcDbVertex
100
AcDb2dVertex
 10
278.7277919795358
 20
539.3958014289919
 30
0.0
 70
     8
  0
VERTEX
  5
D27
330
D16
100
AcDbEntity
  8
HILF
100
AcDbVertex
100
AcDb2dVertex
 10
278.108420725895
 20
536.9832336413346
 30
0.0
 70
     8
  0
VERTEX
  5
D28
330
D16
100
AcDbEntity
  8
HILF
100
AcDbVertex
100
AcDb2dVertex
 10
277.4098944708039
 20
534.7322449298917
 30
0.0
 70
     8
  0
VERTEX
  5
D29
330
D16
100
AcDbEntity
  8
HILF
100
AcDbVertex
100
AcDb2dVertex
 10
276.6090417610833
 20
532.6302792998053
 30
0.0
 70
     8
  0
VERTEX
  5
D2A
330
D16
100
AcDbEntity
  8
HILF
100
AcDbVertex
100
AcDb2dVertex
 10
275.6955453716307
 20
530.676448956337
 30
0.0
 70
     8
  0
VERTEX
  5
D2B
330
D16
100
AcDbEntity
  8
HILF
100
AcDbVertex
100
AcDb2dVertex
 10
274.662301634364
 20
528.8727831547789
 30
0.0
 70
     8
  0
VERTEX
  5
D2C
330
D16
100
AcDbEntity
  8
HILF
100
AcDbVertex
100
AcDb2dVertex
 10
273.5022068812004
 20
527.2213111504234
 30
0.0
 70
     8
  0
VERTEX
  5
D2D
330
D16
100
AcDbEntity
  8
HILF
100
AcDbVertex
100
AcDb2dVertex
 10
272.2081574440576
 20
525.7240621985615
 30
0.0
 70
     8
  0
VERTEX
  5
D2E
330
D16
100
AcDbEntity
  8
HILF
100
AcDbVertex
100
AcDb2dVertex
 10
270.7730496548527
 20
524.3830655544861
 30
0.0
 70
     8
  0
VERTEX
  5
D2F
330
D16
100
AcDbEntity
  8
HILF
100
AcDbVertex
100
AcDb2dVertex
 10
269.1897798455034
 20
523.2003504734884
 30
0.0
 70
     8
  0
VERTEX
  5
D30
330
D16
100
AcDbEntity
  8
HILF
100
AcDbVertex
100
AcDb2dVertex
 10
267.4512443479271
 20
522.1779462108615
 30
0.0
 70
     8
  0
VERTEX
  5
D31
330
D16
100
AcDbEntity
  8
HILF
100
AcDbVertex
100
AcDb2dVertex
 10
265.5518834816578
 20
521.3149226969285
 30
0.0
 70
     8
  0
VERTEX
  5
D32
330
D16
100
AcDbEntity
  8
HILF
100
AcDbVertex
100
AcDb2dVertex
 10
263.4923135166969
 20
520.5985125621432
 30
0.0
 70
     8
  0
VERTEX
  5
D33
330
D16
100
AcDbEntity
  8
HILF
100
AcDbVertex
100
AcDb2dVertex
 10
261.2746947106616
 20
520.0129891119908
 30
0.0
 70
     8
  0
VERTEX
  5
D34
330
D16
100
AcDbEntity
  8
HILF
100
AcDbVertex
100
AcDb2dVertex
 10
258.90118732117
 20
519.5426256519567
 30
0.0
 70
     8
  0
VERTEX
  5
D35
330
D16
100
AcDbEntity
  8
HILF
100
AcDbVertex
100
AcDb2dVertex
 10
256.3739516058399
 20
519.1716954875267
 30
0.0
 70
     8
  0
VERTEX
  5
D36
330
D16
100
AcDbEntity
  8
HILF
100
AcDbVertex
100
AcDb2dVertex
 10
253.6951478222889
 20
518.8844719241855
 30
0.0
 70
     8
  0
VERTEX
  5
D37
330
D16
100
AcDbEntity
  8
HILF
100
AcDbVertex
100
AcDb2dVertex
 10
250.8669362281346
 20
518.665228267419
 30
0.0
 70
     8
  0
VERTEX
  5
D38
330
D16
100
AcDbEntity
  8
HILF
100
AcDbVertex
100
AcDb2dVertex
 10
247.891477080995
 20
518.4982378227123
 30
0.0
 70
     8
  0
VERTEX
  5
D39
330
D16
100
AcDbEntity
  8
HILF
100
AcDbVertex
100
AcDb2dVertex
 10
244.7733981378997
 20
518.3696340421879
 30
0.0
 70
     8
  0
VERTEX
  5
D3A
330
D16
100
AcDbEntity
  8
HILF
100
AcDbVertex
100
AcDb2dVertex
 10
241.5271971535269
 20
518.2729909645159
 30
0.0
 70
     8
  0
VERTEX
  5
D3B
330
D16
100
AcDbEntity
  8
HILF
100
AcDbVertex
100
AcDb2dVertex
 10
238.169839381967
 20
518.2037427750028
 30
0.0
 70
     8
  0
VERTEX
  5
D3C
330
D16
100
AcDbEntity
  8
HILF
100
AcDbVertex
100
AcDb2dVertex
 10
234.7182900773098
 20
518.1573236589556
 30
0.0
 70
     8
  0
VERTEX
  5
D3D
330
D16
100
AcDbEntity
  8
HILF
100
AcDbVertex
100
AcDb2dVertex
 10
231.1895144936457
 20
518.1291678016809
 30
0.0
 70
     8
  0
VERTEX
  5
D3E
330
D16
100
AcDbEntity
  8
HILF
100
AcDbVertex
100
AcDb2dVertex
 10
227.600477885065
 20
518.114709388486
 30
0.0
 70
     8
  0
VERTEX
  5
D3F
330
D16
100
AcDbEntity
  8
HILF
100
AcDbVertex
100
AcDb2dVertex
 10
223.9681455056577
 20
518.1093826046774
 30
0.0
 70
     8
  0
VERTEX
  5
D40
330
D16
100
AcDbEntity
  8
HILF
100
AcDbVertex
100
AcDb2dVertex
 10
220.3094826095141
 20
518.108621635562
 30
0.0
 70
     8
  0
VERTEX
  5
D41
330
D16
100
AcDbEntity
  8
HILF
100
AcDbVertex
100
AcDb2dVertex
 10
287.3685470808662
 20
581.486183657852
 30
0.0
 70
    16
  0
VERTEX
  5
D42
330
D16
100
AcDbEntity
  8
HILF
100
AcDbVertex
100
AcDb2dVertex
 10
281.133564296015
 20
555.2520284379024
 30
0.0
 70
    16
  0
VERTEX
  5
D43
330
D16
100
AcDbEntity
  8
HILF
100
AcDbVertex
100
AcDb2dVertex
 10
278.5356545950617
 20
533.1737805957459
 30
0.0
 70
    16
  0
VERTEX
  5
D44
330
D16
100
AcDbEntity
  8
HILF
100
AcDbVertex
100
AcDb2dVertex
 10
269.1831841485627
 20
520.4463187584651
 30
0.0
 70
    16
  0
VERTEX
  5
D45
330
D16
100
AcDbEntity
  8
HILF
100
AcDbVertex
100
AcDb2dVertex
 10
249.4390748982503
 20
518.108621635562
 30
0.0
 70
    16
  0
VERTEX
  5
D46
330
D16
100
AcDbEntity
  8
HILF
100
AcDbVertex
100
AcDb2dVertex
 10
230.0859441290208
 20
518.108621635562
 30
0.0
 70
    16
  0
VERTEX
  5
D47
330
D16
100
AcDbEntity
  8
HILF
100
AcDbVertex
100
AcDb2dVertex
 10
220.3094826095141
 20
518.108621635562
 30
0.0
 70
    16
  0
SEQEND
  5
D48
330
D16
100
AcDbEntity
  8
HILF
  0
LINE
  5
D49
330
1E
100
AcDbEntity
  8
STEMPEL
100
AcDbLine
 10
226.8205468007457
 20
807.3320509989303
 30
0.0
 11
306.351341457296
 21
807.3320509989303
 31
0.0
  0
LINE
  5
D4A
330
1E
100
AcDbEntity
  8
HILF
  6
Continuous
100
AcDbLine
 10
304.6359948165971
 20
775.4977583510339
 30
0.0
 11
228.5358934414446
 21
775.4977583510339
 31
0.0
  0
LINE
  5
D4B
330
1E
100
AcDbEntity
  8
HILF
  6
Continuous
100
AcDbLine
 10
304.4286397402298
 20
609.5683375828484
 30
0.0
 11
228.7432485178119
 21
609.5683375828484
 31
0.0
  0
LINE
  5
D4C
330
1E
100
AcDbEntity
  8
HILF
  6
Continuous
100
AcDbLine
 10
301.6141890091148
 20
602.2389296129736
 30
0.0
 11
231.5576992489269
 21
602.2389296129731
 31
0.0
  0
LINE
  5
D4D
330
1E
100
AcDbEntity
  8
STEMPEL
100
AcDbLine
 10
238.5859441290208
 20
515.9816063419298
 30
0.0
 11
294.5859441290208
 21
515.9816063419298
 31
0.0
  0
LINE
  5
D4E
330
1E
100
AcDbEntity
  8
HILF
  6
Continuous
100
AcDbLine
 10
231.9034657172642
 20
585.9816063419298
 30
0.0
 11
299.6277745303978
 21
585.9816063419298
 31
0.0
  0
LINE
  5
D4F
330
1E
100
AcDbEntity
  8
STEMPEL
100
AcDbLine
 10
292.024856557531
 20
580.9816063419303
 30
0.0
 11
230.0859441290208
 21
580.9816063419297
 31
0.0
  0
INSERT
  5
D50
330
1E
100
AcDbEntity
  8
SCHRAFF
100
AcDbBlockReference
  2
*X4
 10
-42.18987090281973
 20
150.53931671691
 30
0.0
1001
ACAD
1000
HATCH
1002
{
1070
    16
1000
_U,I
1040
0.1
1040
0.0
1070
     0
1002
}
  0
ARC
  5
D51
330
1E
100
AcDbEntity
  8
SCHRAFF
100
AcDbCircle
 10
284.7565341313207
 20
582.5234641614638
 30
0.0
 40
7.443040393312843
100
AcDbArc
 50
348.2048117016968
 51
36.80437641679991
  0
POLYLINE
  5
D52
330
1E
100
AcDbEntity
  8
HILF
100
AcDb2dPolyline
 66
     1
 10
0.0
 20
0.0
 30
0.0
 70
     2
  0
VERTEX
  5
D53
330
D52
100
AcDbEntity
  8
HILF
100
AcDbVertex
100
AcDb2dVertex
 10
230.0859441290208
 20
492.8555736521371
 30
0.0
 42
0.0737382671189256
  0
VERTEX
  5
D54
330
D52
100
AcDbEntity
  8
HILF
100
AcDbVertex
100
AcDb2dVertex
 10
239.1697912561351
 20
489.3034517714509
 30
0.0
 42
0.0987609047239987
 70
     1
  0
VERTEX
  5
D55
330
D52
100
AcDbEntity
  8
HILF
100
AcDbVertex
100
AcDb2dVertex
 10
246.4804655266298
 20
489.0938518739336
 30
0.0
 42
0.0733477648717543
  0
VERTEX
  5
D56
330
D52
100
AcDbEntity
  8
HILF
100
AcDbVertex
100
AcDb2dVertex
 10
253.488060973661
 20
491.3745920968899
 30
0.0
 42
-0.096956435124545
 70
     1
  0
VERTEX
  5
D57
330
D52
100
AcDbEntity
  8
HILF
100
AcDbVertex
100
AcDb2dVertex
 10
258.8858487235725
 20
492.8555736521371
 30
0.0
 42
-0.1045620848282413
  0
VERTEX
  5
D58
330
D52
100
AcDbEntity
  8
HILF
100
AcDbVertex
100
AcDb2dVertex
 10
267.3189747153604
 20
491.7196077395397
 30
0.0
 42
0.0936516773699781
 70
     1
  0
VERTEX
  5
D59
330
D52
100
AcDbEntity
  8
HILF
100
AcDbVertex
100
AcDb2dVertex
 10
276.6848782144582
 20
490.2513062050293
 30
0.0
 42
0.0962094171233353
  0
VERTEX
  5
D5A
330
D52
100
AcDbEntity
  8
HILF
100
AcDbVertex
100
AcDb2dVertex
 10
285.8314515294346
 20
492.3262757577076
 30
0.0
 42
-0.0987919873376594
 70
     1
  0
VERTEX
  5
D5B
330
D52
100
AcDbEntity
  8
HILF
100
AcDbVertex
100
AcDb2dVertex
 10
294.753591957706
 20
494.3023867681495
 30
0.0
 42
-0.0649632304289429
  0
VERTEX
  5
D5C
330
D52
100
AcDbEntity
  8
HILF
100
AcDbVertex
100
AcDb2dVertex
 10
297.8137218849136
 20
493.9683607777192
 30
0.0
 42
-0.0360117806784646
 70
     1
  0
VERTEX
  5
D5D
330
D52
100
AcDbEntity
  8
HILF
100
AcDbVertex
100
AcDb2dVertex
 10
303.0859441290208
 20
492.2768464865894
 30
0.0
  0
SEQEND
  5
D5E
330
D52
100
AcDbEntity
  8
HILF
  0
DIMENSION
  5
D79
330
1E
100
AcDbEntity
  8
BEM
100
AcDbDimension
  2
*D14
 10
358.0859441290209
 20
469.0266840991561
 30
0.0
 11
266.5859441290209
 21
475.5266840991562
 31
0.0
 70
    32
  1
%%c<>
 71
     5
 42
183.0
  3
Standard
100
AcDbAlignedDimension
 13
175.0859441290208
 23
523.9816063419302
 33
0.0
 14
358.0859441290209
 24
523.9816063419302
 34
0.0
 50
180.0
100
AcDbRotatedDimension
1001
ACAD
1000
DSTYLE
1002
{
1070
    40
1040
2.0
1070
    41
1040
3.5
1070
    42
1040
1.0
1070
    43
1040
7.0
1070
    44
1040
1.0
1070
    73
1070
     0
1070
    74
1070
     0
1070
    77
1070
     1
1070
    78
1070
     8
1070
    79
1070
     2
1070
   140
1040
3.5
1070
   141
1040
1.5
1070
   146
1040
0.5142857142857144
1070
   147
1040
1.5
1070
   172
1070
     1
1070
   178
1070
     1
1070
   179
1070
     2
1070
   271
1070
     2
1070
   272
1070
     2
1070
   284
1070
     8
1070
   285
1070
     8
1070
   286
1070
     8
1002
}
  0
INSERT
  5
D7A
330
1E
100
AcDbEntity
  8
SCHRAFF
100
AcDbBlockReference
  2
*X9
 10
588.7993015936608
 20
9.596105480328787
 30
0.0
 50
90.0
1001
ACAD
1000
HATCH
1002
{
1070
    16
1000
_U,I
1040
2.0
1040
2.356194490192344
1070
     0
1002
}
  0
INSERT
  5
D7B
330
1E
100
AcDbEntity
  8
SCHRAFF
100
AcDbBlockReference
  2
*X10
 10
588.7993015936608
 20
9.596105480328787
 30
0.0
 50
90.0
1001
ACAD
1000
HATCH
1002
{
1070
    16
1000
_U,I
1040
2.0
1040
0.7853981633974483
1070
     0
1002
}
  0
LINE
  5
D7C
330
1E
100
AcDbEntity
  8
STEMPEL
100
AcDbLine
 10
219.1889976689149
 20
422.48160634193
 30
0.0
 11
219.1889976689149
 21
414.7425304184602
 31
0.0
  0
LINE
  5
D7D
330
1E
100
AcDbEntity
  8
STEMPEL
100
AcDbLine
 10
206.5859441290208
 20
404.4816063419302
 30
0.0
 11
207.5859441290208
 21
405.4816063419302
 31
0.0
  0
LINE
  5
D7E
330
1E
100
AcDbEntity
  8
STEMPEL
100
AcDbLine
 10
221.5859441290208
 20
408.9816063419302
 30
0.0
 11
211.5859441290208
 21
408.9816063419302
 31
0.0
  0
POINT
  5
D7F
330
1E
100
AcDbEntity
  8
STEMPEL
100
AcDbPoint
 10
213.5859441290208
 20
401.4816063419302
 30
0.0
  0
LINE
  5
D80
330
1E
100
AcDbEntity
  8
STEMPEL
100
AcDbLine
 10
219.3985789411327
 20
403.2461648056876
 30
0.0
 11
220.4152815576958
 21
404.4816063419302
 31
0.0
  0
LINE
  5
D81
330
1E
100
AcDbEntity
  8
BEM
100
AcDbLine
 10
220.4152815576958
 20
404.4816063419302
 30
0.0
 11
220.4152815576958
 21
404.4816063419302
 31
0.0
  0
LINE
  5
D82
330
1E
100
AcDbEntity
  8
STEMPEL
100
AcDbLine
 10
220.4152815576958
 20
404.4816063419302
 30
0.0
 11
220.8901530701632
 21
404.0970629733148
 31
0.0
  0
LINE
  5
D83
330
1E
100
AcDbEntity
  8
STEMPEL
100
AcDbLine
 10
219.3985789411327
 20
403.2461648056876
 30
0.0
 11
219.8618664753203
 21
402.871001957724
 31
0.0
  0
LINE
  5
D84
330
1E
100
AcDbEntity
  8
STEMPEL
100
AcDbLine
 10
217.0859441290208
 20
404.4816063419302
 30
0.0
 11
217.0859441290208
 21
405.4816063419302
 31
0.0
  0
LINE
  5
D85
330
1E
100
AcDbEntity
  8
STEMPEL
100
AcDbLine
 10
216.8359441290208
 20
405.4816063419302
 30
0.0
 11
216.8359441290208
 21
404.4816063419302
 31
0.0
  0
LINE
  5
D86
330
1E
100
AcDbEntity
  8
STEMPEL
100
AcDbLine
 10
206.5859441290208
 20
405.4816063419302
 30
0.0
 11
217.0859441290208
 21
405.4816063419302
 31
0.0
  0
ARC
  5
D87
330
1E
100
AcDbEntity
  8
STEMPEL
100
AcDbCircle
 10
213.5859441290208
 20
398.4816063419303
 30
0.0
 40
3.0
100
AcDbArc
 50
0.0
 51
180.0
  0
LINE
  5
D88
330
1E
100
AcDbEntity
  8
STEMPEL
100
AcDbLine
 10
217.0859441290208
 20
405.4816063419302
 30
0.0
 11
207.5859441290208
 21
405.4816063419302
 31
0.0
  0
LINE
  5
D89
330
1E
100
AcDbEntity
  8
STEMPEL
100
AcDbLine
 10
206.5859441290208
 20
405.4816063419302
 30
0.0
 11
206.5859441290208
 21
425.98160634193
 31
0.0
  0
LINE
  5
D8A
330
1E
100
AcDbEntity
  8
STEMPEL
100
AcDbLine
 10
221.5859441290208
 20
414.2171797857336
 30
0.0
 11
221.5859441290208
 21
408.9816063419302
 31
0.0
  0
LINE
  5
D8B
330
1E
100
AcDbEntity
  8
STEMPEL
100
AcDbLine
 10
211.5859441290208
 20
408.9816063419302
 30
0.0
 11
211.5859441290208
 21
416.2171429118188
 31
0.0
  0
LINE
  5
D8C
330
1E
100
AcDbEntity
  8
STEMPEL
100
AcDbLine
 10
222.3917703048619
 20
422.48160634193
 30
0.0
 11
222.3917703048617
 21
414.036189554045
 31
0.0
  0
LINE
  5
D8D
330
1E
100
AcDbEntity
  8
STEMPEL
100
AcDbLine
 10
229.7955993867131
 20
422.48160634193
 30
0.0
 11
229.7955993867131
 21
412.2892208941432
 31
0.0
  0
LINE
  5
D8E
330
1E
100
AcDbEntity
  8
STEMPEL
100
AcDbLine
 10
217.0859441290208
 20
404.4816063419302
 30
0.0
 11
225.5859441290208
 21
404.4816063419302
 31
0.0
  0
LINE
  5
D8F
330
1E
100
AcDbEntity
  8
STEMPEL
100
AcDbLine
 10
221.5859441290208
 20
425.98160634193
 30
0.0
 11
225.0859441290208
 21
429.48160634193
 31
0.0
  0
ARC
  5
D90
330
1E
100
AcDbEntity
  8
STEMPEL
100
AcDbCircle
 10
215.5859441290208
 20
398.6132590447774
 30
0.0
 40
6.0
100
AcDbArc
 50
0.0
 51
77.97530081943556
  0
ARC
  5
D91
330
1E
100
AcDbEntity
  8
STEMPEL
100
AcDbCircle
 10
216.0859441290209
 20
398.2081261889826
 30
0.0
 40
6.0
100
AcDbArc
 50
0.0
 51
50.99999999999926
  0
ARC
  5
D92
330
1E
100
AcDbEntity
  8
STEMPEL
100
AcDbCircle
 10
216.0859441290209
 20
398.2081261889826
 30
0.0
 40
7.599999999999999
100
AcDbArc
 50
0.0
 51
50.79235077003635
  0
LINE
  5
D93
330
1E
100
AcDbEntity
  8
STEMPEL
100
AcDbLine
 10
225.5859441290208
 20
404.4816063419302
 30
0.0
 11
216.8359441290208
 21
404.4816063419302
 31
0.0
  0
INSERT
  5
D94
330
1E
100
AcDbEntity
  8
SCHRAFF
100
AcDbBlockReference
  2
*X8
 10
571.7656265396136
 20
294.1550148133936
 30
0.0
 50
90.0
1001
ACAD
1000
HATCH
1002
{
1070
    16
1000
NET,I
1040
20.0
1040
0.7853981633974483
1002
}
  0
LINE
  5
D95
330
1E
100
AcDbEntity
  8
STEMPEL
100
AcDbLine
 10
219.1889976689149
 20
422.48160634193
 30
0.0
 11
229.7955993867131
 21
422.48160634193
 31
0.0
  0
POINT
  5
D96
330
1E
100
AcDbEntity
  8
STEMPEL
100
AcDbPoint
 10
206.5859441290208
 20
393.4816063419303
 30
0.0
  0
LINE
  5
D97
330
1E
100
AcDbEntity
  8
STEMPEL
100
AcDbLine
 10
216.5859441290209
 20
394.4816063419303
 30
0.0
 11
217.5859441290208
 21
393.4816063419303
 31
0.0
  0
LINE
  5
D98
330
1E
100
AcDbEntity
  8
STEMPEL
100
AcDbLine
 10
222.0859441290208
 20
393.4816063419303
 30
0.0
 11
206.5859441290208
 21
393.4816063419303
 31
0.0
  0
LINE
  5
D99
330
1E
100
AcDbEntity
  8
STEMPEL
100
AcDbLine
 10
206.5859441290208
 20
404.48160634193
 30
0.0
 11
206.5859441290208
 21
393.4816063419303
 31
0.0
  0
LINE
  5
D9A
330
1E
100
AcDbEntity
  8
STEMPEL
100
AcDbLine
 10
216.5859441290209
 20
398.4816063419303
 30
0.0
 11
216.5859441290209
 21
394.4816063419303
 31
0.0
  0
LINE
  5
D9B
330
1E
100
AcDbEntity
  8
STEMPEL
100
AcDbLine
 10
210.5859441290208
 20
398.4816063419303
 30
0.0
 11
210.5859441290208
 21
393.4816063419301
 31
0.0
  0
LINE
  5
D9C
330
1E
100
AcDbEntity
  8
STEMPEL
100
AcDbLine
 10
221.5859441290208
 20
398.6132590447774
 30
0.0
 11
221.5859441290208
 21
393.4816063419303
 31
0.0
  0
POLYLINE
  5
D9D
330
1E
100
AcDbEntity
  8
HILF
100
AcDb2dPolyline
 66
     1
 10
0.0
 20
0.0
 30
0.0
 70
     2
  0
VERTEX
  5
D9E
330
D9D
100
AcDbEntity
  8
HILF
100
AcDbVertex
100
AcDb2dVertex
 10
206.5859441290208
 20
417.0424558317195
 30
0.0
 42
-0.0076954051048613
  0
VERTEX
  5
D9F
330
D9D
100
AcDbEntity
  8
HILF
100
AcDbVertex
100
AcDb2dVertex
 10
213.8973680253041
 20
415.7989741189624
 30
0.0
 42
-0.0083555681589485
 70
     1
  0
VERTEX
  5
DA0
330
D9D
100
AcDbEntity
  8
HILF
100
AcDbVertex
100
AcDb2dVertex
 10
220.5909699010608
 20
414.4381890275599
 30
0.0
 42
-0.0103428526815329
  0
VERTEX
  5
DA1
330
D9D
100
AcDbEntity
  8
HILF
100
AcDbVertex
100
AcDb2dVertex
 10
236.3143492256586
 20
410.6244141109569
 30
0.0
 42
-0.0398860559348747
 70
     1
  0
VERTEX
  5
DA2
330
D9D
100
AcDbEntity
  8
HILF
100
AcDbVertex
100
AcDb2dVertex
 10
240.2777738156903
 20
409.229652872089
 30
0.0
 42
-0.2255303876895125
  0
VERTEX
  5
DA3
330
D9D
100
AcDbEntity
  8
HILF
100
AcDbVertex
100
AcDb2dVertex
 10
242.4936664801232
 20
406.646683430713
 30
0.0
 42
-0.0642567056688984
 70
     1
  0
VERTEX
  5
DA4
330
D9D
100
AcDbEntity
  8
HILF
100
AcDbVertex
100
AcDb2dVertex
 10
244.0533251212955
 20
395.3402265203691
 30
0.0
 42
-0.071563200119874
  0
VERTEX
  5
DA5
330
D9D
100
AcDbEntity
  8
HILF
100
AcDbVertex
100
AcDb2dVertex
 10
242.8542942104839
 20
386.4553062066453
 30
0.0
 42
-0.0715557847621289
 70
     1
  0
VERTEX
  5
DA6
330
D9D
100
AcDbEntity
  8
HILF
100
AcDbVertex
100
AcDb2dVertex
 10
239.1990455494918
 20
378.2678076910266
 30
0.0
 42
-0.1532639128688667
  0
VERTEX
  5
DA7
330
D9D
100
AcDbEntity
  8
HILF
100
AcDbVertex
100
AcDb2dVertex
 10
232.874007657299
 20
372.8982605204679
 30
0.0
 42
-0.1149931053672608
 70
     1
  0
VERTEX
  5
DA8
330
D9D
100
AcDbEntity
  8
HILF
100
AcDbVertex
100
AcDb2dVertex
 10
222.0859441290208
 20
371.0382617882931
 30
0.0
  0
SEQEND
  5
DA9
330
D9D
100
AcDbEntity
  8
HILF
  0
LINE
  5
DAA
330
1E
100
AcDbEntity
  8
STEMPEL
100
AcDbLine
 10
231.6859441290207
 20
411.8187364725338
 30
0.0
 11
231.6859441290207
 21
372.4329984492465
 31
0.0
  0
LINE
  5
DAB
330
1E
100
AcDbEntity
  8
STEMPEL
100
AcDbLine
 10
230.0859441290208
 20
412.217607155869
 30
0.0
 11
230.0859441290208
 21
371.9170617273714
 31
0.0
  0
LINE
  5
DAC
330
1E
100
AcDbEntity
  8
HILF
100
AcDbLine
 10
227.7024441290209
 20
412.7985404574583
 30
0.0
 11
227.7024441290209
 21
371.3681920111114
 31
0.0
  0
LINE
  5
DAD
330
1E
100
AcDbEntity
  8
STEMPEL
100
AcDbLine
 10
225.5859441290208
 20
413.3011487105136
 30
0.0
 11
225.5859441290208
 21
371.0886498059144
 31
0.0
  0
LINE
  5
DAE
330
1E
100
AcDbEntity
  8
STEMPEL
100
AcDbLine
 10
223.6859441290207
 20
370.9981658358711
 30
0.0
 11
223.6859441290207
 21
398.2081261889825
 31
0.0
  0
INSERT
  5
DAF
330
1E
100
AcDbEntity
  8
SCHRAFF
100
AcDbBlockReference
  2
*X6
 10
571.7656265396136
 20
294.1550148133936
 30
0.0
 50
90.0
1001
ACAD
1000
HATCH
1002
{
1070
    16
1000
NET,I
1040
10.0
1040
0.7853981633974483
1002
}
  0
INSERT
  5
DB0
330
1E
100
AcDbEntity
  8
SCHRAFF
100
AcDbBlockReference
  2
*X7
 10
571.7656265396136
 20
294.1550148133936
 30
0.0
 50
90.0
1001
ACAD
1000
HATCH
1002
{
1070
    16
1000
NET,I
1040
15.0
1040
0.7853981633974483
1002
}
  0
INSERT
  5
DB1
330
1E
100
AcDbEntity
  8
SCHRAFF
100
AcDbBlockReference
  2
*X11
 10
588.7993015936608
 20
9.596105480328787
 30
0.0
 50
90.0
1001
ACAD
1000
HATCH
1002
{
1070
    16
1000
_U,I
1040
2.0
1040
2.356194490192344
1070
     0
1002
}
  0
INSERT
  5
DB2
330
1E
100
AcDbEntity
  8
SCHRAFF
100
AcDbBlockReference
  2
*X12
 10
588.7993015936608
 20
9.596105480328787
 30
0.0
 50
90.0
1001
ACAD
1000
HATCH
1002
{
1070
    16
1000
_U,I
1040
2.0
1040
0.7853981633974483
1070
     0
1002
}
  0
ARC
  5
DB3
330
1E
100
AcDbEntity
  8
STEMPEL
100
AcDbCircle
 10
234.0859441290208
 20
247.3144220719278
 30
0.0
 40
12.0
100
AcDbArc
 50
180.0
 51
206.5650511770794
  0
ARC
  5
DB4
330
1E
100
AcDbEntity
  8
SCHRAFF
100
AcDbCircle
 10
232.3548087947234
 20
229.0172126347834
 30
0.0
 40
4.200983067013757
100
AcDbArc
 50
149.2540993634774
 51
237.3109518135994
  0
ARC
  5
DB5
330
1E
100
AcDbEntity
  8
SCHRAFF
100
AcDbCircle
 10
235.9167205446097
 20
228.4816063419302
 30
0.0
 40
4.034065596365233
100
AcDbArc
 50
311.9552992746705
 51
48.04470072532939
  0
ARC
  5
DB6
330
1E
100
AcDbEntity
  8
SCHRAFF
100
AcDbCircle
 10
240.9167205446097
 20
228.4816063419302
 30
0.0
 40
4.034065596365233
100
AcDbArc
 50
311.9552992746705
 51
48.04470072532939
  0
ARC
  5
DB7
330
1E
100
AcDbEntity
  8
SCHRAFF
100
AcDbCircle
 10
230.9167205446097
 20
228.4816063419302
 30
0.0
 40
4.034065596365233
100
AcDbArc
 50
311.9552992746705
 51
48.04470072532939
  0
LINE
  5
DB8
330
1E
100
AcDbEntity
  8
STEMPEL
100
AcDbLine
 10
230.0859441290208
 20
168.8435611556299
 30
0.0
 11
230.0859441290208
 21
228.4816063419303
 31
0.0
  0
ARC
  5
DB9
330
1E
100
AcDbEntity
  8
SCHRAFF
100
AcDbCircle
 10
245.9167205446097
 20
228.4816063419302
 30
0.0
 40
4.034065596365233
100
AcDbArc
 50
311.9552992746705
 51
48.04470072532939
  0
ARC
  5
DBA
330
1E
100
AcDbEntity
  8
SCHRAFF
100
AcDbCircle
 10
250.9167205446097
 20
228.4816063419302
 30
0.0
 40
4.034065596365233
100
AcDbArc
 50
311.9552992746705
 51
48.04470072532939
  0
ARC
  5
DBB
330
1E
100
AcDbEntity
  8
SCHRAFF
100
AcDbCircle
 10
255.9167205446097
 20
228.4816063419302
 30
0.0
 40
4.034065596365233
100
AcDbArc
 50
311.9552992746705
 51
48.04470072532939
  0
ARC
  5
DBC
330
1E
100
AcDbEntity
  8
SCHRAFF
100
AcDbCircle
 10
260.9167205446097
 20
228.4816063419302
 30
0.0
 40
4.034065596365233
100
AcDbArc
 50
311.9552992746705
 51
48.04470072532939
  0
ARC
  5
DBD
330
1E
100
AcDbEntity
  8
SCHRAFF
100
AcDbCircle
 10
275.9167205446097
 20
228.4816063419302
 30
0.0
 40
4.034065596365233
100
AcDbArc
 50
311.9552992746705
 51
48.04470072532939
  0
ARC
  5
DBE
330
1E
100
AcDbEntity
  8
SCHRAFF
100
AcDbCircle
 10
270.9167205446097
 20
228.4816063419302
 30
0.0
 40
4.034065596365233
100
AcDbArc
 50
311.9552992746705
 51
48.04470072532939
  0
ARC
  5
DBF
330
1E
100
AcDbEntity
  8
SCHRAFF
100
AcDbCircle
 10
265.9167205446097
 20
228.4816063419302
 30
0.0
 40
4.034065596365233
100
AcDbArc
 50
311.9552992746705
 51
48.04470072532939
  0
ARC
  5
DC0
330
1E
100
AcDbEntity
  8
SCHRAFF
100
AcDbCircle
 10
280.9167205446097
 20
228.4816063419302
 30
0.0
 40
4.034065596365233
100
AcDbArc
 50
311.9552992746705
 51
48.04470072532939
  0
ARC
  5
DC1
330
1E
100
AcDbEntity
  8
SCHRAFF
100
AcDbCircle
 10
285.9167205446097
 20
228.4816063419302
 30
0.0
 40
4.034065596365233
100
AcDbArc
 50
311.9552992746705
 51
48.04470072532939
  0
LINE
  5
DC2
330
1E
100
AcDbEntity
  8
STEMPEL
100
AcDbLine
 10
230.0859441290208
 20
228.4816063419303
 30
0.0
 11
223.352817837022
 21
241.9478589259281
 31
0.0
  0
LINE
  5
DC3
330
1E
100
AcDbEntity
  8
STEMPEL
100
AcDbLine
 10
222.0859441290208
 20
247.3144220719277
 30
0.0
 11
222.0859441290208
 21
398.2081261889825
 31
0.0
  0
LINE
  5
DC4
330
1E
100
AcDbEntity
  8
STEMPEL
100
AcDbLine
 10
230.9608307642802
 20
99.66088483383783
 30
0.0
 11
230.0859441290208
 21
109.6608848338378
 31
0.0
  0
LINE
  5
DC5
330
1E
100
AcDbEntity
  8
STEMPEL
100
AcDbLine
 10
230.0859441290208
 20
109.6608848338378
 30
0.0
 11
230.0859441290208
 21
163.8435611556299
 31
0.0
  0
DIMENSION
  5
DC6
330
1E
100
AcDbEntity
  8
BEM
100
AcDbDimension
  2
*D15
 10
155.5918172308156
 20
404.4816063419302
 30
0.0
 11
149.0918172308156
 21
252.0712455878841
 31
0.0
 70
    32
  1
2500
 71
     5
 42
304.8207215080925
  3
Standard
100
AcDbAlignedDimension
 13
230.9608307642802
 23
99.66088483383783
 33
0.0
 14
216.8359441290208
 24
404.4816063419302
 34
0.0
 50
90.0
100
AcDbRotatedDimension
1001
ACAD
1000
DSTYLE
1002
{
1070
    40
1040
2.0
1070
    41
1040
3.5
1070
    42
1040
1.0
1070
    43
1040
7.0
1070
    44
1040
1.0
1070
    73
1070
     0
1070
    74
1070
     0
1070
    77
1070
     1
1070
    78
1070
     8
1070
    79
1070
     2
1070
   140
1040
3.5
1070
   141
1040
1.5
1070
   146
1040
0.5142857142857144
1070
   147
1040
1.5
1070
   172
1070
     1
1070
   178
1070
     1
1070
   179
1070
     2
1070
   271
1070
     2
1070
   272
1070
     2
1070
   284
1070
     8
1070
   285
1070
     8
1070
   286
1070
     8
1002
}
  0
LINE
  5
DC7
330
1E
100
AcDbEntity
  8
STEMPEL
100
AcDbLine
 10
311.5859441290208
 20
425.9816063419302
 30
0.0
 11
308.0859441290209
 21
429.4816063419302
 31
0.0
  0
POINT
  5
DC8
330
1E
100
AcDbEntity
  8
STEMPEL
100
AcDbPoint
 10
305.6809441290211
 20
429.4816063419302
 30
0.0
  0
POINT
  5
DC9
330
1E
100
AcDbEntity
  8
STEMPEL
100
AcDbPoint
 10
308.0859441290209
 20
429.4816063419302
 30
0.0
  0
LINE
  5
DCA
330
1E
100
AcDbEntity
  8
STEMPEL
100
AcDbLine
 10
313.9828905891268
 20
422.4816063419302
 30
0.0
 11
303.3762888713286
 21
422.4816063419302
 31
0.0
  0
LINE
  5
DCB
330
1E
100
AcDbEntity
  8
STEMPEL
100
AcDbLine
 10
313.9828905891268
 20
422.4816063419302
 30
0.0
 11
313.9828905891268
 21
405.4816063419302
 31
0.0
  0
LINE
  5
DCC
330
1E
100
AcDbEntity
  8
STEMPEL
100
AcDbLine
 10
310.7801179531803
 20
422.4816063419302
 30
0.0
 11
310.7801179531803
 21
405.4816063419302
 31
0.0
  0
LINE
  5
DCD
330
1E
100
AcDbEntity
  8
STEMPEL
100
AcDbLine
 10
303.3762888713286
 20
422.4816063419302
 30
0.0
 11
303.3762888713286
 21
405.4816063419302
 31
0.0
  0
POINT
  5
DCE
330
1E
100
AcDbEntity
  8
STEMPEL
100
AcDbPoint
 10
326.5859441290209
 20
425.9816063419302
 30
0.0
  0
LINE
  5
DCF
330
1E
100
AcDbEntity
  8
STEMPEL
100
AcDbLine
 10
316.0859441290209
 20
405.48160634193
 30
0.0
 11
326.5859441290209
 21
405.48160634193
 31
0.0
  0
POINT
  5
DD0
330
1E
100
AcDbEntity
  8
STEMPEL
100
AcDbPoint
 10
326.5859441290209
 20
405.48160634193
 30
0.0
  0
LINE
  5
DD1
330
1E
100
AcDbEntity
  8
STEMPEL
100
AcDbLine
 10
326.5859441290209
 20
404.4816063419302
 30
0.0
 11
325.5859441290208
 21
405.4816063419302
 31
0.0
  0
LINE
  5
DD2
330
1E
100
AcDbEntity
  8
STEMPEL
100
AcDbLine
 10
326.5859441290209
 20
405.48160634193
 30
0.0
 11
326.5859441290209
 21
425.9816063419302
 31
0.0
  0
LINE
  5
DD3
330
1E
100
AcDbEntity
  8
STEMPEL
100
AcDbLine
 10
326.5859441290209
 20
404.4816063419302
 30
0.0
 11
326.5859441290209
 21
393.4816063419303
 31
0.0
  0
LINE
  5
DD4
330
1E
100
AcDbEntity
  8
TEXT
 62
     2
100
AcDbLine
 10
378.2749499185518
 20
344.7315564406913
 30
0.0
 11
294.3909060435626
 21
359.2897604665807
 31
0.0
  0
ARC
  5
DD5
330
1E
100
AcDbEntity
  8
STEMPEL
100
AcDbCircle
 10
299.0859441290208
 20
247.3144220719276
 30
0.0
 40
12.0
100
AcDbArc
 50
333.4349488229205
 51
0.0
  0
ARC
  5
DD6
330
1E
100
AcDbEntity
  8
SCHRAFF
100
AcDbCircle
 10
295.9167205446097
 20
228.4816063419302
 30
0.0
 40
4.034065596365233
100
AcDbArc
 50
311.9552992746705
 51
48.04470072532939
  0
ARC
  5
DD7
330
1E
100
AcDbEntity
  8
SCHRAFF
100
AcDbCircle
 10
290.9167205446097
 20
228.4816063419302
 30
0.0
 40
4.034065596365233
100
AcDbArc
 50
311.9552992746705
 51
48.04470072532939
  0
ARC
  5
DD8
330
1E
100
AcDbEntity
  8
SCHRAFF
100
AcDbCircle
 10
300.8170794633183
 20
229.0172126347834
 30
0.0
 40
4.200983067013757
100
AcDbArc
 50
302.6890481864006
 51
30.74590063652254
  0
LINE
  5
DD9
330
1E
100
AcDbEntity
  8
STEMPEL
100
AcDbLine
 10
303.0859441290208
 20
166.5142656240463
 30
0.0
 11
303.0859441290208
 21
228.4816063419303
 31
0.0
  0
LINE
  5
DDA
330
1E
100
AcDbEntity
  8
STEMPEL
100
AcDbLine
 10
303.0859441290208
 20
228.4816063419303
 30
0.0
 11
309.8190704210201
 21
241.9478589259281
 31
0.0
  0
LINE
  5
DDB
330
1E
100
AcDbEntity
  8
STEMPEL
100
AcDbLine
 10
311.0859441290208
 20
247.3144220719275
 30
0.0
 11
311.0859441290208
 21
393.4816063419303
 31
0.0
  0
TEXT
  5
DDC
330
1E
100
AcDbEntity
  8
TEXT
 62
     1
100
AcDbText
 10
380.2766631138276
 20
336.2749556596153
 30
0.0
 40
7.0
  1
EDV-Art.Nr.16721.070X
 41
0.8
  7
GREEKS
100
AcDbText
  0
LINE
  5
DDD
330
1E
100
AcDbEntity
  8
TEXT
 62
     2
100
AcDbLine
 10
378.2749499185518
 20
344.7315564406913
 30
0.0
 11
481.1390546583238
 21
344.7315564406912
 31
0.0
  0
TEXT
  5
DDE
330
1E
100
AcDbEntity
  8
TEXT
 62
     1
100
AcDbText
 10
380.2766631138276
 20
347.5926924654057
 30
0.0
 40
7.0
  1
Fallrohr
 41
0.8
  7
GREEKS
100
AcDbText
  0
POINT
  5
DDF
330
1E
100
AcDbEntity
  8
STEMPEL
100
AcDbPoint
 10
302.2110574937615
 20
99.66088483383783
 30
0.0
  0
LINE
  5
DE0
330
1E
100
AcDbEntity
  8
STEMPEL
100
AcDbLine
 10
302.2110574937615
 20
99.66088483383783
 30
0.0
 11
303.0859441290208
 21
109.6608848338378
 31
0.0
  0
LINE
  5
DE1
330
1E
100
AcDbEntity
  8
STEMPEL
100
AcDbLine
 10
303.0859441290208
 20
109.6608848338378
 30
0.0
 11
303.0859441290208
 21
161.5142656240464
 31
0.0
  0
LINE
  5
DE2
330
1E
100
AcDbEntity
  8
STEMPEL
100
AcDbLine
 10
225.0859441290208
 20
429.48160634193
 30
0.0
 11
308.0859441290209
 21
429.4816063419302
 31
0.0
  0
LINE
  5
DE3
330
1E
100
AcDbEntity
  8
STEMPEL
100
AcDbLine
 10
206.5859441290208
 20
425.98160634193
 30
0.0
 11
326.5859441290209
 21
425.98160634193
 31
0.0
  0
LINE
  5
DE4
330
1E
100
AcDbEntity
  8
STEMPEL
100
AcDbLine
 10
325.5859441290208
 20
405.4816063419302
 30
0.0
 11
242.7935498815709
 21
405.4816063419302
 31
0.0
  0
LINE
  5
DE5
330
1E
100
AcDbEntity
  8
STEMPEL
100
AcDbLine
 10
326.5859441290209
 20
393.4816063419303
 30
0.0
 11
244.0146809130029
 21
393.4816063419303
 31
0.0
  0
LINE
  5
DE6
330
1E
100
AcDbEntity
  8
STEMPEL
100
AcDbLine
 10
302.2110574937615
 20
99.66088483383783
 30
0.0
 11
230.9608307642802
 21
99.66088483383783
 31
0.0
  0
LINE
  5
DE7
330
1E
100
AcDbEntity
  8
HILF
100
AcDbLine
 10
307.4175199127417
 20
244.4816063419303
 30
0.0
 11
225.7543683453004
 21
244.4816063419303
 31
0.0
  0
LINE
  5
DE8
330
1E
100
AcDbEntity
  8
STEMPEL
100
AcDbLine
 10
303.0859441290208
 20
228.4816063419303
 30
0.0
 11
230.0859441290208
 21
228.4816063419303
 31
0.0
  0
LINE
  5
DE9
330
1E
100
AcDbEntity
  8
HILF
100
AcDbLine
 10
299.8737206488822
 20
109.6608848338378
 30
0.0
 11
233.2981676091595
 21
109.6608848338378
 31
0.0
  0
INSERT
  5
E04
330
1E
100
AcDbEntity
  8
SCHRAFF
100
AcDbBlockReference
  2
*X5
 10
452.5847233738552
 20
60.714343504706
 30
0.0
 50
90.0
1001
ACAD
1000
HATCH
1002
{
1070
    16
1000
_U,I
1040
0.1
1040
0.0
1070
     0
1002
}
  0
DIMENSION
  5
E05
330
1E
100
AcDbEntity
  8
BEM
100
AcDbDimension
  2
*D16
 10
230.0859441290208
 20
78.97782708893453
 30
0.0
 11
266.5859441290209
 21
85.47782708893453
 31
0.0
 70
    32
  1
%%C<>
 71
     5
 42
73.0
  3
Standard
100
AcDbAlignedDimension
 13
303.0859441290208
 23
109.6608848338378
 33
0.0
 14
230.0859441290208
 24
109.6608848338378
 34
0.0
 50
180.0
100
AcDbRotatedDimension
1001
ACAD
1000
DSTYLE
1002
{
1070
    40
1040
2.0
1070
    41
1040
3.5
1070
    42
1040
1.0
1070
    43
1040
7.0
1070
    44
1040
1.0
1070
    73
1070
     0
1070
    74
1070
     0
1070
    77
1070
     1
1070
    78
1070
     8
1070
    79
1070
     2
1070
   140
1040
3.5
1070
   141
1040
1.5
1070
   146
1040
0.5142857142857144
1070
   147
1040
1.5
1070
   172
1070
     1
1070
   178
1070
     1
1070
   179
1070
     2
1070
   271
1070
     2
1070
   272
1070
     2
1070
   284
1070
     8
1070
   285
1070
     8
1070
   286
1070
     8
1002
}
  0
LINE
  5
E06
330
1E
100
AcDbEntity
  8
STEMPEL
100
AcDbLine
 10
225.5859441290208
 20
485.9816063419303
 30
0.0
 11
225.5859441290208
 21
429.48160634193
 31
0.0
  0
LINE
  5
E07
330
1E
100
AcDbEntity
  8
STEMPEL
100
AcDbLine
 10
307.5859441290209
 20
485.9816063419303
 30
0.0
 11
307.5859441290209
 21
429.4816063419302
 31
0.0
  0
LINE
  5
E08
330
1E
100
AcDbEntity
  8
HILF
100
AcDbLine
 10
227.7024441290209
 20
485.9816063419303
 30
0.0
 11
227.7024441290209
 21
429.48160634193
 31
0.0
  0
LINE
  5
E09
330
1E
100
AcDbEntity
  8
HILF
100
AcDbLine
 10
305.4694441290207
 20
485.9816063419303
 30
0.0
 11
305.4694441290207
 21
429.4816063419302
 31
0.0
  0
LINE
  5
E0A
330
1E
100
AcDbEntity
  8
MITTEL
100
AcDbLine
 10
266.5859441290209
 20
466.4326982120562
 30
0.0
 11
266.5859441290209
 21
94.66088483383783
 31
0.0
  0
DIMENSION
  5
E0B
330
1E
100
AcDbEntity
  8
BEM
100
AcDbDimension
  2
*D17
 10
155.430447320633
 20
525.9816063419298
 30
0.0
 11
148.9304473206329
 21
475.9816063419299
 31
0.0
 70
    32
  1
min.100-max.170
 71
     5
 42
99.99999999999971
  3
Standard
100
AcDbAlignedDimension
 13
206.5859441290208
 23
425.98160634193
 33
0.0
 14
175.0859441290208
 24
525.9816063419298
 34
0.0
 50
90.0
100
AcDbRotatedDimension
1001
ACAD
1000
DSTYLE
1002
{
1070
    40
1040
2.0
1070
    41
1040
3.5
1070
    42
1040
1.0
1070
    43
1040
7.0
1070
    44
1040
1.0
1070
    73
1070
     0
1070
    74
1070
     0
1070
    77
1070
     1
1070
    78
1070
     8
1070
    79
1070
     2
1070
   140
1040
3.5
1070
   141
1040
1.5
1070
   146
1040
0.5142857142857144
1070
   147
1040
1.5
1070
   172
1070
     1
1070
   178
1070
     1
1070
   179
1070
     2
1070
   271
1070
     2
1070
   272
1070
     2
1070
   284
1070
     8
1070
   285
1070
     8
1070
   286
1070
     8
1002
}
  0
SPLINE
  5
FA6
330
1E
100
AcDbEntity
  8
HILF
100
AcDbSpline
210
0.0
220
0.0
230
1.0
 70
     8
 71
     3
 72
    11
 73
     7
 74
     5
 42
0.0000000001
 43
0.0000000001
 44
0.0000000001
 40
0.0
 40
0.0
 40
0.0
 40
0.0
 40
20.42155723739019
 40
40.84311447478024
 40
61.26467171217031
 40
81.6862289495604
 40
81.6862289495604
 40
81.6862289495604
 40
81.6862289495604
 10
226.9859441290209
 20
658.5634207845855
 30
0.0
 10
233.585944129021
 20
661.0634207845857
 30
0.0
 10
246.7859441290209
 20
666.063420784586
 30
0.0
 10
266.5859441290208
 20
658.5634207845853
 30
0.0
 10
286.3859441290208
 20
651.0634207845855
 30
0.0
 10
299.5859441290208
 20
656.0634207845857
 30
0.0
 10
306.1859441290208
 20
658.5634207845856
 30
0.0
 11
226.9859441290209
 21
658.5634207845855
 31
0.0
 11
246.7859441290209
 21
663.5634207845858
 31
0.0
 11
266.5859441290209
 21
658.5634207845855
 31
0.0
 11
286.3859441290208
 21
653.5634207845856
 31
0.0
 11
306.1859441290208
 21
658.5634207845856
 31
0.0
  0
SPLINE
  5
FA7
330
1E
100
AcDbEntity
  8
HILF
100
AcDbSpline
210
0.0
220
0.0
230
1.0
 70
     8
 71
     3
 72
    11
 73
     7
 74
     5
 42
0.0000000001
 43
0.0000000001
 44
0.0000000001
 40
0.0
 40
0.0
 40
0.0
 40
0.0
 40
20.42155723739019
 40
40.84311447478024
 40
61.26467171217031
 40
81.6862289495604
 40
81.6862289495604
 40
81.6862289495604
 40
81.6862289495604
 10
226.9859441290209
 20
663.5634207845855
 30
0.0
 10
233.585944129021
 20
666.0634207845857
 30
0.0
 10
246.7859441290209
 20
671.063420784586
 30
0.0
 10
266.5859441290208
 20
663.5634207845853
 30
0.0
 10
286.3859441290208
 20
656.0634207845854
 30
0.0
 10
299.5859441290208
 20
661.0634207845855
 30
0.0
 10
306.1859441290208
 20
663.5634207845856
 30
0.0
 11
226.9859441290209
 21
663.5634207845855
 31
0.0
 11
246.7859441290209
 21
668.5634207845858
 31
0.0
 11
266.5859441290209
 21
663.5634207845855
 31
0.0
 11
286.3859441290208
 21
658.5634207845855
 31
0.0
 11
306.1859441290208
 21
663.5634207845856
 31
0.0
  0
LINE
  5
FA8
330
1E
100
AcDbEntity
  8
STEMPEL
100
AcDbLine
 10
226.9859441290209
 20
658.5634207845855
 30
0.0
 11
226.9859441290209
 21
611.370332759347
 31
0.0
  0
LINE
  5
FA9
330
1E
100
AcDbEntity
  8
STEMPEL
100
AcDbLine
 10
306.1859441290208
 20
658.5634207845856
 30
0.0
 11
306.1859441290208
 21
611.370332759347
 31
0.0
  0
SPLINE
  5
FAA
330
1E
100
AcDbEntity
  8
HILF
100
AcDbSpline
210
0.0
220
0.0
230
1.0
 70
     8
 71
     3
 72
    11
 73
     7
 74
     0
 42
0.0000000001
 43
0.0000000001
 40
3.197314516965035
 40
3.197314516965035
 40
3.197314516965035
 40
3.197314516965035
 40
20.42155723739019
 40
40.84311447478024
 40
61.26467171217031
 40
78.48891443259535
 40
78.48891443259535
 40
78.48891443259535
 40
78.48891443259535
 10
230.0859441290208
 20
168.8435611556298
 30
0.0
 10
235.6526107956876
 20
170.900459660627
 30
0.0
 10
247.8192774623542
 20
174.7874992484243
 30
0.0
 10
266.5859441290208
 20
167.6789133898378
 30
0.0
 10
285.3526107956875
 20
160.5703275312521
 30
0.0
 10
297.5192774623542
 20
164.4573671190493
 30
0.0
 10
303.0859441290208
 20
166.5142656240463
 30
0.0
  0
SPLINE
  5
FAB
330
1E
100
AcDbEntity
  8
HILF
100
AcDbSpline
210
0.0
220
0.0
230
1.0
 70
     8
 71
     3
 72
    11
 73
     7
 74
     0
 42
0.0000000001
 43
0.0000000001
 40
3.197314516965035
 40
3.197314516965035
 40
3.197314516965035
 40
3.197314516965035
 40
20.42155723739019
 40
40.84311447478024
 40
61.26467171217031
 40
78.48891443259535
 40
78.48891443259535
 40
78.48891443259535
 40
78.48891443259535
 10
230.0859441290208
 20
163.8435611556299
 30
0.0
 10
235.6526107956876
 20
165.900459660627
 30
0.0
 10
247.8192774623542
 20
169.7874992484243
 30
0.0
 10
266.5859441290208
 20
162.6789133898378
 30
0.0
 10
285.3526107956875
 20
155.5703275312521
 30
0.0
 10
297.5192774623542
 20
159.4573671190494
 30
0.0
 10
303.0859441290208
 20
161.5142656240464
 30
0.0
  0
TEXT
  5
FD9
330
1E
100
AcDbEntity
  8
TEXT
 62
     1
100
AcDbText
 10
258.9716436635234
 20
189.9399959455175
 30
0.0
 40
7.0
  1
DN70
 50
90.0
 41
0.8
  7
GREEKS
100
AcDbText
  0
HATCH
  5
106D
330
1E
100
AcDbEntity
  8
SCHRAFF
100
AcDbHatch
 10
0.0
 20
0.0
 30
0.0
210
0.0
220
0.0
230
1.0
  2
_USER
 70
     0
 71
     1
 91
        1
 92
        7
 72
     0
 73
     1
 93
        4
 10
358.0859441290209
 20
523.9816063419302
 10
358.0859441290209
 20
525.9816063419298
 10
303.0859441290208
 20
525.9816063419298
 10
303.0859441290208
 20
523.98160634193
 97
        4
330
D05
330
D10
330
D06
330
D04
 75
     0
 76
     0
 52
135.0
 41
2.0
 77
     0
 78
     1
 53
135.0
 43
0.0
 44
0.0
 45
-1.414213562373095
 46
-1.414213562373094
 79
     0
 47
0.189257518994769
 98
        1
 10
328.710910494965
 20
524.3637925310186
  0
ENDSEC
  0
SECTION
  2
OBJECTS
  0
DICTIONARY
  5
C
330
0
100
AcDbDictionary
281
     1
  3
ACAD_COLOR
350
DF
  3
ACAD_GROUP
350
D
  3
ACAD_LAYOUT
350
19
  3
ACAD_MATERIAL
350
DE
  3
ACAD_MLINESTYLE
350
16
  3
ACAD_PLOTSETTINGS
350
18
  3
ACAD_PLOTSTYLENAME
350
E
  3
AcDbVariableDictionary
350
EA
  0
DICTIONARY
  5
A0
330
1E
100
AcDbDictionary
280
     1
281
     1
  3
ACAD_LAYOUTSELFREF
360
D4
  0
DICTIONARY
  5
A2
330
1A
100
AcDbDictionary
280
     1
281
     1
  3
ACAD_LAYOUTSELFREF
360
D3
  0
DICTIONARY
  5
DF
102
{ACAD_REACTORS
330
C
102
}
330
C
100
AcDbDictionary
281
     1
  0
DICTIONARY
  5
D
102
{ACAD_REACTORS
330
C
102
}
330
C
100
AcDbDictionary
281
     1
  0
DICTIONARY
  5
19
102
{ACAD_REACTORS
330
C
102
}
330
C
100
AcDbDictionary
281
     1
  3
Layout1
350
1D
  3
Model
350
21
  0
DICTIONARY
  5
DE
102
{ACAD_REACTORS
330
C
102
}
330
C
100
AcDbDictionary
281
     1
  0
DICTIONARY
  5
16
102
{ACAD_REACTORS
330
C
102
}
330
C
100
AcDbDictionary
281
     1
  3
Standard
350
17
  0
DICTIONARY
  5
18
102
{ACAD_REACTORS
330
C
102
}
330
C
100
AcDbDictionary
281
     1
  0
ACDBDICTIONARYWDFLT
  5
E
102
{ACAD_REACTORS
330
C
102
}
330
C
100
AcDbDictionary
281
     1
  3
Normal
350
F
100
AcDbDictionaryWithDefault
340
F
  0
DICTIONARY
  5
EA
102
{ACAD_REACTORS
330
C
102
}
330
C
100
AcDbDictionary
281
     1
  3
DIMASSOC
350
EB
  3
PROJECTNAME
350
EC
  0
XRECORD
  5
D4
102
{ACAD_REACTORS
330
A0
102
}
330
A0
100
AcDbXrecord
280
     1
340
1E
  0
XRECORD
  5
D3
102
{ACAD_REACTORS
330
A2
102
}
330
A2
100
AcDbXrecord
280
     1
340
1A
  0
LAYOUT
  5
1D
102
{ACAD_REACTORS
330
19
102
}
330
19
100
AcDbPlotSettings
  1

  2
\\NT_WORK01\HP LaserJet 5000 PCL 6
  4

  6

 40
0.0
 41
0.0
 42
0.0
 43
0.0
 44
0.0
 45
0.0
 46
0.0
 47
0.0
 48
0.0
 49
0.0
140
0.0
141
0.0
142
1.0
143
1.0
 70
   688
 72
     0
 73
     0
 74
     5
  7

 75
    16
147
1.0
 76
     0
 77
     2
 78
   300
148
0.0
149
0.0
100
AcDbLayout
  1
Layout1
 70
     0
 71
     1
 10
0.0
 20
0.0
 11
12.0
 21
9.0
 12
0.0
 22
0.0
 32
0.0
 14
1.000000000000000E+20
 24
1.000000000000000E+20
 34
1.000000000000000E+20
 15
-1.000000000000000E+20
 25
-1.000000000000000E+20
 35
-1.000000000000000E+20
146
0.0
 13
0.0
 23
0.0
 33
0.0
 16
1.0
 26
0.0
 36
0.0
 17
0.0
 27
1.0
 37
0.0
 76
     0
330
1A
  0
LAYOUT
  5
21
102
{ACAD_REACTORS
330
19
102
}
330
19
100
AcDbPlotSettings
  1

  2
none_device
  4
Letter_(8.50_x_11.00_Inches)
  6

 40
6.349999904632568
 41
6.349999904632568
 42
6.350006103515625
 43
6.350006103515625
 44
215.8999938964844
 45
279.3999938964844
 46
0.0
 47
0.0
 48
0.0
 49
0.0
140
0.0
141
0.0
142
1.0
143
1.0
 70
 11952
 72
     0
 73
     1
 74
     0
  7

 75
     0
147
1.0
 76
     0
 77
     2
 78
   300
148
3251.566150932968
149
127.4457819382556
100
AcDbLayout
  1
Model
 70
     1
 71
     0
 10
0.0
 20
0.0
 11
12.0
 21
9.0
 12
0.0
 22
0.0
 32
0.0
 14
0.0
 24
0.0
 34
0.0
 15
0.0
 25
0.0
 35
0.0
146
0.0
 13
0.0
 23
0.0
 33
0.0
 16
1.0
 26
0.0
 36
0.0
 17
0.0
 27
1.0
 37
0.0
 76
     0
330
1E
  0
MLINESTYLE
  5
17
102
{ACAD_REACTORS
330
16
102
}
330
16
100
AcDbMlineStyle
  2
STANDARD
 70
     0
  3

 62
   256
 51
90.0
 52
90.0
 71
     2
 49
0.5
 62
   256
  6
BYLAYER
 49
-0.5
 62
   256
  6
BYLAYER
  0
ACDBPLACEHOLDER
  5
F
102
{ACAD_REACTORS
330
E
102
}
330
E
  0
DICTIONARYVAR
  5
EB
102
{ACAD_REACTORS
330
EA
102
}
330
EA
100
DictionaryVariables
280
     0
  1
1
  0
DICTIONARYVAR
  5
EC
102
{ACAD_REACTORS
330
EA
102
}
330
EA
100
DictionaryVariables
280
     0
  1

  0
ENDSEC
  0
EOF
