  0
SECTION
  2
HEADER
  9
$ACADVER
  1
AC1018
  9
$ACADMAINTVER
 70
     2
  9
$DWGCODEPAGE
  3
ANSI_1252
  9
$INSBASE
 10
0.0
 20
0.0
 30
0.0
  9
$EXTMIN
 10
-0.0226558438694156
 20
-0.0320385670875112
 30
-0.0000000000000098
  9
$EXTMAX
 10
297.0000013831828
 20
420.0000019560165
 30
0.0000000000000055
  9
$LIMMIN
 10
0.0
 20
0.0
  9
$LIMMAX
 10
296.9999999999999
 20
420.0
  9
$ORTHOMODE
 70
     1
  9
$REGENMODE
 70
     1
  9
$FILLMODE
 70
     1
  9
$QTEXTMODE
 70
     0
  9
$MIRRTEXT
 70
     1
  9
$LTSCALE
 40
10.0
  9
$ATTMODE
 70
     1
  9
$TEXTSIZE
 40
2.5
  9
$TRACEWID
 40
0.5
  9
$TEXTSTYLE
  7
GREEKS
  9
$CLAYER
  8
VOLL
  9
$CELTYPE
  6
ByLayer
  9
$CECOLOR
 62
   256
  9
$CELTSCALE
 40
1.0
  9
$DISPSILH
 70
     0
  9
$DIMSCALE
 40
1.0
  9
$DIMASZ
 40
3.5
  9
$DIMEXO
 40
1.0
  9
$DIMDLI
 40
7.0
  9
$DIMRND
 40
0.0
  9
$DIMDLE
 40
0.0
  9
$DIMEXE
 40
1.0
  9
$DIMTP
 40
0.0
  9
$DIMTM
 40
0.0
  9
$DIMTXT
 40
3.5
  9
$DIMCEN
 40
1.5
  9
$DIMTSZ
 40
0.0
  9
$DIMTOL
 70
     0
  9
$DIMLIM
 70
     0
  9
$DIMTIH
 70
     0
  9
$DIMTOH
 70
     0
  9
$DIMSE1
 70
     0
  9
$DIMSE2
 70
     0
  9
$DIMTAD
 70
     1
  9
$DIMZIN
 70
     8
  9
$DIMBLK
  1

  9
$DIMASO
 70
     1
  9
$DIMSHO
 70
     0
  9
$DIMPOST
  1

  9
$DIMAPOST
  1

  9
$DIMALT
 70
     0
  9
$DIMALTD
 70
     2
  9
$DIMALTF
 40
25.4
  9
$DIMLFAC
 40
1.0
  9
$DIMTOFL
 70
     1
  9
$DIMTVP
 40
0.0
  9
$DIMTIX
 70
     0
  9
$DIMSOXD
 70
     0
  9
$DIMSAH
 70
     0
  9
$DIMBLK1
  1

  9
$DIMBLK2
  1

  9
$DIMSTYLE
  2
Standard
  9
$DIMCLRD
 70
     0
  9
$DIMCLRE
 70
     0
  9
$DIMCLRT
 70
     1
  9
$DIMTFAC
 40
0.5
  9
$DIMGAP
 40
1.5
  9
$DIMJUST
 70
     0
  9
$DIMSD1
 70
     0
  9
$DIMSD2
 70
     0
  9
$DIMTOLJ
 70
     1
  9
$DIMTZIN
 70
     8
  9
$DIMALTZ
 70
     8
  9
$DIMALTTZ
 70
     8
  9
$DIMUPT
 70
     0
  9
$DIMDEC
 70
     2
  9
$DIMTDEC
 70
     2
  9
$DIMALTU
 70
     2
  9
$DIMALTTD
 70
     2
  9
$DIMTXSTY
  7
GREEKS
  9
$DIMAUNIT
 70
     0
  9
$DIMADEC
 70
     2
  9
$DIMALTRND
 40
0.0
  9
$DIMAZIN
 70
     2
  9
$DIMDSEP
 70
    46
  9
$DIMATFIT
 70
     3
  9
$DIMFRAC
 70
     0
  9
$DIMLDRBLK
  1

  9
$DIMLUNIT
 70
     2
  9
$DIMLWD
 70
    -2
  9
$DIMLWE
 70
    -2
  9
$DIMTMOVE
 70
     0
  9
$LUNITS
 70
     2
  9
$LUPREC
 70
     2
  9
$SKETCHINC
 40
1.0
  9
$FILLETRAD
 40
8.0
  9
$AUNITS
 70
     0
  9
$AUPREC
 70
     0
  9
$MENU
  1
ACAD
  9
$ELEVATION
 40
0.0
  9
$PELEVATION
 40
0.0
  9
$THICKNESS
 40
0.0
  9
$LIMCHECK
 70
     0
  9
$CHAMFERA
 40
0.0
  9
$CHAMFERB
 40
0.0
  9
$CHAMFERC
 40
0.0
  9
$CHAMFERD
 40
0.0
  9
$SKPOLY
 70
     0
  9
$TDCREATE
 40
2451337.560098032
  9
$TDUCREATE
 40
2451337.518431366
  9
$TDUPDATE
 40
2455995.438677327
  9
$TDUUPDATE
 40
2455995.397010660
  9
$TDINDWG
 40
0.2196405208
  9
$TDUSRTIMER
 40
0.2196405208
  9
$USRTIMER
 70
     1
  9
$ANGBASE
 50
0.0
  9
$ANGDIR
 70
     0
  9
$PDMODE
 70
     0
  9
$PDSIZE
 40
0.0
  9
$PLINEWID
 40
0.0
  9
$SPLFRAME
 70
     0
  9
$SPLINETYPE
 70
     6
  9
$SPLINESEGS
 70
     8
  9
$HANDSEED
  5
15A4
  9
$SURFTAB1
 70
     6
  9
$SURFTAB2
 70
     6
  9
$SURFTYPE
 70
     6
  9
$SURFU
 70
     6
  9
$SURFV
 70
     6
  9
$UCSBASE
  2

  9
$UCSNAME
  2

  9
$UCSORG
 10
0.0
 20
0.0
 30
0.0
  9
$UCSXDIR
 10
1.0
 20
0.0
 30
0.0
  9
$UCSYDIR
 10
0.0
 20
1.0
 30
0.0
  9
$UCSORTHOREF
  2

  9
$UCSORTHOVIEW
 70
     0
  9
$UCSORGTOP
 10
0.0
 20
0.0
 30
0.0
  9
$UCSORGBOTTOM
 10
0.0
 20
0.0
 30
0.0
  9
$UCSORGLEFT
 10
0.0
 20
0.0
 30
0.0
  9
$UCSORGRIGHT
 10
0.0
 20
0.0
 30
0.0
  9
$UCSORGFRONT
 10
0.0
 20
0.0
 30
0.0
  9
$UCSORGBACK
 10
0.0
 20
0.0
 30
0.0
  9
$PUCSBASE
  2

  9
$PUCSNAME
  2

  9
$PUCSORG
 10
0.0
 20
0.0
 30
0.0
  9
$PUCSXDIR
 10
1.0
 20
0.0
 30
0.0
  9
$PUCSYDIR
 10
0.0
 20
1.0
 30
0.0
  9
$PUCSORTHOREF
  2

  9
$PUCSORTHOVIEW
 70
     0
  9
$PUCSORGTOP
 10
0.0
 20
0.0
 30
0.0
  9
$PUCSORGBOTTOM
 10
0.0
 20
0.0
 30
0.0
  9
$PUCSORGLEFT
 10
0.0
 20
0.0
 30
0.0
  9
$PUCSORGRIGHT
 10
0.0
 20
0.0
 30
0.0
  9
$PUCSORGFRONT
 10
0.0
 20
0.0
 30
0.0
  9
$PUCSORGBACK
 10
0.0
 20
0.0
 30
0.0
  9
$USERI1
 70
     0
  9
$USERI2
 70
     0
  9
$USERI3
 70
     0
  9
$USERI4
 70
     0
  9
$USERI5
 70
     0
  9
$USERR1
 40
0.0
  9
$USERR2
 40
0.0
  9
$USERR3
 40
0.0
  9
$USERR4
 40
0.0
  9
$USERR5
 40
0.0
  9
$WORLDVIEW
 70
     1
  9
$SHADEDGE
 70
     3
  9
$SHADEDIF
 70
    70
  9
$TILEMODE
 70
     1
  9
$MAXACTVP
 70
    16
  9
$PINSBASE
 10
0.0
 20
0.0
 30
0.0
  9
$PLIMCHECK
 70
     0
  9
$PEXTMIN
 10
1.000000000000000E+20
 20
1.000000000000000E+20
 30
1.000000000000000E+20
  9
$PEXTMAX
 10
-1.000000000000000E+20
 20
-1.000000000000000E+20
 30
-1.000000000000000E+20
  9
$PLIMMIN
 10
0.0
 20
0.0
  9
$PLIMMAX
 10
12.0
 20
9.0
  9
$UNITMODE
 70
     0
  9
$VISRETAIN
 70
     0
  9
$PLINEGEN
 70
     0
  9
$PSLTSCALE
 70
     0
  9
$TREEDEPTH
 70
  3020
  9
$CMLSTYLE
  2
Standard
  9
$CMLJUST
 70
     0
  9
$CMLSCALE
 40
1.0
  9
$PROXYGRAPHICS
 70
     1
  9
$MEASUREMENT
 70
     0
  9
$CELWEIGHT
370
    -1
  9
$ENDCAPS
280
     0
  9
$JOINSTYLE
280
     0
  9
$LWDISPLAY
290
     0
  9
$INSUNITS
 70
     0
  9
$HYPERLINKBASE
  1

  9
$STYLESHEET
  1
monochrome1.ctb
  9
$XEDIT
290
     1
  9
$CEPSNTYPE
380
     0
  9
$PSTYLEMODE
290
     1
  9
$FINGERPRINTGUID
  2
{D68B0D04-A558-11D7-B632-000102183313}
  9
$VERSIONGUID
  2
{8A8D2502-BDD0-4ADE-8ACB-6AA518F38D9F}
  9
$EXTNAMES
290
     1
  9
$PSVPSCALE
 40
0.0
  9
$OLESTARTUP
290
     0
  9
$SORTENTS
280
    96
  9
$INDEXCTL
280
     0
  9
$HIDETEXT
280
     0
  9
$XCLIPFRAME
290
     0
  9
$HALOGAP
280
     0
  9
$OBSCOLOR
 70
   257
  9
$OBSLTYPE
280
     0
  9
$INTERSECTIONDISPLAY
280
     0
  9
$INTERSECTIONCOLOR
 70
   257
  9
$DIMASSOC
280
     1
  9
$PROJECTNAME
  1

  0
ENDSEC
  0
SECTION
  2
CLASSES
  0
CLASS
  1
ACDBDICTIONARYWDFLT
  2
AcDbDictionaryWithDefault
  3
ObjectDBX Classes
 90
        0
 91
        1
280
     0
281
     0
  0
CLASS
  1
DICTIONARYVAR
  2
AcDbDictionaryVar
  3
ObjectDBX Classes
 90
        0
 91
        3
280
     0
281
     0
  0
ENDSEC
  0
SECTION
  2
TABLES
  0
TABLE
  2
VPORT
  5
8
330
0
100
AcDbSymbolTable
 70
     3
  0
VPORT
  5
15A3
330
8
100
AcDbSymbolTableRecord
100
AcDbViewportTableRecord
  2
*Active
 70
     0
 10
0.0
 20
0.0
 11
1.0
 21
1.0
 12
148.5
 22
210.0
 13
0.0
 23
0.0
 14
1.0
 24
1.0
 15
10.0
 25
10.0
 16
0.0
 26
0.0
 36
1.0
 17
0.0
 27
0.0
 37
0.0
 40
420.1282557960736
 41
1.374331550802138
 42
50.0
 43
0.0
 44
0.0
 50
0.0
 51
0.0
 71
     0
 72
  1500
 73
     1
 74
     0
 75
     0
 76
     0
 77
     0
 78
     0
281
     0
 65
     1
110
0.0
120
0.0
130
0.0
111
1.0
121
0.0
131
0.0
112
0.0
122
1.0
132
0.0
 79
     0
146
0.0
  0
ENDTAB
  0
TABLE
  2
LTYPE
  5
5
330
0
100
AcDbSymbolTable
 70
     2
  0
LTYPE
  5
13
330
5
100
AcDbSymbolTableRecord
100
AcDbLinetypeTableRecord
  2
ByBlock
 70
     0
  3

 72
    65
 73
     0
 40
0.0
  0
LTYPE
  5
14
330
5
100
AcDbSymbolTableRecord
100
AcDbLinetypeTableRecord
  2
ByLayer
 70
     0
  3

 72
    65
 73
     0
 40
0.0
  0
LTYPE
  5
15
330
5
100
AcDbSymbolTableRecord
100
AcDbLinetypeTableRecord
  2
Continuous
 70
     0
  3
Solid line
 72
    65
 73
     0
 40
0.0
  0
LTYPE
  5
25
330
5
100
AcDbSymbolTableRecord
100
AcDbLinetypeTableRecord
  2
STRICHPUNKT
 70
     0
  3
__ . __ . __ . __ . __ . __ . __ . __ . __ . __
 72
    65
 73
     4
 40
1.0
 49
0.5
 74
     0
 49
-0.25
 74
     0
 49
0.0
 74
     0
 49
-0.25
 74
     0
  0
ENDTAB
  0
TABLE
  2
LAYER
  5
2
330
0
100
AcDbSymbolTable
 70
     9
  0
LAYER
  5
10
330
2
100
AcDbSymbolTableRecord
100
AcDbLayerTableRecord
  2
0
 70
     0
 62
     7
  6
Continuous
370
    -3
390
F
  0
LAYER
  5
2A
330
2
100
AcDbSymbolTableRecord
100
AcDbLayerTableRecord
  2
VOLL
 70
     0
 62
     1
  6
Continuous
370
    -3
390
F
  0
LAYER
  5
2B
330
2
100
AcDbSymbolTableRecord
100
AcDbLayerTableRecord
  2
HILF
 70
     0
 62
     2
  6
Continuous
370
    -3
390
F
  0
LAYER
  5
2C
330
2
100
AcDbSymbolTableRecord
100
AcDbLayerTableRecord
  2
MITTEL
 70
     0
 62
     2
  6
STRICHPUNKT
370
    -3
390
F
  0
LAYER
  5
2F
330
2
100
AcDbSymbolTableRecord
100
AcDbLayerTableRecord
  2
BEM
 70
     0
 62
     7
  6
Continuous
370
    -3
390
F
  0
LAYER
  5
30
330
2
100
AcDbSymbolTableRecord
100
AcDbLayerTableRecord
  2
STEMPEL
 70
     0
 62
     3
  6
Continuous
370
    -3
390
F
  0
LAYER
  5
31
330
2
100
AcDbSymbolTableRecord
100
AcDbLayerTableRecord
  2
TEXT
 70
     0
 62
     7
  6
Continuous
370
    -3
390
F
  0
LAYER
  5
2C5
330
2
100
AcDbSymbolTableRecord
100
AcDbLayerTableRecord
  2
Defpoints
 70
     0
 62
     7
  6
Continuous
290
     0
370
    -3
390
F
  0
LAYER
  5
4C6
330
2
100
AcDbSymbolTableRecord
100
AcDbLayerTableRecord
  2
SCHRAFF
 70
     0
 62
     7
  6
Continuous
370
    -3
390
F
  0
ENDTAB
  0
TABLE
  2
STYLE
  5
3
330
0
100
AcDbSymbolTable
 70
     2
  0
STYLE
  5
11
330
3
100
AcDbSymbolTableRecord
100
AcDbTextStyleTableRecord
  2
STANDARD
 70
     0
 40
0.0
 41
1.0
 50
0.0
 71
     0
 42
3.5
  3
txt
  4

  0
STYLE
  5
24
330
3
100
AcDbSymbolTableRecord
100
AcDbTextStyleTableRecord
  2
GREEKS
 70
     0
 40
0.0
 41
0.8
 50
0.0
 71
     0
 42
2.5
  3
SIMPLEX.shx
  4

  0
ENDTAB
  0
TABLE
  2
VIEW
  5
6
330
0
100
AcDbSymbolTable
 70
     0
  0
ENDTAB
  0
TABLE
  2
UCS
  5
7
330
0
100
AcDbSymbolTable
 70
     0
  0
ENDTAB
  0
TABLE
  2
APPID
  5
9
330
0
100
AcDbSymbolTable
 70
     1
  0
APPID
  5
12
330
9
100
AcDbSymbolTableRecord
100
AcDbRegAppTableRecord
  2
ACAD
 70
     0
  0
ENDTAB
  0
TABLE
  2
DIMSTYLE
  5
A
330
0
100
AcDbSymbolTable
 70
     1
100
AcDbDimStyleTable
 71
     1
340
A0
  0
DIMSTYLE
105
A0
102
{ACAD_REACTORS
330
10FA
330
10EE
330
10EB
330
10E0
330
10E2
102
}
330
A
100
AcDbSymbolTableRecord
100
AcDbDimStyleTableRecord
  2
Standard
 70
     0
340
11
  0
ENDTAB
  0
TABLE
  2
BLOCK_RECORD
  5
1
330
0
100
AcDbSymbolTable
 70
    18
  0
BLOCK_RECORD
  5
1E
102
{ACAD_XDICTIONARY
360
A3
102
}
330
1
100
AcDbSymbolTableRecord
100
AcDbBlockTableRecord
  2
*Model_Space
340
21
  0
BLOCK_RECORD
  5
1A
102
{ACAD_XDICTIONARY
360
A5
102
}
330
1
100
AcDbSymbolTableRecord
100
AcDbBlockTableRecord
  2
*Paper_Space
340
1D
  0
BLOCK_RECORD
  5
22
330
1
100
AcDbSymbolTableRecord
100
AcDbBlockTableRecord
  2
LOGO
340
0
102
{BLKREFS
331
9A
102
}
  0
BLOCK_RECORD
  5
CB3
330
1
100
AcDbSymbolTableRecord
100
AcDbBlockTableRecord
  2
*X1
340
0
102
{BLKREFS
331
109D
102
}
  0
BLOCK_RECORD
  5
D5E
330
1
100
AcDbSymbolTableRecord
100
AcDbBlockTableRecord
  2
*X2
340
0
102
{BLKREFS
331
10A5
331
10BC
102
}
  0
BLOCK_RECORD
  5
D7F
330
1
100
AcDbSymbolTableRecord
100
AcDbBlockTableRecord
  2
*X3
340
0
102
{BLKREFS
331
10C4
102
}
  0
BLOCK_RECORD
  5
E6D
330
1
100
AcDbSymbolTableRecord
100
AcDbBlockTableRecord
  2
*X4
340
0
102
{BLKREFS
331
100A
102
}
  0
BLOCK_RECORD
  5
112F
330
1
100
AcDbSymbolTableRecord
100
AcDbBlockTableRecord
  2
*D8
340
0
  0
BLOCK_RECORD
  5
1149
330
1
100
AcDbSymbolTableRecord
100
AcDbBlockTableRecord
  2
*D10
340
0
  0
BLOCK_RECORD
  5
1170
330
1
100
AcDbSymbolTableRecord
100
AcDbBlockTableRecord
  2
*D13
340
0
  0
BLOCK_RECORD
  5
117D
330
1
100
AcDbSymbolTableRecord
100
AcDbBlockTableRecord
  2
*D14
340
0
  0
BLOCK_RECORD
  5
11B1
330
1
100
AcDbSymbolTableRecord
100
AcDbBlockTableRecord
  2
*D17
340
0
  0
ENDTAB
  0
ENDSEC
  0
SECTION
  2
BLOCKS
  0
BLOCK
  5
35
330
1E
100
AcDbEntity
  8
0
100
AcDbBlockBegin
  2
*Model_Space
 70
     0
 10
0.0
 20
0.0
 30
0.0
  3
*Model_Space
  1

  0
ENDBLK
  5
36
330
1E
100
AcDbEntity
  8
0
100
AcDbBlockEnd
  0
BLOCK
  5
33
330
1A
100
AcDbEntity
 67
     1
  8
0
100
AcDbBlockBegin
  2
*Paper_Space
 70
     0
 10
0.0
 20
0.0
 30
0.0
  3
*Paper_Space
  1

  0
ENDBLK
  5
34
330
1A
100
AcDbEntity
 67
     1
  8
0
100
AcDbBlockEnd
  0
BLOCK
  5
37
330
22
100
AcDbEntity
  8
0
100
AcDbBlockBegin
  2
LOGO
 70
     0
 10
0.0
 20
0.0
 30
0.0
  3
LOGO
  1

  0
ARC
  5
38
330
22
100
AcDbEntity
  8
0
100
AcDbCircle
 10
11.59973089678112
 20
-9.271599258481501
 30
0.0
 40
4.5
100
AcDbArc
 50
270.0
 51
231.0575587310159
  0
LINE
  5
39
330
22
100
AcDbEntity
  8
0
100
AcDbLine
 10
3.599730896781125
 20
-4.771599258481529
 30
0.0
 11
3.599730896781153
 21
-11.77159925848133
 31
0.0
  0
LINE
  5
3A
330
22
100
AcDbEntity
  8
0
100
AcDbLine
 10
2.599730896781125
 20
-4.771599258481529
 30
0.0
 11
2.599730896781153
 21
-11.77159925848133
 31
0.0
  0
CIRCLE
  5
3B
330
22
100
AcDbEntity
  8
0
100
AcDbCircle
 10
11.59973089678112
 20
-9.271599258481501
 30
0.0
 40
3.5
  0
ARC
  5
3C
330
22
100
AcDbEntity
  8
0
100
AcDbCircle
 10
31.59973089678115
 20
-9.271599258481472
 30
0.0
 40
4.5
100
AcDbArc
 50
270.0
 51
231.0575587310182
  0
LINE
  5
3D
330
22
100
AcDbEntity
  8
0
100
AcDbLine
 10
17.59973089678112
 20
-4.771599258481472
 30
0.0
 11
17.59973089678115
 21
-13.77159925848147
 31
0.0
  0
ARC
  5
3E
330
22
100
AcDbEntity
  8
0
100
AcDbCircle
 10
22.59973089678116
 20
-7.271599258481472
 30
0.0
 40
2.5
100
AcDbArc
 50
293.1161887722295
 51
90.0
  0
CIRCLE
  5
3F
330
22
100
AcDbEntity
  8
0
100
AcDbCircle
 10
31.59973089678115
 20
-9.271599258481472
 30
0.0
 40
3.5
  0
ARC
  5
40
330
22
100
AcDbEntity
  8
0
100
AcDbCircle
 10
4.599730896781153
 20
-11.77159925848133
 30
0.0
 40
1.0
100
AcDbArc
 50
180.0
 51
270.0
  0
ARC
  5
41
330
22
100
AcDbEntity
  8
0
100
AcDbCircle
 10
4.599730896781153
 20
-11.77159925848133
 30
0.0
 40
2.0
100
AcDbArc
 50
179.9999999999992
 51
270.0
  0
LINE
  5
42
330
22
100
AcDbEntity
  8
0
100
AcDbLine
 10
11.59973089678115
 20
-13.77159925848144
 30
0.0
 11
4.599730896781153
 21
-13.77159925848147
 31
0.0
  0
LINE
  5
43
330
22
100
AcDbEntity
  8
0
100
AcDbLine
 10
8.771303772034769
 20
-12.77159925848136
 30
0.0
 11
4.599730896781153
 21
-12.77159925848133
 31
0.0
  0
LINE
  5
44
330
22
100
AcDbEntity
  8
0
100
AcDbLine
 10
31.59973089678115
 20
-13.77159925848147
 30
0.0
 11
23.6715276665056
 21
-13.77159925848144
 31
0.0
  0
LINE
  5
45
330
22
100
AcDbEntity
  8
0
100
AcDbLine
 10
23.56565672307022
 20
-9.51278021337896
 30
0.0
 11
24.4388546544846
 21
-12.77159925848144
 31
0.0
  0
LINE
  5
46
330
22
100
AcDbEntity
  8
0
100
AcDbLine
 10
22.59973089678116
 20
-9.771599258481472
 30
0.0
 11
18.59973089678112
 21
-9.771599258481472
 31
0.0
  0
LINE
  5
47
330
22
100
AcDbEntity
  8
0
100
AcDbLine
 10
18.59973089678115
 20
-13.77159925848144
 30
0.0
 11
17.59973089678115
 21
-13.77159925848144
 31
0.0
  0
LINE
  5
48
330
22
100
AcDbEntity
  8
0
100
AcDbLine
 10
18.59973089678115
 20
-9.771599258481472
 30
0.0
 11
18.59973089678115
 21
-13.77159925848144
 31
0.0
  0
LINE
  5
49
330
22
100
AcDbEntity
  8
0
100
AcDbLine
 10
22.59973089678116
 20
-9.771599258481472
 30
0.0
 11
23.67152766650562
 21
-13.77159925848147
 31
0.0
  0
ARC
  5
4A
330
22
100
AcDbEntity
  8
0
100
AcDbCircle
 10
22.59973089678116
 20
-7.271599258481472
 30
0.0
 40
2.5
100
AcDbArc
 50
270.0
 51
270.0000000000007
  0
LINE
  5
4B
330
22
100
AcDbEntity
  8
0
100
AcDbLine
 10
28.77130377203494
 20
-12.77159925848147
 30
0.0
 11
24.43885465448463
 21
-12.77159925848144
 31
0.0
  0
LINE
  5
4C
330
22
100
AcDbEntity
  8
0
100
AcDbLine
 10
3.599730896781125
 20
-4.771599258481472
 30
0.0
 11
2.599730896781125
 21
-4.771599258481472
 31
0.0
  0
LINE
  5
4D
330
22
100
AcDbEntity
  8
0
100
AcDbLine
 10
22.59973089678116
 20
-8.771599258481472
 30
0.0
 11
18.59973089678115
 21
-8.771599258481472
 31
0.0
  0
LINE
  5
4E
330
22
100
AcDbEntity
  8
0
100
AcDbLine
 10
22.59973089678116
 20
-5.771599258481472
 30
0.0
 11
18.59973089678115
 21
-5.771599258481472
 31
0.0
  0
LINE
  5
4F
330
22
100
AcDbEntity
  8
0
100
AcDbLine
 10
22.59973089678116
 20
-4.771599258481472
 30
0.0
 11
17.59973089678115
 21
-4.771599258481472
 31
0.0
  0
LINE
  5
50
330
22
100
AcDbEntity
  8
0
100
AcDbLine
 10
18.59973089678115
 20
-5.771599258481472
 30
0.0
 11
18.59973089678115
 21
-8.771599258481472
 31
0.0
  0
ARC
  5
51
330
22
100
AcDbEntity
  8
0
100
AcDbCircle
 10
22.59973089678116
 20
-7.271599258481472
 30
0.0
 40
1.5
100
AcDbArc
 50
270.0
 51
90.0
  0
ENDBLK
  5
52
330
22
100
AcDbEntity
  8
0
100
AcDbBlockEnd
  0
BLOCK
  5
CB4
330
CB3
100
AcDbEntity
  8
0
100
AcDbBlockBegin
  2
*X1
 70
     1
 10
0.0
 20
0.0
 30
0.0
  3
*X1
  1

  0
LINE
  5
CB5
330
CB3
100
AcDbEntity
  8
0
 62
     0
100
AcDbLine
 10
271.0556667274603
 20
431.8
 30
0.0
 11
273.6015000399245
 21
431.8
 31
0.0
  0
LINE
  5
CB6
330
CB3
100
AcDbEntity
  8
0
 62
     0
100
AcDbLine
 10
343.9501300237567
 20
431.8
 30
0.0
 11
346.4959633362231
 21
431.8
 31
0.0
  0
LINE
  5
CB7
330
CB3
100
AcDbEntity
  8
0
 62
     0
100
AcDbLine
 10
271.0569832584374
 20
431.9
 30
0.0
 11
273.5651030164979
 21
431.9
 31
0.0
  0
LINE
  5
CB8
330
CB3
100
AcDbEntity
  8
0
 62
     0
100
AcDbLine
 10
343.9865270471833
 20
431.9
 30
0.0
 11
346.494646805246
 21
431.9
 31
0.0
  0
LINE
  5
CB9
330
CB3
100
AcDbEntity
  8
0
 62
     0
100
AcDbLine
 10
271.0596065244754
 20
432.0
 30
0.0
 11
273.5287059930713
 21
432.0
 31
0.0
  0
LINE
  5
CBA
330
CB3
100
AcDbEntity
  8
0
 62
     0
100
AcDbLine
 10
344.0229240706099
 20
432.0
 30
0.0
 11
346.492023539208
 21
432.0
 31
0.0
  0
LINE
  5
CBB
330
CB3
100
AcDbEntity
  8
0
 62
     0
100
AcDbLine
 10
271.0635378699591
 20
432.1
 30
0.0
 11
273.4923089696447
 21
432.1
 31
0.0
  0
LINE
  5
CBC
330
CB3
100
AcDbEntity
  8
0
 62
     0
100
AcDbLine
 10
344.0593210940366
 20
432.1
 30
0.0
 11
346.4880921937243
 21
432.1
 31
0.0
  0
LINE
  5
CBD
330
CB3
100
AcDbEntity
  8
0
 62
     0
100
AcDbLine
 10
271.0687793131002
 20
432.2
 30
0.0
 11
273.455911946218
 21
432.2
 31
0.0
  0
LINE
  5
CBE
330
CB3
100
AcDbEntity
  8
0
 62
     0
100
AcDbLine
 10
344.0957181174632
 20
432.2
 30
0.0
 11
346.4828507505832
 21
432.2
 31
0.0
  0
LINE
  5
CBF
330
CB3
100
AcDbEntity
  8
0
 62
     0
100
AcDbLine
 10
271.0753335511315
 20
432.3
 30
0.0
 11
273.4195149227915
 21
432.3
 31
0.0
  0
LINE
  5
CC0
330
CB3
100
AcDbEntity
  8
0
 62
     0
100
AcDbLine
 10
344.1321151408898
 20
432.3
 30
0.0
 11
346.4762965125519
 21
432.3
 31
0.0
  0
LINE
  5
CC1
330
CB3
100
AcDbEntity
  8
0
 62
     0
100
AcDbLine
 10
271.0832039672768
 20
432.4
 30
0.0
 11
273.3831178993648
 21
432.4
 31
0.0
  0
LINE
  5
CC2
330
CB3
100
AcDbEntity
  8
0
 62
     0
100
AcDbLine
 10
344.1685121643164
 20
432.4
 30
0.0
 11
346.4684260964067
 21
432.4
 31
0.0
  0
LINE
  5
CC3
330
CB3
100
AcDbEntity
  8
0
 62
     0
100
AcDbLine
 10
271.0923946395379
 20
432.5
 30
0.0
 11
273.3467208759382
 21
432.5
 31
0.0
  0
LINE
  5
CC4
330
CB3
100
AcDbEntity
  8
0
 62
     0
100
AcDbLine
 10
344.204909187743
 20
432.5
 30
0.0
 11
346.4592354241455
 21
432.5
 31
0.0
  0
LINE
  5
CC5
330
CB3
100
AcDbEntity
  8
0
 62
     0
100
AcDbLine
 10
271.1029103513539
 20
432.6
 30
0.0
 11
273.3103238525116
 21
432.6
 31
0.0
  0
LINE
  5
CC6
330
CB3
100
AcDbEntity
  8
0
 62
     0
100
AcDbLine
 10
344.2413062111697
 20
432.6
 30
0.0
 11
346.4487197123296
 21
432.6
 31
0.0
  0
LINE
  5
CC7
330
CB3
100
AcDbEntity
  8
0
 62
     0
100
AcDbLine
 10
271.1147566041957
 20
432.7
 30
0.0
 11
273.2739268290849
 21
432.7
 31
0.0
  0
LINE
  5
CC8
330
CB3
100
AcDbEntity
  8
0
 62
     0
100
AcDbLine
 10
344.2777032345963
 20
432.7
 30
0.0
 11
346.4368734594877
 21
432.7
 31
0.0
  0
LINE
  5
CC9
330
CB3
100
AcDbEntity
  8
0
 62
     0
100
AcDbLine
 10
271.1279396321771
 20
432.8
 30
0.0
 11
273.2375298056584
 21
432.8
 31
0.0
  0
LINE
  5
CCA
330
CB3
100
AcDbEntity
  8
0
 62
     0
100
AcDbLine
 10
344.3141002580229
 20
432.8
 30
0.0
 11
346.4236904315063
 21
432.8
 31
0.0
  0
LINE
  5
CCB
330
CB3
100
AcDbEntity
  8
0
 62
     0
100
AcDbLine
 10
271.1424664187723
 20
432.9
 30
0.0
 11
273.2011327822317
 21
432.9
 31
0.0
  0
LINE
  5
CCC
330
CB3
100
AcDbEntity
  8
0
 62
     0
100
AcDbLine
 10
344.3504972814495
 20
432.9
 30
0.0
 11
346.4091636449111
 21
432.9
 31
0.0
  0
LINE
  5
CCD
330
CB3
100
AcDbEntity
  8
0
 62
     0
100
AcDbLine
 10
271.1583447157468
 20
433.0
 30
0.0
 11
273.1647357588051
 21
433.0
 31
0.0
  0
LINE
  5
CCE
330
CB3
100
AcDbEntity
  8
0
 62
     0
100
AcDbLine
 10
344.3868943048761
 20
433.0
 30
0.0
 11
346.3932853479367
 21
433.0
 31
0.0
  0
LINE
  5
CCF
330
CB3
100
AcDbEntity
  8
0
 62
     0
100
AcDbLine
 10
271.1755830644251
 20
433.1
 30
0.0
 11
273.1283387353784
 21
433.1
 31
0.0
  0
LINE
  5
CD0
330
CB3
100
AcDbEntity
  8
0
 62
     0
100
AcDbLine
 10
344.4232913283027
 20
433.1
 30
0.0
 11
346.3760469992583
 21
433.1
 31
0.0
  0
LINE
  5
CD1
330
CB3
100
AcDbEntity
  8
0
 62
     0
100
AcDbLine
 10
271.1941908194337
 20
433.2
 30
0.0
 11
273.0919417119519
 21
433.2
 31
0.0
  0
LINE
  5
CD2
330
CB3
100
AcDbEntity
  8
0
 62
     0
100
AcDbLine
 10
344.4596883517294
 20
433.2
 30
0.0
 11
346.3574392442497
 21
433.2
 31
0.0
  0
LINE
  5
CD3
330
CB3
100
AcDbEntity
  8
0
 62
     0
100
AcDbLine
 10
271.2141781750796
 20
433.3
 30
0.0
 11
273.0555446885252
 21
433.3
 31
0.0
  0
LINE
  5
CD4
330
CB3
100
AcDbEntity
  8
0
 62
     0
100
AcDbLine
 10
344.496085375156
 20
433.3
 30
0.0
 11
346.3374518886039
 21
433.3
 31
0.0
  0
LINE
  5
CD5
330
CB3
100
AcDbEntity
  8
0
 62
     0
100
AcDbLine
 10
271.2355561945423
 20
433.4
 30
0.0
 11
273.0191476650986
 21
433.4
 31
0.0
  0
LINE
  5
CD6
330
CB3
100
AcDbEntity
  8
0
 62
     0
100
AcDbLine
 10
344.5324823985826
 20
433.4
 30
0.0
 11
346.3160738691411
 21
433.4
 31
0.0
  0
LINE
  5
CD7
330
CB3
100
AcDbEntity
  8
0
 62
     0
100
AcDbLine
 10
271.2583368420861
 20
433.4999999999999
 30
0.0
 11
272.9828568696651
 21
433.4999999999999
 31
0.0
  0
LINE
  5
CD8
330
CB3
100
AcDbEntity
  8
0
 62
     0
100
AcDbLine
 10
344.5687731940149
 20
433.4999999999999
 30
0.0
 11
346.2932932215974
 21
433.4999999999999
 31
0.0
  0
LINE
  5
CD9
330
CB3
100
AcDbEntity
  8
0
 62
     0
100
AcDbLine
 10
271.2825330185172
 20
433.6
 30
0.0
 11
272.9474194379645
 21
433.6
 31
0.0
  0
LINE
  5
CDA
330
CB3
100
AcDbEntity
  8
0
 62
     0
100
AcDbLine
 10
344.6042106257155
 20
433.6
 30
0.0
 11
346.2690970451662
 21
433.6
 31
0.0
  0
LINE
  5
CDB
330
CB3
100
AcDbEntity
  8
0
 62
     0
100
AcDbLine
 10
271.3081586001482
 20
433.7
 30
0.0
 11
272.9129725437104
 21
433.7
 31
0.0
  0
LINE
  5
CDC
330
CB3
100
AcDbEntity
  8
0
 62
     0
100
AcDbLine
 10
344.6386575199696
 20
433.7
 30
0.0
 11
346.2434714635352
 21
433.7
 31
0.0
  0
LINE
  5
CDD
330
CB3
100
AcDbEntity
  8
0
 62
     0
100
AcDbLine
 10
271.3352284815578
 20
433.8
 30
0.0
 11
272.8795072047959
 21
433.8
 31
0.0
  0
LINE
  5
CDE
330
CB3
100
AcDbEntity
  8
0
 62
     0
100
AcDbLine
 10
344.6721228588841
 20
433.8
 30
0.0
 11
346.2164015821257
 21
433.8
 31
0.0
  0
LINE
  5
CDF
330
CB3
100
AcDbEntity
  8
0
 62
     0
100
AcDbLine
 10
271.3637586224745
 20
433.9
 30
0.0
 11
272.8470147987687
 21
433.9
 31
0.0
  0
LINE
  5
CE0
330
CB3
100
AcDbEntity
  8
0
 62
     0
100
AcDbLine
 10
344.7046152649114
 20
433.9
 30
0.0
 11
346.187871441209
 21
433.9
 31
0.0
  0
LINE
  5
CE1
330
CB3
100
AcDbEntity
  8
0
 62
     0
100
AcDbLine
 10
271.3937660991533
 20
434.0
 30
0.0
 11
272.8154870502264
 21
434.0
 31
0.0
  0
LINE
  5
CE2
330
CB3
100
AcDbEntity
  8
0
 62
     0
100
AcDbLine
 10
344.7361430134536
 20
434.0
 30
0.0
 11
346.1578639645302
 21
434.0
 31
0.0
  0
LINE
  5
CE3
330
CB3
100
AcDbEntity
  8
0
 62
     0
100
AcDbLine
 10
271.4252691606598
 20
434.1
 30
0.0
 11
272.7849160189316
 21
434.1
 31
0.0
  0
LINE
  5
CE4
330
CB3
100
AcDbEntity
  8
0
 62
     0
100
AcDbLine
 10
344.7667140447484
 20
434.1
 30
0.0
 11
346.1263609030237
 21
434.1
 31
0.0
  0
LINE
  5
CE5
330
CB3
100
AcDbEntity
  8
0
 62
     0
100
AcDbLine
 10
271.4582872905332
 20
434.2
 30
0.0
 11
272.7552940886029
 21
434.2
 31
0.0
  0
LINE
  5
CE6
330
CB3
100
AcDbEntity
  8
0
 62
     0
100
AcDbLine
 10
344.7963359750771
 20
434.2
 30
0.0
 11
346.0933427731503
 21
434.2
 31
0.0
  0
LINE
  5
CE7
330
CB3
100
AcDbEntity
  8
0
 62
     0
100
AcDbLine
 10
271.4928412743549
 20
434.2999999999999
 30
0.0
 11
272.7266139563427
 21
434.2999999999999
 31
0.0
  0
LINE
  5
CE8
330
CB3
100
AcDbEntity
  8
0
 62
     0
100
AcDbLine
 10
344.8250161073373
 20
434.2999999999999
 30
0.0
 11
346.0587887893286
 21
434.2999999999999
 31
0.0
  0
LINE
  5
CE9
330
CB3
100
AcDbEntity
  8
0
 62
     0
100
AcDbLine
 10
271.5289532738262
 20
434.4
 30
0.0
 11
272.6988686226623
 21
434.4
 31
0.0
  0
LINE
  5
CEA
330
CB3
100
AcDbEntity
  8
0
 62
     0
100
AcDbLine
 10
344.8527614410177
 20
434.4
 30
0.0
 11
346.0226767898574
 21
434.4
 31
0.0
  0
LINE
  5
CEB
330
CB3
100
AcDbEntity
  8
0
 62
     0
100
AcDbLine
 10
271.566646908031
 20
434.4999999999999
 30
0.0
 11
272.672051382072
 21
434.4999999999999
 31
0.0
  0
LINE
  5
CEC
330
CB3
100
AcDbEntity
  8
0
 62
     0
100
AcDbLine
 10
344.879578681608
 20
434.4999999999999
 30
0.0
 11
345.9849831556525
 21
434.4999999999999
 31
0.0
  0
LINE
  5
CED
330
CB3
100
AcDbEntity
  8
0
 62
     0
100
AcDbLine
 10
271.6059473426575
 20
434.6
 30
0.0
 11
272.6461558142025
 21
434.6
 31
0.0
  0
LINE
  5
CEE
330
CB3
100
AcDbEntity
  8
0
 62
     0
100
AcDbLine
 10
344.9054742494776
 20
434.6
 30
0.0
 11
345.945682721026
 21
434.6
 31
0.0
  0
LINE
  5
CEF
330
CB3
100
AcDbEntity
  8
0
 62
     0
100
AcDbLine
 10
271.6468813880551
 20
434.7
 30
0.0
 11
272.6211757754286
 21
434.7
 31
0.0
  0
LINE
  5
CF0
330
CB3
100
AcDbEntity
  8
0
 62
     0
100
AcDbLine
 10
344.9304542882515
 20
434.7
 30
0.0
 11
345.9047486756284
 21
434.7
 31
0.0
  0
LINE
  5
CF1
330
CB3
100
AcDbEntity
  8
0
 62
     0
100
AcDbLine
 10
271.6894776071271
 20
434.7999999999999
 30
0.0
 11
272.5971053909683
 21
434.7999999999999
 31
0.0
  0
LINE
  5
CF2
330
CB3
100
AcDbEntity
  8
0
 62
     0
100
AcDbLine
 10
344.9545246727118
 20
434.7999999999999
 30
0.0
 11
345.8621524565564
 21
434.7999999999999
 31
0.0
  0
LINE
  5
CF3
330
CB3
100
AcDbEntity
  8
0
 62
     0
100
AcDbLine
 10
271.7337664342037
 20
434.9
 30
0.0
 11
272.5739390474307
 21
434.9
 31
0.0
  0
LINE
  5
CF4
330
CB3
100
AcDbEntity
  8
0
 62
     0
100
AcDbLine
 10
344.9776910162493
 20
434.9
 30
0.0
 11
345.8178636294799
 21
434.9
 31
0.0
  0
LINE
  5
CF5
330
CB3
100
AcDbEntity
  8
0
 62
     0
100
AcDbLine
 10
271.7797803062033
 20
435.0
 30
0.0
 11
272.5516713857907
 21
435.0
 31
0.0
  0
LINE
  5
CF6
330
CB3
100
AcDbEntity
  8
0
 62
     0
100
AcDbLine
 10
344.9999586778894
 20
435.0
 30
0.0
 11
345.7718497574803
 21
435.0
 31
0.0
  0
LINE
  5
CF7
330
CB3
100
AcDbEntity
  8
0
 62
     0
100
AcDbLine
 10
271.8275538075889
 20
435.0999999999999
 30
0.0
 11
272.5302972947667
 21
435.0999999999999
 31
0.0
  0
LINE
  5
CF8
330
CB3
100
AcDbEntity
  8
0
 62
     0
100
AcDbLine
 10
345.0213327689133
 20
435.0999999999999
 30
0.0
 11
345.7240762560947
 21
435.0999999999999
 31
0.0
  0
LINE
  5
CF9
330
CB3
100
AcDbEntity
  8
0
 62
     0
100
AcDbLine
 10
271.8771238308509
 20
435.2
 30
0.0
 11
272.5098119045836
 21
435.2
 31
0.0
  0
LINE
  5
CFA
330
CB3
100
AcDbEntity
  8
0
 62
     0
100
AcDbLine
 10
345.0418181590965
 20
435.2
 30
0.0
 11
345.6745062328328
 21
435.2
 31
0.0
  0
LINE
  5
CFB
330
CB3
100
AcDbEntity
  8
0
 62
     0
100
AcDbLine
 10
271.9285297545201
 20
435.3
 30
0.0
 11
272.4902105810997
 21
435.3
 31
0.0
  0
LINE
  5
CFC
330
CB3
100
AcDbEntity
  8
0
 62
     0
100
AcDbLine
 10
345.0614194825805
 20
435.3
 30
0.0
 11
345.6231003091636
 21
435.3
 31
0.0
  0
LINE
  5
CFD
330
CB3
100
AcDbEntity
  8
0
 62
     0
100
AcDbLine
 10
271.9818136410331
 20
435.4
 30
0.0
 11
272.4714889202817
 21
435.4
 31
0.0
  0
LINE
  5
CFE
330
CB3
100
AcDbEntity
  8
0
 62
     0
100
AcDbLine
 10
345.0801411433984
 20
435.4
 30
0.0
 11
345.5698164226505
 21
435.4
 31
0.0
  0
LINE
  5
CFF
330
CB3
100
AcDbEntity
  8
0
 62
     0
100
AcDbLine
 10
272.0370204571477
 20
435.5
 30
0.0
 11
272.4536427430126
 21
435.5
 31
0.0
  0
LINE
  5
D00
330
CB3
100
AcDbEntity
  8
0
 62
     0
100
AcDbLine
 10
345.0979873206675
 20
435.5
 30
0.0
 11
345.514609606536
 21
435.5
 31
0.0
  0
LINE
  5
D01
330
CB3
100
AcDbEntity
  8
0
 62
     0
100
AcDbLine
 10
272.0941983200602
 20
435.6
 30
0.0
 11
272.4366680902134
 21
435.6
 31
0.0
  0
LINE
  5
D02
330
CB3
100
AcDbEntity
  8
0
 62
     0
100
AcDbLine
 10
345.1149619734666
 20
435.6
 30
0.0
 11
345.4574317436235
 21
435.6
 31
0.0
  0
LINE
  5
D03
330
CB3
100
AcDbEntity
  8
0
 62
     0
100
AcDbLine
 10
272.1533987729168
 20
435.7
 30
0.0
 11
272.4205612182716
 21
435.7
 31
0.0
  0
LINE
  5
D04
330
CB3
100
AcDbEntity
  8
0
 62
     0
100
AcDbLine
 10
345.1310688454085
 20
435.7
 30
0.0
 11
345.398231290767
 21
435.7
 31
0.0
  0
LINE
  5
D05
330
CB3
100
AcDbEntity
  8
0
 62
     0
100
AcDbLine
 10
272.2146770940565
 20
435.8
 30
0.0
 11
272.4053185947556
 21
435.8
 31
0.0
  0
LINE
  5
D06
330
CB3
100
AcDbEntity
  8
0
 62
     0
100
AcDbLine
 10
345.1463114689245
 20
435.8
 30
0.0
 11
345.3369529696272
 21
435.8
 31
0.0
  0
LINE
  5
D07
330
CB3
100
AcDbEntity
  8
0
 62
     0
100
AcDbLine
 10
272.2780926451154
 20
435.9
 30
0.0
 11
272.390936894411
 21
435.9
 31
0.0
  0
LINE
  5
D08
330
CB3
100
AcDbEntity
  8
0
 62
     0
100
AcDbLine
 10
345.160693169269
 20
435.9
 30
0.0
 11
345.2735374185684
 21
435.9
 31
0.0
  0
LINE
  5
D09
330
CB3
100
AcDbEntity
  8
0
 62
     0
100
AcDbLine
 10
272.3437092640675
 20
436.0
 30
0.0
 11
272.3774129954218
 21
436.0
 31
0.0
  0
LINE
  5
D0A
330
CB3
100
AcDbEntity
  8
0
 62
     0
100
AcDbLine
 10
345.1742170682583
 20
436.0
 30
0.0
 11
345.2079207996163
 21
436.0
 31
0.0
  0
LINE
  5
D0B
330
CB3
100
AcDbEntity
  8
0
 62
     0
100
AcDbLine
 10
271.055656257536
 20
431.7
 30
0.0
 11
273.6378970633511
 21
431.7
 31
0.0
  0
LINE
  5
D0C
330
CB3
100
AcDbEntity
  8
0
 62
     0
100
AcDbLine
 10
343.9137330003301
 20
431.7
 30
0.0
 11
346.4959738061474
 21
431.7
 31
0.0
  0
LINE
  5
D0D
330
CB3
100
AcDbEntity
  8
0
 62
     0
100
AcDbLine
 10
271.0569518433062
 20
431.6
 30
0.0
 11
273.6742940867777
 21
431.6
 31
0.0
  0
LINE
  5
D0E
330
CB3
100
AcDbEntity
  8
0
 62
     0
100
AcDbLine
 10
343.8773359769034
 20
431.6
 30
0.0
 11
346.4946782203772
 21
431.6
 31
0.0
  0
LINE
  5
D0F
330
CB3
100
AcDbEntity
  8
0
 62
     0
100
AcDbLine
 10
271.0595541480487
 20
431.5
 30
0.0
 11
273.7106911102044
 21
431.5
 31
0.0
  0
LINE
  5
D10
330
CB3
100
AcDbEntity
  8
0
 62
     0
100
AcDbLine
 10
343.8409389534768
 20
431.5
 30
0.0
 11
346.4920759156347
 21
431.5
 31
0.0
  0
LINE
  5
D11
330
CB3
100
AcDbEntity
  8
0
 62
     0
100
AcDbLine
 10
271.0634645053767
 20
431.4
 30
0.0
 11
273.747088133631
 21
431.4
 31
0.0
  0
LINE
  5
D12
330
CB3
100
AcDbEntity
  8
0
 62
     0
100
AcDbLine
 10
343.8045419300502
 20
431.4
 30
0.0
 11
346.4881655583067
 21
431.4
 31
0.0
  0
LINE
  5
D13
330
CB3
100
AcDbEntity
  8
0
 62
     0
100
AcDbLine
 10
271.0686849226613
 20
431.3
 30
0.0
 11
273.7834851570577
 21
431.3
 31
0.0
  0
LINE
  5
D14
330
CB3
100
AcDbEntity
  8
0
 62
     0
100
AcDbLine
 10
343.7681449066236
 20
431.3
 30
0.0
 11
346.4829451410221
 21
431.3
 31
0.0
  0
LINE
  5
D15
330
CB3
100
AcDbEntity
  8
0
 62
     0
100
AcDbLine
 10
271.0752180861977
 20
431.2
 30
0.0
 11
273.8198821804842
 21
431.2
 31
0.0
  0
LINE
  5
D16
330
CB3
100
AcDbEntity
  8
0
 62
     0
100
AcDbLine
 10
343.731747883197
 20
431.2
 30
0.0
 11
346.4764119774857
 21
431.2
 31
0.0
  0
LINE
  5
D17
330
CB3
100
AcDbEntity
  8
0
 62
     0
100
AcDbLine
 10
271.0830673681457
 20
431.0999999999999
 30
0.0
 11
273.8562792039109
 21
431.0999999999999
 31
0.0
  0
LINE
  5
D18
330
CB3
100
AcDbEntity
  8
0
 62
     0
100
AcDbLine
 10
343.6953508597704
 20
431.0999999999999
 30
0.0
 11
346.4685626955378
 21
431.0999999999999
 31
0.0
  0
LINE
  5
D19
330
CB3
100
AcDbEntity
  8
0
 62
     0
100
AcDbLine
 10
271.0922368352882
 20
431.0
 30
0.0
 11
273.8926762273375
 21
431.0
 31
0.0
  0
LINE
  5
D1A
330
CB3
100
AcDbEntity
  8
0
 62
     0
100
AcDbLine
 10
343.6589538363437
 20
431.0
 30
0.0
 11
346.4593932283952
 21
431.0
 31
0.0
  0
LINE
  5
D1B
330
CB3
100
AcDbEntity
  8
0
 62
     0
100
AcDbLine
 10
271.1027312596588
 20
430.9
 30
0.0
 11
273.9290732507641
 21
430.9
 31
0.0
  0
LINE
  5
D1C
330
CB3
100
AcDbEntity
  8
0
 62
     0
100
AcDbLine
 10
343.6225568129172
 20
430.9
 30
0.0
 11
346.4488988040247
 21
430.9
 31
0.0
  0
LINE
  5
D1D
330
CB3
100
AcDbEntity
  8
0
 62
     0
100
AcDbLine
 10
271.1145561311056
 20
430.7999999999999
 30
0.0
 11
273.9654702741908
 21
430.7999999999999
 31
0.0
  0
LINE
  5
D1E
330
CB3
100
AcDbEntity
  8
0
 62
     0
100
AcDbLine
 10
343.5861597894905
 20
430.7999999999999
 30
0.0
 11
346.4370739325778
 21
430.7999999999999
 31
0.0
  0
LINE
  5
D1F
330
CB3
100
AcDbEntity
  8
0
 62
     0
100
AcDbLine
 10
271.127717671869
 20
430.7
 30
0.0
 11
274.0018672976173
 21
430.7
 31
0.0
  0
LINE
  5
D20
330
CB3
100
AcDbEntity
  8
0
 62
     0
100
AcDbLine
 10
343.5497627660639
 20
430.7
 30
0.0
 11
346.4239123918144
 21
430.7
 31
0.0
  0
LINE
  5
D21
330
CB3
100
AcDbEntity
  8
0
 62
     0
100
AcDbLine
 10
271.1422228532644
 20
430.6
 30
0.0
 11
274.038264321044
 21
430.6
 31
0.0
  0
LINE
  5
D22
330
CB3
100
AcDbEntity
  8
0
 62
     0
100
AcDbLine
 10
343.5133657426372
 20
430.6
 30
0.0
 11
346.409407210419
 21
430.6
 31
0.0
  0
LINE
  5
D23
330
CB3
100
AcDbEntity
  8
0
 62
     0
100
AcDbLine
 10
271.1580794145772
 20
430.4999999999999
 30
0.0
 11
274.0746613444706
 21
430.4999999999999
 31
0.0
  0
LINE
  5
D24
330
CB3
100
AcDbEntity
  8
0
 62
     0
100
AcDbLine
 10
343.4769687192106
 20
430.4999999999999
 30
0.0
 11
346.3935506491062
 21
430.4999999999999
 31
0.0
  0
LINE
  5
D25
330
CB3
100
AcDbEntity
  8
0
 62
     0
100
AcDbLine
 10
271.1752958842913
 20
430.4
 30
0.0
 11
272.2758150318406
 21
430.4
 31
0.0
  0
LINE
  5
D26
330
CB3
100
AcDbEntity
  8
0
 62
     0
100
AcDbLine
 10
345.2758150318406
 20
430.4
 30
0.0
 11
346.3763341793921
 21
430.4
 31
0.0
  0
LINE
  5
D27
330
CB3
100
AcDbEntity
  8
0
 62
     0
100
AcDbLine
 10
271.1938816037918
 20
430.2999999999999
 30
0.0
 11
272.2758150318406
 21
430.2999999999999
 31
0.0
  0
LINE
  5
D28
330
CB3
100
AcDbEntity
  8
0
 62
     0
100
AcDbLine
 10
345.2758150318406
 20
430.2999999999999
 30
0.0
 11
346.3577484598916
 21
430.2999999999999
 31
0.0
  0
LINE
  5
D29
330
CB3
100
AcDbEntity
  8
0
 62
     0
100
AcDbLine
 10
271.2138467536993
 20
430.2
 30
0.0
 11
272.2758150318406
 21
430.2
 31
0.0
  0
LINE
  5
D2A
330
CB3
100
AcDbEntity
  8
0
 62
     0
100
AcDbLine
 10
345.2758150318406
 20
430.2
 30
0.0
 11
346.3377833099841
 21
430.2
 31
0.0
  0
LINE
  5
D2B
330
CB3
100
AcDbEntity
  8
0
 62
     0
100
AcDbLine
 10
271.2352023830163
 20
430.1
 30
0.0
 11
272.2758150318406
 21
430.1
 31
0.0
  0
LINE
  5
D2C
330
CB3
100
AcDbEntity
  8
0
 62
     0
100
AcDbLine
 10
345.2758150318406
 20
430.1
 30
0.0
 11
346.3164276806672
 21
430.1
 31
0.0
  0
LINE
  5
D2D
330
CB3
100
AcDbEntity
  8
0
 62
     0
100
AcDbLine
 10
271.2579604412878
 20
430.0
 30
0.0
 11
272.2758150318406
 21
430.0
 31
0.0
  0
LINE
  5
D2E
330
CB3
100
AcDbEntity
  8
0
 62
     0
100
AcDbLine
 10
345.2758150318406
 20
430.0
 30
0.0
 11
346.2936696223957
 21
430.0
 31
0.0
  0
LINE
  5
D2F
330
CB3
100
AcDbEntity
  8
0
 62
     0
100
AcDbLine
 10
271.2821338140058
 20
429.9
 30
0.0
 11
272.2758150318406
 21
429.9
 31
0.0
  0
LINE
  5
D30
330
CB3
100
AcDbEntity
  8
0
 62
     0
100
AcDbLine
 10
345.2758150318406
 20
429.9
 30
0.0
 11
346.2694962496776
 21
429.9
 31
0.0
  0
LINE
  5
D31
330
CB3
100
AcDbEntity
  8
0
 62
     0
100
AcDbLine
 10
271.3077363615147
 20
429.8
 30
0.0
 11
272.2758150318406
 21
429.8
 31
0.0
  0
LINE
  5
D32
330
CB3
100
AcDbEntity
  8
0
 62
     0
100
AcDbLine
 10
345.2758150318406
 20
429.8
 30
0.0
 11
346.2438937021688
 21
429.8
 31
0.0
  0
LINE
  5
D33
330
CB3
100
AcDbEntity
  8
0
 62
     0
100
AcDbLine
 10
271.3347829617075
 20
429.7
 30
0.0
 11
272.2758150318406
 21
429.7
 31
0.0
  0
LINE
  5
D34
330
CB3
100
AcDbEntity
  8
0
 62
     0
100
AcDbLine
 10
345.2758150318406
 20
429.7
 30
0.0
 11
346.2168471019759
 21
429.7
 31
0.0
  0
LINE
  5
D35
330
CB3
100
AcDbEntity
  8
0
 62
     0
100
AcDbLine
 10
271.3632895568414
 20
429.6
 30
0.0
 11
272.2758150318406
 21
429.6
 31
0.0
  0
LINE
  5
D36
330
CB3
100
AcDbEntity
  8
0
 62
     0
100
AcDbLine
 10
345.2758150318406
 20
429.6
 30
0.0
 11
346.188340506842
 21
429.6
 31
0.0
  0
LINE
  5
D37
330
CB3
100
AcDbEntity
  8
0
 62
     0
100
AcDbLine
 10
271.3932732048383
 20
429.4999999999999
 30
0.0
 11
272.2758150318406
 21
429.4999999999999
 31
0.0
  0
LINE
  5
D38
330
CB3
100
AcDbEntity
  8
0
 62
     0
100
AcDbLine
 10
345.2758150318406
 20
429.4999999999999
 30
0.0
 11
346.1583568588452
 21
429.4999999999999
 31
0.0
  0
LINE
  5
D39
330
CB3
100
AcDbEntity
  8
0
 62
     0
100
AcDbLine
 10
271.4247521354873
 20
429.4
 30
0.0
 11
272.2758150318406
 21
429.4
 31
0.0
  0
LINE
  5
D3A
330
CB3
100
AcDbEntity
  8
0
 62
     0
100
AcDbLine
 10
345.2758150318406
 20
429.4
 30
0.0
 11
346.1268779281962
 21
429.4
 31
0.0
  0
LINE
  5
D3B
330
CB3
100
AcDbEntity
  8
0
 62
     0
100
AcDbLine
 10
271.4577458120171
 20
429.3
 30
0.0
 11
272.2758150318406
 21
429.3
 31
0.0
  0
LINE
  5
D3C
330
CB3
100
AcDbEntity
  8
0
 62
     0
100
AcDbLine
 10
345.2758150318406
 20
429.3
 30
0.0
 11
346.0938842516664
 21
429.3
 31
0.0
  0
LINE
  5
D3D
330
CB3
100
AcDbEntity
  8
0
 62
     0
100
AcDbLine
 10
271.4922749985662
 20
429.2
 30
0.0
 11
272.2758150318406
 21
429.2
 31
0.0
  0
LINE
  5
D3E
330
CB3
100
AcDbEntity
  8
0
 62
     0
100
AcDbLine
 10
345.2758150318406
 20
429.2
 30
0.0
 11
346.0593550651173
 21
429.2
 31
0.0
  0
LINE
  5
D3F
330
CB3
100
AcDbEntity
  8
0
 62
     0
100
AcDbLine
 10
271.5283618341496
 20
429.1
 30
0.0
 11
272.2758150318406
 21
429.1
 31
0.0
  0
LINE
  5
D40
330
CB3
100
AcDbEntity
  8
0
 62
     0
100
AcDbLine
 10
345.2758150318406
 20
429.1
 30
0.0
 11
346.0232682295339
 21
429.1
 31
0.0
  0
LINE
  5
D41
330
CB3
100
AcDbEntity
  8
0
 62
     0
100
AcDbLine
 10
271.566029913802
 20
429.0
 30
0.0
 11
272.2758150318406
 21
429.0
 31
0.0
  0
LINE
  5
D42
330
CB3
100
AcDbEntity
  8
0
 62
     0
100
AcDbLine
 10
345.2758150318406
 20
429.0
 30
0.0
 11
345.9856001498815
 21
429.0
 31
0.0
  0
LINE
  5
D43
330
CB3
100
AcDbEntity
  8
0
 62
     0
100
AcDbLine
 10
271.6053043776641
 20
428.9
 30
0.0
 11
272.2758150318406
 21
428.9
 31
0.0
  0
LINE
  5
D44
330
CB3
100
AcDbEntity
  8
0
 62
     0
100
AcDbLine
 10
345.2758150318406
 20
428.9
 30
0.0
 11
345.9463256860194
 21
428.9
 31
0.0
  0
LINE
  5
D45
330
CB3
100
AcDbEntity
  8
0
 62
     0
100
AcDbLine
 10
271.6462120088912
 20
428.8
 30
0.0
 11
272.2758150318406
 21
428.8
 31
0.0
  0
LINE
  5
D46
330
CB3
100
AcDbEntity
  8
0
 62
     0
100
AcDbLine
 10
345.2758150318406
 20
428.8
 30
0.0
 11
345.9054180547924
 21
428.8
 31
0.0
  0
LINE
  5
D47
330
CB3
100
AcDbEntity
  8
0
 62
     0
100
AcDbLine
 10
271.6887813413788
 20
428.7
 30
0.0
 11
272.2758150318406
 21
428.7
 31
0.0
  0
LINE
  5
D48
330
CB3
100
AcDbEntity
  8
0
 62
     0
100
AcDbLine
 10
345.2758150318406
 20
428.7
 30
0.0
 11
345.8628487223048
 21
428.7
 31
0.0
  0
LINE
  5
D49
330
CB3
100
AcDbEntity
  8
0
 62
     0
100
AcDbLine
 10
271.7330427784504
 20
428.6
 30
0.0
 11
272.2758150318406
 21
428.6
 31
0.0
  0
LINE
  5
D4A
330
CB3
100
AcDbEntity
  8
0
 62
     0
100
AcDbLine
 10
345.2758150318406
 20
428.6
 30
0.0
 11
345.8185872852332
 21
428.6
 31
0.0
  0
LINE
  5
D4B
330
CB3
100
AcDbEntity
  8
0
 62
     0
100
AcDbLine
 10
271.77902872381
 20
428.5
 30
0.0
 11
272.2758150318406
 21
428.5
 31
0.0
  0
LINE
  5
D4C
330
CB3
100
AcDbEntity
  8
0
 62
     0
100
AcDbLine
 10
345.2758150318406
 20
428.5
 30
0.0
 11
345.7726013398736
 21
428.5
 31
0.0
  0
LINE
  5
D4D
330
CB3
100
AcDbEntity
  8
0
 62
     0
100
AcDbLine
 10
271.8267737262642
 20
428.4
 30
0.0
 11
272.2758150318406
 21
428.4
 31
0.0
  0
LINE
  5
D4E
330
CB3
100
AcDbEntity
  8
0
 62
     0
100
AcDbLine
 10
345.2758150318406
 20
428.4
 30
0.0
 11
345.7248563374193
 21
428.4
 31
0.0
  0
LINE
  5
D4F
330
CB3
100
AcDbEntity
  8
0
 62
     0
100
AcDbLine
 10
271.8763146399417
 20
428.3
 30
0.0
 11
272.2758150318406
 21
428.3
 31
0.0
  0
LINE
  5
D50
330
CB3
100
AcDbEntity
  8
0
 62
     0
100
AcDbLine
 10
345.2758150318406
 20
428.3
 30
0.0
 11
345.675315423742
 21
428.3
 31
0.0
  0
LINE
  5
D51
330
CB3
100
AcDbEntity
  8
0
 62
     0
100
AcDbLine
 10
271.9276908020069
 20
428.2
 30
0.0
 11
272.2758150318406
 21
428.2
 31
0.0
  0
LINE
  5
D52
330
CB3
100
AcDbEntity
  8
0
 62
     0
100
AcDbLine
 10
345.2758150318406
 20
428.2
 30
0.0
 11
345.6239392616768
 21
428.2
 31
0.0
  0
LINE
  5
D53
330
CB3
100
AcDbEntity
  8
0
 62
     0
100
AcDbLine
 10
271.9809442301876
 20
428.1
 30
0.0
 11
272.2758150318406
 21
428.1
 31
0.0
  0
LINE
  5
D54
330
CB3
100
AcDbEntity
  8
0
 62
     0
100
AcDbLine
 10
345.2758150318406
 20
428.1
 30
0.0
 11
345.5706858334961
 21
428.1
 31
0.0
  0
LINE
  5
D55
330
CB3
100
AcDbEntity
  8
0
 62
     0
100
AcDbLine
 10
272.0361198428045
 20
428.0
 30
0.0
 11
272.2758150318406
 21
428.0
 31
0.0
  0
LINE
  5
D56
330
CB3
100
AcDbEntity
  8
0
 62
     0
100
AcDbLine
 10
345.2758150318406
 20
428.0
 30
0.0
 11
345.5155102208792
 21
428.0
 31
0.0
  0
LINE
  5
D57
330
CB3
100
AcDbEntity
  8
0
 62
     0
100
AcDbLine
 10
272.0932657044499
 20
427.9
 30
0.0
 11
272.2758150318406
 21
427.9
 31
0.0
  0
LINE
  5
D58
330
CB3
100
AcDbEntity
  8
0
 62
     0
100
AcDbLine
 10
345.2758150318406
 20
427.9
 30
0.0
 11
345.4583643592338
 21
427.9
 31
0.0
  0
LINE
  5
D59
330
CB3
100
AcDbEntity
  8
0
 62
     0
100
AcDbLine
 10
272.1524333009942
 20
427.8
 30
0.0
 11
272.2758150318406
 21
427.8
 31
0.0
  0
LINE
  5
D5A
330
CB3
100
AcDbEntity
  8
0
 62
     0
100
AcDbLine
 10
345.2758150318406
 20
427.8
 30
0.0
 11
345.3991967626895
 21
427.8
 31
0.0
  0
LINE
  5
D5B
330
CB3
100
AcDbEntity
  8
0
 62
     0
100
AcDbLine
 10
272.2136778482512
 20
427.7
 30
0.0
 11
272.2758150318406
 21
427.7
 31
0.0
  0
LINE
  5
D5C
330
CB3
100
AcDbEntity
  8
0
 62
     0
100
AcDbLine
 10
345.2758150318406
 20
427.7
 30
0.0
 11
345.3379522154326
 21
427.7
 31
0.0
  0
ENDBLK
  5
D5D
330
CB3
100
AcDbEntity
  8
0
100
AcDbBlockEnd
  0
BLOCK
  5
D5F
330
D5E
100
AcDbEntity
  8
0
100
AcDbBlockBegin
  2
*X2
 70
     1
 10
0.0
 20
0.0
 30
0.0
  3
*X2
  1

  0
LINE
  5
D60
330
D5E
100
AcDbEntity
  8
0
 62
     0
100
AcDbLine
 10
172.3518593261771
 20
209.3
 30
0.0
 11
174.935243041951
 21
209.3
 31
0.0
  0
LINE
  5
D61
330
D5E
100
AcDbEntity
  8
0
 62
     0
100
AcDbLine
 10
172.3518593261771
 20
209.4
 30
0.0
 11
174.9917275885314
 21
209.4
 31
0.0
  0
LINE
  5
D62
330
D5E
100
AcDbEntity
  8
0
 62
     0
100
AcDbLine
 10
172.3518593261771
 20
209.5
 30
0.0
 11
175.0433157092985
 21
209.5
 31
0.0
  0
LINE
  5
D63
330
D5E
100
AcDbEntity
  8
0
 62
     0
100
AcDbLine
 10
172.3518593261771
 20
209.6
 30
0.0
 11
175.090284143824
 21
209.6
 31
0.0
  0
LINE
  5
D64
330
D5E
100
AcDbEntity
  8
0
 62
     0
100
AcDbLine
 10
172.3518593261771
 20
209.7
 30
0.0
 11
175.1328669675841
 21
209.7
 31
0.0
  0
LINE
  5
D65
330
D5E
100
AcDbEntity
  8
0
 62
     0
100
AcDbLine
 10
172.3518593261771
 20
209.8
 30
0.0
 11
175.1712629016207
 21
209.8
 31
0.0
  0
LINE
  5
D66
330
D5E
100
AcDbEntity
  8
0
 62
     0
100
AcDbLine
 10
172.3518593261771
 20
209.9
 30
0.0
 11
175.2056409472693
 21
209.9
 31
0.0
  0
LINE
  5
D67
330
D5E
100
AcDbEntity
  8
0
 62
     0
100
AcDbLine
 10
172.3518593261771
 20
210.0
 30
0.0
 11
175.2361447767772
 21
210.0
 31
0.0
  0
LINE
  5
D68
330
D5E
100
AcDbEntity
  8
0
 62
     0
100
AcDbLine
 10
172.3518593261771
 20
210.1
 30
0.0
 11
175.2628961827289
 21
210.1
 31
0.0
  0
LINE
  5
D69
330
D5E
100
AcDbEntity
  8
0
 62
     0
100
AcDbLine
 10
172.3518593261771
 20
210.2
 30
0.0
 11
175.2859978027768
 21
210.2
 31
0.0
  0
LINE
  5
D6A
330
D5E
100
AcDbEntity
  8
0
 62
     0
100
AcDbLine
 10
172.3518593261771
 20
210.3
 30
0.0
 11
175.3055352765011
 21
210.3
 31
0.0
  0
LINE
  5
D6B
330
D5E
100
AcDbEntity
  8
0
 62
     0
100
AcDbLine
 10
172.3518593261771
 20
210.4
 30
0.0
 11
175.3215789491688
 21
210.4
 31
0.0
  0
LINE
  5
D6C
330
D5E
100
AcDbEntity
  8
0
 62
     0
100
AcDbLine
 10
172.3518593261771
 20
210.5
 30
0.0
 11
175.334185206902
 21
210.5
 31
0.0
  0
LINE
  5
D6D
330
D5E
100
AcDbEntity
  8
0
 62
     0
100
AcDbLine
 10
172.3518593261771
 20
210.6
 30
0.0
 11
175.3433975055258
 21
210.6
 31
0.0
  0
LINE
  5
D6E
330
D5E
100
AcDbEntity
  8
0
 62
     0
100
AcDbLine
 10
172.3518593261771
 20
210.7
 30
0.0
 11
175.3492471386166
 21
210.7
 31
0.0
  0
LINE
  5
D6F
330
D5E
100
AcDbEntity
  8
0
 62
     0
100
AcDbLine
 10
172.3518593261771
 20
210.8
 30
0.0
 11
175.3517537772904
 21
210.8
 31
0.0
  0
LINE
  5
D70
330
D5E
100
AcDbEntity
  8
0
 62
     0
100
AcDbLine
 10
172.3518593261771
 20
209.2
 30
0.0
 11
174.8735330567113
 21
209.2
 31
0.0
  0
LINE
  5
D71
330
D5E
100
AcDbEntity
  8
0
 62
     0
100
AcDbLine
 10
172.3518593261771
 20
209.1
 30
0.0
 11
174.806203512229
 21
209.1
 31
0.0
  0
LINE
  5
D72
330
D5E
100
AcDbEntity
  8
0
 62
     0
100
AcDbLine
 10
172.3518593261771
 20
209.0
 30
0.0
 11
174.7327777128394
 21
209.0
 31
0.0
  0
LINE
  5
D73
330
D5E
100
AcDbEntity
  8
0
 62
     0
100
AcDbLine
 10
172.3518593261771
 20
208.9
 30
0.0
 11
174.652672083506
 21
208.9
 31
0.0
  0
LINE
  5
D74
330
D5E
100
AcDbEntity
  8
0
 62
     0
100
AcDbLine
 10
172.3518593261771
 20
208.8
 30
0.0
 11
174.5651614575247
 21
208.8
 31
0.0
  0
LINE
  5
D75
330
D5E
100
AcDbEntity
  8
0
 62
     0
100
AcDbLine
 10
172.3518593261771
 20
208.7
 30
0.0
 11
174.4693279339652
 21
208.7
 31
0.0
  0
LINE
  5
D76
330
D5E
100
AcDbEntity
  8
0
 62
     0
100
AcDbLine
 10
172.3518593261771
 20
208.6
 30
0.0
 11
174.3639826537364
 21
208.6
 31
0.0
  0
LINE
  5
D77
330
D5E
100
AcDbEntity
  8
0
 62
     0
100
AcDbLine
 10
172.3518593261771
 20
208.5
 30
0.0
 11
174.2475405403185
 21
208.5
 31
0.0
  0
LINE
  5
D78
330
D5E
100
AcDbEntity
  8
0
 62
     0
100
AcDbLine
 10
172.3518593261771
 20
208.4
 30
0.0
 11
174.1178078661944
 21
208.4
 31
0.0
  0
LINE
  5
D79
330
D5E
100
AcDbEntity
  8
0
 62
     0
100
AcDbLine
 10
172.3518593261771
 20
208.3
 30
0.0
 11
173.9715942508884
 21
208.3
 31
0.0
  0
LINE
  5
D7A
330
D5E
100
AcDbEntity
  8
0
 62
     0
100
AcDbLine
 10
172.3518593261771
 20
208.2
 30
0.0
 11
173.8039296435756
 21
208.2
 31
0.0
  0
LINE
  5
D7B
330
D5E
100
AcDbEntity
  8
0
 62
     0
100
AcDbLine
 10
172.3518593261771
 20
208.1
 30
0.0
 11
173.606241718835
 21
208.1
 31
0.0
  0
LINE
  5
D7C
330
D5E
100
AcDbEntity
  8
0
 62
     0
100
AcDbLine
 10
172.3518593261771
 20
208.0
 30
0.0
 11
173.3610382832261
 21
208.0
 31
0.0
  0
LINE
  5
D7D
330
D5E
100
AcDbEntity
  8
0
 62
     0
100
AcDbLine
 10
172.3518593261771
 20
207.9
 30
0.0
 11
173.0177490675689
 21
207.9
 31
0.0
  0
ENDBLK
  5
D7E
330
D5E
100
AcDbEntity
  8
0
100
AcDbBlockEnd
  0
BLOCK
  5
D80
330
D7F
100
AcDbEntity
  8
0
100
AcDbBlockBegin
  2
*X3
 70
     1
 10
0.0
 20
0.0
 30
0.0
  3
*X3
  1

  0
LINE
  5
D81
330
D7F
100
AcDbEntity
  8
0
 62
     0
100
AcDbLine
 10
163.8518593261771
 20
215.1573753898123
 30
0.0
 11
162.251859326177
 21
216.7573753898124
 31
0.0
  0
LINE
  5
D82
330
D7F
100
AcDbEntity
  8
0
 62
     0
100
AcDbLine
 10
163.8518593261771
 20
212.328948265066
 30
0.0
 11
162.251859326177
 21
213.9289482650662
 31
0.0
  0
LINE
  5
D83
330
D7F
100
AcDbEntity
  8
0
 62
     0
100
AcDbLine
 10
163.8518593261771
 20
209.5005211403199
 30
0.0
 11
162.251859326177
 21
211.10052114032
 31
0.0
  0
LINE
  5
D84
330
D7F
100
AcDbEntity
  8
0
 62
     0
100
AcDbLine
 10
163.8518593261771
 20
206.6720940155737
 30
0.0
 11
162.251859326177
 21
208.2720940155738
 31
0.0
  0
LINE
  5
D85
330
D7F
100
AcDbEntity
  8
0
 62
     0
100
AcDbLine
 10
163.8518593261771
 20
203.8436668908275
 30
0.0
 11
162.251859326177
 21
205.4436668908276
 31
0.0
  0
LINE
  5
D86
330
D7F
100
AcDbEntity
  8
0
 62
     0
100
AcDbLine
 10
109.451859326177
 20
204.50355152065
 30
0.0
 11
108.8783545374132
 21
205.0770563094138
 31
0.0
  0
LINE
  5
D87
330
D7F
100
AcDbEntity
  8
0
 62
     0
100
AcDbLine
 10
108.3018186237828
 20
202.825165098298
 30
0.0
 11
107.8518593261771
 21
203.2751243959037
 31
0.0
  0
LINE
  5
D88
330
D7F
100
AcDbEntity
  8
0
 62
     0
100
AcDbLine
 10
163.8518593261771
 20
217.9858025145585
 30
0.0
 11
162.251859326177
 21
219.5858025145586
 31
0.0
  0
LINE
  5
D89
330
D7F
100
AcDbEntity
  8
0
 62
     0
100
AcDbLine
 10
163.8518593261771
 20
220.8142296393047
 30
0.0
 11
162.251859326177
 21
222.4142296393048
 31
0.0
  0
LINE
  5
D8A
330
D7F
100
AcDbEntity
  8
0
 62
     0
100
AcDbLine
 10
163.8518593261771
 20
223.6426567640508
 30
0.0
 11
162.251859326177
 21
225.2426567640509
 31
0.0
  0
LINE
  5
D8B
330
D7F
100
AcDbEntity
  8
0
 62
     0
100
AcDbLine
 10
163.8518593261771
 20
226.471083888797
 30
0.0
 11
162.251859326177
 21
228.0710838887971
 31
0.0
  0
LINE
  5
D8C
330
D7F
100
AcDbEntity
  8
0
 62
     0
100
AcDbLine
 10
163.8518593261771
 20
229.2995110135432
 30
0.0
 11
162.251859326177
 21
230.8995110135434
 31
0.0
  0
LINE
  5
D8D
330
D7F
100
AcDbEntity
  8
0
 62
     0
100
AcDbLine
 10
163.8518593261771
 20
232.1279381382894
 30
0.0
 11
162.251859326177
 21
233.7279381382896
 31
0.0
  0
LINE
  5
D8E
330
D7F
100
AcDbEntity
  8
0
 62
     0
100
AcDbLine
 10
163.8518593261771
 20
234.9563652630356
 30
0.0
 11
162.251859326177
 21
236.5563652630357
 31
0.0
  0
LINE
  5
D8F
330
D7F
100
AcDbEntity
  8
0
 62
     0
100
AcDbLine
 10
163.8518593261771
 20
237.7847923877818
 30
0.0
 11
162.251859326177
 21
239.3847923877819
 31
0.0
  0
LINE
  5
D90
330
D7F
100
AcDbEntity
  8
0
 62
     0
100
AcDbLine
 10
163.8518593261771
 20
240.613219512528
 30
0.0
 11
162.251859326177
 21
242.2132195125281
 31
0.0
  0
LINE
  5
D91
330
D7F
100
AcDbEntity
  8
0
 62
     0
100
AcDbLine
 10
163.8518593261771
 20
243.4416466372742
 30
0.0
 11
162.251859326177
 21
245.0416466372743
 31
0.0
  0
LINE
  5
D92
330
D7F
100
AcDbEntity
  8
0
 62
     0
100
AcDbLine
 10
163.8518593261771
 20
246.2700737620203
 30
0.0
 11
162.251859326177
 21
247.8700737620205
 31
0.0
  0
LINE
  5
D93
330
D7F
100
AcDbEntity
  8
0
 62
     0
100
AcDbLine
 10
163.9118102775865
 20
249.0385499353573
 30
0.0
 11
162.5430132798584
 21
250.4073469330853
 31
0.0
  0
LINE
  5
D94
330
D7F
100
AcDbEntity
  8
0
 62
     0
100
AcDbLine
 10
164.5070523276966
 20
251.2717350099932
 30
0.0
 11
163.2587227137607
 21
252.5200646239292
 31
0.0
  0
LINE
  5
D95
330
D7F
100
AcDbEntity
  8
0
 62
     0
100
AcDbLine
 10
165.2618072756685
 20
253.3454071867676
 30
0.0
 11
164.0134776617326
 21
254.5937368007035
 31
0.0
  0
LINE
  5
D96
330
D7F
100
AcDbEntity
  8
0
 62
     0
100
AcDbLine
 10
166.0165622236404
 20
255.4190793635419
 30
0.0
 11
164.7682326097044
 21
256.6674089774779
 31
0.0
  0
LINE
  5
D97
330
D7F
100
AcDbEntity
  8
0
 62
     0
100
AcDbLine
 10
166.7713171716122
 20
257.4927515403163
 30
0.0
 11
165.5229875576763
 21
258.7410811542522
 31
0.0
  0
LINE
  5
D98
330
D7F
100
AcDbEntity
  8
0
 62
     0
100
AcDbLine
 10
167.5260721195841
 20
259.5664237170906
 30
0.0
 11
166.2777425056481
 21
260.8147533310265
 31
0.0
  0
LINE
  5
D99
330
D7F
100
AcDbEntity
  8
0
 62
     0
100
AcDbLine
 10
168.2808270675559
 20
261.6400958938649
 30
0.0
 11
167.03249745362
 21
262.8884255078008
 31
0.0
  0
LINE
  5
D9A
330
D7F
100
AcDbEntity
  8
0
 62
     0
100
AcDbLine
 10
169.0355820155278
 20
263.7137680706393
 30
0.0
 11
167.7872524015918
 21
264.9620976845751
 31
0.0
  0
LINE
  5
D9B
330
D7F
100
AcDbEntity
  8
0
 62
     0
100
AcDbLine
 10
169.7903369634996
 20
265.7874402474136
 30
0.0
 11
168.5420073495637
 21
267.0357698613496
 31
0.0
  0
LINE
  5
D9C
330
D7F
100
AcDbEntity
  8
0
 62
     0
100
AcDbLine
 10
170.5450919114714
 20
267.8611124241879
 30
0.0
 11
169.2967622975356
 21
269.1094420381239
 31
0.0
  0
LINE
  5
D9D
330
D7F
100
AcDbEntity
  8
0
 62
     0
100
AcDbLine
 10
171.2998468594433
 20
269.9347846009623
 30
0.0
 11
170.0515172455074
 21
271.1831142148982
 31
0.0
  0
LINE
  5
D9E
330
D7F
100
AcDbEntity
  8
0
 62
     0
100
AcDbLine
 10
172.0012996254418
 20
272.06175895971
 30
0.0
 11
170.6404127163242
 21
273.4226458688276
 31
0.0
  0
LINE
  5
D9F
330
D7F
100
AcDbEntity
  8
0
 62
     0
100
AcDbLine
 10
172.3453578081094
 20
274.5461279017886
 30
0.0
 11
171.2066690606606
 21
275.6848166492374
 31
0.0
  0
ENDBLK
  5
DA0
330
D7F
100
AcDbEntity
  8
0
100
AcDbBlockEnd
  0
BLOCK
  5
E6E
330
E6D
100
AcDbEntity
  8
0
100
AcDbBlockBegin
  2
*X4
 70
     1
 10
0.0
 20
0.0
 30
0.0
  3
*X4
  1

  0
LINE
  5
E6F
330
E6D
100
AcDbEntity
  8
0
 62
     0
100
AcDbLine
 10
102.2837003789168
 20
136.224825875871
 30
0.0
 11
103.8837003789166
 21
137.8248258758709
 31
0.0
  0
LINE
  5
E70
330
E6D
100
AcDbEntity
  8
0
 62
     0
100
AcDbLine
 10
173.6837003789167
 20
207.624825875871
 30
0.0
 11
175.2837003789167
 21
209.224825875871
 31
0.0
  0
LINE
  5
E71
330
E6D
100
AcDbEntity
  8
0
 62
     0
100
AcDbLine
 10
102.2837003789168
 20
139.0532530006172
 30
0.0
 11
103.8837003789166
 21
140.6532530006171
 31
0.0
  0
LINE
  5
E72
330
E6D
100
AcDbEntity
  8
0
 62
     0
100
AcDbLine
 10
173.6837003789167
 20
210.4532530006172
 30
0.0
 11
175.2837003789167
 21
212.0532530006172
 31
0.0
  0
LINE
  5
E73
330
E6D
100
AcDbEntity
  8
0
 62
     0
100
AcDbLine
 10
102.2837003789168
 20
141.8816801253634
 30
0.0
 11
103.8837003789166
 21
143.4816801253633
 31
0.0
  0
LINE
  5
E74
330
E6D
100
AcDbEntity
  8
0
 62
     0
100
AcDbLine
 10
173.6837003789167
 20
213.2816801253634
 30
0.0
 11
175.2837003789167
 21
214.8816801253634
 31
0.0
  0
LINE
  5
E75
330
E6D
100
AcDbEntity
  8
0
 62
     0
100
AcDbLine
 10
102.2837003789168
 20
144.7101072501096
 30
0.0
 11
103.8837003789166
 21
146.3101072501095
 31
0.0
  0
LINE
  5
E76
330
E6D
100
AcDbEntity
  8
0
 62
     0
100
AcDbLine
 10
173.6837003789167
 20
216.1101072501095
 30
0.0
 11
175.2837003789167
 21
217.7101072501096
 31
0.0
  0
LINE
  5
E77
330
E6D
100
AcDbEntity
  8
0
 62
     0
100
AcDbLine
 10
102.2837003789168
 20
147.5385343748558
 30
0.0
 11
103.8837003789166
 21
149.1385343748557
 31
0.0
  0
LINE
  5
E78
330
E6D
100
AcDbEntity
  8
0
 62
     0
100
AcDbLine
 10
173.6837003789167
 20
218.9385343748557
 30
0.0
 11
175.2837003789167
 21
220.5385343748558
 31
0.0
  0
LINE
  5
E79
330
E6D
100
AcDbEntity
  8
0
 62
     0
100
AcDbLine
 10
102.2837003789168
 20
150.3669614996019
 30
0.0
 11
103.8837003789166
 21
151.9669614996019
 31
0.0
  0
LINE
  5
E7A
330
E6D
100
AcDbEntity
  8
0
 62
     0
100
AcDbLine
 10
173.6837003789167
 20
221.7669614996019
 30
0.0
 11
175.2837003789167
 21
223.366961499602
 31
0.0
  0
LINE
  5
E7B
330
E6D
100
AcDbEntity
  8
0
 62
     0
100
AcDbLine
 10
102.2837003789168
 20
153.1953886243482
 30
0.0
 11
103.8837003789166
 21
154.7953886243481
 31
0.0
  0
LINE
  5
E7C
330
E6D
100
AcDbEntity
  8
0
 62
     0
100
AcDbLine
 10
173.6837003789167
 20
224.5953886243481
 30
0.0
 11
175.2837003789167
 21
226.1953886243481
 31
0.0
  0
LINE
  5
E7D
330
E6D
100
AcDbEntity
  8
0
 62
     0
100
AcDbLine
 10
102.2837003789168
 20
156.0238157490944
 30
0.0
 11
103.8837003789166
 21
157.6238157490943
 31
0.0
  0
LINE
  5
E7E
330
E6D
100
AcDbEntity
  8
0
 62
     0
100
AcDbLine
 10
173.6837003789167
 20
227.4238157490943
 30
0.0
 11
175.2837003789167
 21
229.0238157490943
 31
0.0
  0
LINE
  5
E7F
330
E6D
100
AcDbEntity
  8
0
 62
     0
100
AcDbLine
 10
102.2837003789168
 20
158.8522428738405
 30
0.0
 11
103.8837003789166
 21
160.4522428738405
 31
0.0
  0
LINE
  5
E80
330
E6D
100
AcDbEntity
  8
0
 62
     0
100
AcDbLine
 10
173.6837003789167
 20
230.2522428738405
 30
0.0
 11
175.2837003789167
 21
231.8522428738405
 31
0.0
  0
LINE
  5
E81
330
E6D
100
AcDbEntity
  8
0
 62
     0
100
AcDbLine
 10
102.2837003789168
 20
161.6806699985867
 30
0.0
 11
102.7154561007289
 21
162.1124257203989
 31
0.0
  0
LINE
  5
E82
330
E6D
100
AcDbEntity
  8
0
 62
     0
100
AcDbLine
 10
173.6837003789167
 20
233.0806699985867
 30
0.0
 11
175.2837003789167
 21
234.6806699985867
 31
0.0
  0
LINE
  5
E83
330
E6D
100
AcDbEntity
  8
0
 62
     0
100
AcDbLine
 10
103.0238434763571
 20
165.2492402207732
 30
0.0
 11
103.8837003789166
 21
166.1090971233328
 31
0.0
  0
LINE
  5
E84
330
E6D
100
AcDbEntity
  8
0
 62
     0
100
AcDbLine
 10
173.6837003789167
 20
235.9090971233329
 30
0.0
 11
175.2837003789167
 21
237.5090971233329
 31
0.0
  0
LINE
  5
E85
330
E6D
100
AcDbEntity
  8
0
 62
     0
100
AcDbLine
 10
102.2837003789167
 20
167.3375242480791
 30
0.0
 11
103.8837003789166
 21
168.937524248079
 31
0.0
  0
LINE
  5
E86
330
E6D
100
AcDbEntity
  8
0
 62
     0
100
AcDbLine
 10
173.6837003789167
 20
238.7375242480791
 30
0.0
 11
175.2837003789167
 21
240.3375242480791
 31
0.0
  0
LINE
  5
E87
330
E6D
100
AcDbEntity
  8
0
 62
     0
100
AcDbLine
 10
102.2837003789167
 20
170.1659513728253
 30
0.0
 11
103.8837003789166
 21
171.7659513728252
 31
0.0
  0
LINE
  5
E88
330
E6D
100
AcDbEntity
  8
0
 62
     0
100
AcDbLine
 10
173.6837003789167
 20
241.5659513728252
 30
0.0
 11
175.2837003789167
 21
243.1659513728253
 31
0.0
  0
LINE
  5
E89
330
E6D
100
AcDbEntity
  8
0
 62
     0
100
AcDbLine
 10
102.2837003789167
 20
172.9943784975715
 30
0.0
 11
103.8837003789166
 21
174.5943784975714
 31
0.0
  0
LINE
  5
E8A
330
E6D
100
AcDbEntity
  8
0
 62
     0
100
AcDbLine
 10
173.6837003789167
 20
244.3943784975714
 30
0.0
 11
175.2837003789167
 21
245.9943784975715
 31
0.0
  0
LINE
  5
E8B
330
E6D
100
AcDbEntity
  8
0
 62
     0
100
AcDbLine
 10
102.2837003789167
 20
175.8228056223177
 30
0.0
 11
103.8837003789166
 21
177.4228056223176
 31
0.0
  0
LINE
  5
E8C
330
E6D
100
AcDbEntity
  8
0
 62
     0
100
AcDbLine
 10
173.6837003789167
 20
247.2228056223176
 30
0.0
 11
175.2837003789167
 21
248.8228056223177
 31
0.0
  0
LINE
  5
E8D
330
E6D
100
AcDbEntity
  8
0
 62
     0
100
AcDbLine
 10
102.2837003789167
 20
178.6512327470639
 30
0.0
 11
103.8837003789166
 21
180.2512327470638
 31
0.0
  0
LINE
  5
E8E
330
E6D
100
AcDbEntity
  8
0
 62
     0
100
AcDbLine
 10
173.6837003789167
 20
250.0512327470638
 30
0.0
 11
175.2837003789167
 21
251.6512327470638
 31
0.0
  0
LINE
  5
E8F
330
E6D
100
AcDbEntity
  8
0
 62
     0
100
AcDbLine
 10
102.2837003789167
 20
181.4796598718101
 30
0.0
 11
103.8837003789166
 21
183.07965987181
 31
0.0
  0
LINE
  5
E90
330
E6D
100
AcDbEntity
  8
0
 62
     0
100
AcDbLine
 10
173.6837003789167
 20
252.87965987181
 30
0.0
 11
175.2837003789167
 21
254.47965987181
 31
0.0
  0
LINE
  5
E91
330
E6D
100
AcDbEntity
  8
0
 62
     0
100
AcDbLine
 10
102.2837003789167
 20
184.3080869965563
 30
0.0
 11
103.8837003789166
 21
185.9080869965561
 31
0.0
  0
LINE
  5
E92
330
E6D
100
AcDbEntity
  8
0
 62
     0
100
AcDbLine
 10
173.6837003789166
 20
255.7080869965562
 30
0.0
 11
175.2837003789167
 21
257.3080869965562
 31
0.0
  0
LINE
  5
E93
330
E6D
100
AcDbEntity
  8
0
 62
     0
100
AcDbLine
 10
102.2837003789167
 20
187.1365141213025
 30
0.0
 11
103.8837003789166
 21
188.7365141213024
 31
0.0
  0
LINE
  5
E94
330
E6D
100
AcDbEntity
  8
0
 62
     0
100
AcDbLine
 10
173.6837003789166
 20
258.5365141213024
 30
0.0
 11
175.2837003789167
 21
260.1365141213024
 31
0.0
  0
LINE
  5
E95
330
E6D
100
AcDbEntity
  8
0
 62
     0
100
AcDbLine
 10
102.2837003789167
 20
189.9649412460486
 30
0.0
 11
103.8837003789166
 21
191.5649412460485
 31
0.0
  0
LINE
  5
E96
330
E6D
100
AcDbEntity
  8
0
 62
     0
100
AcDbLine
 10
173.6837003789166
 20
261.3649412460485
 30
0.0
 11
175.2837003789167
 21
262.9649412460486
 31
0.0
  0
LINE
  5
E97
330
E6D
100
AcDbEntity
  8
0
 62
     0
100
AcDbLine
 10
102.2837003789167
 20
192.7933683707948
 30
0.0
 11
103.8837003789166
 21
194.3933683707947
 31
0.0
  0
LINE
  5
E98
330
E6D
100
AcDbEntity
  8
0
 62
     0
100
AcDbLine
 10
173.6837003789166
 20
264.1933683707947
 30
0.0
 11
175.2837003789167
 21
265.7933683707948
 31
0.0
  0
LINE
  5
E99
330
E6D
100
AcDbEntity
  8
0
 62
     0
100
AcDbLine
 10
102.2837003789167
 20
195.621795495541
 30
0.0
 11
103.8837003789166
 21
197.2217954955409
 31
0.0
  0
LINE
  5
E9A
330
E6D
100
AcDbEntity
  8
0
 62
     0
100
AcDbLine
 10
173.6837003789166
 20
267.0217954955409
 30
0.0
 11
175.2837003789166
 21
268.6217954955409
 31
0.0
  0
LINE
  5
E9B
330
E6D
100
AcDbEntity
  8
0
 62
     0
100
AcDbLine
 10
102.2837003789167
 20
198.4502226202872
 30
0.0
 11
103.8837003789166
 21
200.0502226202871
 31
0.0
  0
LINE
  5
E9C
330
E6D
100
AcDbEntity
  8
0
 62
     0
100
AcDbLine
 10
173.6837003789166
 20
269.8502226202871
 30
0.0
 11
175.2837003789166
 21
271.4502226202871
 31
0.0
  0
LINE
  5
E9D
330
E6D
100
AcDbEntity
  8
0
 62
     0
100
AcDbLine
 10
102.2837003789167
 20
201.2786497450334
 30
0.0
 11
103.8837003789166
 21
202.8786497450333
 31
0.0
  0
LINE
  5
E9E
330
E6D
100
AcDbEntity
  8
0
 62
     0
100
AcDbLine
 10
173.6837003789166
 20
272.6786497450333
 30
0.0
 11
175.2837003789166
 21
274.2786497450333
 31
0.0
  0
LINE
  5
E9F
330
E6D
100
AcDbEntity
  8
0
 62
     0
100
AcDbLine
 10
102.2837003789167
 20
204.1070768697796
 30
0.0
 11
103.8837003789166
 21
205.7070768697795
 31
0.0
  0
LINE
  5
EA0
330
E6D
100
AcDbEntity
  8
0
 62
     0
100
AcDbLine
 10
173.6837003789166
 20
275.5070768697795
 30
0.0
 11
175.2837003789166
 21
277.1070768697795
 31
0.0
  0
LINE
  5
EA1
330
E6D
100
AcDbEntity
  8
0
 62
     0
100
AcDbLine
 10
102.2837003789167
 20
206.9355039945258
 30
0.0
 11
103.8837003789166
 21
208.5355039945257
 31
0.0
  0
LINE
  5
EA2
330
E6D
100
AcDbEntity
  8
0
 62
     0
100
AcDbLine
 10
173.6837003789166
 20
278.3355039945257
 30
0.0
 11
175.2837003789166
 21
279.9355039945258
 31
0.0
  0
LINE
  5
EA3
330
E6D
100
AcDbEntity
  8
0
 62
     0
100
AcDbLine
 10
102.2837003789167
 20
209.763931119272
 30
0.0
 11
103.8837003789166
 21
211.3639311192719
 31
0.0
  0
LINE
  5
EA4
330
E6D
100
AcDbEntity
  8
0
 62
     0
100
AcDbLine
 10
173.6837003789166
 20
281.1639311192719
 30
0.0
 11
175.2837003789166
 21
282.7639311192719
 31
0.0
  0
LINE
  5
EA5
330
E6D
100
AcDbEntity
  8
0
 62
     0
100
AcDbLine
 10
102.2837003789167
 20
212.5923582440182
 30
0.0
 11
103.8837003789166
 21
214.1923582440181
 31
0.0
  0
LINE
  5
EA6
330
E6D
100
AcDbEntity
  8
0
 62
     0
100
AcDbLine
 10
173.6837003789166
 20
283.992358244018
 30
0.0
 11
175.2837003789166
 21
285.5923582440181
 31
0.0
  0
LINE
  5
EA7
330
E6D
100
AcDbEntity
  8
0
 62
     0
100
AcDbLine
 10
102.2837003789167
 20
215.4207853687644
 30
0.0
 11
103.8837003789166
 21
217.0207853687642
 31
0.0
  0
LINE
  5
EA8
330
E6D
100
AcDbEntity
  8
0
 62
     0
100
AcDbLine
 10
173.6837003789166
 20
286.8207853687642
 30
0.0
 11
175.2837003789166
 21
288.4207853687643
 31
0.0
  0
LINE
  5
EA9
330
E6D
100
AcDbEntity
  8
0
 62
     0
100
AcDbLine
 10
102.2837003789167
 20
218.2492124935106
 30
0.0
 11
103.8837003789166
 21
219.8492124935104
 31
0.0
  0
LINE
  5
EAA
330
E6D
100
AcDbEntity
  8
0
 62
     0
100
AcDbLine
 10
173.6837003789166
 20
289.6492124935104
 30
0.0
 11
175.2837003789166
 21
291.2492124935105
 31
0.0
  0
LINE
  5
EAB
330
E6D
100
AcDbEntity
  8
0
 62
     0
100
AcDbLine
 10
102.2837003789167
 20
221.0776396182567
 30
0.0
 11
103.8837003789166
 21
222.6776396182566
 31
0.0
  0
LINE
  5
EAC
330
E6D
100
AcDbEntity
  8
0
 62
     0
100
AcDbLine
 10
173.6837003789166
 20
292.4776396182566
 30
0.0
 11
175.2837003789166
 21
294.0776396182566
 31
0.0
  0
LINE
  5
EAD
330
E6D
100
AcDbEntity
  8
0
 62
     0
100
AcDbLine
 10
102.2837003789167
 20
223.9060667430029
 30
0.0
 11
103.8837003789166
 21
225.5060667430028
 31
0.0
  0
LINE
  5
EAE
330
E6D
100
AcDbEntity
  8
0
 62
     0
100
AcDbLine
 10
173.6837003789166
 20
295.3060667430028
 30
0.0
 11
175.2837003789166
 21
296.9060667430028
 31
0.0
  0
LINE
  5
EAF
330
E6D
100
AcDbEntity
  8
0
 62
     0
100
AcDbLine
 10
102.2837003789167
 20
226.7344938677491
 30
0.0
 11
103.8837003789166
 21
228.334493867749
 31
0.0
  0
LINE
  5
EB0
330
E6D
100
AcDbEntity
  8
0
 62
     0
100
AcDbLine
 10
173.6837003789166
 20
298.134493867749
 30
0.0
 11
175.2837003789166
 21
299.734493867749
 31
0.0
  0
LINE
  5
EB1
330
E6D
100
AcDbEntity
  8
0
 62
     0
100
AcDbLine
 10
102.2837003789167
 20
229.5629209924953
 30
0.0
 11
103.8837003789166
 21
231.1629209924952
 31
0.0
  0
LINE
  5
EB2
330
E6D
100
AcDbEntity
  8
0
 62
     0
100
AcDbLine
 10
173.6837003789166
 20
300.9629209924952
 30
0.0
 11
175.2837003789166
 21
302.5629209924952
 31
0.0
  0
LINE
  5
EB3
330
E6D
100
AcDbEntity
  8
0
 62
     0
100
AcDbLine
 10
102.2837003789167
 20
232.3913481172415
 30
0.0
 11
103.8837003789166
 21
233.9913481172414
 31
0.0
  0
LINE
  5
EB4
330
E6D
100
AcDbEntity
  8
0
 62
     0
100
AcDbLine
 10
173.6837003789166
 20
303.7913481172413
 30
0.0
 11
175.2837003789166
 21
305.3913481172414
 31
0.0
  0
LINE
  5
EB5
330
E6D
100
AcDbEntity
  8
0
 62
     0
100
AcDbLine
 10
102.2837003789167
 20
235.2197752419877
 30
0.0
 11
103.8837003789166
 21
236.8197752419876
 31
0.0
  0
LINE
  5
EB6
330
E6D
100
AcDbEntity
  8
0
 62
     0
100
AcDbLine
 10
102.2837003789167
 20
238.0482023667339
 30
0.0
 11
103.8837003789166
 21
239.6482023667338
 31
0.0
  0
LINE
  5
EB7
330
E6D
100
AcDbEntity
  8
0
 62
     0
100
AcDbLine
 10
102.2837003789167
 20
240.8766294914801
 30
0.0
 11
103.8837003789166
 21
242.47662949148
 31
0.0
  0
LINE
  5
EB8
330
E6D
100
AcDbEntity
  8
0
 62
     0
100
AcDbLine
 10
102.2837003789168
 20
133.3963987511248
 30
0.0
 11
103.8837003789166
 21
134.9963987511247
 31
0.0
  0
LINE
  5
EB9
330
E6D
100
AcDbEntity
  8
0
 62
     0
100
AcDbLine
 10
173.6837003789167
 20
204.7963987511248
 30
0.0
 11
175.2837003789167
 21
206.3963987511248
 31
0.0
  0
LINE
  5
EBA
330
E6D
100
AcDbEntity
  8
0
 62
     0
100
AcDbLine
 10
102.2837003789168
 20
130.5679716263786
 30
0.0
 11
103.8837003789166
 21
132.1679716263785
 31
0.0
  0
LINE
  5
EBB
330
E6D
100
AcDbEntity
  8
0
 62
     0
100
AcDbLine
 10
173.6837003789167
 20
201.9679716263786
 30
0.0
 11
175.2837003789167
 21
203.5679716263786
 31
0.0
  0
LINE
  5
EBC
330
E6D
100
AcDbEntity
  8
0
 62
     0
100
AcDbLine
 10
102.2837003789168
 20
127.7395445016324
 30
0.0
 11
103.8837003789166
 21
129.3395445016324
 31
0.0
  0
LINE
  5
EBD
330
E6D
100
AcDbEntity
  8
0
 62
     0
100
AcDbLine
 10
173.6837003789167
 20
199.1395445016324
 30
0.0
 11
175.2837003789167
 21
200.7395445016324
 31
0.0
  0
LINE
  5
EBE
330
E6D
100
AcDbEntity
  8
0
 62
     0
100
AcDbLine
 10
102.2837003789168
 20
124.9111173768863
 30
0.0
 11
103.8837003789166
 21
126.5111173768862
 31
0.0
  0
LINE
  5
EBF
330
E6D
100
AcDbEntity
  8
0
 62
     0
100
AcDbLine
 10
173.6837003789167
 20
196.3111173768862
 30
0.0
 11
175.2837003789167
 21
197.9111173768862
 31
0.0
  0
LINE
  5
EC0
330
E6D
100
AcDbEntity
  8
0
 62
     0
100
AcDbLine
 10
102.2837003789168
 20
122.0826902521401
 30
0.0
 11
103.8837003789166
 21
123.68269025214
 31
0.0
  0
LINE
  5
EC1
330
E6D
100
AcDbEntity
  8
0
 62
     0
100
AcDbLine
 10
173.6837003789167
 20
193.48269025214
 30
0.0
 11
175.2837003789167
 21
195.0826902521401
 31
0.0
  0
LINE
  5
EC2
330
E6D
100
AcDbEntity
  8
0
 62
     0
100
AcDbLine
 10
102.2837003789168
 20
119.2542631273939
 30
0.0
 11
103.8837003789166
 21
120.8542631273938
 31
0.0
  0
LINE
  5
EC3
330
E6D
100
AcDbEntity
  8
0
 62
     0
100
AcDbLine
 10
173.6837003789167
 20
190.6542631273938
 30
0.0
 11
175.2837003789167
 21
192.2542631273939
 31
0.0
  0
LINE
  5
EC4
330
E6D
100
AcDbEntity
  8
0
 62
     0
100
AcDbLine
 10
102.2837003789168
 20
116.4258360026477
 30
0.0
 11
103.8837003789166
 21
118.0258360026476
 31
0.0
  0
LINE
  5
EC5
330
E6D
100
AcDbEntity
  8
0
 62
     0
100
AcDbLine
 10
173.6837003789167
 20
187.8258360026476
 30
0.0
 11
175.2837003789167
 21
189.4258360026477
 31
0.0
  0
LINE
  5
EC6
330
E6D
100
AcDbEntity
  8
0
 62
     0
100
AcDbLine
 10
102.2837003789168
 20
113.5974088779015
 30
0.0
 11
103.8837003789166
 21
115.1974088779014
 31
0.0
  0
LINE
  5
EC7
330
E6D
100
AcDbEntity
  8
0
 62
     0
100
AcDbLine
 10
173.6837003789167
 20
184.9974088779014
 30
0.0
 11
175.2837003789167
 21
186.5974088779015
 31
0.0
  0
LINE
  5
EC8
330
E6D
100
AcDbEntity
  8
0
 62
     0
100
AcDbLine
 10
102.2837003789168
 20
110.7689817531553
 30
0.0
 11
103.8837003789166
 21
112.3689817531552
 31
0.0
  0
LINE
  5
EC9
330
E6D
100
AcDbEntity
  8
0
 62
     0
100
AcDbLine
 10
173.6837003789167
 20
182.1689817531553
 30
0.0
 11
175.2837003789167
 21
183.7689817531553
 31
0.0
  0
LINE
  5
ECA
330
E6D
100
AcDbEntity
  8
0
 62
     0
100
AcDbLine
 10
102.2837003789168
 20
107.9405546284091
 30
0.0
 11
103.8837003789166
 21
109.540554628409
 31
0.0
  0
LINE
  5
ECB
330
E6D
100
AcDbEntity
  8
0
 62
     0
100
AcDbLine
 10
173.6837003789167
 20
179.3405546284091
 30
0.0
 11
175.2837003789167
 21
180.9405546284091
 31
0.0
  0
LINE
  5
ECC
330
E6D
100
AcDbEntity
  8
0
 62
     0
100
AcDbLine
 10
102.2837003789168
 20
105.1121275036629
 30
0.0
 11
103.8837003789166
 21
106.7121275036629
 31
0.0
  0
LINE
  5
ECD
330
E6D
100
AcDbEntity
  8
0
 62
     0
100
AcDbLine
 10
173.6837003789167
 20
176.5121275036629
 30
0.0
 11
175.2837003789167
 21
178.1121275036629
 31
0.0
  0
LINE
  5
ECE
330
E6D
100
AcDbEntity
  8
0
 62
     0
100
AcDbLine
 10
102.2837003789168
 20
102.2837003789168
 30
0.0
 11
103.8837003789166
 21
103.8837003789166
 31
0.0
  0
LINE
  5
ECF
330
E6D
100
AcDbEntity
  8
0
 62
     0
100
AcDbLine
 10
173.6837003789167
 20
173.6837003789167
 30
0.0
 11
175.2837003789167
 21
175.2837003789167
 31
0.0
  0
LINE
  5
ED0
330
E6D
100
AcDbEntity
  8
0
 62
     0
100
AcDbLine
 10
102.2837003789168
 20
99.45527325417058
 30
0.0
 11
103.8837003789166
 21
101.0552732541705
 31
0.0
  0
LINE
  5
ED1
330
E6D
100
AcDbEntity
  8
0
 62
     0
100
AcDbLine
 10
173.6837003789167
 20
170.8552732541705
 30
0.0
 11
175.2837003789167
 21
172.4552732541706
 31
0.0
  0
LINE
  5
ED2
330
E6D
100
AcDbEntity
  8
0
 62
     0
100
AcDbLine
 10
102.2837003789168
 20
96.6268461294244
 30
0.0
 11
103.8837003789166
 21
98.22684612942431
 31
0.0
  0
LINE
  5
ED3
330
E6D
100
AcDbEntity
  8
0
 62
     0
100
AcDbLine
 10
173.6837003789167
 20
168.0268461294244
 30
0.0
 11
175.2837003789167
 21
169.6268461294244
 31
0.0
  0
LINE
  5
ED4
330
E6D
100
AcDbEntity
  8
0
 62
     0
100
AcDbLine
 10
102.2837003789168
 20
93.7984190046782
 30
0.0
 11
103.8837003789166
 21
95.39841900467811
 31
0.0
  0
LINE
  5
ED5
330
E6D
100
AcDbEntity
  8
0
 62
     0
100
AcDbLine
 10
173.6837003789167
 20
165.1984190046781
 30
0.0
 11
175.2837003789167
 21
166.7984190046782
 31
0.0
  0
LINE
  5
ED6
330
E6D
100
AcDbEntity
  8
0
 62
     0
100
AcDbLine
 10
102.2837003789168
 20
90.96999187993201
 30
0.0
 11
103.8837003789166
 21
92.56999187993192
 31
0.0
  0
LINE
  5
ED7
330
E6D
100
AcDbEntity
  8
0
 62
     0
100
AcDbLine
 10
173.6837003789167
 20
162.3699918799319
 30
0.0
 11
175.2837003789167
 21
163.969991879932
 31
0.0
  0
LINE
  5
ED8
330
E6D
100
AcDbEntity
  8
0
 62
     0
100
AcDbLine
 10
102.2837003789168
 20
88.14156475518583
 30
0.0
 11
103.8837003789166
 21
89.74156475518574
 31
0.0
  0
LINE
  5
ED9
330
E6D
100
AcDbEntity
  8
0
 62
     0
100
AcDbLine
 10
102.2837003789168
 20
85.31313763043963
 30
0.0
 11
103.8837003789166
 21
86.91313763043954
 31
0.0
  0
LINE
  5
EDA
330
E6D
100
AcDbEntity
  8
0
 62
     0
100
AcDbLine
 10
173.6837003789167
 20
156.7131376304396
 30
0.0
 11
175.2837003789168
 21
158.3131376304396
 31
0.0
  0
LINE
  5
EDB
330
E6D
100
AcDbEntity
  8
0
 62
     0
100
AcDbLine
 10
102.2837003789168
 20
82.48471050569344
 30
0.0
 11
103.8837003789166
 21
84.08471050569335
 31
0.0
  0
LINE
  5
EDC
330
E6D
100
AcDbEntity
  8
0
 62
     0
100
AcDbLine
 10
173.6837003789167
 20
153.8847105056934
 30
0.0
 11
175.2837003789168
 21
155.4847105056934
 31
0.0
  0
LINE
  5
EDD
330
E6D
100
AcDbEntity
  8
0
 62
     0
100
AcDbLine
 10
102.2837003789168
 20
79.65628338094726
 30
0.0
 11
103.8837003789166
 21
81.25628338094717
 31
0.0
  0
LINE
  5
EDE
330
E6D
100
AcDbEntity
  8
0
 62
     0
100
AcDbLine
 10
173.6837003789167
 20
151.0562833809472
 30
0.0
 11
175.2837003789168
 21
152.6562833809472
 31
0.0
  0
LINE
  5
EDF
330
E6D
100
AcDbEntity
  8
0
 62
     0
100
AcDbLine
 10
102.2837003789168
 20
76.82785625620105
 30
0.0
 11
103.8837003789166
 21
78.42785625620097
 31
0.0
  0
LINE
  5
EE0
330
E6D
100
AcDbEntity
  8
0
 62
     0
100
AcDbLine
 10
173.6837003789167
 20
148.227856256201
 30
0.0
 11
175.2837003789168
 21
149.8278562562011
 31
0.0
  0
LINE
  5
EE1
330
E6D
100
AcDbEntity
  8
0
 62
     0
100
AcDbLine
 10
102.2837003789168
 20
73.99942913145487
 30
0.0
 11
103.8837003789166
 21
75.59942913145478
 31
0.0
  0
LINE
  5
EE2
330
E6D
100
AcDbEntity
  8
0
 62
     0
100
AcDbLine
 10
173.6837003789167
 20
145.3994291314548
 30
0.0
 11
175.2837003789168
 21
146.9994291314549
 31
0.0
  0
LINE
  5
EE3
330
E6D
100
AcDbEntity
  8
0
 62
     0
100
AcDbLine
 10
102.2837003789168
 20
71.17100200670868
 30
0.0
 11
103.8837003789166
 21
72.77100200670858
 31
0.0
  0
LINE
  5
EE4
330
E6D
100
AcDbEntity
  8
0
 62
     0
100
AcDbLine
 10
173.6837003789167
 20
142.5710020067087
 30
0.0
 11
175.2837003789168
 21
144.1710020067087
 31
0.0
  0
LINE
  5
EE5
330
E6D
100
AcDbEntity
  8
0
 62
     0
100
AcDbLine
 10
102.2837003789168
 20
68.34257488196249
 30
0.0
 11
103.8837003789166
 21
69.9425748819624
 31
0.0
  0
LINE
  5
EE6
330
E6D
100
AcDbEntity
  8
0
 62
     0
100
AcDbLine
 10
173.6837003789167
 20
139.7425748819625
 30
0.0
 11
175.2837003789168
 21
141.3425748819625
 31
0.0
  0
LINE
  5
EE7
330
E6D
100
AcDbEntity
  8
0
 62
     0
100
AcDbLine
 10
102.2837003789168
 20
65.51414775721631
 30
0.0
 11
103.8837003789166
 21
67.1141477572162
 31
0.0
  0
LINE
  5
EE8
330
E6D
100
AcDbEntity
  8
0
 62
     0
100
AcDbLine
 10
173.6837003789167
 20
136.9141477572163
 30
0.0
 11
175.2837003789168
 21
138.5141477572163
 31
0.0
  0
LINE
  5
EE9
330
E6D
100
AcDbEntity
  8
0
 62
     0
100
AcDbLine
 10
102.2837003789168
 20
62.6857206324701
 30
0.0
 11
103.8837003789166
 21
64.28572063247002
 31
0.0
  0
LINE
  5
EEA
330
E6D
100
AcDbEntity
  8
0
 62
     0
100
AcDbLine
 10
173.6837003789167
 20
134.0857206324701
 30
0.0
 11
175.2837003789168
 21
135.6857206324701
 31
0.0
  0
LINE
  5
EEB
330
E6D
100
AcDbEntity
  8
0
 62
     0
100
AcDbLine
 10
102.2837003789168
 20
59.85729350772391
 30
0.0
 11
103.8837003789166
 21
61.45729350772382
 31
0.0
  0
LINE
  5
EEC
330
E6D
100
AcDbEntity
  8
0
 62
     0
100
AcDbLine
 10
173.6837003789167
 20
131.2572935077239
 30
0.0
 11
175.2837003789168
 21
132.8572935077239
 31
0.0
  0
LINE
  5
EED
330
E6D
100
AcDbEntity
  8
0
 62
     0
100
AcDbLine
 10
102.2837003789168
 20
57.02886638297773
 30
0.0
 11
103.8837003789166
 21
58.62886638297764
 31
0.0
  0
LINE
  5
EEE
330
E6D
100
AcDbEntity
  8
0
 62
     0
100
AcDbLine
 10
173.6837003789168
 20
128.4288663829777
 30
0.0
 11
175.2837003789168
 21
130.0288663829777
 31
0.0
  0
LINE
  5
EEF
330
E6D
100
AcDbEntity
  8
0
 62
     0
100
AcDbLine
 10
102.2837003789168
 20
54.20043925823154
 30
0.0
 11
103.8837003789166
 21
55.80043925823145
 31
0.0
  0
LINE
  5
EF0
330
E6D
100
AcDbEntity
  8
0
 62
     0
100
AcDbLine
 10
173.6837003789168
 20
125.6004392582315
 30
0.0
 11
175.2837003789168
 21
127.2004392582315
 31
0.0
  0
LINE
  5
EF1
330
E6D
100
AcDbEntity
  8
0
 62
     0
100
AcDbLine
 10
102.2837003789168
 20
51.37201213348536
 30
0.0
 11
103.8837003789166
 21
52.97201213348525
 31
0.0
  0
LINE
  5
EF2
330
E6D
100
AcDbEntity
  8
0
 62
     0
100
AcDbLine
 10
173.6837003789168
 20
122.7720121334854
 30
0.0
 11
175.2837003789168
 21
124.3720121334854
 31
0.0
  0
LINE
  5
EF3
330
E6D
100
AcDbEntity
  8
0
 62
     0
100
AcDbLine
 10
102.3003443780895
 20
48.56022900791189
 30
0.0
 11
103.8837003789166
 21
50.14358500873907
 31
0.0
  0
LINE
  5
EF4
330
E6D
100
AcDbEntity
  8
0
 62
     0
100
AcDbLine
 10
173.6837003789168
 20
119.9435850087392
 30
0.0
 11
175.2837003789168
 21
121.5435850087392
 31
0.0
  0
LINE
  5
EF5
330
E6D
100
AcDbEntity
  8
0
 62
     0
100
AcDbLine
 10
102.5278918618694
 20
45.95934936694563
 30
0.0
 11
104.004791616265
 21
47.43624912134122
 31
0.0
  0
LINE
  5
EF6
330
E6D
100
AcDbEntity
  8
0
 62
     0
100
AcDbLine
 10
173.6837003789168
 20
117.115157883993
 30
0.0
 11
175.2837003789168
 21
118.715157883993
 31
0.0
  0
LINE
  5
EF7
330
E6D
100
AcDbEntity
  8
0
 62
     0
100
AcDbLine
 10
102.7554393456493
 20
43.35846972597936
 30
0.0
 11
104.2323391000449
 21
44.83536948037493
 31
0.0
  0
LINE
  5
EF8
330
E6D
100
AcDbEntity
  8
0
 62
     0
100
AcDbLine
 10
173.6837003789168
 20
114.2867307592468
 30
0.0
 11
175.2837003789168
 21
115.8867307592468
 31
0.0
  0
LINE
  5
EF9
330
E6D
100
AcDbEntity
  8
0
 62
     0
100
AcDbLine
 10
103.0457250420531
 20
40.82032829763699
 30
0.0
 11
104.4598865838248
 21
42.23448983940865
 31
0.0
  0
LINE
  5
EFA
330
E6D
100
AcDbEntity
  8
0
 62
     0
100
AcDbLine
 10
173.6837003789168
 20
111.4583036345006
 30
0.0
 11
175.2837003789168
 21
113.0583036345006
 31
0.0
  0
LINE
  5
EFB
330
E6D
100
AcDbEntity
  8
0
 62
     0
100
AcDbLine
 10
173.6837003789168
 20
108.6298765097544
 30
0.0
 11
175.2837003789168
 21
110.2298765097544
 31
0.0
  0
LINE
  5
EFC
330
E6D
100
AcDbEntity
  8
0
 62
     0
100
AcDbLine
 10
173.6837003789168
 20
105.8014493850082
 30
0.0
 11
175.2837003789168
 21
107.4014493850082
 31
0.0
  0
LINE
  5
EFD
330
E6D
100
AcDbEntity
  8
0
 62
     0
100
AcDbLine
 10
173.6837003789168
 20
102.973022260262
 30
0.0
 11
175.2837003789168
 21
104.573022260262
 31
0.0
  0
LINE
  5
EFE
330
E6D
100
AcDbEntity
  8
0
 62
     0
100
AcDbLine
 10
173.6837003789168
 20
100.1445951355159
 30
0.0
 11
175.2837003789168
 21
101.7445951355158
 31
0.0
  0
LINE
  5
EFF
330
E6D
100
AcDbEntity
  8
0
 62
     0
100
AcDbLine
 10
173.6837003789168
 20
97.31616801076969
 30
0.0
 11
175.2837003789168
 21
98.91616801076969
 31
0.0
  0
LINE
  5
F00
330
E6D
100
AcDbEntity
  8
0
 62
     0
100
AcDbLine
 10
173.6837003789168
 20
94.4877408860235
 30
0.0
 11
175.2837003789168
 21
96.0877408860235
 31
0.0
  0
LINE
  5
F01
330
E6D
100
AcDbEntity
  8
0
 62
     0
100
AcDbLine
 10
173.6837003789168
 20
91.65931376127732
 30
0.0
 11
175.2837003789168
 21
93.2593137612773
 31
0.0
  0
LINE
  5
F02
330
E6D
100
AcDbEntity
  8
0
 62
     0
100
AcDbLine
 10
173.6837003789168
 20
88.83088663653111
 30
0.0
 11
175.2837003789168
 21
90.43088663653112
 31
0.0
  0
LINE
  5
F03
330
E6D
100
AcDbEntity
  8
0
 62
     0
100
AcDbLine
 10
173.6837003789168
 20
86.00245951178495
 30
0.0
 11
175.2837003789168
 21
87.60245951178495
 31
0.0
  0
LINE
  5
F04
330
E6D
100
AcDbEntity
  8
0
 62
     0
100
AcDbLine
 10
173.6837003789168
 20
83.17403238703876
 30
0.0
 11
175.2837003789168
 21
84.77403238703875
 31
0.0
  0
LINE
  5
F05
330
E6D
100
AcDbEntity
  8
0
 62
     0
100
AcDbLine
 10
173.6837003789168
 20
80.34560526229256
 30
0.0
 11
175.2837003789168
 21
81.94560526229256
 31
0.0
  0
LINE
  5
F06
330
E6D
100
AcDbEntity
  8
0
 62
     0
100
AcDbLine
 10
173.6837003789168
 20
77.51717813754638
 30
0.0
 11
175.2837003789168
 21
79.11717813754638
 31
0.0
  0
LINE
  5
F07
330
E6D
100
AcDbEntity
  8
0
 62
     0
100
AcDbLine
 10
173.6837003789168
 20
74.68875101280019
 30
0.0
 11
175.2837003789168
 21
76.28875101280018
 31
0.0
  0
LINE
  5
F08
330
E6D
100
AcDbEntity
  8
0
 62
     0
100
AcDbLine
 10
173.6837003789168
 20
71.86032388805401
 30
0.0
 11
175.2837003789168
 21
73.46032388805399
 31
0.0
  0
LINE
  5
F09
330
E6D
100
AcDbEntity
  8
0
 62
     0
100
AcDbLine
 10
173.6837003789168
 20
69.03189676330782
 30
0.0
 11
175.2837003789168
 21
70.63189676330781
 31
0.0
  0
LINE
  5
F0A
330
E6D
100
AcDbEntity
  8
0
 62
     0
100
AcDbLine
 10
173.6837003789168
 20
66.20346963856163
 30
0.0
 11
175.2837003789168
 21
67.8034696385616
 31
0.0
  0
LINE
  5
F0B
330
E6D
100
AcDbEntity
  8
0
 62
     0
100
AcDbLine
 10
173.6837003789168
 20
63.37504251381544
 30
0.0
 11
175.2837003789168
 21
64.97504251381542
 31
0.0
  0
LINE
  5
F0C
330
E6D
100
AcDbEntity
  8
0
 62
     0
100
AcDbLine
 10
173.6837003789168
 20
60.54661538906926
 30
0.0
 11
175.2837003789168
 21
62.14661538906923
 31
0.0
  0
LINE
  5
F0D
330
E6D
100
AcDbEntity
  8
0
 62
     0
100
AcDbLine
 10
173.6837003789168
 20
57.71818826432308
 30
0.0
 11
175.2837003789168
 21
59.31818826432305
 31
0.0
  0
LINE
  5
F0E
330
E6D
100
AcDbEntity
  8
0
 62
     0
100
AcDbLine
 10
173.6837003789168
 20
54.88976113957688
 30
0.0
 11
175.2837003789168
 21
56.48976113957686
 31
0.0
  0
LINE
  5
F0F
330
E6D
100
AcDbEntity
  8
0
 62
     0
100
AcDbLine
 10
173.6837003789168
 20
52.0613340148307
 30
0.0
 11
175.2837003789168
 21
53.66133401483066
 31
0.0
  0
LINE
  5
F10
330
E6D
100
AcDbEntity
  8
0
 62
     0
100
AcDbLine
 10
173.6837003789168
 20
49.2329068900845
 30
0.0
 11
175.2837003789168
 21
50.83290689008448
 31
0.0
  0
LINE
  5
F11
330
E6D
100
AcDbEntity
  8
0
 62
     0
100
AcDbLine
 10
173.4520765613008
 20
46.17285594772231
 30
0.0
 11
175.2121771495033
 21
47.93295653592472
 31
0.0
  0
LINE
  5
F12
330
E6D
100
AcDbEntity
  8
0
 62
     0
100
AcDbLine
 10
173.1808960300203
 20
43.07324829169561
 30
0.0
 11
174.9409966182227
 21
44.83334887989803
 31
0.0
  0
LINE
  5
F13
330
E6D
100
AcDbEntity
  8
0
 62
     0
100
AcDbLine
 10
173.7564031607079
 20
40.82032829763699
 30
0.0
 11
174.6698160869422
 21
41.73374122387134
 31
0.0
  0
ENDBLK
  5
F14
330
E6D
100
AcDbEntity
  8
0
100
AcDbBlockEnd
  0
BLOCK
  5
113A
330
112F
100
AcDbEntity
  8
0
100
AcDbBlockBegin
  2
*D8
 70
     1
 10
0.0
 20
0.0
 30
0.0
  3
*D8
  1

  0
LINE
  5
1590
330
112F
100
AcDbEntity
  8
BEM
 62
     0
370
    -2
100
AcDbLine
 10
37.3717217049861
 20
252.1118419795493
 30
0.0
 11
37.3717217049861
 21
234.1314643769478
 31
0.0
  0
LINE
  5
1591
330
112F
100
AcDbEntity
  8
BEM
 62
     0
370
    -2
100
AcDbLine
 10
220.3717217049862
 20
252.1118419795493
 30
0.0
 11
220.3717217049862
 21
234.1314643769478
 31
0.0
  0
LINE
  5
1592
330
112F
100
AcDbEntity
  8
BEM
 62
     0
370
    -2
100
AcDbLine
 10
40.8717217049861
 20
235.1314643769478
 30
0.0
 11
216.8717217049862
 21
235.1314643769478
 31
0.0
  0
SOLID
  5
1593
330
112F
100
AcDbEntity
  8
BEM
 62
     0
100
AcDbTrace
 10
40.8717217049861
 20
235.7147977102811
 30
0.0
 11
40.8717217049861
 21
234.5481310436145
 31
0.0
 12
37.3717217049861
 22
235.1314643769478
 32
0.0
 13
37.3717217049861
 23
235.1314643769478
 33
0.0
  0
SOLID
  5
1594
330
112F
100
AcDbEntity
  8
BEM
 62
     0
100
AcDbTrace
 10
216.8717217049862
 20
235.7147977102811
 30
0.0
 11
216.8717217049862
 21
234.5481310436145
 31
0.0
 12
220.3717217049862
 22
235.1314643769478
 32
0.0
 13
220.3717217049862
 23
235.1314643769478
 33
0.0
  0
MTEXT
  5
1595
330
112F
100
AcDbEntity
  8
BEM
 62
     1
100
AcDbMText
 10
128.8717217049861
 20
238.3814643769478
 30
0.0
 40
3.5
 41
0.0
 71
     5
 72
     1
  1
\A1;%%c183
  7
GREEKS
 73
     1
 44
1.0
  0
POINT
  5
1596
330
112F
100
AcDbEntity
  8
Defpoints
 62
     0
100
AcDbPoint
 10
37.3717217049861
 20
253.1118419795492
 30
0.0
  0
POINT
  5
1597
330
112F
100
AcDbEntity
  8
Defpoints
 62
     0
100
AcDbPoint
 10
220.3717217049862
 20
253.1118419795492
 30
0.0
  0
POINT
  5
1598
330
112F
100
AcDbEntity
  8
Defpoints
 62
     0
100
AcDbPoint
 10
220.3717217049862
 20
235.1314643769478
 30
0.0
  0
ENDBLK
  5
113B
330
112F
100
AcDbEntity
  8
0
100
AcDbBlockEnd
  0
BLOCK
  5
1154
330
1149
100
AcDbEntity
  8
0
100
AcDbBlockBegin
  2
*D10
 70
     1
 10
0.0
 20
0.0
 30
0.0
  3
*D10
  1

  0
LINE
  5
1544
330
1149
100
AcDbEntity
  8
BEM
 62
     0
370
    -2
100
AcDbLine
 10
36.3717217049861
 20
255.1118419795491
 30
0.0
 11
33.22390571393032
 21
255.1118419795491
 31
0.0
  0
LINE
  5
1545
330
1149
100
AcDbEntity
  8
BEM
 62
     0
370
    -2
100
AcDbLine
 10
36.3717217049861
 20
253.1118419795492
 30
0.0
 11
33.22390571393032
 21
253.1118419795492
 31
0.0
  0
LINE
  5
1546
330
1149
100
AcDbEntity
  8
BEM
 62
     0
370
    -2
100
AcDbLine
 10
34.22390571393032
 20
258.6118419795491
 30
0.0
 11
34.22390571393032
 21
262.1118419795491
 31
0.0
  0
LINE
  5
1547
330
1149
100
AcDbEntity
  8
BEM
 62
     0
370
    -2
100
AcDbLine
 10
34.22390571393032
 20
249.6118419795493
 30
0.0
 11
34.22390571393032
 21
241.2451753128826
 31
0.0
  0
LINE
  5
1548
330
1149
100
AcDbEntity
  8
BEM
 62
     0
370
    -2
100
AcDbLine
 10
34.22390571393032
 20
255.1118419795491
 30
0.0
 11
34.22390571393032
 21
253.1118419795492
 31
0.0
  0
SOLID
  5
1549
330
1149
100
AcDbEntity
  8
BEM
 62
     0
100
AcDbTrace
 10
33.64057238059699
 20
258.6118419795491
 30
0.0
 11
34.80723904726366
 21
258.6118419795491
 31
0.0
 12
34.22390571393032
 22
255.1118419795491
 32
0.0
 13
34.22390571393032
 23
255.1118419795491
 33
0.0
  0
SOLID
  5
154A
330
1149
100
AcDbEntity
  8
BEM
 62
     0
100
AcDbTrace
 10
33.64057238059699
 20
249.6118419795493
 30
0.0
 11
34.80723904726366
 21
249.6118419795493
 31
0.0
 12
34.22390571393032
 22
253.1118419795492
 32
0.0
 13
34.22390571393032
 23
253.1118419795492
 33
0.0
  0
MTEXT
  5
154B
330
1149
100
AcDbEntity
  8
BEM
 62
     1
100
AcDbMText
 10
30.97390571393028
 20
243.6785086462159
 30
0.0
 40
3.5
 41
0.0
 71
     5
 72
     1
  1
\A1;2
  7
GREEKS
 11
0.0000000000000001
 21
1.0
 31
0.0
 73
     1
 44
1.0
  0
POINT
  5
154C
330
1149
100
AcDbEntity
  8
Defpoints
 62
     0
100
AcDbPoint
 10
37.3717217049861
 20
255.1118419795491
 30
0.0
  0
POINT
  5
154D
330
1149
100
AcDbEntity
  8
Defpoints
 62
     0
100
AcDbPoint
 10
37.3717217049861
 20
253.1118419795492
 30
0.0
  0
POINT
  5
154E
330
1149
100
AcDbEntity
  8
Defpoints
 62
     0
100
AcDbPoint
 10
34.22390571393032
 20
253.1118419795492
 30
0.0
  0
ENDBLK
  5
1155
330
1149
100
AcDbEntity
  8
0
100
AcDbBlockEnd
  0
BLOCK
  5
117B
330
1170
100
AcDbEntity
  8
0
100
AcDbBlockBegin
  2
*D13
 70
     1
 10
0.0
 20
0.0
 30
0.0
  3
*D13
  1

  0
LINE
  5
1325
330
1170
100
AcDbEntity
  8
BEM
 62
     0
370
    -2
100
AcDbLine
 10
92.3717217049861
 20
52.04198447089567
 30
0.0
 11
92.3717217049861
 21
30.47311472538132
 31
0.0
  0
LINE
  5
1326
330
1170
100
AcDbEntity
  8
BEM
 62
     0
370
    -2
100
AcDbLine
 10
165.3717217049861
 20
52.04198447089567
 30
0.0
 11
165.3717217049861
 21
30.47311472538132
 31
0.0
  0
LINE
  5
1327
330
1170
100
AcDbEntity
  8
BEM
 62
     0
370
    -2
100
AcDbLine
 10
95.87172170498609
 20
31.47311472538132
 30
0.0
 11
161.8717217049861
 21
31.47311472538132
 31
0.0
  0
SOLID
  5
1328
330
1170
100
AcDbEntity
  8
BEM
 62
     0
100
AcDbTrace
 10
95.87172170498609
 20
32.05644805871466
 30
0.0
 11
95.87172170498609
 21
30.88978139204799
 31
0.0
 12
92.3717217049861
 22
31.47311472538132
 32
0.0
 13
92.3717217049861
 23
31.47311472538132
 33
0.0
  0
SOLID
  5
1329
330
1170
100
AcDbEntity
  8
BEM
 62
     0
100
AcDbTrace
 10
161.8717217049861
 20
32.05644805871466
 30
0.0
 11
161.8717217049861
 21
30.88978139204799
 31
0.0
 12
165.3717217049861
 22
31.47311472538132
 32
0.0
 13
165.3717217049861
 23
31.47311472538132
 33
0.0
  0
MTEXT
  5
132A
330
1170
100
AcDbEntity
  8
BEM
 62
     1
100
AcDbMText
 10
128.8717217049861
 20
34.72311472538132
 30
0.0
 40
3.5
 41
0.0
 71
     5
 72
     1
  1
\A1;%%c73
  7
GREEKS
 73
     1
 44
1.0
  0
POINT
  5
132B
330
1170
100
AcDbEntity
  8
Defpoints
 62
     0
100
AcDbPoint
 10
92.3717217049861
 20
53.04198447089567
 30
0.0
  0
POINT
  5
132C
330
1170
100
AcDbEntity
  8
Defpoints
 62
     0
100
AcDbPoint
 10
165.3717217049861
 20
53.04198447089567
 30
0.0
  0
POINT
  5
132D
330
1170
100
AcDbEntity
  8
Defpoints
 62
     0
100
AcDbPoint
 10
165.3717217049861
 20
31.47311472538132
 30
0.0
  0
ENDBLK
  5
117C
330
1170
100
AcDbEntity
  8
0
100
AcDbBlockEnd
  0
BLOCK
  5
1188
330
117D
100
AcDbEntity
  8
0
100
AcDbBlockBegin
  2
*D14
 70
     1
 10
0.0
 20
0.0
 30
0.0
  3
*D14
  1

  0
LINE
  5
1517
330
117D
100
AcDbEntity
  8
BEM
 62
     0
370
    -2
100
AcDbLine
 10
36.3717217049861
 20
255.1118419795491
 30
0.0
 11
25.34339186696416
 21
255.1118419795491
 31
0.0
  0
LINE
  5
1518
330
117D
100
AcDbEntity
  8
BEM
 62
     0
370
    -2
100
AcDbLine
 10
92.06551927312416
 20
45.11184197954918
 30
0.0
 11
25.34339186696411
 21
45.1118419795492
 31
0.0
  0
LINE
  5
1519
330
117D
100
AcDbEntity
  8
BEM
 62
     0
370
    -2
100
AcDbLine
 10
26.34339186696416
 20
251.6118419795491
 30
0.0
 11
26.34339186696411
 21
48.6118419795492
 31
0.0
  0
SOLID
  5
151A
330
117D
100
AcDbEntity
  8
BEM
 62
     0
100
AcDbTrace
 10
25.76005853363083
 20
251.6118419795491
 30
0.0
 11
26.92672520029749
 21
251.6118419795491
 31
0.0
 12
26.34339186696416
 22
255.1118419795491
 32
0.0
 13
26.34339186696416
 23
255.1118419795491
 33
0.0
  0
SOLID
  5
151B
330
117D
100
AcDbEntity
  8
BEM
 62
     0
100
AcDbTrace
 10
25.76005853363078
 20
48.6118419795492
 30
0.0
 11
26.92672520029744
 21
48.6118419795492
 31
0.0
 12
26.34339186696411
 22
45.1118419795492
 32
0.0
 13
26.34339186696411
 23
45.1118419795492
 33
0.0
  0
MTEXT
  5
151C
330
117D
100
AcDbEntity
  8
BEM
 62
     1
100
AcDbMText
 10
23.09339186696411
 20
150.1118419795492
 30
0.0
 40
3.5
 41
0.0
 71
     5
 72
     1
  1
\A1;252
  7
GREEKS
 11
0.0000000000000001
 21
1.0
 31
0.0
 73
     1
 44
1.0
  0
POINT
  5
151D
330
117D
100
AcDbEntity
  8
Defpoints
 62
     0
100
AcDbPoint
 10
37.3717217049861
 20
255.1118419795491
 30
0.0
  0
POINT
  5
151E
330
117D
100
AcDbEntity
  8
Defpoints
 62
     0
100
AcDbPoint
 10
93.06551927312415
 20
45.11184197954918
 30
0.0
  0
POINT
  5
151F
330
117D
100
AcDbEntity
  8
Defpoints
 62
     0
100
AcDbPoint
 10
26.34339186696411
 20
45.1118419795492
 30
0.0
  0
ENDBLK
  5
1189
330
117D
100
AcDbEntity
  8
0
100
AcDbBlockEnd
  0
BLOCK
  5
11BC
330
11B1
100
AcDbEntity
  8
0
100
AcDbBlockBegin
  2
*D17
 70
     1
 10
0.0
 20
0.0
 30
0.0
  3
*D17
  1

  0
LINE
  5
1599
330
11B1
100
AcDbEntity
  8
BEM
 62
     0
370
    -2
100
AcDbLine
 10
88.10632437671079
 20
405.1118419795491
 30
0.0
 11
17.21884303813433
 21
405.1118419795491
 31
0.0
  0
LINE
  5
159A
330
11B1
100
AcDbEntity
  8
BEM
 62
     0
370
    -2
100
AcDbLine
 10
92.06551927312416
 20
45.11184197954918
 30
0.0
 11
17.21884303813425
 21
45.1118419795492
 31
0.0
  0
LINE
  5
159B
330
11B1
100
AcDbEntity
  8
BEM
 62
     0
370
    -2
100
AcDbLine
 10
18.21884303813433
 20
401.6118419795492
 30
0.0
 11
18.21884303813425
 21
48.6118419795492
 31
0.0
  0
SOLID
  5
159C
330
11B1
100
AcDbEntity
  8
BEM
 62
     0
100
AcDbTrace
 10
17.635509704801
 20
401.6118419795492
 30
0.0
 11
18.80217637146766
 21
401.6118419795492
 31
0.0
 12
18.21884303813433
 22
405.1118419795491
 32
0.0
 13
18.21884303813433
 23
405.1118419795491
 33
0.0
  0
SOLID
  5
159D
330
11B1
100
AcDbEntity
  8
BEM
 62
     0
100
AcDbTrace
 10
17.63550970480092
 20
48.6118419795492
 30
0.0
 11
18.80217637146758
 21
48.6118419795492
 31
0.0
 12
18.21884303813425
 22
45.1118419795492
 32
0.0
 13
18.21884303813425
 23
45.1118419795492
 33
0.0
  0
MTEXT
  5
159E
330
11B1
100
AcDbEntity
  8
BEM
 62
     1
100
AcDbMText
 10
14.96884303813425
 20
225.1118419795492
 30
0.0
 40
3.5
 41
0.0
 71
     5
 72
     1
  1
\A1;402
  7
GREEKS
 11
0.0000000000000001
 21
1.0
 31
0.0
 73
     1
 44
1.0
  0
POINT
  5
159F
330
11B1
100
AcDbEntity
  8
Defpoints
 62
     0
100
AcDbPoint
 10
89.10632437671081
 20
405.1118419795491
 30
0.0
  0
POINT
  5
15A0
330
11B1
100
AcDbEntity
  8
Defpoints
 62
     0
100
AcDbPoint
 10
93.06551927312415
 20
45.11184197954918
 30
0.0
  0
POINT
  5
15A1
330
11B1
100
AcDbEntity
  8
Defpoints
 62
     0
100
AcDbPoint
 10
18.21884303813425
 20
45.1118419795492
 30
0.0
  0
ENDBLK
  5
11BD
330
11B1
100
AcDbEntity
  8
0
100
AcDbBlockEnd
  0
ENDSEC
  0
SECTION
  2
ENTITIES
  0
LINE
  5
57
330
1E
100
AcDbEntity
  8
STEMPEL
100
AcDbLine
 10
241.9999999999999
 20
415.0
 30
0.0
 11
241.9999999999999
 21
235.0
 31
0.0
  0
LINE
  5
58
330
1E
100
AcDbEntity
  8
STEMPEL
100
AcDbLine
 10
241.9999999999999
 20
283.0000000000001
 30
0.0
 11
291.9999999999999
 21
283.0
 31
0.0
  0
LINE
  5
59
330
1E
100
AcDbEntity
  8
STEMPEL
100
AcDbLine
 10
241.9999999999999
 20
325.0
 30
0.0
 11
291.9999999999999
 21
325.0
 31
0.0
  0
LINE
  5
5A
330
1E
100
AcDbEntity
  8
STEMPEL
100
AcDbLine
 10
242.0
 20
376.0
 30
0.0
 11
276.9999999999999
 21
376.0
 31
0.0
  0
LINE
  5
5B
330
1E
100
AcDbEntity
  8
STEMPEL
100
AcDbLine
 10
281.9999999999999
 20
283.0
 30
0.0
 11
281.9999999999999
 21
235.0
 31
0.0
  0
LINE
  5
5C
330
1E
100
AcDbEntity
  8
STEMPEL
100
AcDbLine
 10
276.9999999999999
 20
415.0
 30
0.0
 11
277.0
 21
283.0000000000001
 31
0.0
  0
LINE
  5
5D
330
1E
100
AcDbEntity
  8
STEMPEL
100
AcDbLine
 10
256.9999999999999
 20
415.0
 30
0.0
 11
256.9999999999999
 21
283.0000000000001
 31
0.0
  0
LINE
  5
5E
330
1E
100
AcDbEntity
  8
VOLL
100
AcDbLine
 10
241.9999999999999
 20
242.0000000000001
 30
0.0
 11
291.9999999999999
 21
242.0
 31
0.0
  0
LINE
  5
5F
330
1E
100
AcDbEntity
  8
VOLL
100
AcDbLine
 10
241.9999999999999
 20
262.0000000000001
 30
0.0
 11
291.9999999999999
 21
262.0
 31
0.0
  0
LINE
  5
60
330
1E
100
AcDbEntity
  8
VOLL
100
AcDbLine
 10
241.9999999999999
 20
272.0000000000001
 30
0.0
 11
291.9999999999999
 21
272.0
 31
0.0
  0
LINE
  5
61
330
1E
100
AcDbEntity
  8
VOLL
100
AcDbLine
 10
256.9999999999999
 20
292.0000000000001
 30
0.0
 11
277.0
 21
292.0000000000001
 31
0.0
  0
LINE
  5
62
330
1E
100
AcDbEntity
  8
VOLL
100
AcDbLine
 10
242.0
 20
305.0000000000001
 30
0.0
 11
277.0
 21
305.0
 31
0.0
  0
LINE
  5
63
330
1E
100
AcDbEntity
  8
HILF
100
AcDbLine
 10
246.9999999999999
 20
235.0000000000001
 30
0.0
 11
246.9999999999999
 21
283.0000000000001
 31
0.0
  0
LINE
  5
64
330
1E
100
AcDbEntity
  8
HILF
100
AcDbLine
 10
251.9999999999999
 20
235.0000000000001
 30
0.0
 11
251.9999999999999
 21
283.0000000000001
 31
0.0
  0
LINE
  5
65
330
1E
100
AcDbEntity
  8
HILF
100
AcDbLine
 10
256.9999999999999
 20
235.0000000000001
 30
0.0
 11
256.9999999999999
 21
283.0000000000001
 31
0.0
  0
LINE
  5
66
330
1E
100
AcDbEntity
  8
HILF
100
AcDbLine
 10
262.0
 20
235.0000000000001
 30
0.0
 11
262.0
 21
283.0000000000001
 31
0.0
  0
LINE
  5
67
330
1E
100
AcDbEntity
  8
HILF
100
AcDbLine
 10
266.9999999999999
 20
235.0000000000001
 30
0.0
 11
266.9999999999999
 21
283.0000000000001
 31
0.0
  0
LINE
  5
68
330
1E
100
AcDbEntity
  8
HILF
100
AcDbLine
 10
271.9999999999999
 20
235.0000000000001
 30
0.0
 11
271.9999999999999
 21
283.0000000000001
 31
0.0
  0
LINE
  5
69
330
1E
100
AcDbEntity
  8
HILF
100
AcDbLine
 10
276.9999999999999
 20
235.0000000000001
 30
0.0
 11
277.0
 21
283.0000000000001
 31
0.0
  0
LINE
  5
6A
330
1E
100
AcDbEntity
  8
HILF
100
AcDbLine
 10
262.0
 20
283.0000000000001
 30
0.0
 11
262.0
 21
325.0
 31
0.0
  0
LINE
  5
6B
330
1E
100
AcDbEntity
  8
HILF
100
AcDbLine
 10
266.9999999999999
 20
283.0000000000001
 30
0.0
 11
266.9999999999999
 21
325.0
 31
0.0
  0
LINE
  5
6C
330
1E
100
AcDbEntity
  8
HILF
100
AcDbLine
 10
271.9999999999999
 20
283.0000000000001
 30
0.0
 11
271.9999999999999
 21
325.0
 31
0.0
  0
LINE
  5
6D
330
1E
100
AcDbEntity
  8
HILF
100
AcDbLine
 10
254.9812087621792
 20
327.3868400548474
 30
0.0
 11
254.9812087621792
 21
372.4176958278156
 31
0.0
  0
LINE
  5
6E
330
1E
100
AcDbEntity
  8
HILF
100
AcDbLine
 10
262.0
 20
327.3868400548474
 30
0.0
 11
262.0
 21
372.4176958278156
 31
0.0
  0
LINE
  5
6F
330
1E
100
AcDbEntity
  8
HILF
100
AcDbLine
 10
266.9999999999999
 20
327.3868400548474
 30
0.0
 11
266.9999999999999
 21
372.4176958278156
 31
0.0
  0
LINE
  5
70
330
1E
100
AcDbEntity
  8
HILF
100
AcDbLine
 10
271.9999999999999
 20
327.3868400548474
 30
0.0
 11
271.9999999999999
 21
372.4176958278156
 31
0.0
  0
LINE
  5
71
330
1E
100
AcDbEntity
  8
VOLL
100
AcDbLine
 10
266.9999999999999
 20
376.0
 30
0.0
 11
266.9999999999999
 21
415.0
 31
0.0
  0
LINE
  5
72
330
1E
100
AcDbEntity
  8
HILF
100
AcDbLine
 10
255.1100818152208
 20
378.3619308148498
 30
0.0
 11
255.1100818152208
 21
412.4294419663365
 31
0.0
  0
LINE
  5
73
330
1E
100
AcDbEntity
  8
HILF
100
AcDbLine
 10
289.5530087098583
 20
326.7454849644944
 30
0.0
 11
289.5530087098583
 21
412.4294419663365
 31
0.0
  0
TEXT
  5
74
330
1E
100
AcDbEntity
  8
TEXT
100
AcDbText
 10
287.6630905250792
 20
246.3913034923988
 30
0.0
 40
2.0
  1
Änderung
 50
90.0
 41
0.8
  7
GREEKS
 72
     1
 11
287.6630905250792
 21
251.7627320638273
 31
0.0
100
AcDbText
  0
TEXT
  5
75
330
1E
100
AcDbEntity
  8
TEXT
100
AcDbText
 10
245.7689552456454
 20
286.7581786075188
 30
0.0
 40
2.5
  1
Maßstab
 50
90.0
 41
0.8
  7
GREEKS
100
AcDbText
  0
TEXT
  5
76
330
1E
100
AcDbEntity
  8
TEXT
100
AcDbText
 10
245.7907915782589
 20
307.1429477367026
 30
0.0
 40
2.5
  1
Zul. Abw.
 50
90.0
 41
0.8
  7
GREEKS
100
AcDbText
  0
TEXT
  5
77
330
1E
100
AcDbEntity
  8
TEXT
100
AcDbText
 10
245.7255335994109
 20
327.4389701904506
 30
0.0
 40
2.5
  1
Benennung
 50
90.0
 41
0.8
  7
GREEKS
100
AcDbText
  0
TEXT
  5
78
330
1E
100
AcDbEntity
  8
TEXT
100
AcDbText
 10
245.8433982731431
 20
378.0893774788172
 30
0.0
 40
2.5
  1
Zeichnungs Nr.
 50
90.0
 41
0.8
  7
GREEKS
100
AcDbText
  0
TEXT
  5
79
330
1E
100
AcDbEntity
  8
TEXT
100
AcDbText
 10
281.5771971490346
 20
327.3711191955681
 30
0.0
 40
2.5
  1
Bauvorhaben
 50
90.0
 41
0.8
  7
GREEKS
100
AcDbText
  0
TEXT
  5
7A
330
1E
100
AcDbEntity
  8
TEXT
100
AcDbText
 10
260.4094088145
 20
378.3619308148498
 30
0.0
 40
2.5
  1
Ersatz für:
 50
90.0
 41
0.8
  7
GREEKS
100
AcDbText
  0
TEXT
  5
7B
330
1E
100
AcDbEntity
  8
TEXT
100
AcDbText
 10
290.1726707698639
 20
239.1332055352289
 30
0.0
 40
2.0
  1
Index
 50
180.0
 41
0.8
  7
GREEKS
100
AcDbText
  0
TEXT
  5
7C
330
1E
100
AcDbEntity
  8
TEXT
100
AcDbText
 10
287.6642186533008
 20
265.0285901630529
 30
0.0
 40
2.0
  1
Tag
 50
90.0
 41
0.8
  7
GREEKS
 72
     1
 11
287.6642186533008
 21
266.8952568297195
 31
0.0
100
AcDbText
  0
TEXT
  5
7D
330
1E
100
AcDbEntity
  8
TEXT
100
AcDbText
 10
287.7033789151678
 20
274.3307283593773
 30
0.0
 40
2.0
  1
Name
 50
90.0
 41
0.8
  7
GREEKS
 72
     1
 11
287.7033789151678
 21
277.4926331212821
 31
0.0
100
AcDbText
  0
TEXT
  5
7E
330
1E
100
AcDbEntity
  8
TEXT
100
AcDbText
 10
260.3405974938503
 20
296.1655836576826
 30
0.0
 40
2.0
  1
Tag
 50
90.0
 41
0.8
  7
GREEKS
100
AcDbText
  0
TEXT
  5
7F
330
1E
100
AcDbEntity
  8
TEXT
100
AcDbText
 10
260.3451945404238
 20
311.2313292113148
 30
0.0
 40
2.0
  1
Name
 50
90.0
 41
0.8
  7
GREEKS
100
AcDbText
  0
TEXT
  5
80
330
1E
100
AcDbEntity
  8
TEXT
100
AcDbText
 10
265.1850481519101
 20
283.7918063583809
 30
0.0
 40
2.0
  1
Gez.
 50
90.0
 41
0.8
  7
GREEKS
100
AcDbText
  0
TEXT
  5
81
330
1E
100
AcDbEntity
  8
TEXT
100
AcDbText
 10
270.155368542858
 20
283.7757543285836
 30
0.0
 40
2.0
  1
Gepr.
 50
90.0
 41
0.8
  7
GREEKS
100
AcDbText
  0
TEXT
  5
82
330
1E
100
AcDbEntity
  8
TEXT
100
AcDbText
 10
275.2352680517508
 20
283.8003388693653
 30
0.0
 40
2.0
  1
Norm.
 50
90.0
 41
0.8
  7
GREEKS
100
AcDbText
  0
LINE
  5
83
330
1E
100
AcDbEntity
  8
STEMPEL
100
AcDbLine
 10
291.9999999999999
 20
240.0
 30
0.0
 11
291.9999999999999
 21
415.0
 31
0.0
  0
TEXT
  5
84
330
1E
100
AcDbEntity
  8
TEXT
100
AcDbText
 10
270.9629191106069
 20
378.6200430748504
 30
0.0
 40
2.5
  1
ersetzt durch:
 50
90.0
 41
0.8
  7
GREEKS
100
AcDbText
  0
LINE
  5
85
330
1E
100
AcDbEntity
  8
STEMPEL
100
AcDbLine
 10
291.9999999999999
 20
415.0
 30
0.0
 11
291.9999999999999
 21
20.00000000000006
 31
0.0
  0
LINE
  5
86
330
1E
100
AcDbEntity
  8
STEMPEL
100
AcDbLine
 10
291.9999999999999
 20
415.0
 30
0.0
 11
4.999999999999886
 21
415.0
 31
0.0
  0
LINE
  5
87
330
1E
100
AcDbEntity
  8
STEMPEL
100
AcDbLine
 10
291.9999999999999
 20
235.0
 30
0.0
 11
241.9999999999999
 21
235.0
 31
0.0
  0
LINE
  5
88
330
1E
100
AcDbEntity
  8
STEMPEL
100
AcDbLine
 10
4.999999999999886
 20
415.0
 30
0.0
 11
4.999999999999886
 21
20.0
 31
0.0
  0
LINE
  5
89
330
1E
100
AcDbEntity
  8
HILF
100
AcDbLine
 10
-0.0000000000002274
 20
420.0
 30
0.0
 11
0.0
 21
0.0
 31
0.0
  0
LINE
  5
8A
330
1E
100
AcDbEntity
  8
HILF
100
AcDbLine
 10
296.9999999999999
 20
420.0
 30
0.0
 11
296.9999999999999
 21
0.0000000000000568
 31
0.0
  0
LINE
  5
8B
330
1E
100
AcDbEntity
  8
HILF
100
AcDbLine
 10
148.4999999999999
 20
15.54383567856928
 30
0.0
 11
148.4999999999999
 21
0.0000000000001137
 31
0.0
  0
TEXT
  5
8C
330
1E
100
AcDbEntity
  8
TEXT
100
AcDbText
 10
260.4298726442415
 20
284.311054911052
 30
0.0
 40
2.0
  1
2012
 50
90.0
 41
0.8
  7
GREEKS
100
AcDbText
  0
LINE
  5
8D
330
1E
100
AcDbEntity
  8
HILF
100
AcDbLine
 10
296.9999999999999
 20
420.0
 30
0.0
 11
-0.0000000000001137
 21
420.0
 31
0.0
  0
TEXT
  5
8E
330
1E
100
AcDbEntity
  8
VOLL
100
AcDbText
 10
78.07675471698113
 20
31.02594776470585
 30
0.0
 40
1.8
  1

  7
GREEKS
100
AcDbText
  0
TEXT
  5
8F
330
1E
100
AcDbEntity
  8
TEXT
100
AcDbText
 10
241.1639999999999
 20
235.9275497548884
 30
0.0
 40
2.5
  1
Erstellt mit AUTOCAD 2004
 50
90.0
 41
0.8
  7
GREEKS
100
AcDbText
  0
TEXT
  5
90
330
1E
100
AcDbEntity
  8
TEXT
100
AcDbText
 10
265.4551804013824
 20
312.210802429063
 30
0.0
 40
2.0
  1
Koeh
 50
90.0
 41
0.8
  7
GREEKS
 72
     1
 11
265.4551804013824
 21
314.8393738576344
 31
0.0
100
AcDbText
  0
TEXT
  5
91
330
1E
100
AcDbEntity
  8
TEXT
 62
     1
100
AcDbText
 10
252.9254928554301
 20
384.0576469745563
 30
0.0
 40
3.5
  1
16716070W
 50
90.0
 41
0.8
  7
GREEKS
 72
     1
 11
252.9254928554301
 21
395.524313641223
 31
0.0
100
AcDbText
  0
TEXT
  5
92
330
1E
100
AcDbEntity
  8
TEXT
 62
     1
100
AcDbText
 10
252.9254928554301
 20
290.2503153240943
 30
0.0
 40
3.5
  1
1:1
 50
90.0
 41
0.8
  7
GREEKS
100
AcDbText
  0
TEXT
  5
93
330
1E
100
AcDbEntity
  8
TEXT
100
AcDbText
 10
265.4461747958712
 20
295.1994985541182
 30
0.0
 40
2.0
  1
08.03.
 50
90.0
 41
0.8
  7
GREEKS
 72
     1
 11
265.4461747958712
 21
298.7042604588801
 31
0.0
100
AcDbText
  0
TEXT
  5
94
330
1E
100
AcDbEntity
  8
TEXT
 62
     1
100
AcDbText
 10
253.291256053731
 20
328.4467865528702
 30
0.0
 40
3.5
  1
Ablaufkörper DN70
 50
90.0
 41
0.8
  7
GREEKS
100
AcDbText
  0
TEXT
  5
97
330
1E
100
AcDbEntity
  8
TEXT
100
AcDbText
 10
271.1799402847891
 20
327.5648195562658
 30
0.0
 40
2.5
  1
EDV-Art.Nr. 16716.070X
 50
90.0
 41
0.8
  7
GREEKS
100
AcDbText
  0
TEXT
  5
98
330
1E
100
AcDbEntity
  8
TEXT
100
AcDbText
 10
275.6851292348867
 20
327.4918750788913
 30
0.0
 40
2.0
  1
16716070W.DWG
 50
90.0
 41
0.8
  7
GREEKS
100
AcDbText
  0
INSERT
  5
9A
330
1E
100
AcDbEntity
  8
STEMPEL
100
AcDbBlockReference
  2
LOGO
 10
274.4894736177583
 20
285.4977742728897
 30
0.0
 50
90.0
  0
LINE
  5
9C
330
1E
100
AcDbEntity
  8
HILF
100
AcDbLine
 10
296.9999999999999
 20
0.0000000000000568
 30
0.0
 11
0.0
 21
0.0
 31
0.0
  0
LINE
  5
9D
330
1E
100
AcDbEntity
  8
STEMPEL
100
AcDbLine
 10
291.9999999999999
 20
20.00000000000006
 30
0.0
 11
4.999999999999886
 21
20.0
 31
0.0
  0
LINE
  5
9E
330
1E
100
AcDbEntity
  8
HILF
 62
     7
100
AcDbLine
 10
297.0
 20
230.0
 30
0.0
 11
291.9999999999999
 21
230.0
 31
0.0
  0
LINE
  5
9F
330
1E
100
AcDbEntity
  8
HILF
 62
     7
100
AcDbLine
 10
4.999999999999886
 20
230.0
 30
0.0
 11
-0.0000000000000568
 21
230.0
 31
0.0
  0
TEXT
  5
C07
330
1E
100
AcDbEntity
  8
BEM
100
AcDbText
 10
290.9259759233084
 20
418.2905770718718
 30
0.0
 40
2.0
  1
Diese Zeichnung ist urheberrechtlich geschützt und bleibt unser Eigentum. Sie darf weder ganz noch teilweise vervielfältigt und nicht an Dritte weitergegeben werden.
 50
180.0
 41
0.8
  7
GREEKS
100
AcDbText
  0
TEXT
  5
C12
330
1E
100
AcDbEntity
  8
TEXT
100
AcDbText
 10
253.6161746268967
 20
306.8072171053657
 30
0.0
 40
2.0
  1
DIN EN1123-2
 50
90.0
 41
0.8
  7
GREEKS
 72
     1
 11
253.6161746268967
 21
315.3024552006038
 31
0.0
100
AcDbText
  0
TEXT
  5
C1A
330
1E
100
AcDbEntity
  8
TEXT
 62
     1
100
AcDbText
 10
261.3011746391162
 20
167.8030900161968
 30
0.0
 40
3.5
  1
und innen beschichtet
 50
90.0
 41
0.8
  7
GREEKS
100
AcDbText
  0
TEXT
  5
C1B
330
1E
100
AcDbEntity
  8
TEXT
 62
     1
100
AcDbText
 10
255.9401187316145
 20
143.8282312974979
 30
0.0
 40
3.5
  1
Werkstoff: E195 EN10305 feuerverzinkt
 50
90.0
 41
0.8
  7
GREEKS
100
AcDbText
  0
TEXT
  5
C1D
330
1E
100
AcDbEntity
  8
TEXT
 62
     1
100
AcDbText
 10
124.49362364932
 20
378.1021255362369
 30
0.0
 40
3.5
  1
DN70
 50
90.0
 41
0.8
  7
GREEKS
100
AcDbText
  0
TEXT
  5
C1E
330
1E
100
AcDbEntity
  8
TEXT
 62
     1
100
AcDbText
 10
124.49362364932
 20
111.3098795001528
 30
0.0
 40
3.5
  1
DN70
 50
90.0
 41
0.8
  7
GREEKS
100
AcDbText
  0
INSERT
  5
100A
330
1E
100
AcDbEntity
  8
SCHRAFF
100
AcDbBlockReference
  2
*X4
 10
-9.911978673930661
 20
4.291513681912192
 30
0.0
1001
ACAD
1000
HATCH
1002
{
1070
    16
1000
_U,I
1040
2.0
1040
0.7853981633974483
1070
     0
1002
}
  0
LINE
  5
100B
330
1E
100
AcDbEntity
  8
STEMPEL
100
AcDbLine
 10
165.3717217049861
 20
163.8232349292439
 30
0.0
 11
165.3717217049861
 21
53.04198447089692
 31
0.0
  0
LINE
  5
100C
330
1E
100
AcDbEntity
  8
STEMPEL
100
AcDbLine
 10
163.7717217049861
 20
163.184180147993
 30
0.0
 11
163.7717217049862
 21
53.11184197955049
 31
0.0
  0
LINE
  5
100D
330
1E
100
AcDbEntity
  8
STEMPEL
100
AcDbLine
 10
92.3717217049861
 20
166.2123931587491
 30
0.0
 11
92.3717217049861
 21
53.04198447089579
 31
0.0
  0
LINE
  5
100E
330
1E
100
AcDbEntity
  8
STEMPEL
100
AcDbLine
 10
93.97172170498601
 20
166.9222250711387
 30
0.0
 11
93.97172170498601
 21
53.11184197955066
 31
0.0
  0
POLYLINE
  5
100F
330
1E
100
AcDbEntity
  8
HILF
100
AcDb2dPolyline
 66
     1
 10
0.0
 20
0.0
 30
0.0
 70
     4
 75
     6
  0
VERTEX
  5
1010
330
100F
100
AcDbEntity
  8
HILF
100
AcDbVertex
100
AcDb2dVertex
 10
92.3717217049861
 20
166.2123931587491
 30
0.0
 70
    16
  0
VERTEX
  5
1011
330
100F
100
AcDbEntity
  8
HILF
100
AcDbVertex
100
AcDb2dVertex
 10
92.3717217049861
 20
166.2123931587491
 30
0.0
 70
     8
  0
VERTEX
  5
1012
330
100F
100
AcDbEntity
  8
HILF
100
AcDbVertex
100
AcDb2dVertex
 10
95.90544854624164
 20
167.7801132097435
 30
0.0
 70
     8
  0
VERTEX
  5
1013
330
100F
100
AcDbEntity
  8
HILF
100
AcDbVertex
100
AcDb2dVertex
 10
99.21972739231751
 20
168.9308634350233
 30
0.0
 70
     8
  0
VERTEX
  5
1014
330
100F
100
AcDbEntity
  8
HILF
100
AcDbVertex
100
AcDb2dVertex
 10
102.3197496281103
 20
169.7116404274575
 30
0.0
 70
     8
  0
VERTEX
  5
1015
330
100F
100
AcDbEntity
  8
HILF
100
AcDbVertex
100
AcDb2dVertex
 10
105.2107066385165
 20
170.1694407799154
 30
0.0
 70
     8
  0
VERTEX
  5
1016
330
100F
100
AcDbEntity
  8
HILF
100
AcDbVertex
100
AcDb2dVertex
 10
107.8977898084326
 20
170.3512610852663
 30
0.0
 70
     8
  0
VERTEX
  5
1017
330
100F
100
AcDbEntity
  8
HILF
100
AcDbVertex
100
AcDb2dVertex
 10
110.3861905227552
 20
170.3040979363793
 30
0.0
 70
     8
  0
VERTEX
  5
1018
330
100F
100
AcDbEntity
  8
HILF
100
AcDbVertex
100
AcDb2dVertex
 10
112.681100166381
 20
170.0749479261237
 30
0.0
 70
     8
  0
VERTEX
  5
1019
330
100F
100
AcDbEntity
  8
HILF
100
AcDbVertex
100
AcDb2dVertex
 10
114.7877101242062
 20
169.7108076473686
 30
0.0
 70
     8
  0
VERTEX
  5
101A
330
100F
100
AcDbEntity
  8
HILF
100
AcDbVertex
100
AcDb2dVertex
 10
116.7147573620882
 20
169.2524519235963
 30
0.0
 70
     8
  0
VERTEX
  5
101B
330
100F
100
AcDbEntity
  8
HILF
100
AcDbVertex
100
AcDb2dVertex
 10
118.4851611697264
 20
168.7157685007408
 30
0.0
 70
     8
  0
VERTEX
  5
101C
330
100F
100
AcDbEntity
  8
HILF
100
AcDbVertex
100
AcDb2dVertex
 10
120.125386417781
 20
168.1104233553489
 30
0.0
 70
     8
  0
VERTEX
  5
101D
330
100F
100
AcDbEntity
  8
HILF
100
AcDbVertex
100
AcDb2dVertex
 10
121.6618979769118
 20
167.4460824639677
 30
0.0
 70
     8
  0
VERTEX
  5
101E
330
100F
100
AcDbEntity
  8
HILF
100
AcDbVertex
100
AcDb2dVertex
 10
123.1211607177792
 20
166.7324118031441
 30
0.0
 70
     8
  0
VERTEX
  5
101F
330
100F
100
AcDbEntity
  8
HILF
100
AcDbVertex
100
AcDb2dVertex
 10
124.5296395110431
 20
165.9790773494251
 30
0.0
 70
     8
  0
VERTEX
  5
1020
330
100F
100
AcDbEntity
  8
HILF
100
AcDbVertex
100
AcDb2dVertex
 10
125.9137992273637
 20
165.1957450793575
 30
0.0
 70
     8
  0
VERTEX
  5
1021
330
100F
100
AcDbEntity
  8
HILF
100
AcDbVertex
100
AcDb2dVertex
 10
127.3001047374009
 20
164.3920809694885
 30
0.0
 70
     8
  0
VERTEX
  5
1022
330
100F
100
AcDbEntity
  8
HILF
100
AcDbVertex
100
AcDb2dVertex
 10
128.711802211054
 20
163.5785842669316
 30
0.0
 70
     8
  0
VERTEX
  5
1023
330
100F
100
AcDbEntity
  8
HILF
100
AcDbVertex
100
AcDb2dVertex
 10
130.1592630151781
 20
162.7690873010676
 30
0.0
 70
     8
  0
VERTEX
  5
1024
330
100F
100
AcDbEntity
  8
HILF
100
AcDbVertex
100
AcDb2dVertex
 10
131.6496398158674
 20
161.9782556718442
 30
0.0
 70
     8
  0
VERTEX
  5
1025
330
100F
100
AcDbEntity
  8
HILF
100
AcDbVertex
100
AcDb2dVertex
 10
133.190085279216
 20
161.2207549792088
 30
0.0
 70
     8
  0
VERTEX
  5
1026
330
100F
100
AcDbEntity
  8
HILF
100
AcDbVertex
100
AcDb2dVertex
 10
134.7877520713183
 20
160.5112508231089
 30
0.0
 70
     8
  0
VERTEX
  5
1027
330
100F
100
AcDbEntity
  8
HILF
100
AcDbVertex
100
AcDb2dVertex
 10
136.4497928582684
 20
159.8644088034922
 30
0.0
 70
     8
  0
VERTEX
  5
1028
330
100F
100
AcDbEntity
  8
HILF
100
AcDbVertex
100
AcDb2dVertex
 10
138.1833603061604
 20
159.2948945203062
 30
0.0
 70
     8
  0
VERTEX
  5
1029
330
100F
100
AcDbEntity
  8
HILF
100
AcDbVertex
100
AcDb2dVertex
 10
139.9956070810888
 20
158.8173735734982
 30
0.0
 70
     8
  0
VERTEX
  5
102A
330
100F
100
AcDbEntity
  8
HILF
100
AcDbVertex
100
AcDb2dVertex
 10
141.9077236708659
 20
158.4538443693186
 30
0.0
 70
     8
  0
VERTEX
  5
102B
330
100F
100
AcDbEntity
  8
HILF
100
AcDbVertex
100
AcDb2dVertex
 10
143.9970518501786
 20
158.2556365392274
 30
0.0
 70
     8
  0
VERTEX
  5
102C
330
100F
100
AcDbEntity
  8
HILF
100
AcDbVertex
100
AcDb2dVertex
 10
146.3549712154319
 20
158.2814125209871
 30
0.0
 70
     8
  0
VERTEX
  5
102D
330
100F
100
AcDbEntity
  8
HILF
100
AcDbVertex
100
AcDb2dVertex
 10
149.0728613630308
 20
158.5898347523606
 30
0.0
 70
     8
  0
VERTEX
  5
102E
330
100F
100
AcDbEntity
  8
HILF
100
AcDbVertex
100
AcDb2dVertex
 10
152.2421018893806
 20
159.2395656711103
 30
0.0
 70
     8
  0
VERTEX
  5
102F
330
100F
100
AcDbEntity
  8
HILF
100
AcDbVertex
100
AcDb2dVertex
 10
155.9540723908864
 20
160.289267714999
 30
0.0
 70
     8
  0
VERTEX
  5
1030
330
100F
100
AcDbEntity
  8
HILF
100
AcDbVertex
100
AcDb2dVertex
 10
160.3001524639531
 20
161.7976033217893
 30
0.0
 70
     8
  0
VERTEX
  5
1031
330
100F
100
AcDbEntity
  8
HILF
100
AcDbVertex
100
AcDb2dVertex
 10
165.371721704986
 20
163.8232349292439
 30
0.0
 70
     8
  0
VERTEX
  5
1032
330
100F
100
AcDbEntity
  8
HILF
100
AcDbVertex
100
AcDb2dVertex
 10
102.0922051729262
 20
170.9907144782376
 30
0.0
 70
    16
  0
VERTEX
  5
1033
330
100F
100
AcDbEntity
  8
HILF
100
AcDbVertex
100
AcDb2dVertex
 10
116.7408653338475
 20
170.6494068540908
 30
0.0
 70
    16
  0
VERTEX
  5
1034
330
100F
100
AcDbEntity
  8
HILF
100
AcDbVertex
100
AcDb2dVertex
 10
126.9949243173818
 20
164.5058501775374
 30
0.0
 70
    16
  0
VERTEX
  5
1035
330
100F
100
AcDbEntity
  8
HILF
100
AcDbVertex
100
AcDb2dVertex
 10
139.0800658210312
 20
157.6796782526904
 30
0.0
 70
    16
  0
VERTEX
  5
1036
330
100F
100
AcDbEntity
  8
HILF
100
AcDbVertex
100
AcDb2dVertex
 10
150.7989918636944
 20
157.6796782526904
 30
0.0
 70
    16
  0
VERTEX
  5
1037
330
100F
100
AcDbEntity
  8
HILF
100
AcDbVertex
100
AcDb2dVertex
 10
165.371721704986
 20
163.8232349292439
 30
0.0
 70
    16
  0
SEQEND
  5
1038
330
100F
100
AcDbEntity
  8
HILF
  0
POLYLINE
  5
1039
330
1E
100
AcDbEntity
  8
HILF
100
AcDb2dPolyline
 66
     1
 10
0.0
 20
0.0
 30
0.0
 70
     4
 75
     6
  0
VERTEX
  5
103A
330
1039
100
AcDbEntity
  8
HILF
100
AcDbVertex
100
AcDb2dVertex
 10
92.3717217049861
 20
169.2123931587491
 30
0.0
 70
    16
  0
VERTEX
  5
103B
330
1039
100
AcDbEntity
  8
HILF
100
AcDbVertex
100
AcDb2dVertex
 10
92.3717217049861
 20
169.2123931587491
 30
0.0
 70
     8
  0
VERTEX
  5
103C
330
1039
100
AcDbEntity
  8
HILF
100
AcDbVertex
100
AcDb2dVertex
 10
95.90544854624164
 20
170.7801132097436
 30
0.0
 70
     8
  0
VERTEX
  5
103D
330
1039
100
AcDbEntity
  8
HILF
100
AcDbVertex
100
AcDb2dVertex
 10
99.21972739231751
 20
171.9308634350233
 30
0.0
 70
     8
  0
VERTEX
  5
103E
330
1039
100
AcDbEntity
  8
HILF
100
AcDbVertex
100
AcDb2dVertex
 10
102.3197496281103
 20
172.7116404274575
 30
0.0
 70
     8
  0
VERTEX
  5
103F
330
1039
100
AcDbEntity
  8
HILF
100
AcDbVertex
100
AcDb2dVertex
 10
105.2107066385165
 20
173.1694407799154
 30
0.0
 70
     8
  0
VERTEX
  5
1040
330
1039
100
AcDbEntity
  8
HILF
100
AcDbVertex
100
AcDb2dVertex
 10
107.8977898084326
 20
173.3512610852663
 30
0.0
 70
     8
  0
VERTEX
  5
1041
330
1039
100
AcDbEntity
  8
HILF
100
AcDbVertex
100
AcDb2dVertex
 10
110.3861905227552
 20
173.3040979363793
 30
0.0
 70
     8
  0
VERTEX
  5
1042
330
1039
100
AcDbEntity
  8
HILF
100
AcDbVertex
100
AcDb2dVertex
 10
112.681100166381
 20
173.0749479261237
 30
0.0
 70
     8
  0
VERTEX
  5
1043
330
1039
100
AcDbEntity
  8
HILF
100
AcDbVertex
100
AcDb2dVertex
 10
114.7877101242062
 20
172.7108076473686
 30
0.0
 70
     8
  0
VERTEX
  5
1044
330
1039
100
AcDbEntity
  8
HILF
100
AcDbVertex
100
AcDb2dVertex
 10
116.7147573620882
 20
172.2524519235963
 30
0.0
 70
     8
  0
VERTEX
  5
1045
330
1039
100
AcDbEntity
  8
HILF
100
AcDbVertex
100
AcDb2dVertex
 10
118.4851611697264
 20
171.7157685007407
 30
0.0
 70
     8
  0
VERTEX
  5
1046
330
1039
100
AcDbEntity
  8
HILF
100
AcDbVertex
100
AcDb2dVertex
 10
120.125386417781
 20
171.1104233553489
 30
0.0
 70
     8
  0
VERTEX
  5
1047
330
1039
100
AcDbEntity
  8
HILF
100
AcDbVertex
100
AcDb2dVertex
 10
121.6618979769118
 20
170.4460824639677
 30
0.0
 70
     8
  0
VERTEX
  5
1048
330
1039
100
AcDbEntity
  8
HILF
100
AcDbVertex
100
AcDb2dVertex
 10
123.1211607177792
 20
169.7324118031441
 30
0.0
 70
     8
  0
VERTEX
  5
1049
330
1039
100
AcDbEntity
  8
HILF
100
AcDbVertex
100
AcDb2dVertex
 10
124.5296395110431
 20
168.9790773494251
 30
0.0
 70
     8
  0
VERTEX
  5
104A
330
1039
100
AcDbEntity
  8
HILF
100
AcDbVertex
100
AcDb2dVertex
 10
125.9137992273637
 20
168.1957450793575
 30
0.0
 70
     8
  0
VERTEX
  5
104B
330
1039
100
AcDbEntity
  8
HILF
100
AcDbVertex
100
AcDb2dVertex
 10
127.3001047374009
 20
167.3920809694885
 30
0.0
 70
     8
  0
VERTEX
  5
104C
330
1039
100
AcDbEntity
  8
HILF
100
AcDbVertex
100
AcDb2dVertex
 10
128.711802211054
 20
166.5785842669316
 30
0.0
 70
     8
  0
VERTEX
  5
104D
330
1039
100
AcDbEntity
  8
HILF
100
AcDbVertex
100
AcDb2dVertex
 10
130.1592630151781
 20
165.7690873010676
 30
0.0
 70
     8
  0
VERTEX
  5
104E
330
1039
100
AcDbEntity
  8
HILF
100
AcDbVertex
100
AcDb2dVertex
 10
131.6496398158674
 20
164.9782556718442
 30
0.0
 70
     8
  0
VERTEX
  5
104F
330
1039
100
AcDbEntity
  8
HILF
100
AcDbVertex
100
AcDb2dVertex
 10
133.190085279216
 20
164.2207549792088
 30
0.0
 70
     8
  0
VERTEX
  5
1050
330
1039
100
AcDbEntity
  8
HILF
100
AcDbVertex
100
AcDb2dVertex
 10
134.7877520713183
 20
163.5112508231089
 30
0.0
 70
     8
  0
VERTEX
  5
1051
330
1039
100
AcDbEntity
  8
HILF
100
AcDbVertex
100
AcDb2dVertex
 10
136.4497928582684
 20
162.8644088034922
 30
0.0
 70
     8
  0
VERTEX
  5
1052
330
1039
100
AcDbEntity
  8
HILF
100
AcDbVertex
100
AcDb2dVertex
 10
138.1833603061604
 20
162.2948945203061
 30
0.0
 70
     8
  0
VERTEX
  5
1053
330
1039
100
AcDbEntity
  8
HILF
100
AcDbVertex
100
AcDb2dVertex
 10
139.9956070810888
 20
161.8173735734982
 30
0.0
 70
     8
  0
VERTEX
  5
1054
330
1039
100
AcDbEntity
  8
HILF
100
AcDbVertex
100
AcDb2dVertex
 10
141.9077236708659
 20
161.4538443693186
 30
0.0
 70
     8
  0
VERTEX
  5
1055
330
1039
100
AcDbEntity
  8
HILF
100
AcDbVertex
100
AcDb2dVertex
 10
143.9970518501786
 20
161.2556365392274
 30
0.0
 70
     8
  0
VERTEX
  5
1056
330
1039
100
AcDbEntity
  8
HILF
100
AcDbVertex
100
AcDb2dVertex
 10
146.3549712154319
 20
161.2814125209871
 30
0.0
 70
     8
  0
VERTEX
  5
1057
330
1039
100
AcDbEntity
  8
HILF
100
AcDbVertex
100
AcDb2dVertex
 10
149.0728613630308
 20
161.5898347523606
 30
0.0
 70
     8
  0
VERTEX
  5
1058
330
1039
100
AcDbEntity
  8
HILF
100
AcDbVertex
100
AcDb2dVertex
 10
152.2421018893806
 20
162.2395656711103
 30
0.0
 70
     8
  0
VERTEX
  5
1059
330
1039
100
AcDbEntity
  8
HILF
100
AcDbVertex
100
AcDb2dVertex
 10
155.9540723908864
 20
163.289267714999
 30
0.0
 70
     8
  0
VERTEX
  5
105A
330
1039
100
AcDbEntity
  8
HILF
100
AcDbVertex
100
AcDb2dVertex
 10
160.3001524639531
 20
164.7976033217893
 30
0.0
 70
     8
  0
VERTEX
  5
105B
330
1039
100
AcDbEntity
  8
HILF
100
AcDbVertex
100
AcDb2dVertex
 10
165.371721704986
 20
166.8232349292439
 30
0.0
 70
     8
  0
VERTEX
  5
105C
330
1039
100
AcDbEntity
  8
HILF
100
AcDbVertex
100
AcDb2dVertex
 10
102.0922051729262
 20
173.9907144782376
 30
0.0
 70
    16
  0
VERTEX
  5
105D
330
1039
100
AcDbEntity
  8
HILF
100
AcDbVertex
100
AcDb2dVertex
 10
116.7408653338475
 20
173.6494068540908
 30
0.0
 70
    16
  0
VERTEX
  5
105E
330
1039
100
AcDbEntity
  8
HILF
100
AcDbVertex
100
AcDb2dVertex
 10
126.9949243173818
 20
167.5058501775374
 30
0.0
 70
    16
  0
VERTEX
  5
105F
330
1039
100
AcDbEntity
  8
HILF
100
AcDbVertex
100
AcDb2dVertex
 10
139.0800658210312
 20
160.6796782526904
 30
0.0
 70
    16
  0
VERTEX
  5
1060
330
1039
100
AcDbEntity
  8
HILF
100
AcDbVertex
100
AcDb2dVertex
 10
150.7989918636944
 20
160.6796782526904
 30
0.0
 70
    16
  0
VERTEX
  5
1061
330
1039
100
AcDbEntity
  8
HILF
100
AcDbVertex
100
AcDb2dVertex
 10
165.371721704986
 20
166.8232349292439
 30
0.0
 70
    16
  0
SEQEND
  5
1062
330
1039
100
AcDbEntity
  8
HILF
  0
ARC
  5
1063
330
1E
100
AcDbEntity
  8
STEMPEL
  6
Continuous
100
AcDbCircle
 10
145.9717217049861
 20
394.5629195724306
 30
0.0
 40
25.0
100
AcDbArc
 50
0.0
 51
24.95819631230656
  0
ARC
  5
1064
330
1E
100
AcDbEntity
  8
STEMPEL
  6
Continuous
100
AcDbCircle
 10
111.7717217049861
 20
394.5629195724306
 30
0.0
 40
25.0
100
AcDbArc
 50
155.0418036876908
 51
180.0
  0
LINE
  5
1065
330
1E
100
AcDbEntity
  8
STEMPEL
  6
Continuous
100
AcDbLine
 10
168.6371190332614
 20
405.1118419795491
 30
0.0
 11
89.10632437671081
 21
405.1118419795491
 31
0.0
  0
ARC
  5
1066
330
1E
100
AcDbEntity
  8
STEMPEL
  6
Continuous
100
AcDbCircle
 10
180.4717217049861
 20
372.1118419795491
 30
0.0
 40
12.0
100
AcDbArc
 50
158.8168456069651
 51
180.0
  0
ARC
  5
1067
330
1E
100
AcDbEntity
  8
STEMPEL
  6
Continuous
100
AcDbCircle
 10
145.9717217049861
 20
385.4818419795492
 30
0.0
 40
25.00009324312574
100
AcDbArc
 50
338.8168456069651
 51
0.1564859543516472
  0
ARC
  5
1068
330
1E
100
AcDbEntity
  8
STEMPEL
  6
Continuous
100
AcDbCircle
 10
156.4717217049861
 20
355.5005683969661
 30
0.0
 40
12.0
100
AcDbArc
 50
327.6719358778367
 51
0.0
  0
LINE
  5
1069
330
1E
100
AcDbEntity
  8
STEMPEL
  6
Continuous
100
AcDbLine
 10
168.4717217049861
 20
372.1118419795491
 30
0.0
 11
168.4717217049861
 21
355.5005683969661
 31
0.0
  0
ARC
  5
106A
330
1E
100
AcDbEntity
  8
STEMPEL
  6
Continuous
100
AcDbCircle
 10
77.27172170498608
 20
372.1118419795491
 30
0.0
 40
12.0
100
AcDbArc
 50
0.0
 51
21.18315439303487
  0
ARC
  5
106B
330
1E
100
AcDbEntity
  8
STEMPEL
  6
Continuous
100
AcDbCircle
 10
111.7717217049861
 20
385.4818419795492
 30
0.0
 40
25.00009324312574
100
AcDbArc
 50
179.8435140456483
 51
201.1831543930349
  0
ARC
  5
106C
330
1E
100
AcDbEntity
  8
STEMPEL
  6
Continuous
100
AcDbCircle
 10
101.2717217049861
 20
355.5005683969661
 30
0.0
 40
12.0
100
AcDbArc
 50
180.0
 51
212.3280641221616
  0
LINE
  5
106D
330
1E
100
AcDbEntity
  8
STEMPEL
  6
Continuous
100
AcDbLine
 10
89.27172170498607
 20
372.1118419795491
 30
0.0
 11
89.27172170498607
 21
355.5005683969661
 31
0.0
  0
LINE
  5
106E
330
1E
100
AcDbEntity
  8
HILF
  6
Continuous
100
AcDbLine
 10
90.64001007865641
 20
374.6116151609381
 30
0.0
 11
167.1034333313158
 21
374.6116151609381
 31
0.0
  0
LINE
  5
106F
330
1E
100
AcDbEntity
  8
HILF
  6
Continuous
100
AcDbLine
 10
91.28284789459081
 20
352.6053309282945
 30
0.0
 11
166.4605955153814
 21
352.6053309282945
 31
0.0
  0
LINE
  5
1070
330
1E
100
AcDbEntity
  8
HILF
  6
Continuous
100
AcDbLine
 10
93.59222060688939
 20
347.4777692091389
 30
0.0
 11
164.1512228030827
 21
347.4777692091389
 31
0.0
  0
ARC
  5
1071
330
1E
100
AcDbEntity
  8
STEMPEL
  6
Continuous
100
AcDbCircle
 10
84.37172170498611
 20
344.8052423149805
 30
0.0
 40
8.0
100
AcDbArc
 50
0.0
 51
32.32806412216152
  0
ARC
  5
1072
330
1E
100
AcDbEntity
  8
STEMPEL
  6
Continuous
100
AcDbCircle
 10
173.3717217049861
 20
344.8052423149805
 30
0.0
 40
8.0
100
AcDbArc
 50
147.6719358778385
 51
180.0000000000004
  0
LINE
  5
1073
330
1E
100
AcDbEntity
  8
STEMPEL
  6
Continuous
100
AcDbLine
 10
86.77172170498607
 20
394.5629195724306
 30
0.0
 11
86.77172170498607
 21
385.55012202774
 31
0.0
  0
LINE
  5
1074
330
1E
100
AcDbEntity
  8
STEMPEL
  6
Continuous
100
AcDbLine
 10
170.9717217049861
 20
394.5629195724306
 30
0.0
 11
170.9717217049861
 21
385.55012202774
 31
0.0
  0
ARC
  5
1076
330
1E
100
AcDbEntity
  8
STEMPEL
100
AcDbCircle
 10
153.3717217049861
 20
317.2277657480507
 30
0.0
 40
12.0
100
AcDbArc
 50
340.0000000000005
 51
0.0
  0
ARC
  5
1077
330
1E
100
AcDbEntity
  8
STEMPEL
100
AcDbCircle
 10
153.3717217049861
 20
317.2277657480507
 30
0.0
 40
10.4
100
AcDbArc
 50
340.0000000000005
 51
0.0
  0
ARC
  5
1078
330
1E
100
AcDbEntity
  8
SCHRAFF
100
AcDbCircle
 10
153.0748430486996
 20
311.6536997990829
 30
0.0
 40
7.443040393312843
100
AcDbArc
 50
27.64507366279662
 51
36.80437641679777
  0
LINE
  5
1079
330
1E
100
AcDbEntity
  8
STEMPEL
100
AcDbLine
 10
165.3717217049861
 20
310.1118419795493
 30
0.0
 11
163.5518705336551
 21
310.1118419795493
 31
0.0
  0
ARC
  5
107A
330
1E
100
AcDbEntity
  8
SCHRAFF
100
AcDbCircle
 10
147.0423117072859
 20
311.6536997990829
 30
0.0
 40
7.443040393312843
100
AcDbArc
 50
348.2048117017
 51
36.80437641679777
  0
LINE
  5
107B
330
1E
100
AcDbEntity
  8
STEMPEL
100
AcDbLine
 10
163.7717217049859
 20
317.6946841889036
 30
0.0
 11
163.7717217049859
 21
317.2277657480507
 31
0.0
  0
LWPOLYLINE
  5
107C
330
1E
100
AcDbEntity
  8
SCHRAFF
100
AcDbPolyline
 90
        4
 70
     0
 43
0.0
 10
146.7057285645128
 20
305.090505185843
 42
-0.0881939002362183
 10
147.8694816308041
 20
304.7470939828809
 42
-0.1041583937666652
 10
149.2562964740036
 20
303.6473758854819
 42
-0.0251436189823858
 10
149.5602167820429
 20
303.241306633499
 42
-0.082976372916389
  0
LWPOLYLINE
  5
107D
330
1E
100
AcDbEntity
  8
SCHRAFF
100
AcDbPolyline
 90
        3
 70
     0
 43
0.0
 10
147.1217217049861
 20
305.1118419795491
 42
-0.116044809117607
 10
148.6729072218369
 20
304.7469136551748
 42
-0.0866977466030354
 10
149.8644030947839
 20
303.8688800364687
 42
-0.0907446640652515
  0
LWPOLYLINE
  5
107E
330
1E
100
AcDbEntity
  8
STEMPEL
100
AcDbPolyline
 90
        4
 70
     0
 43
0.0
 10
161.4672729433777
 20
304.3844571716127
 42
-0.0611600535747248
 10
161.9514272756745
 20
303.6536492313553
 42
-0.0648584830741578
 10
162.476434136083
 20
302.137742686431
 42
-0.0510111269016863
 10
162.6836603227081
 20
300.111841979549
 42
-0.0510111269016738
  0
ARC
  5
107F
330
1E
100
AcDbEntity
  8
STEMPEL
100
AcDbCircle
 10
164.8717217049861
 20
290.347668068517
 30
0.0
 40
8.0
100
AcDbArc
 50
160.0000000000004
 51
180.0
  0
ARC
  5
1080
330
1E
100
AcDbEntity
  8
STEMPEL
100
AcDbCircle
 10
164.8717217049861
 20
290.347668068517
 30
0.0
 40
9.599999999999999
100
AcDbArc
 50
160.0000000000004
 51
180.0
  0
LINE
  5
1081
330
1E
100
AcDbEntity
  8
STEMPEL
100
AcDbLine
 10
164.6480331544169
 20
313.1235240281427
 30
0.0
 11
157.3541807386988
 21
293.0838292151224
 31
0.0
  0
LINE
  5
1082
330
1E
100
AcDbEntity
  8
STEMPEL
100
AcDbLine
 10
163.1445249611594
 20
313.6707562574638
 30
0.0
 11
155.8506725454412
 21
293.6310614444435
 31
0.0
  0
ARC
  5
1083
330
1E
100
AcDbEntity
  8
SCHRAFF
100
AcDbCircle
 10
141.0097803658721
 20
311.6536997990829
 30
0.0
 40
7.443040393312843
100
AcDbArc
 50
323.1956235832023
 51
36.80437641679777
  0
ARC
  5
1084
330
1E
100
AcDbEntity
  8
SCHRAFF
100
AcDbCircle
 10
158.9345965147838
 20
311.4187506432427
 30
0.0
 40
7.657442013147875
100
AcDbArc
 50
327.207392737474
 51
34.09818971891936
  0
ARC
  5
1085
330
1E
100
AcDbEntity
  8
STEMPEL
100
AcDbCircle
 10
104.371721704986
 20
317.2277657480507
 30
0.0
 40
12.0
100
AcDbArc
 50
180.0
 51
199.9999999999995
  0
LINE
  5
1086
330
1E
100
AcDbEntity
  8
STEMPEL
100
AcDbLine
 10
93.09541025555512
 20
313.1235240281427
 30
0.0
 11
94.19157287631703
 21
310.1118419795491
 31
0.0
  0
ARC
  5
1087
330
1E
100
AcDbEntity
  8
STEMPEL
100
AcDbCircle
 10
128.8717217049861
 20
300.1118419795491
 30
0.0
 40
5.0
100
AcDbArc
 50
0.0
 51
90.0
  0
LWPOLYLINE
  5
1088
330
1E
100
AcDbEntity
  8
STEMPEL
100
AcDbPolyline
 90
        5
 70
     0
 43
0.0
 10
110.621721704986
 20
305.1118419795491
 42
0.116044809117607
 10
109.0705361881351
 20
304.7469136551748
 42
0.1041136907849951
 10
107.681512871367
 20
303.6473758854819
 42
0.0907446640652515
 10
106.7905654189089
 20
302.0647333618796
 42
0.0831249348283856
 10
106.4636384962729
 20
300.1118419795491
 42
0.0831249348283806
  0
LWPOLYLINE
  5
1089
330
1E
100
AcDbEntity
  8
STEMPEL
100
AcDbPolyline
 90
        5
 70
     0
 43
0.0
 10
115.1238925341171
 20
300.1118419795491
 42
0.0894856039465815
 10
114.774440870723
 20
302.0487645310339
 42
0.0942938265008356
 10
113.805237228325
 20
303.6473758854819
 42
0.1019990275861884
 10
112.320921327988
 20
304.7397538633052
 42
0.1082072415965859
 10
110.621721704986
 20
305.1118419795491
 42
0.1082072415965768
  0
LWPOLYLINE
  5
108A
330
1E
100
AcDbEntity
  8
STEMPEL
100
AcDbPolyline
 90
        5
 70
     0
 43
0.0
 10
111.0377148454592
 20
305.090505185843
 42
0.0881939002362183
 10
109.8739617791679
 20
304.7470939828809
 42
0.1041583937666652
 10
108.4871469359686
 20
303.6473758854819
 42
0.0906557867322456
 10
107.5980019471273
 20
302.0650993287335
 42
0.082976372916389
 10
107.2716062668436
 20
300.1118419795491
 42
0.0829763729163673
  0
ARC
  5
108B
330
1E
100
AcDbEntity
  8
STEMPEL
100
AcDbCircle
 10
128.8717217049861
 20
300.1118419795491
 30
0.0
 40
5.0
100
AcDbArc
 50
90.0
 51
180.0
  0
LWPOLYLINE
  5
108C
330
1E
100
AcDbEntity
  8
STEMPEL
100
AcDbPolyline
 90
        9
 70
     0
 43
0.0
 10
100.0597830872638
 20
300.111841979549
 42
0.0510111269016906
 10
99.85255690063873
 20
302.1377426864309
 42
0.0648584830741748
 10
99.32755004023029
 20
303.6536492313553
 42
0.1041619196622654
 10
98.40634271334721
 20
304.815189172595
 42
0.174928943450854
 10
97.55978308726383
 20
305.1207138303648
 42
0.174928943450854
 10
96.71322346118058
 20
304.815189172595
 42
0.104161919662265
 10
95.7920161342975
 20
303.6536492313553
 42
0.0648584830741578
 10
95.26700927388896
 20
302.137742686431
 42
0.0510111269016863
 10
95.05978308726383
 20
300.111841979549
 42
0.0510111269016738
  0
LWPOLYLINE
  5
108D
330
1E
100
AcDbEntity
  8
STEMPEL
100
AcDbPolyline
 90
        5
 70
     0
 43
0.0
 10
98.2588538162458
 20
304.9213982009234
 42
0.0340277875279253
 10
98.11269619424088
 20
304.8160010872802
 42
0.1041580259530588
 10
97.1914573638041
 20
303.6542431784285
 42
0.0648500088297205
 10
96.6664527556581
 20
302.1380974092553
 42
0.0510027945188002
 10
96.45922431677053
 20
300.111841979549
 42
0.0510027945188098
  0
LINE
  5
108E
330
1E
100
AcDbEntity
  8
STEMPEL
100
AcDbLine
 10
96.84703809177193
 20
302.8160112619393
 30
0.0
 11
100.0597830872638
 21
293.9890669323593
 31
0.0
  0
ARC
  5
1091
330
1E
100
AcDbEntity
  8
SCHRAFF
100
AcDbCircle
 10
92.74952963456241
 20
311.6536997990829
 30
0.0
 40
7.443040393312843
100
AcDbArc
 50
323.1956235832023
 51
36.80437641679777
  0
ARC
  5
1092
330
1E
100
AcDbEntity
  8
SCHRAFF
100
AcDbCircle
 10
86.7169982931486
 20
311.6536997990829
 30
0.0
 40
7.443040393312843
100
AcDbArc
 50
323.1956235832023
 51
36.80437641679777
  0
ARC
  5
1093
330
1E
100
AcDbEntity
  8
SCHRAFF
100
AcDbCircle
 10
98.80884689518843
 20
311.4187506432427
 30
0.0
 40
7.657442013147875
100
AcDbArc
 50
145.9018102810806
 51
212.792607262526
  0
ARC
  5
1094
330
1E
100
AcDbEntity
  8
SCHRAFF
100
AcDbCircle
 10
116.8796550002172
 20
311.6536997990829
 30
0.0
 40
7.443040393312843
100
AcDbArc
 50
323.1956235832023
 51
36.80437641679777
  0
ARC
  5
1095
330
1E
100
AcDbEntity
  8
SCHRAFF
100
AcDbCircle
 10
98.78206097597598
 20
311.653699799083
 30
0.0
 40
7.443040393312843
100
AcDbArc
 50
323.1956235832023
 51
36.80437641679777
  0
ARC
  5
1096
330
1E
100
AcDbEntity
  8
SCHRAFF
100
AcDbCircle
 10
104.8145923173898
 20
311.6536997990829
 30
0.0
 40
7.443040393312843
100
AcDbArc
 50
323.1956235832023
 51
36.80437641679777
  0
ARC
  5
1097
330
1E
100
AcDbEntity
  8
SCHRAFF
100
AcDbCircle
 10
110.8471236588036
 20
311.6536997990829
 30
0.0
 40
7.443040393312843
100
AcDbArc
 50
323.1956235832023
 51
36.80437641679777
  0
ARC
  5
1098
330
1E
100
AcDbEntity
  8
SCHRAFF
100
AcDbCircle
 10
134.9772490244583
 20
311.6536997990829
 30
0.0
 40
7.443040393312843
100
AcDbArc
 50
323.1956235832023
 51
36.80437641679777
  0
ARC
  5
1099
330
1E
100
AcDbEntity
  8
SCHRAFF
100
AcDbCircle
 10
128.9447176830446
 20
311.6536997990829
 30
0.0
 40
7.443040393312843
100
AcDbArc
 50
323.1956235832023
 51
36.80437641679777
  0
ARC
  5
109A
330
1E
100
AcDbEntity
  8
SCHRAFF
100
AcDbCircle
 10
122.9121863416309
 20
311.653699799083
 30
0.0
 40
7.443040393312843
100
AcDbArc
 50
323.1956235832023
 51
36.80437641679777
  0
LINE
  5
109B
330
1E
100
AcDbEntity
  8
STEMPEL
100
AcDbLine
 10
154.3106341334961
 20
310.1118419795493
 30
0.0
 11
92.3717217049861
 21
310.1118419795491
 31
0.0
  0
LINE
  5
109C
330
1E
100
AcDbEntity
  8
HILF
  6
Continuous
100
AcDbLine
 10
94.18924329322937
 20
315.111841979549
 30
0.0
 11
161.913552106363
 21
315.1118419795491
 31
0.0
  0
INSERT
  5
109D
330
1E
100
AcDbEntity
  8
SCHRAFF
100
AcDbBlockReference
  2
*X1
 10
-179.9040933268546
 20
-120.3304476454711
 30
0.0
1001
ACAD
1000
HATCH
1002
{
1070
    16
1000
_U,I
1040
0.1
1040
0.0
1070
     0
1002
}
  0
LWPOLYLINE
  5
109E
330
1E
100
AcDbEntity
  8
STEMPEL
100
AcDbPolyline
 90
        5
 70
     0
 43
0.0
 10
142.6195508758548
 20
300.1118419795491
 42
-0.0894856039465815
 10
142.9690025392489
 20
302.0487645310339
 42
-0.0942938265008356
 10
143.9382061816472
 20
303.6473758854819
 42
-0.1019990275861884
 10
145.422522081984
 20
304.7397538633052
 42
-0.1082072415965859
 10
147.1217217049861
 20
305.1118419795491
 42
-0.1082072415965768
  0
POINT
  5
109F
330
1E
100
AcDbEntity
  8
Defpoints
  6
ByBlock
 62
     0
100
AcDbPoint
 10
220.371721704986
 20
253.1118419795492
 30
0.0
  0
LINE
  5
10A0
102
{ACAD_REACTORS
330
156F
102
}
330
1E
100
AcDbEntity
  8
STEMPEL
100
AcDbLine
 10
220.3717217049862
 20
255.1118419795491
 30
0.0
 11
220.371721704986
 21
253.1118419795492
 31
0.0
  0
LWPOLYLINE
  5
10A1
330
1E
100
AcDbEntity
  8
STEMPEL
100
AcDbPolyline
 90
        5
 70
     0
 43
0.0
 10
159.0831015522148
 20
260.111841979549
 42
0.0448625346001936
 10
159.2658648691672
 20
258.0790156966112
 42
0.058366107133556
 10
159.7240136557381
 20
256.5763080736163
 42
0.1004267118962066
 10
160.552182258452
 20
255.3981973748786
 42
0.0646530356134273
 10
160.7700781474672
 20
255.2397344857154
 42
0.1917760145803905
  0
LWPOLYLINE
  5
10A2
330
1E
100
AcDbEntity
  8
STEMPEL
100
AcDbPolyline
 90
        9
 70
     0
 43
0.0
 10
162.6836603227081
 20
260.111841979549
 42
-0.0510111269016863
 10
162.476434136083
 20
258.0859412726671
 42
-0.0648584830741578
 10
161.9514272756745
 20
256.5700347277428
 42
-0.1041619196622498
 10
161.0302199487915
 20
255.4084947865032
 42
-0.1749289434508429
 10
160.1836603227081
 20
255.1029701287333
 42
-0.174928943450854
 10
159.3371006966249
 20
255.4084947865032
 42
-0.104161919662265
 10
158.4158933697417
 20
256.5700347277428
 42
-0.0648584830741701
 10
157.8908865093332
 20
258.0859412726673
 42
-0.051011126901681
 10
157.6836603227081
 20
260.1118419795491
 42
-0.0510111269017003
  0
POINT
  5
10A3
330
1E
100
AcDbEntity
  8
Defpoints
  6
ByBlock
 62
     0
100
AcDbPoint
 10
165.871721704986
 20
253.1118419795492
 30
0.0
  0
ARC
  5
10A4
330
1E
100
AcDbEntity
  8
SCHRAFF
100
AcDbCircle
 10
165.371721704986
 20
253.1118419795492
 30
0.0
 40
3.0
100
AcDbArc
 50
270.0
 51
0.0
  0
INSERT
  5
10A5
330
1E
100
AcDbEntity
  8
SCHRAFF
100
AcDbBlockReference
  2
*X2
 10
-6.980137621191033
 20
42.28667688125097
 30
0.0
1001
ACAD
1000
HATCH
1002
{
1070
    16
1000
_U,I
1040
0.1
1040
0.0
1070
     0
1002
}
  0
LINE
  5
10A6
102
{ACAD_REACTORS
330
156F
102
}
330
1E
100
AcDbEntity
  8
STEMPEL
100
AcDbLine
 10
165.871721704986
 20
255.1118419795491
 30
0.0
 11
165.871721704986
 21
253.1118419795492
 31
0.0
  0
LINE
  5
10A7
102
{ACAD_REACTORS
330
156F
102
}
330
1E
100
AcDbEntity
  8
STEMPEL
100
AcDbLine
 10
220.3717217049862
 20
255.1118419795491
 30
0.0
 11
165.3717217049859
 21
255.1118419795491
 31
0.0
  0
LINE
  5
10A8
102
{ACAD_REACTORS
330
156F
102
}
330
1E
100
AcDbEntity
  8
STEMPEL
100
AcDbLine
 10
220.3717217049862
 20
253.1118419795492
 30
0.0
 11
165.3717217049859
 21
253.1118419795492
 31
0.0
  0
ARC
  5
10AA
330
1E
100
AcDbEntity
  8
STEMPEL
100
AcDbCircle
 10
128.8717217049861
 20
260.1118419795491
 30
0.0
 40
5.0
100
AcDbArc
 50
270.0
 51
0.0
  0
LWPOLYLINE
  5
10AB
330
1E
100
AcDbEntity
  8
STEMPEL
100
AcDbPolyline
 90
        5
 70
     0
 43
0.0
 10
106.4636384962729
 20
260.1118419795491
 42
0.0831249348283902
 10
106.7905654189089
 20
258.1589505972188
 42
0.0907446640652638
 10
107.6815128713671
 20
256.5763080736163
 42
0.1041136907849957
 10
109.0705361881352
 20
255.4767703039234
 42
0.1160448091175973
 10
110.621721704986
 20
255.1118419795491
 42
0.1160448091175801
  0
LWPOLYLINE
  5
10AC
330
1E
100
AcDbEntity
  8
STEMPEL
100
AcDbPolyline
 90
        5
 70
     0
 43
0.0
 10
110.621721704986
 20
255.1118419795491
 42
0.1082072415965644
 10
112.320921327988
 20
255.4839300957929
 42
0.1019990275861814
 10
113.805237228325
 20
256.5763080736163
 42
0.0942938265008525
 10
114.774440870723
 20
258.1749194280643
 42
0.089485603946596
 10
115.1238925341172
 20
260.1118419795491
 42
0.0894856039465907
  0
LWPOLYLINE
  5
10AD
330
1E
100
AcDbEntity
  8
STEMPEL
100
AcDbPolyline
 90
        5
 70
     0
 43
0.0
 10
107.2716062668436
 20
260.1118419795491
 42
0.082976372916373
 10
107.5980019471273
 20
258.1585846303648
 42
0.0906557867322319
 10
108.4871469359686
 20
256.5763080736163
 42
0.1041583937666244
 10
109.8739617791679
 20
255.4765899762172
 42
0.0881939002361597
 10
111.037714845459
 20
255.1331787732553
 42
0.1162388648590112
  0
ARC
  5
10AE
330
1E
100
AcDbEntity
  8
STEMPEL
100
AcDbCircle
 10
128.8717217049861
 20
260.1118419795491
 30
0.0
 40
5.0
100
AcDbArc
 50
180.0
 51
270.0
  0
LINE
  5
10AF
330
1E
100
AcDbEntity
  8
STEMPEL
100
AcDbLine
 10
102.471721704986
 20
247.3867153184551
 30
0.0
 11
102.471721704986
 21
245.111841979549
 31
0.0
  0
ARC
  5
10B0
330
1E
100
AcDbEntity
  8
SCHRAFF
100
AcDbCircle
 10
102.0996461036366
 20
251.6118419795491
 30
0.0
 40
2.370732059340843
100
AcDbArc
 50
320.7492137345171
 51
39.25078626548247
  0
ARC
  5
10B1
330
1E
100
AcDbEntity
  8
SCHRAFF
100
AcDbCircle
 10
117.0996461036366
 20
251.6118419795491
 30
0.0
 40
2.370732059340843
100
AcDbArc
 50
320.7492137345171
 51
39.25078626548247
  0
ARC
  5
10B2
330
1E
100
AcDbEntity
  8
SCHRAFF
100
AcDbCircle
 10
112.0996461036366
 20
251.6118419795491
 30
0.0
 40
2.370732059340843
100
AcDbArc
 50
320.7492137345171
 51
39.25078626548247
  0
ARC
  5
10B3
330
1E
100
AcDbEntity
  8
SCHRAFF
100
AcDbCircle
 10
107.0996461036366
 20
251.6118419795491
 30
0.0
 40
2.370732059340843
100
AcDbArc
 50
320.7492137345171
 51
39.25078626548247
  0
ARC
  5
10B4
330
1E
100
AcDbEntity
  8
SCHRAFF
100
AcDbCircle
 10
122.0996461036367
 20
251.611841979549
 30
0.0
 40
2.370732059340843
100
AcDbArc
 50
320.7492137345171
 51
39.25078626548247
  0
ARC
  5
10B5
330
1E
100
AcDbEntity
  8
SCHRAFF
100
AcDbCircle
 10
127.0996461036367
 20
251.611841979549
 30
0.0
 40
2.370732059340843
100
AcDbArc
 50
349.2089989539108
 51
39.25078626548247
  0
LWPOLYLINE
  5
10B6
330
1E
100
AcDbEntity
  8
STEMPEL
100
AcDbPolyline
 90
        9
 70
     0
 43
0.0
 10
95.05978308726383
 20
260.111841979549
 42
0.0510111269016863
 10
95.26700927388896
 20
258.0859412726671
 42
0.0648584830741578
 10
95.7920161342975
 20
256.5700347277428
 42
0.1041619196622498
 10
96.71322346118058
 20
255.4084947865032
 42
0.1749289434508429
 10
97.55978308726383
 20
255.1029701287333
 42
0.174928943450854
 10
98.40634271334721
 20
255.4084947865032
 42
0.104161919662265
 10
99.32755004023029
 20
256.5700347277428
 42
0.0648584830741701
 10
99.85255690063883
 20
258.0859412726673
 42
0.051011126901681
 10
100.0597830872638
 20
260.1118419795491
 42
0.0510111269017003
  0
LWPOLYLINE
  5
10B7
330
1E
100
AcDbEntity
  8
STEMPEL
100
AcDbPolyline
 90
        5
 70
     0
 43
0.0
 10
96.45922431677053
 20
260.111841979549
 42
0.0448625346001936
 10
96.6419876337231
 20
258.0790156966112
 42
0.058366107133556
 10
97.10013642029394
 20
256.5763080736163
 42
0.1004267118962066
 10
97.9283050230078
 20
255.3981973748786
 42
0.0646530356134273
 10
98.14620091202295
 20
255.2397344857154
 42
0.1917760145803905
  0
LINE
  5
10B8
330
1E
100
AcDbEntity
  8
STEMPEL
100
AcDbLine
 10
92.37172170498622
 20
253.1118419795491
 30
0.0
 11
92.37172170498622
 21
247.2549577124766
 31
0.0
  0
LINE
  5
10B9
330
1E
100
AcDbEntity
  8
STEMPEL
100
AcDbLine
 10
100.8717217049861
 20
247.3415990695096
 30
0.0
 11
100.8717217049861
 21
245.111841979549
 31
0.0
  0
ARC
  5
10BA
330
1E
100
AcDbEntity
  8
SCHRAFF
100
AcDbCircle
 10
97.09964610363654
 20
251.6118419795491
 30
0.0
 40
2.370732059340843
100
AcDbArc
 50
320.7492137345171
 51
39.25078626548247
  0
ARC
  5
10BB
330
1E
100
AcDbEntity
  8
SCHRAFF
100
AcDbCircle
 10
92.09964610363654
 20
251.6118419795491
 30
0.0
 40
2.370732059340843
100
AcDbArc
 50
320.7492137345171
 51
39.25078626548247
  0
INSERT
  5
10BC
330
1E
100
AcDbEntity
  8
SCHRAFF
100
AcDbBlockReference
  2
*X2
 10
264.7235810311634
 20
42.28667688125097
 30
0.0
 41
-1.0
1001
ACAD
1000
HATCH
1002
{
1070
    16
1000
_U,I
1040
0.1
1040
0.0
1070
     0
1002
}
  0
ARC
  5
10BD
330
1E
100
AcDbEntity
  8
SCHRAFF
100
AcDbCircle
 10
92.37172170498622
 20
253.1118419795492
 30
0.0
 40
3.0
100
AcDbArc
 50
180.0
 51
270.0
  0
POINT
  5
10BE
330
1E
100
AcDbEntity
  8
Defpoints
  6
ByBlock
 62
     0
100
AcDbPoint
 10
37.3717217049861
 20
253.1118419795492
 30
0.0
  0
LINE
  5
10BF
330
1E
100
AcDbEntity
  8
STEMPEL
100
AcDbLine
 10
37.3717217049861
 20
255.1118419795491
 30
0.0
 11
37.3717217049861
 21
253.1118419795492
 31
0.0
  0
LINE
  5
10C0
330
1E
100
AcDbEntity
  8
STEMPEL
100
AcDbLine
 10
132.5214042612985
 20
253.111841979549
 30
0.0
 11
37.3717217049861
 21
253.1118419795492
 31
0.0
  0
LINE
  5
10C1
330
1E
100
AcDbEntity
  8
STEMPEL
100
AcDbLine
 10
134.7165264957765
 20
255.1118419795492
 30
0.0
 11
37.3717217049861
 21
255.1118419795491
 31
0.0
  0
LINE
  5
10C2
330
1E
100
AcDbEntity
  8
STEMPEL
  6
Continuous
100
AcDbLine
 10
100.8717217049861
 20
245.111841979549
 30
0.0
 11
156.8717217049861
 21
245.111841979549
 31
0.0
  0
LWPOLYLINE
  5
10C3
330
1E
100
AcDbEntity
  8
HILF
100
AcDbPolyline
 90
       39
 70
     0
 43
0.0
 10
165.3717217049861
 20
318.6684868869453
 10
160.0459079502636
 20
315.4270545096852
 10
155.7668727151055
 20
311.8038693281489
 10
152.4001533638516
 20
307.8920232272955
 10
149.8112872608414
 20
303.7846080920831
 10
147.8658117704149
 20
299.5747158074704
 10
146.4292642569117
 20
295.355438258416
 10
145.3671820846716
 20
291.2198673298784
 10
144.5451026180341
 20
287.2610949068162
 10
143.8465761589162
 20
283.5541187192133
 10
143.2272047595418
 20
280.1015598771559
 10
142.6606034097121
 20
276.8879453357554
 10
142.120387099228
 20
273.8978020501233
 10
141.5801708178907
 20
271.1156569753713
 10
141.0135695555011
 20
268.5260370666109
 10
140.3941983018603
 20
266.1134692789535
 10
139.6956720467692
 20
263.8624805675108
 10
138.8948193370485
 20
261.7605149374244
 10
137.9813229475959
 20
259.8066845939562
 10
136.9480792103292
 20
258.0030187923981
 10
135.7879844571657
 20
256.3515467880423
 10
134.4939350200229
 20
254.8542978361806
 10
133.0588272308179
 20
253.513301192105
 10
131.4755574214686
 20
252.3305861111077
 10
129.7370219238923
 20
251.3081818484806
 10
127.837661057623
 20
250.4451583345477
 10
125.7780910926621
 20
249.7287481997623
 10
123.5604722866268
 20
249.14322474961
 10
121.1869648971353
 20
248.672861289576
 10
118.6597291818052
 20
248.3019311251458
 10
115.9809253982541
 20
248.0147075618047
 10
113.1527138040998
 20
247.7954639050381
 10
110.1772546569602
 20
247.6284734603315
 10
107.0591757138649
 20
247.4998696798071
 10
103.8129747294922
 20
247.4032266021351
 10
100.4556169579321
 20
247.333978412622
 10
97.00406765327507
 20
247.2875592965747
 10
93.47529206961093
 20
247.2594034393002
 10
92.37172170498622
 20
247.2549577124766
  0
INSERT
  5
10C4
330
1E
100
AcDbEntity
  8
SCHRAFF
100
AcDbBlockReference
  2
*X3
 10
-6.980137621191033
 20
42.28667688125097
 30
0.0
1001
ACAD
1000
HATCH
1002
{
1070
    16
1000
_U,I
1040
2.0
1040
2.356194490192344
1070
     0
1002
}
  0
LINE
  5
10C5
330
1E
100
AcDbEntity
  8
STEMPEL
100
AcDbLine
 10
156.8717217049861
 20
290.347668068517
 30
0.0
 11
156.8717217049861
 21
245.1118419795489
 31
0.0
  0
LINE
  5
10C6
330
1E
100
AcDbEntity
  8
STEMPEL
100
AcDbLine
 10
155.271721704986
 20
290.347668068517
 30
0.0
 11
155.271721704986
 21
245.1118419795489
 31
0.0
  0
LINE
  5
10C7
330
1E
100
AcDbEntity
  8
STEMPEL
100
AcDbLine
 10
123.8717217049861
 20
300.1118419795491
 30
0.0
 11
123.8717217049861
 21
260.1118419795491
 31
0.0
  0
LINE
  5
10C8
330
1E
100
AcDbEntity
  8
STEMPEL
100
AcDbLine
 10
115.1238925341171
 20
300.1118419795491
 30
0.0
 11
115.1238925341172
 21
260.1118419795491
 31
0.0
  0
LINE
  5
10C9
330
1E
100
AcDbEntity
  8
STEMPEL
100
AcDbLine
 10
106.4636384962729
 20
300.1118419795491
 30
0.0
 11
106.4636384962729
 21
260.1118419795491
 31
0.0
  0
LINE
  5
10CA
330
1E
100
AcDbEntity
  8
STEMPEL
100
AcDbLine
 10
100.0597830872638
 20
300.111841979549
 30
0.0
 11
100.0597830872638
 21
260.1118419795491
 31
0.0
  0
LINE
  5
10CB
330
1E
100
AcDbEntity
  8
STEMPEL
100
AcDbLine
 10
95.05978308726383
 20
300.1118419795491
 30
0.0
 11
95.05978308726383
 21
260.1118419795491
 31
0.0
  0
LINE
  5
10CC
330
1E
100
AcDbEntity
  8
STEMPEL
100
AcDbLine
 10
96.45922431677053
 20
300.1118419795491
 30
0.0
 11
96.45922431677053
 21
260.111841979549
 31
0.0
  0
LINE
  5
10CD
330
1E
100
AcDbEntity
  8
STEMPEL
100
AcDbLine
 10
107.2716062668436
 20
300.1118419795491
 30
0.0
 11
107.2716062668436
 21
260.1118419795491
 31
0.0
  0
LINE
  5
10CE
330
1E
100
AcDbEntity
  8
STEMPEL
100
AcDbLine
 10
133.8717217049861
 20
300.1118419795491
 30
0.0
 11
133.8717217049861
 21
260.1118419795491
 31
0.0
  0
LINE
  5
10CF
330
1E
100
AcDbEntity
  8
STEMPEL
100
AcDbLine
 10
159.0831015522148
 20
297.8340001102827
 30
0.0
 11
159.0831015522148
 21
260.111841979549
 31
0.0
  0
LINE
  5
10D0
330
1E
100
AcDbEntity
  8
STEMPEL
100
AcDbLine
 10
162.6836603227081
 20
300.1118419795491
 30
0.0
 11
162.6836603227081
 21
260.1118419795491
 31
0.0
  0
LINE
  5
10D1
330
1E
100
AcDbEntity
  8
STEMPEL
100
AcDbLine
 10
157.6836603227081
 20
293.9890669323593
 30
0.0
 11
157.6836603227081
 21
260.1118419795491
 31
0.0
  0
LINE
  5
10D2
330
1E
100
AcDbEntity
  8
STEMPEL
100
AcDbLine
 10
92.3717217049861
 20
310.1118419795491
 30
0.0
 11
92.37172170498622
 21
255.1118419795491
 31
0.0
  0
LINE
  5
10D5
330
1E
100
AcDbEntity
  8
STEMPEL
100
AcDbLine
 10
142.6195508758548
 20
300.1118419795491
 30
0.0
 11
142.6195508758548
 21
276.6607160646483
 31
0.0
  0
POINT
  5
10D8
330
1E
100
AcDbEntity
  8
BEM
100
AcDbPoint
 10
219.8717217049859
 20
235.0168942637058
 30
0.0
  0
DIMENSION
  5
10E0
330
1E
100
AcDbEntity
  8
BEM
100
AcDbDimension
  2
*D8
 10
220.3717217049862
 20
235.1314643769478
 30
0.0
 11
128.8717217049861
 21
238.3814643769478
 31
0.0
 70
    32
  1
%%c<>
 71
     5
 42
183.0
  3
Standard
100
AcDbAlignedDimension
 13
37.3717217049861
 23
253.1118419795492
 33
0.0
 14
220.3717217049862
 24
253.1118419795492
 34
0.0
100
AcDbRotatedDimension
1001
ACAD
1000
DSTYLE
1002
{
1070
    41
1040
3.5
1070
    42
1040
1.0
1070
    43
1040
7.0
1070
    44
1040
1.0
1070
    73
1070
     0
1070
    74
1070
     0
1070
    77
1070
     1
1070
    78
1070
     8
1070
    79
1070
     2
1070
   140
1040
3.5
1070
   141
1040
1.5
1070
   146
1040
0.5
1070
   147
1040
1.5
1070
   172
1070
     1
1070
   178
1070
     1
1070
   179
1070
     2
1070
   271
1070
     2
1070
   272
1070
     2
1070
   284
1070
     8
1070
   285
1070
     8
1070
   286
1070
     8
1070
   340
1005
24
1002
}
  0
DIMENSION
  5
10E2
330
1E
100
AcDbEntity
  8
BEM
100
AcDbDimension
  2
*D10
 10
34.22390571393032
 20
253.1118419795492
 30
0.0
 11
30.97390571393028
 21
243.6785086462159
 31
0.0
 70
    32
 71
     5
 42
1.999999999999886
  3
Standard
100
AcDbAlignedDimension
 13
37.3717217049861
 23
255.1118419795491
 33
0.0
 14
37.3717217049861
 24
253.1118419795492
 34
0.0
 50
90.0
100
AcDbRotatedDimension
1001
ACAD
1000
DSTYLE
1002
{
1070
    41
1040
3.5
1070
    42
1040
1.0
1070
    43
1040
7.0
1070
    44
1040
1.0
1070
    73
1070
     0
1070
    74
1070
     0
1070
    77
1070
     1
1070
    78
1070
     8
1070
    79
1070
     2
1070
   140
1040
3.5
1070
   141
1040
1.5
1070
   146
1040
0.5
1070
   147
1040
1.5
1070
   172
1070
     1
1070
   178
1070
     1
1070
   179
1070
     2
1070
   271
1070
     2
1070
   272
1070
     2
1070
   284
1070
     8
1070
   285
1070
     8
1070
   286
1070
     8
1070
   340
1005
24
1002
}
  0
LINE
  5
10E7
330
1E
100
AcDbEntity
  8
STEMPEL
100
AcDbLine
 10
165.3717217049861
 20
53.04198447089567
 30
0.0
 11
164.677924136848
 21
45.11184197954918
 31
0.0
  0
LINE
  5
10E8
330
1E
100
AcDbEntity
  8
STEMPEL
100
AcDbLine
 10
163.7717217049861
 20
53.11184197954924
 30
0.0
 11
163.0718123967787
 21
45.11184197954918
 31
0.0
  0
LINE
  5
10E9
330
1E
100
AcDbEntity
  8
STEMPEL
100
AcDbLine
 10
92.3717217049861
 20
53.04198447089567
 30
0.0
 11
93.06551927312415
 21
45.11184197954918
 31
0.0
  0
LINE
  5
10EA
330
1E
100
AcDbEntity
  8
STEMPEL
100
AcDbLine
 10
93.97172170498606
 20
53.11184197955043
 30
0.0
 11
94.67163101319352
 21
45.11184197954918
 31
0.0
  0
DIMENSION
  5
10EB
330
1E
100
AcDbEntity
  8
BEM
100
AcDbDimension
  2
*D13
 10
165.3717217049861
 20
31.47311472538132
 30
0.0
 11
128.8717217049861
 21
34.72311472538132
 31
0.0
 70
    32
  1
%%c<>
 71
     5
 42
73.0
  3
Standard
100
AcDbAlignedDimension
 13
92.3717217049861
 23
53.04198447089567
 33
0.0
 14
165.3717217049861
 24
53.04198447089567
 34
0.0
100
AcDbRotatedDimension
1001
ACAD
1000
DSTYLE
1002
{
1070
    41
1040
3.5
1070
    42
1040
1.0
1070
    43
1040
7.0
1070
    44
1040
1.0
1070
    73
1070
     0
1070
    74
1070
     0
1070
    77
1070
     1
1070
    78
1070
     8
1070
    79
1070
     2
1070
   140
1040
3.5
1070
   141
1040
1.5
1070
   146
1040
0.5
1070
   147
1040
1.5
1070
   172
1070
     1
1070
   178
1070
     1
1070
   179
1070
     2
1070
   271
1070
     2
1070
   272
1070
     2
1070
   284
1070
     8
1070
   285
1070
     8
1070
   286
1070
     8
1070
   340
1005
24
1002
}
  0
LINE
  5
10EC
330
1E
100
AcDbEntity
  8
STEMPEL
100
AcDbLine
 10
164.677924136848
 20
45.11184197954918
 30
0.0
 11
93.06551927312415
 21
45.11184197954918
 31
0.0
  0
LINE
  5
10ED
330
1E
100
AcDbEntity
  8
HILF
100
AcDbLine
 10
162.1656099649167
 20
53.11184197954919
 30
0.0
 11
95.5778334450555
 21
53.11184197954919
 31
0.0
  0
DIMENSION
  5
10EE
330
1E
100
AcDbEntity
  8
BEM
100
AcDbDimension
  2
*D14
 10
26.34339186696411
 20
45.1118419795492
 30
0.0
 11
23.09339186696411
 21
150.1118419795492
 31
0.0
 70
    32
  1
252
 71
     5
 42
209.9999999999999
  3
Standard
100
AcDbAlignedDimension
 13
37.3717217049861
 23
255.1118419795491
 33
0.0
 14
93.06551927312415
 24
45.11184197954918
 34
0.0
 50
90.0
100
AcDbRotatedDimension
1001
ACAD
1000
DSTYLE
1002
{
1070
    41
1040
3.5
1070
    42
1040
1.0
1070
    43
1040
7.0
1070
    44
1040
1.0
1070
    73
1070
     0
1070
    74
1070
     0
1070
    77
1070
     1
1070
    78
1070
     8
1070
    79
1070
     2
1070
   140
1040
3.5
1070
   141
1040
1.5
1070
   146
1040
0.5
1070
   147
1040
1.5
1070
   172
1070
     1
1070
   178
1070
     1
1070
   179
1070
     2
1070
   271
1070
     2
1070
   272
1070
     2
1070
   284
1070
     8
1070
   285
1070
     8
1070
   286
1070
     8
1070
   340
1005
24
1002
}
  0
LINE
  5
10EF
330
1E
100
AcDbEntity
  8
STEMPEL
100
AcDbLine
 10
92.3717217049861
 20
247.238857273181
 30
0.0
 11
92.3717217049861
 21
169.2123931587491
 31
0.0
  0
LINE
  5
10F0
330
1E
100
AcDbEntity
  8
STEMPEL
100
AcDbLine
 10
93.97172170498601
 20
247.2518704000722
 30
0.0
 11
93.97172170498601
 21
169.9222250711387
 31
0.0
  0
LINE
  5
10F1
330
1E
100
AcDbEntity
  8
STEMPEL
100
AcDbLine
 10
163.7717217049859
 20
310.1118419795493
 30
0.0
 11
163.7717217049861
 21
166.184180147993
 31
0.0
  0
LINE
  5
10F2
330
1E
100
AcDbEntity
  8
STEMPEL
100
AcDbLine
 10
165.371721704986
 20
310.1118419795493
 30
0.0
 11
165.3717217049861
 21
166.8232349292439
 31
0.0
  0
LINE
  5
10F3
330
1E
100
AcDbEntity
  8
MITTEL
100
AcDbLine
 10
128.8717217049861
 20
233.0479214228987
 30
0.0
 11
128.8717217049861
 21
40.11184197954918
 31
0.0
  0
LINE
  5
10F6
330
1E
100
AcDbEntity
  8
MITTEL
100
AcDbLine
 10
128.8717217049861
 20
410.1118419795492
 30
0.0
 11
128.8717217049861
 21
241.8102639841355
 31
0.0
  0
LINE
  5
10F7
330
1E
100
AcDbEntity
  8
STEMPEL
100
AcDbLine
 10
165.3717217049859
 20
344.8052423149805
 30
0.0
 11
165.3717217049861
 21
317.2277657480507
 31
0.0
  0
LINE
  5
10F8
330
1E
100
AcDbEntity
  8
STEMPEL
100
AcDbLine
 10
92.3717217049861
 20
344.8052423149805
 30
0.0
 11
92.3717217049861
 21
317.2277657480507
 31
0.0
  0
DIMENSION
  5
10FA
330
1E
100
AcDbEntity
  8
BEM
100
AcDbDimension
  2
*D17
 10
18.21884303813425
 20
45.1118419795492
 30
0.0
 11
14.96884303813425
 21
225.1118419795492
 31
0.0
 70
    32
  1
402
 71
     5
 42
360.0
  3
Standard
100
AcDbAlignedDimension
 13
89.10632437671081
 23
405.1118419795491
 33
0.0
 14
93.06551927312415
 24
45.11184197954918
 34
0.0
 50
90.0
100
AcDbRotatedDimension
1001
ACAD
1000
DSTYLE
1002
{
1070
    41
1040
3.5
1070
    42
1040
1.0
1070
    43
1040
7.0
1070
    44
1040
1.0
1070
    73
1070
     0
1070
    74
1070
     0
1070
    77
1070
     1
1070
    78
1070
     8
1070
    79
1070
     2
1070
   140
1040
3.5
1070
   141
1040
1.5
1070
   146
1040
0.5
1070
   147
1040
1.5
1070
   172
1070
     1
1070
   178
1070
     1
1070
   179
1070
     2
1070
   271
1070
     2
1070
   272
1070
     2
1070
   284
1070
     8
1070
   285
1070
     8
1070
   286
1070
     8
1070
   340
1005
24
1002
}
  0
HATCH
  5
156F
330
1E
100
AcDbEntity
  8
SCHRAFF
100
AcDbHatch
 10
0.0
 20
0.0
 30
0.0
210
0.0
220
0.0
230
1.0
  2
_USER
 70
     0
 71
     1
 91
        1
 92
        7
 72
     0
 73
     1
 93
        4
 10
220.371721704986
 20
253.1118419795493
 10
220.3717217049862
 20
255.1118419795491
 10
165.871721704986
 20
255.1118419795491
 10
165.871721704986
 20
253.1118419795491
 97
        4
330
10A7
330
10A6
330
10A8
330
10A0
 75
     0
 76
     0
 52
135.0
 41
2.0
 77
     0
 78
     1
 53
135.0
 43
0.0
 44
0.0
 45
-1.414213562373095
 46
-1.414213562373094
 79
     0
 47
0.1361416847812619
 98
        1
 10
208.9392759363018
 20
253.5794965606818
  0
ENDSEC
  0
SECTION
  2
OBJECTS
  0
DICTIONARY
  5
C
330
0
100
AcDbDictionary
281
     1
  3
ACAD_COLOR
350
B4E
  3
ACAD_GROUP
350
D
  3
ACAD_LAYOUT
350
19
  3
ACAD_MATERIAL
350
B4D
  3
ACAD_MLINESTYLE
350
16
  3
ACAD_PLOTSETTINGS
350
18
  3
ACAD_PLOTSTYLENAME
350
E
  3
AcDbVariableDictionary
350
4C7
  0
DICTIONARY
  5
A3
330
1E
100
AcDbDictionary
280
     1
281
     1
  3
ACAD_LAYOUTSELFREF
360
996
  0
DICTIONARY
  5
A5
330
1A
100
AcDbDictionary
280
     1
281
     1
  3
ACAD_LAYOUTSELFREF
360
995
  0
DICTIONARY
  5
B4E
102
{ACAD_REACTORS
330
C
102
}
330
C
100
AcDbDictionary
281
     1
  0
DICTIONARY
  5
D
102
{ACAD_REACTORS
330
C
102
}
330
C
100
AcDbDictionary
281
     1
  0
DICTIONARY
  5
19
102
{ACAD_REACTORS
330
C
102
}
330
C
100
AcDbDictionary
281
     1
  3
Layout1
350
1D
  3
Model
350
21
  0
DICTIONARY
  5
B4D
102
{ACAD_REACTORS
330
C
102
}
330
C
100
AcDbDictionary
281
     1
  0
DICTIONARY
  5
16
102
{ACAD_REACTORS
330
C
102
}
330
C
100
AcDbDictionary
281
     1
  3
Standard
350
17
  0
DICTIONARY
  5
18
102
{ACAD_REACTORS
330
C
102
}
330
C
100
AcDbDictionary
281
     1
  0
ACDBDICTIONARYWDFLT
  5
E
102
{ACAD_REACTORS
330
C
102
}
330
C
100
AcDbDictionary
281
     1
  3
Normal
350
F
100
AcDbDictionaryWithDefault
340
F
  0
DICTIONARY
  5
4C7
102
{ACAD_REACTORS
330
C
102
}
330
C
100
AcDbDictionary
281
     1
  3
DIMASSOC
350
13A5
  3
PROJECTNAME
350
13A6
  3
SORTENTS
350
4C8
  0
XRECORD
  5
996
102
{ACAD_REACTORS
330
A3
102
}
330
A3
100
AcDbXrecord
280
     1
340
1E
  0
XRECORD
  5
995
102
{ACAD_REACTORS
330
A5
102
}
330
A5
100
AcDbXrecord
280
     1
340
1A
  0
LAYOUT
  5
1D
102
{ACAD_REACTORS
330
19
102
}
330
19
100
AcDbPlotSettings
  1

  2
\\NT_WORK01\HP LaserJet 5000 PCL 6
  4

  6

 40
0.0
 41
0.0
 42
0.0
 43
0.0
 44
0.0
 45
0.0
 46
0.0
 47
0.0
 48
0.0
 49
0.0
140
0.0
141
0.0
142
1.0
143
1.0
 70
   688
 72
     0
 73
     0
 74
     5
  7
monochrome.ctb
 75
    16
147
1.0
 76
     0
 77
     2
 78
   300
148
0.0
149
0.0
100
AcDbLayout
  1
Layout1
 70
     0
 71
     1
 10
0.0
 20
0.0
 11
12.0
 21
9.0
 12
0.0
 22
0.0
 32
0.0
 14
1.000000000000000E+20
 24
1.000000000000000E+20
 34
1.000000000000000E+20
 15
-1.000000000000000E+20
 25
-1.000000000000000E+20
 35
-1.000000000000000E+20
146
0.0
 13
0.0
 23
0.0
 33
0.0
 16
1.0
 26
0.0
 36
0.0
 17
0.0
 27
1.0
 37
0.0
 76
     0
330
1A
  0
LAYOUT
  5
21
102
{ACAD_REACTORS
330
19
102
}
330
19
100
AcDbPlotSettings
  1

  2
none_device
  4
Letter_(8.50_x_11.00_Inches)
  6

 40
6.349999904632568
 41
6.349999904632568
 42
6.350006103515625
 43
6.350006103515625
 44
215.8999938964844
 45
279.3999938964844
 46
0.0
 47
0.0
 48
0.0
 49
0.0
140
0.0
141
0.0
142
1.0
143
1.0
 70
 11952
 72
     0
 73
     1
 74
     0
  7

 75
     0
147
1.0
 76
     0
 77
     2
 78
   300
148
1629.635535449885
149
67.53552817578496
100
AcDbLayout
  1
Model
 70
     1
 71
     0
 10
0.0
 20
0.0
 11
12.0
 21
9.0
 12
0.0
 22
0.0
 32
0.0
 14
0.0
 24
0.0
 34
0.0
 15
0.0
 25
0.0
 35
0.0
146
0.0
 13
0.0
 23
0.0
 33
0.0
 16
1.0
 26
0.0
 36
0.0
 17
0.0
 27
1.0
 37
0.0
 76
     0
330
1E
  0
MLINESTYLE
  5
17
102
{ACAD_REACTORS
330
16
102
}
330
16
100
AcDbMlineStyle
  2
STANDARD
 70
     0
  3

 62
   256
 51
90.0
 52
90.0
 71
     2
 49
0.5
 62
   256
  6
BYLAYER
 49
-0.5
 62
   256
  6
BYLAYER
  0
ACDBPLACEHOLDER
  5
F
102
{ACAD_REACTORS
330
E
102
}
330
E
  0
DICTIONARYVAR
  5
13A5
102
{ACAD_REACTORS
330
4C7
102
}
330
4C7
100
DictionaryVariables
280
     0
  1
1
  0
DICTIONARYVAR
  5
13A6
102
{ACAD_REACTORS
330
4C7
102
}
330
4C7
100
DictionaryVariables
280
     0
  1

  0
DICTIONARYVAR
  5
4C8
102
{ACAD_REACTORS
330
4C7
102
}
330
4C7
100
DictionaryVariables
280
     0
  1
96
  0
ENDSEC
  0
EOF
