  0
SECTION
  2
HEADER
  9
$ACADVER
  1
AC1018
  9
$ACADMAINTVER
 70
     2
  9
$DWGCODEPAGE
  3
ANSI_1252
  9
$INSBASE
 10
0.0
 20
0.0
 30
0.0
  9
$EXTMIN
 10
-0.005312346022265
 20
-0.003764366318137
 30
-0.0000000000000129
  9
$EXTMAX
 10
840.0085608302308
 20
594.0415651620485
 30
0.0000000000000023
  9
$LIMMIN
 10
0.0
 20
0.0
  9
$LIMMAX
 10
840.0
 20
594.0
  9
$ORTHOMODE
 70
     0
  9
$REGENMODE
 70
     1
  9
$FILLMODE
 70
     1
  9
$QTEXTMODE
 70
     0
  9
$MIRRTEXT
 70
     1
  9
$LTSCALE
 40
20.0
  9
$ATTMODE
 70
     1
  9
$TEXTSIZE
 40
3.5
  9
$TRACEWID
 40
1.0
  9
$TEXTSTYLE
  7
STANDARD
  9
$CLAYER
  8
BEM
  9
$CELTYPE
  6
ByLayer
  9
$CECOLOR
 62
   256
  9
$CELTSCALE
 40
1.0
  9
$DISPSILH
 70
     0
  9
$DIMSCALE
 40
2.0
  9
$DIMASZ
 40
3.5
  9
$DIMEXO
 40
1.0
  9
$DIMDLI
 40
7.0
  9
$DIMRND
 40
0.0
  9
$DIMDLE
 40
0.0
  9
$DIMEXE
 40
1.0
  9
$DIMTP
 40
0.0
  9
$DIMTM
 40
0.0
  9
$DIMTXT
 40
3.5
  9
$DIMCEN
 40
1.5
  9
$DIMTSZ
 40
0.0
  9
$DIMTOL
 70
     0
  9
$DIMLIM
 70
     0
  9
$DIMTIH
 70
     0
  9
$DIMTOH
 70
     0
  9
$DIMSE1
 70
     0
  9
$DIMSE2
 70
     0
  9
$DIMTAD
 70
     1
  9
$DIMZIN
 70
     8
  9
$DIMBLK
  1

  9
$DIMASO
 70
     1
  9
$DIMSHO
 70
     0
  9
$DIMPOST
  1

  9
$DIMAPOST
  1

  9
$DIMALT
 70
     0
  9
$DIMALTD
 70
     2
  9
$DIMALTF
 40
25.4
  9
$DIMLFAC
 40
1.0
  9
$DIMTOFL
 70
     1
  9
$DIMTVP
 40
0.0
  9
$DIMTIX
 70
     0
  9
$DIMSOXD
 70
     0
  9
$DIMSAH
 70
     0
  9
$DIMBLK1
  1

  9
$DIMBLK2
  1

  9
$DIMSTYLE
  2
Standard
  9
$DIMCLRD
 70
     0
  9
$DIMCLRE
 70
     0
  9
$DIMCLRT
 70
     1
  9
$DIMTFAC
 40
0.5
  9
$DIMGAP
 40
1.5
  9
$DIMJUST
 70
     0
  9
$DIMSD1
 70
     0
  9
$DIMSD2
 70
     0
  9
$DIMTOLJ
 70
     1
  9
$DIMTZIN
 70
     8
  9
$DIMALTZ
 70
     8
  9
$DIMALTTZ
 70
     8
  9
$DIMUPT
 70
     0
  9
$DIMDEC
 70
     2
  9
$DIMTDEC
 70
     2
  9
$DIMALTU
 70
     2
  9
$DIMALTTD
 70
     2
  9
$DIMTXSTY
  7
STANDARD
  9
$DIMAUNIT
 70
     0
  9
$DIMADEC
 70
     2
  9
$DIMALTRND
 40
0.0
  9
$DIMAZIN
 70
     2
  9
$DIMDSEP
 70
    46
  9
$DIMATFIT
 70
     3
  9
$DIMFRAC
 70
     0
  9
$DIMLDRBLK
  1

  9
$DIMLUNIT
 70
     2
  9
$DIMLWD
 70
    -2
  9
$DIMLWE
 70
    -2
  9
$DIMTMOVE
 70
     0
  9
$LUNITS
 70
     2
  9
$LUPREC
 70
     2
  9
$SKETCHINC
 40
1.0
  9
$FILLETRAD
 40
0.0
  9
$AUNITS
 70
     0
  9
$AUPREC
 70
     0
  9
$MENU
  1
ACAD
  9
$ELEVATION
 40
0.0
  9
$PELEVATION
 40
0.0
  9
$THICKNESS
 40
0.0
  9
$LIMCHECK
 70
     0
  9
$CHAMFERA
 40
0.0
  9
$CHAMFERB
 40
0.0
  9
$CHAMFERC
 40
0.0
  9
$CHAMFERD
 40
0.0
  9
$SKPOLY
 70
     0
  9
$TDCREATE
 40
2455397.867059838
  9
$TDUCREATE
 40
2455397.783726505
  9
$TDUPDATE
 40
2455462.351079237
  9
$TDUUPDATE
 40
2455462.267745903
  9
$TDINDWG
 40
0.0870426389
  9
$TDUSRTIMER
 40
0.0870426389
  9
$USRTIMER
 70
     1
  9
$ANGBASE
 50
0.0
  9
$ANGDIR
 70
     0
  9
$PDMODE
 70
     0
  9
$PDSIZE
 40
0.0
  9
$PLINEWID
 40
0.0
  9
$SPLFRAME
 70
     0
  9
$SPLINETYPE
 70
     6
  9
$SPLINESEGS
 70
     8
  9
$HANDSEED
  5
A9A
  9
$SURFTAB1
 70
     6
  9
$SURFTAB2
 70
     6
  9
$SURFTYPE
 70
     6
  9
$SURFU
 70
     6
  9
$SURFV
 70
     6
  9
$UCSBASE
  2

  9
$UCSNAME
  2

  9
$UCSORG
 10
0.0
 20
0.0
 30
0.0
  9
$UCSXDIR
 10
1.0
 20
0.0
 30
0.0
  9
$UCSYDIR
 10
0.0
 20
1.0
 30
0.0
  9
$UCSORTHOREF
  2

  9
$UCSORTHOVIEW
 70
     0
  9
$UCSORGTOP
 10
0.0
 20
0.0
 30
0.0
  9
$UCSORGBOTTOM
 10
0.0
 20
0.0
 30
0.0
  9
$UCSORGLEFT
 10
0.0
 20
0.0
 30
0.0
  9
$UCSORGRIGHT
 10
0.0
 20
0.0
 30
0.0
  9
$UCSORGFRONT
 10
0.0
 20
0.0
 30
0.0
  9
$UCSORGBACK
 10
0.0
 20
0.0
 30
0.0
  9
$PUCSBASE
  2

  9
$PUCSNAME
  2

  9
$PUCSORG
 10
0.0
 20
0.0
 30
0.0
  9
$PUCSXDIR
 10
1.0
 20
0.0
 30
0.0
  9
$PUCSYDIR
 10
0.0
 20
1.0
 30
0.0
  9
$PUCSORTHOREF
  2

  9
$PUCSORTHOVIEW
 70
     0
  9
$PUCSORGTOP
 10
0.0
 20
0.0
 30
0.0
  9
$PUCSORGBOTTOM
 10
0.0
 20
0.0
 30
0.0
  9
$PUCSORGLEFT
 10
0.0
 20
0.0
 30
0.0
  9
$PUCSORGRIGHT
 10
0.0
 20
0.0
 30
0.0
  9
$PUCSORGFRONT
 10
0.0
 20
0.0
 30
0.0
  9
$PUCSORGBACK
 10
0.0
 20
0.0
 30
0.0
  9
$USERI1
 70
     0
  9
$USERI2
 70
     0
  9
$USERI3
 70
     0
  9
$USERI4
 70
     0
  9
$USERI5
 70
     0
  9
$USERR1
 40
0.0
  9
$USERR2
 40
0.0
  9
$USERR3
 40
0.0
  9
$USERR4
 40
0.0
  9
$USERR5
 40
0.0
  9
$WORLDVIEW
 70
     1
  9
$SHADEDGE
 70
     3
  9
$SHADEDIF
 70
    70
  9
$TILEMODE
 70
     1
  9
$MAXACTVP
 70
    16
  9
$PINSBASE
 10
0.0
 20
0.0
 30
0.0
  9
$PLIMCHECK
 70
     0
  9
$PEXTMIN
 10
1.000000000000000E+20
 20
1.000000000000000E+20
 30
1.000000000000000E+20
  9
$PEXTMAX
 10
-1.000000000000000E+20
 20
-1.000000000000000E+20
 30
-1.000000000000000E+20
  9
$PLIMMIN
 10
0.0
 20
0.0
  9
$PLIMMAX
 10
12.0
 20
9.0
  9
$UNITMODE
 70
     0
  9
$VISRETAIN
 70
     0
  9
$PLINEGEN
 70
     0
  9
$PSLTSCALE
 70
     0
  9
$TREEDEPTH
 70
  3020
  9
$CMLSTYLE
  2
Standard
  9
$CMLJUST
 70
     0
  9
$CMLSCALE
 40
1.0
  9
$PROXYGRAPHICS
 70
     1
  9
$MEASUREMENT
 70
     0
  9
$CELWEIGHT
370
    -1
  9
$ENDCAPS
280
     0
  9
$JOINSTYLE
280
     0
  9
$LWDISPLAY
290
     0
  9
$INSUNITS
 70
     0
  9
$HYPERLINKBASE
  1

  9
$STYLESHEET
  1
monochrome 1.ctb
  9
$XEDIT
290
     1
  9
$CEPSNTYPE
380
     0
  9
$PSTYLEMODE
290
     1
  9
$FINGERPRINTGUID
  2
{D68B0D0D-A558-11D7-B632-000102183313}
  9
$VERSIONGUID
  2
{185437AF-1133-40D3-97C0-8FE543C08560}
  9
$EXTNAMES
290
     1
  9
$PSVPSCALE
 40
0.0
  9
$OLESTARTUP
290
     0
  9
$SORTENTS
280
   127
  9
$INDEXCTL
280
     0
  9
$HIDETEXT
280
     0
  9
$XCLIPFRAME
290
     0
  9
$HALOGAP
280
     0
  9
$OBSCOLOR
 70
   257
  9
$OBSLTYPE
280
     0
  9
$INTERSECTIONDISPLAY
280
     0
  9
$INTERSECTIONCOLOR
 70
   257
  9
$DIMASSOC
280
     1
  9
$PROJECTNAME
  1

  0
ENDSEC
  0
SECTION
  2
CLASSES
  0
CLASS
  1
ACDBDICTIONARYWDFLT
  2
AcDbDictionaryWithDefault
  3
ObjectDBX Classes
 90
        0
 91
        1
280
     0
281
     0
  0
CLASS
  1
DICTIONARYVAR
  2
AcDbDictionaryVar
  3
ObjectDBX Classes
 90
        0
 91
        2
280
     0
281
     0
  0
ENDSEC
  0
SECTION
  2
TABLES
  0
TABLE
  2
VPORT
  5
8
330
0
100
AcDbSymbolTable
 70
     2
  0
VPORT
  5
A99
330
8
100
AcDbSymbolTableRecord
100
AcDbViewportTableRecord
  2
*Active
 70
     0
 10
0.0
 20
0.0
 11
1.0
 21
1.0
 12
420.0016242421042
 22
297.0189003978652
 13
0.0
 23
0.0
 14
1.0
 24
1.0
 15
10.0
 25
10.0
 16
0.0
 26
0.0
 36
1.0
 17
0.0
 27
0.0
 37
0.0
 40
632.1120171138971
 41
1.336927223719676
 42
50.0
 43
0.0
 44
0.0
 50
0.0
 51
0.0
 71
     0
 72
  1500
 73
     1
 74
     0
 75
     0
 76
     0
 77
     0
 78
     0
281
     0
 65
     1
110
0.0
120
0.0
130
0.0
111
1.0
121
0.0
131
0.0
112
0.0
122
1.0
132
0.0
 79
     0
146
0.0
  0
ENDTAB
  0
TABLE
  2
LTYPE
  5
5
330
0
100
AcDbSymbolTable
 70
     3
  0
LTYPE
  5
13
330
5
100
AcDbSymbolTableRecord
100
AcDbLinetypeTableRecord
  2
ByBlock
 70
     0
  3

 72
    65
 73
     0
 40
0.0
  0
LTYPE
  5
14
330
5
100
AcDbSymbolTableRecord
100
AcDbLinetypeTableRecord
  2
ByLayer
 70
     0
  3

 72
    65
 73
     0
 40
0.0
  0
LTYPE
  5
15
330
5
100
AcDbSymbolTableRecord
100
AcDbLinetypeTableRecord
  2
Continuous
 70
     0
  3
Solid line
 72
    65
 73
     0
 40
0.0
  0
LTYPE
  5
25
330
5
100
AcDbSymbolTableRecord
100
AcDbLinetypeTableRecord
  2
STRICHPUNKT
 70
     0
  3
__ . __ . __ . __ . __ . __ . __ . __ . __ . __
 72
    65
 73
     4
 40
1.0
 49
0.5
 74
     0
 49
-0.25
 74
     0
 49
0.0
 74
     0
 49
-0.25
 74
     0
  0
LTYPE
  5
34
330
5
100
AcDbSymbolTableRecord
100
AcDbLinetypeTableRecord
  2
AUSGEZOGEN
 70
     0
  3
Ausgezogene Linie
 72
    65
 73
     0
 40
0.0
  0
ENDTAB
  0
TABLE
  2
LAYER
  5
2
330
0
100
AcDbSymbolTable
 70
     9
  0
LAYER
  5
10
330
2
100
AcDbSymbolTableRecord
100
AcDbLayerTableRecord
  2
0
 70
     0
 62
     7
  6
Continuous
370
    -3
390
F
  0
LAYER
  5
2B
330
2
100
AcDbSymbolTableRecord
100
AcDbLayerTableRecord
  2
VOLL
 70
     0
 62
     1
  6
Continuous
370
    -3
390
F
  0
LAYER
  5
2C
330
2
100
AcDbSymbolTableRecord
100
AcDbLayerTableRecord
  2
HILF
 70
     0
 62
     2
  6
Continuous
370
    -3
390
F
  0
LAYER
  5
2D
330
2
100
AcDbSymbolTableRecord
100
AcDbLayerTableRecord
  2
MITTEL
 70
     0
 62
     2
  6
STRICHPUNKT
370
    -3
390
F
  0
LAYER
  5
2F
330
2
100
AcDbSymbolTableRecord
100
AcDbLayerTableRecord
  2
BEM
 70
     0
 62
     7
  6
Continuous
370
    -3
390
F
  0
LAYER
  5
30
330
2
100
AcDbSymbolTableRecord
100
AcDbLayerTableRecord
  2
STEMPEL
 70
     0
 62
     3
  6
Continuous
370
    -3
390
F
  0
LAYER
  5
33
330
2
100
AcDbSymbolTableRecord
100
AcDbLayerTableRecord
  2
TEXT
 70
     0
 62
     7
  6
Continuous
370
    -3
390
F
  0
LAYER
  5
513
330
2
100
AcDbSymbolTableRecord
100
AcDbLayerTableRecord
  2
DEFPOINTS
 70
     0
 62
     7
  6
AUSGEZOGEN
290
     0
370
    -3
390
F
  0
LAYER
  5
514
330
2
100
AcDbSymbolTableRecord
100
AcDbLayerTableRecord
  2
SCHRAFF
 70
     0
 62
     7
  6
AUSGEZOGEN
370
    -3
390
F
  0
ENDTAB
  0
TABLE
  2
STYLE
  5
3
330
0
100
AcDbSymbolTable
 70
     2
  0
STYLE
  5
11
330
3
100
AcDbSymbolTableRecord
100
AcDbTextStyleTableRecord
  2
STANDARD
 70
     0
 40
0.0
 41
0.8
 50
0.0
 71
     0
 42
3.5
  3
simplex.shx
  4

  0
STYLE
  5
24
330
3
100
AcDbSymbolTableRecord
100
AcDbTextStyleTableRecord
  2
GREEKS
 70
     0
 40
0.0
 41
0.8
 50
0.0
 71
     0
 42
2.5
  3
SIMPLEX.shx
  4

  0
ENDTAB
  0
TABLE
  2
VIEW
  5
6
330
0
100
AcDbSymbolTable
 70
     0
  0
ENDTAB
  0
TABLE
  2
UCS
  5
7
330
0
100
AcDbSymbolTable
 70
     0
  0
ENDTAB
  0
TABLE
  2
APPID
  5
9
330
0
100
AcDbSymbolTable
 70
     1
  0
APPID
  5
12
330
9
100
AcDbSymbolTableRecord
100
AcDbRegAppTableRecord
  2
ACAD
 70
     0
  0
ENDTAB
  0
TABLE
  2
DIMSTYLE
  5
A
330
0
100
AcDbSymbolTable
 70
     1
100
AcDbDimStyleTable
 71
     1
340
A2
  0
DIMSTYLE
105
A2
102
{ACAD_REACTORS
330
6BE
330
6BC
330
6B4
330
649
330
970
330
97D
330
9A6
330
9B3
102
}
330
A
100
AcDbSymbolTableRecord
100
AcDbDimStyleTableRecord
  2
Standard
 70
     0
340
11
  0
ENDTAB
  0
TABLE
  2
BLOCK_RECORD
  5
1
330
0
100
AcDbSymbolTable
 70
    10
  0
BLOCK_RECORD
  5
1E
102
{ACAD_XDICTIONARY
360
DB
102
}
330
1
100
AcDbSymbolTableRecord
100
AcDbBlockTableRecord
  2
*Model_Space
340
21
  0
BLOCK_RECORD
  5
1A
102
{ACAD_XDICTIONARY
360
DD
102
}
330
1
100
AcDbSymbolTableRecord
100
AcDbBlockTableRecord
  2
*Paper_Space
340
1D
  0
BLOCK_RECORD
  5
22
330
1
100
AcDbSymbolTableRecord
100
AcDbBlockTableRecord
  2
LOGO
340
0
102
{BLKREFS
331
56
102
}
  0
BLOCK_RECORD
  5
23
330
1
100
AcDbSymbolTableRecord
100
AcDbBlockTableRecord
  2
LORO
340
0
102
{BLKREFS
331
9B
102
}
  0
BLOCK_RECORD
  5
6C7
330
1
100
AcDbSymbolTableRecord
100
AcDbBlockTableRecord
  2
*D2
340
0
  0
BLOCK_RECORD
  5
6DF
330
1
100
AcDbSymbolTableRecord
100
AcDbBlockTableRecord
  2
*D3
340
0
  0
BLOCK_RECORD
  5
6EB
330
1
100
AcDbSymbolTableRecord
100
AcDbBlockTableRecord
  2
*D4
340
0
  0
BLOCK_RECORD
  5
6F8
330
1
100
AcDbSymbolTableRecord
100
AcDbBlockTableRecord
  2
*D5
340
0
  0
BLOCK_RECORD
  5
971
330
1
100
AcDbSymbolTableRecord
100
AcDbBlockTableRecord
  2
*D6
340
0
  0
BLOCK_RECORD
  5
97E
330
1
100
AcDbSymbolTableRecord
100
AcDbBlockTableRecord
  2
*D7
340
0
  0
BLOCK_RECORD
  5
9A7
330
1
100
AcDbSymbolTableRecord
100
AcDbBlockTableRecord
  2
*D8
340
0
  0
BLOCK_RECORD
  5
9B4
330
1
100
AcDbSymbolTableRecord
100
AcDbBlockTableRecord
  2
*D9
340
0
  0
ENDTAB
  0
ENDSEC
  0
SECTION
  2
BLOCKS
  0
BLOCK
  5
37
330
1E
100
AcDbEntity
  8
0
100
AcDbBlockBegin
  2
*Model_Space
 70
     0
 10
0.0
 20
0.0
 30
0.0
  3
*Model_Space
  1

  0
ENDBLK
  5
38
330
1E
100
AcDbEntity
  8
0
100
AcDbBlockEnd
  0
BLOCK
  5
35
330
1A
100
AcDbEntity
 67
     1
  8
0
100
AcDbBlockBegin
  2
*Paper_Space
 70
     0
 10
0.0
 20
0.0
 30
0.0
  3
*Paper_Space
  1

  0
ENDBLK
  5
36
330
1A
100
AcDbEntity
 67
     1
  8
0
100
AcDbBlockEnd
  0
BLOCK
  5
39
330
22
100
AcDbEntity
  8
0
100
AcDbBlockBegin
  2
LOGO
 70
     0
 10
0.0
 20
0.0
 30
0.0
  3
LOGO
  1

  0
ARC
  5
3A
330
22
100
AcDbEntity
  8
0
100
AcDbCircle
 10
11.59973089678112
 20
-9.271599258481501
 30
0.0
 40
4.5
100
AcDbArc
 50
270.0
 51
231.0575587310159
  0
LINE
  5
3B
330
22
100
AcDbEntity
  8
0
100
AcDbLine
 10
3.599730896781125
 20
-4.771599258481529
 30
0.0
 11
3.599730896781153
 21
-11.77159925848133
 31
0.0
  0
LINE
  5
3C
330
22
100
AcDbEntity
  8
0
100
AcDbLine
 10
2.599730896781125
 20
-4.771599258481529
 30
0.0
 11
2.599730896781153
 21
-11.77159925848133
 31
0.0
  0
CIRCLE
  5
3D
330
22
100
AcDbEntity
  8
0
100
AcDbCircle
 10
11.59973089678112
 20
-9.271599258481501
 30
0.0
 40
3.5
  0
ARC
  5
3E
330
22
100
AcDbEntity
  8
0
100
AcDbCircle
 10
31.59973089678115
 20
-9.271599258481472
 30
0.0
 40
4.5
100
AcDbArc
 50
270.0
 51
231.0575587310182
  0
LINE
  5
3F
330
22
100
AcDbEntity
  8
0
100
AcDbLine
 10
17.59973089678112
 20
-4.771599258481472
 30
0.0
 11
17.59973089678115
 21
-13.77159925848147
 31
0.0
  0
ARC
  5
40
330
22
100
AcDbEntity
  8
0
100
AcDbCircle
 10
22.59973089678116
 20
-7.271599258481472
 30
0.0
 40
2.5
100
AcDbArc
 50
293.1161887722295
 51
90.0
  0
CIRCLE
  5
41
330
22
100
AcDbEntity
  8
0
100
AcDbCircle
 10
31.59973089678115
 20
-9.271599258481472
 30
0.0
 40
3.5
  0
ARC
  5
42
330
22
100
AcDbEntity
  8
0
100
AcDbCircle
 10
4.599730896781153
 20
-11.77159925848133
 30
0.0
 40
1.0
100
AcDbArc
 50
180.0
 51
270.0
  0
ARC
  5
43
330
22
100
AcDbEntity
  8
0
100
AcDbCircle
 10
4.599730896781153
 20
-11.77159925848133
 30
0.0
 40
2.0
100
AcDbArc
 50
179.9999999999992
 51
270.0
  0
LINE
  5
44
330
22
100
AcDbEntity
  8
0
100
AcDbLine
 10
11.59973089678115
 20
-13.77159925848144
 30
0.0
 11
4.599730896781153
 21
-13.77159925848147
 31
0.0
  0
LINE
  5
45
330
22
100
AcDbEntity
  8
0
100
AcDbLine
 10
8.771303772034769
 20
-12.77159925848136
 30
0.0
 11
4.599730896781153
 21
-12.77159925848133
 31
0.0
  0
LINE
  5
46
330
22
100
AcDbEntity
  8
0
100
AcDbLine
 10
31.59973089678115
 20
-13.77159925848147
 30
0.0
 11
23.6715276665056
 21
-13.77159925848144
 31
0.0
  0
LINE
  5
47
330
22
100
AcDbEntity
  8
0
100
AcDbLine
 10
23.56565672307022
 20
-9.51278021337896
 30
0.0
 11
24.4388546544846
 21
-12.77159925848144
 31
0.0
  0
LINE
  5
48
330
22
100
AcDbEntity
  8
0
100
AcDbLine
 10
22.59973089678116
 20
-9.771599258481472
 30
0.0
 11
18.59973089678112
 21
-9.771599258481472
 31
0.0
  0
LINE
  5
49
330
22
100
AcDbEntity
  8
0
100
AcDbLine
 10
18.59973089678115
 20
-13.77159925848144
 30
0.0
 11
17.59973089678115
 21
-13.77159925848144
 31
0.0
  0
LINE
  5
4A
330
22
100
AcDbEntity
  8
0
100
AcDbLine
 10
18.59973089678115
 20
-9.771599258481472
 30
0.0
 11
18.59973089678115
 21
-13.77159925848144
 31
0.0
  0
LINE
  5
4B
330
22
100
AcDbEntity
  8
0
100
AcDbLine
 10
22.59973089678116
 20
-9.771599258481472
 30
0.0
 11
23.67152766650562
 21
-13.77159925848147
 31
0.0
  0
ARC
  5
4C
330
22
100
AcDbEntity
  8
0
100
AcDbCircle
 10
22.59973089678116
 20
-7.271599258481472
 30
0.0
 40
2.5
100
AcDbArc
 50
270.0
 51
270.0000000000007
  0
LINE
  5
4D
330
22
100
AcDbEntity
  8
0
100
AcDbLine
 10
28.77130377203494
 20
-12.77159925848147
 30
0.0
 11
24.43885465448463
 21
-12.77159925848144
 31
0.0
  0
LINE
  5
4E
330
22
100
AcDbEntity
  8
0
100
AcDbLine
 10
3.599730896781125
 20
-4.771599258481472
 30
0.0
 11
2.599730896781125
 21
-4.771599258481472
 31
0.0
  0
LINE
  5
4F
330
22
100
AcDbEntity
  8
0
100
AcDbLine
 10
22.59973089678116
 20
-8.771599258481472
 30
0.0
 11
18.59973089678115
 21
-8.771599258481472
 31
0.0
  0
LINE
  5
50
330
22
100
AcDbEntity
  8
0
100
AcDbLine
 10
22.59973089678116
 20
-5.771599258481472
 30
0.0
 11
18.59973089678115
 21
-5.771599258481472
 31
0.0
  0
LINE
  5
51
330
22
100
AcDbEntity
  8
0
100
AcDbLine
 10
22.59973089678116
 20
-4.771599258481472
 30
0.0
 11
17.59973089678115
 21
-4.771599258481472
 31
0.0
  0
LINE
  5
52
330
22
100
AcDbEntity
  8
0
100
AcDbLine
 10
18.59973089678115
 20
-5.771599258481472
 30
0.0
 11
18.59973089678115
 21
-8.771599258481472
 31
0.0
  0
ARC
  5
53
330
22
100
AcDbEntity
  8
0
100
AcDbCircle
 10
22.59973089678116
 20
-7.271599258481472
 30
0.0
 40
1.5
100
AcDbArc
 50
270.0
 51
90.0
  0
ENDBLK
  5
54
330
22
100
AcDbEntity
  8
0
100
AcDbBlockEnd
  0
BLOCK
  5
55
330
23
100
AcDbEntity
  8
0
100
AcDbBlockBegin
  2
LORO
 70
     0
 10
0.0
 20
0.0
 30
0.0
  3
LORO
  1

  0
INSERT
  5
56
330
23
100
AcDbEntity
  8
STEMPEL
100
AcDbBlockReference
  2
LOGO
 10
-1.748032802467321
 20
3.771489518552062
 30
0.0
  0
ENDBLK
  5
57
330
23
100
AcDbEntity
  8
0
100
AcDbBlockEnd
  0
BLOCK
  5
6D1
330
6C7
100
AcDbEntity
  8
0
100
AcDbBlockBegin
  2
*D2
 70
     1
 10
0.0
 20
0.0
 30
0.0
  3
*D2
  1

  0
LINE
  5
777
330
6C7
100
AcDbEntity
  8
BEM
 62
     0
370
    -2
100
AcDbLine
 10
630.5600842194975
 20
256.7590162126224
 30
0.0
 11
659.6692405991047
 21
255.2334699699642
 31
0.0
  0
LINE
  5
778
330
6C7
100
AcDbEntity
  8
BEM
 62
     0
370
    -2
100
AcDbLine
 10
634.3806090252327
 20
329.6589722497062
 30
0.0
 11
663.4897654048401
 21
328.133426007048
 31
0.0
  0
LINE
  5
779
330
6C7
100
AcDbEntity
  8
BEM
 62
     0
370
    -2
100
AcDbLine
 10
658.0383332232962
 20
262.3285486257322
 30
0.0
 11
661.1261546416304
 21
321.2476911762518
 31
0.0
  0
SOLID
  5
77A
330
6C7
100
AcDbEntity
  8
BEM
 62
     0
100
AcDbTrace
 10
656.8732654327493
 20
262.389607241349
 30
0.0
 11
659.2034010138433
 21
262.2674900101154
 31
0.0
 12
657.6719815295956
 22
255.3381418824502
 32
0.0
 13
657.6719815295956
 23
255.3381418824502
 33
0.0
  0
SOLID
  5
77B
330
6C7
100
AcDbEntity
  8
BEM
 62
     0
100
AcDbTrace
 10
659.9610868510835
 20
321.3087497918686
 30
0.0
 11
662.2912224321773
 21
321.1866325606351
 31
0.0
 12
661.4925063353309
 22
328.2380979195338
 32
0.0
 13
661.4925063353309
 23
328.2380979195338
 33
0.0
  0
MTEXT
  5
77C
330
6C7
100
AcDbEntity
  8
BEM
 62
     1
100
AcDbMText
 10
653.0911519565586
 20
292.1283036165712
 30
0.0
 40
7.0
 41
0.0
 71
     5
 72
     1
  1
\A1;%%C73
 11
0.0523359562429497
 21
0.9986295347545736
 31
0.0
 73
     1
 44
1.0
  0
POINT
  5
77D
330
6C7
100
AcDbEntity
  8
DEFPOINTS
 62
     0
100
AcDbPoint
 10
628.5628251499884
 20
256.8636881251083
 30
0.0
  0
POINT
  5
77E
330
6C7
100
AcDbEntity
  8
DEFPOINTS
 62
     0
100
AcDbPoint
 10
632.3833499557236
 20
329.763644162192
 30
0.0
  0
POINT
  5
77F
330
6C7
100
AcDbEntity
  8
DEFPOINTS
 62
     0
100
AcDbPoint
 10
661.4925063353309
 20
328.2380979195338
 30
0.0
  0
ENDBLK
  5
6D2
330
6C7
100
AcDbEntity
  8
0
100
AcDbBlockEnd
  0
BLOCK
  5
6E9
330
6DF
100
AcDbEntity
  8
0
100
AcDbBlockBegin
  2
*D3
 70
     1
 10
0.0
 20
0.0
 30
0.0
  3
*D3
  1

  0
LINE
  5
99C
330
6DF
100
AcDbEntity
  8
BEM
 62
     0
370
    -2
100
AcDbLine
 10
390.459382900402
 20
259.6727344417878
 30
0.0
 11
390.459382900402
 21
207.2643827922246
 31
0.0
  0
LINE
  5
99D
330
6DF
100
AcDbEntity
  8
BEM
 62
     0
370
    -2
100
AcDbLine
 10
640.459382900402
 20
290.7903065812208
 30
0.0
 11
640.459382900402
 21
207.2643827922246
 31
0.0
  0
LINE
  5
99E
330
6DF
100
AcDbEntity
  8
BEM
 62
     0
370
    -2
100
AcDbLine
 10
397.459382900402
 20
209.2643827922246
 30
0.0
 11
633.459382900402
 21
209.2643827922246
 31
0.0
  0
SOLID
  5
99F
330
6DF
100
AcDbEntity
  8
BEM
 62
     0
100
AcDbTrace
 10
397.459382900402
 20
210.4310494588912
 30
0.0
 11
397.459382900402
 21
208.0977161255579
 31
0.0
 12
390.459382900402
 22
209.2643827922246
 32
0.0
 13
390.459382900402
 23
209.2643827922246
 33
0.0
  0
SOLID
  5
9A0
330
6DF
100
AcDbEntity
  8
BEM
 62
     0
100
AcDbTrace
 10
633.459382900402
 20
210.4310494588912
 30
0.0
 11
633.459382900402
 21
208.0977161255579
 31
0.0
 12
640.459382900402
 22
209.2643827922246
 32
0.0
 13
640.459382900402
 23
209.2643827922246
 33
0.0
  0
MTEXT
  5
9A1
330
6DF
100
AcDbEntity
  8
BEM
 62
     1
100
AcDbMText
 10
515.459382900402
 20
215.7643827922246
 30
0.0
 40
7.0
 41
0.0
 71
     5
 72
     1
  1
\A1;250
 73
     1
 44
1.0
  0
POINT
  5
9A2
330
6DF
100
AcDbEntity
  8
DEFPOINTS
 62
     0
100
AcDbPoint
 10
390.459382900402
 20
261.6727344417878
 30
0.0
  0
POINT
  5
9A3
330
6DF
100
AcDbEntity
  8
DEFPOINTS
 62
     0
100
AcDbPoint
 10
640.459382900402
 20
292.7903065812208
 30
0.0
  0
POINT
  5
9A4
330
6DF
100
AcDbEntity
  8
DEFPOINTS
 62
     0
100
AcDbPoint
 10
640.459382900402
 20
209.2643827922246
 30
0.0
  0
ENDBLK
  5
6EA
330
6DF
100
AcDbEntity
  8
0
100
AcDbBlockEnd
  0
BLOCK
  5
6F6
330
6EB
100
AcDbEntity
  8
0
100
AcDbBlockBegin
  2
*D4
 70
     1
 10
0.0
 20
0.0
 30
0.0
  3
*D4
  1

  0
LINE
  5
A1C
330
6EB
100
AcDbEntity
  8
BEM
 62
     0
370
    -2
100
AcDbLine
 10
392.4593829004018
 20
305.892251401981
 30
0.0
 11
470.9717811122608
 21
305.8922514019807
 31
0.0
  0
ARC
  5
A1D
330
6EB
100
AcDbEntity
  8
BEM
 62
     0
370
    -2
100
AcDbCircle
 10
390.4593829004019
 20
305.892251401981
 30
0.0
 40
78.51239821185892
100
AcDbArc
 50
346.9893473993679
 51
352.0994118568761
  0
ARC
  5
A1E
330
6EB
100
AcDbEntity
  8
BEM
 62
     0
370
    -2
100
AcDbCircle
 10
390.4593829004019
 20
305.892251401981
 30
0.0
 40
78.51239821185892
100
AcDbArc
 50
5.110064457507993
 51
10.22012891501622
  0
ARC
  5
A1F
330
6EB
100
AcDbEntity
  8
BEM
 62
     0
370
    -2
100
AcDbCircle
 10
390.4593829004019
 20
305.892251401981
 30
0.0
 40
78.51239821185892
100
AcDbArc
 50
357.2094763143844
 51
359.9999999999998
  0
SOLID
  5
A20
330
6EB
100
AcDbEntity
  8
BEM
 62
     0
100
AcDbTrace
 10
467.0649527728797
 20
295.2090414911596
 30
0.0
 11
469.3881382984556
 21
294.9916628854974
 31
0.0
 12
468.8786813526544
 22
302.0699087650558
 32
0.0
 13
468.8786813526544
 23
302.0699087650558
 33
0.0
  0
SOLID
  5
A21
330
6EB
100
AcDbEntity
  8
BEM
 62
     0
100
AcDbTrace
 10
469.8252353287607
 20
312.9373012251863
 30
0.0
 11
467.494221644667
 21
312.8332836833374
 31
0.0
 12
468.9717811122608
 22
305.8922514019807
 32
0.0
 13
468.9717811122608
 23
305.8922514019807
 33
0.0
  0
MTEXT
  5
A22
330
6EB
100
AcDbEntity
  8
BEM
 62
     1
100
AcDbMText
 10
475.1702577426746
 20
313.0459590552533
 30
0.0
 40
7.0
 41
0.0
 71
     5
 72
     1
  1
\A1;3°
 11
0.084148992426311
 21
-0.9964531835834723
 31
0.0
 73
     1
 44
1.0
  0
POINT
  5
A23
330
6EB
100
AcDbEntity
  8
DEFPOINTS
 62
     0
100
AcDbPoint
 10
468.930398896944
 20
303.3434631706952
 30
0.0
  0
POINT
  5
A24
330
6EB
100
AcDbEntity
  8
DEFPOINTS
 62
     0
100
AcDbPoint
 10
390.4593829004019
 20
305.892251401981
 30
0.0
  0
POINT
  5
A25
330
6EB
100
AcDbEntity
  8
DEFPOINTS
 62
     0
100
AcDbPoint
 10
390.4593829004019
 20
305.892251401981
 30
0.0
  0
POINT
  5
A26
330
6EB
100
AcDbEntity
  8
DEFPOINTS
 62
     0
100
AcDbPoint
 10
664.627913984574
 20
292.5286268000058
 30
0.0
  0
POINT
  5
A27
330
6EB
100
AcDbEntity
  8
DEFPOINTS
 62
     0
100
AcDbPoint
 10
380.1172979656805
 20
305.8922514019811
 30
0.0
  0
ENDBLK
  5
6F7
330
6EB
100
AcDbEntity
  8
0
100
AcDbBlockEnd
  0
BLOCK
  5
702
330
6F8
100
AcDbEntity
  8
0
100
AcDbBlockBegin
  2
*D5
 70
     1
 10
0.0
 20
0.0
 30
0.0
  3
*D5
  1

  0
LINE
  5
942
330
6F8
100
AcDbEntity
  8
BEM
 62
     0
370
    -2
100
AcDbLine
 10
252.959382900402
 20
392.6727344417878
 30
0.0
 11
252.959382900402
 21
407.5270254642735
 31
0.0
  0
LINE
  5
943
330
6F8
100
AcDbEntity
  8
BEM
 62
     0
370
    -2
100
AcDbLine
 10
527.9593829004018
 20
392.6727344417878
 30
0.0
 11
527.9593829004018
 21
407.5270254642735
 31
0.0
  0
LINE
  5
944
330
6F8
100
AcDbEntity
  8
BEM
 62
     0
370
    -2
100
AcDbLine
 10
259.959382900402
 20
405.5270254642736
 30
0.0
 11
520.9593829004018
 21
405.5270254642736
 31
0.0
  0
SOLID
  5
945
330
6F8
100
AcDbEntity
  8
BEM
 62
     0
100
AcDbTrace
 10
259.959382900402
 20
406.6936921309403
 30
0.0
 11
259.959382900402
 21
404.3603587976069
 31
0.0
 12
252.959382900402
 22
405.5270254642736
 32
0.0
 13
252.959382900402
 23
405.5270254642736
 33
0.0
  0
SOLID
  5
946
330
6F8
100
AcDbEntity
  8
BEM
 62
     0
100
AcDbTrace
 10
520.9593829004018
 20
406.6936921309403
 30
0.0
 11
520.9593829004018
 21
404.3603587976069
 31
0.0
 12
527.9593829004018
 22
405.5270254642736
 32
0.0
 13
527.9593829004018
 23
405.5270254642736
 33
0.0
  0
MTEXT
  5
947
330
6F8
100
AcDbEntity
  8
BEM
 62
     1
100
AcDbMText
 10
390.4593829004019
 20
412.0270254642735
 30
0.0
 40
7.0
 41
0.0
 71
     5
 72
     1
  1
\A1;%%c275
 73
     1
 44
1.0
  0
POINT
  5
948
330
6F8
100
AcDbEntity
  8
DEFPOINTS
 62
     0
100
AcDbPoint
 10
252.959382900402
 20
390.6727344417878
 30
0.0
  0
POINT
  5
949
330
6F8
100
AcDbEntity
  8
DEFPOINTS
 62
     0
100
AcDbPoint
 10
527.9593829004018
 20
390.6727344417878
 30
0.0
  0
POINT
  5
94A
330
6F8
100
AcDbEntity
  8
DEFPOINTS
 62
     0
100
AcDbPoint
 10
527.9593829004018
 20
405.5270254642736
 30
0.0
  0
ENDBLK
  5
703
330
6F8
100
AcDbEntity
  8
0
100
AcDbBlockEnd
  0
BLOCK
  5
97B
330
971
100
AcDbEntity
  8
0
100
AcDbBlockBegin
  2
*D6
 70
     1
 10
0.0
 20
0.0
 30
0.0
  3
*D6
  1

  0
LINE
  5
972
330
971
100
AcDbEntity
  8
BEM
 62
     0
370
    -2
100
AcDbLine
 10
228.4593829004018
 20
392.6727344417878
 30
0.0
 11
215.2541298037038
 21
392.6727344417878
 31
0.0
  0
LINE
  5
973
330
971
100
AcDbEntity
  8
BEM
 62
     0
370
    -2
100
AcDbLine
 10
353.663962570036
 20
242.6727344417878
 30
0.0
 11
215.2541298037038
 21
242.6727344417879
 31
0.0
  0
LINE
  5
974
330
971
100
AcDbEntity
  8
BEM
 62
     0
370
    -2
100
AcDbLine
 10
217.2541298037038
 20
385.6727344417878
 30
0.0
 11
217.2541298037038
 21
249.6727344417879
 31
0.0
  0
SOLID
  5
975
330
971
100
AcDbEntity
  8
BEM
 62
     0
100
AcDbTrace
 10
216.0874631370372
 20
385.6727344417878
 30
0.0
 11
218.4207964703705
 21
385.6727344417878
 31
0.0
 12
217.2541298037038
 22
392.6727344417878
 32
0.0
 13
217.2541298037038
 23
392.6727344417878
 33
0.0
  0
SOLID
  5
976
330
971
100
AcDbEntity
  8
BEM
 62
     0
100
AcDbTrace
 10
216.0874631370371
 20
249.6727344417879
 30
0.0
 11
218.4207964703705
 21
249.6727344417879
 31
0.0
 12
217.2541298037038
 22
242.6727344417879
 32
0.0
 13
217.2541298037038
 23
242.6727344417879
 33
0.0
  0
MTEXT
  5
977
330
971
100
AcDbEntity
  8
BEM
 62
     1
100
AcDbMText
 10
210.7541298037038
 20
317.6727344417879
 30
0.0
 40
7.0
 41
0.0
 71
     5
 72
     1
  1
\A1;150
 11
0.0000000000000001
 21
1.0
 31
0.0
 73
     1
 44
1.0
  0
POINT
  5
978
330
971
100
AcDbEntity
  8
DEFPOINTS
 62
     0
100
AcDbPoint
 10
230.4593829004018
 20
392.6727344417878
 30
0.0
  0
POINT
  5
979
330
971
100
AcDbEntity
  8
DEFPOINTS
 62
     0
100
AcDbPoint
 10
355.663962570036
 20
242.6727344417878
 30
0.0
  0
POINT
  5
97A
330
971
100
AcDbEntity
  8
DEFPOINTS
 62
     0
100
AcDbPoint
 10
217.2541298037038
 20
242.6727344417879
 30
0.0
  0
ENDBLK
  5
97C
330
971
100
AcDbEntity
  8
0
100
AcDbBlockEnd
  0
BLOCK
  5
988
330
97E
100
AcDbEntity
  8
0
100
AcDbBlockBegin
  2
*D7
 70
     1
 10
0.0
 20
0.0
 30
0.0
  3
*D7
  1

  0
LINE
  5
993
330
97E
100
AcDbEntity
  8
BEM
 62
     0
370
    -2
100
AcDbLine
 10
300.4593829004019
 20
392.6727344417878
 30
0.0
 11
300.4593829004019
 21
424.399458139615
 31
0.0
  0
LINE
  5
994
330
97E
100
AcDbEntity
  8
BEM
 62
     0
370
    -2
100
AcDbLine
 10
590.410740179981
 20
390.7080573089428
 30
0.0
 11
590.410740179981
 21
424.399458139615
 31
0.0
  0
LINE
  5
995
330
97E
100
AcDbEntity
  8
BEM
 62
     0
370
    -2
100
AcDbLine
 10
307.4593829004019
 20
422.399458139615
 30
0.0
 11
583.410740179981
 21
422.399458139615
 31
0.0
  0
SOLID
  5
996
330
97E
100
AcDbEntity
  8
BEM
 62
     0
100
AcDbTrace
 10
307.4593829004019
 20
423.5661248062816
 30
0.0
 11
307.4593829004019
 21
421.2327914729483
 31
0.0
 12
300.4593829004019
 22
422.399458139615
 32
0.0
 13
300.4593829004019
 23
422.399458139615
 33
0.0
  0
SOLID
  5
997
330
97E
100
AcDbEntity
  8
BEM
 62
     0
100
AcDbTrace
 10
583.410740179981
 20
423.5661248062816
 30
0.0
 11
583.410740179981
 21
421.2327914729483
 31
0.0
 12
590.410740179981
 22
422.399458139615
 32
0.0
 13
590.410740179981
 23
422.399458139615
 33
0.0
  0
MTEXT
  5
998
330
97E
100
AcDbEntity
  8
BEM
 62
     1
100
AcDbMText
 10
445.4350615401915
 20
428.899458139615
 30
0.0
 40
7.0
 41
0.0
 71
     5
 72
     1
  1
\A1;290
 73
     1
 44
1.0
  0
POINT
  5
999
330
97E
100
AcDbEntity
  8
DEFPOINTS
 62
     0
100
AcDbPoint
 10
300.4593829004019
 20
390.6727344417878
 30
0.0
  0
POINT
  5
99A
330
97E
100
AcDbEntity
  8
DEFPOINTS
 62
     0
100
AcDbPoint
 10
590.410740179981
 20
388.7080573089427
 30
0.0
  0
POINT
  5
99B
330
97E
100
AcDbEntity
  8
DEFPOINTS
 62
     0
100
AcDbPoint
 10
590.410740179981
 20
422.399458139615
 30
0.0
  0
ENDBLK
  5
989
330
97E
100
AcDbEntity
  8
0
100
AcDbBlockEnd
  0
BLOCK
  5
9B1
330
9A7
100
AcDbEntity
  8
0
100
AcDbBlockBegin
  2
*D8
 70
     1
 10
0.0
 20
0.0
 30
0.0
  3
*D8
  1

  0
LINE
  5
9A8
330
9A7
100
AcDbEntity
  8
BEM
 62
     0
370
    -2
100
AcDbLine
 10
582.6526812991456
 20
240.6754753722787
 30
0.0
 11
581.8292699959633
 21
224.9638517460379
 31
0.0
  0
LINE
  5
9A9
330
9A7
100
AcDbEntity
  8
BEM
 62
     0
370
    -2
100
AcDbLine
 10
638.4902366137092
 20
255.2167571267014
 30
0.0
 11
636.7538944074645
 21
222.085374152676
 31
0.0
  0
LINE
  5
9AA
330
9A7
100
AcDbEntity
  8
BEM
 62
     0
370
    -2
100
AcDbLine
 10
588.9243486517312
 20
226.5947591218465
 30
0.0
 11
629.8681595766684
 21
224.4489849158858
 31
0.0
  0
SOLID
  5
9AB
330
9A7
100
AcDbEntity
  8
BEM
 62
     0
100
AcDbTrace
 10
588.985407267348
 20
227.7598269123935
 30
0.0
 11
588.8632900361144
 21
225.4296913312995
 31
0.0
 12
581.9339419084492
 22
226.9611108155471
 32
0.0
 13
581.9339419084492
 23
226.9611108155471
 33
0.0
  0
SOLID
  5
9AC
330
9A7
100
AcDbEntity
  8
BEM
 62
     0
100
AcDbTrace
 10
629.9292181922852
 20
225.6140527064328
 30
0.0
 11
629.8071009610517
 21
223.2839171253388
 31
0.0
 12
636.8585663199504
 22
224.0826332221852
 32
0.0
 13
636.8585663199504
 23
224.0826332221852
 33
0.0
  0
MTEXT
  5
9AD
330
9A7
100
AcDbEntity
  8
BEM
 62
     1
100
AcDbMText
 10
609.7364378297791
 20
232.0129639947709
 30
0.0
 40
7.0
 41
0.0
 71
     5
 72
     1
  1
\A1;55
 11
0.9986295347545738
 21
-0.052335956242945
 31
0.0
 73
     1
 44
1.0
  0
POINT
  5
9AE
330
9A7
100
AcDbEntity
  8
DEFPOINTS
 62
     0
100
AcDbPoint
 10
582.7573532116315
 20
242.6727344417878
 30
0.0
  0
POINT
  5
9AF
330
9A7
100
AcDbEntity
  8
DEFPOINTS
 62
     0
100
AcDbPoint
 10
638.5949085261951
 20
257.2140161962106
 30
0.0
  0
POINT
  5
9B0
330
9A7
100
AcDbEntity
  8
DEFPOINTS
 62
     0
100
AcDbPoint
 10
636.8585663199504
 20
224.0826332221852
 30
0.0
  0
ENDBLK
  5
9B2
330
9A7
100
AcDbEntity
  8
0
100
AcDbBlockEnd
  0
BLOCK
  5
9BE
330
9B4
100
AcDbEntity
  8
0
100
AcDbBlockBegin
  2
*D9
 70
     1
 10
0.0
 20
0.0
 30
0.0
  3
*D9
  1

  0
LINE
  5
9C9
330
9B4
100
AcDbEntity
  8
BEM
 62
     0
370
    -2
100
AcDbLine
 10
552.4593829004019
 20
392.6727344417878
 30
0.0
 11
681.5461298705965
 21
392.6727344417878
 31
0.0
  0
LINE
  5
9CA
330
9B4
100
AcDbEntity
  8
BEM
 62
     0
370
    -2
100
AcDbLine
 10
661.6347663108012
 20
292.7903065812203
 30
0.0
 11
681.5461298705965
 21
292.7903065812203
 31
0.0
  0
LINE
  5
9CB
330
9B4
100
AcDbEntity
  8
BEM
 62
     0
370
    -2
100
AcDbLine
 10
679.5461298705966
 20
385.6727344417878
 30
0.0
 11
679.5461298705966
 21
299.7903065812203
 31
0.0
  0
SOLID
  5
9CC
330
9B4
100
AcDbEntity
  8
BEM
 62
     0
100
AcDbTrace
 10
678.3794632039299
 20
385.6727344417878
 30
0.0
 11
680.7127965372631
 21
385.6727344417878
 31
0.0
 12
679.5461298705966
 22
392.6727344417878
 32
0.0
 13
679.5461298705966
 23
392.6727344417878
 33
0.0
  0
SOLID
  5
9CD
330
9B4
100
AcDbEntity
  8
BEM
 62
     0
100
AcDbTrace
 10
678.3794632039299
 20
299.7903065812203
 30
0.0
 11
680.7127965372631
 21
299.7903065812203
 31
0.0
 12
679.5461298705966
 22
292.7903065812203
 32
0.0
 13
679.5461298705966
 23
292.7903065812203
 33
0.0
  0
MTEXT
  5
9CE
330
9B4
100
AcDbEntity
  8
BEM
 62
     1
100
AcDbMText
 10
673.0461298705964
 20
342.7315205115041
 30
0.0
 40
7.0
 41
0.0
 71
     5
 72
     1
  1
\A1;100
 11
0.0000000000000001
 21
1.0
 31
0.0
 73
     1
 44
1.0
  0
POINT
  5
9CF
330
9B4
100
AcDbEntity
  8
DEFPOINTS
 62
     0
100
AcDbPoint
 10
550.4593829004019
 20
392.6727344417878
 30
0.0
  0
POINT
  5
9D0
330
9B4
100
AcDbEntity
  8
DEFPOINTS
 62
     0
100
AcDbPoint
 10
659.6347663108011
 20
292.7903065812203
 30
0.0
  0
POINT
  5
9D1
330
9B4
100
AcDbEntity
  8
DEFPOINTS
 62
     0
100
AcDbPoint
 10
679.5461298705966
 20
292.7903065812203
 30
0.0
  0
ENDBLK
  5
9BF
330
9B4
100
AcDbEntity
  8
0
100
AcDbBlockEnd
  0
ENDSEC
  0
SECTION
  2
ENTITIES
  0
LINE
  5
58
330
1E
100
AcDbEntity
  8
STEMPEL
100
AcDbLine
 10
830.0000000000002
 20
110.0
 30
0.0
 11
470.0000000000001
 21
110.0
 31
0.0
  0
LINE
  5
59
330
1E
100
AcDbEntity
  8
STEMPEL
100
AcDbLine
 10
470.0000000000001
 20
110.0
 30
0.0
 11
470.0000000000001
 21
10.0
 31
0.0
  0
LINE
  5
5A
330
1E
100
AcDbEntity
  8
STEMPEL
100
AcDbLine
 10
566.0000000000002
 20
109.9999999999999
 30
0.0
 11
566.0000000000001
 21
9.999999999999886
 31
0.0
  0
LINE
  5
5B
330
1E
100
AcDbEntity
  8
STEMPEL
100
AcDbLine
 10
650.0
 20
110.0
 30
0.0
 11
650.0
 21
10.0
 31
0.0
  0
LINE
  5
5C
330
1E
100
AcDbEntity
  8
STEMPEL
100
AcDbLine
 10
752.0000000000002
 20
109.9999999999997
 30
0.0
 11
752.0000000000002
 21
40.0
 31
0.0
  0
LINE
  5
5D
330
1E
100
AcDbEntity
  8
STEMPEL
100
AcDbLine
 10
566.0
 20
30.0
 30
0.0
 11
470.0000000000001
 21
30.0
 31
0.0
  0
LINE
  5
5E
330
1E
100
AcDbEntity
  8
STEMPEL
100
AcDbLine
 10
830.0000000000002
 20
40.0
 30
0.0
 11
566.0000000000001
 21
40.0
 31
0.0
  0
LINE
  5
5F
330
1E
100
AcDbEntity
  8
STEMPEL
100
AcDbLine
 10
830.0000000000002
 20
80.0
 30
0.0
 11
566.0000000000002
 21
80.0
 31
0.0
  0
LINE
  5
60
330
1E
100
AcDbEntity
  8
VOLL
100
AcDbLine
 10
484.0000000000002
 20
110.0
 30
0.0
 11
484.0000000000001
 21
9.999999999999985
 31
0.0
  0
LINE
  5
61
330
1E
100
AcDbEntity
  8
VOLL
100
AcDbLine
 10
524.0000000000001
 20
109.9999999999999
 30
0.0
 11
524.0000000000001
 21
9.999999999999943
 31
0.0
  0
LINE
  5
62
330
1E
100
AcDbEntity
  8
VOLL
100
AcDbLine
 10
544.0000000000002
 20
109.9999999999999
 30
0.0
 11
544.0000000000001
 21
9.999999999999914
 31
0.0
  0
LINE
  5
63
330
1E
100
AcDbEntity
  8
VOLL
100
AcDbLine
 10
584.0000000000002
 20
80.0
 30
0.0
 11
584.0000000000002
 21
40.0
 31
0.0
  0
LINE
  5
64
330
1E
100
AcDbEntity
  8
VOLL
100
AcDbLine
 10
610.0000000000002
 20
109.9999999999998
 30
0.0
 11
610.0000000000001
 21
40.0
 31
0.0
  0
LINE
  5
65
330
1E
100
AcDbEntity
  8
HILF
100
AcDbLine
 10
470.0000000000001
 20
100.0
 30
0.0
 11
566.0000000000002
 21
100.0
 31
0.0
  0
LINE
  5
66
330
1E
100
AcDbEntity
  8
HILF
100
AcDbLine
 10
470.0000000000001
 20
90.0
 30
0.0
 11
566.0000000000002
 21
90.0
 31
0.0
  0
LINE
  5
67
330
1E
100
AcDbEntity
  8
HILF
100
AcDbLine
 10
470.0000000000001
 20
80.0
 30
0.0
 11
566.0000000000002
 21
80.0
 31
0.0
  0
LINE
  5
68
330
1E
100
AcDbEntity
  8
HILF
100
AcDbLine
 10
470.0000000000001
 20
70.0
 30
0.0
 11
566.0000000000002
 21
70.0
 31
0.0
  0
LINE
  5
69
330
1E
100
AcDbEntity
  8
HILF
100
AcDbLine
 10
470.0000000000001
 20
60.0
 30
0.0
 11
566.0000000000002
 21
60.0
 31
0.0
  0
LINE
  5
6A
330
1E
100
AcDbEntity
  8
HILF
100
AcDbLine
 10
470.0000000000001
 20
50.0
 30
0.0
 11
566.0000000000002
 21
50.0
 31
0.0
  0
LINE
  5
6B
330
1E
100
AcDbEntity
  8
HILF
100
AcDbLine
 10
470.0000000000001
 20
40.0
 30
0.0
 11
566.0000000000002
 21
40.0
 31
0.0
  0
LINE
  5
6C
330
1E
100
AcDbEntity
  8
HILF
100
AcDbLine
 10
566.0000000000002
 20
70.0
 30
0.0
 11
650.0
 21
70.0
 31
0.0
  0
LINE
  5
6D
330
1E
100
AcDbEntity
  8
HILF
100
AcDbLine
 10
566.0000000000002
 20
60.0
 30
0.0
 11
650.0
 21
60.0
 31
0.0
  0
LINE
  5
6E
330
1E
100
AcDbEntity
  8
HILF
100
AcDbLine
 10
566.0000000000002
 20
50.0
 30
0.0
 11
650.0
 21
50.0
 31
0.0
  0
LINE
  5
6F
330
1E
100
AcDbEntity
  8
HILF
100
AcDbLine
 10
654.7736801096948
 20
84.03758247564136
 30
0.0
 11
746.6297842514811
 21
84.03758247564136
 31
0.0
  0
LINE
  5
70
330
1E
100
AcDbEntity
  8
HILF
100
AcDbLine
 10
654.7736801096948
 20
70.0
 30
0.0
 11
746.6297842514811
 21
70.0
 31
0.0
  0
LINE
  5
71
330
1E
100
AcDbEntity
  8
HILF
100
AcDbLine
 10
654.7736801096948
 20
60.0
 30
0.0
 11
746.6297842514811
 21
60.0
 31
0.0
  0
LINE
  5
72
330
1E
100
AcDbEntity
  8
HILF
100
AcDbLine
 10
654.7736801096948
 20
50.0
 30
0.0
 11
746.6297842514811
 21
50.0
 31
0.0
  0
LINE
  5
73
330
1E
100
AcDbEntity
  8
VOLL
100
AcDbLine
 10
752.0000000000002
 20
60.0
 30
0.0
 11
830.0000000000002
 21
60.0
 31
0.0
  0
LINE
  5
74
330
1E
100
AcDbEntity
  8
HILF
100
AcDbLine
 10
756.7238616296995
 20
83.77983636955823
 30
0.0
 11
824.858883932673
 21
83.77983636955823
 31
0.0
  0
LINE
  5
75
330
1E
100
AcDbEntity
  8
HILF
100
AcDbLine
 10
654.7736801096948
 20
14.89398258028305
 30
0.0
 11
824.858883932673
 21
14.89398258028305
 31
0.0
  0
TEXT
  5
76
330
1E
100
AcDbEntity
  8
TEXT
100
AcDbText
 10
492.3998239263297
 20
18.67381894984129
 30
0.0
 40
4.0
  1
Änderung
 41
0.8
  7
GREEKS
 72
     1
 11
503.1426810691868
 21
18.67381894984129
 31
0.0
100
AcDbText
  0
TEXT
  5
78
330
1E
100
AcDbEntity
  8
TEXT
100
AcDbText
 10
573.5163572150378
 20
102.4620895087088
 30
0.0
 40
5.0
  1
Maßstab
 41
0.8
  7
GREEKS
100
AcDbText
  0
TEXT
  5
79
330
1E
100
AcDbEntity
  8
TEXT
100
AcDbText
 10
654.8779403809011
 20
102.5489328011779
 30
0.0
 40
5.0
  1
Benennung
 41
0.8
  7
GREEKS
100
AcDbText
  0
TEXT
  5
7A
330
1E
100
AcDbEntity
  8
TEXT
100
AcDbText
 10
756.1787549576343
 20
102.3132034537135
 30
0.0
 40
5.0
  1
Zeichnungs Nr.
 41
0.8
  7
GREEKS
100
AcDbText
  0
TEXT
  5
7B
330
1E
100
AcDbEntity
  8
TEXT
100
AcDbText
 10
654.742238391136
 20
30.84560570193055
 30
0.0
 40
5.0
  1
Bauvorhaben
 41
0.8
  7
GREEKS
100
AcDbText
  0
TEXT
  5
7C
330
1E
100
AcDbEntity
  8
TEXT
100
AcDbText
 10
756.7238616296995
 20
73.18118237099965
 30
0.0
 40
5.0
  1
Ersatz für:
 41
0.8
  7
GREEKS
100
AcDbText
  0
TEXT
  5
7D
330
1E
100
AcDbEntity
  8
TEXT
100
AcDbText
 10
478.2664110704577
 20
13.65465846027187
 30
0.0
 40
4.0
  1
Index
 50
90.0
 41
0.8
  7
GREEKS
100
AcDbText
  0
TEXT
  5
7E
330
1E
100
AcDbEntity
  8
TEXT
100
AcDbText
 10
529.8990113186979
 20
18.67156269339808
 30
0.0
 40
4.0
  1
Tag
 41
0.8
  7
GREEKS
 72
     1
 11
533.6323446520313
 21
18.67156269339808
 31
0.0
100
AcDbText
  0
TEXT
  5
7F
330
1E
100
AcDbEntity
  8
TEXT
100
AcDbText
 10
548.9795678138293
 20
18.59324216966404
 30
0.0
 40
4.0
  1
Name
 41
0.8
  7
GREEKS
 72
     1
 11
555.3033773376388
 21
18.59324216966404
 31
0.0
100
AcDbText
  0
TEXT
  5
80
330
1E
100
AcDbEntity
  8
TEXT
100
AcDbText
 10
592.3311673153651
 20
73.31880501229919
 30
0.0
 40
4.0
  1
Tag
 41
0.8
  7
GREEKS
100
AcDbText
  0
TEXT
  5
81
330
1E
100
AcDbEntity
  8
TEXT
100
AcDbText
 10
622.4626584226296
 20
73.3096109191522
 30
0.0
 40
4.0
  1
Name
 41
0.8
  7
GREEKS
100
AcDbText
  0
TEXT
  5
82
330
1E
100
AcDbEntity
  8
TEXT
100
AcDbText
 10
567.5836127167616
 20
63.62990369617961
 30
0.0
 40
4.0
  1
Gez.
 41
0.8
  7
GREEKS
100
AcDbText
  0
TEXT
  5
83
330
1E
100
AcDbEntity
  8
TEXT
100
AcDbText
 10
567.5515086571673
 20
53.68926291428373
 30
0.0
 40
4.0
  1
Gepr.
 41
0.8
  7
GREEKS
100
AcDbText
  0
TEXT
  5
84
330
1E
100
AcDbEntity
  8
TEXT
100
AcDbText
 10
567.6006777387304
 20
43.52946389649804
 30
0.0
 40
4.0
  1
Norm.
 41
0.8
  7
GREEKS
100
AcDbText
  0
TEXT
  5
85
330
1E
100
AcDbEntity
  8
TEXT
100
AcDbText
 10
757.2400861497007
 20
52.07416177878596
 30
0.0
 40
5.0
  1
ersetzt durch:
 41
0.8
  7
GREEKS
100
AcDbText
  0
TEXT
  5
86
330
1E
100
AcDbEntity
  8
TEXT
100
AcDbText
 10
568.8693027807324
 20
72.96682596523723
 30
0.0
 40
4.0
  1
2008
 41
0.8
  7
GREEKS
100
AcDbText
  0
LINE
  5
87
330
1E
100
AcDbEntity
  8
HILF
100
AcDbLine
 10
0.0
 20
0.0
 30
0.0
 11
840.0
 21
0.0
 31
0.0
  0
LINE
  5
88
330
1E
100
AcDbEntity
  8
HILF
100
AcDbLine
 10
840.0
 20
0.0
 30
0.0
 11
840.0
 21
594.0
 31
0.0
  0
LINE
  5
89
330
1E
100
AcDbEntity
  8
HILF
100
AcDbLine
 10
840.0
 20
594.0
 30
0.0
 11
0.0
 21
594.0
 31
0.0
  0
LINE
  5
8B
330
1E
100
AcDbEntity
  8
STEMPEL
100
AcDbLine
 10
830.0
 20
584.0
 30
0.0
 11
40.0
 21
584.0
 31
0.0
  0
LINE
  5
8D
330
1E
100
AcDbEntity
  8
STEMPEL
100
AcDbLine
 10
40.0
 20
10.0
 30
0.0
 11
830.0
 21
10.0
 31
0.0
  0
LINE
  5
8E
330
1E
100
AcDbEntity
  8
STEMPEL
100
AcDbLine
 10
830.0
 20
10.0
 30
0.0
 11
830.0
 21
584.0
 31
0.0
  0
TEXT
  5
8F
330
1E
100
AcDbEntity
  8
TEXT
 62
     1
100
AcDbText
 10
655.0390572473189
 20
87.37343075652544
 30
0.0
 40
7.0
  1
Grundeinheit DN70
 41
0.8
  7
GREEKS
100
AcDbText
  0
TEXT
  5
90
330
1E
100
AcDbEntity
  8
TEXT
 62
     1
100
AcDbText
 10
766.6628088850802
 20
87.37343075652544
 30
0.0
 40
7.0
  1
16320070W
 41
0.8
  7
GREEKS
 72
     1
 11
790.1294755517469
 21
87.37343075652544
 31
0.0
100
AcDbText
  0
TEXT
  5
91
330
1E
100
AcDbEntity
  8
TEXT
100
AcDbText
 10
618.509022641583
 20
102.83989611379
 30
0.0
 40
5.0
  1
Zul.Abw.
 41
0.8
  7
GREEKS
100
AcDbText
  0
TEXT
  5
93
330
1E
100
AcDbEntity
  8
TEXT
100
AcDbText
 10
590.1565237511869
 20
63.1508587612022
 30
0.0
 40
4.0
  1
03.06.
 41
0.8
  7
GREEKS
 72
     1
 11
597.1660475607107
 21
63.1508587612022
 31
0.0
100
AcDbText
  0
TEXT
  5
94
330
1E
100
AcDbEntity
  8
TEXT
100
AcDbText
 10
624.023175322661
 20
62.94297655165468
 30
0.0
 40
4.0
  1
Koeh
 41
0.8
  7
GREEKS
 72
     1
 11
629.2803181798038
 21
62.94297655165468
 31
0.0
100
AcDbText
  0
TEXT
  5
95
330
1E
100
AcDbEntity
  8
TEXT
100
AcDbText
 10
654.3410940884992
 20
72.10021383107525
 30
0.0
 40
5.0
  1
seitlich mit Wärmedämmung
 41
0.8
  7
GREEKS
100
AcDbText
  0
TEXT
  5
97
330
1E
100
AcDbEntity
  8
TEXT
100
AcDbText
 10
654.3410940884992
 20
52.59097337846058
 30
0.0
 40
5.0
  1
EDV-Art.Nr. 16320.070X
 41
0.8
  7
GREEKS
100
AcDbText
  0
TEXT
  5
98
330
1E
100
AcDbEntity
  8
TEXT
100
AcDbText
 10
654.1676050109348
 20
43.31127624791508
 30
0.0
 40
4.0
  1
16320070W.DWG
 41
0.8
  7
GREEKS
100
AcDbText
  0
TEXT
  5
99
330
1E
100
AcDbEntity
  8
TEXT
 62
     1
100
AcDbText
 10
582.7034912034222
 20
87.47077088414977
 30
0.0
 40
7.0
  1
1:2
 41
0.8
  7
GREEKS
100
AcDbText
  0
TEXT
  5
9A
330
1E
100
AcDbEntity
  8
TEXT
100
AcDbText
 10
470.0441139350127
 20
114.1143585051043
 30
0.0
 40
5.0
  1
Erstellt mit AUTOCAD 2004
 41
0.8
  7
GREEKS
100
AcDbText
  0
INSERT
  5
9B
330
1E
100
AcDbEntity
  8
HILF
100
AcDbBlockReference
  2
LORO
 10
573.0624985962354
 20
36.9805930029896
 30
0.0
 41
2.0
 42
2.0
 43
2.0
  0
LINE
  5
9C
330
1E
100
AcDbEntity
  8
BEM
100
AcDbLine
 10
456.0
 20
0.0
 30
0.0
 11
456.0
 21
10.0
 31
0.0
  0
LINE
  5
13E
330
1E
100
AcDbEntity
  8
HILF
100
AcDbLine
 10
0.0
 20
0.0
 30
0.0
 11
0.0
 21
594.0
 31
0.0
  0
LINE
  5
13F
330
1E
100
AcDbEntity
  8
STEMPEL
100
AcDbLine
 10
40.0
 20
10.0
 30
0.0
 11
40.0
 21
584.0
 31
0.0
  0
LINE
  5
14A
330
1E
100
AcDbEntity
  8
HILF
100
AcDbLine
 10
0.0
 20
297.0
 30
0.0
 11
40.0
 21
297.0
 31
0.0
  0
TEXT
  5
15B
330
1E
100
AcDbEntity
  8
BEM
100
AcDbText
 10
837.3022923857165
 20
10.16790107998861
 30
0.0
 40
4.0
  1
Diese Zeichnung ist urheberrechtlich geschützt und bleibt unser Eigentum. Sie darf weder ganz noch teilweise verfielfältigt und nicht an Dritte weitergegeben werden.
 50
90.0
 41
0.8
  7
GREEKS
100
AcDbText
  0
LINE
  5
5F2
330
1E
100
AcDbEntity
  8
HILF
100
AcDbLine
 10
550.4593829004017
 20
390.6727344417878
 30
0.0
 11
550.4593829004019
 21
396.1727344417878
 31
0.0
  0
LINE
  5
5F3
102
{ACAD_REACTORS
330
815
102
}
330
1E
100
AcDbEntity
  8
STEMPEL
100
AcDbLine
 10
632.2298506543694
 20
328.1694929661009
 30
0.0
 11
642.2397998808595
 21
326.7626863464816
 31
0.0
  0
LINE
  5
5F4
102
{ACAD_REACTORS
330
815
102
}
330
1E
100
AcDbEntity
  8
STEMPEL
100
AcDbLine
 10
632.3833499557238
 20
329.7636441621921
 30
0.0
 11
642.3238572746091
 21
328.3665969662308
 31
0.0
  0
LINE
  5
5F6
330
1E
100
AcDbEntity
  8
STEMPEL
100
AcDbLine
 10
527.9593829004018
 20
390.6727344417878
 30
0.0
 11
527.5851586846218
 21
388.7080573089428
 31
0.0
  0
LINE
  5
5F7
330
1E
100
AcDbEntity
  8
STEMPEL
100
AcDbLine
 10
517.270603737186
 20
390.6727344417878
 30
0.0
 11
527.5851586846218
 21
388.7080573089428
 31
0.0
  0
LINE
  5
5F8
330
1E
100
AcDbEntity
  8
STEMPEL
100
AcDbLine
 10
517.4593829004018
 20
392.6727344417878
 30
0.0
 11
527.9593829004018
 21
390.6727344417878
 31
0.0
  0
LINE
  5
5F9
330
1E
100
AcDbEntity
  8
STEMPEL
100
AcDbLine
 10
463.9593829004018
 20
377.6727344417878
 30
0.0
 11
463.9593829004018
 21
373.6727344417878
 31
0.0
  0
LINE
  5
5FA
330
1E
100
AcDbEntity
  8
STEMPEL
100
AcDbLine
 10
590.410740179981
 20
388.7080573089427
 30
0.0
 11
480.4593829004019
 21
388.7080573089428
 31
0.0
  0
LINE
  5
5FB
330
1E
100
AcDbEntity
  8
STEMPEL
100
AcDbLine
 10
517.270603737186
 20
390.6727344417878
 30
0.0
 11
468.7110209061692
 21
390.6727344417878
 31
0.0
  0
LINE
  5
5FC
330
1E
100
AcDbEntity
  8
STEMPEL
100
AcDbLine
 10
468.7110209061692
 20
392.672734441788
 30
0.0
 11
517.4593829004018
 21
392.672734441788
 31
0.0
  0
LINE
  5
5FD
330
1E
100
AcDbEntity
  8
STEMPEL
100
AcDbLine
 10
468.7110209061692
 20
392.6727344417878
 30
0.0
 11
517.4593829004018
 21
392.6727344417878
 31
0.0
  0
ARC
  5
5FE
102
{ACAD_REACTORS
330
8A8
102
}
330
1E
100
AcDbEntity
  8
STEMPEL
100
AcDbCircle
 10
450.4517432253154
 20
388.7541501547464
 30
0.0
 40
2.0
100
AcDbArc
 50
4.999999999999743
 51
90.0
  0
LINE
  5
5FF
102
{ACAD_REACTORS
330
849
330
8A8
102
}
330
1E
100
AcDbEntity
  8
STEMPEL
100
AcDbLine
 10
450.4593829004019
 20
388.7541501547464
 30
0.0
 11
448.4593829004019
 21
388.7541501547463
 31
0.0
  0
LINE
  5
600
330
1E
100
AcDbEntity
  8
STEMPEL
100
AcDbLine
 10
461.9593829004018
 20
377.4801563453926
 30
0.0
 11
460.8580034385879
 21
383.1462624787756
 31
0.0
  0
ARC
  5
601
102
{ACAD_REACTORS
330
8A8
102
}
330
1E
100
AcDbEntity
  8
STEMPEL
100
AcDbCircle
 10
458.3373236509793
 20
377.7710850785044
 30
0.0
 40
2.0
100
AcDbArc
 50
10.999999999999
 51
179.8353165648577
  0
LINE
  5
602
102
{ACAD_REACTORS
330
8A8
102
}
330
1E
100
AcDbEntity
  8
STEMPEL
100
AcDbLine
 10
460.4593829004019
 20
377.3357227730963
 30
0.0
 11
459.3855626634161
 21
382.8600489857108
 31
0.0
  0
ARC
  5
603
102
{ACAD_REACTORS
330
8A8
102
}
330
1E
100
AcDbEntity
  8
STEMPEL
100
AcDbCircle
 10
461.2797961882296
 20
379.7260709082673
 30
0.0
 40
8.0
100
AcDbArc
 50
184.9999999999997
 51
193.6461999882215
  0
LINE
  5
604
102
{ACAD_REACTORS
330
8A8
102
}
330
1E
100
AcDbEntity
  8
STEMPEL
100
AcDbLine
 10
453.5594459185761
 20
377.6169885300244
 30
0.0
 11
453.505627550786
 21
377.8386647525632
 31
0.0
  0
ARC
  5
605
102
{ACAD_REACTORS
330
8A8
102
}
330
1E
100
AcDbEntity
  8
STEMPEL
100
AcDbCircle
 10
454.9337882611427
 20
377.9506502137846
 30
0.0
 40
1.414265531567818
100
AcDbArc
 50
193.6461999882215
 51
352.9403627560366
  0
LINE
  5
606
330
1E
100
AcDbEntity
  8
STEMPEL
100
AcDbLine
 10
458.3430721793973
 20
379.7710768170925
 30
0.0
 11
453.2440177393231
 21
379.7857329073095
 31
0.0
  0
LINE
  5
607
102
{ACAD_REACTORS
330
8A8
102
}
330
1E
100
AcDbEntity
  8
STEMPEL
100
AcDbLine
 10
452.444132621499
 20
388.9284616402418
 30
0.0
 11
453.3102386034955
 21
379.028824966286
 31
0.0
  0
ARC
  5
608
102
{ACAD_REACTORS
330
8A8
102
}
330
1E
100
AcDbEntity
  8
STEMPEL
100
AcDbCircle
 10
445.554690650389
 20
378.2541501547463
 30
0.0
 40
2.5
100
AcDbArc
 50
90.0
 51
170.0000000000014
  0
LINE
  5
609
102
{ACAD_REACTORS
330
8A8
102
}
330
1E
100
AcDbEntity
  8
STEMPEL
100
AcDbLine
 10
446.4746331793052
 20
388.9284616402417
 30
0.0
 11
445.7594735921946
 21
380.7541501547464
 31
0.0
  0
ARC
  5
60A
102
{ACAD_REACTORS
330
8A8
102
}
330
1E
100
AcDbEntity
  8
STEMPEL
100
AcDbCircle
 10
448.4670225754888
 20
388.7541501547464
 30
0.0
 40
2.0
100
AcDbArc
 50
90.0
 51
175.0000000000002
  0
LINE
  5
60B
102
{ACAD_REACTORS
330
849
330
8A8
102
}
330
1E
100
AcDbEntity
  8
STEMPEL
100
AcDbLine
 10
450.4593829004019
 20
365.7541501547464
 30
0.0
 11
448.4593829004019
 21
365.7541501547464
 31
0.0
  0
ARC
  5
60C
102
{ACAD_REACTORS
330
7B7
102
}
330
1E
100
AcDbEntity
  8
SCHRAFF
100
AcDbCircle
 10
453.1652476021027
 20
359.688015566876
 30
0.0
 40
4.846378330786084
100
AcDbArc
 50
321.52507709947
 51
30.91798432980537
  0
LINE
  5
60D
330
1E
100
AcDbEntity
  8
STEMPEL
100
AcDbLine
 10
447.9593829004018
 20
358.6727344417878
 30
0.0
 11
447.9593829004018
 21
356.6727344417878
 31
0.0
  0
LINE
  5
60E
330
1E
100
AcDbEntity
  8
STEMPEL
100
AcDbLine
 10
447.9593829004019
 20
360.7541501547463
 30
0.0
 11
447.9593829004019
 21
359.2541501547463
 31
0.0
  0
ARC
  5
60F
102
{ACAD_REACTORS
330
8A8
102
}
330
1E
100
AcDbEntity
  8
STEMPEL
100
AcDbCircle
 10
451.5933574966178
 20
362.2541501547463
 30
0.0
 40
1.5
100
AcDbArc
 50
270.0
 51
330.0000000000003
  0
ARC
  5
610
330
1E
100
AcDbEntity
  8
STEMPEL
100
AcDbCircle
 10
451.3005768872925
 20
362.2541501547463
 30
0.0
 40
3.0
100
AcDbArc
 50
270.0
 51
306.2742018136144
  0
ARC
  5
611
102
{ACAD_REACTORS
330
7B7
102
}
330
1E
100
AcDbEntity
  8
STEMPEL
100
AcDbCircle
 10
449.5256261706611
 20
364.6727344417878
 30
0.0
 40
8.0
100
AcDbArc
 50
270.0
 51
330.0000000000003
  0
ARC
  5
612
330
1E
100
AcDbEntity
  8
STEMPEL
100
AcDbCircle
 10
449.5256261706611
 20
364.6727344417878
 30
0.0
 40
6.0
100
AcDbArc
 50
270.0
 51
330.0000000000006
  0
LINE
  5
613
330
1E
100
AcDbEntity
  8
STEMPEL
100
AcDbLine
 10
461.9593829004018
 20
374.2086328266502
 30
0.0
 11
454.7217785933678
 21
361.6727344417878
 31
0.0
  0
LINE
  5
614
102
{ACAD_REACTORS
330
8A8
102
}
330
1E
100
AcDbEntity
  8
STEMPEL
100
AcDbLine
 10
460.4593829004019
 20
374.6105566152969
 30
0.0
 11
452.8923956022944
 21
361.5041501547463
 31
0.0
  0
LINE
  5
615
102
{ACAD_REACTORS
330
8A8
102
}
330
1E
100
AcDbEntity
  8
STEMPEL
100
AcDbLine
 10
444.9593829004023
 20
361.7541501547463
 30
0.0
 11
446.6914337079709
 21
360.7541501547464
 31
0.0
  0
LINE
  5
616
102
{ACAD_REACTORS
330
8A8
102
}
330
1E
100
AcDbEntity
  8
STEMPEL
100
AcDbLine
 10
438.4593829004018
 20
361.7541501547464
 30
0.0
 11
438.4593829004018
 21
363.7541501547464
 31
0.0
  0
ARC
  5
617
102
{ACAD_REACTORS
330
8A8
102
}
330
1E
100
AcDbEntity
  8
STEMPEL
100
AcDbCircle
 10
438.7811836380473
 20
365.7541501547464
 30
0.0
 40
2.0
100
AcDbArc
 50
270.0
 51
350.0000000000014
  0
LINE
  5
619
102
{ACAD_REACTORS
330
849
330
8A8
102
}
330
1E
100
AcDbEntity
  8
STEMPEL
100
AcDbLine
 10
448.4593829004019
 20
365.7541501547464
 30
0.0
 11
448.4593829004019
 21
388.7541501547463
 31
0.0
  0
LINE
  5
61A
102
{ACAD_REACTORS
330
849
330
8A8
102
}
330
1E
100
AcDbEntity
  8
STEMPEL
100
AcDbLine
 10
450.4593829004019
 20
365.7541501547464
 30
0.0
 11
450.4593829004019
 21
388.7541501547464
 31
0.0
  0
LINE
  5
61B
102
{ACAD_REACTORS
330
8A8
102
}
330
1E
100
AcDbEntity
  8
STEMPEL
100
AcDbLine
 10
440.7507991440719
 20
365.4068537994125
 30
0.0
 11
443.0926712678586
 21
378.6882705989136
 31
0.0
  0
LINE
  5
61C
330
1E
100
AcDbEntity
  8
STEMPEL
100
AcDbLine
 10
461.9593829004018
 20
377.4801563453926
 30
0.0
 11
461.9593829004018
 21
374.2086328266502
 31
0.0
  0
LINE
  5
61D
102
{ACAD_REACTORS
330
8A8
102
}
330
1E
100
AcDbEntity
  8
STEMPEL
100
AcDbLine
 10
460.4593829004019
 20
377.3357227730963
 30
0.0
 11
460.4593829004019
 21
374.6105566152969
 31
0.0
  0
LINE
  5
61E
330
1E
100
AcDbEntity
  8
STEMPEL
100
AcDbLine
 10
417.0535551943461
 20
366.6727344417878
 30
0.0
 11
407.4593829004019
 21
392.6727344417878
 31
0.0
  0
LINE
  5
61F
102
{ACAD_REACTORS
330
7B7
330
802
102
}
330
1E
100
AcDbEntity
  8
STEMPEL
100
AcDbLine
 10
417.0535551943463
 20
356.6727344417877
 30
0.0
 11
456.9593829004019
 21
356.6727344417878
 31
0.0
  0
LINE
  5
620
330
1E
100
AcDbEntity
  8
STEMPEL
100
AcDbLine
 10
417.0535551943461
 20
359.2541501547463
 30
0.0
 11
451.3005768872925
 21
359.2541501547463
 31
0.0
  0
LINE
  5
621
102
{ACAD_REACTORS
330
8A8
102
}
330
1E
100
AcDbEntity
  8
STEMPEL
100
AcDbLine
 10
417.0535551943461
 20
360.7541501547463
 30
0.0
 11
451.5933574966178
 21
360.7541501547463
 31
0.0
  0
LINE
  5
622
330
1E
100
AcDbEntity
  8
STEMPEL
100
AcDbLine
 10
417.0535551943463
 20
358.6727344417877
 30
0.0
 11
449.5256261706611
 21
358.6727344417878
 31
0.0
  0
LINE
  5
623
102
{ACAD_REACTORS
330
8A8
102
}
330
1E
100
AcDbEntity
  8
STEMPEL
100
AcDbLine
 10
417.0535551943461
 20
361.7541501547463
 30
0.0
 11
444.9593829004023
 21
361.7541501547463
 31
0.0
  0
LINE
  5
624
102
{ACAD_REACTORS
330
8A8
102
}
330
1E
100
AcDbEntity
  8
STEMPEL
100
AcDbLine
 10
417.0535551943461
 20
363.7541501547463
 30
0.0
 11
438.7811836380473
 21
363.7541501547463
 31
0.0
  0
LINE
  5
625
330
1E
100
AcDbEntity
  8
STEMPEL
100
AcDbLine
 10
426.9593829004017
 20
356.6727344417878
 30
0.0
 11
446.1661387383269
 21
356.6727344417878
 31
0.0
  0
LINE
  5
626
102
{ACAD_REACTORS
330
8A8
102
}
330
1E
100
AcDbEntity
  8
STEMPEL
100
AcDbLine
 10
411.8574194830855
 20
380.7541501547463
 30
0.0
 11
445.7594735921946
 21
380.7541501547463
 31
0.0
  0
LINE
  5
627
102
{ACAD_REACTORS
330
8A8
102
}
330
1E
100
AcDbEntity
  8
STEMPEL
100
AcDbLine
 10
408.167353216183
 20
390.7541501547485
 30
0.0
 11
450.4517432253154
 21
390.7541501547498
 31
0.0
  0
ARC
  5
629
330
1E
100
AcDbEntity
  8
STEMPEL
100
AcDbCircle
 10
468.7110209061692
 20
384.6727344417879
 30
0.0
 40
6.0
100
AcDbArc
 50
90.0
 51
190.999999999999
  0
ARC
  5
62A
330
1E
100
AcDbEntity
  8
STEMPEL
100
AcDbCircle
 10
468.7110209061692
 20
384.6727344417879
 30
0.0
 40
8.0
100
AcDbArc
 50
90.0
 51
190.999999999999
  0
ARC
  5
62B
330
1E
100
AcDbEntity
  8
STEMPEL
100
AcDbCircle
 10
468.7110209061692
 20
384.6727344417879
 30
0.0
 40
9.5
100
AcDbArc
 50
90.0
 51
190.999999999999
  0
LINE
  5
62C
102
{ACAD_REACTORS
330
7B7
102
}
330
1E
100
AcDbEntity
  8
STEMPEL
100
AcDbLine
 10
463.9593829004018
 20
373.6727344417878
 30
0.0
 11
456.4538294009369
 21
360.6727344417878
 31
0.0
  0
LINE
  5
62D
330
1E
100
AcDbEntity
  8
STEMPEL
100
AcDbLine
 10
463.9593829004018
 20
377.6727344417878
 30
0.0
 11
462.8212578054834
 21
383.5278804695287
 31
0.0
  0
ARC
  5
62E
102
{ACAD_REACTORS
330
7AA
102
}
330
1E
100
AcDbEntity
  8
SCHRAFF
100
AcDbCircle
 10
456.9593829004019
 20
338.9572247085829
 30
0.0
 40
3.0
100
AcDbArc
 50
357.0000000000009
 51
90.0
  0
LINE
  5
630
102
{ACAD_REACTORS
330
7AA
102
}
330
1E
100
AcDbEntity
  8
STEMPEL
100
AcDbLine
 10
439.7576384935939
 20
266.6727344417878
 30
0.0
 11
439.7576384935939
 21
269.172734441788
 31
0.0
  0
POINT
  5
631
330
1E
100
AcDbEntity
  8
STEMPEL
100
AcDbPoint
 10
439.8563616397786
 20
266.6727344417878
 30
0.0
  0
POINT
  5
632
330
1E
100
AcDbEntity
  8
STEMPEL
100
AcDbPoint
 10
439.8867061244501
 20
266.7517845269795
 30
0.0
  0
POINT
  5
633
330
1E
100
AcDbEntity
  8
STEMPEL
100
AcDbPoint
 10
440.959382900402
 20
266.6727344417878
 30
0.0
  0
ARC
  5
634
102
{ACAD_REACTORS
330
7AA
102
}
330
1E
100
AcDbEntity
  8
SCHRAFF
100
AcDbCircle
 10
439.8046335505921
 20
267.6383959129239
 30
0.0
 40
3.166140475834488
100
AcDbArc
 50
197.7579477803122
 51
340.841907288276
  0
LINE
  5
636
330
1E
100
AcDbEntity
  8
STEMPEL
100
AcDbLine
 10
417.0535551943461
 20
293.1727344417879
 30
0.0
 11
426.9593829004019
 21
293.1727344417879
 31
0.0
  0
ARC
  5
637
330
1E
100
AcDbEntity
  8
SCHRAFF
100
AcDbCircle
 10
426.9593829004019
 20
269.172734441788
 30
0.0
 40
2.0
100
AcDbArc
 50
0.0
 51
90.0
  0
LINE
  5
638
330
1E
100
AcDbEntity
  8
STEMPEL
100
AcDbLine
 10
401.9593829004019
 20
300.6727344417879
 30
0.0
 11
401.9593829004019
 21
269.1727344417878
 31
0.0
  0
LINE
  5
639
330
1E
100
AcDbEntity
  8
STEMPEL
100
AcDbLine
 10
425.359382900402
 20
293.1727344417879
 30
0.0
 11
425.359382900402
 21
269.1727344417878
 31
0.0
  0
LINE
  5
63A
330
1E
100
AcDbEntity
  8
STEMPEL
100
AcDbLine
 10
426.9593829004019
 20
293.1727344417879
 30
0.0
 11
426.9593829004019
 21
269.1727344417878
 31
0.0
  0
LINE
  5
63B
330
1E
100
AcDbEntity
  8
STEMPEL
100
AcDbLine
 10
426.9593829004019
 20
281.6727344417878
 30
0.0
 11
440.5392578494518
 21
281.6727344417878
 31
0.0
  0
LINE
  5
63C
102
{ACAD_REACTORS
330
815
102
}
330
1E
100
AcDbEntity
  8
STEMPEL
100
AcDbLine
 10
443.5781632993289
 20
339.6585047119738
 30
0.0
 11
439.7576384935939
 21
266.75854867489
 31
0.0
  0
LINE
  5
63D
330
1E
100
AcDbEntity
  8
STEMPEL
100
AcDbLine
 10
417.0535551943461
 20
293.1727344417879
 30
0.0
 11
417.0535551943461
 21
366.6727344417878
 31
0.0
  0
LINE
  5
63E
102
{ACAD_REACTORS
330
7AA
330
802
102
}
330
1E
100
AcDbEntity
  8
STEMPEL
100
AcDbLine
 10
456.9593829004019
 20
356.6727344417878
 30
0.0
 11
456.9593829004019
 21
338.9572247085829
 31
0.0
  0
LINE
  5
63F
102
{ACAD_REACTORS
330
802
102
}
330
1E
100
AcDbEntity
  8
STEMPEL
100
AcDbLine
 10
454.4593829004019
 20
356.6727344417878
 30
0.0
 11
454.4593829004019
 21
339.0882441567905
 31
0.0
  0
LINE
  5
640
102
{ACAD_REACTORS
330
7AA
330
802
330
815
330
966
102
}
330
1E
100
AcDbEntity
  8
STEMPEL
100
AcDbLine
 10
443.5781632993289
 20
339.6585047119738
 30
0.0
 11
632.3833499557238
 21
329.7636441621921
 31
0.0
  0
LINE
  5
641
102
{ACAD_REACTORS
330
815
102
}
330
1E
100
AcDbEntity
  8
STEMPEL
100
AcDbLine
 10
443.4944257693401
 20
338.0606974563666
 30
0.0
 11
632.2298506543694
 21
328.1694929661009
 31
0.0
  0
TEXT
  5
643
330
1E
100
AcDbEntity
  8
TEXT
 62
     1
100
AcDbText
 10
474.4605142429617
 20
438.9559478048887
 30
0.0
 40
7.0
  1
EDV-Art.Nr.16201.070X
 41
0.8
  7
GREEKS
100
AcDbText
  0
LINE
  5
644
330
1E
100
AcDbEntity
  8
TEXT
 62
     2
100
AcDbLine
 10
572.5986187699296
 20
448.5475426568092
 30
0.0
 11
473.0901928564048
 21
448.5475426568092
 31
0.0
  0
LINE
  5
645
330
1E
100
AcDbEntity
  8
STEMPEL
100
AcDbLine
 10
468.7110209061692
 20
392.6727344417878
 30
0.0
 11
550.4593829004019
 21
392.6727344417878
 31
0.0
  0
TEXT
  5
646
330
1E
100
AcDbEntity
  8
TEXT
 62
     1
100
AcDbText
 10
474.4605142429617
 20
451.5507852551706
 30
0.0
 40
7.0
  1
Klemmring DN70
 41
0.8
  7
GREEKS
100
AcDbText
  0
LINE
  5
647
102
{ACAD_REACTORS
330
815
102
}
330
1E
100
AcDbEntity
  8
STEMPEL
100
AcDbLine
 10
628.5628251499884
 20
256.8636881251084
 30
0.0
 11
638.5949085261951
 21
257.2140161962107
 31
0.0
  0
LINE
  5
648
102
{ACAD_REACTORS
330
815
102
}
330
1E
100
AcDbEntity
  8
STEMPEL
100
AcDbLine
 10
628.5768009086118
 20
258.4651514402318
 30
0.0
 11
638.6789659199446
 21
258.81792681596
 31
0.0
  0
DIMENSION
  5
649
330
1E
100
AcDbEntity
  8
BEM
100
AcDbDimension
  2
*D2
 10
661.4925063353309
 20
328.2380979195338
 30
0.0
 11
653.0911519565586
 21
292.1283036165712
 31
0.0
 70
    33
  1
%%C<>
 71
     5
 42
72.99999999999982
  3
Standard
100
AcDbAlignedDimension
 13
628.5628251499884
 23
256.8636881251084
 33
0.0
 14
632.3833499557236
 24
329.7636441621921
 34
0.0
1001
ACAD
1000
DSTYLE
1002
{
1070
    40
1040
2.0
1070
    41
1040
3.5
1070
    42
1040
1.0
1070
    43
1040
7.0
1070
    44
1040
1.0
1070
    73
1070
     0
1070
    74
1070
     0
1070
    77
1070
     1
1070
    78
1070
     8
1070
    79
1070
     2
1070
   140
1040
3.5
1070
   141
1040
1.5
1070
   146
1040
0.5
1070
   147
1040
1.5
1070
   172
1070
     1
1070
   178
1070
     1
1070
   179
1070
     2
1070
   271
1070
     2
1070
   272
1070
     2
1070
   284
1070
     8
1070
   285
1070
     8
1070
   286
1070
     8
1002
}
  0
LINE
  5
64A
102
{ACAD_REACTORS
330
815
102
}
330
1E
100
AcDbEntity
  8
STEMPEL
100
AcDbLine
 10
642.3238572746091
 20
328.3665969662308
 30
0.0
 11
638.5949085261951
 21
257.2140161962107
 31
0.0
  0
LINE
  5
64B
330
1E
100
AcDbEntity
  8
HILF
100
AcDbLine
 10
632.2158748957463
 20
326.5680296509774
 30
0.0
 11
628.7303002099663
 21
260.059302636323
 31
0.0
  0
LINE
  5
64D
102
{ACAD_REACTORS
330
815
102
}
330
1E
100
AcDbEntity
  8
STEMPEL
100
AcDbLine
 10
439.8413760235826
 20
268.3563559304973
 30
0.0
 11
628.5768009086118
 21
258.4651514402318
 31
0.0
  0
LINE
  5
64E
102
{ACAD_REACTORS
330
7AA
330
815
330
966
102
}
330
1E
100
AcDbEntity
  8
STEMPEL
100
AcDbLine
 10
439.7576384935939
 20
266.75854867489
 30
0.0
 11
628.5628251499884
 21
256.8636881251084
 31
0.0
  0
ARC
  5
64F
102
{ACAD_REACTORS
330
8A8
102
}
330
1E
100
AcDbEntity
  8
STEMPEL
100
AcDbCircle
 10
332.4517432253148
 20
388.7541501547464
 30
0.0
 40
2.0
100
AcDbArc
 50
4.999999999999743
 51
90.0
  0
ARC
  5
650
102
{ACAD_REACTORS
330
8A8
102
}
330
1E
100
AcDbEntity
  8
STEMPEL
100
AcDbCircle
 10
335.3640751504144
 20
378.2541501547463
 30
0.0
 40
2.5
100
AcDbArc
 50
9.999999999998609
 51
90.0
  0
LINE
  5
651
102
{ACAD_REACTORS
330
8A8
102
}
330
1E
100
AcDbEntity
  8
STEMPEL
100
AcDbLine
 10
334.4441326214984
 20
388.9284616402417
 30
0.0
 11
335.1592922086089
 21
380.7541501547464
 31
0.0
  0
LINE
  5
652
102
{ACAD_REACTORS
330
8A8
102
}
330
1E
100
AcDbEntity
  8
STEMPEL
100
AcDbLine
 10
342.4593829004014
 20
361.7541501547464
 30
0.0
 11
342.4593829004014
 21
363.7541501547464
 31
0.0
  0
LINE
  5
653
102
{ACAD_REACTORS
330
8A8
102
}
330
1E
100
AcDbEntity
  8
STEMPEL
100
AcDbLine
 10
335.9593829004012
 20
361.7541501547463
 30
0.0
 11
334.2273320928326
 21
360.7541501547464
 31
0.0
  0
LINE
  5
654
330
1E
100
AcDbEntity
  8
STEMPEL
100
AcDbLine
 10
332.9593829004021
 20
358.6727344417878
 30
0.0
 11
332.9593829004021
 21
356.6727344417878
 31
0.0
  0
LINE
  5
655
330
1E
100
AcDbEntity
  8
STEMPEL
100
AcDbLine
 10
332.9593829004019
 20
360.7541501547463
 30
0.0
 11
332.9593829004019
 21
359.2541501547463
 31
0.0
  0
ARC
  5
656
102
{ACAD_REACTORS
330
8A8
102
}
330
1E
100
AcDbEntity
  8
STEMPEL
100
AcDbCircle
 10
342.1375821627561
 20
365.7541501547464
 30
0.0
 40
2.0
100
AcDbArc
 50
189.9999999999986
 51
270.0
  0
LINE
  5
657
330
1E
100
AcDbEntity
  8
STEMPEL
100
AcDbLine
 10
334.7526270624769
 20
356.6727344417878
 30
0.0
 11
363.8652106064578
 21
356.6727344417878
 31
0.0
  0
LINE
  5
658
102
{ACAD_REACTORS
330
8A8
102
}
330
1E
100
AcDbEntity
  8
STEMPEL
100
AcDbLine
 10
342.1375821627565
 20
363.7541501547463
 30
0.0
 11
363.8652106064577
 21
363.7541501547463
 31
0.0
  0
LINE
  5
659
102
{ACAD_REACTORS
330
8A8
102
}
330
1E
100
AcDbEntity
  8
STEMPEL
100
AcDbLine
 10
335.9593829004019
 20
361.7541501547463
 30
0.0
 11
363.8652106064577
 21
361.7541501547463
 31
0.0
  0
LINE
  5
65A
102
{ACAD_REACTORS
330
849
330
8A8
102
}
330
1E
100
AcDbEntity
  8
STEMPEL
100
AcDbLine
 10
332.4593829004015
 20
365.7541501547464
 30
0.0
 11
332.4593829004015
 21
388.7541501547463
 31
0.0
  0
LINE
  5
65B
102
{ACAD_REACTORS
330
8A8
102
}
330
1E
100
AcDbEntity
  8
STEMPEL
100
AcDbLine
 10
340.1679666567317
 20
365.4068537994125
 30
0.0
 11
337.8260945329449
 21
378.6882705989136
 31
0.0
  0
LINE
  5
65C
330
1E
100
AcDbEntity
  8
STEMPEL
100
AcDbLine
 10
363.8652106064575
 20
366.6727344417879
 30
0.0
 11
373.459382900402
 21
392.6727344417879
 31
0.0
  0
LINE
  5
65D
102
{ACAD_REACTORS
330
8A8
102
}
330
1E
100
AcDbEntity
  8
STEMPEL
100
AcDbLine
 10
335.1592922086096
 20
380.7541501547463
 30
0.0
 11
369.0613463177182
 21
380.7541501547463
 31
0.0
  0
ARC
  5
65E
102
{ACAD_REACTORS
330
8A8
102
}
330
1E
100
AcDbEntity
  8
STEMPEL
100
AcDbCircle
 10
330.4670225754879
 20
388.7541501547464
 30
0.0
 40
2.0
100
AcDbArc
 50
90.0
 51
175.0000000000002
  0
ARC
  5
65F
102
{ACAD_REACTORS
330
8A8
102
}
330
1E
100
AcDbEntity
  8
STEMPEL
100
AcDbCircle
 10
325.9849775396609
 20
377.9506502137846
 30
0.0
 40
1.414265531567818
100
AcDbArc
 50
187.0596372439634
 51
346.3538000117785
  0
LINE
  5
660
102
{ACAD_REACTORS
330
8A8
102
}
330
1E
100
AcDbEntity
  8
STEMPEL
100
AcDbLine
 10
327.3593198822274
 20
377.6169885300244
 30
0.0
 11
327.4131382500176
 21
377.8386647525632
 31
0.0
  0
ARC
  5
661
102
{ACAD_REACTORS
330
8A8
102
}
330
1E
100
AcDbEntity
  8
STEMPEL
100
AcDbCircle
 10
319.638969612574
 20
379.7260709082674
 30
0.0
 40
8.0
100
AcDbArc
 50
346.3538000117785
 51
355.0000000000003
  0
LINE
  5
662
330
1E
100
AcDbEntity
  8
STEMPEL
100
AcDbLine
 10
318.9593829004021
 20
377.4801563453926
 30
0.0
 11
320.0607623622162
 21
383.1462624787756
 31
0.0
  0
LINE
  5
663
330
1E
100
AcDbEntity
  8
STEMPEL
100
AcDbLine
 10
316.9593829004021
 20
377.6727344417878
 30
0.0
 11
318.0975079953208
 21
383.5278804695287
 31
0.0
  0
LINE
  5
664
330
1E
100
AcDbEntity
  8
STEMPEL
100
AcDbLine
 10
318.9593829004019
 20
377.4801563453926
 30
0.0
 11
320.060762362216
 21
383.1462624787756
 31
0.0
  0
LINE
  5
665
102
{ACAD_REACTORS
330
8A8
102
}
330
1E
100
AcDbEntity
  8
STEMPEL
100
AcDbLine
 10
320.4593829004017
 20
377.3357227730965
 30
0.0
 11
321.5332031373872
 21
382.8600489857108
 31
0.0
  0
ARC
  5
666
102
{ACAD_REACTORS
330
8A8
102
}
330
1E
100
AcDbEntity
  8
STEMPEL
100
AcDbCircle
 10
322.5814421498243
 20
377.7710850785044
 30
0.0
 40
2.0
100
AcDbArc
 50
0.1646834351422449
 51
168.9999999999994
  0
LINE
  5
667
330
1E
100
AcDbEntity
  8
STEMPEL
100
AcDbLine
 10
322.5756936214062
 20
379.7710768170925
 30
0.0
 11
327.6747480614803
 21
379.7857329073095
 31
0.0
  0
LINE
  5
668
102
{ACAD_REACTORS
330
8A8
102
}
330
1E
100
AcDbEntity
  8
STEMPEL
100
AcDbLine
 10
328.4746331793045
 20
388.9284616402418
 30
0.0
 11
327.6085271973081
 21
379.0288249662861
 31
0.0
  0
ARC
  5
669
330
1E
100
AcDbEntity
  8
STEMPEL
100
AcDbCircle
 10
312.2077448946348
 20
384.6727344417879
 30
0.0
 40
8.0
100
AcDbArc
 50
349.0000000000009
 51
90.0
  0
ARC
  5
66A
330
1E
100
AcDbEntity
  8
STEMPEL
100
AcDbCircle
 10
312.2077448946348
 20
384.6727344417879
 30
0.0
 40
6.0
100
AcDbArc
 50
349.0000000000009
 51
90.0
  0
ARC
  5
66B
330
1E
100
AcDbEntity
  8
STEMPEL
100
AcDbCircle
 10
312.2077448946344
 20
384.672734441788
 30
0.0
 40
9.5
100
AcDbArc
 50
349.0000000000009
 51
90.0
  0
ARC
  5
66C
330
1E
100
AcDbEntity
  8
STEMPEL
100
AcDbCircle
 10
331.3931396301427
 20
364.6727344417878
 30
0.0
 40
6.0
100
AcDbArc
 50
209.9999999999997
 51
270.0
  0
ARC
  5
66D
102
{ACAD_REACTORS
330
7B7
102
}
330
1E
100
AcDbEntity
  8
STEMPEL
100
AcDbCircle
 10
331.3931396301427
 20
364.6727344417878
 30
0.0
 40
8.0
100
AcDbArc
 50
209.9999999999997
 51
270.0
  0
ARC
  5
66E
330
1E
100
AcDbEntity
  8
STEMPEL
100
AcDbCircle
 10
331.3931396301426
 20
364.6727344417878
 30
0.0
 40
6.0
100
AcDbArc
 50
209.9999999999997
 51
233.7257981863595
  0
ARC
  5
66F
102
{ACAD_REACTORS
330
8A8
102
}
330
1E
100
AcDbEntity
  8
STEMPEL
100
AcDbCircle
 10
329.3254083041858
 20
362.2541501547463
 30
0.0
 40
1.5
100
AcDbArc
 50
209.9999999999997
 51
270.0
  0
POINT
  5
670
330
1E
100
AcDbEntity
  8
STEMPEL
100
AcDbPoint
 10
327.7944190072796
 20
357.5278614633099
 30
0.0
  0
POINT
  5
671
330
1E
100
AcDbEntity
  8
STEMPEL
100
AcDbPoint
 10
327.7681569672587
 20
357.541149716512
 30
0.0
  0
ARC
  5
672
330
1E
100
AcDbEntity
  8
STEMPEL
100
AcDbCircle
 10
329.6181889135095
 20
362.2541501547463
 30
0.0
 40
3.0
100
AcDbArc
 50
233.7257981863595
 51
270.0
  0
ARC
  5
673
102
{ACAD_REACTORS
330
7B7
102
}
330
1E
100
AcDbEntity
  8
SCHRAFF
100
AcDbCircle
 10
327.7535181987011
 20
359.688015566876
 30
0.0
 40
4.846378330786084
100
AcDbArc
 50
149.0820156701946
 51
218.47492290053
  0
LINE
  5
674
102
{ACAD_REACTORS
330
7B7
102
}
330
1E
100
AcDbEntity
  8
STEMPEL
100
AcDbLine
 10
316.9593829004021
 20
373.6727344417878
 30
0.0
 11
324.4649363998672
 21
360.6727344417878
 31
0.0
  0
LINE
  5
675
330
1E
100
AcDbEntity
  8
STEMPEL
100
AcDbLine
 10
318.9593829004021
 20
374.2086328266502
 30
0.0
 11
326.196987207436
 21
361.6727344417878
 31
0.0
  0
LINE
  5
676
330
1E
100
AcDbEntity
  8
STEMPEL
100
AcDbLine
 10
318.9593829004019
 20
374.2086328266502
 30
0.0
 11
326.1969872074359
 21
361.6727344417878
 31
0.0
  0
LINE
  5
677
102
{ACAD_REACTORS
330
8A8
102
}
330
1E
100
AcDbEntity
  8
STEMPEL
100
AcDbLine
 10
320.4593829004017
 20
374.6105566152969
 30
0.0
 11
328.0263701985092
 21
361.5041501547463
 31
0.0
  0
LINE
  5
678
102
{ACAD_REACTORS
330
849
330
8A8
102
}
330
1E
100
AcDbEntity
  8
STEMPEL
100
AcDbLine
 10
330.4593829004015
 20
365.7541501547464
 30
0.0
 11
330.4593829004015
 21
388.7541501547464
 31
0.0
  0
LINE
  5
679
330
1E
100
AcDbEntity
  8
STEMPEL
100
AcDbLine
 10
318.9593829004021
 20
377.4801563453926
 30
0.0
 11
318.9593829004021
 21
374.2086328266502
 31
0.0
  0
LINE
  5
67A
330
1E
100
AcDbEntity
  8
STEMPEL
100
AcDbLine
 10
316.9593829004021
 20
377.6727344417878
 30
0.0
 11
316.9593829004021
 21
373.6727344417878
 31
0.0
  0
LINE
  5
67B
330
1E
100
AcDbEntity
  8
STEMPEL
100
AcDbLine
 10
318.9593829004019
 20
377.4801563453926
 30
0.0
 11
318.9593829004019
 21
374.2086328266502
 31
0.0
  0
LINE
  5
67C
102
{ACAD_REACTORS
330
8A8
102
}
330
1E
100
AcDbEntity
  8
STEMPEL
100
AcDbLine
 10
320.4593829004017
 20
377.3357227730965
 30
0.0
 11
320.4593829004017
 21
374.6105566152969
 31
0.0
  0
LINE
  5
67E
330
1E
100
AcDbEntity
  8
STEMPEL
100
AcDbLine
 10
331.3931396301427
 20
358.6727344417878
 30
0.0
 11
363.8652106064577
 21
358.6727344417877
 31
0.0
  0
LINE
  5
67F
102
{ACAD_REACTORS
330
7B7
330
802
102
}
330
1E
100
AcDbEntity
  8
STEMPEL
100
AcDbLine
 10
323.959382900402
 20
356.6727344417878
 30
0.0
 11
363.8652106064577
 21
356.6727344417877
 31
0.0
  0
LINE
  5
680
330
1E
100
AcDbEntity
  8
STEMPEL
100
AcDbLine
 10
329.6181889135095
 20
359.2541501547463
 30
0.0
 11
363.8652106064577
 21
359.2541501547463
 31
0.0
  0
LINE
  5
681
102
{ACAD_REACTORS
330
8A8
102
}
330
1E
100
AcDbEntity
  8
STEMPEL
100
AcDbLine
 10
329.3254083041858
 20
360.7541501547463
 30
0.0
 11
363.8652106064577
 21
360.7541501547463
 31
0.0
  0
LINE
  5
682
102
{ACAD_REACTORS
330
849
330
8A8
102
}
330
1E
100
AcDbEntity
  8
STEMPEL
100
AcDbLine
 10
330.4593829004015
 20
365.7541501547464
 30
0.0
 11
332.4593829004015
 21
365.7541501547464
 31
0.0
  0
LINE
  5
683
102
{ACAD_REACTORS
330
849
330
8A8
102
}
330
1E
100
AcDbEntity
  8
STEMPEL
100
AcDbLine
 10
330.4593829004015
 20
388.7541501547464
 30
0.0
 11
332.4593829004015
 21
388.7541501547463
 31
0.0
  0
LINE
  5
684
102
{ACAD_REACTORS
330
8A8
102
}
330
1E
100
AcDbEntity
  8
STEMPEL
100
AcDbLine
 10
330.4670225754884
 20
390.7541501547463
 30
0.0
 11
372.7514125846204
 21
390.7541501547474
 31
0.0
  0
LINE
  5
685
330
1E
100
AcDbEntity
  8
STEMPEL
100
AcDbLine
 10
378.959382900402
 20
300.6727344417879
 30
0.0
 11
378.959382900402
 21
269.1727344417878
 31
0.0
  0
LINE
  5
686
330
1E
100
AcDbEntity
  8
STEMPEL
100
AcDbLine
 10
353.959382900402
 20
293.1727344417879
 30
0.0
 11
363.8652106064573
 21
293.1727344417879
 31
0.0
  0
LINE
  5
687
330
1E
100
AcDbEntity
  8
STEMPEL
100
AcDbLine
 10
350.6418412659205
 20
281.6727344417878
 30
0.0
 11
353.959382900402
 21
281.6727344417878
 31
0.0
  0
ARC
  5
688
102
{ACAD_REACTORS
330
7D3
102
}
330
1E
100
AcDbEntity
  8
SCHRAFF
100
AcDbCircle
 10
353.959382900402
 20
269.1727344417878
 30
0.0
 40
2.0
100
AcDbArc
 50
90.0
 51
138.5903778907313
  0
POINT
  5
689
330
1E
100
AcDbEntity
  8
SCHRAFF
100
AcDbPoint
 10
350.9593829004019
 20
269.1727344417878
 30
0.0
  0
ARC
  5
68A
102
{ACAD_REACTORS
330
7D3
102
}
330
1E
100
AcDbEntity
  8
SCHRAFF
100
AcDbCircle
 10
350.9593829004019
 20
269.1727344417878
 30
0.0
 40
2.0
100
AcDbArc
 50
41.40962210926974
 51
90.0
  0
LINE
  5
68B
102
{ACAD_REACTORS
330
7D3
102
}
330
1E
100
AcDbEntity
  8
STEMPEL
100
AcDbLine
 10
350.9593829004019
 20
279.1727344417878
 30
0.0
 11
350.9593829004019
 21
269.1727344417878
 31
0.0
  0
ARC
  5
68C
330
1E
100
AcDbEntity
  8
STEMPEL
100
AcDbCircle
 10
340.959382900402
 20
279.1727344417878
 30
0.0
 40
2.0
100
AcDbArc
 50
0.0
 51
90.0
  0
ARC
  5
68D
102
{ACAD_REACTORS
330
7D3
102
}
330
1E
100
AcDbEntity
  8
SCHRAFF
100
AcDbCircle
 10
342.9593829004019
 20
269.1727344417878
 30
0.0
 40
2.0
100
AcDbArc
 50
90.0
 51
162.3195418763017
  0
POINT
  5
68E
330
1E
100
AcDbEntity
  8
STEMPEL
100
AcDbPoint
 10
339.959382900402
 20
266.6727344417878
 30
0.0
  0
ARC
  5
68F
330
1E
100
AcDbEntity
  8
STEMPEL
100
AcDbCircle
 10
344.1115814400248
 20
277.1727344417878
 30
0.0
 40
10.5
100
AcDbArc
 50
226.8476102659941
 51
270.0
  0
ARC
  5
690
102
{ACAD_REACTORS
330
7D3
102
}
330
1E
100
AcDbEntity
  8
STEMPEL
100
AcDbCircle
 10
344.1115814400248
 20
277.1727344417878
 30
0.0
 40
8.0
100
AcDbArc
 50
226.8476102659941
 51
270.0
  0
LINE
  5
691
102
{ACAD_REACTORS
330
7D3
102
}
330
1E
100
AcDbEntity
  8
STEMPEL
100
AcDbLine
 10
342.959382900402
 20
279.1727344417878
 30
0.0
 11
342.9593829004019
 21
269.1727344417878
 31
0.0
  0
LINE
  5
692
330
1E
100
AcDbEntity
  8
MITTEL
100
AcDbLine
 10
346.959382900402
 20
279.1727344417877
 30
0.0
 11
346.959382900402
 21
261.6727344417878
 31
0.0
  0
ARC
  5
693
330
1E
100
AcDbEntity
  8
STEMPEL
100
AcDbCircle
 10
340.9593829004019
 20
279.1727344417878
 30
0.0
 40
10.0
100
AcDbArc
 50
0.0
 51
90.0
  0
LINE
  5
694
330
1E
100
AcDbEntity
  8
STEMPEL
100
AcDbLine
 10
355.5593829004019
 20
293.1727344417879
 30
0.0
 11
355.5593829004019
 21
269.1727344417878
 31
0.0
  0
LINE
  5
695
102
{ACAD_REACTORS
330
7D3
102
}
330
1E
100
AcDbEntity
  8
STEMPEL
100
AcDbLine
 10
353.959382900402
 20
293.1727344417879
 30
0.0
 11
353.959382900402
 21
269.1727344417878
 31
0.0
  0
ARC
  5
696
330
1E
100
AcDbEntity
  8
MITTEL
100
AcDbCircle
 10
340.959382900402
 20
279.1727344417877
 30
0.0
 40
6.0
100
AcDbArc
 50
0.0
 51
90.0
  0
LINE
  5
697
102
{ACAD_REACTORS
330
7D3
102
}
330
1E
100
AcDbEntity
  8
STEMPEL
100
AcDbLine
 10
344.1115814400249
 20
269.1727344417878
 30
0.0
 11
390.459382900402
 21
269.1727344417881
 31
0.0
  0
LINE
  5
698
330
1E
100
AcDbEntity
  8
STEMPEL
100
AcDbLine
 10
344.1115814400248
 20
266.6727344417878
 30
0.0
 11
390.459382900402
 21
266.6727344417878
 31
0.0
  0
LINE
  5
699
102
{ACAD_REACTORS
330
802
102
}
330
1E
100
AcDbEntity
  8
STEMPEL
100
AcDbLine
 10
323.959382900402
 20
281.6727344417878
 30
0.0
 11
330.959382900402
 21
281.6727344417878
 31
0.0
  0
LINE
  5
69A
330
1E
100
AcDbEntity
  8
STEMPEL
100
AcDbLine
 10
330.959382900402
 20
289.1727344417878
 30
0.0
 11
330.959382900402
 21
281.1727344417877
 31
0.0
  0
LINE
  5
69B
102
{ACAD_REACTORS
330
7DB
102
}
330
1E
100
AcDbEntity
  8
STEMPEL
100
AcDbLine
 10
336.9301995867709
 20
269.512593798317
 30
0.0
 11
323.959382900402
 21
281.6727344417878
 31
0.0
  0
LINE
  5
69C
330
1E
100
AcDbEntity
  8
STEMPEL
100
AcDbLine
 10
338.6400524089742
 20
271.3364368086672
 30
0.0
 11
327.6146682669789
 21
281.6727344417878
 31
0.0
  0
LINE
  5
69D
330
1E
100
AcDbEntity
  8
MITTEL
100
AcDbLine
 10
325.9593829004019
 20
285.1727344417877
 30
0.0
 11
340.9593829004019
 21
285.1727344417877
 31
0.0
  0
LINE
  5
69E
330
1E
100
AcDbEntity
  8
STEMPEL
100
AcDbLine
 10
330.959382900402
 20
281.1727344417877
 30
0.0
 11
340.959382900402
 21
281.1727344417878
 31
0.0
  0
LINE
  5
69F
330
1E
100
AcDbEntity
  8
STEMPEL
100
AcDbLine
 10
330.959382900402
 20
289.1727344417878
 30
0.0
 11
340.9593829004019
 21
289.1727344417878
 31
0.0
  0
LINE
  5
6A0
330
1E
100
AcDbEntity
  8
MITTEL
100
AcDbLine
 10
390.4593829004019
 20
397.6727344417879
 30
0.0
 11
390.459382900402
 21
261.6727344417878
 31
0.0
  0
LINE
  5
6A1
102
{ACAD_REACTORS
330
7DB
330
802
102
}
330
1E
100
AcDbEntity
  8
STEMPEL
100
AcDbLine
 10
323.959382900402
 20
356.6727344417878
 30
0.0
 11
323.959382900402
 21
281.6727344417878
 31
0.0
  0
LINE
  5
6A2
102
{ACAD_REACTORS
330
802
102
}
330
1E
100
AcDbEntity
  8
STEMPEL
100
AcDbLine
 10
326.4593829004019
 20
356.6727344417878
 30
0.0
 11
326.4593829004019
 21
281.6727344417878
 31
0.0
  0
LINE
  5
6A3
330
1E
100
AcDbEntity
  8
STEMPEL
100
AcDbLine
 10
363.8652106064575
 20
293.1727344417879
 30
0.0
 11
363.8652106064575
 21
366.6727344417879
 31
0.0
  0
LINE
  5
6A4
330
1E
100
AcDbEntity
  8
STEMPEL
100
AcDbLine
 10
252.959382900402
 20
390.6727344417878
 30
0.0
 11
253.3336071161819
 21
388.7080573089428
 31
0.0
  0
LINE
  5
6A5
330
1E
100
AcDbEntity
  8
STEMPEL
100
AcDbLine
 10
263.6481620636179
 20
390.6727344417878
 30
0.0
 11
253.3336071161819
 21
388.7080573089428
 31
0.0
  0
LINE
  5
6A6
330
1E
100
AcDbEntity
  8
STEMPEL
100
AcDbLine
 10
263.4593829004018
 20
392.6727344417878
 30
0.0
 11
252.959382900402
 21
390.6727344417878
 31
0.0
  0
LINE
  5
6A7
330
1E
100
AcDbEntity
  8
HILF
100
AcDbLine
 10
230.4593829004018
 20
390.6727344417878
 30
0.0
 11
230.4593829004018
 21
396.1727344417878
 31
0.0
  0
LINE
  5
6A8
330
1E
100
AcDbEntity
  8
TEXT
 62
     2
100
AcDbLine
 10
213.8472622592519
 20
440.1134530142985
 30
0.0
 11
237.6600460163924
 21
393.5215262092885
 31
0.0
  0
LINE
  5
6AA
330
1E
100
AcDbEntity
  8
STEMPEL
100
AcDbLine
 10
230.4593829004018
 20
394.1727344417878
 30
0.0
 11
390.4593829004019
 21
394.1727344417877
 31
0.0
  0
LINE
  5
6AC
330
1E
100
AcDbEntity
  8
STEMPEL
100
AcDbLine
 10
230.4593829004018
 20
392.6727344417878
 30
0.0
 11
312.2077448946346
 21
392.6727344417878
 31
0.0
  0
LINE
  5
6AD
330
1E
100
AcDbEntity
  8
STEMPEL
100
AcDbLine
 10
253.3336071161819
 20
388.7080573089428
 30
0.0
 11
300.5623472659425
 21
388.7080573089428
 31
0.0
  0
LINE
  5
6AE
330
1E
100
AcDbEntity
  8
TEXT
 62
     2
100
AcDbLine
 10
213.8472622592519
 20
440.1134530142985
 30
0.0
 11
113.1855343327728
 21
440.1134530142985
 31
0.0
  0
TEXT
  5
6AF
330
1E
100
AcDbEntity
  8
TEXT
 62
     1
100
AcDbText
 10
114.5558557193294
 20
430.5218581623781
 30
0.0
 40
7.0
  1
EDV-Art.Nr.16000.070X
 41
0.8
  7
GREEKS
100
AcDbText
  0
LINE
  5
6B0
330
1E
100
AcDbEntity
  8
STEMPEL
100
AcDbLine
 10
263.6481620636179
 20
390.6727344417878
 30
0.0
 11
312.2077448946348
 21
390.6727344417878
 31
0.0
  0
LINE
  5
6B1
330
1E
100
AcDbEntity
  8
STEMPEL
100
AcDbLine
 10
263.4593829004017
 20
392.672734441788
 30
0.0
 11
312.2077448946346
 21
392.672734441788
 31
0.0
  0
LINE
  5
6B2
330
1E
100
AcDbEntity
  8
STEMPEL
100
AcDbLine
 10
263.4593829004018
 20
392.6727344417878
 30
0.0
 11
312.2077448946348
 21
392.6727344417878
 31
0.0
  0
TEXT
  5
6B3
330
1E
100
AcDbEntity
  8
TEXT
 62
     1
100
AcDbText
 10
114.5558557193294
 20
443.1166956126594
 30
0.0
 40
7.0
  1
Anschlußmanschette
 41
0.8
  7
GREEKS
100
AcDbText
  0
DIMENSION
  5
6B4
330
1E
100
AcDbEntity
  8
BEM
100
AcDbDimension
  2
*D3
 10
640.459382900402
 20
209.2643827922246
 30
0.0
 11
515.459382900402
 21
215.7643827922246
 31
0.0
 70
    32
 71
     5
 42
250.0
  3
Standard
100
AcDbAlignedDimension
 13
390.459382900402
 23
261.6727344417878
 33
0.0
 14
640.459382900402
 24
292.7903065812208
 34
0.0
100
AcDbRotatedDimension
1001
ACAD
1000
DSTYLE
1002
{
1070
    40
1040
2.0
1070
    41
1040
3.5
1070
    42
1040
1.0
1070
    43
1040
7.0
1070
    44
1040
1.0
1070
    73
1070
     0
1070
    74
1070
     0
1070
    77
1070
     1
1070
    78
1070
     8
1070
    79
1070
     2
1070
   140
1040
3.5
1070
   141
1040
1.5
1070
   146
1040
0.5
1070
   147
1040
1.5
1070
   172
1070
     1
1070
   178
1070
     1
1070
   179
1070
     2
1070
   271
1070
     2
1070
   272
1070
     2
1070
   284
1070
     8
1070
   285
1070
     8
1070
   286
1070
     8
1002
}
  0
LINE
  5
6B8
330
1E
100
AcDbEntity
  8
STEMPEL
100
AcDbLine
 10
390.459382900402
 20
269.172734441788
 30
0.0
 11
439.7576384935939
 21
269.172734441788
 31
0.0
  0
LINE
  5
6B9
102
{ACAD_REACTORS
330
7AA
102
}
330
1E
100
AcDbEntity
  8
STEMPEL
100
AcDbLine
 10
390.459382900402
 20
266.6727344417878
 30
0.0
 11
439.7576384935939
 21
266.6727344417878
 31
0.0
  0
LINE
  5
6BA
330
1E
100
AcDbEntity
  8
STEMPEL
100
AcDbLine
 10
378.959382900402
 20
281.6727344417878
 30
0.0
 11
401.959382900402
 21
281.6727344417878
 31
0.0
  0
LINE
  5
6BB
330
1E
100
AcDbEntity
  8
MITTEL
100
AcDbLine
 10
390.4593829004019
 20
305.8922514019811
 30
0.0
 11
645.4525305741749
 21
292.5286268000058
 31
0.0
  0
DIMENSION
  5
6BC
330
1E
100
AcDbEntity
  8
BEM
100
AcDbDimension
  2
*D4
 10
380.1172979656805
 20
305.8922514019811
 30
0.0
 11
468.693312049382
 21
312.4989906044823
 31
0.0
 70
   162
  1
3°
 71
     5
 42
0.0487038261688759
  3
Standard
100
AcDb2LineAngularDimension
 13
390.4593829004019
 23
305.8922514019811
 33
0.0
 14
664.6279139845741
 24
292.5286268000058
 34
0.0
 15
390.4593829004019
 25
305.8922514019811
 35
0.0
 16
468.930398896944
 26
303.3434631706952
 36
0.0
1001
ACAD
1000
DSTYLE
1002
{
1070
    40
1040
2.0
1070
    41
1040
3.5
1070
    42
1040
1.0
1070
    43
1040
7.0
1070
    44
1040
1.0
1070
    73
1070
     0
1070
    74
1070
     0
1070
    77
1070
     1
1070
    78
1070
     8
1070
    79
1070
     2
1070
   140
1040
3.5
1070
   141
1040
1.5
1070
   146
1040
0.5
1070
   147
1040
1.5
1070
   172
1070
     1
1070
   178
1070
     1
1070
   179
1070
     2
1070
   271
1070
     2
1070
   272
1070
     2
1070
   284
1070
     8
1070
   285
1070
     8
1070
   286
1070
     8
1002
}
  0
DIMENSION
  5
6BE
330
1E
100
AcDbEntity
  8
BEM
100
AcDbDimension
  2
*D5
 10
527.9593829004018
 20
405.5270254642736
 30
0.0
 11
390.4593829004019
 21
412.0270254642735
 31
0.0
 70
    32
  1
%%c<>
 71
     5
 42
274.9999999999998
  3
Standard
100
AcDbAlignedDimension
 13
252.959382900402
 23
390.6727344417878
 33
0.0
 14
527.9593829004018
 24
390.6727344417878
 34
0.0
100
AcDbRotatedDimension
1001
ACAD
1000
DSTYLE
1002
{
1070
    40
1040
2.0
1070
    41
1040
3.5
1070
    42
1040
1.0
1070
    43
1040
7.0
1070
    44
1040
1.0
1070
    73
1070
     0
1070
    74
1070
     0
1070
    77
1070
     1
1070
    78
1070
     8
1070
    79
1070
     2
1070
   140
1040
3.5
1070
   141
1040
1.5
1070
   146
1040
0.5
1070
   147
1040
1.5
1070
   172
1070
     1
1070
   178
1070
     1
1070
   179
1070
     2
1070
   271
1070
     2
1070
   272
1070
     2
1070
   284
1070
     8
1070
   285
1070
     8
1070
   286
1070
     8
1002
}
  0
LINE
  5
6C1
330
1E
100
AcDbEntity
  8
STEMPEL
100
AcDbLine
 10
390.4593829004019
 20
394.1727344417878
 30
0.0
 11
550.4593829004019
 21
394.1727344417878
 31
0.0
  0
ARC
  5
6C3
330
1E
100
AcDbEntity
  8
STEMPEL
100
AcDbCircle
 10
390.459382900402
 20
300.6727344417879
 30
0.0
 40
11.5
100
AcDbArc
 50
0.0
 51
180.0
  0
LINE
  5
6C4
330
1E
100
AcDbEntity
  8
HILF
100
AcDbLine
 10
408.6443530858977
 20
384.3866621989064
 30
0.0
 11
372.2744127149057
 21
384.3866621989064
 31
0.0
  0
LINE
  5
6C5
330
1E
100
AcDbEntity
  8
HILF
100
AcDbLine
 10
407.7638526821472
 20
387.672734441788
 30
0.0
 11
373.154913118656
 21
387.672734441788
 31
0.0
  0
LINE
  5
6C6
330
1E
100
AcDbEntity
  8
STEMPEL
100
AcDbLine
 10
407.4593829004019
 20
392.6727344417878
 30
0.0
 11
373.459382900402
 21
392.6727344417879
 31
0.0
  0
LINE
  5
780
330
1E
100
AcDbEntity
  8
TEXT
 62
     2
100
AcDbLine
 10
473.0901928564048
 20
448.5475426568092
 30
0.0
 11
464.2192843999938
 21
424.1342446703972
 31
0.0
  0
TEXT
  5
79A
330
1E
100
AcDbEntity
  8
TEXT
 62
     1
100
AcDbText
 10
218.4597739533649
 20
163.0483731132298
 30
0.0
 40
7.0
  1
EDV-Art.Nr. 16365.070X
 41
0.8
  7
GREEKS
100
AcDbText
  0
LINE
  5
79B
330
1E
100
AcDbEntity
  8
TEXT
 62
     2
100
AcDbLine
 10
320.442220416104
 20
172.6399679651504
 30
0.0
 11
217.0894525668084
 21
172.6399679651504
 31
0.0
  0
TEXT
  5
79C
330
1E
100
AcDbEntity
  8
TEXT
 62
     1
100
AcDbText
 10
218.4597739533649
 20
175.6432105635115
 30
0.0
 40
7.0
  1
Ablauftopf DN70
 41
0.8
  7
GREEKS
100
AcDbText
  0
LINE
  5
79D
330
1E
100
AcDbEntity
  8
TEXT
 62
     2
100
AcDbLine
 10
320.442220416104
 20
172.6399679651504
 30
0.0
 11
367.7436447562066
 21
254.5681550529496
 31
0.0
  0
TEXT
  5
79E
330
1E
100
AcDbEntity
  8
VOLL
100
AcDbText
 10
561.0905797445627
 20
305.697032356393
 30
0.0
 40
7.0
  1
DN70
 50
357.0
 41
0.8
  7
GREEKS
100
AcDbText
  0
HATCH
  5
7AA
330
1E
100
AcDbEntity
  8
SCHRAFF
100
AcDbHatch
 10
0.0
 20
0.0
 30
0.0
210
0.0
220
0.0
230
1.0
  2
_USER
 70
     0
 71
     1
 91
        2
 92
        7
 72
     1
 73
     1
 93
        3
 10
456.9593829004019
 20
341.9572247085829
 42
0.0
 10
456.9593829004019
 20
338.9572247085828
 42
0.0
 10
459.9552715046656
 20
338.800216839854
 42
0.4296339059668433
 97
        3
330
63E
330
640
330
62E
 92
        7
 72
     1
 73
     1
 93
        4
 10
442.7954225834255
 20
266.5993451568005
 42
0.0
 10
439.7576384935939
 20
266.75854867489
 42
0.0
 10
439.7576384935939
 20
266.6727344417878
 42
0.0
 10
436.7893485829845
 20
266.6727344417878
 42
0.7204533354009647
 97
        4
330
64E
330
630
330
6B9
330
634
 75
     0
 76
     0
 52
0.0
 41
0.1
 77
     0
 78
     1
 53
0.0
 43
0.0
 44
0.0
 45
0.0
 46
0.1
 79
     0
 47
0.2689114131075774
 98
        2
 10
458.9406155955764
 20
340.5867721405125
 10
439.0270951092336
 20
266.098308789682
  0
HATCH
  5
7B7
330
1E
100
AcDbEntity
  8
SCHRAFF
100
AcDbHatch
 10
0.0
 20
0.0
 30
0.0
210
0.0
220
0.0
230
1.0
  2
_USER
 70
     0
 71
     1
 91
        2
 92
        7
 72
     1
 73
     1
 93
        4
 10
457.3229733590945
 20
362.1781359364083
 42
0.0
 10
456.4538294009369
 20
360.6727344417878
 42
-0.2679491924311229
 10
449.5256261706614
 20
356.6727344417878
 42
0.0
 10
456.9593829004019
 20
356.6727344417878
 42
0.3123889303588676
 97
        4
330
62C
330
611
330
61F
330
60C
 92
        7
 72
     1
 73
     1
 93
        4
 10
324.4649363998672
 20
360.6727344417878
 42
0.0
 10
323.5957924417095
 20
362.1781359364086
 42
0.3123889303588904
 10
323.9593829004019
 20
356.6727344417878
 42
0.0
 10
331.3931396301427
 20
356.6727344417878
 42
-0.267949192431124
 97
        4
330
674
330
673
330
67F
330
66D
 75
     0
 76
     0
 52
0.0
 41
0.1
 77
     0
 78
     1
 53
0.0
 43
0.0
 44
0.0
 45
0.0
 46
0.1
 79
     0
 47
0.2689114131075774
 98
        2
 10
455.4422938979903
 20
357.5281900065577
 10
325.1971154703795
 20
357.7971026895857
  0
HATCH
  5
7D3
330
1E
100
AcDbEntity
  8
SCHRAFF
100
AcDbHatch
 10
0.0
 20
0.0
 30
0.0
210
0.0
220
0.0
230
1.0
  2
_USER
 70
     0
 71
     1
 91
        2
 92
        7
 72
     1
 73
     1
 93
        5
 10
353.959382900402
 20
271.1727344417878
 42
0.2152504370215402
 10
352.4593829004019
 20
270.4956100973201
 42
0.2152504370215353
 10
350.9593829004019
 20
271.1727344417878
 42
0.0
 10
350.9593829004019
 20
269.1727344417879
 42
0.0
 10
353.959382900402
 20
269.172734441788
 42
0.0
 97
        5
330
688
330
68A
330
68B
330
697
330
695
 92
        7
 72
     1
 73
     1
 93
        3
 10
342.9593829004019
 20
271.1727344417878
 42
0.3264618567432956
 10
341.0538526555578
 20
269.7801506796217
 42
0.0619957062084477
 10
342.9593829004019
 20
269.2561418335194
 42
0.0
 97
        3
330
68D
330
690
330
691
 75
     0
 76
     0
 52
0.0
 41
0.1
 77
     0
 78
     1
 53
0.0
 43
0.0
 44
0.0
 45
0.0
 46
0.1
 79
     0
 47
0.0791912332755132
 98
        2
 10
351.767405084229
 20
269.7101916271383
 10
342.1784890021074
 20
270.1061480744961
  0
ARC
  5
7D6
102
{ACAD_REACTORS
330
7DB
102
}
330
1E
100
AcDbEntity
  8
SCHRAFF
100
AcDbCircle
 10
327.1294160925471
 20
282.5100854775986
 30
0.0
 40
3.837468043073544
100
AcDbArc
 50
145.6975462847955
 51
270.4474275869102
  0
HATCH
  5
7DB
330
1E
100
AcDbEntity
  8
SCHRAFF
100
AcDbHatch
 10
0.0
 20
0.0
 30
0.0
210
0.0
220
0.0
230
1.0
  2
_USER
 70
     0
 71
     1
 91
        1
 92
        7
 72
     1
 73
     1
 93
        3
 10
323.959382900402
 20
281.6727344417878
 42
0.0
 10
323.959382900402
 20
284.6727344417878
 42
0.6053226741105099
 10
327.159382900402
 20
278.6727344417879
 42
0.0
 97
        3
330
6A1
330
7D6
330
69B
 75
     0
 76
     0
 52
0.0
 41
0.1
 77
     0
 78
     1
 53
0.0
 43
0.0
 44
0.0
 45
0.0
 46
0.1
 79
     0
 47
0.0791912332755132
 98
        1
 10
324.9025899386067
 20
279.6882873834743
  0
HATCH
  5
7F3
330
1E
100
AcDbEntity
  8
SCHRAFF
100
AcDbHatch
 10
0.0
 20
0.0
 30
0.0
210
0.0
220
0.0
230
1.0
  2
_USER
 70
     0
 71
     0
 91
        3
 92
        7
 72
     0
 73
     1
 93
        5
 10
439.7576384935939
 20
269.172734441788
 10
390.4593829004019
 20
269.172734441788
 10
390.459382900402
 20
266.6727344417878
 10
439.7531411602062
 20
266.6727344417878
 10
439.7576384935939
 20
266.7585486748889
 97
        0
 92
        7
 72
     0
 73
     1
 93
        4
 10
390.459382900402
 20
269.1727344417881
 10
346.959382900402
 20
269.1727344417879
 10
346.959382900402
 20
266.6727344417878
 10
390.459382900402
 20
266.6727344417878
 97
        0
 92
        7
 72
     1
 73
     1
 93
        8
 10
346.959382900402
 20
269.1727344417879
 42
0.0
 10
344.1115814400249
 20
269.1727344417878
 42
-0.1905449122641886
 10
338.6400524089742
 20
271.3364368086672
 42
0.0
 10
327.6146682669789
 20
281.6727344417878
 42
0.0
 10
323.959382900402
 20
281.6727344417878
 42
0.0
 10
336.9301995867709
 20
269.512593798317
 42
0.1905449122641874
 10
344.1115814400249
 20
266.6727344417878
 42
0.0
 10
346.959382900402
 20
266.6727344417878
 42
0.0
 97
        0
 75
     0
 76
     0
 52
45.0
 41
2.0
 77
     0
 78
     1
 53
45.0
 43
0.0
 44
0.0
 45
-1.414213562373094
 46
1.414213562373095
 79
     0
 47
0.5572442050865547
 98
        3
 10
406.0494424072842
 20
268.2488545824535
 10
370.3605898438884
 20
267.6916098594818
 10
343.5939498755231
 20
268.2488545824535
  0
HATCH
  5
802
330
1E
100
AcDbEntity
  8
SCHRAFF
100
AcDbHatch
 10
0.0
 20
0.0
 30
0.0
210
0.0
220
0.0
230
1.0
  2
_USER
 70
     0
 71
     1
 91
        2
 92
        7
 72
     0
 73
     1
 93
        4
 10
456.9593829004019
 20
356.6727344417878
 10
454.4593829004019
 20
356.6727344417878
 10
454.4593829004019
 20
339.0882441567904
 10
456.9593829004019
 20
338.9572247085829
 97
        4
330
61F
330
63F
330
640
330
63E
 92
        7
 72
     0
 73
     1
 93
        4
 10
326.4593829004019
 20
356.6727344417877
 10
323.959382900402
 20
356.6727344417878
 10
323.959382900402
 20
281.6727344417879
 10
326.459382900402
 20
281.6727344417879
 97
        4
330
67F
330
6A1
330
699
330
6A2
 75
     0
 76
     0
 52
135.0
 41
2.0
 77
     0
 78
     1
 53
135.0
 43
0.0
 44
0.0
 45
-1.414213562373095
 46
-1.414213562373094
 79
     0
 47
0.5572442050865547
 98
        2
 10
456.2368912563331
 20
347.9347757996425
 10
325.1918843514543
 20
336.7898911359509
  0
HATCH
  5
815
330
1E
100
AcDbEntity
  8
SCHRAFF
100
AcDbHatch
 10
0.0
 20
0.0
 30
0.0
210
0.0
220
0.0
230
1.0
  2
_USER
 70
     0
 71
     1
 91
        2
 92
        7
 72
     0
 73
     1
 93
        6
 10
443.5781632993289
 20
339.6585047119738
 10
443.4944257693402
 20
338.0606974563666
 10
632.2298506543695
 20
328.169492966101
 10
642.2397998808594
 20
326.7626863464815
 10
642.3238572746091
 20
328.3665969662308
 10
632.3833499557236
 20
329.7636441621921
 97
        6
330
63C
330
641
330
5F3
330
64A
330
5F4
330
640
 92
        7
 72
     0
 73
     1
 93
        6
 10
439.8413760235826
 20
268.3563559304973
 10
439.7576384935939
 20
266.75854867489
 10
628.5628251499884
 20
256.8636881251084
 10
638.594908526195
 20
257.2140161962106
 10
638.6789659199446
 20
258.81792681596
 10
628.5768009086119
 20
258.4651514402318
 97
        6
330
63C
330
64E
330
647
330
64A
330
648
330
64D
 75
     0
 76
     0
 52
45.0
 41
2.0
 77
     0
 78
     1
 53
45.0
 43
0.0
 44
0.0
 45
-1.414213562373094
 46
1.414213562373095
 79
     0
 47
0.5572442050865547
 98
        2
 10
522.0382148757756
 20
334.5609150428477
 10
504.7514256531765
 20
263.7909009968553
  0
HATCH
  5
83D
330
1E
100
AcDbEntity
  8
SCHRAFF
100
AcDbHatch
 10
0.0
 20
0.0
 30
0.0
210
0.0
220
0.0
230
1.0
  2
_USER
 70
     0
 71
     0
 91
        2
 92
        7
 72
     1
 73
     1
 93
       18
 10
517.2706037371859
 20
390.6727344417879
 42
0.0
 10
527.5851586846218
 20
388.7080573089427
 42
0.0
 10
527.9593829004018
 20
390.672734441788
 42
0.0
 10
517.4593829004014
 20
392.6727344417878
 42
0.0
 10
468.7110209061692
 20
392.6727344417878
 42
0.4716306187712113
 10
460.8580034385879
 20
383.1462624787756
 42
0.0
 10
461.9593829004018
 20
377.4801563453932
 42
0.0
 10
461.959382900402
 20
374.2086328266503
 42
0.0
 10
454.7217785933678
 20
361.6727344417878
 42
-0.2679491924311269
 10
449.5256261706611
 20
358.6727344417878
 42
0.0
 10
447.9593829004018
 20
358.6727344417879
 42
0.0
 10
447.9593829004017
 20
356.6727344417878
 42
0.0
 10
449.5256261706611
 20
356.6727344417878
 42
0.2679491924311336
 10
456.4538294009369
 20
360.6727344417878
 42
0.0
 10
463.9593829004018
 20
373.6727344417878
 42
0.0
 10
463.9593829004017
 20
377.6727344417878
 42
0.0
 10
462.8212578054834
 20
383.5278804695287
 42
-0.4716306187712012
 10
468.7110209061692
 20
390.6727344417878
 42
0.0
 97
        0
 92
        7
 72
     1
 73
     1
 93
       18
 10
312.2077448946348
 20
390.6727344417878
 42
-0.4716306187712128
 10
318.0975079953208
 20
383.5278804695287
 42
0.0
 10
316.9593829004021
 20
377.6727344417878
 42
0.0
 10
316.959382900402
 20
373.6727344417877
 42
0.0
 10
324.4649363998672
 20
360.6727344417878
 42
0.267949192431124
 10
331.3931396301427
 20
356.6727344417878
 42
0.0
 10
332.9593829004021
 20
356.6727344417878
 42
0.0
 10
332.9593829004021
 20
358.6727344417878
 42
0.0
 10
331.3931396301427
 20
358.6727344417878
 42
-0.2679491924311316
 10
326.1969872074359
 20
361.6727344417878
 42
0.0
 10
318.9593829004019
 20
374.2086328266502
 42
0.0
 10
318.9593829004019
 20
377.4801563453928
 42
0.0
 10
320.060762362216
 20
383.1462624787756
 42
0.4716306187712115
 10
312.2077448946348
 20
392.6727344417878
 42
0.0
 10
263.4593829004015
 20
392.6727344417878
 42
0.0
 10
252.959382900402
 20
390.6727344417877
 42
0.0
 10
253.3336071161819
 20
388.7080573089428
 42
0.0
 10
263.6481620636181
 20
390.6727344417878
 42
0.0
 97
        0
 75
     0
 76
     0
 52
45.0
 41
2.0
 77
     0
 78
     1
 53
45.0
 43
0.0
 44
0.0
 45
-1.414213562373094
 46
1.414213562373095
 79
     0
 47
0.3743105014243493
 98
        2
 10
491.9496833936084
 20
391.5053629230376
 10
300.9163115117019
 20
391.5053629230376
  0
HATCH
  5
849
330
1E
100
AcDbEntity
  8
SCHRAFF
100
AcDbHatch
 10
0.0
 20
0.0
 30
0.0
210
0.0
220
0.0
230
1.0
  2
_USER
 70
     0
 71
     1
 91
        2
 92
        7
 72
     0
 73
     1
 93
        4
 10
450.4593829004019
 20
388.7541501547464
 10
448.4593829004019
 20
388.7541501547463
 10
448.4593829004019
 20
365.7541501547464
 10
450.4593829004019
 20
365.7541501547464
 97
        4
330
5FF
330
619
330
60B
330
61A
 92
        7
 72
     0
 73
     1
 93
        4
 10
332.4593829004015
 20
388.7541501547463
 10
330.4593829004015
 20
388.7541501547464
 10
330.4593829004015
 20
365.7541501547464
 10
332.4593829004015
 20
365.7541501547464
 97
        4
330
683
330
678
330
682
330
65A
 75
     0
 76
     0
 52
135.0
 41
2.0
 77
     0
 78
     1
 53
135.0
 43
0.0
 44
0.0
 45
-1.414213562373095
 46
-1.414213562373094
 79
     0
 47
0.2074776655900074
 98
        2
 10
449.0733520247679
 20
380.86327125666
 10
331.7655603424116
 20
378.7884955208324
  0
HATCH
  5
8A8
330
1E
100
AcDbEntity
  8
SCHRAFF
100
AcDbHatch
 10
0.0
 20
0.0
 30
0.0
210
0.0
220
0.0
230
1.0
  2
NET
 70
     0
 71
     1
 91
        4
 92
        7
 72
     1
 73
     1
 93
       22
 10
460.4593829004019
 20
374.6105566152969
 42
0.0
 10
460.4593829004019
 20
377.3357227730956
 42
0.0
 10
460.3005780178746
 20
378.1527030692574
 42
0.9070254633525697
 10
456.337331912391
 20
377.7768336069225
 42
-0.8338648986533785
 10
453.5594459185761
 20
377.6169885300244
 42
0.0
 10
453.505627550786
 20
377.8386647525632
 42
-0.0377440726811219
 10
453.3102386034955
 20
379.028824966286
 42
0.0
 10
452.444132621499
 20
388.9284616402418
 42
0.388878731853442
 10
450.4517432253154
 20
390.7541501547498
 42
0.0
 10
448.4670225754888
 20
390.7541501547498
 42
0.3888787318529582
 10
446.4746331793055
 20
388.9284616402451
 42
0.0
 10
445.7594735921947
 20
380.7541501547463
 42
0.0
 10
445.554690650389
 20
380.7541501547463
 42
0.3639702342661898
 10
443.0926712678586
 20
378.6882705989136
 42
0.0
 10
440.7507991440719
 20
365.4068537994125
 42
-0.3639702342662412
 10
438.7811836380473
 20
363.7541501547463
 42
0.0
 10
438.4593829004018
 20
363.7541501547464
 42
0.0
 10
438.4593829004019
 20
361.7541501547463
 42
0.0
 10
444.9593829004022
 20
361.7541501547464
 42
0.0
 10
446.6914337079712
 20
360.7541501547463
 42
0.0
 10
451.5933574966178
 20
360.7541501547463
 42
0.2679491924311037
 10
452.8923956022944
 20
361.5041501547463
 42
0.0
 97
       22
330
61D
330
602
330
601
330
605
330
604
330
603
330
607
330
5FE
330
627
330
60A
330
609
330
626
330
608
330
61B
330
617
330
624
330
616
330
623
330
615
330
621
330
60F
330
614
 92
       22
 72
     0
 73
     1
 93
        4
 10
448.4593829004019
 20
388.7541501547464
 10
450.4593829004019
 20
388.7541501547464
 10
450.4593829004019
 20
365.7541501547464
 10
448.4593829004019
 20
365.7541501547464
 97
        4
330
5FF
330
61A
330
60B
330
619
 92
        7
 72
     1
 73
     1
 93
       22
 10
337.8260945329449
 20
378.6882705989136
 42
0.3639702342662037
 10
335.3640751504144
 20
380.7541501547463
 42
0.0
 10
335.1592922086089
 20
380.7541501547462
 42
0.0
 10
334.4441326214984
 20
388.9284616402417
 42
0.3888787318529916
 10
332.4517432253148
 20
390.7541501547464
 42
0.0
 10
330.4670225754884
 20
390.7541501547463
 42
0.38887873185304
 10
328.4746331793045
 20
388.9284616402416
 42
0.0
 10
327.6085271973081
 20
379.0288249662861
 42
-0.0377440726811254
 10
327.4131382500176
 20
377.8386647525632
 42
0.0
 10
327.3593198822274
 20
377.6169885300244
 42
-0.8338648986533669
 10
324.5814338884125
 20
377.7768336069224
 42
0.9070254633529801
 10
320.6181877829289
 20
378.1527030692574
 42
0.0
 10
320.4593829004017
 20
377.3357227730962
 42
0.0
 10
320.4593829004017
 20
374.6105566152969
 42
0.0
 10
328.0263701985092
 20
361.5041501547463
 42
0.267949192431124
 10
329.3254083041859
 20
360.7541501547463
 42
0.0
 10
334.2273320928324
 20
360.7541501547463
 42
0.0
 10
335.9593829004012
 20
361.7541501547463
 42
0.0
 10
342.4593829004014
 20
361.7541501547463
 42
0.0
 10
342.4593829004014
 20
363.7541501547463
 42
0.0
 10
342.1375821627565
 20
363.7541501547463
 42
-0.3639702342662667
 10
340.1679666567317
 20
365.4068537994124
 42
0.0
 97
       22
330
650
330
65D
330
651
330
64F
330
684
330
65E
330
668
330
661
330
660
330
65F
330
666
330
665
330
67C
330
677
330
66F
330
681
330
653
330
659
330
652
330
658
330
656
330
65B
 92
       22
 72
     0
 73
     1
 93
        4
 10
332.4593829004015
 20
365.7541501547464
 10
330.4593829004015
 20
365.7541501547464
 10
330.4593829004015
 20
388.7541501547464
 10
332.4593829004015
 20
388.7541501547463
 97
        4
330
682
330
678
330
683
330
65A
 75
     0
 76
     1
 52
45.0
 41
20.0
 77
     0
 78
     2
 53
45.0
 43
0.0
 44
0.0
 45
-1.767766952966368
 46
1.767766952966368
 79
     0
 53
135.0
 43
0.0
 44
0.0
 45
-1.767766952966368
 46
-1.767766952966368
 79
     0
 47
0.2153630305240562
 98
        4
 10
445.8474589663667
 20
369.1109051117696
 10
445.8474589663667
 20
369.1109051117696
 10
335.0725684932283
 20
367.3880007904452
 10
335.0725684932283
 20
367.3880007904452
  0
HATCH
  5
8D0
330
1E
100
AcDbEntity
  8
SCHRAFF
100
AcDbHatch
 10
0.0
 20
0.0
 30
0.0
210
0.0
220
0.0
230
1.0
  2
NET
 70
     0
 71
     0
 91
        2
 92
        7
 72
     1
 73
     1
 93
       17
 10
550.4593829004018
 20
394.1727344417878
 42
0.0
 10
468.7110209061692
 20
394.1727344417878
 42
0.4716306187712214
 10
459.3855626634161
 20
382.8600489857108
 42
0.0
 10
460.4593829004019
 20
377.3357227730965
 42
0.0
 10
460.4593829004018
 20
374.610556615297
 42
0.0
 10
452.8923956022944
 20
361.5041501547463
 42
-0.2679491924311037
 10
451.5933574966178
 20
360.7541501547463
 42
0.0
 10
447.9593829004018
 20
360.7541501547463
 42
0.0
 10
447.9593829004019
 20
359.2541501547463
 42
0.0
 10
451.3005768872925
 20
359.2541501547463
 42
0.1596111177054264
 10
453.0755276039244
 20
359.835565867704
 42
0.1038947388118695
 10
454.7217785933678
 20
361.6727344417878
 42
0.0
 10
461.9593829004018
 20
374.2086328266502
 42
0.0
 10
461.9593829004018
 20
377.4801563453928
 42
0.0
 10
460.8580034385879
 20
383.1462624787756
 42
-0.4716306187712158
 10
468.7110209061692
 20
392.6727344417878
 42
0.0
 10
550.4593829004018
 20
392.6727344417878
 42
0.0
 97
        0
 92
        7
 72
     1
 73
     1
 93
       17
 10
312.2077448946344
 20
394.1727344417878
 42
0.0
 10
230.4593829004018
 20
394.1727344417878
 42
0.0
 10
230.4593829004018
 20
392.6727344417879
 42
0.0
 10
312.2077448946346
 20
392.6727344417878
 42
-0.4716306187712179
 10
320.060762362216
 20
383.1462624787756
 42
0.0
 10
318.9593829004019
 20
377.4801563453928
 42
0.0
 10
318.9593829004019
 20
374.2086328266502
 42
0.0
 10
326.1969872074359
 20
361.6727344417878
 42
0.1038947388117645
 10
327.8432381968765
 20
359.8355658677049
 42
0.1596111177055542
 10
329.6181889135097
 20
359.2541501547463
 42
0.0
 10
332.9593829004019
 20
359.2541501547464
 42
0.0
 10
332.9593829004019
 20
360.7541501547463
 42
0.0
 10
329.3254083041858
 20
360.7541501547463
 42
-0.2679491924311037
 10
328.0263701985092
 20
361.5041501547463
 42
0.0
 10
320.4593829004017
 20
374.6105566152969
 42
0.0
 10
320.4593829004017
 20
377.3357227730967
 42
0.0
 10
321.5332031373872
 20
382.8600489857108
 42
0.4716306187712119
 97
        0
 75
     0
 76
     1
 52
45.0
 41
10.0
 77
     0
 78
     2
 53
45.0
 43
0.0
 44
0.0
 45
-0.8838834764831842
 46
0.8838834764831844
 79
     0
 53
135.0
 43
0.0
 44
0.0
 45
-0.8838834764831844
 46
-0.8838834764831842
 79
     0
 47
0.457149403109294
 98
        2
 10
492.7801431724289
 20
393.4950906357651
 10
296.0668677735914
 20
393.4950906357651
  0
TEXT
  5
8D2
330
1E
100
AcDbEntity
  8
TEXT
100
AcDbText
 10
612.2898419893276
 20
90.27872520473824
 30
0.0
 40
4.0
  1
DIN EN1123-2
 41
0.8
  7
GREEKS
 72
     1
 11
629.2803181798038
 21
90.27872520473824
 31
0.0
100
AcDbText
  0
ARC
  5
921
330
1E
100
AcDbEntity
  8
STEMPEL
100
AcDbCircle
 10
355.663962570036
 20
292.6727344417878
 30
0.0
 40
50.0
100
AcDbArc
 50
182.9999999999991
 51
270.0
  0
LINE
  5
922
330
1E
100
AcDbEntity
  8
STEMPEL
100
AcDbLine
 10
300.4593829004019
 20
390.6727344417878
 30
0.0
 11
305.7324858323074
 21
290.0559366296408
 31
0.0
  0
LINE
  5
923
330
1E
100
AcDbEntity
  8
STEMPEL
100
AcDbLine
 10
355.663962570036
 20
242.6727344417878
 30
0.0
 11
582.7573532116312
 21
242.6727344417878
 31
0.0
  0
LINE
  5
924
102
{ACAD_REACTORS
330
966
102
}
330
1E
100
AcDbEntity
  8
STEMPEL
100
AcDbLine
 10
586.1281292534171
 20
345.2056180574201
 30
0.0
 11
586.232801165903
 21
347.2028771269289
 31
0.0
  0
ARC
  5
925
330
1E
100
AcDbEntity
  8
VOLL
100
AcDbCircle
 10
569.8574018892164
 20
343.0542137079037
 30
0.0
 40
10.0
100
AcDbArc
 50
14.45760312372529
 51
16.99428203135544
  0
LINE
  5
926
102
{ACAD_REACTORS
330
966
102
}
330
1E
100
AcDbEntity
  8
STEMPEL
100
AcDbLine
 10
586.232801165903
 20
347.2028771269289
 30
0.0
 11
588.2300602354121
 21
347.0982052144429
 31
0.0
  0
LINE
  5
927
102
{ACAD_REACTORS
330
966
102
}
330
1E
100
AcDbEntity
  8
STEMPEL
100
AcDbLine
 10
579.6077588868359
 20
335.4334754938562
 30
0.0
 11
579.4559846137314
 21
332.5374498430682
 31
0.0
  0
LINE
  5
928
102
{ACAD_REACTORS
330
966
102
}
330
1E
100
AcDbEntity
  8
STEMPEL
100
AcDbLine
 10
579.6077588868359
 20
335.4334754938562
 30
0.0
 11
587.8385245922739
 21
339.627260089603
 31
0.0
  0
LINE
  5
929
102
{ACAD_REACTORS
330
966
102
}
330
1E
100
AcDbEntity
  8
STEMPEL
100
AcDbLine
 10
576.6694398344395
 20
336.6889758508156
 30
0.0
 11
576.8852919314242
 21
340.8076792177154
 31
0.0
  0
LINE
  5
92A
102
{ACAD_REACTORS
330
966
102
}
330
1E
100
AcDbEntity
  8
STEMPEL
100
AcDbLine
 10
569.6790330911575
 20
337.055327544516
 30
0.0
 11
576.6694398344395
 21
336.6889758508156
 31
0.0
  0
LINE
  5
92B
102
{ACAD_REACTORS
330
966
102
}
330
1E
100
AcDbEntity
  8
STEMPEL
100
AcDbLine
 10
569.4696892661856
 20
333.0608094054977
 30
0.0
 11
570.1500566973439
 21
346.0429933573074
 31
0.0
  0
LINE
  5
92C
102
{ACAD_REACTORS
330
966
102
}
330
1E
100
AcDbEntity
  8
STEMPEL
100
AcDbLine
 10
569.9930488286151
 20
343.0471047530433
 30
0.0
 11
576.8852919314242
 21
340.8076792177154
 31
0.0
  0
LINE
  5
92D
102
{ACAD_REACTORS
330
966
102
}
330
1E
100
AcDbEntity
  8
STEMPEL
100
AcDbLine
 10
570.1500566973439
 20
346.0429933573074
 30
0.0
 11
586.1281292534171
 21
345.2056180574201
 31
0.0
  0
LINE
  5
92E
102
{ACAD_REACTORS
330
966
102
}
330
1E
100
AcDbEntity
  8
STEMPEL
100
AcDbLine
 10
580.8421976728798
 20
244.344035047208
 30
0.0
 11
580.9468695853657
 21
246.3412941167172
 31
0.0
  0
LINE
  5
92F
102
{ACAD_REACTORS
330
966
102
}
330
1E
100
AcDbEntity
  8
STEMPEL
100
AcDbLine
 10
580.8421976728798
 20
244.344035047208
 30
0.0
 11
582.8394567423888
 21
244.2393631347221
 31
0.0
  0
LINE
  5
930
102
{ACAD_REACTORS
330
966
102
}
330
1E
100
AcDbEntity
  8
STEMPEL
100
AcDbLine
 10
583.6244960860332
 20
259.218806156041
 30
0.0
 11
582.7573532116312
 21
242.6727344417878
 31
0.0
  0
LINE
  5
931
102
{ACAD_REACTORS
330
966
102
}
330
1E
100
AcDbEntity
  8
STEMPEL
100
AcDbLine
 10
575.483685534892
 20
256.741468155196
 30
0.0
 11
575.6354598079966
 21
259.6374938059843
 31
0.0
  0
LINE
  5
932
102
{ACAD_REACTORS
330
966
102
}
330
1E
100
AcDbEntity
  8
STEMPEL
100
AcDbLine
 10
572.2143752817762
 20
251.6812801687948
 30
0.0
 11
572.4302273787611
 21
255.7999835356949
 31
0.0
  0
LINE
  5
933
102
{ACAD_REACTORS
330
966
102
}
330
1E
100
AcDbEntity
  8
STEMPEL
100
AcDbLine
 10
565.1258048980213
 20
250.1745580208679
 30
0.0
 11
572.2143752817762
 21
251.6812801687948
 31
0.0
  0
LINE
  5
934
102
{ACAD_REACTORS
330
966
102
}
330
1E
100
AcDbEntity
  8
STEMPEL
100
AcDbLine
 10
565.439820635479
 20
256.1663352293955
 30
0.0
 11
572.4302273787611
 21
255.7999835356949
 31
0.0
  0
LINE
  5
935
102
{ACAD_REACTORS
330
966
102
}
330
1E
100
AcDbEntity
  8
STEMPEL
100
AcDbLine
 10
564.9687970292925
 20
247.1786694166043
 30
0.0
 11
565.6491644604508
 21
260.160853368414
 31
0.0
  0
LINE
  5
936
102
{ACAD_REACTORS
330
966
102
}
330
1E
100
AcDbEntity
  8
STEMPEL
100
AcDbLine
 10
575.483685534892
 20
256.741468155196
 30
0.0
 11
583.2309923855274
 21
251.7103082595623
 31
0.0
  0
LINE
  5
937
102
{ACAD_REACTORS
330
966
102
}
330
1E
100
AcDbEntity
  8
STEMPEL
100
AcDbLine
 10
564.9687970292925
 20
247.1786694166043
 30
0.0
 11
580.9468695853657
 21
246.3412941167172
 31
0.0
  0
LINE
  5
938
102
{ACAD_REACTORS
330
966
102
}
330
1E
100
AcDbEntity
  8
STEMPEL
100
AcDbLine
 10
590.410740179981
 20
388.7080573089427
 30
0.0
 11
587.445020891768
 21
332.1187621931247
 31
0.0
  0
LINE
  5
939
330
1E
100
AcDbEntity
  8
STEMPEL
100
AcDbLine
 10
480.4593829004018
 20
390.6727344417878
 30
0.0
 11
480.4593829004019
 21
388.7080573089428
 31
0.0
  0
HATCH
  5
966
330
1E
100
AcDbEntity
  8
SCHRAFF
100
AcDbHatch
 10
0.0
 20
0.0
 30
0.0
210
0.0
220
0.0
230
1.0
  2
NET
 70
     0
 71
     1
 91
        2
 92
        7
 72
     0
 73
     1
 93
       12
 10
587.8385245922738
 20
339.6272600896031
 10
588.2300602354121
 20
347.0982052144429
 10
586.232801165903
 20
347.2028771269289
 10
586.1281292534171
 20
345.2056180574201
 10
570.1500566973439
 20
346.0429933573075
 10
569.9930488286149
 20
343.0471047530433
 10
576.8852919314241
 20
340.8076792177153
 10
576.6694398344395
 20
336.6889758508156
 10
569.6790330911574
 20
337.055327544516
 10
569.4696892661856
 20
333.0608094054975
 10
579.4559846137314
 20
332.537449843068
 10
579.6077588868359
 20
335.4334754938562
 97
       11
330
938
330
926
330
924
330
92D
330
92B
330
92C
330
929
330
92A
330
640
330
927
330
928
 92
        7
 72
     0
 73
     1
 93
       12
 10
575.6354598079967
 20
259.6374938059844
 10
565.6491644604507
 20
260.1608533684138
 10
565.4398206354788
 20
256.1663352293955
 10
572.4302273787611
 20
255.7999835356949
 10
572.2143752817761
 20
251.6812801687948
 10
565.1258048980213
 20
250.1745580208679
 10
564.9687970292925
 20
247.1786694166044
 10
580.9468695853655
 20
246.3412941167172
 10
580.8421976728798
 20
244.344035047208
 10
582.8394567423889
 20
244.2393631347221
 10
583.2309923855273
 20
251.7103082595623
 10
575.483685534892
 20
256.741468155196
 97
       11
330
64E
330
935
330
934
330
932
330
933
330
937
330
92E
330
92F
330
930
330
936
330
931
 75
     0
 76
     1
 52
45.0
 41
15.0
 77
     0
 78
     2
 53
45.0
 43
0.0
 44
0.0
 45
-1.325825214724776
 46
1.325825214724776
 79
     0
 53
135.0
 43
0.0
 44
0.0
 45
-1.325825214724776
 46
-1.325825214724776
 79
     0
 47
0.2408520201875048
 98
        2
 10
579.2705183814444
 20
339.4585531106009
 10
571.7988259320271
 20
257.5688652220354
  0
TEXT
  5
96F
330
1E
100
AcDbEntity
  8
TEXT
100
AcDbText
 10
654.3410940884992
 20
62.10021383107525
 30
0.0
 40
5.0
  1

 41
0.8
  7
GREEKS
100
AcDbText
  0
DIMENSION
  5
970
330
1E
100
AcDbEntity
  8
BEM
100
AcDbDimension
  2
*D6
 10
217.2541298037038
 20
242.6727344417879
 30
0.0
 11
210.7541298037038
 21
317.6727344417879
 31
0.0
 70
    32
 71
     5
 42
150.0
  3
Standard
100
AcDbAlignedDimension
 13
230.4593829004018
 23
392.6727344417878
 33
0.0
 14
355.663962570036
 24
242.6727344417878
 34
0.0
 50
90.0
100
AcDbRotatedDimension
1001
ACAD
1000
DSTYLE
1002
{
1070
    40
1040
2.0
1070
    41
1040
3.5
1070
    42
1040
1.0
1070
    43
1040
7.0
1070
    44
1040
1.0
1070
    73
1070
     0
1070
    74
1070
     0
1070
    77
1070
     1
1070
    78
1070
     8
1070
    79
1070
     2
1070
   140
1040
3.5
1070
   141
1040
1.5
1070
   146
1040
0.5
1070
   147
1040
1.5
1070
   172
1070
     1
1070
   178
1070
     1
1070
   179
1070
     2
1070
   271
1070
     2
1070
   272
1070
     2
1070
   284
1070
     8
1070
   285
1070
     8
1070
   286
1070
     8
1002
}
  0
DIMENSION
  5
97D
330
1E
100
AcDbEntity
  8
BEM
100
AcDbDimension
  2
*D7
 10
590.410740179981
 20
422.399458139615
 30
0.0
 11
445.4350615401915
 21
428.899458139615
 31
0.0
 70
    32
  1
290
 71
     5
 42
289.9513572795791
  3
Standard
100
AcDbAlignedDimension
 13
300.4593829004019
 23
390.6727344417878
 33
0.0
 14
590.410740179981
 24
388.7080573089427
 34
0.0
100
AcDbRotatedDimension
1001
ACAD
1000
DSTYLE
1002
{
1070
    40
1040
2.0
1070
    41
1040
3.5
1070
    42
1040
1.0
1070
    43
1040
7.0
1070
    44
1040
1.0
1070
    73
1070
     0
1070
    74
1070
     0
1070
    77
1070
     1
1070
    78
1070
     8
1070
    79
1070
     2
1070
   140
1040
3.5
1070
   141
1040
1.5
1070
   146
1040
0.5
1070
   147
1040
1.5
1070
   172
1070
     1
1070
   178
1070
     1
1070
   179
1070
     2
1070
   271
1070
     2
1070
   272
1070
     2
1070
   284
1070
     8
1070
   285
1070
     8
1070
   286
1070
     8
1002
}
  0
DIMENSION
  5
9A6
330
1E
100
AcDbEntity
  8
BEM
100
AcDbDimension
  2
*D8
 10
636.8585663199504
 20
224.0826332221852
 30
0.0
 11
609.7364378297791
 21
232.0129639947709
 31
0.0
 70
    32
 71
     5
 42
54.99999999999966
 51
3.000000000000067
  3
Standard
100
AcDbAlignedDimension
 13
582.7573532116314
 23
242.6727344417879
 33
0.0
 14
638.5949085261951
 24
257.2140161962106
 34
0.0
 50
356.9999999999999
100
AcDbRotatedDimension
1001
ACAD
1000
DSTYLE
1002
{
1070
    40
1040
2.0
1070
    41
1040
3.5
1070
    42
1040
1.0
1070
    43
1040
7.0
1070
    44
1040
1.0
1070
    73
1070
     0
1070
    74
1070
     0
1070
    77
1070
     1
1070
    78
1070
     8
1070
    79
1070
     2
1070
   140
1040
3.5
1070
   141
1040
1.5
1070
   146
1040
0.5
1070
   147
1040
1.5
1070
   172
1070
     1
1070
   178
1070
     1
1070
   179
1070
     2
1070
   271
1070
     2
1070
   272
1070
     2
1070
   284
1070
     8
1070
   285
1070
     8
1070
   286
1070
     8
1002
}
  0
DIMENSION
  5
9B3
330
1E
100
AcDbEntity
  8
BEM
100
AcDbDimension
  2
*D9
 10
679.5461298705966
 20
292.7903065812203
 30
0.0
 11
673.0461298705964
 21
342.7315205115041
 31
0.0
 70
    32
  1
100
 71
     5
 42
99.88242786056748
  3
Standard
100
AcDbAlignedDimension
 13
550.4593829004019
 23
392.6727344417878
 33
0.0
 14
659.6347663108011
 24
292.7903065812203
 34
0.0
 50
90.0
100
AcDbRotatedDimension
1001
ACAD
1000
DSTYLE
1002
{
1070
    40
1040
2.0
1070
    41
1040
3.5
1070
    42
1040
1.0
1070
    43
1040
7.0
1070
    44
1040
1.0
1070
    73
1070
     0
1070
    74
1070
     0
1070
    77
1070
     1
1070
    78
1070
     8
1070
    79
1070
     2
1070
   140
1040
3.5
1070
   141
1040
1.5
1070
   146
1040
0.5
1070
   147
1040
1.5
1070
   172
1070
     1
1070
   178
1070
     1
1070
   179
1070
     2
1070
   271
1070
     2
1070
   272
1070
     2
1070
   284
1070
     8
1070
   285
1070
     8
1070
   286
1070
     8
1002
}
  0
LINE
  5
9E1
330
1E
100
AcDbEntity
  8
BEM
100
AcDbLine
 10
642.459382900402
 20
292.7903065812206
 30
0.0
 11
648.04280854897
 21
292.7903065812206
 31
0.0
  0
LINE
  5
A28
330
1E
100
AcDbEntity
  8
TEXT
 62
     2
100
AcDbLine
 10
462.8483570250184
 20
420.3613663132976
 30
0.0
 11
458.2492700862726
 21
407.7043898094003
 31
0.0
  0
LINE
  5
A29
330
1E
100
AcDbEntity
  8
TEXT
 62
     2
100
AcDbLine
 10
456.5911869300931
 20
403.1412406824577
 30
0.0
 11
451.3866433865899
 21
388.818009523537
 31
0.0
  0
HATCH
  5
A5B
330
1E
100
AcDbEntity
  8
SCHRAFF
100
AcDbHatch
 10
0.0
 20
0.0
 30
0.0
210
0.0
220
0.0
230
1.0
  2
HONEY
 70
     0
 71
     0
 91
        3
 92
        7
 72
     1
 73
     1
 93
       16
 10
590.4107401799811
 20
388.7080573089427
 42
0.0
 10
480.4593829004018
 20
388.7080573089428
 42
0.0
 10
480.4593829004019
 20
390.6727344417878
 42
0.0
 10
468.7110209061692
 20
390.6727344417878
 42
0.4716306187712012
 10
462.8212578054834
 20
383.5278804695287
 42
0.0
 10
463.9593829004018
 20
377.672734441788
 42
0.0
 10
463.9593829004018
 20
373.6727344417878
 42
0.0
 10
457.3229733590945
 20
362.1781359364083
 42
-0.3123889303588676
 10
456.9593829004019
 20
356.6727344417878
 42
0.0
 10
456.9593829004019
 20
341.9572247085829
 42
-0.4296339059668373
 10
459.9552715046656
 20
338.8002168398541
 42
0.0
 10
569.4696892661858
 20
333.0608094054976
 42
0.0
 10
570.1500566973439
 20
346.0429933573075
 42
0.0
 10
586.1281292534171
 20
345.2056180574202
 42
0.0
 10
586.232801165903
 20
347.2028771269289
 42
0.0
 10
588.2300602354123
 20
347.0982052144429
 42
0.0
 97
        0
 92
        7
 72
     1
 73
     1
 93
       12
 10
565.6491644604508
 20
260.1608533684138
 42
0.0
 10
442.7954225834255
 20
266.5993451568005
 42
-0.7204533354009648
 10
436.7893485829845
 20
266.6727344417878
 42
0.0
 10
390.459382900402
 20
266.6727344417878
 42
0.0
 10
366.5348271713787
 20
266.6727344417878
 42
0.0
 10
352.7281768415905
 20
242.7589972329126
 42
0.0146884323144134
 10
355.6639625700355
 20
242.6727344417878
 42
0.0
 10
582.7573532116312
 20
242.6727344417879
 42
0.0
 10
582.8394567423891
 20
244.2393631347222
 42
0.0
 10
580.8421976728798
 20
244.344035047208
 42
0.0
 10
580.9468695853655
 20
246.3412941167173
 42
0.0
 10
564.9687970292924
 20
247.1786694166042
 42
0.0
 97
        0
 92
        7
 72
     1
 73
     1
 93
       14
 10
366.5348271713788
 20
266.6727344417878
 42
0.0
 10
344.1115814400248
 20
266.6727344417878
 42
-0.190544912264186
 10
336.9301995867709
 20
269.512593798317
 42
0.0
 10
327.159382900402
 20
278.6727344417879
 42
-0.6053226741105099
 10
323.959382900402
 20
284.6727344417878
 42
0.0
 10
323.959382900402
 20
356.6727344417878
 42
-0.3123889303588949
 10
323.5957924417094
 20
362.1781359364086
 42
0.0
 10
316.9593829004022
 20
373.6727344417878
 42
0.0
 10
316.9593829004021
 20
377.6727344417878
 42
0.0
 10
318.0975079953208
 20
383.5278804695287
 42
0.4716306187712128
 10
312.2077448946348
 20
390.6727344417878
 42
0.0
 10
300.459382900402
 20
390.6727344417878
 42
0.0
 10
305.7324858323074
 20
290.0559366296408
 42
0.3820323694815
 10
352.7281768415906
 20
242.7589972329126
 42
0.0
 97
        0
 75
     0
 76
     1
 52
0.0
 41
30.0
 77
     0
 78
     3
 53
0.0
 43
0.0
 44
0.0
 45
5.625
 46
3.247595249999999
 79
     2
 49
3.75
 49
-7.5
 53
120.0
 43
0.0
 44
0.0
 45
-5.624999987709673
 46
3.247595271287468
 79
     2
 49
3.75
 49
-7.5
 53
60.0
 43
0.0
 44
0.0
 45
0.0000000122903263
 46
6.495190521287468
 79
     2
 49
-7.5
 49
3.75
 47
0.4287577651858328
 98
        3
 10
511.3789045916062
 20
357.8136076826309
 10
466.7565576425256
 20
251.9104396817304
 10
347.4775962101937
 20
255.7692595684027
  0
ENDSEC
  0
SECTION
  2
OBJECTS
  0
DICTIONARY
  5
C
330
0
100
AcDbDictionary
281
     1
  3
ACAD_COLOR
350
11A
  3
ACAD_GROUP
350
D
  3
ACAD_LAYOUT
350
19
  3
ACAD_MATERIAL
350
119
  3
ACAD_MLINESTYLE
350
16
  3
ACAD_PLOTSETTINGS
350
18
  3
ACAD_PLOTSTYLENAME
350
E
  3
AcDbVariableDictionary
350
125
  0
DICTIONARY
  5
DB
330
1E
100
AcDbDictionary
280
     1
281
     1
  3
ACAD_LAYOUTSELFREF
360
10F
  0
DICTIONARY
  5
DD
330
1A
100
AcDbDictionary
280
     1
281
     1
  3
ACAD_LAYOUTSELFREF
360
10E
  0
DICTIONARY
  5
11A
102
{ACAD_REACTORS
330
C
102
}
330
C
100
AcDbDictionary
281
     1
  0
DICTIONARY
  5
D
102
{ACAD_REACTORS
330
C
102
}
330
C
100
AcDbDictionary
281
     1
  0
DICTIONARY
  5
19
102
{ACAD_REACTORS
330
C
102
}
330
C
100
AcDbDictionary
281
     1
  3
Layout1
350
1D
  3
Model
350
21
  0
DICTIONARY
  5
119
102
{ACAD_REACTORS
330
C
102
}
330
C
100
AcDbDictionary
281
     1
  0
DICTIONARY
  5
16
102
{ACAD_REACTORS
330
C
102
}
330
C
100
AcDbDictionary
281
     1
  3
Standard
350
17
  0
DICTIONARY
  5
18
102
{ACAD_REACTORS
330
C
102
}
330
C
100
AcDbDictionary
281
     1
  0
ACDBDICTIONARYWDFLT
  5
E
102
{ACAD_REACTORS
330
C
102
}
330
C
100
AcDbDictionary
281
     1
  3
Normal
350
F
100
AcDbDictionaryWithDefault
340
F
  0
DICTIONARY
  5
125
102
{ACAD_REACTORS
330
C
102
}
330
C
100
AcDbDictionary
281
     1
  3
DIMASSOC
350
126
  3
PROJECTNAME
350
127
  0
XRECORD
  5
10F
102
{ACAD_REACTORS
330
DB
102
}
330
DB
100
AcDbXrecord
280
     1
340
1E
  0
XRECORD
  5
10E
102
{ACAD_REACTORS
330
DD
102
}
330
DD
100
AcDbXrecord
280
     1
340
1A
  0
LAYOUT
  5
1D
102
{ACAD_REACTORS
330
19
102
}
330
19
100
AcDbPlotSettings
  1

  2
\\NT_WORK01\HP LaserJet 5000 PCL 6
  4

  6

 40
0.0
 41
0.0
 42
0.0
 43
0.0
 44
0.0
 45
0.0
 46
0.0
 47
0.0
 48
0.0
 49
0.0
140
0.0
141
0.0
142
1.0
143
1.0
 70
   688
 72
     0
 73
     0
 74
     5
  7

 75
    16
147
1.0
 76
     0
 77
     2
 78
   300
148
0.0
149
0.0
100
AcDbLayout
  1
Layout1
 70
     0
 71
     1
 10
0.0
 20
0.0
 11
12.0
 21
9.0
 12
0.0
 22
0.0
 32
0.0
 14
1.000000000000000E+20
 24
1.000000000000000E+20
 34
1.000000000000000E+20
 15
-1.000000000000000E+20
 25
-1.000000000000000E+20
 35
-1.000000000000000E+20
146
0.0
 13
0.0
 23
0.0
 33
0.0
 16
1.0
 26
0.0
 36
0.0
 17
0.0
 27
1.0
 37
0.0
 76
     0
330
1A
  0
LAYOUT
  5
21
102
{ACAD_REACTORS
330
19
102
}
330
19
100
AcDbPlotSettings
  1

  2
none_device
  4
Letter_(8.50_x_11.00_Inches)
  6

 40
6.349999904632568
 41
6.349999904632568
 42
6.350006103515625
 43
6.350006103515625
 44
215.8999938964844
 45
279.3999938964844
 46
0.0
 47
0.0
 48
0.0
 49
0.0
140
0.0
141
0.0
142
1.0
143
1.0
 70
 11952
 72
     0
 73
     1
 74
     0
  7

 75
     0
147
1.0
 76
     0
 77
     2
 78
   300
148
-2640.218638402955
149
483.5425472407184
100
AcDbLayout
  1
Model
 70
     1
 71
     0
 10
0.0
 20
0.0
 11
12.0
 21
9.0
 12
0.0
 22
0.0
 32
0.0
 14
0.0
 24
0.0
 34
0.0
 15
0.0
 25
0.0
 35
0.0
146
0.0
 13
0.0
 23
0.0
 33
0.0
 16
1.0
 26
0.0
 36
0.0
 17
0.0
 27
1.0
 37
0.0
 76
     0
330
1E
  0
MLINESTYLE
  5
17
102
{ACAD_REACTORS
330
16
102
}
330
16
100
AcDbMlineStyle
  2
STANDARD
 70
     0
  3

 62
   256
 51
90.0
 52
90.0
 71
     2
 49
0.5
 62
   256
  6
BYLAYER
 49
-0.5
 62
   256
  6
BYLAYER
  0
ACDBPLACEHOLDER
  5
F
102
{ACAD_REACTORS
330
E
102
}
330
E
  0
DICTIONARYVAR
  5
126
102
{ACAD_REACTORS
330
125
102
}
330
125
100
DictionaryVariables
280
     0
  1
1
  0
DICTIONARYVAR
  5
127
102
{ACAD_REACTORS
330
125
102
}
330
125
100
DictionaryVariables
280
     0
  1

  0
ENDSEC
  0
EOF
