  0
SECTION
  2
HEADER
  9
$ACADVER
  1
AC1018
  9
$ACADMAINTVER
 70
     2
  9
$DWGCODEPAGE
  3
ANSI_1252
  9
$INSBASE
 10
0.0
 20
0.0
 30
0.0
  9
$EXTMIN
 10
-0.0320385670875112
 20
-0.045311687738149
 30
-0.000000000000013
  9
$EXTMAX
 10
420.0000019560165
 20
594.0000027663659
 30
0.0000000000000023
  9
$LIMMIN
 10
0.0
 20
0.0
  9
$LIMMAX
 10
420.0
 20
594.0
  9
$ORTHOMODE
 70
     1
  9
$REGENMODE
 70
     1
  9
$FILLMODE
 70
     1
  9
$QTEXTMODE
 70
     0
  9
$MIRRTEXT
 70
     1
  9
$LTSCALE
 40
20.0
  9
$ATTMODE
 70
     1
  9
$TEXTSIZE
 40
1.8
  9
$TRACEWID
 40
1.0
  9
$TEXTSTYLE
  7
GREEKS
  9
$CLAYER
  8
BEM
  9
$CELTYPE
  6
ByLayer
  9
$CECOLOR
 62
   256
  9
$CELTSCALE
 40
1.0
  9
$DISPSILH
 70
     0
  9
$DIMSCALE
 40
2.0
  9
$DIMASZ
 40
3.5
  9
$DIMEXO
 40
1.0
  9
$DIMDLI
 40
7.0
  9
$DIMRND
 40
0.0
  9
$DIMDLE
 40
0.0
  9
$DIMEXE
 40
1.0
  9
$DIMTP
 40
0.16
  9
$DIMTM
 40
0.16
  9
$DIMTXT
 40
3.5
  9
$DIMCEN
 40
1.5
  9
$DIMTSZ
 40
0.0
  9
$DIMTOL
 70
     0
  9
$DIMLIM
 70
     0
  9
$DIMTIH
 70
     0
  9
$DIMTOH
 70
     0
  9
$DIMSE1
 70
     0
  9
$DIMSE2
 70
     0
  9
$DIMTAD
 70
     1
  9
$DIMZIN
 70
     8
  9
$DIMBLK
  1

  9
$DIMASO
 70
     1
  9
$DIMSHO
 70
     0
  9
$DIMPOST
  1

  9
$DIMAPOST
  1

  9
$DIMALT
 70
     0
  9
$DIMALTD
 70
     2
  9
$DIMALTF
 40
25.4
  9
$DIMLFAC
 40
1.0
  9
$DIMTOFL
 70
     1
  9
$DIMTVP
 40
0.2857142857142857
  9
$DIMTIX
 70
     0
  9
$DIMSOXD
 70
     0
  9
$DIMSAH
 70
     0
  9
$DIMBLK1
  1

  9
$DIMBLK2
  1

  9
$DIMSTYLE
  2
Standard
  9
$DIMCLRD
 70
     0
  9
$DIMCLRE
 70
     0
  9
$DIMCLRT
 70
     1
  9
$DIMTFAC
 40
0.5
  9
$DIMGAP
 40
1.5
  9
$DIMJUST
 70
     0
  9
$DIMSD1
 70
     0
  9
$DIMSD2
 70
     0
  9
$DIMTOLJ
 70
     1
  9
$DIMTZIN
 70
     8
  9
$DIMALTZ
 70
     8
  9
$DIMALTTZ
 70
     8
  9
$DIMUPT
 70
     0
  9
$DIMDEC
 70
     2
  9
$DIMTDEC
 70
     2
  9
$DIMALTU
 70
     2
  9
$DIMALTTD
 70
     2
  9
$DIMTXSTY
  7
GREEKS
  9
$DIMAUNIT
 70
     0
  9
$DIMADEC
 70
     2
  9
$DIMALTRND
 40
0.0
  9
$DIMAZIN
 70
     2
  9
$DIMDSEP
 70
    46
  9
$DIMATFIT
 70
     3
  9
$DIMFRAC
 70
     0
  9
$DIMLDRBLK
  1

  9
$DIMLUNIT
 70
     2
  9
$DIMLWD
 70
    -2
  9
$DIMLWE
 70
    -2
  9
$DIMTMOVE
 70
     0
  9
$LUNITS
 70
     2
  9
$LUPREC
 70
     2
  9
$SKETCHINC
 40
1.0
  9
$FILLETRAD
 40
0.0
  9
$AUNITS
 70
     0
  9
$AUPREC
 70
     0
  9
$MENU
  1
ACAD
  9
$ELEVATION
 40
0.0
  9
$PELEVATION
 40
0.0
  9
$THICKNESS
 40
0.0
  9
$LIMCHECK
 70
     0
  9
$CHAMFERA
 40
0.5
  9
$CHAMFERB
 40
0.5
  9
$CHAMFERC
 40
0.0
  9
$CHAMFERD
 40
0.0
  9
$SKPOLY
 70
     0
  9
$TDCREATE
 40
2451463.491336459
  9
$TDUCREATE
 40
2451463.408003125
  9
$TDUPDATE
 40
2455462.304908912
  9
$TDUUPDATE
 40
2455462.221575579
  9
$TDINDWG
 40
0.1505504745
  9
$TDUSRTIMER
 40
0.1505504745
  9
$USRTIMER
 70
     1
  9
$ANGBASE
 50
0.0
  9
$ANGDIR
 70
     0
  9
$PDMODE
 70
     0
  9
$PDSIZE
 40
0.0
  9
$PLINEWID
 40
0.0
  9
$SPLFRAME
 70
     0
  9
$SPLINETYPE
 70
     6
  9
$SPLINESEGS
 70
     8
  9
$HANDSEED
  5
F4D
  9
$SURFTAB1
 70
     6
  9
$SURFTAB2
 70
     6
  9
$SURFTYPE
 70
     6
  9
$SURFU
 70
     6
  9
$SURFV
 70
     6
  9
$UCSBASE
  2

  9
$UCSNAME
  2

  9
$UCSORG
 10
0.0
 20
0.0
 30
0.0
  9
$UCSXDIR
 10
1.0
 20
0.0
 30
0.0
  9
$UCSYDIR
 10
0.0
 20
1.0
 30
0.0
  9
$UCSORTHOREF
  2

  9
$UCSORTHOVIEW
 70
     0
  9
$UCSORGTOP
 10
0.0
 20
0.0
 30
0.0
  9
$UCSORGBOTTOM
 10
0.0
 20
0.0
 30
0.0
  9
$UCSORGLEFT
 10
0.0
 20
0.0
 30
0.0
  9
$UCSORGRIGHT
 10
0.0
 20
0.0
 30
0.0
  9
$UCSORGFRONT
 10
0.0
 20
0.0
 30
0.0
  9
$UCSORGBACK
 10
0.0
 20
0.0
 30
0.0
  9
$PUCSBASE
  2

  9
$PUCSNAME
  2

  9
$PUCSORG
 10
0.0
 20
0.0
 30
0.0
  9
$PUCSXDIR
 10
1.0
 20
0.0
 30
0.0
  9
$PUCSYDIR
 10
0.0
 20
1.0
 30
0.0
  9
$PUCSORTHOREF
  2

  9
$PUCSORTHOVIEW
 70
     0
  9
$PUCSORGTOP
 10
0.0
 20
0.0
 30
0.0
  9
$PUCSORGBOTTOM
 10
0.0
 20
0.0
 30
0.0
  9
$PUCSORGLEFT
 10
0.0
 20
0.0
 30
0.0
  9
$PUCSORGRIGHT
 10
0.0
 20
0.0
 30
0.0
  9
$PUCSORGFRONT
 10
0.0
 20
0.0
 30
0.0
  9
$PUCSORGBACK
 10
0.0
 20
0.0
 30
0.0
  9
$USERI1
 70
     0
  9
$USERI2
 70
     0
  9
$USERI3
 70
     0
  9
$USERI4
 70
     0
  9
$USERI5
 70
     0
  9
$USERR1
 40
0.0
  9
$USERR2
 40
0.0
  9
$USERR3
 40
0.0
  9
$USERR4
 40
0.0
  9
$USERR5
 40
0.0
  9
$WORLDVIEW
 70
     1
  9
$SHADEDGE
 70
     3
  9
$SHADEDIF
 70
    70
  9
$TILEMODE
 70
     1
  9
$MAXACTVP
 70
    16
  9
$PINSBASE
 10
0.0
 20
0.0
 30
0.0
  9
$PLIMCHECK
 70
     0
  9
$PEXTMIN
 10
1.000000000000000E+20
 20
1.000000000000000E+20
 30
1.000000000000000E+20
  9
$PEXTMAX
 10
-1.000000000000000E+20
 20
-1.000000000000000E+20
 30
-1.000000000000000E+20
  9
$PLIMMIN
 10
0.0
 20
0.0
  9
$PLIMMAX
 10
12.0
 20
9.0
  9
$UNITMODE
 70
     0
  9
$VISRETAIN
 70
     0
  9
$PLINEGEN
 70
     0
  9
$PSLTSCALE
 70
     0
  9
$TREEDEPTH
 70
  3020
  9
$CMLSTYLE
  2
Standard
  9
$CMLJUST
 70
     0
  9
$CMLSCALE
 40
1.0
  9
$PROXYGRAPHICS
 70
     1
  9
$MEASUREMENT
 70
     0
  9
$CELWEIGHT
370
    -1
  9
$ENDCAPS
280
     0
  9
$JOINSTYLE
280
     0
  9
$LWDISPLAY
290
     0
  9
$INSUNITS
 70
     0
  9
$HYPERLINKBASE
  1

  9
$STYLESHEET
  1
monochrome 1.ctb
  9
$XEDIT
290
     1
  9
$CEPSNTYPE
380
     0
  9
$PSTYLEMODE
290
     1
  9
$FINGERPRINTGUID
  2
{B1AAA80E-AFDD-4C73-A251-C94F254D7CA7}
  9
$VERSIONGUID
  2
{DECE7D12-62B7-449C-9CDD-0ECC1891E509}
  9
$EXTNAMES
290
     1
  9
$PSVPSCALE
 40
0.0
  9
$OLESTARTUP
290
     0
  9
$SORTENTS
280
   127
  9
$INDEXCTL
280
     0
  9
$HIDETEXT
280
     1
  9
$XCLIPFRAME
290
     0
  9
$HALOGAP
280
     0
  9
$OBSCOLOR
 70
   257
  9
$OBSLTYPE
280
     0
  9
$INTERSECTIONDISPLAY
280
     0
  9
$INTERSECTIONCOLOR
 70
   257
  9
$DIMASSOC
280
     2
  9
$PROJECTNAME
  1

  0
ENDSEC
  0
SECTION
  2
CLASSES
  0
CLASS
  1
ACDBDICTIONARYWDFLT
  2
AcDbDictionaryWithDefault
  3
ObjectDBX Classes
 90
        0
 91
        1
280
     0
281
     0
  0
CLASS
  1
DICTIONARYVAR
  2
AcDbDictionaryVar
  3
ObjectDBX Classes
 90
        0
 91
        3
280
     0
281
     0
  0
CLASS
  1
DIMASSOC
  2
AcDbDimAssoc
  3
"AcDbDimAssoc|Product Desc:     AcDim ARX App For Dimension|Company:          Autodesk, Inc.|WEB Address:      www.autodesk.com"
 90
        0
 91
        2
280
     0
281
     0
  0
ENDSEC
  0
SECTION
  2
TABLES
  0
TABLE
  2
VPORT
  5
8
330
0
100
AcDbSymbolTable
 70
     2
  0
VPORT
  5
F4C
330
8
100
AcDbSymbolTableRecord
100
AcDbViewportTableRecord
  2
*Active
 70
     0
 10
0.0
 20
0.0
 11
1.0
 21
1.0
 12
209.9839816944645
 22
296.977345539314
 13
0.0
 23
0.0
 14
2.5
 24
2.5
 15
10.0
 25
10.0
 16
0.0
 26
0.0
 36
1.0
 17
0.0
 27
0.0
 37
0.0
 40
598.8424502370444
 41
1.336927223719676
 42
50.0
 43
0.0
 44
0.0
 50
0.0
 51
0.0
 71
     0
 72
   500
 73
     1
 74
     0
 75
     0
 76
     0
 77
     0
 78
     0
281
     0
 65
     1
110
0.0
120
0.0
130
0.0
111
1.0
121
0.0
131
0.0
112
0.0
122
1.0
132
0.0
 79
     0
146
0.0
  0
ENDTAB
  0
TABLE
  2
LTYPE
  5
5
330
0
100
AcDbSymbolTable
 70
     2
  0
LTYPE
  5
13
330
5
100
AcDbSymbolTableRecord
100
AcDbLinetypeTableRecord
  2
ByBlock
 70
     0
  3

 72
    65
 73
     0
 40
0.0
  0
LTYPE
  5
14
330
5
100
AcDbSymbolTableRecord
100
AcDbLinetypeTableRecord
  2
ByLayer
 70
     0
  3

 72
    65
 73
     0
 40
0.0
  0
LTYPE
  5
15
330
5
100
AcDbSymbolTableRecord
100
AcDbLinetypeTableRecord
  2
Continuous
 70
     0
  3
Solid line
 72
    65
 73
     0
 40
0.0
  0
LTYPE
  5
33
330
5
100
AcDbSymbolTableRecord
100
AcDbLinetypeTableRecord
  2
STRICHPUNKT
 70
     0
  3
__ . __ . __ . __ . __ . __ . __ . __ . __ . __
 72
    65
 73
     4
 40
1.0
 49
0.5
 74
     0
 49
-0.25
 74
     0
 49
0.0
 74
     0
 49
-0.25
 74
     0
  0
ENDTAB
  0
TABLE
  2
LAYER
  5
2
330
0
100
AcDbSymbolTable
 70
     9
  0
LAYER
  5
10
330
2
100
AcDbSymbolTableRecord
100
AcDbLayerTableRecord
  2
0
 70
     0
 62
     7
  6
Continuous
370
    -3
390
F
  0
LAYER
  5
36
330
2
100
AcDbSymbolTableRecord
100
AcDbLayerTableRecord
  2
VOLL
 70
     0
 62
     1
  6
Continuous
370
    -3
390
F
  0
LAYER
  5
37
330
2
100
AcDbSymbolTableRecord
100
AcDbLayerTableRecord
  2
MITTEL
 70
     0
 62
     2
  6
STRICHPUNKT
370
    -3
390
F
  0
LAYER
  5
38
330
2
100
AcDbSymbolTableRecord
100
AcDbLayerTableRecord
  2
BEM
 70
     0
 62
     7
  6
Continuous
370
    -3
390
F
  0
LAYER
  5
39
330
2
100
AcDbSymbolTableRecord
100
AcDbLayerTableRecord
  2
HILF
 70
     0
 62
     2
  6
Continuous
370
    -3
390
F
  0
LAYER
  5
3A
330
2
100
AcDbSymbolTableRecord
100
AcDbLayerTableRecord
  2
SCHRAFF
 70
     0
 62
     7
  6
Continuous
370
    -3
390
F
  0
LAYER
  5
3B
330
2
100
AcDbSymbolTableRecord
100
AcDbLayerTableRecord
  2
STEMPEL
 70
     0
 62
     3
  6
Continuous
370
    -3
390
F
  0
LAYER
  5
3C
330
2
100
AcDbSymbolTableRecord
100
AcDbLayerTableRecord
  2
DEFPOINTS
 70
     0
 62
     7
  6
Continuous
290
     0
370
    -3
390
F
  0
LAYER
  5
3D
330
2
100
AcDbSymbolTableRecord
100
AcDbLayerTableRecord
  2
TEXT
 70
     0
 62
     7
  6
Continuous
370
    -3
390
F
  0
ENDTAB
  0
TABLE
  2
STYLE
  5
3
330
0
100
AcDbSymbolTable
 70
     2
  0
STYLE
  5
11
330
3
100
AcDbSymbolTableRecord
100
AcDbTextStyleTableRecord
  2
STANDARD
 70
     0
 40
0.0
 41
1.0
 50
0.0
 71
     0
 42
3.5
  3
txt
  4

  0
STYLE
  5
32
330
3
100
AcDbSymbolTableRecord
100
AcDbTextStyleTableRecord
  2
GREEKS
 70
     0
 40
0.0
 41
0.8
 50
0.0
 71
     0
 42
1.8
  3
SIMPLEX.shx
  4

  0
ENDTAB
  0
TABLE
  2
VIEW
  5
6
330
0
100
AcDbSymbolTable
 70
     0
  0
ENDTAB
  0
TABLE
  2
UCS
  5
7
330
0
100
AcDbSymbolTable
 70
     0
  0
ENDTAB
  0
TABLE
  2
APPID
  5
9
330
0
100
AcDbSymbolTable
 70
     1
  0
APPID
  5
12
330
9
100
AcDbSymbolTableRecord
100
AcDbRegAppTableRecord
  2
ACAD
 70
     0
  0
ENDTAB
  0
TABLE
  2
DIMSTYLE
  5
A
330
0
100
AcDbSymbolTable
 70
     1
100
AcDbDimStyleTable
 71
     1
340
3DE
  0
DIMSTYLE
105
3DE
102
{ACAD_REACTORS
330
91E
330
91B
330
919
330
912
330
90C
330
D3E
330
E21
330
E4A
102
}
330
A
100
AcDbSymbolTableRecord
100
AcDbDimStyleTableRecord
  2
Standard
 70
     0
340
11
  0
ENDTAB
  0
TABLE
  2
BLOCK_RECORD
  5
1
330
0
100
AcDbSymbolTable
 70
    17
  0
BLOCK_RECORD
  5
20
330
1
100
AcDbSymbolTableRecord
100
AcDbBlockTableRecord
  2
*Model_Space
340
23
  0
BLOCK_RECORD
  5
1C
330
1
100
AcDbSymbolTableRecord
100
AcDbBlockTableRecord
  2
*Paper_Space
340
1F
  0
BLOCK_RECORD
  5
24
330
1
100
AcDbSymbolTableRecord
100
AcDbBlockTableRecord
  2
LOGO
340
0
102
{BLKREFS
331
2FD
102
}
  0
BLOCK_RECORD
  5
43F
330
1
100
AcDbSymbolTableRecord
100
AcDbBlockTableRecord
  2
*X1
340
0
102
{BLKREFS
331
8E6
102
}
  0
BLOCK_RECORD
  5
48B
330
1
100
AcDbSymbolTableRecord
100
AcDbBlockTableRecord
  2
*X2
340
0
102
{BLKREFS
331
8E7
102
}
  0
BLOCK_RECORD
  5
4E5
330
1
100
AcDbSymbolTableRecord
100
AcDbBlockTableRecord
  2
*X3
340
0
102
{BLKREFS
331
91A
102
}
  0
BLOCK_RECORD
  5
542
330
1
100
AcDbSymbolTableRecord
100
AcDbBlockTableRecord
  2
*X4
340
0
102
{BLKREFS
331
90B
102
}
  0
BLOCK_RECORD
  5
599
330
1
100
AcDbSymbolTableRecord
100
AcDbBlockTableRecord
  2
*X5
340
0
102
{BLKREFS
331
8E5
102
}
  0
BLOCK_RECORD
  5
616
330
1
100
AcDbSymbolTableRecord
100
AcDbBlockTableRecord
  2
*X6
340
0
102
{BLKREFS
331
910
102
}
  0
BLOCK_RECORD
  5
6F3
330
1
100
AcDbSymbolTableRecord
100
AcDbBlockTableRecord
  2
*X7
340
0
102
{BLKREFS
331
8FC
102
}
  0
BLOCK_RECORD
  5
780
330
1
100
AcDbSymbolTableRecord
100
AcDbBlockTableRecord
  2
*X8
340
0
102
{BLKREFS
331
8EA
102
}
  0
BLOCK_RECORD
  5
922
330
1
100
AcDbSymbolTableRecord
100
AcDbBlockTableRecord
  2
*D9
340
0
  0
BLOCK_RECORD
  5
92F
330
1
100
AcDbSymbolTableRecord
100
AcDbBlockTableRecord
  2
*D10
340
0
  0
BLOCK_RECORD
  5
93C
330
1
100
AcDbSymbolTableRecord
100
AcDbBlockTableRecord
  2
*D11
340
0
  0
BLOCK_RECORD
  5
949
330
1
100
AcDbSymbolTableRecord
100
AcDbBlockTableRecord
  2
*D12
340
0
  0
BLOCK_RECORD
  5
956
330
1
100
AcDbSymbolTableRecord
100
AcDbBlockTableRecord
  2
*D13
340
0
  0
BLOCK_RECORD
  5
D40
330
1
100
AcDbSymbolTableRecord
100
AcDbBlockTableRecord
  2
*D14
340
0
  0
BLOCK_RECORD
  5
E22
330
1
100
AcDbSymbolTableRecord
100
AcDbBlockTableRecord
  2
*D15
340
0
  0
BLOCK_RECORD
  5
E4B
330
1
100
AcDbSymbolTableRecord
100
AcDbBlockTableRecord
  2
*D16
340
0
  0
ENDTAB
  0
ENDSEC
  0
SECTION
  2
BLOCKS
  0
BLOCK
  5
41
330
20
100
AcDbEntity
  8
0
100
AcDbBlockBegin
  2
*Model_Space
 70
     0
 10
0.0
 20
0.0
 30
0.0
  3
*Model_Space
  1

  0
ENDBLK
  5
42
330
20
100
AcDbEntity
  8
0
100
AcDbBlockEnd
  0
BLOCK
  5
3F
330
1C
100
AcDbEntity
 67
     1
  8
0
100
AcDbBlockBegin
  2
*Paper_Space
 70
     0
 10
0.0
 20
0.0
 30
0.0
  3
*Paper_Space
  1

  0
ENDBLK
  5
40
330
1C
100
AcDbEntity
 67
     1
  8
0
100
AcDbBlockEnd
  0
BLOCK
  5
43
330
24
100
AcDbEntity
  8
0
100
AcDbBlockBegin
  2
LOGO
 70
     0
 10
0.0
 20
0.0
 30
0.0
  3
LOGO
  1

  0
ARC
  5
44
330
24
100
AcDbEntity
  8
0
100
AcDbCircle
 10
11.59973089678112
 20
-9.271599258481501
 30
0.0
 40
4.5
100
AcDbArc
 50
270.0
 51
231.0575587310159
  0
LINE
  5
45
330
24
100
AcDbEntity
  8
0
100
AcDbLine
 10
3.599730896781125
 20
-4.771599258481529
 30
0.0
 11
3.599730896781153
 21
-11.77159925848133
 31
0.0
  0
LINE
  5
46
330
24
100
AcDbEntity
  8
0
100
AcDbLine
 10
2.599730896781125
 20
-4.771599258481529
 30
0.0
 11
2.599730896781153
 21
-11.77159925848133
 31
0.0
  0
CIRCLE
  5
47
330
24
100
AcDbEntity
  8
0
100
AcDbCircle
 10
11.59973089678112
 20
-9.271599258481501
 30
0.0
 40
3.5
  0
ARC
  5
48
330
24
100
AcDbEntity
  8
0
100
AcDbCircle
 10
31.59973089678115
 20
-9.271599258481472
 30
0.0
 40
4.5
100
AcDbArc
 50
270.0
 51
231.0575587310182
  0
LINE
  5
49
330
24
100
AcDbEntity
  8
0
100
AcDbLine
 10
17.59973089678112
 20
-4.771599258481472
 30
0.0
 11
17.59973089678115
 21
-13.77159925848147
 31
0.0
  0
ARC
  5
4A
330
24
100
AcDbEntity
  8
0
100
AcDbCircle
 10
22.59973089678116
 20
-7.271599258481472
 30
0.0
 40
2.5
100
AcDbArc
 50
293.1161887722295
 51
90.0
  0
CIRCLE
  5
4B
330
24
100
AcDbEntity
  8
0
100
AcDbCircle
 10
31.59973089678115
 20
-9.271599258481472
 30
0.0
 40
3.5
  0
ARC
  5
4C
330
24
100
AcDbEntity
  8
0
100
AcDbCircle
 10
4.599730896781153
 20
-11.77159925848133
 30
0.0
 40
1.0
100
AcDbArc
 50
180.0
 51
270.0
  0
ARC
  5
4D
330
24
100
AcDbEntity
  8
0
100
AcDbCircle
 10
4.599730896781153
 20
-11.77159925848133
 30
0.0
 40
2.0
100
AcDbArc
 50
179.9999999999992
 51
270.0
  0
LINE
  5
4E
330
24
100
AcDbEntity
  8
0
100
AcDbLine
 10
11.59973089678115
 20
-13.77159925848144
 30
0.0
 11
4.599730896781153
 21
-13.77159925848147
 31
0.0
  0
LINE
  5
4F
330
24
100
AcDbEntity
  8
0
100
AcDbLine
 10
8.771303772034769
 20
-12.77159925848136
 30
0.0
 11
4.599730896781153
 21
-12.77159925848133
 31
0.0
  0
LINE
  5
50
330
24
100
AcDbEntity
  8
0
100
AcDbLine
 10
31.59973089678115
 20
-13.77159925848147
 30
0.0
 11
23.6715276665056
 21
-13.77159925848144
 31
0.0
  0
LINE
  5
51
330
24
100
AcDbEntity
  8
0
100
AcDbLine
 10
23.56565672307022
 20
-9.51278021337896
 30
0.0
 11
24.4388546544846
 21
-12.77159925848144
 31
0.0
  0
LINE
  5
52
330
24
100
AcDbEntity
  8
0
100
AcDbLine
 10
22.59973089678116
 20
-9.771599258481472
 30
0.0
 11
18.59973089678112
 21
-9.771599258481472
 31
0.0
  0
LINE
  5
53
330
24
100
AcDbEntity
  8
0
100
AcDbLine
 10
18.59973089678115
 20
-13.77159925848144
 30
0.0
 11
17.59973089678115
 21
-13.77159925848144
 31
0.0
  0
LINE
  5
54
330
24
100
AcDbEntity
  8
0
100
AcDbLine
 10
18.59973089678115
 20
-9.771599258481472
 30
0.0
 11
18.59973089678115
 21
-13.77159925848144
 31
0.0
  0
LINE
  5
55
330
24
100
AcDbEntity
  8
0
100
AcDbLine
 10
22.59973089678116
 20
-9.771599258481472
 30
0.0
 11
23.67152766650562
 21
-13.77159925848147
 31
0.0
  0
ARC
  5
56
330
24
100
AcDbEntity
  8
0
100
AcDbCircle
 10
22.59973089678116
 20
-7.271599258481472
 30
0.0
 40
2.5
100
AcDbArc
 50
270.0
 51
270.0000000000007
  0
LINE
  5
57
330
24
100
AcDbEntity
  8
0
100
AcDbLine
 10
28.77130377203494
 20
-12.77159925848147
 30
0.0
 11
24.43885465448463
 21
-12.77159925848144
 31
0.0
  0
LINE
  5
58
330
24
100
AcDbEntity
  8
0
100
AcDbLine
 10
3.599730896781125
 20
-4.771599258481472
 30
0.0
 11
2.599730896781125
 21
-4.771599258481472
 31
0.0
  0
LINE
  5
59
330
24
100
AcDbEntity
  8
0
100
AcDbLine
 10
22.59973089678116
 20
-8.771599258481472
 30
0.0
 11
18.59973089678115
 21
-8.771599258481472
 31
0.0
  0
LINE
  5
5A
330
24
100
AcDbEntity
  8
0
100
AcDbLine
 10
22.59973089678116
 20
-5.771599258481472
 30
0.0
 11
18.59973089678115
 21
-5.771599258481472
 31
0.0
  0
LINE
  5
5B
330
24
100
AcDbEntity
  8
0
100
AcDbLine
 10
22.59973089678116
 20
-4.771599258481472
 30
0.0
 11
17.59973089678115
 21
-4.771599258481472
 31
0.0
  0
LINE
  5
5C
330
24
100
AcDbEntity
  8
0
100
AcDbLine
 10
18.59973089678115
 20
-5.771599258481472
 30
0.0
 11
18.59973089678115
 21
-8.771599258481472
 31
0.0
  0
ARC
  5
5D
330
24
100
AcDbEntity
  8
0
100
AcDbCircle
 10
22.59973089678116
 20
-7.271599258481472
 30
0.0
 40
1.5
100
AcDbArc
 50
270.0
 51
90.0
  0
ENDBLK
  5
5E
330
24
100
AcDbEntity
  8
0
100
AcDbBlockEnd
  0
BLOCK
  5
440
330
43F
100
AcDbEntity
  8
0
100
AcDbBlockBegin
  2
*X1
 70
     1
 10
0.0
 20
0.0
 30
0.0
  3
*X1
  1

  0
LINE
  5
441
330
43F
100
AcDbEntity
  8
0
 62
     0
100
AcDbLine
 10
196.1054703723276
 20
450.6639115994847
 30
0.0
 11
196.1152640974687
 21
450.6737053246259
 31
0.0
  0
LINE
  5
442
330
43F
100
AcDbEntity
  8
0
 62
     0
100
AcDbLine
 10
195.9676660916172
 20
450.6675286750116
 30
0.0
 11
196.1152640974687
 21
450.8151266808631
 31
0.0
  0
LINE
  5
443
330
43F
100
AcDbEntity
  8
0
 62
     0
100
AcDbLine
 10
195.8356689929758
 20
450.6769529326076
 30
0.0
 11
196.1152640974687
 21
450.9565480371005
 31
0.0
  0
LINE
  5
444
330
43F
100
AcDbEntity
  8
0
 62
     0
100
AcDbLine
 10
195.7088469487377
 20
450.6915522446067
 30
0.0
 11
196.1152640974687
 21
451.0979693933378
 31
0.0
  0
LINE
  5
445
330
43F
100
AcDbEntity
  8
0
 62
     0
100
AcDbLine
 10
195.5866994678507
 20
450.710826119957
 30
0.0
 11
196.1152640974687
 21
451.2393907495751
 31
0.0
  0
LINE
  5
446
330
43F
100
AcDbEntity
  8
0
 62
     0
100
AcDbLine
 10
195.4688230703791
 20
450.7343710787227
 30
0.0
 11
196.1152640974687
 21
451.3808121058124
 31
0.0
  0
LINE
  5
447
330
43F
100
AcDbEntity
  8
0
 62
     0
100
AcDbLine
 10
195.3548877005306
 20
450.7618570651115
 30
0.0
 11
196.1152640974687
 21
451.5222334620498
 31
0.0
  0
LINE
  5
448
330
43F
100
AcDbEntity
  8
0
 62
     0
100
AcDbLine
 10
195.2446201617182
 20
450.7930108825365
 30
0.0
 11
196.1152640974687
 21
451.663654818287
 31
0.0
  0
LINE
  5
449
330
43F
100
AcDbEntity
  8
0
 62
     0
100
AcDbLine
 10
195.1377921808861
 20
450.8276042579417
 30
0.0
 11
196.1152640974687
 21
451.8050761745244
 31
0.0
  0
LINE
  5
44A
330
43F
100
AcDbEntity
  8
0
 62
     0
100
AcDbLine
 10
195.0342116194407
 20
450.8654450527336
 30
0.0
 11
196.1152640974687
 21
451.9464975307617
 31
0.0
  0
LINE
  5
44B
330
43F
100
AcDbEntity
  8
0
 62
     0
100
AcDbLine
 10
194.9337158807025
 20
450.9063706702327
 30
0.0
 11
196.1152640974687
 21
452.0879188869989
 31
0.0
  0
LINE
  5
44C
330
43F
100
AcDbEntity
  8
0
 62
     0
100
AcDbLine
 10
194.8361668871854
 20
450.9502430329529
 30
0.0
 11
196.1152640974687
 21
452.2293402432363
 31
0.0
  0
LINE
  5
44D
330
43F
100
AcDbEntity
  8
0
 62
     0
100
AcDbLine
 10
194.7414472038177
 20
450.9969447058225
 30
0.0
 11
196.1152640974687
 21
452.3707615994736
 31
0.0
  0
LINE
  5
44E
330
43F
100
AcDbEntity
  8
0
 62
     0
100
AcDbLine
 10
194.6494570140738
 20
451.0463758723159
 30
0.0
 11
196.1152640974687
 21
452.5121829557108
 31
0.0
  0
LINE
  5
44F
330
43F
100
AcDbEntity
  8
0
 62
     0
100
AcDbLine
 10
194.5601117425912
 20
451.0984519570707
 30
0.0
 11
196.1152640974687
 21
452.6536043119482
 31
0.0
  0
LINE
  5
450
330
43F
100
AcDbEntity
  8
0
 62
     0
100
AcDbLine
 10
194.4733401765055
 20
451.1531017472223
 30
0.0
 11
196.1152640974687
 21
452.7950256681855
 31
0.0
  0
LINE
  5
451
330
43F
100
AcDbEntity
  8
0
 62
     0
100
AcDbLine
 10
194.3890829783263
 20
451.2102659052803
 30
0.0
 11
196.1152640974687
 21
452.9364470244228
 31
0.0
  0
LINE
  5
452
330
43F
100
AcDbEntity
  8
0
 62
     0
100
AcDbLine
 10
194.3072915118518
 20
451.2698957950432
 30
0.0
 11
196.1152640974687
 21
453.0778683806601
 31
0.0
  0
LINE
  5
453
330
43F
100
AcDbEntity
  8
0
 62
     0
100
AcDbLine
 10
194.2279269232947
 20
451.3319525627233
 30
0.0
 11
196.1152640974687
 21
453.2192897368974
 31
0.0
  0
LINE
  5
454
330
43F
100
AcDbEntity
  8
0
 62
     0
100
AcDbLine
 10
194.150959435025
 20
451.3964064306909
 30
0.0
 11
196.1152640974687
 21
453.3607110931348
 31
0.0
  0
LINE
  5
455
330
43F
100
AcDbEntity
  8
0
 62
     0
100
AcDbLine
 10
194.0763678208423
 20
451.4632361727455
 30
0.0
 11
196.1152640974687
 21
453.5021324493721
 31
0.0
  0
LINE
  5
456
330
43F
100
AcDbEntity
  8
0
 62
     0
100
AcDbLine
 10
194.0041390406372
 20
451.5324287487779
 30
0.0
 11
196.1152640974687
 21
453.6435538056094
 31
0.0
  0
LINE
  5
457
330
43F
100
AcDbEntity
  8
0
 62
     0
100
AcDbLine
 10
193.9342680195199
 20
451.6039790838978
 30
0.0
 11
195.9941845488866
 21
453.6638956132645
 31
0.0
  0
LINE
  5
458
330
43F
100
AcDbEntity
  8
0
 62
     0
100
AcDbLine
 10
193.8667575625939
 20
451.6778899832091
 30
0.0
 11
195.8527631926493
 21
453.6638956132645
 31
0.0
  0
LINE
  5
459
330
43F
100
AcDbEntity
  8
0
 62
     0
100
AcDbLine
 10
193.8016184020139
 20
451.7541721788663
 30
0.0
 11
195.711341836412
 21
453.6638956132645
 31
0.0
  0
LINE
  5
45A
330
43F
100
AcDbEntity
  8
0
 62
     0
100
AcDbLine
 10
193.7388693781791
 20
451.832844511269
 30
0.0
 11
195.5699204801747
 21
453.6638956132645
 31
0.0
  0
LINE
  5
45B
330
43F
100
AcDbEntity
  8
0
 62
     0
100
AcDbLine
 10
193.6785377622692
 20
451.9139342515964
 30
0.0
 11
195.4284991239374
 21
453.6638956132645
 31
0.0
  0
LINE
  5
45C
330
43F
100
AcDbEntity
  8
0
 62
     0
100
AcDbLine
 10
193.6206597331939
 20
451.9974775787583
 30
0.0
 11
195.2870777677
 21
453.6638956132645
 31
0.0
  0
LINE
  5
45D
330
43F
100
AcDbEntity
  8
0
 62
     0
100
AcDbLine
 10
193.5652810288772
 20
452.0835202306789
 30
0.0
 11
195.1456564114628
 21
453.6638956132645
 31
0.0
  0
LINE
  5
45E
330
43F
100
AcDbEntity
  8
0
 62
     0
100
AcDbLine
 10
193.5124578001666
 20
452.1721183582057
 30
0.0
 11
195.0042350552254
 21
453.6638956132645
 31
0.0
  0
LINE
  5
45F
330
43F
100
AcDbEntity
  8
0
 62
     0
100
AcDbLine
 10
193.4622577063309
 20
452.2633396206073
 30
0.0
 11
194.8628136989881
 21
453.6638956132645
 31
0.0
  0
LINE
  5
460
330
43F
100
AcDbEntity
  8
0
 62
     0
100
AcDbLine
 10
193.4147613051196
 20
452.3572645756334
 30
0.0
 11
194.7213923427508
 21
453.6638956132645
 31
0.0
  0
LINE
  5
461
330
43F
100
AcDbEntity
  8
0
 62
     0
100
AcDbLine
 10
193.3700638092555
 20
452.4539884360065
 30
0.0
 11
194.5799709865135
 21
453.6638956132645
 31
0.0
  0
LINE
  5
462
330
43F
100
AcDbEntity
  8
0
 62
     0
100
AcDbLine
 10
193.3282773072687
 20
452.5536232902569
 30
0.0
 11
194.4385496302762
 21
453.6638956132645
 31
0.0
  0
LINE
  5
463
330
43F
100
AcDbEntity
  8
0
 62
     0
100
AcDbLine
 10
193.2895335832378
 20
452.6563009224634
 30
0.0
 11
194.2971282740389
 21
453.6638956132645
 31
0.0
  0
LINE
  5
464
330
43F
100
AcDbEntity
  8
0
 62
     0
100
AcDbLine
 10
193.2539877226519
 20
452.7621764181148
 30
0.0
 11
194.1557069178016
 21
453.6638956132645
 31
0.0
  0
LINE
  5
465
330
43F
100
AcDbEntity
  8
0
 62
     0
100
AcDbLine
 10
193.2218227688512
 20
452.8714328205515
 30
0.0
 11
194.0142855615642
 21
453.6638956132645
 31
0.0
  0
LINE
  5
466
330
43F
100
AcDbEntity
  8
0
 62
     0
100
AcDbLine
 10
193.1932558104232
 20
452.9842872183608
 30
0.0
 11
193.8728642053269
 21
453.6638956132645
 31
0.0
  0
LINE
  5
467
330
43F
100
AcDbEntity
  8
0
 62
     0
100
AcDbLine
 10
193.1685460582227
 20
453.1009988223975
 30
0.0
 11
193.7314428490896
 21
453.6638956132645
 31
0.0
  0
LINE
  5
468
330
43F
100
AcDbEntity
  8
0
 62
     0
100
AcDbLine
 10
193.1480057525762
 20
453.2218798729884
 30
0.0
 11
193.5900214928523
 21
453.6638956132645
 31
0.0
  0
LINE
  5
469
330
43F
100
AcDbEntity
  8
0
 62
     0
100
AcDbLine
 10
193.1320152009627
 20
453.3473106776122
 30
0.0
 11
193.448600136615
 21
453.6638956132645
 31
0.0
  0
LINE
  5
46A
330
43F
100
AcDbEntity
  8
0
 62
     0
100
AcDbLine
 10
193.1210440233568
 20
453.4777608562436
 30
0.0
 11
193.3071787803777
 21
453.6638956132645
 31
0.0
  0
LINE
  5
46B
330
43F
100
AcDbEntity
  8
0
 62
     0
100
AcDbLine
 10
193.1156820504272
 20
453.6138202395513
 30
0.0
 11
193.1657574241404
 21
453.6638956132645
 31
0.0
  0
LINE
  5
46C
330
43F
100
AcDbEntity
  8
0
 62
     0
100
AcDbLine
 10
298.1152640974687
 20
453.5373346022718
 30
0.0
 11
298.2418251084615
 21
453.6638956132646
 31
0.0
  0
LINE
  5
46D
330
43F
100
AcDbEntity
  8
0
 62
     0
100
AcDbLine
 10
298.1152640974687
 20
453.3959132460345
 30
0.0
 11
298.3832464646988
 21
453.6638956132646
 31
0.0
  0
LINE
  5
46E
330
43F
100
AcDbEntity
  8
0
 62
     0
100
AcDbLine
 10
298.1152640974687
 20
453.2544918897972
 30
0.0
 11
298.5246678209361
 21
453.6638956132646
 31
0.0
  0
LINE
  5
46F
330
43F
100
AcDbEntity
  8
0
 62
     0
100
AcDbLine
 10
298.1152640974687
 20
453.1130705335599
 30
0.0
 11
298.6660891771734
 21
453.6638956132646
 31
0.0
  0
LINE
  5
470
330
43F
100
AcDbEntity
  8
0
 62
     0
100
AcDbLine
 10
298.1152640974687
 20
452.9716491773226
 30
0.0
 11
298.8075105334107
 21
453.6638956132646
 31
0.0
  0
LINE
  5
471
330
43F
100
AcDbEntity
  8
0
 62
     0
100
AcDbLine
 10
298.1152640974687
 20
452.8302278210853
 30
0.0
 11
298.9489318896481
 21
453.6638956132646
 31
0.0
  0
LINE
  5
472
330
43F
100
AcDbEntity
  8
0
 62
     0
100
AcDbLine
 10
298.1152640974687
 20
452.6888064648479
 30
0.0
 11
299.0903532458854
 21
453.6638956132646
 31
0.0
  0
LINE
  5
473
330
43F
100
AcDbEntity
  8
0
 62
     0
100
AcDbLine
 10
298.1152640974687
 20
452.5473851086107
 30
0.0
 11
299.2317746021227
 21
453.6638956132646
 31
0.0
  0
LINE
  5
474
330
43F
100
AcDbEntity
  8
0
 62
     0
100
AcDbLine
 10
298.1152640974687
 20
452.4059637523733
 30
0.0
 11
299.37319595836
 21
453.6638956132646
 31
0.0
  0
LINE
  5
475
330
43F
100
AcDbEntity
  8
0
 62
     0
100
AcDbLine
 10
298.1152640974687
 20
452.264542396136
 30
0.0
 11
299.5146173145973
 21
453.6638956132646
 31
0.0
  0
LINE
  5
476
330
43F
100
AcDbEntity
  8
0
 62
     0
100
AcDbLine
 10
298.1152640974687
 20
452.1231210398987
 30
0.0
 11
299.6560386708346
 21
453.6638956132646
 31
0.0
  0
LINE
  5
477
330
43F
100
AcDbEntity
  8
0
 62
     0
100
AcDbLine
 10
298.1152640974687
 20
451.9816996836614
 30
0.0
 11
299.7974600270719
 21
453.6638956132646
 31
0.0
  0
LINE
  5
478
330
43F
100
AcDbEntity
  8
0
 62
     0
100
AcDbLine
 10
298.1152640974687
 20
451.8402783274241
 30
0.0
 11
299.9388813833093
 21
453.6638956132646
 31
0.0
  0
LINE
  5
479
330
43F
100
AcDbEntity
  8
0
 62
     0
100
AcDbLine
 10
298.1152640974687
 20
451.6988569711868
 30
0.0
 11
300.0803027395465
 21
453.6638956132646
 31
0.0
  0
LINE
  5
47A
330
43F
100
AcDbEntity
  8
0
 62
     0
100
AcDbLine
 10
298.1152640974687
 20
451.5574356149494
 30
0.0
 11
300.2217240957839
 21
453.6638956132646
 31
0.0
  0
LINE
  5
47B
330
43F
100
AcDbEntity
  8
0
 62
     0
100
AcDbLine
 10
298.1152640974687
 20
451.4160142587122
 30
0.0
 11
300.3631454520212
 21
453.6638956132646
 31
0.0
  0
LINE
  5
47C
330
43F
100
AcDbEntity
  8
0
 62
     0
100
AcDbLine
 10
298.1152640974687
 20
451.2745929024748
 30
0.0
 11
300.5045668082585
 21
453.6638956132646
 31
0.0
  0
LINE
  5
47D
330
43F
100
AcDbEntity
  8
0
 62
     0
100
AcDbLine
 10
298.1152640974687
 20
451.1331715462375
 30
0.0
 11
300.6459881644958
 21
453.6638956132646
 31
0.0
  0
LINE
  5
47E
330
43F
100
AcDbEntity
  8
0
 62
     0
100
AcDbLine
 10
298.1152640974687
 20
450.9917501900003
 30
0.0
 11
300.7874095207331
 21
453.6638956132646
 31
0.0
  0
LINE
  5
47F
330
43F
100
AcDbEntity
  8
0
 62
     0
100
AcDbLine
 10
298.1152640974687
 20
450.8503288337629
 30
0.0
 11
300.9288308769705
 21
453.6638956132646
 31
0.0
  0
LINE
  5
480
330
43F
100
AcDbEntity
  8
0
 62
     0
100
AcDbLine
 10
298.1152640974687
 20
450.7089074775256
 30
0.0
 11
301.0702522332077
 21
453.6638956132646
 31
0.0
  0
LINE
  5
481
330
43F
100
AcDbEntity
  8
0
 62
     0
100
AcDbLine
 10
298.2132750410661
 20
450.6654970648857
 30
0.0
 11
301.1136626458477
 21
453.5658846696673
 31
0.0
  0
LINE
  5
482
330
43F
100
AcDbEntity
  8
0
 62
     0
100
AcDbLine
 10
298.36337215014
 20
450.6741728177223
 30
0.0
 11
301.1049868930111
 21
453.4157875605933
 31
0.0
  0
LINE
  5
483
330
43F
100
AcDbEntity
  8
0
 62
     0
100
AcDbLine
 10
298.522250876006
 20
450.6916301873509
 30
0.0
 11
301.0875295233824
 21
453.2569088347274
 31
0.0
  0
LINE
  5
484
330
43F
100
AcDbEntity
  8
0
 62
     0
100
AcDbLine
 10
298.6918718464206
 20
450.7198298015283
 30
0.0
 11
301.059329909205
 21
453.0872878643127
 31
0.0
  0
LINE
  5
485
330
43F
100
AcDbEntity
  8
0
 62
     0
100
AcDbLine
 10
298.8752068902475
 20
450.7617434891179
 30
0.0
 11
301.0174162216155
 21
452.9039528204858
 31
0.0
  0
LINE
  5
486
330
43F
100
AcDbEntity
  8
0
 62
     0
100
AcDbLine
 10
299.0771733153726
 20
450.8222885580057
 30
0.0
 11
300.9568711527277
 21
452.7019863953608
 31
0.0
  0
LINE
  5
487
330
43F
100
AcDbEntity
  8
0
 62
     0
100
AcDbLine
 10
299.3071134305846
 20
450.9108073169804
 30
0.0
 11
300.868352393753
 21
452.4720462801487
 31
0.0
  0
LINE
  5
488
330
43F
100
AcDbEntity
  8
0
 62
     0
100
AcDbLine
 10
299.5879897708436
 20
451.0502623010021
 30
0.0
 11
300.7288974097312
 21
452.1911699398897
 31
0.0
  0
LINE
  5
489
330
43F
100
AcDbEntity
  8
0
 62
     0
100
AcDbLine
 10
300.0517610746038
 20
451.372612248525
 30
0.0
 11
300.4065474622083
 21
451.7273986361295
 31
0.0
  0
ENDBLK
  5
48A
330
43F
100
AcDbEntity
  8
0
100
AcDbBlockEnd
  0
BLOCK
  5
48C
330
48B
100
AcDbEntity
  8
0
100
AcDbBlockBegin
  2
*X2
 70
     1
 10
0.0
 20
0.0
 30
0.0
  3
*X2
  1

  0
LINE
  5
48D
330
48B
100
AcDbEntity
  8
0
 62
     0
100
AcDbLine
 10
167.8235920779543
 20
541.458815256926
 30
0.0
 11
167.8400847879841
 21
541.4753079669559
 31
0.0
  0
LINE
  5
48E
330
48B
100
AcDbEntity
  8
0
 62
     0
100
AcDbLine
 10
167.7396877482324
 20
541.5163322834413
 30
0.0
 11
167.8015153271922
 21
541.5781598624012
 31
0.0
  0
LINE
  5
48F
330
48B
100
AcDbEntity
  8
0
 62
     0
100
AcDbLine
 10
167.657742897299
 20
541.5758087887453
 30
0.0
 11
167.7629458664002
 21
541.6810117578465
 31
0.0
  0
LINE
  5
490
330
48B
100
AcDbEntity
  8
0
 62
     0
100
AcDbLine
 10
167.5777325937473
 20
541.637219841431
 30
0.0
 11
167.7243764056082
 21
541.7838636532918
 31
0.0
  0
LINE
  5
491
330
48B
100
AcDbEntity
  8
0
 62
     0
100
AcDbLine
 10
167.4996365186688
 20
541.7005451225897
 30
0.0
 11
167.6858069448162
 21
541.8867155487371
 31
0.0
  0
LINE
  5
492
330
48B
100
AcDbEntity
  8
0
 62
     0
100
AcDbLine
 10
167.4234387379982
 20
541.7657686981565
 30
0.0
 11
167.6472374840242
 21
541.9895674441825
 31
0.0
  0
LINE
  5
493
330
48B
100
AcDbEntity
  8
0
 62
     0
100
AcDbLine
 10
167.3491275276712
 20
541.8328788440668
 30
0.0
 11
167.6086680232322
 21
542.0924193396277
 31
0.0
  0
LINE
  5
494
330
48B
100
AcDbEntity
  8
0
 62
     0
100
AcDbLine
 10
167.2766952470346
 20
541.9018679196675
 30
0.0
 11
167.5700985624402
 21
542.195271235073
 31
0.0
  0
LINE
  5
495
330
48B
100
AcDbEntity
  8
0
 62
     0
100
AcDbLine
 10
167.2061382572822
 20
541.9727322861525
 30
0.0
 11
167.5315291016482
 21
542.2981231305184
 31
0.0
  0
LINE
  5
496
330
48B
100
AcDbEntity
  8
0
 62
     0
100
AcDbLine
 10
167.1374568828699
 20
542.0454722679774
 30
0.0
 11
167.4929596408562
 21
542.4009750259637
 31
0.0
  0
LINE
  5
497
330
48B
100
AcDbEntity
  8
0
 62
     0
100
AcDbLine
 10
169.3310779520087
 20
544.2390933371162
 30
0.0
 11
169.4012046283593
 21
544.3092200134667
 31
0.0
  0
LINE
  5
498
330
48B
100
AcDbEntity
  8
0
 62
     0
100
AcDbLine
 10
167.0706554149486
 20
542.1200921562935
 30
0.0
 11
167.4543901800642
 21
542.503826921409
 31
0.0
  0
LINE
  5
499
330
48B
100
AcDbEntity
  8
0
 62
     0
100
AcDbLine
 10
169.1048037820289
 20
544.1542405233738
 30
0.0
 11
169.3027197344146
 21
544.3521564757594
 31
0.0
  0
LINE
  5
49A
330
48B
100
AcDbEntity
  8
0
 62
     0
100
AcDbLine
 10
167.0057421569031
 20
542.1966002544852
 30
0.0
 11
167.4158207192722
 21
542.6066788168543
 31
0.0
  0
LINE
  5
49B
330
48B
100
AcDbEntity
  8
0
 62
     0
100
AcDbLine
 10
168.8785296120493
 20
544.0693877096314
 30
0.0
 11
169.2053225024763
 21
544.3961806000584
 31
0.0
  0
LINE
  5
49C
330
48B
100
AcDbEntity
  8
0
 62
     0
100
AcDbLine
 10
166.9427295131273
 20
542.2750089669468
 30
0.0
 11
167.3772512584802
 21
542.7095307122995
 31
0.0
  0
LINE
  5
49D
330
48B
100
AcDbEntity
  8
0
 62
     0
100
AcDbLine
 10
168.6522554420695
 20
543.9845348958889
 30
0.0
 11
169.1089965992621
 21
544.4412760530815
 31
0.0
  0
LINE
  5
49E
330
48B
100
AcDbEntity
  8
0
 62
     0
100
AcDbLine
 10
166.8816341232705
 20
542.3553349333273
 30
0.0
 11
167.3386817976882
 21
542.812382607745
 31
0.0
  0
LINE
  5
49F
330
48B
100
AcDbEntity
  8
0
 62
     0
100
AcDbLine
 10
168.4259812720898
 20
543.8996820821465
 30
0.0
 11
169.0137266534267
 21
544.4874274634835
 31
0.0
  0
LINE
  5
4A0
330
48B
100
AcDbEntity
  8
0
 62
     0
100
AcDbLine
 10
166.8224770453888
 20
542.4375992116828
 30
0.0
 11
167.3001123368963
 21
542.9152345031902
 31
0.0
  0
LINE
  5
4A1
330
48B
100
AcDbEntity
  8
0
 62
     0
100
AcDbLine
 10
168.1997071021101
 20
543.8148292684042
 30
0.0
 11
168.9194982022534
 21
544.5346203685473
 31
0.0
  0
LINE
  5
4A2
330
48B
100
AcDbEntity
  8
0
 62
     0
100
AcDbLine
 10
166.7652839927961
 20
542.5218275153274
 30
0.0
 11
167.2615428761043
 21
543.0180863986357
 31
0.0
  0
LINE
  5
4A3
330
48B
100
AcDbEntity
  8
0
 62
     0
100
AcDbLine
 10
167.9734329321304
 20
543.7299764546617
 30
0.0
 11
168.8262976429078
 21
544.5828411654392
 31
0.0
  0
LINE
  5
4A4
330
48B
100
AcDbEntity
  8
0
 62
     0
100
AcDbLine
 10
166.7100856310053
 20
542.6080505097738
 30
0.0
 11
167.2229734153123
 21
543.1209382940809
 31
0.0
  0
LINE
  5
4A5
330
48B
100
AcDbEntity
  8
0
 62
     0
100
AcDbLine
 10
167.7471587621508
 20
543.6451236409193
 30
0.0
 11
168.734112187832
 21
544.6320770666005
 31
0.0
  0
LINE
  5
4A6
330
48B
100
AcDbEntity
  8
0
 62
     0
100
AcDbLine
 10
166.6569179430583
 20
542.6963041780643
 30
0.0
 11
167.1844039545203
 21
543.2237901895262
 31
0.0
  0
LINE
  5
4A7
330
48B
100
AcDbEntity
  8
0
 62
     0
100
AcDbLine
 10
167.520884592171
 20
543.5602708271769
 30
0.0
 11
168.6429298238985
 21
544.6823160589046
 31
0.0
  0
LINE
  5
4A8
330
48B
100
AcDbEntity
  8
0
 62
     0
100
AcDbLine
 10
166.6058226738895
 20
542.7866302651328
 30
0.0
 11
167.1458344937283
 21
543.3266420849715
 31
0.0
  0
LINE
  5
4A9
330
48B
100
AcDbEntity
  8
0
 62
     0
100
AcDbLine
 10
167.2946104221912
 20
543.4754180134346
 30
0.0
 11
168.5527392749938
 21
544.7335468662371
 31
0.0
  0
LINE
  5
4AA
330
48B
100
AcDbEntity
  8
0
 62
     0
100
AcDbLine
 10
166.5568478672941
 20
542.8790768147747
 30
0.0
 11
168.4635299677301
 21
544.7857589152107
 31
0.0
  0
LINE
  5
4AB
330
48B
100
AcDbEntity
  8
0
 62
     0
100
AcDbLine
 10
166.5100485127852
 20
542.9736988165031
 30
0.0
 11
168.3752920000257
 21
544.8389423037436
 31
0.0
  0
LINE
  5
4AC
330
48B
100
AcDbEntity
  8
0
 62
     0
100
AcDbLine
 10
166.4654873244038
 20
543.0705589843589
 30
0.0
 11
168.2880161123159
 21
544.8930877722711
 31
0.0
  0
LINE
  5
4AD
330
48B
100
AcDbEntity
  8
0
 62
     0
100
AcDbLine
 10
166.4232356797671
 20
543.1697286959596
 30
0.0
 11
168.2016936611851
 21
544.9481866773776
 31
0.0
  0
LINE
  5
4AE
330
48B
100
AcDbEntity
  8
0
 62
     0
100
AcDbLine
 10
166.3833747558684
 20
543.2712891282983
 30
0.0
 11
168.1163165952354
 21
545.0042309676653
 31
0.0
  0
LINE
  5
4AF
330
48B
100
AcDbEntity
  8
0
 62
     0
100
AcDbLine
 10
166.34599690913
 20
543.3753326377971
 30
0.0
 11
168.0318774330215
 21
545.0612131616886
 31
0.0
  0
LINE
  5
4B0
330
48B
100
AcDbEntity
  8
0
 62
     0
100
AcDbLine
 10
166.3112073621134
 20
543.4819644470178
 30
0.0
 11
167.9483692429048
 21
545.1191263278092
 31
0.0
  0
LINE
  5
4B1
330
48B
100
AcDbEntity
  8
0
 62
     0
100
AcDbLine
 10
166.2791262797657
 20
543.5913047209075
 30
0.0
 11
167.8657856246943
 21
545.1779640658361
 31
0.0
  0
LINE
  5
4B2
330
48B
100
AcDbEntity
  8
0
 62
     0
100
AcDbLine
 10
166.2498913466418
 20
543.7034911440208
 30
0.0
 11
167.7841206929543
 21
545.2377204903333
 31
0.0
  0
LINE
  5
4B3
330
48B
100
AcDbEntity
  8
0
 62
     0
100
AcDbLine
 10
166.2236609970338
 20
543.8186821506502
 30
0.0
 11
167.7033690618734
 21
545.2983902154898
 31
0.0
  0
LINE
  5
4B4
330
48B
100
AcDbEntity
  8
0
 62
     0
100
AcDbLine
 10
166.2006185083662
 20
543.9370610182199
 30
0.0
 11
167.6235258316022
 21
545.3599683414559
 31
0.0
  0
LINE
  5
4B5
330
48B
100
AcDbEntity
  8
0
 62
     0
100
AcDbLine
 10
166.180977254176
 20
544.0588411202669
 30
0.0
 11
167.5445865759751
 21
545.422450442066
 31
0.0
  0
LINE
  5
4B6
330
48B
100
AcDbEntity
  8
0
 62
     0
100
AcDbLine
 10
166.1649875422289
 20
544.1842727645571
 30
0.0
 11
167.4665473315424
 21
545.4858325538707
 31
0.0
  0
LINE
  5
4B7
330
48B
100
AcDbEntity
  8
0
 62
     0
100
AcDbLine
 10
166.1529456623521
 20
544.3136522409177
 30
0.0
 11
167.3894045878495
 21
545.5501111664151
 31
0.0
  0
LINE
  5
4B8
330
48B
100
AcDbEntity
  8
0
 62
     0
100
AcDbLine
 10
166.1452060835266
 20
544.4473340183296
 30
0.0
 11
167.3131552789044
 21
545.6152832137073
 31
0.0
  0
LINE
  5
4B9
330
48B
100
AcDbEntity
  8
0
 62
     0
100
AcDbLine
 10
166.1421982538555
 20
544.5857475448957
 30
0.0
 11
167.2377967757861
 21
545.6813460668264
 31
0.0
  0
LINE
  5
4BA
330
48B
100
AcDbEntity
  8
0
 62
     0
100
AcDbLine
 10
166.1444503263473
 20
544.7294209736249
 30
0.0
 11
167.1633268803511
 21
545.7482975276287
 31
0.0
  0
LINE
  5
4BB
330
48B
100
AcDbEntity
  8
0
 62
     0
100
AcDbLine
 10
166.1526236652558
 20
544.8790156687706
 30
0.0
 11
167.0897438200024
 21
545.8161358235172
 31
0.0
  0
LINE
  5
4BC
330
48B
100
AcDbEntity
  8
0
 62
     0
100
AcDbLine
 10
166.1675648206237
 20
545.0353781803759
 30
0.0
 11
167.0170462434921
 21
545.8848596032443
 31
0.0
  0
LINE
  5
4BD
330
48B
100
AcDbEntity
  8
0
 62
     0
100
AcDbLine
 10
166.1903872096051
 20
545.1996219255945
 30
0.0
 11
166.9452332177347
 21
545.9544679337242
 31
0.0
  0
LINE
  5
4BE
330
48B
100
AcDbEntity
  8
0
 62
     0
100
AcDbLine
 10
166.222606413894
 20
545.3732624861207
 30
0.0
 11
166.8743042256118
 21
546.0249602978386
 31
0.0
  0
LINE
  5
4BF
330
48B
100
AcDbEntity
  8
0
 62
     0
100
AcDbLine
 10
166.2663798000186
 20
545.5584572284827
 30
0.0
 11
166.804259164759
 21
546.096336593223
 31
0.0
  0
LINE
  5
4C0
330
48B
100
AcDbEntity
  8
0
 62
     0
100
AcDbLine
 10
166.3249701279764
 20
545.7584689126778
 30
0.0
 11
166.735098347325
 21
546.1685971320263
 31
0.0
  0
LINE
  5
4C1
330
48B
100
AcDbEntity
  8
0
 62
     0
100
AcDbLine
 10
166.4037599820687
 20
545.9786801230075
 30
0.0
 11
166.6668225007042
 21
546.2417426416429
 31
0.0
  0
LINE
  5
4C2
330
48B
100
AcDbEntity
  8
0
 62
     0
100
AcDbLine
 10
166.5129249017717
 20
546.2292663989477
 30
0.0
 11
166.5994327692464
 21
546.3157742664224
 31
0.0
  0
LINE
  5
4C3
330
48B
100
AcDbEntity
  8
0
 62
     0
100
AcDbLine
 10
324.7930489439346
 20
544.2789938242388
 30
0.0
 11
324.8187650122531
 21
544.3047098925574
 31
0.0
  0
LINE
  5
4C4
330
48B
100
AcDbEntity
  8
0
 62
     0
100
AcDbLine
 10
324.8959008393799
 20
544.2404243634469
 30
0.0
 11
325.0745740680585
 21
544.4190975921255
 31
0.0
  0
LINE
  5
4C5
330
48B
100
AcDbEntity
  8
0
 62
     0
100
AcDbLine
 10
324.9987527348253
 20
544.2018549026549
 30
0.0
 11
325.3530852408399
 21
544.5561874086695
 31
0.0
  0
LINE
  5
4C6
330
48B
100
AcDbEntity
  8
0
 62
     0
100
AcDbLine
 10
325.1016046302706
 20
544.1632854418629
 30
0.0
 11
325.6638430585769
 21
544.7255238701692
 31
0.0
  0
LINE
  5
4C7
330
48B
100
AcDbEntity
  8
0
 62
     0
100
AcDbLine
 10
325.2044565257159
 20
544.1247159810709
 30
0.0
 11
326.0262637685122
 21
544.9465232238672
 31
0.0
  0
LINE
  5
4C8
330
48B
100
AcDbEntity
  8
0
 62
     0
100
AcDbLine
 10
325.3073084211612
 20
544.0861465202789
 30
0.0
 11
326.4958079783888
 21
545.2746460775066
 31
0.0
  0
LINE
  5
4C9
330
48B
100
AcDbEntity
  8
0
 62
     0
100
AcDbLine
 10
325.4101603166065
 20
544.047577059487
 30
0.0
 11
327.6759736048035
 21
546.3133903476839
 31
0.0
  0
LINE
  5
4CA
330
48B
100
AcDbEntity
  8
0
 62
     0
100
AcDbLine
 10
325.5130122120518
 20
544.009007598695
 30
0.0
 11
327.7226671763439
 21
546.2186625629871
 31
0.0
  0
LINE
  5
4CB
330
48B
100
AcDbEntity
  8
0
 62
     0
100
AcDbLine
 10
325.6158641074971
 20
543.9704381379029
 30
0.0
 11
327.7671193664078
 21
546.1216933968136
 31
0.0
  0
LINE
  5
4CC
330
48B
100
AcDbEntity
  8
0
 62
     0
100
AcDbLine
 10
325.7187160029425
 20
543.9318686771109
 30
0.0
 11
327.8092583553347
 21
546.0224110295032
 31
0.0
  0
LINE
  5
4CD
330
48B
100
AcDbEntity
  8
0
 62
     0
100
AcDbLine
 10
325.8215678983877
 20
543.8932992163189
 30
0.0
 11
327.8490024639454
 21
545.9207337818765
 31
0.0
  0
LINE
  5
4CE
330
48B
100
AcDbEntity
  8
0
 62
     0
100
AcDbLine
 10
325.9244197938331
 20
543.854729755527
 30
0.0
 11
327.8862587603522
 21
545.8165687220462
 31
0.0
  0
LINE
  5
4CF
330
48B
100
AcDbEntity
  8
0
 62
     0
100
AcDbLine
 10
326.0272716892784
 20
543.816160294735
 30
0.0
 11
327.92092135666
 21
545.7098099621165
 31
0.0
  0
LINE
  5
4D0
330
48B
100
AcDbEntity
  8
0
 62
     0
100
AcDbLine
 10
326.1301235847237
 20
543.777590833943
 30
0.0
 11
327.9528693115186
 21
545.6003365607378
 31
0.0
  0
LINE
  5
4D1
330
48B
100
AcDbEntity
  8
0
 62
     0
100
AcDbLine
 10
326.2329754801691
 20
543.739021373151
 30
0.0
 11
327.9819640254568
 21
545.4880099184387
 31
0.0
  0
LINE
  5
4D2
330
48B
100
AcDbEntity
  8
0
 62
     0
100
AcDbLine
 10
326.3358273756143
 20
543.7004519123591
 30
0.0
 11
328.0080459747338
 21
545.3726705114783
 31
0.0
  0
LINE
  5
4D3
330
48B
100
AcDbEntity
  8
0
 62
     0
100
AcDbLine
 10
326.4386792710596
 20
543.6618824515671
 30
0.0
 11
328.0309305699536
 21
545.2541337504611
 31
0.0
  0
LINE
  5
4D4
330
48B
100
AcDbEntity
  8
0
 62
     0
100
AcDbLine
 10
326.541531166505
 20
543.623312990775
 30
0.0
 11
328.0504028380784
 21
545.1321846623484
 31
0.0
  0
LINE
  5
4D5
330
48B
100
AcDbEntity
  8
0
 62
     0
100
AcDbLine
 10
326.6443830619503
 20
543.584743529983
 30
0.0
 11
328.066210494611
 21
545.0065709626437
 31
0.0
  0
LINE
  5
4D6
330
48B
100
AcDbEntity
  8
0
 62
     0
100
AcDbLine
 10
326.7472349573956
 20
543.546174069191
 30
0.0
 11
328.0780547693995
 21
544.8769938811949
 31
0.0
  0
LINE
  5
4D7
330
48B
100
AcDbEntity
  8
0
 62
     0
100
AcDbLine
 10
326.8500868528409
 20
543.5076046083991
 30
0.0
 11
328.0855780273015
 21
544.7430957828596
 31
0.0
  0
LINE
  5
4D8
330
48B
100
AcDbEntity
  8
0
 62
     0
100
AcDbLine
 10
326.9529387482862
 20
543.4690351476071
 30
0.0
 11
328.0883466982168
 21
544.6044430975376
 31
0.0
  0
LINE
  5
4D9
330
48B
100
AcDbEntity
  8
0
 62
     0
100
AcDbLine
 10
327.0557906437316
 20
543.4304656868151
 30
0.0
 11
328.0858271386232
 21
544.4605021817067
 31
0.0
  0
LINE
  5
4DA
330
48B
100
AcDbEntity
  8
0
 62
     0
100
AcDbLine
 10
327.0794768830596
 20
543.3127305699057
 30
0.0
 11
328.0773504709834
 21
544.3106041578296
 31
0.0
  0
LINE
  5
4DB
330
48B
100
AcDbEntity
  8
0
 62
     0
100
AcDbLine
 10
326.9946240693172
 20
543.0864563999261
 30
0.0
 11
328.0620595257593
 21
544.1538918563682
 31
0.0
  0
LINE
  5
4DC
330
48B
100
AcDbEntity
  8
0
 62
     0
100
AcDbLine
 10
326.9097712555748
 20
542.8601822299464
 30
0.0
 11
328.0388252684805
 21
543.9892362428521
 31
0.0
  0
LINE
  5
4DD
330
48B
100
AcDbEntity
  8
0
 62
     0
100
AcDbLine
 10
326.8249184418325
 20
542.6339080599667
 30
0.0
 11
328.0061079756062
 21
543.8150975937404
 31
0.0
  0
LINE
  5
4DE
330
48B
100
AcDbEntity
  8
0
 62
     0
100
AcDbLine
 10
326.74006562809
 20
542.407633889987
 30
0.0
 11
327.9617104633838
 21
543.6292787252808
 31
0.0
  0
LINE
  5
4DF
330
48B
100
AcDbEntity
  8
0
 62
     0
100
AcDbLine
 10
326.6552128143477
 20
542.1813597200073
 30
0.0
 11
327.90229826804
 21
543.4284451736997
 31
0.0
  0
LINE
  5
4E0
330
48B
100
AcDbEntity
  8
0
 62
     0
100
AcDbLine
 10
326.5703600006053
 20
541.9550855500276
 30
0.0
 11
327.8223422130987
 21
543.2070677625211
 31
0.0
  0
LINE
  5
4E1
330
48B
100
AcDbEntity
  8
0
 62
     0
100
AcDbLine
 10
326.4855071868629
 20
541.728811380048
 30
0.0
 11
327.7112999731336
 21
542.9546041663185
 31
0.0
  0
LINE
  5
4E2
330
48B
100
AcDbEntity
  8
0
 62
     0
100
AcDbLine
 10
326.4006543731205
 20
541.5025372100682
 30
0.0
 11
327.5430808944348
 21
542.6449637313826
 31
0.0
  0
LINE
  5
4E3
330
48B
100
AcDbEntity
  8
0
 62
     0
100
AcDbLine
 10
326.7928492836227
 20
541.7533107643331
 30
0.0
 11
327.1615075483719
 21
542.1219690290824
 31
0.0
  0
ENDBLK
  5
4E4
330
48B
100
AcDbEntity
  8
0
100
AcDbBlockEnd
  0
BLOCK
  5
4E6
330
4E5
100
AcDbEntity
  8
0
100
AcDbBlockBegin
  2
*X3
 70
     1
 10
0.0
 20
0.0
 30
0.0
  3
*X3
  1

  0
LINE
  5
4E7
330
4E5
100
AcDbEntity
  8
0
 62
     0
100
AcDbLine
 10
196.2197566709595
 20
340.4695400330152
 30
0.0
 11
198.1152640974688
 21
342.3650474595245
 31
0.0
  0
LINE
  5
4E8
330
4E5
100
AcDbEntity
  8
0
 62
     0
100
AcDbLine
 10
296.1152640974688
 20
440.3650474595244
 30
0.0
 11
298.1152640974688
 21
442.3650474595244
 31
0.0
  0
LINE
  5
4E9
330
4E5
100
AcDbEntity
  8
0
 62
     0
100
AcDbLine
 10
196.1152640974687
 20
343.1934745842706
 30
0.0
 11
198.1152640974688
 21
345.1934745842706
 31
0.0
  0
LINE
  5
4EA
330
4E5
100
AcDbEntity
  8
0
 62
     0
100
AcDbLine
 10
296.1152640974688
 20
443.1934745842706
 30
0.0
 11
298.1152640974688
 21
445.1934745842706
 31
0.0
  0
LINE
  5
4EB
330
4E5
100
AcDbEntity
  8
0
 62
     0
100
AcDbLine
 10
196.1152640974687
 20
346.0219017090168
 30
0.0
 11
198.1152640974688
 21
348.0219017090168
 31
0.0
  0
LINE
  5
4EC
330
4E5
100
AcDbEntity
  8
0
 62
     0
100
AcDbLine
 10
296.1152640974688
 20
446.0219017090168
 30
0.0
 11
298.1152640974688
 21
448.0219017090168
 31
0.0
  0
LINE
  5
4ED
330
4E5
100
AcDbEntity
  8
0
 62
     0
100
AcDbLine
 10
196.1152640974687
 20
348.850328833763
 30
0.0
 11
198.1152640974688
 21
350.850328833763
 31
0.0
  0
LINE
  5
4EE
330
4E5
100
AcDbEntity
  8
0
 62
     0
100
AcDbLine
 10
296.1152640974688
 20
448.8503288337629
 30
0.0
 11
298.1152640974688
 21
450.850328833763
 31
0.0
  0
LINE
  5
4EF
330
4E5
100
AcDbEntity
  8
0
 62
     0
100
AcDbLine
 10
196.1152640974687
 20
351.6787559585092
 30
0.0
 11
198.1152640974688
 21
353.6787559585092
 31
0.0
  0
LINE
  5
4F0
330
4E5
100
AcDbEntity
  8
0
 62
     0
100
AcDbLine
 10
296.1152640974688
 20
451.6787559585091
 30
0.0
 11
298.1152640974688
 21
453.6787559585092
 31
0.0
  0
LINE
  5
4F1
330
4E5
100
AcDbEntity
  8
0
 62
     0
100
AcDbLine
 10
196.1152640974687
 20
354.5071830832554
 30
0.0
 11
198.1152640974688
 21
356.5071830832554
 31
0.0
  0
LINE
  5
4F2
330
4E5
100
AcDbEntity
  8
0
 62
     0
100
AcDbLine
 10
296.1152640974688
 20
454.5071830832553
 30
0.0
 11
297.771976627478
 21
456.1638956132647
 31
0.0
  0
LINE
  5
4F3
330
4E5
100
AcDbEntity
  8
0
 62
     0
100
AcDbLine
 10
196.1152640974687
 20
357.3356102080016
 30
0.0
 11
198.1152640974688
 21
359.3356102080016
 31
0.0
  0
LINE
  5
4F4
330
4E5
100
AcDbEntity
  8
0
 62
     0
100
AcDbLine
 10
196.1152640974687
 20
360.1640373327478
 30
0.0
 11
198.1152640974688
 21
362.1640373327478
 31
0.0
  0
LINE
  5
4F5
330
4E5
100
AcDbEntity
  8
0
 62
     0
100
AcDbLine
 10
196.1152640974687
 20
362.992464457494
 30
0.0
 11
198.1152640974688
 21
364.992464457494
 31
0.0
  0
LINE
  5
4F6
330
4E5
100
AcDbEntity
  8
0
 62
     0
100
AcDbLine
 10
196.1152640974687
 20
365.8208915822402
 30
0.0
 11
198.1152640974688
 21
367.8208915822402
 31
0.0
  0
LINE
  5
4F7
330
4E5
100
AcDbEntity
  8
0
 62
     0
100
AcDbLine
 10
196.1152640974687
 20
368.6493187069863
 30
0.0
 11
198.1152640974688
 21
370.6493187069863
 31
0.0
  0
LINE
  5
4F8
330
4E5
100
AcDbEntity
  8
0
 62
     0
100
AcDbLine
 10
196.1152640974687
 20
371.4777458317325
 30
0.0
 11
198.1152640974688
 21
373.4777458317325
 31
0.0
  0
LINE
  5
4F9
330
4E5
100
AcDbEntity
  8
0
 62
     0
100
AcDbLine
 10
196.1152640974687
 20
374.3061729564787
 30
0.0
 11
198.1152640974688
 21
376.3061729564787
 31
0.0
  0
LINE
  5
4FA
330
4E5
100
AcDbEntity
  8
0
 62
     0
100
AcDbLine
 10
196.1152640974687
 20
377.1346000812249
 30
0.0
 11
198.1152640974688
 21
379.1346000812249
 31
0.0
  0
LINE
  5
4FB
330
4E5
100
AcDbEntity
  8
0
 62
     0
100
AcDbLine
 10
196.1152640974687
 20
379.9630272059711
 30
0.0
 11
198.1152640974688
 21
381.9630272059711
 31
0.0
  0
LINE
  5
4FC
330
4E5
100
AcDbEntity
  8
0
 62
     0
100
AcDbLine
 10
196.1152640974687
 20
382.7914543307173
 30
0.0
 11
198.1152640974688
 21
384.7914543307173
 31
0.0
  0
LINE
  5
4FD
330
4E5
100
AcDbEntity
  8
0
 62
     0
100
AcDbLine
 10
196.1152640974687
 20
385.6198814554635
 30
0.0
 11
198.1152640974688
 21
387.6198814554635
 31
0.0
  0
LINE
  5
4FE
330
4E5
100
AcDbEntity
  8
0
 62
     0
100
AcDbLine
 10
196.1152640974687
 20
388.4483085802096
 30
0.0
 11
198.1152640974688
 21
390.4483085802096
 31
0.0
  0
LINE
  5
4FF
330
4E5
100
AcDbEntity
  8
0
 62
     0
100
AcDbLine
 10
196.1152640974687
 20
391.2767357049558
 30
0.0
 11
198.1152640974688
 21
393.2767357049558
 31
0.0
  0
LINE
  5
500
330
4E5
100
AcDbEntity
  8
0
 62
     0
100
AcDbLine
 10
196.1152640974687
 20
394.1051628297021
 30
0.0
 11
198.1152640974688
 21
396.1051628297021
 31
0.0
  0
LINE
  5
501
330
4E5
100
AcDbEntity
  8
0
 62
     0
100
AcDbLine
 10
196.1152640974687
 20
396.9335899544482
 30
0.0
 11
198.1152640974688
 21
398.9335899544482
 31
0.0
  0
LINE
  5
502
330
4E5
100
AcDbEntity
  8
0
 62
     0
100
AcDbLine
 10
196.1152640974687
 20
399.7620170791945
 30
0.0
 11
198.1152640974688
 21
401.7620170791944
 31
0.0
  0
LINE
  5
503
330
4E5
100
AcDbEntity
  8
0
 62
     0
100
AcDbLine
 10
196.1152640974687
 20
402.5904442039405
 30
0.0
 11
198.1152640974688
 21
404.5904442039406
 31
0.0
  0
LINE
  5
504
330
4E5
100
AcDbEntity
  8
0
 62
     0
100
AcDbLine
 10
196.1152640974687
 20
405.4188713286867
 30
0.0
 11
198.1152640974688
 21
407.4188713286868
 31
0.0
  0
LINE
  5
505
330
4E5
100
AcDbEntity
  8
0
 62
     0
100
AcDbLine
 10
196.1152640974687
 20
408.247298453433
 30
0.0
 11
198.1152640974688
 21
410.247298453433
 31
0.0
  0
LINE
  5
506
330
4E5
100
AcDbEntity
  8
0
 62
     0
100
AcDbLine
 10
196.1152640974687
 20
411.0757255781791
 30
0.0
 11
198.1152640974688
 21
413.0757255781792
 31
0.0
  0
LINE
  5
507
330
4E5
100
AcDbEntity
  8
0
 62
     0
100
AcDbLine
 10
196.1152640974687
 20
413.9041527029253
 30
0.0
 11
198.1152640974688
 21
415.9041527029254
 31
0.0
  0
LINE
  5
508
330
4E5
100
AcDbEntity
  8
0
 62
     0
100
AcDbLine
 10
196.1152640974687
 20
416.7325798276715
 30
0.0
 11
198.1152640974688
 21
418.7325798276715
 31
0.0
  0
LINE
  5
509
330
4E5
100
AcDbEntity
  8
0
 62
     0
100
AcDbLine
 10
196.1152640974687
 20
419.5610069524177
 30
0.0
 11
198.1152640974688
 21
421.5610069524177
 31
0.0
  0
LINE
  5
50A
330
4E5
100
AcDbEntity
  8
0
 62
     0
100
AcDbLine
 10
196.1152640974687
 20
422.3894340771639
 30
0.0
 11
198.1152640974688
 21
424.3894340771639
 31
0.0
  0
LINE
  5
50B
330
4E5
100
AcDbEntity
  8
0
 62
     0
100
AcDbLine
 10
196.1152640974687
 20
425.21786120191
 30
0.0
 11
198.1152640974688
 21
427.2178612019101
 31
0.0
  0
LINE
  5
50C
330
4E5
100
AcDbEntity
  8
0
 62
     0
100
AcDbLine
 10
196.1152640974687
 20
428.0462883266563
 30
0.0
 11
198.1152640974688
 21
430.0462883266563
 31
0.0
  0
LINE
  5
50D
330
4E5
100
AcDbEntity
  8
0
 62
     0
100
AcDbLine
 10
196.1152640974687
 20
430.8747154514025
 30
0.0
 11
198.1152640974688
 21
432.8747154514025
 31
0.0
  0
LINE
  5
50E
330
4E5
100
AcDbEntity
  8
0
 62
     0
100
AcDbLine
 10
196.1152640974687
 20
433.7031425761487
 30
0.0
 11
198.1152640974688
 21
435.7031425761487
 31
0.0
  0
LINE
  5
50F
330
4E5
100
AcDbEntity
  8
0
 62
     0
100
AcDbLine
 10
196.1152640974687
 20
436.5315697008949
 30
0.0
 11
198.1152640974688
 21
438.5315697008949
 31
0.0
  0
LINE
  5
510
330
4E5
100
AcDbEntity
  8
0
 62
     0
100
AcDbLine
 10
196.1152640974687
 20
439.3599968256411
 30
0.0
 11
198.1152640974688
 21
441.359996825641
 31
0.0
  0
LINE
  5
511
330
4E5
100
AcDbEntity
  8
0
 62
     0
100
AcDbLine
 10
196.1152640974687
 20
442.1884239503873
 30
0.0
 11
198.1152640974688
 21
444.1884239503872
 31
0.0
  0
LINE
  5
512
330
4E5
100
AcDbEntity
  8
0
 62
     0
100
AcDbLine
 10
196.1152640974687
 20
445.0168510751334
 30
0.0
 11
198.1152640974688
 21
447.0168510751334
 31
0.0
  0
LINE
  5
513
330
4E5
100
AcDbEntity
  8
0
 62
     0
100
AcDbLine
 10
196.1152640974687
 20
447.8452781998796
 30
0.0
 11
198.1152640974688
 21
449.8452781998796
 31
0.0
  0
LINE
  5
514
330
4E5
100
AcDbEntity
  8
0
 62
     0
100
AcDbLine
 10
196.1152640974687
 20
450.6737053246259
 30
0.0
 11
198.1152640974688
 21
452.6737053246258
 31
0.0
  0
LINE
  5
515
330
4E5
100
AcDbEntity
  8
0
 62
     0
100
AcDbLine
 10
196.1152640974687
 20
453.502132449372
 30
0.0
 11
198.1152640974688
 21
455.502132449372
 31
0.0
  0
LINE
  5
516
330
4E5
100
AcDbEntity
  8
0
 62
     0
100
AcDbLine
 10
196.4473041547394
 20
337.8686603920489
 30
0.0
 11
198.2934288477339
 21
339.7147850850434
 31
0.0
  0
LINE
  5
517
330
4E5
100
AcDbEntity
  8
0
 62
     0
100
AcDbLine
 10
296.1152640974688
 20
437.5366203347782
 30
0.0
 11
298.1152640974688
 21
439.5366203347783
 31
0.0
  0
LINE
  5
518
330
4E5
100
AcDbEntity
  8
0
 62
     0
100
AcDbLine
 10
196.6748516385193
 20
335.2677807510827
 30
0.0
 11
198.5209763315138
 21
337.1139054440771
 31
0.0
  0
LINE
  5
519
330
4E5
100
AcDbEntity
  8
0
 62
     0
100
AcDbLine
 10
296.1152640974688
 20
434.708193210032
 30
0.0
 11
298.1152640974688
 21
436.708193210032
 31
0.0
  0
LINE
  5
51A
330
4E5
100
AcDbEntity
  8
0
 62
     0
100
AcDbLine
 10
196.9023991222993
 20
332.6669011101164
 30
0.0
 11
198.7485238152937
 21
334.5130258031109
 31
0.0
  0
LINE
  5
51B
330
4E5
100
AcDbEntity
  8
0
 62
     0
100
AcDbLine
 10
296.1152640974688
 20
431.8797660852858
 30
0.0
 11
298.1152640974688
 21
433.8797660852859
 31
0.0
  0
LINE
  5
51C
330
4E5
100
AcDbEntity
  8
0
 62
     0
100
AcDbLine
 10
197.1299466060792
 20
330.0660214691502
 30
0.0
 11
198.9760712990736
 21
331.9121461621445
 31
0.0
  0
LINE
  5
51D
330
4E5
100
AcDbEntity
  8
0
 62
     0
100
AcDbLine
 10
296.1152640974688
 20
429.0513389605396
 30
0.0
 11
298.1152640974688
 21
431.0513389605397
 31
0.0
  0
LINE
  5
51E
330
4E5
100
AcDbEntity
  8
0
 62
     0
100
AcDbLine
 10
296.1152640974688
 20
426.2229118357934
 30
0.0
 11
298.1152640974688
 21
428.2229118357935
 31
0.0
  0
LINE
  5
51F
330
4E5
100
AcDbEntity
  8
0
 62
     0
100
AcDbLine
 10
296.1152640974688
 20
423.3944847110473
 30
0.0
 11
298.1152640974688
 21
425.3944847110473
 31
0.0
  0
LINE
  5
520
330
4E5
100
AcDbEntity
  8
0
 62
     0
100
AcDbLine
 10
296.1152640974688
 20
420.5660575863011
 30
0.0
 11
298.1152640974688
 21
422.5660575863011
 31
0.0
  0
LINE
  5
521
330
4E5
100
AcDbEntity
  8
0
 62
     0
100
AcDbLine
 10
296.1152640974688
 20
417.7376304615549
 30
0.0
 11
298.1152640974688
 21
419.7376304615549
 31
0.0
  0
LINE
  5
522
330
4E5
100
AcDbEntity
  8
0
 62
     0
100
AcDbLine
 10
296.1152640974688
 20
414.9092033368087
 30
0.0
 11
298.1152640974688
 21
416.9092033368086
 31
0.0
  0
LINE
  5
523
330
4E5
100
AcDbEntity
  8
0
 62
     0
100
AcDbLine
 10
296.1152640974688
 20
412.0807762120625
 30
0.0
 11
298.1152640974688
 21
414.0807762120624
 31
0.0
  0
LINE
  5
524
330
4E5
100
AcDbEntity
  8
0
 62
     0
100
AcDbLine
 10
296.1152640974688
 20
409.2523490873163
 30
0.0
 11
298.1152640974688
 21
411.2523490873163
 31
0.0
  0
LINE
  5
525
330
4E5
100
AcDbEntity
  8
0
 62
     0
100
AcDbLine
 10
296.1152640974688
 20
406.4239219625701
 30
0.0
 11
298.1152640974688
 21
408.4239219625701
 31
0.0
  0
LINE
  5
526
330
4E5
100
AcDbEntity
  8
0
 62
     0
100
AcDbLine
 10
296.1152640974688
 20
403.595494837824
 30
0.0
 11
298.1152640974688
 21
405.5954948378239
 31
0.0
  0
LINE
  5
527
330
4E5
100
AcDbEntity
  8
0
 62
     0
100
AcDbLine
 10
296.1152640974688
 20
400.7670677130778
 30
0.0
 11
298.1152640974688
 21
402.7670677130777
 31
0.0
  0
LINE
  5
528
330
4E5
100
AcDbEntity
  8
0
 62
     0
100
AcDbLine
 10
296.1152640974688
 20
397.9386405883316
 30
0.0
 11
298.1152640974688
 21
399.9386405883316
 31
0.0
  0
LINE
  5
529
330
4E5
100
AcDbEntity
  8
0
 62
     0
100
AcDbLine
 10
296.1152640974688
 20
395.1102134635854
 30
0.0
 11
298.1152640974688
 21
397.1102134635854
 31
0.0
  0
LINE
  5
52A
330
4E5
100
AcDbEntity
  8
0
 62
     0
100
AcDbLine
 10
296.1152640974688
 20
392.2817863388392
 30
0.0
 11
298.1152640974688
 21
394.2817863388392
 31
0.0
  0
LINE
  5
52B
330
4E5
100
AcDbEntity
  8
0
 62
     0
100
AcDbLine
 10
296.1152640974688
 20
389.453359214093
 30
0.0
 11
298.1152640974688
 21
391.453359214093
 31
0.0
  0
LINE
  5
52C
330
4E5
100
AcDbEntity
  8
0
 62
     0
100
AcDbLine
 10
296.1152640974688
 20
386.6249320893468
 30
0.0
 11
298.1152640974688
 21
388.6249320893469
 31
0.0
  0
LINE
  5
52D
330
4E5
100
AcDbEntity
  8
0
 62
     0
100
AcDbLine
 10
296.1152640974688
 20
383.7965049646006
 30
0.0
 11
298.1152640974688
 21
385.7965049646006
 31
0.0
  0
LINE
  5
52E
330
4E5
100
AcDbEntity
  8
0
 62
     0
100
AcDbLine
 10
296.1152640974688
 20
380.9680778398544
 30
0.0
 11
298.1152640974688
 21
382.9680778398545
 31
0.0
  0
LINE
  5
52F
330
4E5
100
AcDbEntity
  8
0
 62
     0
100
AcDbLine
 10
296.1152640974688
 20
378.1396507151082
 30
0.0
 11
298.1152640974688
 21
380.1396507151082
 31
0.0
  0
LINE
  5
530
330
4E5
100
AcDbEntity
  8
0
 62
     0
100
AcDbLine
 10
296.1152640974688
 20
375.3112235903621
 30
0.0
 11
298.1152640974688
 21
377.3112235903621
 31
0.0
  0
LINE
  5
531
330
4E5
100
AcDbEntity
  8
0
 62
     0
100
AcDbLine
 10
296.1152640974688
 20
372.4827964656159
 30
0.0
 11
298.1152640974688
 21
374.4827964656159
 31
0.0
  0
LINE
  5
532
330
4E5
100
AcDbEntity
  8
0
 62
     0
100
AcDbLine
 10
296.1152640974688
 20
369.6543693408697
 30
0.0
 11
298.1152640974688
 21
371.6543693408697
 31
0.0
  0
LINE
  5
533
330
4E5
100
AcDbEntity
  8
0
 62
     0
100
AcDbLine
 10
296.1152640974688
 20
366.8259422161235
 30
0.0
 11
298.1152640974688
 21
368.8259422161235
 31
0.0
  0
LINE
  5
534
330
4E5
100
AcDbEntity
  8
0
 62
     0
100
AcDbLine
 10
296.1152640974688
 20
363.9975150913773
 30
0.0
 11
298.1152640974688
 21
365.9975150913773
 31
0.0
  0
LINE
  5
535
330
4E5
100
AcDbEntity
  8
0
 62
     0
100
AcDbLine
 10
296.1152640974688
 20
361.1690879666312
 30
0.0
 11
298.1152640974688
 21
363.1690879666312
 31
0.0
  0
LINE
  5
536
330
4E5
100
AcDbEntity
  8
0
 62
     0
100
AcDbLine
 10
296.1152640974688
 20
358.3406608418849
 30
0.0
 11
298.1152640974688
 21
360.3406608418849
 31
0.0
  0
LINE
  5
537
330
4E5
100
AcDbEntity
  8
0
 62
     0
100
AcDbLine
 10
296.1152640974688
 20
355.5122337171387
 30
0.0
 11
298.1152640974688
 21
357.5122337171387
 31
0.0
  0
LINE
  5
538
330
4E5
100
AcDbEntity
  8
0
 62
     0
100
AcDbLine
 10
296.1152640974688
 20
352.6838065923926
 30
0.0
 11
298.1152640974688
 21
354.6838065923926
 31
0.0
  0
LINE
  5
539
330
4E5
100
AcDbEntity
  8
0
 62
     0
100
AcDbLine
 10
296.1152640974688
 20
349.8553794676463
 30
0.0
 11
298.1152640974688
 21
351.8553794676464
 31
0.0
  0
LINE
  5
53A
330
4E5
100
AcDbEntity
  8
0
 62
     0
100
AcDbLine
 10
296.1152640974688
 20
347.0269523429002
 30
0.0
 11
298.1152640974688
 21
349.0269523429002
 31
0.0
  0
LINE
  5
53B
330
4E5
100
AcDbEntity
  8
0
 62
     0
100
AcDbLine
 10
296.1152640974688
 20
344.198525218154
 30
0.0
 11
298.1152640974688
 21
346.198525218154
 31
0.0
  0
LINE
  5
53C
330
4E5
100
AcDbEntity
  8
0
 62
     0
100
AcDbLine
 10
296.078723589846
 20
341.333557585785
 30
0.0
 11
298.1152640974688
 21
343.3700980934077
 31
0.0
  0
LINE
  5
53D
330
4E5
100
AcDbEntity
  8
0
 62
     0
100
AcDbLine
 10
295.8075430585655
 20
338.2339499297584
 30
0.0
 11
298.0076687938186
 21
340.4340756650114
 31
0.0
  0
LINE
  5
53E
330
4E5
100
AcDbEntity
  8
0
 62
     0
100
AcDbLine
 10
295.536362527285
 20
335.1343422737317
 30
0.0
 11
297.7364882625381
 21
337.3344680089847
 31
0.0
  0
LINE
  5
53F
330
4E5
100
AcDbEntity
  8
0
 62
     0
100
AcDbLine
 10
295.2651819960045
 20
332.034734617705
 30
0.0
 11
297.4653077312576
 21
334.234860352958
 31
0.0
  0
LINE
  5
540
330
4E5
100
AcDbEntity
  8
0
 62
     0
100
AcDbLine
 10
295.7227701163103
 20
329.6638956132646
 30
0.0
 11
297.1941271999771
 21
331.1352526969314
 31
0.0
  0
ENDBLK
  5
541
330
4E5
100
AcDbEntity
  8
0
100
AcDbBlockEnd
  0
BLOCK
  5
543
330
542
100
AcDbEntity
  8
0
100
AcDbBlockBegin
  2
*X4
 70
     1
 10
0.0
 20
0.0
 30
0.0
  3
*X4
  1

  0
LINE
  5
544
330
542
100
AcDbEntity
  8
0
 62
     0
100
AcDbLine
 10
175.9683693962598
 20
543.6638956132644
 30
0.0
 11
176.6152640974689
 21
544.3107903144736
 31
0.0
  0
LINE
  5
545
330
542
100
AcDbEntity
  8
0
 62
     0
100
AcDbLine
 10
173.1399422715136
 20
543.6638956132644
 30
0.0
 11
175.1399422715135
 21
545.6638956132643
 31
0.0
  0
LINE
  5
546
330
542
100
AcDbEntity
  8
0
 62
     0
100
AcDbLine
 10
170.5621662209747
 20
543.9145466874718
 30
0.0
 11
172.3160401847465
 21
545.6684206512436
 31
0.0
  0
LINE
  5
547
330
542
100
AcDbEntity
  8
0
 62
     0
100
AcDbLine
 10
168.552739274994
 20
544.7335468662372
 30
0.0
 11
170.035123324474
 21
546.2159309157171
 31
0.0
  0
LINE
  5
548
330
542
100
AcDbEntity
  8
0
 62
     0
100
AcDbLine
 10
166.945233217735
 20
545.9544679337243
 30
0.0
 11
168.3595289873456
 21
547.368763703335
 31
0.0
  0
LINE
  5
549
330
542
100
AcDbEntity
  8
0
 62
     0
100
AcDbLine
 10
165.6970346484594
 20
547.5346964891949
 30
0.0
 11
167.1601067506878
 21
548.9977685914234
 31
0.0
  0
LINE
  5
54A
330
542
100
AcDbEntity
  8
0
 62
     0
100
AcDbLine
 10
164.6607289551399
 20
549.3268179206218
 30
0.0
 11
166.1248305702777
 21
550.7909195357594
 31
0.0
  0
LINE
  5
54B
330
542
100
AcDbEntity
  8
0
 62
     0
100
AcDbLine
 10
163.6254527747299
 20
551.1199688649578
 30
0.0
 11
165.0895543898676
 21
552.5840704800956
 31
0.0
  0
LINE
  5
54C
330
542
100
AcDbEntity
  8
0
 62
     0
100
AcDbLine
 10
162.5901765943198
 20
552.9131198092939
 30
0.0
 11
164.0542782094575
 21
554.3772214244317
 31
0.0
  0
LINE
  5
54D
330
542
100
AcDbEntity
  8
0
 62
     0
100
AcDbLine
 10
161.5549004139097
 20
554.7062707536301
 30
0.0
 11
163.0190020290475
 21
556.1703723687678
 31
0.0
  0
LINE
  5
54E
330
542
100
AcDbEntity
  8
0
 62
     0
100
AcDbLine
 10
160.5196242334996
 20
556.4994216979662
 30
0.0
 11
161.9837258486374
 21
557.963523313104
 31
0.0
  0
LINE
  5
54F
330
542
100
AcDbEntity
  8
0
 62
     0
100
AcDbLine
 10
159.4843480530895
 20
558.2925726423022
 30
0.0
 11
160.9484496682273
 21
559.75667425744
 31
0.0
  0
LINE
  5
550
330
542
100
AcDbEntity
  8
0
 62
     0
100
AcDbLine
 10
158.4490718726795
 20
560.0857235866384
 30
0.0
 11
160.1152640974689
 21
561.7519158114277
 31
0.0
  0
LINE
  5
551
330
542
100
AcDbEntity
  8
0
 62
     0
100
AcDbLine
 10
158.1152640974689
 20
562.580342936174
 30
0.0
 11
160.1348357382929
 21
564.5999145769979
 31
0.0
  0
LINE
  5
552
330
542
100
AcDbEntity
  8
0
 62
     0
100
AcDbLine
 10
158.2747223524873
 20
565.5682283159386
 30
0.0
 11
160.7403284561306
 21
568.0338344195819
 31
0.0
  0
LINE
  5
553
330
542
100
AcDbEntity
  8
0
 62
     0
100
AcDbLine
 10
158.880215070325
 20
569.0021481585225
 30
0.0
 11
161.3458211739683
 21
571.4677542621658
 31
0.0
  0
LINE
  5
554
330
542
100
AcDbEntity
  8
0
 62
     0
100
AcDbLine
 10
159.4857077881627
 20
572.4360680011064
 30
0.0
 11
161.7135972053017
 21
574.6639574182454
 31
0.0
  0
LINE
  5
555
330
542
100
AcDbEntity
  8
0
 62
     0
100
AcDbLine
 10
159.5402581405299
 20
575.3190454782198
 30
0.0
 11
161.0484879191189
 21
576.8272752568089
 31
0.0
  0
LINE
  5
556
330
542
100
AcDbEntity
  8
0
 62
     0
100
AcDbLine
 10
158.3479580390521
 20
576.9551725014882
 30
0.0
 11
159.7707392338358
 21
578.3779536962718
 31
0.0
  0
LINE
  5
557
330
542
100
AcDbEntity
  8
0
 62
     0
100
AcDbLine
 10
156.2282540260824
 20
577.6638956132646
 30
0.0
 11
157.9533771327791
 21
579.3890187199614
 31
0.0
  0
LINE
  5
558
330
542
100
AcDbEntity
  8
0
 62
     0
100
AcDbLine
 10
153.3998269013362
 20
577.6638956132646
 30
0.0
 11
155.3998269013362
 21
579.6638956132646
 31
0.0
  0
LINE
  5
559
330
542
100
AcDbEntity
  8
0
 62
     0
100
AcDbLine
 10
150.57139977659
 20
577.6638956132646
 30
0.0
 11
152.57139977659
 21
579.6638956132646
 31
0.0
  0
LINE
  5
55A
330
542
100
AcDbEntity
  8
0
 62
     0
100
AcDbLine
 10
147.7429726518438
 20
577.6638956132646
 30
0.0
 11
149.7429726518438
 21
579.6638956132646
 31
0.0
  0
LINE
  5
55B
330
542
100
AcDbEntity
  8
0
 62
     0
100
AcDbLine
 10
144.9145455270976
 20
577.6638956132646
 30
0.0
 11
146.9145455270976
 21
579.6638956132646
 31
0.0
  0
LINE
  5
55C
330
542
100
AcDbEntity
  8
0
 62
     0
100
AcDbLine
 10
142.0861184023515
 20
577.6638956132646
 30
0.0
 11
144.0861184023515
 21
579.6638956132646
 31
0.0
  0
LINE
  5
55D
330
542
100
AcDbEntity
  8
0
 62
     0
100
AcDbLine
 10
139.2576912776053
 20
577.6638956132646
 30
0.0
 11
141.2576912776052
 21
579.6638956132646
 31
0.0
  0
LINE
  5
55E
330
542
100
AcDbEntity
  8
0
 62
     0
100
AcDbLine
 10
136.4292641528591
 20
577.6638956132646
 30
0.0
 11
138.429264152859
 21
579.6638956132646
 31
0.0
  0
LINE
  5
55F
330
542
100
AcDbEntity
  8
0
 62
     0
100
AcDbLine
 10
133.6008370281129
 20
577.6638956132646
 30
0.0
 11
135.6008370281129
 21
579.6638956132646
 31
0.0
  0
LINE
  5
560
330
542
100
AcDbEntity
  8
0
 62
     0
100
AcDbLine
 10
130.7724099033667
 20
577.6638956132646
 30
0.0
 11
132.7724099033667
 21
579.6638956132646
 31
0.0
  0
LINE
  5
561
330
542
100
AcDbEntity
  8
0
 62
     0
100
AcDbLine
 10
127.9439827786205
 20
577.6638956132646
 30
0.0
 11
129.9439827786205
 21
579.6638956132646
 31
0.0
  0
LINE
  5
562
330
542
100
AcDbEntity
  8
0
 62
     0
100
AcDbLine
 10
125.1155556538743
 20
577.6638956132646
 30
0.0
 11
127.1155556538743
 21
579.6638956132646
 31
0.0
  0
LINE
  5
563
330
542
100
AcDbEntity
  8
0
 62
     0
100
AcDbLine
 10
122.2871285291281
 20
577.6638956132646
 30
0.0
 11
124.2871285291281
 21
579.6638956132646
 31
0.0
  0
LINE
  5
564
330
542
100
AcDbEntity
  8
0
 62
     0
100
AcDbLine
 10
119.4587014043819
 20
577.6638956132646
 30
0.0
 11
121.4587014043819
 21
579.6638956132646
 31
0.0
  0
LINE
  5
565
330
542
100
AcDbEntity
  8
0
 62
     0
100
AcDbLine
 10
116.6302742796357
 20
577.6638956132646
 30
0.0
 11
118.6302742796357
 21
579.6638956132646
 31
0.0
  0
LINE
  5
566
330
542
100
AcDbEntity
  8
0
 62
     0
100
AcDbLine
 10
113.8018471548895
 20
577.6638956132646
 30
0.0
 11
115.8018471548895
 21
579.6638956132646
 31
0.0
  0
LINE
  5
567
330
542
100
AcDbEntity
  8
0
 62
     0
100
AcDbLine
 10
110.9734200301434
 20
577.6638956132646
 30
0.0
 11
112.9734200301433
 21
579.6638956132646
 31
0.0
  0
LINE
  5
568
330
542
100
AcDbEntity
  8
0
 62
     0
100
AcDbLine
 10
108.1449929053972
 20
577.6638956132646
 30
0.0
 11
110.1449929053972
 21
579.6638956132646
 31
0.0
  0
LINE
  5
569
330
542
100
AcDbEntity
  8
0
 62
     0
100
AcDbLine
 10
105.316565780651
 20
577.6638956132646
 30
0.0
 11
107.316565780651
 21
579.6638956132646
 31
0.0
  0
LINE
  5
56A
330
542
100
AcDbEntity
  8
0
 62
     0
100
AcDbLine
 10
102.4881386559048
 20
577.6638956132646
 30
0.0
 11
104.4881386559048
 21
579.6638956132646
 31
0.0
  0
LINE
  5
56B
330
542
100
AcDbEntity
  8
0
 62
     0
100
AcDbLine
 10
99.65971153115862
 20
577.6638956132646
 30
0.0
 11
101.6597115311586
 21
579.6638956132646
 31
0.0
  0
LINE
  5
56C
330
542
100
AcDbEntity
  8
0
 62
     0
100
AcDbLine
 10
96.83128440641244
 20
577.6638956132646
 30
0.0
 11
98.83128440641243
 21
579.6638956132646
 31
0.0
  0
LINE
  5
56D
330
542
100
AcDbEntity
  8
0
 62
     0
100
AcDbLine
 10
94.00285728166624
 20
577.6638956132646
 30
0.0
 11
96.00285728166623
 21
579.6638956132646
 31
0.0
  0
LINE
  5
56E
330
542
100
AcDbEntity
  8
0
 62
     0
100
AcDbLine
 10
91.17443015692005
 20
577.6638956132646
 30
0.0
 11
93.17443015692004
 21
579.6638956132646
 31
0.0
  0
LINE
  5
56F
330
542
100
AcDbEntity
  8
0
 62
     0
100
AcDbLine
 10
88.34600303217385
 20
577.6638956132646
 30
0.0
 11
90.34600303217384
 21
579.6638956132646
 31
0.0
  0
LINE
  5
570
330
542
100
AcDbEntity
  8
0
 62
     0
100
AcDbLine
 10
85.51757590742766
 20
577.6638956132646
 30
0.0
 11
87.51757590742766
 21
579.6638956132646
 31
0.0
  0
LINE
  5
571
330
542
100
AcDbEntity
  8
0
 62
     0
100
AcDbLine
 10
82.68914878268148
 20
577.6638956132646
 30
0.0
 11
84.68914878268146
 21
579.6638956132646
 31
0.0
  0
LINE
  5
572
330
542
100
AcDbEntity
  8
0
 62
     0
100
AcDbLine
 10
332.8407558955469
 20
576.0854886237192
 30
0.0
 11
336.0725579118839
 21
579.3172906400562
 31
0.0
  0
LINE
  5
573
330
542
100
AcDbEntity
  8
0
 62
     0
100
AcDbLine
 10
332.6099085022141
 20
573.0262141056401
 30
0.0
 11
334.5993831070874
 21
575.0156887105134
 31
0.0
  0
LINE
  5
574
330
542
100
AcDbEntity
  8
0
 62
     0
100
AcDbLine
 10
337.1423578250898
 20
577.558663428516
 30
0.0
 11
339.2475900098385
 21
579.6638956132646
 31
0.0
  0
LINE
  5
575
330
542
100
AcDbEntity
  8
0
 62
     0
100
AcDbLine
 10
333.0338790675751
 20
570.6217575462551
 30
0.0
 11
334.7603150476022
 21
572.3481935262821
 31
0.0
  0
LINE
  5
576
330
542
100
AcDbEntity
  8
0
 62
     0
100
AcDbLine
 10
340.0760171345847
 20
577.6638956132646
 30
0.0
 11
342.0760171345847
 21
579.6638956132646
 31
0.0
  0
LINE
  5
577
330
542
100
AcDbEntity
  8
0
 62
     0
100
AcDbLine
 10
333.4578496329362
 20
568.21730098687
 30
0.0
 11
335.1842856129632
 21
569.9437369668969
 31
0.0
  0
LINE
  5
578
330
542
100
AcDbEntity
  8
0
 62
     0
100
AcDbLine
 10
342.9044442593309
 20
577.6638956132646
 30
0.0
 11
344.9044442593309
 21
579.6638956132646
 31
0.0
  0
LINE
  5
579
330
542
100
AcDbEntity
  8
0
 62
     0
100
AcDbLine
 10
333.8818201982972
 20
565.8128444274848
 30
0.0
 11
335.6082561783241
 21
567.5392804075117
 31
0.0
  0
LINE
  5
57A
330
542
100
AcDbEntity
  8
0
 62
     0
100
AcDbLine
 10
345.7328713840771
 20
577.6638956132646
 30
0.0
 11
347.7328713840771
 21
579.6638956132646
 31
0.0
  0
LINE
  5
57B
330
542
100
AcDbEntity
  8
0
 62
     0
100
AcDbLine
 10
334.1152640974688
 20
563.21786120191
 30
0.0
 11
336.0322267436852
 21
565.1348238481265
 31
0.0
  0
LINE
  5
57C
330
542
100
AcDbEntity
  8
0
 62
     0
100
AcDbLine
 10
348.5612985088232
 20
577.6638956132646
 30
0.0
 11
350.5612985088232
 21
579.6638956132646
 31
0.0
  0
LINE
  5
57D
330
542
100
AcDbEntity
  8
0
 62
     0
100
AcDbLine
 10
317.6152640974688
 20
543.8894340771639
 30
0.0
 11
319.3897256335694
 21
545.6638956132645
 31
0.0
  0
LINE
  5
57E
330
542
100
AcDbEntity
  8
0
 62
     0
100
AcDbLine
 10
351.3897256335695
 20
577.6638956132646
 30
0.0
 11
353.3897256335695
 21
579.6638956132646
 31
0.0
  0
LINE
  5
57F
330
542
100
AcDbEntity
  8
0
 62
     0
100
AcDbLine
 10
333.0082918592245
 20
559.2824618389197
 30
0.0
 11
336.1152640974688
 21
562.389434077164
 31
0.0
  0
LINE
  5
580
330
542
100
AcDbEntity
  8
0
 62
     0
100
AcDbLine
 10
320.2181527583157
 20
543.6638956132647
 30
0.0
 11
322.2446375080576
 21
545.6903803630066
 31
0.0
  0
LINE
  5
581
330
542
100
AcDbEntity
  8
0
 62
     0
100
AcDbLine
 10
354.2181527583157
 20
577.6638956132646
 30
0.0
 11
356.2181527583156
 21
579.6638956132646
 31
0.0
  0
LINE
  5
582
330
542
100
AcDbEntity
  8
0
 62
     0
100
AcDbLine
 10
329.1445885540683
 20
552.5903314090173
 30
0.0
 11
334.6086901692061
 21
558.0544330241552
 31
0.0
  0
LINE
  5
583
330
542
100
AcDbEntity
  8
0
 62
     0
100
AcDbLine
 10
323.1901100729023
 20
543.8074258031051
 30
0.0
 11
330.7449868640501
 21
551.3623025942528
 31
0.0
  0
LINE
  5
584
330
542
100
AcDbEntity
  8
0
 62
     0
100
AcDbLine
 10
357.0465798830618
 20
577.6638956132646
 30
0.0
 11
359.0465798830619
 21
579.6638956132646
 31
0.0
  0
LINE
  5
585
330
542
100
AcDbEntity
  8
0
 62
     0
100
AcDbLine
 10
359.8750070078081
 20
577.6638956132646
 30
0.0
 11
361.8750070078081
 21
579.6638956132646
 31
0.0
  0
LINE
  5
586
330
542
100
AcDbEntity
  8
0
 62
     0
100
AcDbLine
 10
362.7034341325542
 20
577.6638956132646
 30
0.0
 11
364.7034341325542
 21
579.6638956132646
 31
0.0
  0
LINE
  5
587
330
542
100
AcDbEntity
  8
0
 62
     0
100
AcDbLine
 10
365.5318612573004
 20
577.6638956132646
 30
0.0
 11
367.5318612573004
 21
579.6638956132646
 31
0.0
  0
LINE
  5
588
330
542
100
AcDbEntity
  8
0
 62
     0
100
AcDbLine
 10
368.3602883820466
 20
577.6638956132646
 30
0.0
 11
370.3602883820466
 21
579.6638956132646
 31
0.0
  0
LINE
  5
589
330
542
100
AcDbEntity
  8
0
 62
     0
100
AcDbLine
 10
371.1887155067928
 20
577.6638956132646
 30
0.0
 11
373.1887155067928
 21
579.6638956132646
 31
0.0
  0
LINE
  5
58A
330
542
100
AcDbEntity
  8
0
 62
     0
100
AcDbLine
 10
374.017142631539
 20
577.6638956132646
 30
0.0
 11
376.017142631539
 21
579.6638956132646
 31
0.0
  0
LINE
  5
58B
330
542
100
AcDbEntity
  8
0
 62
     0
100
AcDbLine
 10
376.8455697562852
 20
577.6638956132646
 30
0.0
 11
378.8455697562852
 21
579.6638956132646
 31
0.0
  0
LINE
  5
58C
330
542
100
AcDbEntity
  8
0
 62
     0
100
AcDbLine
 10
379.6739968810314
 20
577.6638956132646
 30
0.0
 11
381.6739968810314
 21
579.6638956132646
 31
0.0
  0
LINE
  5
58D
330
542
100
AcDbEntity
  8
0
 62
     0
100
AcDbLine
 10
382.5024240057776
 20
577.6638956132646
 30
0.0
 11
384.5024240057776
 21
579.6638956132646
 31
0.0
  0
LINE
  5
58E
330
542
100
AcDbEntity
  8
0
 62
     0
100
AcDbLine
 10
385.3308511305237
 20
577.6638956132646
 30
0.0
 11
387.3308511305237
 21
579.6638956132646
 31
0.0
  0
LINE
  5
58F
330
542
100
AcDbEntity
  8
0
 62
     0
100
AcDbLine
 10
388.1592782552699
 20
577.6638956132646
 30
0.0
 11
390.1592782552699
 21
579.6638956132646
 31
0.0
  0
LINE
  5
590
330
542
100
AcDbEntity
  8
0
 62
     0
100
AcDbLine
 10
390.9877053800162
 20
577.6638956132646
 30
0.0
 11
392.9877053800161
 21
579.6638956132646
 31
0.0
  0
LINE
  5
591
330
542
100
AcDbEntity
  8
0
 62
     0
100
AcDbLine
 10
393.8161325047623
 20
577.6638956132646
 30
0.0
 11
395.8161325047623
 21
579.6638956132646
 31
0.0
  0
LINE
  5
592
330
542
100
AcDbEntity
  8
0
 62
     0
100
AcDbLine
 10
396.6445596295086
 20
577.6638956132646
 30
0.0
 11
398.6445596295085
 21
579.6638956132646
 31
0.0
  0
LINE
  5
593
330
542
100
AcDbEntity
  8
0
 62
     0
100
AcDbLine
 10
399.4729867542547
 20
577.6638956132646
 30
0.0
 11
401.4729867542547
 21
579.6638956132646
 31
0.0
  0
LINE
  5
594
330
542
100
AcDbEntity
  8
0
 62
     0
100
AcDbLine
 10
402.3014138790008
 20
577.6638956132646
 30
0.0
 11
404.3014138790009
 21
579.6638956132646
 31
0.0
  0
LINE
  5
595
330
542
100
AcDbEntity
  8
0
 62
     0
100
AcDbLine
 10
405.1298410037471
 20
577.6638956132646
 30
0.0
 11
407.129841003747
 21
579.6638956132646
 31
0.0
  0
LINE
  5
596
330
542
100
AcDbEntity
  8
0
 62
     0
100
AcDbLine
 10
407.9582681284932
 20
577.6638956132646
 30
0.0
 11
409.9582681284933
 21
579.6638956132646
 31
0.0
  0
LINE
  5
597
330
542
100
AcDbEntity
  8
0
 62
     0
100
AcDbLine
 10
410.7866952532394
 20
577.6638956132646
 30
0.0
 11
412.1152640974687
 21
578.9924644574939
 31
0.0
  0
ENDBLK
  5
598
330
542
100
AcDbEntity
  8
0
100
AcDbBlockEnd
  0
BLOCK
  5
59A
330
599
100
AcDbEntity
  8
0
100
AcDbBlockBegin
  2
*X5
 70
     1
 10
0.0
 20
0.0
 30
0.0
  3
*X5
  1

  0
LINE
  5
59B
330
599
100
AcDbEntity
  8
0
 62
     0
100
AcDbLine
 10
170.0431410519832
 20
542.7204943840565
 30
0.0
 11
168.7445064224923
 21
544.0191290135475
 31
0.0
  0
LINE
  5
59C
330
599
100
AcDbEntity
  8
0
 62
     0
100
AcDbLine
 10
171.7401973268309
 20
538.1950109844628
 30
0.0
 11
167.4681954541721
 21
542.4670128571214
 31
0.0
  0
LINE
  5
59D
330
599
100
AcDbEntity
  8
0
 62
     0
100
AcDbLine
 10
173.4372536016786
 20
533.6695275848689
 30
0.0
 11
169.1652517290198
 21
537.9415294575276
 31
0.0
  0
LINE
  5
59E
330
599
100
AcDbEntity
  8
0
 62
     0
100
AcDbLine
 10
175.1343098765262
 20
529.1440441852749
 30
0.0
 11
170.8623080038675
 21
533.4160460579337
 31
0.0
  0
LINE
  5
59F
330
599
100
AcDbEntity
  8
0
 62
     0
100
AcDbLine
 10
176.517790140536
 20
524.9321367965189
 30
0.0
 11
172.5593642787152
 21
528.8905626583398
 31
0.0
  0
LINE
  5
5A0
330
599
100
AcDbEntity
  8
0
 62
     0
100
AcDbLine
 10
177.043420518774
 20
521.5780792935349
 30
0.0
 11
174.0276598839004
 21
524.5938399284084
 31
0.0
  0
LINE
  5
5A1
330
599
100
AcDbEntity
  8
0
 62
     0
100
AcDbLine
 10
177.1152640974688
 20
518.6778085900938
 30
0.0
 11
174.5627131437641
 21
521.2303595437985
 31
0.0
  0
LINE
  5
5A2
330
599
100
AcDbEntity
  8
0
 62
     0
100
AcDbLine
 10
177.1152640974688
 20
515.8493814653476
 30
0.0
 11
174.6152640974688
 21
518.3493814653476
 31
0.0
  0
LINE
  5
5A3
330
599
100
AcDbEntity
  8
0
 62
     0
100
AcDbLine
 10
177.1152640974688
 20
513.0209543406015
 30
0.0
 11
174.6152640974688
 21
515.5209543406014
 31
0.0
  0
LINE
  5
5A4
330
599
100
AcDbEntity
  8
0
 62
     0
100
AcDbLine
 10
177.1152640974688
 20
510.1925272158553
 30
0.0
 11
174.6152640974688
 21
512.6925272158553
 31
0.0
  0
LINE
  5
5A5
330
599
100
AcDbEntity
  8
0
 62
     0
100
AcDbLine
 10
177.1152640974688
 20
507.3641000911091
 30
0.0
 11
174.6152640974688
 21
509.864100091109
 31
0.0
  0
LINE
  5
5A6
330
599
100
AcDbEntity
  8
0
 62
     0
100
AcDbLine
 10
177.1152640974688
 20
504.5356729663629
 30
0.0
 11
174.6152640974688
 21
507.0356729663628
 31
0.0
  0
LINE
  5
5A7
330
599
100
AcDbEntity
  8
0
 62
     0
100
AcDbLine
 10
177.1152640974688
 20
501.7072458416167
 30
0.0
 11
174.6152640974688
 21
504.2072458416168
 31
0.0
  0
LINE
  5
5A8
330
599
100
AcDbEntity
  8
0
 62
     0
100
AcDbLine
 10
177.1152640974688
 20
498.8788187168706
 30
0.0
 11
174.6152640974688
 21
501.3788187168706
 31
0.0
  0
LINE
  5
5A9
330
599
100
AcDbEntity
  8
0
 62
     0
100
AcDbLine
 10
177.1152640974688
 20
496.0503915921243
 30
0.0
 11
174.6152640974688
 21
498.5503915921243
 31
0.0
  0
LINE
  5
5AA
330
599
100
AcDbEntity
  8
0
 62
     0
100
AcDbLine
 10
177.1152640974688
 20
493.2219644673781
 30
0.0
 11
174.6152640974688
 21
495.7219644673782
 31
0.0
  0
LINE
  5
5AB
330
599
100
AcDbEntity
  8
0
 62
     0
100
AcDbLine
 10
177.1152640974688
 20
490.393537342632
 30
0.0
 11
174.6152640974688
 21
492.893537342632
 31
0.0
  0
LINE
  5
5AC
330
599
100
AcDbEntity
  8
0
 62
     0
100
AcDbLine
 10
177.1152640974688
 20
487.5651102178858
 30
0.0
 11
174.6152640974688
 21
490.0651102178858
 31
0.0
  0
LINE
  5
5AD
330
599
100
AcDbEntity
  8
0
 62
     0
100
AcDbLine
 10
177.1632603031902
 20
484.6886868874182
 30
0.0
 11
174.6152640974688
 21
487.2366830931396
 31
0.0
  0
LINE
  5
5AE
330
599
100
AcDbEntity
  8
0
 62
     0
100
AcDbLine
 10
177.6749187818311
 20
481.3486012840311
 30
0.0
 11
174.682021471826
 21
484.3414985940362
 31
0.0
  0
LINE
  5
5AF
330
599
100
AcDbEntity
  8
0
 62
     0
100
AcDbLine
 10
178.4572496886758
 20
477.7378432524402
 30
0.0
 11
175.1917080975757
 21
481.0033848435402
 31
0.0
  0
LINE
  5
5B0
330
599
100
AcDbEntity
  8
0
 62
     0
100
AcDbLine
 10
179.2395805955205
 20
474.1270852208494
 30
0.0
 11
175.9740390044204
 21
477.3926268119494
 31
0.0
  0
LINE
  5
5B1
330
599
100
AcDbEntity
  8
0
 62
     0
100
AcDbLine
 10
196.1152640974687
 20
454.4229745941549
 30
0.0
 11
194.3743430783591
 21
456.1638956132645
 31
0.0
  0
LINE
  5
5B2
330
599
100
AcDbEntity
  8
0
 62
     0
100
AcDbLine
 10
180.0219115023652
 20
470.5163271892585
 30
0.0
 11
176.7563699112651
 21
473.7818687803585
 31
0.0
  0
LINE
  5
5B3
330
599
100
AcDbEntity
  8
0
 62
     0
100
AcDbLine
 10
194.045915953613
 20
453.6638956132645
 30
0.0
 11
191.5459159536129
 21
456.1638956132645
 31
0.0
  0
LINE
  5
5B4
330
599
100
AcDbEntity
  8
0
 62
     0
100
AcDbLine
 10
180.8042424092099
 20
466.9055691576676
 30
0.0
 11
177.5387008181098
 21
470.1711107487676
 31
0.0
  0
LINE
  5
5B5
330
599
100
AcDbEntity
  8
0
 62
     0
100
AcDbLine
 10
191.2174888288668
 20
453.6638956132645
 30
0.0
 11
188.2837352871117
 21
456.5976491550195
 31
0.0
  0
LINE
  5
5B6
330
599
100
AcDbEntity
  8
0
 62
     0
100
AcDbLine
 10
181.6307222043662
 20
463.2506622377651
 30
0.0
 11
178.3210317249545
 21
466.5603527171767
 31
0.0
  0
LINE
  5
5B7
330
599
100
AcDbEntity
  8
0
 62
     0
100
AcDbLine
 10
187.9636481852726
 20
454.0893091321124
 30
0.0
 11
179.1223821814592
 21
462.9305751359258
 31
0.0
  0
LINE
  5
5B8
330
599
100
AcDbEntity
  8
0
 62
     0
100
AcDbLine
 10
298.6977195692217
 20
453.6638956132646
 30
0.0
 11
298.1152640974688
 21
454.2463510850176
 31
0.0
  0
LINE
  5
5B9
330
599
100
AcDbEntity
  8
0
 62
     0
100
AcDbLine
 10
301.5261466939679
 20
453.6638956132647
 30
0.0
 11
299.026146693968
 21
456.1638956132647
 31
0.0
  0
LINE
  5
5BA
330
599
100
AcDbEntity
  8
0
 62
     0
100
AcDbLine
 10
304.2911514277132
 20
453.7273180042657
 30
0.0
 11
301.8545738187142
 21
456.1638956132647
 31
0.0
  0
LINE
  5
5BB
330
599
100
AcDbEntity
  8
0
 62
     0
100
AcDbLine
 10
306.6487900295231
 20
454.1981065272019
 30
0.0
 11
304.5650343778133
 21
456.2818621789118
 31
0.0
  0
LINE
  5
5BC
330
599
100
AcDbEntity
  8
0
 62
     0
100
AcDbLine
 10
308.6690118895249
 20
455.0063117919463
 30
0.0
 11
306.7822185274157
 21
456.8931051540555
 31
0.0
  0
LINE
  5
5BD
330
599
100
AcDbEntity
  8
0
 62
     0
100
AcDbLine
 10
310.422323496205
 20
456.0814273100123
 30
0.0
 11
308.6283202323568
 21
457.8754305738605
 31
0.0
  0
LINE
  5
5BE
330
599
100
AcDbEntity
  8
0
 62
     0
100
AcDbLine
 10
311.9394990031186
 20
457.3926789278449
 30
0.0
 11
310.171667875851
 21
459.1605100551126
 31
0.0
  0
LINE
  5
5BF
330
599
100
AcDbEntity
  8
0
 62
     0
100
AcDbLine
 10
313.2289129819621
 20
458.9316920737477
 30
0.0
 11
311.4292458296014
 21
460.7313592261084
 31
0.0
  0
LINE
  5
5C0
330
599
100
AcDbEntity
  8
0
 62
     0
100
AcDbLine
 10
314.2803604951038
 20
460.7086716853522
 30
0.0
 11
312.3802711513251
 21
462.6087610291309
 31
0.0
  0
LINE
  5
5C1
330
599
100
AcDbEntity
  8
0
 62
     0
100
AcDbLine
 10
315.0603538260037
 20
462.7571054791984
 30
0.0
 11
312.978516699474
 21
464.838942605728
 31
0.0
  0
LINE
  5
5C2
330
599
100
AcDbEntity
  8
0
 62
     0
100
AcDbLine
 10
315.5846811844523
 20
465.0612052454961
 30
0.0
 11
313.4822092011412
 21
467.1636772288072
 31
0.0
  0
LINE
  5
5C3
330
599
100
AcDbEntity
  8
0
 62
     0
100
AcDbLine
 10
316.0883736861194
 20
467.3859398685751
 30
0.0
 11
313.9859017028083
 21
469.4884118518862
 31
0.0
  0
LINE
  5
5C4
330
599
100
AcDbEntity
  8
0
 62
     0
100
AcDbLine
 10
316.5920661877866
 20
469.7106744916541
 30
0.0
 11
314.4895942044755
 21
471.8131464749652
 31
0.0
  0
LINE
  5
5C5
330
599
100
AcDbEntity
  8
0
 62
     0
100
AcDbLine
 10
317.0957586894536
 20
472.0354091147332
 30
0.0
 11
314.9932867061426
 21
474.1378810980442
 31
0.0
  0
LINE
  5
5C6
330
599
100
AcDbEntity
  8
0
 62
     0
100
AcDbLine
 10
317.5994511911208
 20
474.3601437378123
 30
0.0
 11
315.4969792078097
 21
476.4626157211234
 31
0.0
  0
LINE
  5
5C7
330
599
100
AcDbEntity
  8
0
 62
     0
100
AcDbLine
 10
318.1031436927879
 20
476.6848783608913
 30
0.0
 11
316.0006717094769
 21
478.7873503442024
 31
0.0
  0
LINE
  5
5C8
330
599
100
AcDbEntity
  8
0
 62
     0
100
AcDbLine
 10
318.6068361944551
 20
479.0096129839703
 30
0.0
 11
316.504364211144
 21
481.1120849672814
 31
0.0
  0
LINE
  5
5C9
330
599
100
AcDbEntity
  8
0
 62
     0
100
AcDbLine
 10
319.110516106608
 20
481.3343601965637
 30
0.0
 11
316.9485332433774
 21
483.4963430597943
 31
0.0
  0
LINE
  5
5CA
330
599
100
AcDbEntity
  8
0
 62
     0
100
AcDbLine
 10
319.4976291840933
 20
483.7756742438245
 30
0.0
 11
317.1152640974688
 21
486.1580393304492
 31
0.0
  0
LINE
  5
5CB
330
599
100
AcDbEntity
  8
0
 62
     0
100
AcDbLine
 10
319.6152640974688
 20
486.4864664551953
 30
0.0
 11
317.1152640974688
 21
488.9864664551954
 31
0.0
  0
LINE
  5
5CC
330
599
100
AcDbEntity
  8
0
 62
     0
100
AcDbLine
 10
319.6152640974688
 20
489.3148935799415
 30
0.0
 11
317.1152640974688
 21
491.8148935799415
 31
0.0
  0
LINE
  5
5CD
330
599
100
AcDbEntity
  8
0
 62
     0
100
AcDbLine
 10
319.6152640974688
 20
492.1433207046876
 30
0.0
 11
317.1152640974688
 21
494.6433207046878
 31
0.0
  0
LINE
  5
5CE
330
599
100
AcDbEntity
  8
0
 62
     0
100
AcDbLine
 10
319.6152640974688
 20
494.9717478294338
 30
0.0
 11
317.1152640974688
 21
497.4717478294339
 31
0.0
  0
LINE
  5
5CF
330
599
100
AcDbEntity
  8
0
 62
     0
100
AcDbLine
 10
319.6152640974688
 20
497.8001749541801
 30
0.0
 11
317.1152640974688
 21
500.3001749541801
 31
0.0
  0
LINE
  5
5D0
330
599
100
AcDbEntity
  8
0
 62
     0
100
AcDbLine
 10
319.6152640974688
 20
500.6286020789262
 30
0.0
 11
317.1152640974688
 21
503.1286020789263
 31
0.0
  0
LINE
  5
5D1
330
599
100
AcDbEntity
  8
0
 62
     0
100
AcDbLine
 10
319.6152640974688
 20
503.4570292036725
 30
0.0
 11
317.1152640974688
 21
505.9570292036725
 31
0.0
  0
LINE
  5
5D2
330
599
100
AcDbEntity
  8
0
 62
     0
100
AcDbLine
 10
319.6152640974688
 20
506.2854563284187
 30
0.0
 11
317.1152640974688
 21
508.7854563284187
 31
0.0
  0
LINE
  5
5D3
330
599
100
AcDbEntity
  8
0
 62
     0
100
AcDbLine
 10
319.6152640974688
 20
509.1138834531649
 30
0.0
 11
317.1152640974688
 21
511.6138834531648
 31
0.0
  0
LINE
  5
5D4
330
599
100
AcDbEntity
  8
0
 62
     0
100
AcDbLine
 10
319.6152640974688
 20
511.9423105779111
 30
0.0
 11
317.1152640974688
 21
514.4423105779111
 31
0.0
  0
LINE
  5
5D5
330
599
100
AcDbEntity
  8
0
 62
     0
100
AcDbLine
 10
319.6152640974688
 20
514.7707377026572
 30
0.0
 11
317.1152640974688
 21
517.2707377026572
 31
0.0
  0
LINE
  5
5D6
330
599
100
AcDbEntity
  8
0
 62
     0
100
AcDbLine
 10
319.6152640974688
 20
517.5991648274034
 30
0.0
 11
317.1174759518723
 21
520.0969529729999
 31
0.0
  0
LINE
  5
5D7
330
599
100
AcDbEntity
  8
0
 62
     0
100
AcDbLine
 10
319.6253792245058
 20
520.4174768251125
 30
0.0
 11
317.3097124983991
 21
522.7331435512192
 31
0.0
  0
LINE
  5
5D8
330
599
100
AcDbEntity
  8
0
 62
     0
100
AcDbLine
 10
319.8752840517935
 20
522.995999122571
 30
0.0
 11
317.756495977108
 21
525.1147871972565
 31
0.0
  0
LINE
  5
5D9
330
599
100
AcDbEntity
  8
0
 62
     0
100
AcDbLine
 10
320.3934788606372
 20
525.3062314384735
 30
0.0
 11
318.4062892502711
 21
527.2934210488397
 31
0.0
  0
LINE
  5
5DA
330
599
100
AcDbEntity
  8
0
 62
     0
100
AcDbLine
 10
321.1165486933028
 20
527.4115887305542
 30
0.0
 11
319.174729660276
 21
529.3534077635809
 31
0.0
  0
LINE
  5
5DB
330
599
100
AcDbEntity
  8
0
 62
     0
100
AcDbLine
 10
321.8879379091426
 20
529.4686266394604
 30
0.0
 11
319.9461188761159
 21
531.4104456724871
 31
0.0
  0
LINE
  5
5DC
330
599
100
AcDbEntity
  8
0
 62
     0
100
AcDbLine
 10
322.6593271249825
 20
531.5256645483668
 30
0.0
 11
320.7175080919557
 21
533.4674835813935
 31
0.0
  0
LINE
  5
5DD
330
599
100
AcDbEntity
  8
0
 62
     0
100
AcDbLine
 10
323.4307163408224
 20
533.5827024572731
 30
0.0
 11
321.4888973077957
 21
535.5245214902999
 31
0.0
  0
LINE
  5
5DE
330
599
100
AcDbEntity
  8
0
 62
     0
100
AcDbLine
 10
324.2021055566622
 20
535.6397403661794
 30
0.0
 11
322.2602865236355
 21
537.5815593992061
 31
0.0
  0
LINE
  5
5DF
330
599
100
AcDbEntity
  8
0
 62
     0
100
AcDbLine
 10
324.9734947725021
 20
537.6967782750857
 30
0.0
 11
323.0316757394754
 21
539.6385973081124
 31
0.0
  0
LINE
  5
5E0
330
599
100
AcDbEntity
  8
0
 62
     0
100
AcDbLine
 10
325.7448839883419
 20
539.7538161839921
 30
0.0
 11
323.8030649553152
 21
541.6956352170188
 31
0.0
  0
LINE
  5
5E1
330
599
100
AcDbEntity
  8
0
 62
     0
100
AcDbLine
 10
326.5162732041818
 20
541.8108540928984
 30
0.0
 11
324.5744541711551
 21
543.7526731259252
 31
0.0
  0
ENDBLK
  5
5E2
330
599
100
AcDbEntity
  8
0
100
AcDbBlockEnd
  0
BLOCK
  5
617
330
616
100
AcDbEntity
  8
0
100
AcDbBlockBegin
  2
*X6
 70
     1
 10
0.0
 20
0.0
 30
0.0
  3
*X6
  1

  0
LINE
  5
618
330
616
100
AcDbEntity
  8
0
 62
     0
100
AcDbLine
 10
126.64420195001
 20
481.9653594962501
 30
0.0
 11
128.64420195001
 21
483.9653594962499
 31
0.0
  0
LINE
  5
619
330
616
100
AcDbEntity
  8
0
 62
     0
100
AcDbLine
 10
124.8764349970436
 20
481.9653594962501
 30
0.0
 11
126.8764349970436
 21
483.9653594962499
 31
0.0
  0
LINE
  5
61A
330
616
100
AcDbEntity
  8
0
 62
     0
100
AcDbLine
 10
123.1086680440772
 20
481.9653594962501
 30
0.0
 11
125.1086680440772
 21
483.9653594962499
 31
0.0
  0
LINE
  5
61B
330
616
100
AcDbEntity
  8
0
 62
     0
100
AcDbLine
 10
121.3409010911108
 20
481.9653594962501
 30
0.0
 11
123.3409010911108
 21
483.9653594962499
 31
0.0
  0
LINE
  5
61C
330
616
100
AcDbEntity
  8
0
 62
     0
100
AcDbLine
 10
119.5731341381444
 20
481.9653594962501
 30
0.0
 11
121.5731341381445
 21
483.9653594962499
 31
0.0
  0
LINE
  5
61D
330
616
100
AcDbEntity
  8
0
 62
     0
100
AcDbLine
 10
117.8053671851781
 20
481.9653594962501
 30
0.0
 11
119.8053671851781
 21
483.9653594962499
 31
0.0
  0
LINE
  5
61E
330
616
100
AcDbEntity
  8
0
 62
     0
100
AcDbLine
 10
116.0376002322117
 20
481.9653594962501
 30
0.0
 11
118.0376002322117
 21
483.9653594962499
 31
0.0
  0
LINE
  5
61F
330
616
100
AcDbEntity
  8
0
 62
     0
100
AcDbLine
 10
114.2698332792454
 20
481.9653594962501
 30
0.0
 11
116.2698332792454
 21
483.9653594962499
 31
0.0
  0
LINE
  5
620
330
616
100
AcDbEntity
  8
0
 62
     0
100
AcDbLine
 10
112.502066326279
 20
481.9653594962501
 30
0.0
 11
114.502066326279
 21
483.9653594962499
 31
0.0
  0
LINE
  5
621
330
616
100
AcDbEntity
  8
0
 62
     0
100
AcDbLine
 10
110.7342993733126
 20
481.96535949625
 30
0.0
 11
112.7342993733126
 21
483.9653594962499
 31
0.0
  0
LINE
  5
622
330
616
100
AcDbEntity
  8
0
 62
     0
100
AcDbLine
 10
108.9665324203462
 20
481.96535949625
 30
0.0
 11
110.9665324203463
 21
483.9653594962499
 31
0.0
  0
LINE
  5
623
330
616
100
AcDbEntity
  8
0
 62
     0
100
AcDbLine
 10
107.1987654673799
 20
481.96535949625
 30
0.0
 11
109.1987654673799
 21
483.9653594962499
 31
0.0
  0
LINE
  5
624
330
616
100
AcDbEntity
  8
0
 62
     0
100
AcDbLine
 10
105.4309985144135
 20
481.96535949625
 30
0.0
 11
107.4309985144135
 21
483.9653594962499
 31
0.0
  0
LINE
  5
625
330
616
100
AcDbEntity
  8
0
 62
     0
100
AcDbLine
 10
103.6632315614471
 20
481.96535949625
 30
0.0
 11
105.6632315614471
 21
483.9653594962499
 31
0.0
  0
LINE
  5
626
330
616
100
AcDbEntity
  8
0
 62
     0
100
AcDbLine
 10
101.8954646084808
 20
481.96535949625
 30
0.0
 11
103.8954646084808
 21
483.9653594962499
 31
0.0
  0
LINE
  5
627
330
616
100
AcDbEntity
  8
0
 62
     0
100
AcDbLine
 10
100.1276976555144
 20
481.96535949625
 30
0.0
 11
102.1276976555144
 21
483.9653594962499
 31
0.0
  0
LINE
  5
628
330
616
100
AcDbEntity
  8
0
 62
     0
100
AcDbLine
 10
98.35993070254804
 20
481.96535949625
 30
0.0
 11
100.359930702548
 21
483.9653594962499
 31
0.0
  0
LINE
  5
629
330
616
100
AcDbEntity
  8
0
 62
     0
100
AcDbLine
 10
96.59216374958166
 20
481.96535949625
 30
0.0
 11
98.59216374958171
 21
483.9653594962499
 31
0.0
  0
LINE
  5
62A
330
616
100
AcDbEntity
  8
0
 62
     0
100
AcDbLine
 10
94.8243967966153
 20
481.96535949625
 30
0.0
 11
96.82439679661534
 21
483.9653594962499
 31
0.0
  0
LINE
  5
62B
330
616
100
AcDbEntity
  8
0
 62
     0
100
AcDbLine
 10
93.05662984364891
 20
481.96535949625
 30
0.0
 11
95.05662984364896
 21
483.9653594962499
 31
0.0
  0
LINE
  5
62C
330
616
100
AcDbEntity
  8
0
 62
     0
100
AcDbLine
 10
91.28886289068255
 20
481.96535949625
 30
0.0
 11
93.28886289068259
 21
483.9653594962499
 31
0.0
  0
LINE
  5
62D
330
616
100
AcDbEntity
  8
0
 62
     0
100
AcDbLine
 10
89.52109593771618
 20
481.96535949625
 30
0.0
 11
91.52109593771623
 21
483.9653594962499
 31
0.0
  0
LINE
  5
62E
330
616
100
AcDbEntity
  8
0
 62
     0
100
AcDbLine
 10
87.75332898474982
 20
481.96535949625
 30
0.0
 11
89.75332898474986
 21
483.9653594962499
 31
0.0
  0
LINE
  5
62F
330
616
100
AcDbEntity
  8
0
 62
     0
100
AcDbLine
 10
85.98556203178343
 20
481.96535949625
 30
0.0
 11
87.98556203178348
 21
483.9653594962499
 31
0.0
  0
LINE
  5
630
330
616
100
AcDbEntity
  8
0
 62
     0
100
AcDbLine
 10
84.21779507881707
 20
481.96535949625
 30
0.0
 11
86.21779507881711
 21
483.9653594962499
 31
0.0
  0
LINE
  5
631
330
616
100
AcDbEntity
  8
0
 62
     0
100
AcDbLine
 10
82.45002812585068
 20
481.96535949625
 30
0.0
 11
84.45002812585075
 21
483.9653594962499
 31
0.0
  0
LINE
  5
632
330
616
100
AcDbEntity
  8
0
 62
     0
100
AcDbLine
 10
80.68226117288432
 20
481.96535949625
 30
0.0
 11
82.68226117288438
 21
483.9653594962499
 31
0.0
  0
LINE
  5
633
330
616
100
AcDbEntity
  8
0
 62
     0
100
AcDbLine
 10
78.91449421991795
 20
481.96535949625
 30
0.0
 11
80.91449421991802
 21
483.9653594962499
 31
0.0
  0
LINE
  5
634
330
616
100
AcDbEntity
  8
0
 62
     0
100
AcDbLine
 10
77.14672726695159
 20
481.96535949625
 30
0.0
 11
79.14672726695164
 21
483.9653594962499
 31
0.0
  0
LINE
  5
635
330
616
100
AcDbEntity
  8
0
 62
     0
100
AcDbLine
 10
75.37896031398521
 20
481.96535949625
 30
0.0
 11
77.37896031398527
 21
483.9653594962499
 31
0.0
  0
LINE
  5
636
330
616
100
AcDbEntity
  8
0
 62
     0
100
AcDbLine
 10
73.61119336101883
 20
481.96535949625
 30
0.0
 11
75.6111933610189
 21
483.9653594962499
 31
0.0
  0
LINE
  5
637
330
616
100
AcDbEntity
  8
0
 62
     0
100
AcDbLine
 10
71.84342640805247
 20
481.96535949625
 30
0.0
 11
73.84342640805254
 21
483.9653594962499
 31
0.0
  0
LINE
  5
638
330
616
100
AcDbEntity
  8
0
 62
     0
100
AcDbLine
 10
70.07565945508609
 20
481.96535949625
 30
0.0
 11
72.07565945508616
 21
483.9653594962499
 31
0.0
  0
LINE
  5
639
330
616
100
AcDbEntity
  8
0
 62
     0
100
AcDbLine
 10
68.30789250211973
 20
481.96535949625
 30
0.0
 11
70.3078925021198
 21
483.9653594962499
 31
0.0
  0
LINE
  5
63A
330
616
100
AcDbEntity
  8
0
 62
     0
100
AcDbLine
 10
66.54012554915336
 20
481.96535949625
 30
0.0
 11
68.54012554915343
 21
483.9653594962499
 31
0.0
  0
LINE
  5
63B
330
616
100
AcDbEntity
  8
0
 62
     0
100
AcDbLine
 10
64.77235859618699
 20
481.96535949625
 30
0.0
 11
66.77235859618706
 21
483.9653594962499
 31
0.0
  0
LINE
  5
63C
330
616
100
AcDbEntity
  8
0
 62
     0
100
AcDbLine
 10
63.00459164322061
 20
481.96535949625
 30
0.0
 11
65.00459164322069
 21
483.9653594962499
 31
0.0
  0
LINE
  5
63D
330
616
100
AcDbEntity
  8
0
 62
     0
100
AcDbLine
 10
61.23682469025425
 20
481.9653594962499
 30
0.0
 11
63.23682469025431
 21
483.9653594962499
 31
0.0
  0
LINE
  5
63E
330
616
100
AcDbEntity
  8
0
 62
     0
100
AcDbLine
 10
59.46905773728786
 20
481.9653594962499
 30
0.0
 11
61.46905773728795
 21
483.9653594962499
 31
0.0
  0
LINE
  5
63F
330
616
100
AcDbEntity
  8
0
 62
     0
100
AcDbLine
 10
57.7012907843215
 20
481.9653594962499
 30
0.0
 11
59.70129078432158
 21
483.9653594962499
 31
0.0
  0
LINE
  5
640
330
616
100
AcDbEntity
  8
0
 62
     0
100
AcDbLine
 10
55.93352383135513
 20
481.9653594962499
 30
0.0
 11
57.93352383135521
 21
483.9653594962499
 31
0.0
  0
LINE
  5
641
330
616
100
AcDbEntity
  8
0
 62
     0
100
AcDbLine
 10
54.16575687838875
 20
481.9653594962499
 30
0.0
 11
56.16575687838884
 21
483.9653594962499
 31
0.0
  0
LINE
  5
642
330
616
100
AcDbEntity
  8
0
 62
     0
100
AcDbLine
 10
52.39798992542239
 20
481.9653594962499
 30
0.0
 11
54.39798992542247
 21
483.9653594962499
 31
0.0
  0
LINE
  5
643
330
616
100
AcDbEntity
  8
0
 62
     0
100
AcDbLine
 10
50.63022297245602
 20
481.9653594962499
 30
0.0
 11
52.6302229724561
 21
483.9653594962499
 31
0.0
  0
LINE
  5
644
330
616
100
AcDbEntity
  8
0
 62
     0
100
AcDbLine
 10
49.27577215351902
 20
482.3786756302793
 30
0.0
 11
50.86245601948974
 21
483.9653594962499
 31
0.0
  0
LINE
  5
645
330
616
100
AcDbEntity
  8
0
 62
     0
100
AcDbLine
 10
128.4119689029763
 20
481.9653594962501
 30
0.0
 11
130.4119689029763
 21
483.9653594962499
 31
0.0
  0
LINE
  5
646
330
616
100
AcDbEntity
  8
0
 62
     0
100
AcDbLine
 10
130.1797358559427
 20
481.9653594962501
 30
0.0
 11
132.1797358559427
 21
483.9653594962499
 31
0.0
  0
LINE
  5
647
330
616
100
AcDbEntity
  8
0
 62
     0
100
AcDbLine
 10
131.9475028089091
 20
481.9653594962501
 30
0.0
 11
133.947502808909
 21
483.9653594962499
 31
0.0
  0
LINE
  5
648
330
616
100
AcDbEntity
  8
0
 62
     0
100
AcDbLine
 10
133.7152697618754
 20
481.9653594962501
 30
0.0
 11
135.7152697618754
 21
483.9653594962499
 31
0.0
  0
LINE
  5
649
330
616
100
AcDbEntity
  8
0
 62
     0
100
AcDbLine
 10
135.4830367148418
 20
481.9653594962501
 30
0.0
 11
137.4830367148418
 21
483.9653594962499
 31
0.0
  0
LINE
  5
64A
330
616
100
AcDbEntity
  8
0
 62
     0
100
AcDbLine
 10
137.2508036678082
 20
481.9653594962501
 30
0.0
 11
139.2508036678082
 21
483.9653594962499
 31
0.0
  0
LINE
  5
64B
330
616
100
AcDbEntity
  8
0
 62
     0
100
AcDbLine
 10
139.0185706207745
 20
481.9653594962501
 30
0.0
 11
141.0185706207745
 21
483.9653594962499
 31
0.0
  0
LINE
  5
64C
330
616
100
AcDbEntity
  8
0
 62
     0
100
AcDbLine
 10
140.7863375737409
 20
481.9653594962501
 30
0.0
 11
142.7863375737409
 21
483.9653594962499
 31
0.0
  0
LINE
  5
64D
330
616
100
AcDbEntity
  8
0
 62
     0
100
AcDbLine
 10
142.5541045267072
 20
481.9653594962501
 30
0.0
 11
144.5541045267072
 21
483.9653594962499
 31
0.0
  0
LINE
  5
64E
330
616
100
AcDbEntity
  8
0
 62
     0
100
AcDbLine
 10
144.3218714796736
 20
481.9653594962501
 30
0.0
 11
146.3218714796736
 21
483.9653594962499
 31
0.0
  0
LINE
  5
64F
330
616
100
AcDbEntity
  8
0
 62
     0
100
AcDbLine
 10
146.08963843264
 20
481.9653594962501
 30
0.0
 11
148.08963843264
 21
483.9653594962499
 31
0.0
  0
LINE
  5
650
330
616
100
AcDbEntity
  8
0
 62
     0
100
AcDbLine
 10
147.8574053856063
 20
481.9653594962501
 30
0.0
 11
149.736752048607
 21
483.8447061592507
 31
0.0
  0
LINE
  5
651
330
616
100
AcDbEntity
  8
0
 62
     0
100
AcDbLine
 10
149.5111237603166
 20
481.8513109179939
 30
0.0
 11
151.1152143505229
 21
483.4554015082002
 31
0.0
  0
LINE
  5
652
330
616
100
AcDbEntity
  8
0
 62
     0
100
AcDbLine
 10
150.8269720001053
 20
481.3993922048163
 30
0.0
 11
152.2983154149177
 21
482.8707356196287
 31
0.0
  0
LINE
  5
653
330
616
100
AcDbEntity
  8
0
 62
     0
100
AcDbLine
 10
151.9004246542521
 20
480.7050779059967
 30
0.0
 11
153.3193071124335
 21
482.1239603641781
 31
0.0
  0
LINE
  5
654
330
616
100
AcDbEntity
  8
0
 62
     0
100
AcDbLine
 10
152.7674109809911
 20
479.8042972797692
 30
0.0
 11
154.1908377124839
 21
481.2277240112622
 31
0.0
  0
LINE
  5
655
330
616
100
AcDbEntity
  8
0
 62
     0
100
AcDbLine
 10
153.4250477051219
 20
478.6941670509337
 30
0.0
 11
154.9118245261415
 21
480.1809438719533
 31
0.0
  0
LINE
  5
656
330
616
100
AcDbEntity
  8
0
 62
     0
100
AcDbLine
 10
153.8285170020217
 20
477.3298693948672
 30
0.0
 11
155.4669219209307
 21
478.9682743137761
 31
0.0
  0
LINE
  5
657
330
616
100
AcDbEntity
  8
0
 62
     0
100
AcDbLine
 10
153.8209413564526
 20
475.5545267963317
 30
0.0
 11
155.8178336835558
 21
477.5514191234349
 31
0.0
  0
LINE
  5
658
330
616
100
AcDbEntity
  8
0
 62
     0
100
AcDbLine
 10
153.4427341741662
 20
473.4085526610789
 30
0.0
 11
155.8704555230718
 21
475.8362740099845
 31
0.0
  0
LINE
  5
659
330
616
100
AcDbEntity
  8
0
 62
     0
100
AcDbLine
 10
153.0643012255176
 20
471.262352759464
 30
0.0
 11
155.5299073291609
 21
473.7279588631072
 31
0.0
  0
LINE
  5
65A
330
616
100
AcDbEntity
  8
0
 62
     0
100
AcDbLine
 10
152.685868276869
 20
469.1161528578491
 30
0.0
 11
155.1514743805123
 21
471.5817589614923
 31
0.0
  0
LINE
  5
65B
330
616
100
AcDbEntity
  8
0
 62
     0
100
AcDbLine
 10
152.3074353282205
 20
466.9699529562341
 30
0.0
 11
154.7730414318637
 21
469.4355590598774
 31
0.0
  0
LINE
  5
65C
330
616
100
AcDbEntity
  8
0
 62
     0
100
AcDbLine
 10
152.275772153519
 20
465.1705228285663
 30
0.0
 11
154.3946084832152
 21
467.2893591582623
 31
0.0
  0
LINE
  5
65D
330
616
100
AcDbEntity
  8
0
 62
     0
100
AcDbLine
 10
152.3118263898603
 20
463.4388101119411
 30
0.0
 11
154.275772153519
 21
465.4027558755999
 31
0.0
  0
LINE
  5
65E
330
616
100
AcDbEntity
  8
0
 62
     0
100
AcDbLine
 10
152.9588740026166
 20
462.3180907717311
 30
0.0
 11
154.4229756177543
 21
463.7821923868688
 31
0.0
  0
LINE
  5
65F
330
616
100
AcDbEntity
  8
0
 62
     0
100
AcDbLine
 10
153.6059216153729
 20
461.1973714315211
 30
0.0
 11
155.0700232305106
 21
462.6614730466587
 31
0.0
  0
LINE
  5
660
330
616
100
AcDbEntity
  8
0
 62
     0
100
AcDbLine
 10
154.2529692281292
 20
460.076652091311
 30
0.0
 11
155.7170708432669
 21
461.5407537064487
 31
0.0
  0
LINE
  5
661
330
616
100
AcDbEntity
  8
0
 62
     0
100
AcDbLine
 10
154.9000168408855
 20
458.9559327511009
 30
0.0
 11
156.3641184560232
 21
460.4200343662387
 31
0.0
  0
LINE
  5
662
330
616
100
AcDbEntity
  8
0
 62
     0
100
AcDbLine
 10
155.5470644536418
 20
457.8352134108908
 30
0.0
 11
157.0111660687795
 21
459.2993150260285
 31
0.0
  0
LINE
  5
663
330
616
100
AcDbEntity
  8
0
 62
     0
100
AcDbLine
 10
156.1941120663981
 20
456.7144940706808
 30
0.0
 11
157.6582136815358
 21
458.1785956858184
 31
0.0
  0
LINE
  5
664
330
616
100
AcDbEntity
  8
0
 62
     0
100
AcDbLine
 10
156.8411596791544
 20
455.5937747304707
 30
0.0
 11
158.3052612942921
 21
457.0578763456084
 31
0.0
  0
LINE
  5
665
330
616
100
AcDbEntity
  8
0
 62
     0
100
AcDbLine
 10
157.4882072919107
 20
454.4730553902606
 30
0.0
 11
158.9523089070484
 21
455.9371570053984
 31
0.0
  0
LINE
  5
666
330
616
100
AcDbEntity
  8
0
 62
     0
100
AcDbLine
 10
158.135254904667
 20
453.3523360500505
 30
0.0
 11
159.5993565198047
 21
454.8164376651883
 31
0.0
  0
LINE
  5
667
330
616
100
AcDbEntity
  8
0
 62
     0
100
AcDbLine
 10
158.7823025174233
 20
452.2316167098405
 30
0.0
 11
160.246404132561
 21
453.6957183249782
 31
0.0
  0
LINE
  5
668
330
616
100
AcDbEntity
  8
0
 62
     0
100
AcDbLine
 10
159.4297456071127
 20
451.1112928465635
 30
0.0
 11
160.8934517453173
 21
452.5749989847681
 31
0.0
  0
LINE
  5
669
330
616
100
AcDbEntity
  8
0
 62
     0
100
AcDbLine
 10
160.1864149499065
 20
450.100195236391
 30
0.0
 11
161.6021226145332
 21
451.5159029010177
 31
0.0
  0
LINE
  5
66A
330
616
100
AcDbEntity
  8
0
 62
     0
100
AcDbLine
 10
161.1296807449924
 20
449.2756940785105
 30
0.0
 11
162.5759666283413
 21
450.7219799618594
 31
0.0
  0
LINE
  5
66B
330
616
100
AcDbEntity
  8
0
 62
     0
100
AcDbLine
 10
162.2680012697322
 20
448.6462476502839
 30
0.0
 11
163.8674255085023
 21
450.2456718890541
 31
0.0
  0
LINE
  5
66C
330
616
100
AcDbEntity
  8
0
 62
     0
100
AcDbLine
 10
163.6444723800665
 20
448.2549518076519
 30
0.0
 11
165.5702703778385
 21
450.1807498054239
 31
0.0
  0
LINE
  5
66D
330
616
100
AcDbEntity
  8
0
 62
     0
100
AcDbLine
 10
165.3380373308049
 20
448.1807498054238
 30
0.0
 11
167.3380373308049
 21
450.1807498054239
 31
0.0
  0
LINE
  5
66E
330
616
100
AcDbEntity
  8
0
 62
     0
100
AcDbLine
 10
167.1058042837712
 20
448.1807498054238
 30
0.0
 11
168.775772153519
 21
449.8507176751716
 31
0.0
  0
LINE
  5
66F
330
616
100
AcDbEntity
  8
0
 62
     0
100
AcDbLine
 10
92.55890021781983
 20
481.9653594962501
 30
0.0
 11
90.55890021781976
 21
483.9653594962499
 31
0.0
  0
LINE
  5
670
330
616
100
AcDbEntity
  8
0
 62
     0
100
AcDbLine
 10
90.79113326485346
 20
481.9653594962501
 30
0.0
 11
88.7911332648534
 21
483.9653594962499
 31
0.0
  0
LINE
  5
671
330
616
100
AcDbEntity
  8
0
 62
     0
100
AcDbLine
 10
89.0233663118871
 20
481.9653594962501
 30
0.0
 11
87.02336631188703
 21
483.9653594962499
 31
0.0
  0
LINE
  5
672
330
616
100
AcDbEntity
  8
0
 62
     0
100
AcDbLine
 10
87.25559935892073
 20
481.9653594962501
 30
0.0
 11
85.25559935892067
 21
483.9653594962499
 31
0.0
  0
LINE
  5
673
330
616
100
AcDbEntity
  8
0
 62
     0
100
AcDbLine
 10
85.48783240595437
 20
481.9653594962501
 30
0.0
 11
83.48783240595428
 21
483.9653594962499
 31
0.0
  0
LINE
  5
674
330
616
100
AcDbEntity
  8
0
 62
     0
100
AcDbLine
 10
83.720065452988
 20
481.96535949625
 30
0.0
 11
81.72006545298792
 21
483.9653594962499
 31
0.0
  0
LINE
  5
675
330
616
100
AcDbEntity
  8
0
 62
     0
100
AcDbLine
 10
81.95229850002162
 20
481.96535949625
 30
0.0
 11
79.95229850002155
 21
483.9653594962499
 31
0.0
  0
LINE
  5
676
330
616
100
AcDbEntity
  8
0
 62
     0
100
AcDbLine
 10
80.18453154705525
 20
481.96535949625
 30
0.0
 11
78.18453154705519
 21
483.9653594962499
 31
0.0
  0
LINE
  5
677
330
616
100
AcDbEntity
  8
0
 62
     0
100
AcDbLine
 10
78.41676459408889
 20
481.96535949625
 30
0.0
 11
76.41676459408881
 21
483.9653594962499
 31
0.0
  0
LINE
  5
678
330
616
100
AcDbEntity
  8
0
 62
     0
100
AcDbLine
 10
76.64899764112253
 20
481.96535949625
 30
0.0
 11
74.64899764112245
 21
483.9653594962499
 31
0.0
  0
LINE
  5
679
330
616
100
AcDbEntity
  8
0
 62
     0
100
AcDbLine
 10
74.88123068815617
 20
481.96535949625
 30
0.0
 11
72.88123068815608
 21
483.9653594962499
 31
0.0
  0
LINE
  5
67A
330
616
100
AcDbEntity
  8
0
 62
     0
100
AcDbLine
 10
73.11346373518979
 20
481.96535949625
 30
0.0
 11
71.11346373518971
 21
483.9653594962499
 31
0.0
  0
LINE
  5
67B
330
616
100
AcDbEntity
  8
0
 62
     0
100
AcDbLine
 10
71.34569678222343
 20
481.96535949625
 30
0.0
 11
69.34569678222334
 21
483.9653594962499
 31
0.0
  0
LINE
  5
67C
330
616
100
AcDbEntity
  8
0
 62
     0
100
AcDbLine
 10
69.57792982925706
 20
481.96535949625
 30
0.0
 11
67.57792982925697
 21
483.9653594962499
 31
0.0
  0
LINE
  5
67D
330
616
100
AcDbEntity
  8
0
 62
     0
100
AcDbLine
 10
67.81016287629069
 20
481.96535949625
 30
0.0
 11
65.8101628762906
 21
483.9653594962499
 31
0.0
  0
LINE
  5
67E
330
616
100
AcDbEntity
  8
0
 62
     0
100
AcDbLine
 10
66.04239592332432
 20
481.96535949625
 30
0.0
 11
64.04239592332423
 21
483.9653594962499
 31
0.0
  0
LINE
  5
67F
330
616
100
AcDbEntity
  8
0
 62
     0
100
AcDbLine
 10
64.27462897035795
 20
481.96535949625
 30
0.0
 11
62.27462897035787
 21
483.9653594962499
 31
0.0
  0
LINE
  5
680
330
616
100
AcDbEntity
  8
0
 62
     0
100
AcDbLine
 10
62.50686201739159
 20
481.96535949625
 30
0.0
 11
60.5068620173915
 21
483.9653594962499
 31
0.0
  0
LINE
  5
681
330
616
100
AcDbEntity
  8
0
 62
     0
100
AcDbLine
 10
60.73909506442522
 20
481.96535949625
 30
0.0
 11
58.73909506442513
 21
483.9653594962499
 31
0.0
  0
LINE
  5
682
330
616
100
AcDbEntity
  8
0
 62
     0
100
AcDbLine
 10
58.97132811145886
 20
481.96535949625
 30
0.0
 11
56.97132811145876
 21
483.9653594962499
 31
0.0
  0
LINE
  5
683
330
616
100
AcDbEntity
  8
0
 62
     0
100
AcDbLine
 10
57.20356115849249
 20
481.96535949625
 30
0.0
 11
55.20356115849239
 21
483.9653594962499
 31
0.0
  0
LINE
  5
684
330
616
100
AcDbEntity
  8
0
 62
     0
100
AcDbLine
 10
55.43579420552612
 20
481.96535949625
 30
0.0
 11
53.43579420552602
 21
483.9653594962499
 31
0.0
  0
LINE
  5
685
330
616
100
AcDbEntity
  8
0
 62
     0
100
AcDbLine
 10
53.66802725255976
 20
481.96535949625
 30
0.0
 11
51.66802725255966
 21
483.9653594962499
 31
0.0
  0
LINE
  5
686
330
616
100
AcDbEntity
  8
0
 62
     0
100
AcDbLine
 10
51.90026029959339
 20
481.96535949625
 30
0.0
 11
49.90026029959328
 21
483.9653594962499
 31
0.0
  0
LINE
  5
687
330
616
100
AcDbEntity
  8
0
 62
     0
100
AcDbLine
 10
50.13249334662702
 20
481.96535949625
 30
0.0
 11
49.27577215351902
 21
482.8220806893579
 31
0.0
  0
LINE
  5
688
330
616
100
AcDbEntity
  8
0
 62
     0
100
AcDbLine
 10
94.32666717078619
 20
481.9653594962501
 30
0.0
 11
92.32666717078613
 21
483.9653594962499
 31
0.0
  0
LINE
  5
689
330
616
100
AcDbEntity
  8
0
 62
     0
100
AcDbLine
 10
96.09443412375256
 20
481.9653594962501
 30
0.0
 11
94.09443412375251
 21
483.9653594962499
 31
0.0
  0
LINE
  5
68A
330
616
100
AcDbEntity
  8
0
 62
     0
100
AcDbLine
 10
97.86220107671894
 20
481.9653594962501
 30
0.0
 11
95.86220107671888
 21
483.9653594962499
 31
0.0
  0
LINE
  5
68B
330
616
100
AcDbEntity
  8
0
 62
     0
100
AcDbLine
 10
99.62996802968531
 20
481.9653594962501
 30
0.0
 11
97.62996802968524
 21
483.9653594962499
 31
0.0
  0
LINE
  5
68C
330
616
100
AcDbEntity
  8
0
 62
     0
100
AcDbLine
 10
101.3977349826516
 20
481.9653594962501
 30
0.0
 11
99.39773498265161
 21
483.9653594962499
 31
0.0
  0
LINE
  5
68D
330
616
100
AcDbEntity
  8
0
 62
     0
100
AcDbLine
 10
103.165501935618
 20
481.9653594962501
 30
0.0
 11
101.1655019356179
 21
483.9653594962499
 31
0.0
  0
LINE
  5
68E
330
616
100
AcDbEntity
  8
0
 62
     0
100
AcDbLine
 10
104.9332688885844
 20
481.9653594962501
 30
0.0
 11
102.9332688885843
 21
483.9653594962499
 31
0.0
  0
LINE
  5
68F
330
616
100
AcDbEntity
  8
0
 62
     0
100
AcDbLine
 10
106.7010358415507
 20
481.9653594962501
 30
0.0
 11
104.7010358415507
 21
483.9653594962499
 31
0.0
  0
LINE
  5
690
330
616
100
AcDbEntity
  8
0
 62
     0
100
AcDbLine
 10
108.4688027945171
 20
481.9653594962501
 30
0.0
 11
106.4688027945171
 21
483.9653594962499
 31
0.0
  0
LINE
  5
691
330
616
100
AcDbEntity
  8
0
 62
     0
100
AcDbLine
 10
110.2365697474835
 20
481.9653594962501
 30
0.0
 11
108.2365697474834
 21
483.9653594962499
 31
0.0
  0
LINE
  5
692
330
616
100
AcDbEntity
  8
0
 62
     0
100
AcDbLine
 10
112.0043367004498
 20
481.9653594962501
 30
0.0
 11
110.0043367004498
 21
483.9653594962499
 31
0.0
  0
LINE
  5
693
330
616
100
AcDbEntity
  8
0
 62
     0
100
AcDbLine
 10
113.7721036534162
 20
481.9653594962501
 30
0.0
 11
111.7721036534162
 21
483.9653594962499
 31
0.0
  0
LINE
  5
694
330
616
100
AcDbEntity
  8
0
 62
     0
100
AcDbLine
 10
115.5398706063826
 20
481.9653594962501
 30
0.0
 11
113.5398706063825
 21
483.9653594962499
 31
0.0
  0
LINE
  5
695
330
616
100
AcDbEntity
  8
0
 62
     0
100
AcDbLine
 10
117.307637559349
 20
481.9653594962501
 30
0.0
 11
115.3076375593489
 21
483.9653594962499
 31
0.0
  0
LINE
  5
696
330
616
100
AcDbEntity
  8
0
 62
     0
100
AcDbLine
 10
119.0754045123153
 20
481.9653594962501
 30
0.0
 11
117.0754045123153
 21
483.9653594962499
 31
0.0
  0
LINE
  5
697
330
616
100
AcDbEntity
  8
0
 62
     0
100
AcDbLine
 10
120.8431714652817
 20
481.9653594962501
 30
0.0
 11
118.8431714652816
 21
483.9653594962499
 31
0.0
  0
LINE
  5
698
330
616
100
AcDbEntity
  8
0
 62
     0
100
AcDbLine
 10
122.610938418248
 20
481.9653594962501
 30
0.0
 11
120.610938418248
 21
483.9653594962499
 31
0.0
  0
LINE
  5
699
330
616
100
AcDbEntity
  8
0
 62
     0
100
AcDbLine
 10
124.3787053712144
 20
481.9653594962501
 30
0.0
 11
122.3787053712144
 21
483.9653594962499
 31
0.0
  0
LINE
  5
69A
330
616
100
AcDbEntity
  8
0
 62
     0
100
AcDbLine
 10
126.1464723241808
 20
481.9653594962501
 30
0.0
 11
124.1464723241808
 21
483.9653594962499
 31
0.0
  0
LINE
  5
69B
330
616
100
AcDbEntity
  8
0
 62
     0
100
AcDbLine
 10
127.9142392771472
 20
481.9653594962501
 30
0.0
 11
125.9142392771471
 21
483.9653594962499
 31
0.0
  0
LINE
  5
69C
330
616
100
AcDbEntity
  8
0
 62
     0
100
AcDbLine
 10
163.3349063682184
 20
448.3124593581451
 30
0.0
 11
157.9169985077148
 21
453.7303672186488
 31
0.0
  0
LINE
  5
69D
330
616
100
AcDbEntity
  8
0
 62
     0
100
AcDbLine
 10
129.6820062301135
 20
481.9653594962501
 30
0.0
 11
127.6820062301135
 21
483.9653594962499
 31
0.0
  0
LINE
  5
69E
330
616
100
AcDbEntity
  8
0
 62
     0
100
AcDbLine
 10
165.2343828739061
 20
448.1807498054238
 30
0.0
 11
162.827525642962
 21
450.5876070363679
 31
0.0
  0
LINE
  5
69F
330
616
100
AcDbEntity
  8
0
 62
     0
100
AcDbLine
 10
131.4497731830799
 20
481.9653594962501
 30
0.0
 11
129.4497731830799
 21
483.9653594962499
 31
0.0
  0
LINE
  5
6A0
330
616
100
AcDbEntity
  8
0
 62
     0
100
AcDbLine
 10
160.9662855571298
 20
452.4488471222001
 30
0.0
 11
155.5021839419922
 21
457.9129487373377
 31
0.0
  0
LINE
  5
6A1
330
616
100
AcDbEntity
  8
0
 62
     0
100
AcDbLine
 10
167.0021498268724
 20
448.1807498054238
 30
0.0
 11
165.0021498268724
 21
450.1807498054239
 31
0.0
  0
LINE
  5
6A2
330
616
100
AcDbEntity
  8
0
 62
     0
100
AcDbLine
 10
133.2175401360462
 20
481.9653594962501
 30
0.0
 11
131.2175401360462
 21
483.9653594962499
 31
0.0
  0
LINE
  5
6A3
330
616
100
AcDbEntity
  8
0
 62
     0
100
AcDbLine
 10
158.5514709914071
 20
456.6314286408891
 30
0.0
 11
153.0873693762696
 21
462.0955302560266
 31
0.0
  0
LINE
  5
6A4
330
616
100
AcDbEntity
  8
0
 62
     0
100
AcDbLine
 10
168.775772153519
 20
448.1748944317437
 30
0.0
 11
166.7699167798388
 21
450.1807498054239
 31
0.0
  0
LINE
  5
6A5
330
616
100
AcDbEntity
  8
0
 62
     0
100
AcDbLine
 10
134.9853070890126
 20
481.9653594962501
 30
0.0
 11
132.9853070890126
 21
483.9653594962499
 31
0.0
  0
LINE
  5
6A6
330
616
100
AcDbEntity
  8
0
 62
     0
100
AcDbLine
 10
156.1366564256844
 20
460.8140101595782
 30
0.0
 11
152.275772153519
 21
464.6748944317436
 31
0.0
  0
LINE
  5
6A7
330
616
100
AcDbEntity
  8
0
 62
     0
100
AcDbLine
 10
168.775772153519
 20
449.94266138471
 30
0.0
 11
168.5376837328051
 21
450.1807498054239
 31
0.0
  0
LINE
  5
6A8
330
616
100
AcDbEntity
  8
0
 62
     0
100
AcDbLine
 10
136.753074041979
 20
481.9653594962501
 30
0.0
 11
134.753074041979
 21
483.9653594962499
 31
0.0
  0
LINE
  5
6A9
330
616
100
AcDbEntity
  8
0
 62
     0
100
AcDbLine
 10
154.275772153519
 20
464.44266138471
 30
0.0
 11
152.275772153519
 21
466.44266138471
 31
0.0
  0
LINE
  5
6AA
330
616
100
AcDbEntity
  8
0
 62
     0
100
AcDbLine
 10
154.275772153519
 20
466.2104283376764
 30
0.0
 11
152.4886317218709
 21
467.9975687693244
 31
0.0
  0
LINE
  5
6AB
330
616
100
AcDbEntity
  8
0
 62
     0
100
AcDbLine
 10
138.5208409949454
 20
481.9653594962501
 30
0.0
 11
136.5208409949453
 21
483.9653594962499
 31
0.0
  0
LINE
  5
6AC
330
616
100
AcDbEntity
  8
0
 62
     0
100
AcDbLine
 10
154.4800493052485
 20
467.7739181389132
 30
0.0
 11
152.7536133252216
 21
469.5003541189401
 31
0.0
  0
LINE
  5
6AD
330
616
100
AcDbEntity
  8
0
 62
     0
100
AcDbLine
 10
140.2886079479117
 20
481.9653594962501
 30
0.0
 11
138.2886079479117
 21
483.9653594962499
 31
0.0
  0
LINE
  5
6AE
330
616
100
AcDbEntity
  8
0
 62
     0
100
AcDbLine
 10
154.7450309085992
 20
469.276703488529
 30
0.0
 11
153.0185949285723
 21
471.0031394685558
 31
0.0
  0
LINE
  5
6AF
330
616
100
AcDbEntity
  8
0
 62
     0
100
AcDbLine
 10
142.0563749008781
 20
481.9653594962501
 30
0.0
 11
140.0563749008781
 21
483.9653594962499
 31
0.0
  0
LINE
  5
6B0
330
616
100
AcDbEntity
  8
0
 62
     0
100
AcDbLine
 10
155.0100125119498
 20
470.7794888381447
 30
0.0
 11
153.2835765319229
 21
472.5059248181715
 31
0.0
  0
LINE
  5
6B1
330
616
100
AcDbEntity
  8
0
 62
     0
100
AcDbLine
 10
143.8241418538445
 20
481.9653594962501
 30
0.0
 11
141.8241418538445
 21
483.9653594962499
 31
0.0
  0
LINE
  5
6B2
330
616
100
AcDbEntity
  8
0
 62
     0
100
AcDbLine
 10
155.2749941153005
 20
472.2822741877603
 30
0.0
 11
153.5485581352736
 21
474.0087101677873
 31
0.0
  0
LINE
  5
6B3
330
616
100
AcDbEntity
  8
0
 62
     0
100
AcDbLine
 10
145.5919088068108
 20
481.9653594962501
 30
0.0
 11
143.5919088068108
 21
483.9653594962499
 31
0.0
  0
LINE
  5
6B4
330
616
100
AcDbEntity
  8
0
 62
     0
100
AcDbLine
 10
155.5399757186511
 20
473.785059537376
 30
0.0
 11
153.8135397386243
 21
475.5114955174029
 31
0.0
  0
LINE
  5
6B5
330
616
100
AcDbEntity
  8
0
 62
     0
100
AcDbLine
 10
147.3596757597772
 20
481.9653594962501
 30
0.0
 11
145.3596757597772
 21
483.9653594962499
 31
0.0
  0
LINE
  5
6B6
330
616
100
AcDbEntity
  8
0
 62
     0
100
AcDbLine
 10
155.804021272618
 20
475.2887809363755
 30
0.0
 11
153.8402616713271
 21
477.2525405376665
 31
0.0
  0
LINE
  5
6B7
330
616
100
AcDbEntity
  8
0
 62
     0
100
AcDbLine
 10
149.1840663700658
 20
481.9087358389277
 30
0.0
 11
147.1274427127436
 21
483.9653594962499
 31
0.0
  0
LINE
  5
6B8
330
616
100
AcDbEntity
  8
0
 62
     0
100
AcDbLine
 10
155.8791067774375
 20
476.9814623845224
 30
0.0
 11
148.9129882169217
 21
483.9475809450383
 31
0.0
  0
LINE
  5
6B9
330
616
100
AcDbEntity
  8
0
 62
     0
100
AcDbLine
 10
155.3489561616945
 20
479.2793799532318
 30
0.0
 11
151.2109057856311
 21
483.4174303292952
 31
0.0
  0
ENDBLK
  5
6BA
330
616
100
AcDbEntity
  8
0
100
AcDbBlockEnd
  0
BLOCK
  5
6F4
330
6F3
100
AcDbEntity
  8
0
100
AcDbBlockBegin
  2
*X7
 70
     1
 10
0.0
 20
0.0
 30
0.0
  3
*X7
  1

  0
LINE
  5
6F5
330
6F3
100
AcDbEntity
  8
0
 62
     0
100
AcDbLine
 10
341.8140405860778
 20
481.9653594962499
 30
0.0
 11
339.8140405860778
 21
483.9653594962499
 31
0.0
  0
LINE
  5
6F6
330
6F3
100
AcDbEntity
  8
0
 62
     0
100
AcDbLine
 10
340.0462736331115
 20
481.9653594962499
 30
0.0
 11
338.0462736331113
 21
483.9653594962499
 31
0.0
  0
LINE
  5
6F7
330
6F3
100
AcDbEntity
  8
0
 62
     0
100
AcDbLine
 10
338.2785066801451
 20
481.9653594962499
 30
0.0
 11
336.278506680145
 21
483.9653594962499
 31
0.0
  0
LINE
  5
6F8
330
6F3
100
AcDbEntity
  8
0
 62
     0
100
AcDbLine
 10
336.5107397271787
 20
481.9653594962499
 30
0.0
 11
334.5107397271787
 21
483.9653594962499
 31
0.0
  0
LINE
  5
6F9
330
6F3
100
AcDbEntity
  8
0
 62
     0
100
AcDbLine
 10
334.7429727742124
 20
481.9653594962499
 30
0.0
 11
332.7429727742122
 21
483.9653594962499
 31
0.0
  0
LINE
  5
6FA
330
6F3
100
AcDbEntity
  8
0
 62
     0
100
AcDbLine
 10
332.975205821246
 20
481.9653594962499
 30
0.0
 11
330.9752058212459
 21
483.9653594962499
 31
0.0
  0
LINE
  5
6FB
330
6F3
100
AcDbEntity
  8
0
 62
     0
100
AcDbLine
 10
331.2074388682796
 20
481.9653594962499
 30
0.0
 11
329.2608847864388
 21
483.9119135780907
 31
0.0
  0
LINE
  5
6FC
330
6F3
100
AcDbEntity
  8
0
 62
     0
100
AcDbLine
 10
329.481074646115
 20
481.9239567654482
 30
0.0
 11
327.8142051894271
 21
483.5908262221361
 31
0.0
  0
LINE
  5
6FD
330
6F3
100
AcDbEntity
  8
0
 62
     0
100
AcDbLine
 10
328.078723884904
 20
481.5585405736928
 30
0.0
 11
326.5790852129577
 21
483.0581792456392
 31
0.0
  0
LINE
  5
6FE
330
6F3
100
AcDbEntity
  8
0
 62
     0
100
AcDbLine
 10
326.9408179570495
 20
480.9286795485809
 30
0.0
 11
325.5130239783601
 21
482.3564735272703
 31
0.0
  0
LINE
  5
6FF
330
6F3
100
AcDbEntity
  8
0
 62
     0
100
AcDbLine
 10
326.0150711758448
 20
480.0866593768193
 30
0.0
 11
324.5985494325149
 21
481.5031811201491
 31
0.0
  0
LINE
  5
700
330
6F3
100
AcDbEntity
  8
0
 62
     0
100
AcDbLine
 10
325.2943088111595
 20
479.0396547885382
 30
0.0
 11
323.8329745454051
 21
480.5009890542926
 31
0.0
  0
LINE
  5
701
330
6F3
100
AcDbEntity
  8
0
 62
     0
100
AcDbLine
 10
324.8086168306802
 20
477.7575798160511
 30
0.0
 11
323.2270713614803
 21
479.339125285251
 31
0.0
  0
LINE
  5
702
330
6F3
100
AcDbEntity
  8
0
 62
     0
100
AcDbLine
 10
324.6646639333706
 20
476.1337657603944
 30
0.0
 11
322.8107758208969
 21
477.9876538728681
 31
0.0
  0
LINE
  5
703
330
6F3
100
AcDbEntity
  8
0
 62
     0
100
AcDbLine
 10
324.99892595832
 20
474.0317367824786
 30
0.0
 11
322.6551977323364
 21
476.3754650084622
 31
0.0
  0
LINE
  5
704
330
6F3
100
AcDbEntity
  8
0
 62
     0
100
AcDbLine
 10
325.3773589069685
 20
471.8855368808637
 30
0.0
 11
322.9117528033252
 21
474.351142984507
 31
0.0
  0
LINE
  5
705
330
6F3
100
AcDbEntity
  8
0
 62
     0
100
AcDbLine
 10
325.7557918556171
 20
469.7393369792488
 30
0.0
 11
323.2901857519738
 21
472.204943082892
 31
0.0
  0
LINE
  5
706
330
6F3
100
AcDbEntity
  8
0
 62
     0
100
AcDbLine
 10
326.1342248042657
 20
467.5931370776337
 30
0.0
 11
323.6686187006224
 21
470.058743181277
 31
0.0
  0
LINE
  5
707
330
6F3
100
AcDbEntity
  8
0
 62
     0
100
AcDbLine
 10
326.275772153519
 20
465.683822775414
 30
0.0
 11
324.047051649271
 21
467.9125432796621
 31
0.0
  0
LINE
  5
708
330
6F3
100
AcDbEntity
  8
0
 62
     0
100
AcDbLine
 10
326.275772153519
 20
463.9160558224476
 30
0.0
 11
324.2757721535191
 21
465.9160558224477
 31
0.0
  0
LINE
  5
709
330
6F3
100
AcDbEntity
  8
0
 62
     0
100
AcDbLine
 10
325.780551124729
 20
462.6435098982714
 30
0.0
 11
324.2757721535191
 21
464.1482888694814
 31
0.0
  0
LINE
  5
70A
330
6F3
100
AcDbEntity
  8
0
 62
     0
100
AcDbLine
 10
325.1335035119727
 20
461.5227905580613
 30
0.0
 11
323.6694018968349
 21
462.9868921731991
 31
0.0
  0
LINE
  5
70B
330
6F3
100
AcDbEntity
  8
0
 62
     0
100
AcDbLine
 10
324.4864558992164
 20
460.4020712178512
 30
0.0
 11
323.0223542840786
 21
461.866172832989
 31
0.0
  0
LINE
  5
70C
330
6F3
100
AcDbEntity
  8
0
 62
     0
100
AcDbLine
 10
323.8394082864601
 20
459.2813518776412
 30
0.0
 11
322.3753066713223
 21
460.7454534927789
 31
0.0
  0
LINE
  5
70D
330
6F3
100
AcDbEntity
  8
0
 62
     0
100
AcDbLine
 10
323.1923606737038
 20
458.1606325374311
 30
0.0
 11
321.728259058566
 21
459.6247341525689
 31
0.0
  0
LINE
  5
70E
330
6F3
100
AcDbEntity
  8
0
 62
     0
100
AcDbLine
 10
322.5453130609475
 20
457.039913197221
 30
0.0
 11
321.0812114458097
 21
458.5040148123588
 31
0.0
  0
LINE
  5
70F
330
6F3
100
AcDbEntity
  8
0
 62
     0
100
AcDbLine
 10
321.8982654481912
 20
455.9191938570109
 30
0.0
 11
320.4341638330534
 21
457.3832954721487
 31
0.0
  0
LINE
  5
710
330
6F3
100
AcDbEntity
  8
0
 62
     0
100
AcDbLine
 10
321.2512178354349
 20
454.7984745168009
 30
0.0
 11
319.7871162202972
 21
456.2625761319386
 31
0.0
  0
LINE
  5
711
330
6F3
100
AcDbEntity
  8
0
 62
     0
100
AcDbLine
 10
320.6041702226786
 20
453.6777551765908
 30
0.0
 11
319.1400686075409
 21
455.1418567917285
 31
0.0
  0
LINE
  5
712
330
6F3
100
AcDbEntity
  8
0
 62
     0
100
AcDbLine
 10
319.9571226099223
 20
452.5570358363807
 30
0.0
 11
318.4930209947846
 21
454.0211374515185
 31
0.0
  0
LINE
  5
713
330
6F3
100
AcDbEntity
  8
0
 62
     0
100
AcDbLine
 10
319.310074997166
 20
451.4363164961706
 30
0.0
 11
317.8459733820283
 21
452.9004181113085
 31
0.0
  0
LINE
  5
714
330
6F3
100
AcDbEntity
  8
0
 62
     0
100
AcDbLine
 10
318.6043439347198
 20
450.3742806056505
 30
0.0
 11
317.1798273964334
 21
451.7987971439369
 31
0.0
  0
LINE
  5
715
330
6F3
100
AcDbEntity
  8
0
 62
     0
100
AcDbLine
 10
317.7149742752797
 20
449.4958833121242
 30
0.0
 11
316.2876574261425
 21
450.9232001612614
 31
0.0
  0
LINE
  5
716
330
6F3
100
AcDbEntity
  8
0
 62
     0
100
AcDbLine
 10
316.6358053315083
 20
448.8072853029293
 30
0.0
 11
315.098718065145
 21
450.3443725692926
 31
0.0
  0
LINE
  5
717
330
6F3
100
AcDbEntity
  8
0
 62
     0
100
AcDbLine
 10
315.3361287896038
 20
448.3391948918674
 30
0.0
 11
313.4945738760474
 21
450.1807498054239
 31
0.0
  0
LINE
  5
718
330
6F3
100
AcDbEntity
  8
0
 62
     0
100
AcDbLine
 10
313.726806923081
 20
448.1807498054238
 30
0.0
 11
311.726806923081
 21
450.1807498054239
 31
0.0
  0
LINE
  5
719
330
6F3
100
AcDbEntity
  8
0
 62
     0
100
AcDbLine
 10
311.9590399701146
 20
448.1807498054238
 30
0.0
 11
309.9590399701146
 21
450.1807498054239
 31
0.0
  0
LINE
  5
71A
330
6F3
100
AcDbEntity
  8
0
 62
     0
100
AcDbLine
 10
310.1912730171483
 20
448.1807498054238
 30
0.0
 11
309.775772153519
 21
448.5962506690531
 31
0.0
  0
LINE
  5
71B
330
6F3
100
AcDbEntity
  8
0
 62
     0
100
AcDbLine
 10
343.5818075390442
 20
481.9653594962499
 30
0.0
 11
341.5818075390441
 21
483.9653594962499
 31
0.0
  0
LINE
  5
71C
330
6F3
100
AcDbEntity
  8
0
 62
     0
100
AcDbLine
 10
345.3495744920106
 20
481.9653594962499
 30
0.0
 11
343.3495744920105
 21
483.9653594962499
 31
0.0
  0
LINE
  5
71D
330
6F3
100
AcDbEntity
  8
0
 62
     0
100
AcDbLine
 10
347.1173414449769
 20
481.9653594962499
 30
0.0
 11
345.1173414449768
 21
483.9653594962499
 31
0.0
  0
LINE
  5
71E
330
6F3
100
AcDbEntity
  8
0
 62
     0
100
AcDbLine
 10
348.8851083979433
 20
481.9653594962499
 30
0.0
 11
346.8851083979432
 21
483.9653594962499
 31
0.0
  0
LINE
  5
71F
330
6F3
100
AcDbEntity
  8
0
 62
     0
100
AcDbLine
 10
350.6528753509097
 20
481.9653594962499
 30
0.0
 11
348.6528753509096
 21
483.9653594962499
 31
0.0
  0
LINE
  5
720
330
6F3
100
AcDbEntity
  8
0
 62
     0
100
AcDbLine
 10
352.420642303876
 20
481.9653594962499
 30
0.0
 11
350.420642303876
 21
483.9653594962499
 31
0.0
  0
LINE
  5
721
330
6F3
100
AcDbEntity
  8
0
 62
     0
100
AcDbLine
 10
354.1884092568424
 20
481.9653594962499
 30
0.0
 11
352.1884092568423
 21
483.9653594962499
 31
0.0
  0
LINE
  5
722
330
6F3
100
AcDbEntity
  8
0
 62
     0
100
AcDbLine
 10
355.9561762098088
 20
481.9653594962499
 30
0.0
 11
353.9561762098087
 21
483.9653594962499
 31
0.0
  0
LINE
  5
723
330
6F3
100
AcDbEntity
  8
0
 62
     0
100
AcDbLine
 10
357.7239431627751
 20
481.9653594962499
 30
0.0
 11
355.7239431627751
 21
483.9653594962499
 31
0.0
  0
LINE
  5
724
330
6F3
100
AcDbEntity
  8
0
 62
     0
100
AcDbLine
 10
359.4917101157415
 20
481.9653594962499
 30
0.0
 11
357.4917101157415
 21
483.9653594962499
 31
0.0
  0
LINE
  5
725
330
6F3
100
AcDbEntity
  8
0
 62
     0
100
AcDbLine
 10
361.2594770687079
 20
481.9653594962499
 30
0.0
 11
359.2594770687078
 21
483.9653594962499
 31
0.0
  0
LINE
  5
726
330
6F3
100
AcDbEntity
  8
0
 62
     0
100
AcDbLine
 10
363.0272440216742
 20
481.9653594962499
 30
0.0
 11
361.0272440216742
 21
483.9653594962499
 31
0.0
  0
LINE
  5
727
330
6F3
100
AcDbEntity
  8
0
 62
     0
100
AcDbLine
 10
364.7950109746406
 20
481.9653594962499
 30
0.0
 11
362.7950109746405
 21
483.9653594962499
 31
0.0
  0
LINE
  5
728
330
6F3
100
AcDbEntity
  8
0
 62
     0
100
AcDbLine
 10
366.562777927607
 20
481.9653594962499
 30
0.0
 11
364.5627779276069
 21
483.9653594962499
 31
0.0
  0
LINE
  5
729
330
6F3
100
AcDbEntity
  8
0
 62
     0
100
AcDbLine
 10
368.3305448805734
 20
481.9653594962499
 30
0.0
 11
366.3305448805733
 21
483.9653594962499
 31
0.0
  0
LINE
  5
72A
330
6F3
100
AcDbEntity
  8
0
 62
     0
100
AcDbLine
 10
370.0983118335397
 20
481.9653594962499
 30
0.0
 11
368.0983118335396
 21
483.9653594962499
 31
0.0
  0
LINE
  5
72B
330
6F3
100
AcDbEntity
  8
0
 62
     0
100
AcDbLine
 10
371.8660787865061
 20
481.9653594962499
 30
0.0
 11
369.866078786506
 21
483.9653594962499
 31
0.0
  0
LINE
  5
72C
330
6F3
100
AcDbEntity
  8
0
 62
     0
100
AcDbLine
 10
373.6338457394725
 20
481.9653594962499
 30
0.0
 11
371.6338457394724
 21
483.9653594962499
 31
0.0
  0
LINE
  5
72D
330
6F3
100
AcDbEntity
  8
0
 62
     0
100
AcDbLine
 10
375.4016126924388
 20
481.9653594962499
 30
0.0
 11
373.4016126924387
 21
483.9653594962499
 31
0.0
  0
LINE
  5
72E
330
6F3
100
AcDbEntity
  8
0
 62
     0
100
AcDbLine
 10
377.1693796454052
 20
481.9653594962499
 30
0.0
 11
375.1693796454051
 21
483.9653594962499
 31
0.0
  0
LINE
  5
72F
330
6F3
100
AcDbEntity
  8
0
 62
     0
100
AcDbLine
 10
378.9371465983716
 20
481.9653594962499
 30
0.0
 11
376.9371465983715
 21
483.9653594962499
 31
0.0
  0
LINE
  5
730
330
6F3
100
AcDbEntity
  8
0
 62
     0
100
AcDbLine
 10
380.7049135513379
 20
481.9653594962499
 30
0.0
 11
378.7049135513379
 21
483.9653594962499
 31
0.0
  0
LINE
  5
731
330
6F3
100
AcDbEntity
  8
0
 62
     0
100
AcDbLine
 10
382.4726805043042
 20
481.9653594962499
 30
0.0
 11
380.4726805043042
 21
483.9653594962499
 31
0.0
  0
LINE
  5
732
330
6F3
100
AcDbEntity
  8
0
 62
     0
100
AcDbLine
 10
384.2404474572706
 20
481.9653594962499
 30
0.0
 11
382.2404474572706
 21
483.9653594962499
 31
0.0
  0
LINE
  5
733
330
6F3
100
AcDbEntity
  8
0
 62
     0
100
AcDbLine
 10
386.008214410237
 20
481.9653594962499
 30
0.0
 11
384.008214410237
 21
483.9653594962499
 31
0.0
  0
LINE
  5
734
330
6F3
100
AcDbEntity
  8
0
 62
     0
100
AcDbLine
 10
387.7759813632034
 20
481.96535949625
 30
0.0
 11
385.7759813632033
 21
483.9653594962499
 31
0.0
  0
LINE
  5
735
330
6F3
100
AcDbEntity
  8
0
 62
     0
100
AcDbLine
 10
389.5437483161698
 20
481.96535949625
 30
0.0
 11
387.5437483161697
 21
483.9653594962499
 31
0.0
  0
LINE
  5
736
330
6F3
100
AcDbEntity
  8
0
 62
     0
100
AcDbLine
 10
391.3115152691361
 20
481.96535949625
 30
0.0
 11
389.3115152691361
 21
483.9653594962499
 31
0.0
  0
LINE
  5
737
330
6F3
100
AcDbEntity
  8
0
 62
     0
100
AcDbLine
 10
393.0792822221025
 20
481.96535949625
 30
0.0
 11
391.0792822221024
 21
483.9653594962499
 31
0.0
  0
LINE
  5
738
330
6F3
100
AcDbEntity
  8
0
 62
     0
100
AcDbLine
 10
394.8470491750688
 20
481.96535949625
 30
0.0
 11
392.8470491750688
 21
483.9653594962499
 31
0.0
  0
LINE
  5
739
330
6F3
100
AcDbEntity
  8
0
 62
     0
100
AcDbLine
 10
396.6148161280352
 20
481.96535949625
 30
0.0
 11
394.6148161280352
 21
483.9653594962499
 31
0.0
  0
LINE
  5
73A
330
6F3
100
AcDbEntity
  8
0
 62
     0
100
AcDbLine
 10
398.3825830810016
 20
481.96535949625
 30
0.0
 11
396.3825830810015
 21
483.9653594962499
 31
0.0
  0
LINE
  5
73B
330
6F3
100
AcDbEntity
  8
0
 62
     0
100
AcDbLine
 10
400.1503500339679
 20
481.96535949625
 30
0.0
 11
398.1503500339679
 21
483.9653594962499
 31
0.0
  0
LINE
  5
73C
330
6F3
100
AcDbEntity
  8
0
 62
     0
100
AcDbLine
 10
401.9181169869343
 20
481.96535949625
 30
0.0
 11
399.9181169869343
 21
483.9653594962499
 31
0.0
  0
LINE
  5
73D
330
6F3
100
AcDbEntity
  8
0
 62
     0
100
AcDbLine
 10
403.6858839399006
 20
481.96535949625
 30
0.0
 11
401.6858839399006
 21
483.9653594962499
 31
0.0
  0
LINE
  5
73E
330
6F3
100
AcDbEntity
  8
0
 62
     0
100
AcDbLine
 10
405.453650892867
 20
481.96535949625
 30
0.0
 11
403.4536508928669
 21
483.9653594962499
 31
0.0
  0
LINE
  5
73F
330
6F3
100
AcDbEntity
  8
0
 62
     0
100
AcDbLine
 10
407.2214178458334
 20
481.96535949625
 30
0.0
 11
405.2214178458333
 21
483.9653594962499
 31
0.0
  0
LINE
  5
740
330
6F3
100
AcDbEntity
  8
0
 62
     0
100
AcDbLine
 10
408.2332916863035
 20
482.7212526087462
 30
0.0
 11
406.9891847987998
 21
483.9653594962499
 31
0.0
  0
LINE
  5
741
330
6F3
100
AcDbEntity
  8
0
 62
     0
100
AcDbLine
 10
375.8993423182678
 20
481.9653594962499
 30
0.0
 11
377.8993423182679
 21
483.9653594962499
 31
0.0
  0
LINE
  5
742
330
6F3
100
AcDbEntity
  8
0
 62
     0
100
AcDbLine
 10
377.6671092712342
 20
481.9653594962499
 30
0.0
 11
379.6671092712343
 21
483.9653594962499
 31
0.0
  0
LINE
  5
743
330
6F3
100
AcDbEntity
  8
0
 62
     0
100
AcDbLine
 10
379.4348762242006
 20
481.9653594962499
 30
0.0
 11
381.4348762242007
 21
483.9653594962499
 31
0.0
  0
LINE
  5
744
330
6F3
100
AcDbEntity
  8
0
 62
     0
100
AcDbLine
 10
381.202643177167
 20
481.9653594962499
 30
0.0
 11
383.202643177167
 21
483.9653594962499
 31
0.0
  0
LINE
  5
745
330
6F3
100
AcDbEntity
  8
0
 62
     0
100
AcDbLine
 10
382.9704101301333
 20
481.9653594962499
 30
0.0
 11
384.9704101301334
 21
483.9653594962499
 31
0.0
  0
LINE
  5
746
330
6F3
100
AcDbEntity
  8
0
 62
     0
100
AcDbLine
 10
384.7381770830997
 20
481.9653594962499
 30
0.0
 11
386.7381770830998
 21
483.9653594962499
 31
0.0
  0
LINE
  5
747
330
6F3
100
AcDbEntity
  8
0
 62
     0
100
AcDbLine
 10
386.5059440360661
 20
481.9653594962499
 30
0.0
 11
388.5059440360661
 21
483.9653594962499
 31
0.0
  0
LINE
  5
748
330
6F3
100
AcDbEntity
  8
0
 62
     0
100
AcDbLine
 10
388.2737109890324
 20
481.9653594962499
 30
0.0
 11
390.2737109890325
 21
483.9653594962499
 31
0.0
  0
LINE
  5
749
330
6F3
100
AcDbEntity
  8
0
 62
     0
100
AcDbLine
 10
390.0414779419989
 20
481.9653594962499
 30
0.0
 11
392.0414779419989
 21
483.9653594962499
 31
0.0
  0
LINE
  5
74A
330
6F3
100
AcDbEntity
  8
0
 62
     0
100
AcDbLine
 10
391.8092448949652
 20
481.9653594962499
 30
0.0
 11
393.8092448949652
 21
483.9653594962499
 31
0.0
  0
LINE
  5
74B
330
6F3
100
AcDbEntity
  8
0
 62
     0
100
AcDbLine
 10
393.5770118479315
 20
481.9653594962499
 30
0.0
 11
395.5770118479316
 21
483.9653594962499
 31
0.0
  0
LINE
  5
74C
330
6F3
100
AcDbEntity
  8
0
 62
     0
100
AcDbLine
 10
395.3447788008979
 20
481.9653594962499
 30
0.0
 11
397.344778800898
 21
483.9653594962499
 31
0.0
  0
LINE
  5
74D
330
6F3
100
AcDbEntity
  8
0
 62
     0
100
AcDbLine
 10
397.1125457538643
 20
481.9653594962499
 30
0.0
 11
399.1125457538644
 21
483.9653594962499
 31
0.0
  0
LINE
  5
74E
330
6F3
100
AcDbEntity
  8
0
 62
     0
100
AcDbLine
 10
398.8803127068306
 20
481.9653594962499
 30
0.0
 11
400.8803127068307
 21
483.9653594962499
 31
0.0
  0
LINE
  5
74F
330
6F3
100
AcDbEntity
  8
0
 62
     0
100
AcDbLine
 10
400.648079659797
 20
481.9653594962499
 30
0.0
 11
402.648079659797
 21
483.9653594962499
 31
0.0
  0
LINE
  5
750
330
6F3
100
AcDbEntity
  8
0
 62
     0
100
AcDbLine
 10
402.4158466127634
 20
481.9653594962499
 30
0.0
 11
404.4158466127634
 21
483.9653594962499
 31
0.0
  0
LINE
  5
751
330
6F3
100
AcDbEntity
  8
0
 62
     0
100
AcDbLine
 10
404.1836135657297
 20
481.9653594962499
 30
0.0
 11
406.1836135657298
 21
483.9653594962499
 31
0.0
  0
LINE
  5
752
330
6F3
100
AcDbEntity
  8
0
 62
     0
100
AcDbLine
 10
405.9513805186961
 20
481.9653594962499
 30
0.0
 11
407.9513805186961
 21
483.9653594962499
 31
0.0
  0
LINE
  5
753
330
6F3
100
AcDbEntity
  8
0
 62
     0
100
AcDbLine
 10
407.7191474716625
 20
481.9653594962499
 30
0.0
 11
408.2332916863035
 21
482.479503710891
 31
0.0
  0
LINE
  5
754
330
6F3
100
AcDbEntity
  8
0
 62
     0
100
AcDbLine
 10
374.1315753653015
 20
481.9653594962499
 30
0.0
 11
376.1315753653016
 21
483.9653594962499
 31
0.0
  0
LINE
  5
755
330
6F3
100
AcDbEntity
  8
0
 62
     0
100
AcDbLine
 10
372.3638084123351
 20
481.9653594962499
 30
0.0
 11
374.3638084123352
 21
483.9653594962499
 31
0.0
  0
LINE
  5
756
330
6F3
100
AcDbEntity
  8
0
 62
     0
100
AcDbLine
 10
370.5960414593687
 20
481.9653594962499
 30
0.0
 11
372.5960414593688
 21
483.9653594962499
 31
0.0
  0
LINE
  5
757
330
6F3
100
AcDbEntity
  8
0
 62
     0
100
AcDbLine
 10
368.8282745064023
 20
481.9653594962499
 30
0.0
 11
370.8282745064025
 21
483.9653594962499
 31
0.0
  0
LINE
  5
758
330
6F3
100
AcDbEntity
  8
0
 62
     0
100
AcDbLine
 10
367.060507553436
 20
481.9653594962499
 30
0.0
 11
369.0605075534361
 21
483.9653594962499
 31
0.0
  0
LINE
  5
759
330
6F3
100
AcDbEntity
  8
0
 62
     0
100
AcDbLine
 10
365.2927406004697
 20
481.9653594962499
 30
0.0
 11
367.2927406004697
 21
483.9653594962499
 31
0.0
  0
LINE
  5
75A
330
6F3
100
AcDbEntity
  8
0
 62
     0
100
AcDbLine
 10
363.5249736475032
 20
481.9653594962499
 30
0.0
 11
365.5249736475033
 21
483.9653594962499
 31
0.0
  0
LINE
  5
75B
330
6F3
100
AcDbEntity
  8
0
 62
     0
100
AcDbLine
 10
361.7572066945369
 20
481.9653594962499
 30
0.0
 11
363.757206694537
 21
483.9653594962499
 31
0.0
  0
LINE
  5
75C
330
6F3
100
AcDbEntity
  8
0
 62
     0
100
AcDbLine
 10
359.9894397415705
 20
481.9653594962499
 30
0.0
 11
361.9894397415706
 21
483.9653594962499
 31
0.0
  0
LINE
  5
75D
330
6F3
100
AcDbEntity
  8
0
 62
     0
100
AcDbLine
 10
358.2216727886042
 20
481.9653594962499
 30
0.0
 11
360.2216727886042
 21
483.9653594962499
 31
0.0
  0
LINE
  5
75E
330
6F3
100
AcDbEntity
  8
0
 62
     0
100
AcDbLine
 10
356.4539058356378
 20
481.9653594962499
 30
0.0
 11
358.4539058356378
 21
483.9653594962499
 31
0.0
  0
LINE
  5
75F
330
6F3
100
AcDbEntity
  8
0
 62
     0
100
AcDbLine
 10
354.6861388826714
 20
481.9653594962499
 30
0.0
 11
356.6861388826715
 21
483.9653594962499
 31
0.0
  0
LINE
  5
760
330
6F3
100
AcDbEntity
  8
0
 62
     0
100
AcDbLine
 10
352.918371929705
 20
481.9653594962499
 30
0.0
 11
354.9183719297051
 21
483.9653594962499
 31
0.0
  0
LINE
  5
761
330
6F3
100
AcDbEntity
  8
0
 62
     0
100
AcDbLine
 10
351.1506049767387
 20
481.9653594962499
 30
0.0
 11
353.1506049767387
 21
483.9653594962499
 31
0.0
  0
LINE
  5
762
330
6F3
100
AcDbEntity
  8
0
 62
     0
100
AcDbLine
 10
315.9279295408095
 20
448.5104510132871
 30
0.0
 11
319.9333650321681
 21
452.5158865046456
 31
0.0
  0
LINE
  5
763
330
6F3
100
AcDbEntity
  8
0
 62
     0
100
AcDbLine
 10
349.3828380237723
 20
481.9653594962499
 30
0.0
 11
351.3828380237724
 21
483.9653594962499
 31
0.0
  0
LINE
  5
764
330
6F3
100
AcDbEntity
  8
0
 62
     0
100
AcDbLine
 10
313.8304613799799
 20
448.1807498054238
 30
0.0
 11
322.3481795978907
 21
456.6984680233346
 31
0.0
  0
LINE
  5
765
330
6F3
100
AcDbEntity
  8
0
 62
     0
100
AcDbLine
 10
347.6150710708059
 20
481.9653594962499
 30
0.0
 11
349.615071070806
 21
483.9653594962499
 31
0.0
  0
LINE
  5
766
330
6F3
100
AcDbEntity
  8
0
 62
     0
100
AcDbLine
 10
312.0626944270135
 20
448.1807498054238
 30
0.0
 11
314.0638831799374
 21
450.1819385583478
 31
0.0
  0
LINE
  5
767
330
6F3
100
AcDbEntity
  8
0
 62
     0
100
AcDbLine
 10
345.8473041178395
 20
481.9653594962499
 30
0.0
 11
347.8473041178397
 21
483.9653594962499
 31
0.0
  0
LINE
  5
768
330
6F3
100
AcDbEntity
  8
0
 62
     0
100
AcDbLine
 10
319.2988925484757
 20
455.4169479268861
 30
0.0
 11
324.7629941636132
 21
460.8810495420236
 31
0.0
  0
LINE
  5
769
330
6F3
100
AcDbEntity
  8
0
 62
     0
100
AcDbLine
 10
310.2949274740471
 20
448.1807498054238
 30
0.0
 11
312.2949274740471
 21
450.1807498054239
 31
0.0
  0
LINE
  5
76A
330
6F3
100
AcDbEntity
  8
0
 62
     0
100
AcDbLine
 10
344.0795371648732
 20
481.9653594962499
 30
0.0
 11
346.0795371648733
 21
483.9653594962499
 31
0.0
  0
LINE
  5
76B
330
6F3
100
AcDbEntity
  8
0
 62
     0
100
AcDbLine
 10
321.7137071141983
 20
459.599529445575
 30
0.0
 11
326.275772153519
 21
464.1615944848958
 31
0.0
  0
LINE
  5
76C
330
6F3
100
AcDbEntity
  8
0
 62
     0
100
AcDbLine
 10
309.775772153519
 20
449.4293614378621
 30
0.0
 11
310.5271605210808
 21
450.1807498054239
 31
0.0
  0
LINE
  5
76D
330
6F3
100
AcDbEntity
  8
0
 62
     0
100
AcDbLine
 10
342.3117702119068
 20
481.9653594962499
 30
0.0
 11
344.3117702119069
 21
483.9653594962499
 31
0.0
  0
LINE
  5
76E
330
6F3
100
AcDbEntity
  8
0
 62
     0
100
AcDbLine
 10
324.1285216799209
 20
463.782110964264
 30
0.0
 11
326.275772153519
 21
465.9293614378621
 31
0.0
  0
LINE
  5
76F
330
6F3
100
AcDbEntity
  8
0
 62
     0
100
AcDbLine
 10
324.2757721535191
 20
465.6971283908285
 30
0.0
 11
326.1398543125182
 21
467.5612105498276
 31
0.0
  0
LINE
  5
770
330
6F3
100
AcDbEntity
  8
0
 62
     0
100
AcDbLine
 10
340.5440032589404
 20
481.9653594962499
 30
0.0
 11
342.5440032589406
 21
483.9653594962499
 31
0.0
  0
LINE
  5
771
330
6F3
100
AcDbEntity
  8
0
 62
     0
100
AcDbLine
 10
324.1484367291407
 20
467.3375599194165
 30
0.0
 11
325.8748727091675
 21
469.0639958994434
 31
0.0
  0
LINE
  5
772
330
6F3
100
AcDbEntity
  8
0
 62
     0
100
AcDbLine
 10
338.7762363059741
 20
481.9653594962499
 30
0.0
 11
340.7762363059742
 21
483.9653594962499
 31
0.0
  0
LINE
  5
773
330
6F3
100
AcDbEntity
  8
0
 62
     0
100
AcDbLine
 10
323.88345512579
 20
468.8403452690322
 30
0.0
 11
325.6098911058169
 21
470.5667812490591
 31
0.0
  0
LINE
  5
774
330
6F3
100
AcDbEntity
  8
0
 62
     0
100
AcDbLine
 10
337.0084693530077
 20
481.9653594962499
 30
0.0
 11
339.0084693530078
 21
483.9653594962499
 31
0.0
  0
LINE
  5
775
330
6F3
100
AcDbEntity
  8
0
 62
     0
100
AcDbLine
 10
323.6184735224394
 20
470.3431306186479
 30
0.0
 11
325.3449095024663
 21
472.0695665986748
 31
0.0
  0
LINE
  5
776
330
6F3
100
AcDbEntity
  8
0
 62
     0
100
AcDbLine
 10
335.2407024000414
 20
481.9653594962499
 30
0.0
 11
337.2407024000414
 21
483.9653594962499
 31
0.0
  0
LINE
  5
777
330
6F3
100
AcDbEntity
  8
0
 62
     0
100
AcDbLine
 10
323.3534919190887
 20
471.8459159682637
 30
0.0
 11
325.0799278991156
 21
473.5723519482905
 31
0.0
  0
LINE
  5
778
330
6F3
100
AcDbEntity
  8
0
 62
     0
100
AcDbLine
 10
333.472935447075
 20
481.9653594962499
 30
0.0
 11
335.4729354470751
 21
483.9653594962499
 31
0.0
  0
LINE
  5
779
330
6F3
100
AcDbEntity
  8
0
 62
     0
100
AcDbLine
 10
323.088510315738
 20
473.3487013178794
 30
0.0
 11
324.8149462957649
 21
475.0751372979062
 31
0.0
  0
LINE
  5
77A
330
6F3
100
AcDbEntity
  8
0
 62
     0
100
AcDbLine
 10
331.7051684941086
 20
481.9653594962499
 30
0.0
 11
333.7051684941087
 21
483.9653594962499
 31
0.0
  0
LINE
  5
77B
330
6F3
100
AcDbEntity
  8
0
 62
     0
100
AcDbLine
 10
322.8235287123874
 20
474.851486667495
 30
0.0
 11
324.6591302144369
 21
476.6870881695446
 31
0.0
  0
LINE
  5
77C
330
6F3
100
AcDbEntity
  8
0
 62
     0
100
AcDbLine
 10
329.932930305094
 20
481.9608882602017
 30
0.0
 11
331.9374015411423
 21
483.9653594962499
 31
0.0
  0
LINE
  5
77D
330
6F3
100
AcDbEntity
  8
0
 62
     0
100
AcDbLine
 10
322.6546738998848
 20
476.4503988079589
 30
0.0
 11
327.4697868304965
 21
481.2655117385705
 31
0.0
  0
LINE
  5
77E
330
6F3
100
AcDbEntity
  8
0
 62
     0
100
AcDbLine
 10
322.9356848432064
 20
478.4991767042468
 30
0.0
 11
328.1208417703919
 21
483.6843336314323
 31
0.0
  0
ENDBLK
  5
77F
330
6F3
100
AcDbEntity
  8
0
100
AcDbBlockEnd
  0
BLOCK
  5
781
330
780
100
AcDbEntity
  8
0
100
AcDbBlockBegin
  2
*X8
 70
     1
 10
0.0
 20
0.0
 30
0.0
  3
*X8
  1

  0
LINE
  5
782
330
780
100
AcDbEntity
  8
0
 62
     0
100
AcDbLine
 10
166.275772153519
 20
475.777185163866
 30
0.0
 11
164.275772153519
 21
477.777185163866
 31
0.0
  0
LINE
  5
783
330
780
100
AcDbEntity
  8
0
 62
     0
100
AcDbLine
 10
166.275772153519
 20
472.9487580391198
 30
0.0
 11
164.275772153519
 21
474.9487580391198
 31
0.0
  0
LINE
  5
784
330
780
100
AcDbEntity
  8
0
 62
     0
100
AcDbLine
 10
166.275772153519
 20
470.1203309143736
 30
0.0
 11
164.275772153519
 21
472.1203309143736
 31
0.0
  0
LINE
  5
785
330
780
100
AcDbEntity
  8
0
 62
     0
100
AcDbLine
 10
166.275772153519
 20
467.2919037896274
 30
0.0
 11
164.275772153519
 21
469.2919037896275
 31
0.0
  0
LINE
  5
786
330
780
100
AcDbEntity
  8
0
 62
     0
100
AcDbLine
 10
166.275772153519
 20
464.4634766648812
 30
0.0
 11
164.275772153519
 21
466.4634766648813
 31
0.0
  0
LINE
  5
787
330
780
100
AcDbEntity
  8
0
 62
     0
100
AcDbLine
 10
166.275772153519
 20
461.6350495401351
 30
0.0
 11
164.275772153519
 21
463.6350495401351
 31
0.0
  0
LINE
  5
788
330
780
100
AcDbEntity
  8
0
 62
     0
100
AcDbLine
 10
166.275772153519
 20
458.8066224153889
 30
0.0
 11
164.275772153519
 21
460.8066224153889
 31
0.0
  0
LINE
  5
789
330
780
100
AcDbEntity
  8
0
 62
     0
100
AcDbLine
 10
166.275772153519
 20
455.9781952906426
 30
0.0
 11
164.275772153519
 21
457.9781952906427
 31
0.0
  0
LINE
  5
78A
330
780
100
AcDbEntity
  8
0
 62
     0
100
AcDbLine
 10
314.1514281255397
 20
455.1807498054238
 30
0.0
 11
312.275772153519
 21
457.0564057774445
 31
0.0
  0
LINE
  5
78B
330
780
100
AcDbEntity
  8
0
 62
     0
100
AcDbLine
 10
314.275772153519
 20
457.8848329021908
 30
0.0
 11
312.2757721535191
 21
459.8848329021907
 31
0.0
  0
LINE
  5
78C
330
780
100
AcDbEntity
  8
0
 62
     0
100
AcDbLine
 10
314.2757721535191
 20
460.7132600269369
 30
0.0
 11
312.2757721535191
 21
462.7132600269369
 31
0.0
  0
LINE
  5
78D
330
780
100
AcDbEntity
  8
0
 62
     0
100
AcDbLine
 10
314.2757721535191
 20
463.5416871516831
 30
0.0
 11
312.2757721535191
 21
465.5416871516831
 31
0.0
  0
LINE
  5
78E
330
780
100
AcDbEntity
  8
0
 62
     0
100
AcDbLine
 10
314.2757721535191
 20
466.3701142764293
 30
0.0
 11
312.2757721535191
 21
468.3701142764292
 31
0.0
  0
LINE
  5
78F
330
780
100
AcDbEntity
  8
0
 62
     0
100
AcDbLine
 10
314.2757721535191
 20
469.1985414011754
 30
0.0
 11
312.2757721535192
 21
471.1985414011754
 31
0.0
  0
LINE
  5
790
330
780
100
AcDbEntity
  8
0
 62
     0
100
AcDbLine
 10
314.2757721535192
 20
472.0269685259217
 30
0.0
 11
312.2757721535192
 21
474.0269685259216
 31
0.0
  0
LINE
  5
791
330
780
100
AcDbEntity
  8
0
 62
     0
100
AcDbLine
 10
314.2757721535192
 20
474.8553956506678
 30
0.0
 11
312.2757721535192
 21
476.8553956506678
 31
0.0
  0
LINE
  5
792
330
780
100
AcDbEntity
  8
0
 62
     0
100
AcDbLine
 10
314.2757721535192
 20
477.6838227754139
 30
0.0
 11
313.7788451235092
 21
478.1807498054239
 31
0.0
  0
ENDBLK
  5
793
330
780
100
AcDbEntity
  8
0
100
AcDbBlockEnd
  0
BLOCK
  5
92D
330
922
100
AcDbEntity
  8
0
100
AcDbBlockBegin
  2
*D9
 70
     1
 10
0.0
 20
0.0
 30
0.0
  3
*D9
  1

  0
LINE
  5
A2B
330
922
100
AcDbEntity
  8
BEM
 62
     0
370
    -2
100
AcDbLine
 10
74.27577215351914
 20
411.7700560028945
 30
0.0
 11
74.27577215351914
 21
430.913843071131
 31
0.0
  0
LINE
  5
A2C
330
922
100
AcDbEntity
  8
BEM
 62
     0
370
    -2
100
AcDbLine
 10
404.275772153519
 20
411.7700560028945
 30
0.0
 11
404.275772153519
 21
430.913843071131
 31
0.0
  0
LINE
  5
A2D
330
922
100
AcDbEntity
  8
BEM
 62
     0
370
    -2
100
AcDbLine
 10
81.27577215351914
 20
428.9138430711311
 30
0.0
 11
397.275772153519
 21
428.9138430711311
 31
0.0
  0
SOLID
  5
A2E
330
922
100
AcDbEntity
  8
BEM
 62
     0
100
AcDbTrace
 10
81.27577215351914
 20
430.0805097377978
 30
0.0
 11
81.27577215351914
 21
427.7471764044644
 31
0.0
 12
74.27577215351914
 22
428.9138430711311
 32
0.0
 13
74.27577215351914
 23
428.9138430711311
 33
0.0
  0
SOLID
  5
A2F
330
922
100
AcDbEntity
  8
BEM
 62
     0
100
AcDbTrace
 10
397.275772153519
 20
430.0805097377978
 30
0.0
 11
397.275772153519
 21
427.7471764044644
 31
0.0
 12
404.275772153519
 22
428.9138430711311
 32
0.0
 13
404.275772153519
 23
428.9138430711311
 33
0.0
  0
MTEXT
  5
A30
330
922
100
AcDbEntity
  8
BEM
 62
     1
100
AcDbMText
 10
239.2757721535191
 20
435.413843071131
 30
0.0
 40
7.0
 41
0.0
 71
     5
 72
     1
  1
\A1;%%c330
  7
GREEKS
 73
     1
 44
1.0
  0
POINT
  5
A31
330
922
100
AcDbEntity
  8
DEFPOINTS
 62
     0
100
AcDbPoint
 10
74.27577215351914
 20
409.7700560028944
 30
0.0
  0
POINT
  5
A32
330
922
100
AcDbEntity
  8
DEFPOINTS
 62
     0
100
AcDbPoint
 10
404.275772153519
 20
409.7700560028944
 30
0.0
  0
POINT
  5
A33
330
922
100
AcDbEntity
  8
DEFPOINTS
 62
     0
100
AcDbPoint
 10
404.275772153519
 20
428.9138430711311
 30
0.0
  0
ENDBLK
  5
92E
330
922
100
AcDbEntity
  8
0
100
AcDbBlockEnd
  0
BLOCK
  5
93A
330
92F
100
AcDbEntity
  8
0
100
AcDbBlockBegin
  2
*D10
 70
     1
 10
0.0
 20
0.0
 30
0.0
  3
*D10
  1

  0
LINE
  5
A1A
330
92F
100
AcDbEntity
  8
BEM
 62
     0
370
    -2
100
AcDbLine
 10
181.3574767186615
 20
283.7700560028941
 30
0.0
 11
66.40217844712712
 21
283.7700560028942
 31
0.0
  0
LINE
  5
A1B
330
92F
100
AcDbEntity
  8
BEM
 62
     0
370
    -2
100
AcDbLine
 10
68.40217844712714
 20
290.7700560028942
 30
0.0
 11
68.40217844712715
 21
402.7700560028945
 31
0.0
  0
SOLID
  5
A1C
330
92F
100
AcDbEntity
  8
BEM
 62
     0
100
AcDbTrace
 10
67.23551178046047
 20
290.7700560028942
 30
0.0
 11
69.56884511379382
 21
290.7700560028942
 31
0.0
 12
68.40217844712713
 22
283.7700560028942
 32
0.0
 13
68.40217844712713
 23
283.7700560028942
 33
0.0
  0
SOLID
  5
A1D
330
92F
100
AcDbEntity
  8
BEM
 62
     0
100
AcDbTrace
 10
67.23551178046048
 20
402.7700560028945
 30
0.0
 11
69.56884511379382
 21
402.7700560028945
 31
0.0
 12
68.40217844712715
 22
409.7700560028944
 32
0.0
 13
68.40217844712715
 23
409.7700560028944
 33
0.0
  0
MTEXT
  5
A1E
330
92F
100
AcDbEntity
  8
BEM
 62
     1
100
AcDbMText
 10
61.90217844712709
 20
346.7700560028943
 30
0.0
 40
7.0
 41
0.0
 71
     5
 72
     1
  1
\A1;126
  7
GREEKS
 11
0.0000000000000001
 21
1.0
 31
0.0
 73
     1
 44
1.0
  0
POINT
  5
A1F
330
92F
100
AcDbEntity
  8
DEFPOINTS
 62
     0
100
AcDbPoint
 10
183.3574767186615
 20
283.7700560028941
 30
0.0
  0
POINT
  5
A20
330
92F
100
AcDbEntity
  8
DEFPOINTS
 62
     0
100
AcDbPoint
 10
68.40217844712715
 20
409.7700560028944
 30
0.0
  0
POINT
  5
A21
330
92F
100
AcDbEntity
  8
DEFPOINTS
 62
     0
100
AcDbPoint
 10
68.40217844712715
 20
409.7700560028944
 30
0.0
  0
ENDBLK
  5
93B
330
92F
100
AcDbEntity
  8
0
100
AcDbBlockEnd
  0
BLOCK
  5
947
330
93C
100
AcDbEntity
  8
0
100
AcDbBlockBegin
  2
*D11
 70
     1
 10
0.0
 20
0.0
 30
0.0
  3
*D11
  1

  0
LINE
  5
A11
330
93C
100
AcDbEntity
  8
BEM
 62
     0
370
    -2
100
AcDbLine
 10
188.275772153519
 20
169.7700560028943
 30
0.0
 11
188.275772153519
 21
137.9200496073487
 31
0.0
  0
LINE
  5
A12
330
93C
100
AcDbEntity
  8
BEM
 62
     0
370
    -2
100
AcDbLine
 10
290.275772153519
 20
169.7700560028943
 30
0.0
 11
290.275772153519
 21
137.9200496073487
 31
0.0
  0
LINE
  5
A13
330
93C
100
AcDbEntity
  8
BEM
 62
     0
370
    -2
100
AcDbLine
 10
195.275772153519
 20
139.9200496073487
 30
0.0
 11
283.275772153519
 21
139.9200496073487
 31
0.0
  0
SOLID
  5
A14
330
93C
100
AcDbEntity
  8
BEM
 62
     0
100
AcDbTrace
 10
195.275772153519
 20
141.0867162740154
 30
0.0
 11
195.275772153519
 21
138.7533829406821
 31
0.0
 12
188.275772153519
 22
139.9200496073487
 32
0.0
 13
188.275772153519
 23
139.9200496073487
 33
0.0
  0
SOLID
  5
A15
330
93C
100
AcDbEntity
  8
BEM
 62
     0
100
AcDbTrace
 10
283.275772153519
 20
141.0867162740154
 30
0.0
 11
283.275772153519
 21
138.7533829406821
 31
0.0
 12
290.275772153519
 22
139.9200496073487
 32
0.0
 13
290.275772153519
 23
139.9200496073487
 33
0.0
  0
MTEXT
  5
A16
330
93C
100
AcDbEntity
  8
BEM
 62
     1
100
AcDbMText
 10
239.275772153519
 20
146.4200496073487
 30
0.0
 40
7.0
 41
0.0
 71
     5
 72
     1
  1
\A1;%%C102
  7
GREEKS
 73
     1
 44
1.0
  0
POINT
  5
A17
330
93C
100
AcDbEntity
  8
DEFPOINTS
 62
     0
100
AcDbPoint
 10
188.275772153519
 20
171.7700560028943
 30
0.0
  0
POINT
  5
A18
330
93C
100
AcDbEntity
  8
DEFPOINTS
 62
     0
100
AcDbPoint
 10
290.275772153519
 20
171.7700560028943
 30
0.0
  0
POINT
  5
A19
330
93C
100
AcDbEntity
  8
DEFPOINTS
 62
     0
100
AcDbPoint
 10
290.275772153519
 20
139.9200496073487
 30
0.0
  0
ENDBLK
  5
948
330
93C
100
AcDbEntity
  8
0
100
AcDbBlockEnd
  0
BLOCK
  5
954
330
949
100
AcDbEntity
  8
0
100
AcDbBlockBegin
  2
*D12
 70
     1
 10
0.0
 20
0.0
 30
0.0
  3
*D12
  1

  0
LINE
  5
A08
330
949
100
AcDbEntity
  8
BEM
 62
     0
370
    -2
100
AcDbLine
 10
166.7757721535191
 20
314.179601621
 30
0.0
 11
166.7757721535191
 21
121.7342883701596
 31
0.0
  0
LINE
  5
A09
330
949
100
AcDbEntity
  8
BEM
 62
     0
370
    -2
100
AcDbLine
 10
311.775772153519
 20
314.179601621
 30
0.0
 11
311.775772153519
 21
121.7342883701596
 31
0.0
  0
LINE
  5
A0A
330
949
100
AcDbEntity
  8
BEM
 62
     0
370
    -2
100
AcDbLine
 10
173.7757721535191
 20
123.7342883701596
 30
0.0
 11
304.775772153519
 21
123.7342883701596
 31
0.0
  0
SOLID
  5
A0B
330
949
100
AcDbEntity
  8
BEM
 62
     0
100
AcDbTrace
 10
173.7757721535191
 20
124.9009550368263
 30
0.0
 11
173.7757721535191
 21
122.5676217034929
 31
0.0
 12
166.7757721535191
 22
123.7342883701596
 32
0.0
 13
166.7757721535191
 23
123.7342883701596
 33
0.0
  0
SOLID
  5
A0C
330
949
100
AcDbEntity
  8
BEM
 62
     0
100
AcDbTrace
 10
304.775772153519
 20
124.9009550368263
 30
0.0
 11
304.775772153519
 21
122.5676217034929
 31
0.0
 12
311.775772153519
 22
123.7342883701596
 32
0.0
 13
311.775772153519
 23
123.7342883701596
 33
0.0
  0
MTEXT
  5
A0D
330
949
100
AcDbEntity
  8
BEM
 62
     1
100
AcDbMText
 10
239.2757721535191
 20
130.2342883701596
 30
0.0
 40
7.0
 41
0.0
 71
     5
 72
     1
  1
\A1;%%C145
  7
GREEKS
 73
     1
 44
1.0
  0
POINT
  5
A0E
330
949
100
AcDbEntity
  8
DEFPOINTS
 62
     0
100
AcDbPoint
 10
166.7757721535191
 20
316.179601621
 30
0.0
  0
POINT
  5
A0F
330
949
100
AcDbEntity
  8
DEFPOINTS
 62
     0
100
AcDbPoint
 10
311.775772153519
 20
316.179601621
 30
0.0
  0
POINT
  5
A10
330
949
100
AcDbEntity
  8
DEFPOINTS
 62
     0
100
AcDbPoint
 10
311.775772153519
 20
123.7342883701596
 30
0.0
  0
ENDBLK
  5
955
330
949
100
AcDbEntity
  8
0
100
AcDbBlockEnd
  0
BLOCK
  5
961
330
956
100
AcDbEntity
  8
0
100
AcDbBlockBegin
  2
*D13
 70
     1
 10
0.0
 20
0.0
 30
0.0
  3
*D13
  1

  0
LINE
  5
9FF
330
956
100
AcDbEntity
  8
BEM
 62
     0
370
    -2
100
AcDbLine
 10
187.3256361158301
 20
159.7700560028945
 30
0.0
 11
52.28425953797191
 21
159.7700560028945
 31
0.0
  0
LINE
  5
A00
330
956
100
AcDbEntity
  8
BEM
 62
     0
370
    -2
100
AcDbLine
 10
72.27577215351914
 20
409.7700560028944
 30
0.0
 11
52.28425953797196
 21
409.7700560028944
 31
0.0
  0
LINE
  5
A01
330
956
100
AcDbEntity
  8
BEM
 62
     0
370
    -2
100
AcDbLine
 10
54.28425953797191
 20
166.7700560028945
 30
0.0
 11
54.28425953797196
 21
402.7700560028945
 31
0.0
  0
SOLID
  5
A02
330
956
100
AcDbEntity
  8
BEM
 62
     0
100
AcDbTrace
 10
53.11759287130524
 20
166.7700560028945
 30
0.0
 11
55.45092620463857
 21
166.7700560028945
 31
0.0
 12
54.28425953797191
 22
159.7700560028945
 32
0.0
 13
54.28425953797191
 23
159.7700560028945
 33
0.0
  0
SOLID
  5
A03
330
956
100
AcDbEntity
  8
BEM
 62
     0
100
AcDbTrace
 10
53.1175928713053
 20
402.7700560028945
 30
0.0
 11
55.45092620463862
 21
402.7700560028945
 31
0.0
 12
54.28425953797196
 22
409.7700560028944
 32
0.0
 13
54.28425953797196
 23
409.7700560028944
 33
0.0
  0
MTEXT
  5
A04
330
956
100
AcDbEntity
  8
BEM
 62
     1
100
AcDbMText
 10
47.78425953797188
 20
284.7700560028945
 30
0.0
 40
7.0
 41
0.0
 71
     5
 72
     1
  1
\A1;250
  7
GREEKS
 11
0.0000000000000001
 21
1.0
 31
0.0
 73
     1
 44
1.0
  0
POINT
  5
A05
330
956
100
AcDbEntity
  8
DEFPOINTS
 62
     0
100
AcDbPoint
 10
189.3256361158301
 20
159.7700560028945
 30
0.0
  0
POINT
  5
A06
330
956
100
AcDbEntity
  8
DEFPOINTS
 62
     0
100
AcDbPoint
 10
74.27577215351914
 20
409.7700560028944
 30
0.0
  0
POINT
  5
A07
330
956
100
AcDbEntity
  8
DEFPOINTS
 62
     0
100
AcDbPoint
 10
54.28425953797196
 20
409.7700560028944
 30
0.0
  0
ENDBLK
  5
962
330
956
100
AcDbEntity
  8
0
100
AcDbBlockEnd
  0
BLOCK
  5
D4A
330
D40
100
AcDbEntity
  8
0
100
AcDbBlockBegin
  2
*D14
 70
     1
 10
0.0
 20
0.0
 30
0.0
  3
*D14
  1

  0
LINE
  5
D4C
330
D40
100
AcDbEntity
  8
BEM
 62
     0
370
    -2
100
AcDbLine
 10
164.275772153519
 20
511.7700560028945
 30
0.0
 11
164.275772153519
 21
523.9860052665033
 31
0.0
  0
LINE
  5
D4D
330
D40
100
AcDbEntity
  8
BEM
 62
     0
370
    -2
100
AcDbLine
 10
314.2757721535192
 20
511.7700560028945
 30
0.0
 11
314.2757721535192
 21
523.9860052665033
 31
0.0
  0
LINE
  5
D4E
330
D40
100
AcDbEntity
  8
BEM
 62
     0
370
    -2
100
AcDbLine
 10
171.275772153519
 20
521.9860052665032
 30
0.0
 11
307.2757721535193
 21
521.9860052665032
 31
0.0
  0
SOLID
  5
D4F
330
D40
100
AcDbEntity
  8
BEM
 62
     0
100
AcDbTrace
 10
171.275772153519
 20
523.1526719331699
 30
0.0
 11
171.275772153519
 21
520.8193385998367
 31
0.0
 12
164.275772153519
 22
521.9860052665032
 32
0.0
 13
164.275772153519
 23
521.9860052665032
 33
0.0
  0
SOLID
  5
D50
330
D40
100
AcDbEntity
  8
BEM
 62
     0
100
AcDbTrace
 10
307.2757721535193
 20
523.1526719331699
 30
0.0
 11
307.2757721535193
 21
520.8193385998367
 31
0.0
 12
314.2757721535192
 22
521.9860052665032
 32
0.0
 13
314.2757721535192
 23
521.9860052665032
 33
0.0
  0
MTEXT
  5
D51
330
D40
100
AcDbEntity
  8
BEM
 62
     1
100
AcDbMText
 10
242.502930521599
 20
528.4860052665033
 30
0.0
 40
7.0
 41
0.0
 71
     5
 72
     1
  1
\A1;150
  7
GREEKS
 73
     1
 44
1.0
  0
POINT
  5
D52
330
D40
100
AcDbEntity
  8
DEFPOINTS
 62
     0
100
AcDbPoint
 10
164.275772153519
 20
509.7700560028944
 30
0.0
  0
POINT
  5
D53
330
D40
100
AcDbEntity
  8
DEFPOINTS
 62
     0
100
AcDbPoint
 10
314.2757721535192
 20
509.7700560028945
 30
0.0
  0
POINT
  5
D54
330
D40
100
AcDbEntity
  8
DEFPOINTS
 62
     0
100
AcDbPoint
 10
314.2757721535192
 20
521.9860052665032
 30
0.0
  0
ENDBLK
  5
D4B
330
D40
100
AcDbEntity
  8
0
100
AcDbBlockEnd
  0
BLOCK
  5
E2C
330
E22
100
AcDbEntity
  8
0
100
AcDbBlockBegin
  2
*D15
 70
     1
 10
0.0
 20
0.0
 30
0.0
  3
*D15
  1

  0
LINE
  5
E39
330
E22
100
AcDbEntity
  8
BEM
 62
     0
370
    -2
100
AcDbLine
 10
72.27577215351914
 20
409.7700560028944
 30
0.0
 11
52.28425953797196
 21
409.7700560028944
 31
0.0
  0
LINE
  5
E3A
330
E22
100
AcDbEntity
  8
BEM
 62
     0
370
    -2
100
AcDbLine
 10
162.275772153519
 20
509.7700560028944
 30
0.0
 11
52.28425953797199
 21
509.7700560028945
 31
0.0
  0
LINE
  5
E3B
330
E22
100
AcDbEntity
  8
BEM
 62
     0
370
    -2
100
AcDbLine
 10
54.28425953797196
 20
416.7700560028944
 30
0.0
 11
54.28425953797198
 21
502.7700560028945
 31
0.0
  0
SOLID
  5
E3C
330
E22
100
AcDbEntity
  8
BEM
 62
     0
100
AcDbTrace
 10
53.1175928713053
 20
416.7700560028944
 30
0.0
 11
55.45092620463862
 21
416.7700560028944
 31
0.0
 12
54.28425953797196
 22
409.7700560028944
 32
0.0
 13
54.28425953797196
 23
409.7700560028944
 33
0.0
  0
SOLID
  5
E3D
330
E22
100
AcDbEntity
  8
BEM
 62
     0
100
AcDbTrace
 10
53.11759287130532
 20
502.7700560028945
 30
0.0
 11
55.45092620463865
 21
502.7700560028945
 31
0.0
 12
54.28425953797198
 22
509.7700560028945
 32
0.0
 13
54.28425953797198
 23
509.7700560028945
 33
0.0
  0
MTEXT
  5
E3E
330
E22
100
AcDbEntity
  8
BEM
 62
     1
100
AcDbMText
 10
47.7842595379719
 20
459.7700560028944
 30
0.0
 40
7.0
 41
0.0
 71
     5
 72
     1
  1
\A1;min.15 - max.100
  7
GREEKS
 11
0.0000000000000001
 21
1.0
 31
0.0
 73
     1
 44
1.0
  0
POINT
  5
E3F
330
E22
100
AcDbEntity
  8
DEFPOINTS
 62
     0
100
AcDbPoint
 10
74.27577215351914
 20
409.7700560028944
 30
0.0
  0
POINT
  5
E40
330
E22
100
AcDbEntity
  8
DEFPOINTS
 62
     0
100
AcDbPoint
 10
164.275772153519
 20
509.7700560028944
 30
0.0
  0
POINT
  5
E41
330
E22
100
AcDbEntity
  8
DEFPOINTS
 62
     0
100
AcDbPoint
 10
54.28425953797198
 20
509.7700560028945
 30
0.0
  0
ENDBLK
  5
E2D
330
E22
100
AcDbEntity
  8
0
100
AcDbBlockEnd
  0
BLOCK
  5
E57
330
E4B
100
AcDbEntity
  8
0
100
AcDbBlockBegin
  2
*D16
 70
     1
 10
0.0
 20
0.0
 30
0.0
  3
*D16
  1

  0
LINE
  5
E5A
330
E4B
100
AcDbEntity
  8
BEM
 62
     0
370
    -2
100
AcDbLine
 10
162.275772153519
 20
509.7700560028946
 30
0.0
 11
145.2387048765658
 21
509.7700560028946
 31
0.0
  0
LINE
  5
E5B
330
E4B
100
AcDbEntity
  8
BEM
 62
     0
370
    -2
100
AcDbLine
 10
162.275772153519
 20
498.7700560028946
 30
0.0
 11
145.2387048765658
 21
498.7700560028946
 31
0.0
  0
LINE
  5
E5C
330
E4B
100
AcDbEntity
  8
BEM
 62
     0
370
    -2
100
AcDbLine
 10
147.2387048765658
 20
516.7700560028946
 30
0.0
 11
147.2387048765658
 21
523.7700560028947
 31
0.0
  0
LINE
  5
E5D
330
E4B
100
AcDbEntity
  8
BEM
 62
     0
370
    -2
100
AcDbLine
 10
147.2387048765658
 20
491.7700560028945
 30
0.0
 11
147.2387048765658
 21
473.1700560028945
 31
0.0
  0
LINE
  5
E5E
330
E4B
100
AcDbEntity
  8
BEM
 62
     0
370
    -2
100
AcDbLine
 10
147.2387048765658
 20
509.7700560028946
 30
0.0
 11
147.2387048765658
 21
498.7700560028946
 31
0.0
  0
SOLID
  5
E5F
330
E4B
100
AcDbEntity
  8
BEM
 62
     0
100
AcDbTrace
 10
146.0720382098992
 20
516.7700560028946
 30
0.0
 11
148.4053715432325
 21
516.7700560028946
 31
0.0
 12
147.2387048765658
 22
509.7700560028946
 32
0.0
 13
147.2387048765658
 23
509.7700560028946
 33
0.0
  0
SOLID
  5
E60
330
E4B
100
AcDbEntity
  8
BEM
 62
     0
100
AcDbTrace
 10
146.0720382098992
 20
491.7700560028945
 30
0.0
 11
148.4053715432325
 21
491.7700560028945
 31
0.0
 12
147.2387048765658
 22
498.7700560028946
 32
0.0
 13
147.2387048765658
 23
498.7700560028946
 33
0.0
  0
MTEXT
  5
E61
330
E4B
100
AcDbEntity
  8
BEM
 62
     1
100
AcDbMText
 10
140.7387048765658
 20
478.9700560028946
 30
0.0
 40
7.0
 41
0.0
 71
     5
 72
     1
  1
\A1;11
  7
GREEKS
 11
0.0000000000000001
 21
1.0
 31
0.0
 73
     1
 44
1.0
  0
POINT
  5
E62
330
E4B
100
AcDbEntity
  8
DEFPOINTS
 62
     0
100
AcDbPoint
 10
164.275772153519
 20
509.7700560028946
 30
0.0
  0
POINT
  5
E63
330
E4B
100
AcDbEntity
  8
DEFPOINTS
 62
     0
100
AcDbPoint
 10
164.275772153519
 20
498.7700560028946
 30
0.0
  0
POINT
  5
E64
330
E4B
100
AcDbEntity
  8
DEFPOINTS
 62
     0
100
AcDbPoint
 10
147.2387048765658
 20
498.7700560028946
 30
0.0
  0
ENDBLK
  5
E58
330
E4B
100
AcDbEntity
  8
0
100
AcDbBlockEnd
  0
ENDSEC
  0
SECTION
  2
ENTITIES
  0
LINE
  5
2D5
330
20
100
AcDbEntity
  8
HILF
100
AcDbLine
 10
420.0
 20
0.0
 30
0.0
 11
420.0
 21
594.0
 31
0.0
  0
LINE
  5
2D6
330
20
100
AcDbEntity
  8
STEMPEL
100
AcDbLine
 10
410.0
 20
10.0
 30
0.0
 11
410.0
 21
584.0
 31
0.0
  0
LINE
  5
2DB
330
20
100
AcDbEntity
  8
STEMPEL
100
AcDbLine
 10
40.00000000000051
 20
584.0
 30
0.0
 11
39.99999999999955
 21
10.0
 31
0.0
  0
LINE
  5
2DE
330
20
100
AcDbEntity
  8
HILF
100
AcDbLine
 10
0.0
 20
0.0
 30
0.0
 11
0.0
 21
594.0
 31
0.0
  0
LINE
  5
2E0
330
20
100
AcDbEntity
  8
STEMPEL
100
AcDbLine
 10
135.9999999999996
 20
30.0
 30
0.0
 11
39.9999999999996
 21
30.0
 31
0.0
  0
LINE
  5
2E1
330
20
100
AcDbEntity
  8
HILF
100
AcDbLine
 10
39.99999999999971
 20
100.0
 30
0.0
 11
135.9999999999998
 21
100.0
 31
0.0
  0
LINE
  5
2E2
330
20
100
AcDbEntity
  8
HILF
100
AcDbLine
 10
39.99999999999971
 20
90.0
 30
0.0
 11
135.9999999999998
 21
90.0
 31
0.0
  0
LINE
  5
2E3
330
20
100
AcDbEntity
  8
HILF
100
AcDbLine
 10
39.99999999999971
 20
80.0
 30
0.0
 11
135.9999999999998
 21
80.0
 31
0.0
  0
LINE
  5
2E4
330
20
100
AcDbEntity
  8
HILF
100
AcDbLine
 10
39.99999999999971
 20
70.0
 30
0.0
 11
135.9999999999998
 21
70.0
 31
0.0
  0
LINE
  5
2E5
330
20
100
AcDbEntity
  8
HILF
100
AcDbLine
 10
39.99999999999971
 20
60.0
 30
0.0
 11
135.9999999999998
 21
60.0
 31
0.0
  0
LINE
  5
2E6
330
20
100
AcDbEntity
  8
HILF
100
AcDbLine
 10
39.99999999999971
 20
50.0
 30
0.0
 11
135.9999999999998
 21
50.0
 31
0.0
  0
LINE
  5
2E7
330
20
100
AcDbEntity
  8
HILF
100
AcDbLine
 10
39.99999999999971
 20
40.0
 30
0.0
 11
135.9999999999998
 21
40.0
 31
0.0
  0
TEXT
  5
2E8
330
20
100
AcDbEntity
  8
TEXT
100
AcDbText
 10
43.64453517758119
 20
113.5954219225907
 30
0.0
 40
5.0
  1
Erstellt mit AUTOCAD 2004
 41
0.8
  7
GREEKS
100
AcDbText
  0
LINE
  5
2E9
330
20
100
AcDbEntity
  8
STEMPEL
100
AcDbLine
 10
410.0
 20
110.0
 30
0.0
 11
39.99999999999971
 21
110.0
 31
0.0
  0
LINE
  5
2EA
330
20
100
AcDbEntity
  8
HILF
100
AcDbLine
 10
0.0
 20
0.0
 30
0.0
 11
420.0
 21
0.0
 31
0.0
  0
LINE
  5
2EB
330
20
100
AcDbEntity
  8
STEMPEL
100
AcDbLine
 10
39.99999999999955
 20
10.0
 30
0.0
 11
410.0
 21
10.0
 31
0.0
  0
LINE
  5
2EC
330
20
100
AcDbEntity
  8
VOLL
100
AcDbLine
 10
53.99999999999971
 20
110.0
 30
0.0
 11
53.9999999999996
 21
10.0
 31
0.0
  0
TEXT
  5
2ED
330
20
100
AcDbEntity
  8
TEXT
100
AcDbText
 10
48.2664110704572
 20
13.65465846027189
 30
0.0
 40
3.6
  1
Index
 50
90.0
 41
0.8
  7
GREEKS
100
AcDbText
  0
TEXT
  5
2EE
330
20
100
AcDbEntity
  8
TEXT
100
AcDbText
 10
62.06468870795872
 20
18.67381894984123
 30
0.0
 40
4.0
  1
Änderung
 41
0.8
  7
GREEKS
 72
     1
 11
72.80754585081587
 21
18.67381894984123
 31
0.0
100
AcDbText
  0
TEXT
  5
2EF
330
20
100
AcDbEntity
  8
TEXT
100
AcDbText
 10
225.1623031583288
 20
52.75131145345461
 30
0.0
 40
5.0
  1
EDV-Art.Nr. 16261.100X
 41
0.8
  7
GREEKS
100
AcDbText
  0
LINE
  5
2F0
330
20
100
AcDbEntity
  8
STEMPEL
100
AcDbLine
 10
332.0
 20
109.9999999999996
 30
0.0
 11
332.0
 21
40.0
 31
0.0
  0
LINE
  5
2F1
330
20
100
AcDbEntity
  8
STEMPEL
100
AcDbLine
 10
219.9999999999995
 20
110.0
 30
0.0
 11
219.9999999999995
 21
10.0
 31
0.0
  0
TEXT
  5
2F2
330
20
100
AcDbEntity
  8
TEXT
100
AcDbText
 10
337.2400861497006
 20
52.07416177878599
 30
0.0
 40
5.0
  1
ersetzt durch:
 41
0.8
  7
GREEKS
100
AcDbText
  0
LINE
  5
2F3
330
20
100
AcDbEntity
  8
VOLL
100
AcDbLine
 10
179.9999999999998
 20
109.9999999999999
 30
0.0
 11
179.9999999999996
 21
40.0
 31
0.0
  0
LINE
  5
2F4
330
20
100
AcDbEntity
  8
VOLL
100
AcDbLine
 10
153.9999999999998
 20
80.0
 30
0.0
 11
153.9999999999998
 21
40.0
 31
0.0
  0
LINE
  5
2F5
330
20
100
AcDbEntity
  8
STEMPEL
100
AcDbLine
 10
135.9999999999998
 20
109.9999999999999
 30
0.0
 11
135.9999999999996
 21
9.999999999999886
 31
0.0
  0
LINE
  5
2F6
330
20
100
AcDbEntity
  8
VOLL
100
AcDbLine
 10
93.99999999999982
 20
110.0
 30
0.0
 11
93.99999999999961
 21
10.0
 31
0.0
  0
LINE
  5
2F7
330
20
100
AcDbEntity
  8
VOLL
100
AcDbLine
 10
113.9999999999998
 20
109.9999999999999
 30
0.0
 11
113.9999999999996
 21
9.999999999999886
 31
0.0
  0
TEXT
  5
2F8
330
20
100
AcDbEntity
  8
TEXT
100
AcDbText
 10
137.5515086571668
 20
53.68926291428374
 30
0.0
 40
3.6
  1
Gepr.
 41
0.8
  7
GREEKS
100
AcDbText
  0
LINE
  5
2F9
330
20
100
AcDbEntity
  8
HILF
100
AcDbLine
 10
224.7736801096944
 20
50.0
 30
0.0
 11
326.629784251481
 21
50.0
 31
0.0
  0
LINE
  5
2FA
330
20
100
AcDbEntity
  8
HILF
100
AcDbLine
 10
224.7736801096944
 20
14.89398258028302
 30
0.0
 11
404.8588839326728
 21
14.89398258028302
 31
0.0
  0
LINE
  5
2FB
330
20
100
AcDbEntity
  8
STEMPEL
100
AcDbLine
 10
410.0
 20
40.0
 30
0.0
 11
135.9999999999996
 21
40.0
 31
0.0
  0
LINE
  5
2FC
330
20
100
AcDbEntity
  8
HILF
100
AcDbLine
 10
135.9999999999998
 20
50.0
 30
0.0
 11
219.9999999999995
 21
50.0
 31
0.0
  0
INSERT
  5
2FD
330
20
100
AcDbEntity
  8
STEMPEL
100
AcDbBlockReference
  2
LOGO
 10
138.9705276546527
 20
44.3239197186715
 30
0.0
 41
2.0
 42
2.0
 43
2.0
  0
TEXT
  5
2FE
330
20
100
AcDbEntity
  8
TEXT
100
AcDbText
 10
137.60067773873
 20
43.52946389649798
 30
0.0
 40
3.6
  1
Norm.
 41
0.8
  7
GREEKS
100
AcDbText
  0
TEXT
  5
2FF
330
20
100
AcDbEntity
  8
TEXT
100
AcDbText
 10
119.0756407737948
 20
18.59324216966399
 30
0.0
 40
4.0
  1
Name
 41
0.8
  7
GREEKS
 72
     1
 11
125.3994502976043
 21
18.59324216966399
 31
0.0
100
AcDbText
  0
TEXT
  5
300
330
20
100
AcDbEntity
  8
TEXT
100
AcDbText
 10
100.0124138850654
 20
18.67156269339807
 30
0.0
 40
4.0
  1
Tag
 41
0.8
  7
GREEKS
 72
     1
 11
103.7457472183987
 21
18.67156269339807
 31
0.0
100
AcDbText
  0
TEXT
  5
301
330
20
100
AcDbEntity
  8
TEXT
100
AcDbText
 10
224.7422383911355
 20
30.8456057019306
 30
0.0
 40
5.0
  1
Bauvorhaben
 41
0.8
  7
GREEKS
100
AcDbText
  0
TEXT
  5
302
330
20
100
AcDbEntity
  8
TEXT
100
AcDbText
 10
224.971340053456
 20
42.19504573013546
 30
0.0
 40
4.0
  1
16261100W.DWG
 41
0.8
  7
GREEKS
100
AcDbText
  0
TEXT
  5
303
330
20
100
AcDbEntity
  8
TEXT
 62
     1
100
AcDbText
 10
224.9791173409946
 20
86.99412083985317
 30
0.0
 40
7.0
  1
Kompletteinheit DN100
 41
0.75
  7
GREEKS
100
AcDbText
  0
LINE
  5
304
330
20
100
AcDbEntity
  8
HILF
100
AcDbLine
 10
224.7736801096944
 20
84.03758247564132
 30
0.0
 11
326.629784251481
 21
84.03758247564132
 31
0.0
  0
LINE
  5
305
330
20
100
AcDbEntity
  8
HILF
100
AcDbLine
 10
224.7736801096944
 20
70.0
 30
0.0
 11
326.629784251481
 21
70.0
 31
0.0
  0
LINE
  5
306
330
20
100
AcDbEntity
  8
HILF
100
AcDbLine
 10
224.7736801096944
 20
60.0
 30
0.0
 11
326.629784251481
 21
60.0
 31
0.0
  0
LINE
  5
30A
330
20
100
AcDbEntity
  8
STEMPEL
100
AcDbLine
 10
410.0
 20
80.0
 30
0.0
 11
135.9999999999998
 21
80.0
 31
0.0
  0
TEXT
  5
30B
330
20
100
AcDbEntity
  8
TEXT
100
AcDbText
 10
187.9646614905594
 20
102.4184168434818
 30
0.0
 40
5.0
  1
zul.Abw
 41
0.8
  7
GREEKS
100
AcDbText
  0
TEXT
  5
30C
330
20
100
AcDbEntity
  8
TEXT
100
AcDbText
 10
182.9942584755854
 20
90.23051162274779
 30
0.0
 40
4.0
  1
DIN EN1123-2
 41
0.8
  7
GREEKS
100
AcDbText
  0
LINE
  5
30D
330
20
100
AcDbEntity
  8
HILF
100
AcDbLine
 10
135.9999999999998
 20
70.0
 30
0.0
 11
219.9999999999995
 21
70.0
 31
0.0
  0
LINE
  5
30E
330
20
100
AcDbEntity
  8
HILF
100
AcDbLine
 10
135.9999999999998
 20
60.0
 30
0.0
 11
219.9999999999995
 21
60.0
 31
0.0
  0
TEXT
  5
30F
330
20
100
AcDbEntity
  8
TEXT
 62
     1
100
AcDbText
 10
148.8064310364446
 20
86.22410504373215
 30
0.0
 40
7.0
  1
1:2
 41
0.8
  7
GREEKS
100
AcDbText
  0
TEXT
  5
310
330
20
100
AcDbEntity
  8
TEXT
100
AcDbText
 10
143.5163572150373
 20
102.4620895087088
 30
0.0
 40
5.0
  1
Maßstab
 41
0.8
  7
GREEKS
100
AcDbText
  0
TEXT
  5
311
330
20
100
AcDbEntity
  8
TEXT
100
AcDbText
 10
137.5836127167611
 20
63.62990369617955
 30
0.0
 40
3.6
  1
Gez.
 41
0.8
  7
GREEKS
100
AcDbText
  0
TEXT
  5
312
330
20
100
AcDbEntity
  8
TEXT
100
AcDbText
 10
138.5426010951826
 20
73.14583683904152
 30
0.0
 40
3.6
  1
2008
 41
0.8
  7
GREEKS
100
AcDbText
  0
TEXT
  5
313
330
20
100
AcDbEntity
  8
TEXT
100
AcDbText
 10
162.3311673153646
 20
73.31880501229921
 30
0.0
 40
3.6
  1
Tag
 41
0.8
  7
GREEKS
100
AcDbText
  0
TEXT
  5
314
330
20
100
AcDbEntity
  8
TEXT
100
AcDbText
 10
161.067231339189
 20
63.40553235359493
 30
0.0
 40
3.6
  1
02.06
 41
0.8
  7
GREEKS
 72
     1
 11
166.7586599106176
 21
63.40553235359493
 31
0.0
100
AcDbText
  0
TEXT
  5
315
330
20
100
AcDbEntity
  8
TEXT
100
AcDbText
 10
192.4626584226292
 20
73.30961091915219
 30
0.0
 40
3.6
  1
Name
 41
0.8
  7
GREEKS
100
AcDbText
  0
TEXT
  5
316
330
20
100
AcDbEntity
  8
TEXT
100
AcDbText
 10
195.1121860477739
 20
63.502532587509
 30
0.0
 40
3.6
  1
Koeh
 41
0.8
  7
GREEKS
 72
     1
 11
199.8436146192025
 21
63.502532587509
 31
0.0
100
AcDbText
  0
TEXT
  5
317
330
20
100
AcDbEntity
  8
TEXT
100
AcDbText
 10
224.8629872542567
 20
72.29651127304101
 30
0.0
 40
5.0
  1
für obere Balkone
 41
0.8
  7
GREEKS
100
AcDbText
  0
TEXT
  5
318
330
20
100
AcDbEntity
  8
TEXT
100
AcDbText
 10
224.8779403809006
 20
102.5489328011779
 30
0.0
 40
5.0
  1
Benennung
 41
0.8
  7
GREEKS
100
AcDbText
  0
TEXT
  5
321
330
20
100
AcDbEntity
  8
TEXT
 62
     1
100
AcDbText
 10
347.9711061509029
 20
87.01863741763578
 30
0.0
 40
7.0
  1
16261100W
 41
0.8
  7
GREEKS
 72
     1
 11
370.371106150903
 21
87.01863741763578
 31
0.0
100
AcDbText
  0
LINE
  5
322
330
20
100
AcDbEntity
  8
VOLL
100
AcDbLine
 10
332.0
 20
60.0
 30
0.0
 11
410.0
 21
60.0
 31
0.0
  0
LINE
  5
323
330
20
100
AcDbEntity
  8
HILF
100
AcDbLine
 10
336.7238616296993
 20
83.77983636955821
 30
0.0
 11
404.8588839326728
 21
83.77983636955821
 31
0.0
  0
TEXT
  5
324
330
20
100
AcDbEntity
  8
TEXT
100
AcDbText
 10
336.178754957634
 20
102.3132034537136
 30
0.0
 40
5.0
  1
Zeichnungs Nr.
 41
0.8
  7
GREEKS
100
AcDbText
  0
TEXT
  5
325
330
20
100
AcDbEntity
  8
TEXT
100
AcDbText
 10
336.7238616296993
 20
73.18118237099963
 30
0.0
 40
5.0
  1
Ersatz für:
 41
0.8
  7
GREEKS
100
AcDbText
  0
LINE
  5
330
330
20
100
AcDbEntity
  8
HILF
100
AcDbLine
 10
420.0
 20
594.0
 30
0.0
 11
0.0
 21
594.0
 31
0.0
  0
LINE
  5
331
330
20
100
AcDbEntity
  8
STEMPEL
100
AcDbLine
 10
410.0
 20
584.0
 30
0.0
 11
40.00000000000051
 21
584.0
 31
0.0
  0
TEXT
  5
3E6
330
20
100
AcDbEntity
  8
TEXT
100
AcDbText
 10
417.3022923857165
 20
10.16790107998861
 30
0.0
 40
4.0
  1
Diese Zeichnung ist urheberrechtlich geschützt und bleibt unser Eigentum. Sie darf weder ganz noch teilweise verfielfältigt und nicht an Dritte weitergegeben werden.
 50
90.0
 41
0.8
  7
GREEKS
100
AcDbText
  0
TEXT
  5
432
330
20
100
AcDbEntity
  8
TEXT
 62
     1
100
AcDbText
 10
213.6193625211975
 20
216.5966887309389
 30
0.0
 40
7.0
  1
DN100
 50
90.0
 41
0.8
  7
GREEKS
100
AcDbText
  0
LINE
  5
863
330
20
100
AcDbEntity
  8
HILF
100
AcDbLine
 10
408.2332916863037
 20
413.7700560028943
 30
0.0
 11
408.2332916863034
 21
407.7700560028943
 31
0.0
  0
LINE
  5
864
330
20
100
AcDbEntity
  8
STEMPEL
100
AcDbLine
 10
404.275772153519
 20
409.7700560028944
 30
0.0
 11
404.275772153519
 21
407.7700560028945
 31
0.0
  0
ARC
  5
865
330
20
100
AcDbEntity
  8
STEMPEL
100
AcDbCircle
 10
330.1546589783888
 20
404.2700560028944
 30
0.0
 40
3.5
100
AcDbArc
 50
90.0
 51
189.9999999999985
  0
POINT
  5
866
330
20
100
AcDbEntity
  8
DEFPOINTS
  6
ByBlock
 62
     0
100
AcDbPoint
 10
326.7078318428462
 20
403.6622873810601
 30
0.0
  0
LINE
  5
867
330
20
100
AcDbEntity
  8
STEMPEL
100
AcDbLine
 10
404.275772153519
 20
407.7700560028945
 30
0.0
 11
330.1546589783888
 21
407.7700560028945
 31
0.0
  0
LINE
  5
868
330
20
100
AcDbEntity
  8
STEMPEL
100
AcDbLine
 10
330.1546589783888
 20
409.7700560028943
 30
0.0
 11
408.2332916863036
 21
409.7700560028944
 31
0.0
  0
LINE
  5
869
330
20
100
AcDbEntity
  8
STEMPEL
100
AcDbLine
 10
326.275772153519
 20
394.5950786758428
 30
0.0
 11
326.275772153519
 21
391.3059543877568
 31
0.0
  0
POINT
  5
86A
330
20
100
AcDbEntity
  8
DEFPOINTS
  6
ByBlock
 62
     0
100
AcDbPoint
 10
328.275772153519
 20
394.7700560028945
 30
0.0
  0
POINT
  5
86B
330
20
100
AcDbEntity
  8
DEFPOINTS
  6
ByBlock
 62
     0
100
AcDbPoint
 10
328.275772153519
 20
394.7700560028945
 30
0.0
  0
POINT
  5
86C
330
20
100
AcDbEntity
  8
DEFPOINTS
  6
ByBlock
 62
     0
100
AcDbPoint
 10
328.275772153519
 20
390.7700560028945
 30
0.0
  0
LINE
  5
86D
330
20
100
AcDbEntity
  8
STEMPEL
100
AcDbLine
 10
328.275772153519
 20
394.7700560028945
 30
0.0
 11
328.275772153519
 21
390.7700560028945
 31
0.0
  0
LINE
  5
86E
330
20
100
AcDbEntity
  8
STEMPEL
100
AcDbLine
 10
326.275772153519
 20
394.5950786758428
 30
0.0
 11
326.275772153519
 21
391.3059543877568
 31
0.0
  0
LINE
  5
86F
330
20
100
AcDbEntity
  8
STEMPEL
100
AcDbLine
 10
328.275772153519
 20
394.7700560028945
 30
0.0
 11
326.7078318428462
 21
403.6622873810601
 31
0.0
  0
LINE
  5
871
102
{ACAD_REACTORS
330
EA8
102
}
330
20
100
AcDbEntity
  8
STEMPEL
100
AcDbLine
 10
309.5757721535192
 20
397.9854463120683
 30
0.0
 11
310.2909317406298
 21
406.1597577975636
 31
0.0
  0
LINE
  5
872
102
{ACAD_REACTORS
330
EA8
102
}
330
20
100
AcDbEntity
  8
STEMPEL
100
AcDbLine
 10
314.2757721535192
 20
405.9854463120682
 30
0.0
 11
312.2757721535192
 21
405.9854463120682
 31
0.0
  0
ARC
  5
873
102
{ACAD_REACTORS
330
EA8
102
}
330
20
100
AcDbEntity
  8
STEMPEL
100
AcDbCircle
 10
312.2833211368134
 20
405.9854463120682
 30
0.0
 40
2.0
100
AcDbArc
 50
90.0
 51
175.0000000000002
  0
ARC
  5
874
102
{ACAD_REACTORS
330
EA8
102
}
330
20
100
AcDbEntity
  8
STEMPEL
100
AcDbCircle
 10
314.2681324784326
 20
405.9854463120682
 30
0.0
 40
2.0
100
AcDbArc
 50
4.999999999999778
 51
90.0
  0
LINE
  5
877
330
20
100
AcDbEntity
  8
TEXT
 62
     2
100
AcDbLine
 10
346.6025175977999
 20
213.3999442069535
 30
0.0
 11
288.767741059052
 21
198.6899663093198
 31
0.0
  0
LINE
  5
87A
102
{ACAD_REACTORS
330
EA8
102
}
330
20
100
AcDbEntity
  8
STEMPEL
100
AcDbLine
 10
168.9757721535189
 20
397.9854463120683
 30
0.0
 11
168.2606125664083
 21
406.1597577975636
 31
0.0
  0
LINE
  5
87B
102
{ACAD_REACTORS
330
EA8
102
}
330
20
100
AcDbEntity
  8
STEMPEL
100
AcDbLine
 10
164.275772153519
 20
405.9854463120682
 30
0.0
 11
166.275772153519
 21
405.9854463120682
 31
0.0
  0
ARC
  5
87C
102
{ACAD_REACTORS
330
EA8
102
}
330
20
100
AcDbEntity
  8
STEMPEL
100
AcDbCircle
 10
164.2834118286055
 20
405.9854463120682
 30
0.0
 40
2.0
100
AcDbArc
 50
90.0
 51
175.0000000000002
  0
ARC
  5
87D
102
{ACAD_REACTORS
330
EA8
102
}
330
20
100
AcDbEntity
  8
STEMPEL
100
AcDbCircle
 10
166.2682231702247
 20
405.9854463120682
 30
0.0
 40
2.0
100
AcDbArc
 50
4.999999999999778
 51
90.0
  0
LINE
  5
87E
102
{ACAD_REACTORS
330
EA8
102
}
330
20
100
AcDbEntity
  8
STEMPEL
100
AcDbLine
 10
168.9757721535191
 20
397.9854463120682
 30
0.0
 11
172.7757721535191
 21
397.9854463120681
 31
0.0
  0
ARC
  5
880
330
20
100
AcDbEntity
  8
STEMPEL
100
AcDbCircle
 10
148.3968853286495
 20
404.2700560028944
 30
0.0
 40
5.5
100
AcDbArc
 50
350.0000000000015
 51
90.0
  0
ARC
  5
881
330
20
100
AcDbEntity
  8
STEMPEL
100
AcDbCircle
 10
148.3968853286492
 20
404.2700560028944
 30
0.0
 40
7.5
100
AcDbArc
 50
350.0000000000015
 51
90.0
  0
ARC
  5
882
330
20
100
AcDbEntity
  8
STEMPEL
100
AcDbCircle
 10
148.3968853286493
 20
404.2700560028944
 30
0.0
 40
5.5
100
AcDbArc
 50
350.0000000000015
 51
90.0
  0
ARC
  5
883
330
20
100
AcDbEntity
  8
STEMPEL
100
AcDbCircle
 10
148.3968853286495
 20
404.2700560028944
 30
0.0
 40
3.5
100
AcDbArc
 50
350.0000000000015
 51
90.0
  0
LINE
  5
885
330
20
100
AcDbEntity
  8
STEMPEL
100
AcDbLine
 10
202.2757721535189
 20
403.2700560028945
 30
0.0
 11
276.275772153519
 21
403.2700560028945
 31
0.0
  0
LINE
  5
886
102
{ACAD_REACTORS
330
EA8
102
}
330
20
100
AcDbEntity
  8
STEMPEL
100
AcDbLine
 10
164.2834118286057
 20
407.9854463120683
 30
0.0
 11
172.775772153519
 21
407.9854463120683
 31
0.0
  0
LINE
  5
888
102
{ACAD_REACTORS
330
EA8
102
}
330
20
100
AcDbEntity
  8
STEMPEL
100
AcDbLine
 10
305.6484088762963
 20
388.7700560028944
 30
0.0
 11
306.9090605209757
 21
395.9195667562356
 31
0.0
  0
LINE
  5
88B
102
{ACAD_REACTORS
330
EA8
102
}
330
20
100
AcDbEntity
  8
STEMPEL
100
AcDbLine
 10
324.275772153519
 20
391.841852772619
 30
0.0
 11
317.4304726918986
 21
379.9854463120683
 31
0.0
  0
ARC
  5
88C
330
20
100
AcDbEntity
  8
STEMPEL
100
AcDbCircle
 10
313.8420154237786
 20
381.7700560028945
 30
0.0
 40
8.0
100
AcDbArc
 50
270.0
 51
330.0000000000001
  0
ARC
  5
88D
330
20
100
AcDbEntity
  8
STEMPEL
100
AcDbCircle
 10
313.8420154237786
 20
381.7700560028945
 30
0.0
 40
6.0
100
AcDbArc
 50
270.0
 51
330.0000000000001
  0
ARC
  5
88E
330
20
100
AcDbEntity
  8
STEMPEL
100
AcDbCircle
 10
313.9663710767607
 20
381.9854463120683
 30
0.0
 40
6.0
100
AcDbArc
 50
270.0
 51
330.0000000000001
  0
ARC
  5
88F
102
{ACAD_REACTORS
330
EA8
102
}
330
20
100
AcDbEntity
  8
STEMPEL
100
AcDbCircle
 10
313.9663710767607
 20
381.9854463120683
 30
0.0
 40
4.0
100
AcDbArc
 50
270.0
 51
330.0000000000001
  0
LINE
  5
890
330
20
100
AcDbEntity
  8
STEMPEL
100
AcDbLine
 10
309.775772153519
 20
375.7700560028945
 30
0.0
 11
309.775772153519
 21
373.7700560028945
 31
0.0
  0
LINE
  5
891
102
{ACAD_REACTORS
330
EA8
102
}
330
20
100
AcDbEntity
  8
STEMPEL
100
AcDbLine
 10
314.275772153519
 20
382.9854463120683
 30
0.0
 11
312.275772153519
 21
382.9854463120683
 31
0.0
  0
LINE
  5
892
102
{ACAD_REACTORS
330
EA8
102
}
330
20
100
AcDbEntity
  8
STEMPEL
100
AcDbLine
 10
309.2757721535191
 20
378.9854463120683
 30
0.0
 11
311.0078229610881
 21
377.9854463120683
 31
0.0
  0
LINE
  5
893
330
20
100
AcDbEntity
  8
STEMPEL
100
AcDbLine
 10
309.775772153519
 20
377.9854463120683
 30
0.0
 11
309.775772153519
 21
375.9854463120683
 31
0.0
  0
ARC
  5
894
330
20
100
AcDbEntity
  8
SCHRAFF
100
AcDbCircle
 10
316.4768501452706
 20
374.7046366131147
 30
0.0
 40
3.772009328441325
100
AcDbArc
 50
303.1103608803353
 51
27.61156895383873
  0
POINT
  5
895
330
20
100
AcDbEntity
  8
DEFPOINTS
  6
ByBlock
 62
     0
100
AcDbPoint
 10
317.5803122448101
 20
374.6972109686907
 30
0.0
  0
LINE
  5
896
330
20
100
AcDbEntity
  8
STEMPEL
100
AcDbLine
 10
319.275772153519
 20
373.5143235312934
 30
0.0
 11
316.9349492095964
 21
374.3921321352645
 31
0.0
  0
LINE
  5
897
330
20
100
AcDbEntity
  8
STEMPEL
100
AcDbLine
 10
322.1322877608514
 20
397.0588644492745
 30
0.0
 11
317.0567468705499
 21
397.0588644492745
 31
0.0
  0
ARC
  5
898
102
{ACAD_REACTORS
330
EA8
102
}
330
20
100
AcDbEntity
  8
STEMPEL
100
AcDbCircle
 10
322.1322877608514
 20
395.0588644492745
 30
0.0
 40
2.0
100
AcDbArc
 50
9.999999999998536
 51
171.6697277812999
  0
LWPOLYLINE
  5
899
102
{ACAD_REACTORS
330
EA8
102
}
330
20
100
AcDbEntity
  8
STEMPEL
100
AcDbPolyline
 90
        9
 70
     0
 43
0.0
 10
317.1874282575627
 20
395.5778114319208
 42
0.1502587779360241
 10
317.2872350896006
 20
395.2531933808771
 42
0.1070397744511977
 10
317.6287244722932
 20
394.9280018846069
 42
0.0751977790926574
 10
318.0910871299198
 20
394.7338377545646
 42
0.0619448326460525
 10
318.6941077789194
 20
394.6588419571499
 42
0.0619448326460789
 10
319.297128427919
 20
394.7338377545646
 42
0.0751977790927278
 10
319.7594910855456
 20
394.9280018846069
 42
0.1070397744511998
 10
320.1009804682383
 20
395.2531933808771
 42
0.0472111359453899
 10
320.1533890001012
 20
395.3486224426102
 42
0.1502587779360492
  0
LINE
  5
89A
102
{ACAD_REACTORS
330
EA8
102
}
330
20
100
AcDbEntity
  8
STEMPEL
100
AcDbLine
 10
324.275772153519
 20
394.420101348791
 30
0.0
 11
324.275772153519
 21
391.841852772619
 31
0.0
  0
LINE
  5
89D
102
{ACAD_REACTORS
330
EA8
102
}
330
20
100
AcDbEntity
  8
STEMPEL
100
AcDbLine
 10
305.7757721535192
 20
378.9854463120682
 30
0.0
 11
309.2757721535191
 21
378.9854463120683
 31
0.0
  0
LINE
  5
89F
102
{ACAD_REACTORS
330
EA8
102
}
330
20
100
AcDbEntity
  8
STEMPEL
100
AcDbLine
 10
305.7757721535192
 20
377.9854463120682
 30
0.0
 11
313.9663710767607
 21
377.9854463120683
 31
0.0
  0
ARC
  5
8A1
330
20
100
AcDbEntity
  8
STEMPEL
100
AcDbCircle
 10
331.775772153519
 20
349.8876318958432
 30
0.0
 40
22.5
100
AcDbArc
 50
159.4439547804186
 51
180.0
  0
ARC
  5
8A2
330
20
100
AcDbEntity
  8
STEMPEL
100
AcDbCircle
 10
331.775772153519
 20
349.8876318958432
 30
0.0
 40
20.0
100
AcDbArc
 50
159.4439547804186
 51
180.0
  0
LINE
  5
8A3
330
20
100
AcDbEntity
  8
HILF
100
AcDbLine
 10
307.5853446448328
 20
353.7700560028942
 30
0.0
 11
280.5189534081216
 21
353.7700560028944
 31
0.0
  0
LINE
  5
8A4
330
20
100
AcDbEntity
  8
STEMPEL
100
AcDbLine
 10
316.9349492095964
 20
374.3921321352645
 30
0.0
 11
310.7083656582155
 21
357.7879093315818
 31
0.0
  0
LINE
  5
8A5
330
20
100
AcDbEntity
  8
STEMPEL
100
AcDbLine
 10
319.275772153519
 20
373.5143235312934
 30
0.0
 11
313.0491886021382
 21
356.910100727611
 31
0.0
  0
LINE
  5
8A6
330
20
100
AcDbEntity
  8
STEMPEL
100
AcDbLine
 10
308.822234954055
 20
311.9445346808839
 30
0.0
 11
304.9672989886446
 21
294.1525225328364
 31
0.0
  0
ARC
  5
8A7
330
20
100
AcDbEntity
  8
STEMPEL
100
AcDbCircle
 10
289.275772153519
 20
316.1796016210001
 30
0.0
 40
20.0
100
AcDbArc
 50
347.774877324264
 51
0.0
  0
ARC
  5
8A8
330
20
100
AcDbEntity
  8
STEMPEL
100
AcDbCircle
 10
289.275772153519
 20
316.179601621
 30
0.0
 40
22.5
100
AcDbArc
 50
347.774877324264
 51
0.0
  0
LINE
  5
8A9
330
20
100
AcDbEntity
  8
HILF
100
AcDbLine
 10
280.5189534081216
 20
313.7700560028944
 30
0.0
 11
307.113767834488
 21
313.7700560028944
 31
0.0
  0
LINE
  5
8AA
330
20
100
AcDbEntity
  8
STEMPEL
100
AcDbLine
 10
290.275772153519
 20
283.7700560028945
 30
0.0
 11
295.1940675883767
 21
283.7700560028945
 31
0.0
  0
ARC
  5
8AB
330
20
100
AcDbEntity
  8
SCHRAFF
100
AcDbCircle
 10
290.2757721535191
 20
283.7700560028943
 30
0.0
 40
3.0
100
AcDbArc
 50
270.0
 51
0.0
  0
LINE
  5
8AC
330
20
100
AcDbEntity
  8
STEMPEL
100
AcDbLine
 10
280.5189534081216
 20
286.2700560028944
 30
0.0
 11
295.1940675883767
 21
286.2700560028945
 31
0.0
  0
ARC
  5
8AD
330
20
100
AcDbEntity
  8
STEMPEL
100
AcDbCircle
 10
295.1940675883767
 20
296.2700560028945
 30
0.0
 40
12.5
100
AcDbArc
 50
270.0
 51
347.774877324264
  0
LINE
  5
8AE
330
20
100
AcDbEntity
  8
STEMPEL
100
AcDbLine
 10
311.265542804122
 20
311.4151513133693
 30
0.0
 11
307.4106068387117
 21
293.6231391653219
 31
0.0
  0
ARC
  5
8AF
330
20
100
AcDbEntity
  8
STEMPEL
100
AcDbCircle
 10
295.1940675883767
 20
296.2700560028943
 30
0.0
 40
10.0
100
AcDbArc
 50
270.0
 51
347.774877324264
  0
LINE
  5
8B0
330
20
100
AcDbEntity
  8
STEMPEL
100
AcDbLine
 10
280.5189534081216
 20
286.2700560028944
 30
0.0
 11
280.5189534081216
 21
376.2700560028945
 31
0.0
  0
LINE
  5
8B1
330
20
100
AcDbEntity
  8
STEMPEL
100
AcDbLine
 10
309.275772153519
 20
349.8876318958432
 30
0.0
 11
309.275772153519
 21
316.1796016210001
 31
0.0
  0
LINE
  5
8B2
330
20
100
AcDbEntity
  8
STEMPEL
100
AcDbLine
 10
311.775772153519
 20
349.8876318958432
 30
0.0
 11
311.775772153519
 21
316.179601621
 31
0.0
  0
ARC
  5
8B3
330
20
100
AcDbEntity
  8
STEMPEL
100
AcDbCircle
 10
164.7095288832598
 20
381.7700560028945
 30
0.0
 40
6.0
100
AcDbArc
 50
210.0
 51
270.0
  0
ARC
  5
8B4
330
20
100
AcDbEntity
  8
STEMPEL
100
AcDbCircle
 10
164.7095288832598
 20
381.7700560028945
 30
0.0
 40
8.0
100
AcDbArc
 50
210.0
 51
270.0
  0
LINE
  5
8B5
330
20
100
AcDbEntity
  8
STEMPEL
100
AcDbLine
 10
159.2757721535191
 20
373.5143235312934
 30
0.0
 11
161.6165950974417
 21
374.3921321352645
 31
0.0
  0
LINE
  5
8B6
330
20
100
AcDbEntity
  8
STEMPEL
100
AcDbLine
 10
156.4192565461867
 20
397.0588644492745
 30
0.0
 11
161.4947974364883
 21
397.0588644492745
 31
0.0
  0
ARC
  5
8B7
330
20
100
AcDbEntity
  8
STEMPEL
100
AcDbCircle
 10
164.5851732302774
 20
381.9854463120683
 30
0.0
 40
6.0
100
AcDbArc
 50
210.0
 51
270.0
  0
LINE
  5
8B8
102
{ACAD_REACTORS
330
EA8
102
}
330
20
100
AcDbEntity
  8
STEMPEL
100
AcDbLine
 10
154.275772153519
 20
391.841852772619
 30
0.0
 11
161.1210716151396
 21
379.9854463120683
 31
0.0
  0
LWPOLYLINE
  5
8B9
102
{ACAD_REACTORS
330
EA8
102
}
330
20
100
AcDbEntity
  8
STEMPEL
100
AcDbPolyline
 90
        9
 70
     0
 43
0.0
 10
161.3641160494754
 20
395.5778114319208
 42
-0.1502587779360241
 10
161.2643092174376
 20
395.2531933808771
 42
-0.1070397744511977
 10
160.922819834745
 20
394.9280018846069
 42
-0.0751977790926574
 10
160.4604571771184
 20
394.7338377545646
 42
-0.0619448326460525
 10
159.8574365281188
 20
394.6588419571499
 42
-0.0619448326460789
 10
159.2544158791191
 20
394.7338377545646
 42
-0.0751977790927278
 10
158.7920532214925
 20
394.9280018846069
 42
-0.1070397744511998
 10
158.4505638387999
 20
395.2531933808771
 42
-0.0472111359453899
 10
158.3981553069368
 20
395.3486224426102
 42
-0.1502587779360492
  0
LINE
  5
8BA
330
20
100
AcDbEntity
  8
STEMPEL
100
AcDbLine
 10
152.2757721535191
 20
391.3059543877568
 30
0.0
 11
159.5133764605531
 21
378.7700560028945
 31
0.0
  0
ARC
  5
8BB
330
20
100
AcDbEntity
  8
SCHRAFF
100
AcDbCircle
 10
162.0746941617677
 20
374.7046366131147
 30
0.0
 40
3.772009328441325
100
AcDbArc
 50
152.3884310461612
 51
236.8896391196647
  0
POINT
  5
8BC
330
20
100
AcDbEntity
  8
DEFPOINTS
  6
ByBlock
 62
     0
100
AcDbPoint
 10
160.2629552737561
 20
375.1196437498638
 30
0.0
  0
LINE
  5
8BD
330
20
100
AcDbEntity
  8
STEMPEL
100
AcDbLine
 10
152.2757721535191
 20
394.5950786758428
 30
0.0
 11
152.2757721535191
 21
391.3059543877568
 31
0.0
  0
LINE
  5
8BE
330
20
100
AcDbEntity
  8
STEMPEL
100
AcDbLine
 10
152.275772153519
 20
394.5950786758428
 30
0.0
 11
152.275772153519
 21
391.3059543877568
 31
0.0
  0
ARC
  5
8BF
102
{ACAD_REACTORS
330
EA8
102
}
330
20
100
AcDbEntity
  8
STEMPEL
100
AcDbCircle
 10
156.4192565461867
 20
395.0588644492745
 30
0.0
 40
2.0
100
AcDbArc
 50
8.330272218700125
 51
170.0000000000014
  0
LINE
  5
8C0
102
{ACAD_REACTORS
330
EA8
102
}
330
20
100
AcDbEntity
  8
STEMPEL
100
AcDbLine
 10
154.275772153519
 20
394.420101348791
 30
0.0
 11
154.275772153519
 21
391.841852772619
 31
0.0
  0
LINE
  5
8C1
102
{ACAD_REACTORS
330
EA8
102
}
330
20
100
AcDbEntity
  8
STEMPEL
100
AcDbLine
 10
172.9031354307418
 20
388.7700560028944
 30
0.0
 11
171.6424837860625
 21
395.9195667562356
 31
0.0
  0
LINE
  5
8C2
102
{ACAD_REACTORS
330
EA8
102
}
330
20
100
AcDbEntity
  8
STEMPEL
100
AcDbLine
 10
169.275772153519
 20
378.9854463120683
 30
0.0
 11
167.5437213459499
 21
377.9854463120683
 31
0.0
  0
LINE
  5
8C3
330
20
100
AcDbEntity
  8
STEMPEL
100
AcDbLine
 10
168.7757721535191
 20
375.7700560028943
 30
0.0
 11
168.7757721535191
 21
373.7700560028943
 31
0.0
  0
POINT
  5
8C4
330
20
100
AcDbEntity
  8
DEFPOINTS
  6
ByBlock
 62
     0
100
AcDbPoint
 10
164.7095288832598
 20
373.7700560028943
 30
0.0
  0
POINT
  5
8C5
330
20
100
AcDbEntity
  8
DEFPOINTS
  6
ByBlock
 62
     0
100
AcDbPoint
 10
160.971232062228
 20
374.6972109686907
 30
0.0
  0
LINE
  5
8C6
102
{ACAD_REACTORS
330
EA8
102
}
330
20
100
AcDbEntity
  8
STEMPEL
100
AcDbLine
 10
164.275772153519
 20
382.9854463120683
 30
0.0
 11
166.275772153519
 21
382.9854463120683
 31
0.0
  0
ARC
  5
8C7
102
{ACAD_REACTORS
330
EA8
102
}
330
20
100
AcDbEntity
  8
STEMPEL
100
AcDbCircle
 10
164.5851732302774
 20
381.9854463120683
 30
0.0
 40
4.0
100
AcDbArc
 50
210.0
 51
270.0
  0
LINE
  5
8C8
330
20
100
AcDbEntity
  8
STEMPEL
100
AcDbLine
 10
168.775772153519
 20
377.9854463120683
 30
0.0
 11
168.775772153519
 21
375.9854463120683
 31
0.0
  0
LINE
  5
8CB
330
20
100
AcDbEntity
  8
STEMPEL
100
AcDbLine
 10
164.7095288832598
 20
373.7700560028943
 30
0.0
 11
173.2757721535191
 21
373.7700560028943
 31
0.0
  0
LINE
  5
8CC
330
20
100
AcDbEntity
  8
STEMPEL
100
AcDbLine
 10
164.7095288832598
 20
375.7700560028943
 30
0.0
 11
173.2757721535191
 21
375.7700560028943
 31
0.0
  0
LINE
  5
8CD
330
20
100
AcDbEntity
  8
STEMPEL
100
AcDbLine
 10
164.5851732302774
 20
375.9854463120683
 30
0.0
 11
173.2757721535191
 21
375.9854463120683
 31
0.0
  0
LINE
  5
8CF
102
{ACAD_REACTORS
330
EA8
102
}
330
20
100
AcDbEntity
  8
STEMPEL
100
AcDbLine
 10
169.275772153519
 20
378.9854463120683
 30
0.0
 11
172.7757721535191
 21
378.9854463120683
 31
0.0
  0
LINE
  5
8D0
102
{ACAD_REACTORS
330
EA8
102
}
330
20
100
AcDbEntity
  8
STEMPEL
100
AcDbLine
 10
164.5851732302774
 20
377.9854463120683
 30
0.0
 11
172.7757721535191
 21
377.9854463120683
 31
0.0
  0
ARC
  5
8D1
330
20
100
AcDbEntity
  8
STEMPEL
100
AcDbCircle
 10
146.7757721535191
 20
349.8876318958432
 30
0.0
 40
22.5
100
AcDbArc
 50
0.0
 51
20.55604521958132
  0
ARC
  5
8D2
330
20
100
AcDbEntity
  8
STEMPEL
100
AcDbCircle
 10
146.7757721535191
 20
349.8876318958432
 30
0.0
 40
20.0
100
AcDbArc
 50
0.0
 51
20.55604521958132
  0
LINE
  5
8D3
330
20
100
AcDbEntity
  8
HILF
100
AcDbLine
 10
198.0325908989166
 20
353.7700560028945
 30
0.0
 11
170.966199662205
 21
353.7700560028945
 31
0.0
  0
LINE
  5
8D4
330
20
100
AcDbEntity
  8
STEMPEL
100
AcDbLine
 10
159.2757721535191
 20
373.5143235312934
 30
0.0
 11
165.5023557048999
 21
356.910100727611
 31
0.0
  0
LINE
  5
8D5
330
20
100
AcDbEntity
  8
STEMPEL
100
AcDbLine
 10
161.6165950974417
 20
374.3921321352645
 30
0.0
 11
167.8431786488225
 21
357.7879093315818
 31
0.0
  0
LINE
  5
8D6
330
20
100
AcDbEntity
  8
STEMPEL
100
AcDbLine
 10
150.2757721535191
 20
394.7700560028945
 30
0.0
 11
150.2757721535191
 21
390.7700560028945
 31
0.0
  0
LINE
  5
8D7
330
20
100
AcDbEntity
  8
STEMPEL
100
AcDbLine
 10
150.2757721535191
 20
390.7700560028945
 30
0.0
 11
157.7813256529842
 21
377.7700560028945
 31
0.0
  0
LINE
  5
8D8
330
20
100
AcDbEntity
  8
STEMPEL
100
AcDbLine
 10
169.7293093529831
 20
311.9445346808837
 30
0.0
 11
173.5842453183934
 21
294.1525225328362
 31
0.0
  0
ARC
  5
8D9
330
20
100
AcDbEntity
  8
STEMPEL
100
AcDbCircle
 10
189.2757721535191
 20
316.179601621
 30
0.0
 40
22.5
100
AcDbArc
 50
180.0
 51
192.225122675736
  0
ARC
  5
8DA
330
20
100
AcDbEntity
  8
STEMPEL
100
AcDbCircle
 10
189.2757721535191
 20
316.1796016209999
 30
0.0
 40
20.0
100
AcDbArc
 50
180.0
 51
192.225122675736
  0
LINE
  5
8DB
330
20
100
AcDbEntity
  8
HILF
100
AcDbLine
 10
171.4377764725501
 20
313.7700560028942
 30
0.0
 11
198.0325908989166
 21
313.7700560028942
 31
0.0
  0
LINE
  5
8DC
330
20
100
AcDbEntity
  8
STEMPEL
100
AcDbLine
 10
183.3574767186614
 20
286.2700560028942
 30
0.0
 11
198.0325908989166
 21
286.2700560028942
 31
0.0
  0
LINE
  5
8DD
330
20
100
AcDbEntity
  8
STEMPEL
100
AcDbLine
 10
183.3574767186614
 20
283.7700560028943
 30
0.0
 11
188.275772153519
 21
283.7700560028943
 31
0.0
  0
ARC
  5
8DE
330
20
100
AcDbEntity
  8
SCHRAFF
100
AcDbCircle
 10
188.275772153519
 20
283.7700560028943
 30
0.0
 40
3.0
100
AcDbArc
 50
180.0
 51
270.0
  0
ARC
  5
8DF
330
20
100
AcDbEntity
  8
STEMPEL
100
AcDbCircle
 10
183.3574767186614
 20
296.2700560028941
 30
0.0
 40
12.5
100
AcDbArc
 50
192.225122675736
 51
270.0
  0
ARC
  5
8E0
330
20
100
AcDbEntity
  8
STEMPEL
100
AcDbCircle
 10
183.3574767186613
 20
296.2700560028943
 30
0.0
 40
10.0
100
AcDbArc
 50
192.225122675736
 51
270.0
  0
LINE
  5
8E1
330
20
100
AcDbEntity
  8
STEMPEL
100
AcDbLine
 10
167.2860015029162
 20
311.4151513133693
 30
0.0
 11
171.1409374683264
 21
293.6231391653217
 31
0.0
  0
LINE
  5
8E2
330
20
100
AcDbEntity
  8
STEMPEL
100
AcDbLine
 10
198.0325908989166
 20
286.2700560028944
 30
0.0
 11
198.0325908989166
 21
376.2700560028945
 31
0.0
  0
LINE
  5
8E3
330
20
100
AcDbEntity
  8
STEMPEL
100
AcDbLine
 10
166.7757721535191
 20
349.8876318958432
 30
0.0
 11
166.7757721535191
 21
316.179601621
 31
0.0
  0
LINE
  5
8E4
330
20
100
AcDbEntity
  8
STEMPEL
100
AcDbLine
 10
169.2757721535191
 20
349.8876318958432
 30
0.0
 11
169.2757721535191
 21
316.1796016209999
 31
0.0
  0
INSERT
  5
8E5
330
20
100
AcDbEntity
  8
SCHRAFF
100
AcDbBlockReference
  2
*X5
 10
-7.839491943949724
 20
-169.8938396103701
 30
0.0
1001
ACAD
1000
HATCH
1002
{
1070
    16
1000
_U,I
1040
2.0
1040
2.356194490192344
1070
     0
1002
}
  0
INSERT
  5
8E6
330
20
100
AcDbEntity
  8
SCHRAFF
100
AcDbBlockReference
  2
*X1
 10
-7.839491943949724
 20
-169.8938396103701
 30
0.0
1001
ACAD
1000
HATCH
1002
{
1070
    16
1000
_U,I
1040
0.1
1040
0.7853981633974483
1070
     0
1002
}
  0
INSERT
  5
8E7
330
20
100
AcDbEntity
  8
SCHRAFF
100
AcDbBlockReference
  2
*X2
 10
-7.839491943949724
 20
-169.8938396103701
 30
0.0
1001
ACAD
1000
HATCH
1002
{
1070
    16
1000
_U,I
1040
0.1
1040
0.7853981633974483
1070
     0
1002
}
  0
LINE
  5
8E8
330
20
100
AcDbEntity
  8
HILF
100
AcDbLine
 10
200.7656894059159
 20
392.3729416858646
 30
0.0
 11
277.7858549011221
 21
392.3729416858646
 31
0.0
  0
LINE
  5
8E9
330
20
100
AcDbEntity
  8
HILF
100
AcDbLine
 10
201.4271359025986
 20
396.2700560028945
 30
0.0
 11
277.1244084044395
 21
396.2700560028945
 31
0.0
  0
INSERT
  5
8EA
330
20
100
AcDbEntity
  8
SCHRAFF
100
AcDbBlockReference
  2
*X8
 10
0.0
 20
-72.1953034933556
 30
0.0
1001
ACAD
1000
HATCH
1002
{
1070
    16
1000
_U,I
1040
2.0
1040
2.356194490192344
1070
     0
1002
}
  0
LINE
  5
8EC
330
20
100
AcDbEntity
  8
STEMPEL
100
AcDbLine
 10
152.2757721535191
 20
394.5950786758428
 30
0.0
 11
153.8133279702166
 21
403.3149910257263
 31
0.0
  0
LINE
  5
8ED
330
20
100
AcDbEntity
  8
STEMPEL
100
AcDbLine
 10
152.275772153519
 20
394.5950786758428
 30
0.0
 11
153.8133279702165
 21
403.3149910257263
 31
0.0
  0
LINE
  5
8EE
330
20
100
AcDbEntity
  8
STEMPEL
100
AcDbLine
 10
150.2757721535191
 20
394.7700560028945
 30
0.0
 11
151.8437124641922
 21
403.6622873810601
 31
0.0
  0
LINE
  5
8EF
102
{ACAD_REACTORS
330
EA8
102
}
330
20
100
AcDbEntity
  8
STEMPEL
100
AcDbLine
 10
154.275772153519
 20
394.420101348791
 30
0.0
 11
155.7829434762409
 21
402.9676946703924
 31
0.0
  0
LINE
  5
8F0
102
{ACAD_REACTORS
330
EA8
102
}
330
20
100
AcDbEntity
  8
STEMPEL
100
AcDbLine
 10
166.275772153519
 20
382.9854463120683
 30
0.0
 11
166.275772153519
 21
405.9854463120682
 31
0.0
  0
LINE
  5
8F1
102
{ACAD_REACTORS
330
EA8
102
}
330
20
100
AcDbEntity
  8
STEMPEL
100
AcDbLine
 10
164.275772153519
 20
382.9854463120683
 30
0.0
 11
164.275772153519
 21
405.9854463120682
 31
0.0
  0
LINE
  5
8F2
102
{ACAD_REACTORS
330
EA8
102
}
330
20
100
AcDbEntity
  8
STEMPEL
100
AcDbLine
 10
162.2910224324221
 20
406.1597577975636
 30
0.0
 11
161.3639261507026
 21
395.5629988078137
 31
0.0
  0
ARC
  5
8F3
102
{ACAD_REACTORS
330
EA8
102
}
330
20
100
AcDbEntity
  8
STEMPEL
100
AcDbCircle
 10
169.1804644035319
 20
395.4854463120683
 30
0.0
 40
2.5
100
AcDbArc
 50
9.999999999998536
 51
90.0
  0
LINE
  5
8F4
330
20
100
AcDbEntity
  8
STEMPEL
100
AcDbLine
 10
202.2757721535189
 20
403.2700560028945
 30
0.0
 11
198.0325908989166
 21
376.2700560028945
 31
0.0
  0
ARC
  5
8F5
102
{ACAD_REACTORS
330
EA8
102
}
330
20
100
AcDbEntity
  8
STEMPEL
100
AcDbCircle
 10
309.3710799035063
 20
395.4854463120683
 30
0.0
 40
2.5
100
AcDbArc
 50
90.0
 51
170.0000000000014
  0
LINE
  5
8F7
330
20
100
AcDbEntity
  8
STEMPEL
100
AcDbLine
 10
276.275772153519
 20
403.2700560028945
 30
0.0
 11
280.5189534081216
 21
376.2700560028945
 31
0.0
  0
LINE
  5
8F8
102
{ACAD_REACTORS
330
EA8
102
}
330
20
100
AcDbEntity
  8
STEMPEL
100
AcDbLine
 10
314.275772153519
 20
382.9854463120683
 30
0.0
 11
314.2757721535192
 21
405.9854463120682
 31
0.0
  0
LINE
  5
8F9
102
{ACAD_REACTORS
330
EA8
102
}
330
20
100
AcDbEntity
  8
STEMPEL
100
AcDbLine
 10
312.275772153519
 20
382.9854463120683
 30
0.0
 11
312.2757721535192
 21
405.9854463120682
 31
0.0
  0
LINE
  5
8FA
102
{ACAD_REACTORS
330
EA8
102
}
330
20
100
AcDbEntity
  8
STEMPEL
100
AcDbLine
 10
316.2605218746161
 20
406.1597577975636
 30
0.0
 11
317.1876181563356
 21
395.5629988078137
 31
0.0
  0
LINE
  5
8FB
102
{ACAD_REACTORS
330
EA8
102
}
330
20
100
AcDbEntity
  8
STEMPEL
100
AcDbLine
 10
324.275772153519
 20
394.420101348791
 30
0.0
 11
322.7686008307971
 21
402.9676946703924
 31
0.0
  0
INSERT
  5
8FC
330
20
100
AcDbEntity
  8
SCHRAFF
100
AcDbBlockReference
  2
*X7
 10
0.0
 20
-72.1953034933556
 30
0.0
1001
ACAD
1000
HATCH
1002
{
1070
    16
1000
NET,I
1040
10.0
1040
2.356194490192344
1002
}
  0
ARC
  5
8FD
330
20
100
AcDbEntity
  8
STEMPEL
100
AcDbCircle
 10
330.1546589783888
 20
404.2700560028944
 30
0.0
 40
5.5
100
AcDbArc
 50
90.0
 51
189.9999999999985
  0
ARC
  5
8FE
330
20
100
AcDbEntity
  8
STEMPEL
100
AcDbCircle
 10
330.1546589783888
 20
404.2700560028944
 30
0.0
 40
7.5
100
AcDbArc
 50
90.0
 51
189.9999999999985
  0
ARC
  5
8FF
330
20
100
AcDbEntity
  8
STEMPEL
100
AcDbCircle
 10
330.1546589783888
 20
404.2700560028944
 30
0.0
 40
5.5
100
AcDbArc
 50
90.0
 51
189.9999999999985
  0
LINE
  5
900
330
20
100
AcDbEntity
  8
STEMPEL
100
AcDbLine
 10
328.275772153519
 20
390.7700560028945
 30
0.0
 11
320.7702186540541
 21
377.7700560028945
 31
0.0
  0
LINE
  5
901
330
20
100
AcDbEntity
  8
STEMPEL
100
AcDbLine
 10
326.275772153519
 20
394.5950786758428
 30
0.0
 11
324.7382163368215
 21
403.3149910257263
 31
0.0
  0
LINE
  5
902
330
20
100
AcDbEntity
  8
STEMPEL
100
AcDbLine
 10
326.275772153519
 20
394.5950786758428
 30
0.0
 11
324.7382163368215
 21
403.3149910257263
 31
0.0
  0
LINE
  5
903
330
20
100
AcDbEntity
  8
STEMPEL
100
AcDbLine
 10
326.275772153519
 20
391.3059543877568
 30
0.0
 11
319.0381678464851
 21
378.7700560028945
 31
0.0
  0
LINE
  5
904
330
20
100
AcDbEntity
  8
TEXT
 62
     2
100
AcDbLine
 10
346.6025175977999
 20
316.752712056249
 30
0.0
 11
346.6025175977999
 21
213.3999442069535
 31
0.0
  0
TEXT
  5
907
330
20
100
AcDbEntity
  8
TEXT
 62
     1
100
AcDbText
 10
343.5992749994388
 20
214.77026559351
 30
0.0
 40
7.0
  1
Grundeinheit DN100
 50
90.0
 41
0.8
  7
GREEKS
100
AcDbText
  0
TEXT
  5
908
330
20
100
AcDbEntity
  8
TEXT
 62
     1
100
AcDbText
 10
356.1941124497204
 20
214.77026559351
 30
0.0
 40
7.0
  1
EDV-Art.Nr. 16225.100X
 50
90.0
 41
0.8
  7
GREEKS
100
AcDbText
  0
LINE
  5
909
102
{ACAD_REACTORS
330
E38
102
}
330
20
100
AcDbEntity
  8
STEMPEL
100
AcDbLine
 10
74.27577215351914
 20
409.7700560028944
 30
0.0
 11
74.27577215351914
 21
407.7700560028945
 31
0.0
  0
LINE
  5
90A
330
20
100
AcDbEntity
  8
HILF
100
AcDbLine
 10
49.27577215351902
 20
413.7700560028944
 30
0.0
 11
49.27577215351902
 21
407.7700560028943
 31
0.0
  0
INSERT
  5
90B
330
20
100
AcDbEntity
  8
SCHRAFF
100
AcDbBlockReference
  2
*X4
 10
-7.839491943949724
 20
-169.8938396103701
 30
0.0
1001
ACAD
1000
HATCH
1002
{
1070
    16
1000
_U,I
1040
2.0
1040
0.7853981633974483
1070
     0
1002
}
  0
DIMENSION
  5
90C
330
20
100
AcDbEntity
  8
BEM
100
AcDbDimension
  2
*D9
 10
404.275772153519
 20
428.9138430711311
 30
0.0
 11
239.2757721535191
 21
435.413843071131
 31
0.0
 70
    32
  1
%%c<>
 71
     5
 42
329.9999999999999
  3
Standard
100
AcDbAlignedDimension
 13
74.27577215351914
 23
409.7700560028944
 33
0.0
 14
404.275772153519
 24
409.7700560028944
 34
0.0
100
AcDbRotatedDimension
1001
ACAD
1000
DSTYLE
1002
{
1070
    40
1040
2.0
1070
    41
1040
3.5
1070
    42
1040
1.0
1070
    43
1040
7.0
1070
    44
1040
1.0
1070
    47
1040
0.16
1070
    48
1040
0.16
1070
    73
1070
     0
1070
    74
1070
     0
1070
    77
1070
     1
1070
    78
1070
     8
1070
    79
1070
     2
1070
   140
1040
3.5
1070
   141
1040
1.5
1070
   145
1040
0.2857142857142857
1070
   146
1040
0.5
1070
   147
1040
1.5
1070
   172
1070
     1
1070
   178
1070
     1
1070
   179
1070
     2
1070
   271
1070
     2
1070
   272
1070
     2
1070
   284
1070
     8
1070
   285
1070
     8
1070
   286
1070
     8
1070
   340
1005
32
1002
}
  0
LINE
  5
90D
330
20
100
AcDbEntity
  8
STEMPEL
100
AcDbLine
 10
49.27577215351902
 20
411.7700560028945
 30
0.0
 11
172.775772153519
 21
411.7700560028946
 31
0.0
  0
LINE
  5
90E
330
20
100
AcDbEntity
  8
STEMPEL
100
AcDbLine
 10
74.27577215351914
 20
407.7700560028945
 30
0.0
 11
148.3968853286495
 21
407.7700560028945
 31
0.0
  0
LINE
  5
90F
102
{ACAD_REACTORS
330
E38
102
}
330
20
100
AcDbEntity
  8
STEMPEL
100
AcDbLine
 10
49.27577215351902
 20
409.7700560028943
 30
0.0
 11
148.3968853286493
 21
409.7700560028944
 31
0.0
  0
INSERT
  5
910
330
20
100
AcDbEntity
  8
SCHRAFF
100
AcDbBlockReference
  2
*X6
 10
0.0
 20
-72.1953034933556
 30
0.0
1001
ACAD
1000
HATCH
1002
{
1070
    16
1000
NET,I
1040
10.0
1040
0.7853981633974483
1002
}
  0
DIMENSION
  5
912
330
20
100
AcDbEntity
  8
BEM
100
AcDbDimension
  2
*D10
 10
68.40217844712715
 20
409.7700560028944
 30
0.0
 11
61.90217844712709
 21
346.7700560028943
 31
0.0
 70
    32
 71
     5
 42
126.0000000000003
  3
Standard
100
AcDbAlignedDimension
 13
183.3574767186615
 23
283.7700560028941
 33
0.0
 14
68.40217844712715
 24
409.7700560028944
 34
0.0
 50
90.0
100
AcDbRotatedDimension
1001
ACAD
1000
DSTYLE
1002
{
1070
    40
1040
2.0
1070
    41
1040
3.5
1070
    42
1040
1.0
1070
    43
1040
7.0
1070
    44
1040
1.0
1070
    47
1040
0.16
1070
    48
1040
0.16
1070
    73
1070
     0
1070
    74
1070
     0
1070
    77
1070
     1
1070
    78
1070
     8
1070
    79
1070
     2
1070
   140
1040
3.5
1070
   141
1040
1.5
1070
   145
1040
0.2857142857142857
1070
   146
1040
0.5
1070
   147
1040
1.5
1070
   172
1070
     1
1070
   178
1070
     1
1070
   179
1070
     2
1070
   271
1070
     2
1070
   272
1070
     2
1070
   284
1070
     8
1070
   285
1070
     8
1070
   286
1070
     8
1070
   340
1005
32
1002
}
  0
LINE
  5
913
330
20
100
AcDbEntity
  8
STEMPEL
100
AcDbLine
 10
290.275772153519
 20
171.7700560028943
 30
0.0
 11
289.2259081912079
 21
159.7700560028943
 31
0.0
  0
LINE
  5
914
330
20
100
AcDbEntity
  8
STEMPEL
100
AcDbLine
 10
288.275772153519
 20
171.8573778887124
 30
0.0
 11
287.2182685161212
 21
159.7700560028945
 31
0.0
  0
LINE
  5
915
330
20
100
AcDbEntity
  8
STEMPEL
100
AcDbLine
 10
188.275772153519
 20
171.7700560028943
 30
0.0
 11
189.3256361158301
 21
159.7700560028945
 31
0.0
  0
LINE
  5
916
330
20
100
AcDbEntity
  8
STEMPEL
100
AcDbLine
 10
190.275772153519
 20
171.8573778887117
 30
0.0
 11
191.3332757909168
 21
159.7700560028946
 31
0.0
  0
LINE
  5
917
330
20
100
AcDbEntity
  8
STEMPEL
100
AcDbLine
 10
189.3256361158301
 20
159.7700560028945
 30
0.0
 11
289.2259081912079
 21
159.7700560028943
 31
0.0
  0
LINE
  5
918
330
20
100
AcDbEntity
  8
HILF
100
AcDbLine
 10
190.275772153519
 20
171.7700560028943
 30
0.0
 11
288.275772153519
 21
171.7700560028943
 31
0.0
  0
DIMENSION
  5
919
330
20
100
AcDbEntity
  8
BEM
100
AcDbDimension
  2
*D11
 10
290.275772153519
 20
139.9200496073487
 30
0.0
 11
239.275772153519
 21
146.4200496073487
 31
0.0
 70
    32
  1
%%C<>
 71
     5
 42
102.0
  3
Standard
100
AcDbAlignedDimension
 13
188.275772153519
 23
171.7700560028943
 33
0.0
 14
290.275772153519
 24
171.7700560028943
 34
0.0
100
AcDbRotatedDimension
1001
ACAD
1000
DSTYLE
1002
{
1070
    40
1040
2.0
1070
    41
1040
3.5
1070
    42
1040
1.0
1070
    43
1040
7.0
1070
    44
1040
1.0
1070
    47
1040
0.16
1070
    48
1040
0.16
1070
    73
1070
     0
1070
    74
1070
     0
1070
    77
1070
     1
1070
    78
1070
     8
1070
    79
1070
     2
1070
   140
1040
3.5
1070
   141
1040
1.5
1070
   145
1040
0.2857142857142857
1070
   146
1040
0.5
1070
   147
1040
1.5
1070
   172
1070
     1
1070
   178
1070
     1
1070
   179
1070
     2
1070
   271
1070
     2
1070
   272
1070
     2
1070
   284
1070
     8
1070
   285
1070
     8
1070
   286
1070
     8
1070
   340
1005
32
1002
}
  0
INSERT
  5
91A
330
20
100
AcDbEntity
  8
SCHRAFF
100
AcDbBlockReference
  2
*X3
 10
-7.839491943949724
 20
-169.8938396103701
 30
0.0
1001
ACAD
1000
HATCH
1002
{
1070
    16
1000
_U,I
1040
2.0
1040
0.7853981633974483
1070
     0
1002
}
  0
DIMENSION
  5
91B
330
20
100
AcDbEntity
  8
BEM
100
AcDbDimension
  2
*D12
 10
311.775772153519
 20
123.7342883701596
 30
0.0
 11
239.2757721535191
 21
130.2342883701596
 31
0.0
 70
    32
  1
%%C<>
 71
     5
 42
144.9999999999999
  3
Standard
100
AcDbAlignedDimension
 13
166.7757721535191
 23
316.179601621
 33
0.0
 14
311.775772153519
 24
316.179601621
 34
0.0
100
AcDbRotatedDimension
1001
ACAD
1000
DSTYLE
1002
{
1070
    40
1040
2.0
1070
    41
1040
3.5
1070
    42
1040
1.0
1070
    43
1040
7.0
1070
    44
1040
1.0
1070
    47
1040
0.16
1070
    48
1040
0.16
1070
    73
1070
     0
1070
    74
1070
     0
1070
    77
1070
     1
1070
    78
1070
     8
1070
    79
1070
     2
1070
   140
1040
3.5
1070
   141
1040
1.5
1070
   145
1040
0.2857142857142857
1070
   146
1040
0.5
1070
   147
1040
1.5
1070
   172
1070
     1
1070
   178
1070
     1
1070
   179
1070
     2
1070
   271
1070
     2
1070
   272
1070
     2
1070
   284
1070
     8
1070
   285
1070
     8
1070
   286
1070
     8
1070
   340
1005
32
1002
}
  0
LINE
  5
91C
330
20
100
AcDbEntity
  8
STEMPEL
100
AcDbLine
 10
188.275772153519
 20
286.2700560028945
 30
0.0
 11
188.275772153519
 21
171.7700560028943
 31
0.0
  0
LINE
  5
91D
330
20
100
AcDbEntity
  8
STEMPEL
100
AcDbLine
 10
190.275772153519
 20
286.2700560028945
 30
0.0
 11
190.275772153519
 21
171.8573778887117
 31
0.0
  0
DIMENSION
  5
91E
330
20
100
AcDbEntity
  8
BEM
100
AcDbDimension
  2
*D13
 10
54.28425953797196
 20
409.7700560028944
 30
0.0
 11
47.78425953797188
 21
284.7700560028945
 31
0.0
 70
    32
 71
     5
 42
250.0
  3
Standard
100
AcDbAlignedDimension
 13
189.3256361158301
 23
159.7700560028945
 33
0.0
 14
74.27577215351914
 24
409.7700560028944
 34
0.0
 50
90.0
100
AcDbRotatedDimension
1001
ACAD
1000
DSTYLE
1002
{
1070
    40
1040
2.0
1070
    41
1040
3.5
1070
    42
1040
1.0
1070
    43
1040
7.0
1070
    44
1040
1.0
1070
    47
1040
0.16
1070
    48
1040
0.16
1070
    73
1070
     0
1070
    74
1070
     0
1070
    77
1070
     1
1070
    78
1070
     8
1070
    79
1070
     2
1070
   140
1040
3.5
1070
   141
1040
1.5
1070
   145
1040
0.2857142857142857
1070
   146
1040
0.5
1070
   147
1040
1.5
1070
   172
1070
     1
1070
   178
1070
     1
1070
   179
1070
     2
1070
   271
1070
     2
1070
   272
1070
     2
1070
   284
1070
     8
1070
   285
1070
     8
1070
   286
1070
     8
1070
   340
1005
32
1002
}
  0
LINE
  5
91F
330
20
100
AcDbEntity
  8
STEMPEL
100
AcDbLine
 10
290.275772153519
 20
286.2700560028944
 30
0.0
 11
290.275772153519
 21
171.7700560028943
 31
0.0
  0
LINE
  5
920
330
20
100
AcDbEntity
  8
STEMPEL
100
AcDbLine
 10
288.275772153519
 20
286.2700560028944
 30
0.0
 11
288.275772153519
 21
171.8573778887124
 31
0.0
  0
LINE
  5
921
330
20
100
AcDbEntity
  8
MITTEL
100
AcDbLine
 10
239.2757721535192
 20
514.7700560028945
 30
0.0
 11
239.2757721535192
 21
444.1551180246287
 31
0.0
  0
LINE
  5
C68
102
{ACAD_REACTORS
330
D15
102
}
330
20
100
AcDbEntity
  8
STEMPEL
100
AcDbLine
 10
167.275772153519
 20
509.7700560028946
 30
0.0
 11
167.275772153519
 21
501.7700560028943
 31
0.0
  0
LINE
  5
C69
102
{ACAD_REACTORS
330
D15
330
E65
102
}
330
20
100
AcDbEntity
  8
STEMPEL
100
AcDbLine
 10
164.275772153519
 20
509.7700560028946
 30
0.0
 11
164.275772153519
 21
498.7700560028946
 31
0.0
  0
POINT
  5
C6A
330
20
100
AcDbEntity
  8
STEMPEL
100
AcDbPoint
 10
177.275772153519
 20
501.7700560028946
 30
0.0
  0
LINE
  5
C6B
330
20
100
AcDbEntity
  8
STEMPEL
100
AcDbLine
 10
181.4624334786382
 20
501.7700560028943
 30
0.0
 11
181.4624334786381
 21
505.7700560028946
 31
0.0
  0
LINE
  5
C6C
102
{ACAD_REACTORS
330
D15
330
E65
102
}
330
20
100
AcDbEntity
  8
STEMPEL
100
AcDbLine
 10
172.775772153519
 20
498.7700560028943
 30
0.0
 11
164.275772153519
 21
498.7700560028946
 31
0.0
  0
LINE
  5
C6D
330
20
100
AcDbEntity
  8
MITTEL
100
AcDbLine
 10
185.7124334786382
 20
493.7700560028946
 30
0.0
 11
185.7124334786381
 21
510.7700560028944
 31
0.0
  0
LINE
  5
C6E
330
20
100
AcDbEntity
  8
STEMPEL
100
AcDbLine
 10
189.9624334786381
 20
501.7700560028943
 30
0.0
 11
189.9624334786381
 21
505.7700560028943
 31
0.0
  0
LINE
  5
C6F
330
20
100
AcDbEntity
  8
STEMPEL
100
AcDbLine
 10
189.9624334786381
 20
505.7700560028943
 30
0.0
 11
181.4624334786381
 21
505.7700560028946
 31
0.0
  0
LINE
  5
C70
102
{ACAD_REACTORS
330
D15
102
}
330
20
100
AcDbEntity
  8
STEMPEL
100
AcDbLine
 10
173.2757721535191
 20
481.7700560028943
 30
0.0
 11
172.7757721535191
 21
481.7700560028943
 31
0.0
  0
LINE
  5
C71
102
{ACAD_REACTORS
330
D15
102
}
330
20
100
AcDbEntity
  8
STEMPEL
100
AcDbLine
 10
173.2757721535191
 20
478.7700560028944
 30
0.0
 11
172.7757721535191
 21
478.7700560028944
 31
0.0
  0
LINE
  5
C72
102
{ACAD_REACTORS
330
D15
102
}
330
20
100
AcDbEntity
  8
STEMPEL
100
AcDbLine
 10
173.2757721535191
 20
481.7700560028943
 30
0.0
 11
173.2757721535191
 21
478.7700560028944
 31
0.0
  0
LINE
  5
C73
102
{ACAD_REACTORS
330
D15
102
}
330
20
100
AcDbEntity
  8
STEMPEL
100
AcDbLine
 10
173.2757721535191
 20
466.7700560028944
 30
0.0
 11
173.2757721535191
 21
463.7700560028943
 31
0.0
  0
LINE
  5
C74
102
{ACAD_REACTORS
330
D15
102
}
330
20
100
AcDbEntity
  8
STEMPEL
100
AcDbLine
 10
173.2757721535191
 20
463.7700560028943
 30
0.0
 11
172.7757721535191
 21
463.7700560028943
 31
0.0
  0
LINE
  5
C75
102
{ACAD_REACTORS
330
D15
102
}
330
20
100
AcDbEntity
  8
STEMPEL
100
AcDbLine
 10
173.2757721535191
 20
466.7700560028944
 30
0.0
 11
172.7757721535191
 21
466.7700560028944
 31
0.0
  0
LINE
  5
C76
102
{ACAD_REACTORS
330
D15
102
}
330
20
100
AcDbEntity
  8
STEMPEL
100
AcDbLine
 10
172.775772153519
 20
478.7700560028944
 30
0.0
 11
172.775772153519
 21
466.7700560028943
 31
0.0
  0
LINE
  5
C77
102
{ACAD_REACTORS
330
D15
102
}
330
20
100
AcDbEntity
  8
STEMPEL
100
AcDbLine
 10
173.2757721535191
 20
451.7700560028943
 30
0.0
 11
172.7757721535191
 21
451.7700560028943
 31
0.0
  0
POINT
  5
C78
330
20
100
AcDbEntity
  8
STEMPEL
100
AcDbPoint
 10
176.6582073689824
 20
444.2346054349811
 30
0.0
  0
LINE
  5
C79
102
{ACAD_REACTORS
330
D15
102
}
330
20
100
AcDbEntity
  8
STEMPEL
100
AcDbLine
 10
173.2757721535191
 20
448.7700560028944
 30
0.0
 11
172.7757721535191
 21
448.7700560028943
 31
0.0
  0
LINE
  5
C7A
102
{ACAD_REACTORS
330
D15
102
}
330
20
100
AcDbEntity
  8
STEMPEL
100
AcDbLine
 10
173.2757721535191
 20
451.7700560028943
 30
0.0
 11
173.2757721535191
 21
448.7700560028943
 31
0.0
  0
LINE
  5
C7B
102
{ACAD_REACTORS
330
D15
102
}
330
20
100
AcDbEntity
  8
STEMPEL
100
AcDbLine
 10
172.775772153519
 20
463.7700560028943
 30
0.0
 11
172.775772153519
 21
451.7700560028943
 31
0.0
  0
LINE
  5
C7C
102
{ACAD_REACTORS
330
D15
102
}
330
20
100
AcDbEntity
  8
STEMPEL
100
AcDbLine
 10
173.275772153519
 20
436.7700560028944
 30
0.0
 11
173.2757721535191
 21
433.7700560028943
 31
0.0
  0
LINE
  5
C7D
102
{ACAD_REACTORS
330
D15
102
}
330
20
100
AcDbEntity
  8
STEMPEL
100
AcDbLine
 10
173.275772153519
 20
436.7700560028943
 30
0.0
 11
172.7757721535191
 21
436.7700560028943
 31
0.0
  0
LINE
  5
C7E
102
{ACAD_REACTORS
330
D15
102
}
330
20
100
AcDbEntity
  8
STEMPEL
100
AcDbLine
 10
173.2757721535191
 20
433.7700560028943
 30
0.0
 11
172.7757721535191
 21
433.7700560028943
 31
0.0
  0
LINE
  5
C7F
102
{ACAD_REACTORS
330
D15
102
}
330
20
100
AcDbEntity
  8
STEMPEL
100
AcDbLine
 10
173.2757721535191
 20
421.7700560028943
 30
0.0
 11
173.2757721535191
 21
418.7700560028943
 31
0.0
  0
LINE
  5
C80
102
{ACAD_REACTORS
330
D15
102
}
330
20
100
AcDbEntity
  8
STEMPEL
100
AcDbLine
 10
173.2757721535191
 20
418.7700560028943
 30
0.0
 11
172.7757721535191
 21
418.7700560028943
 31
0.0
  0
LINE
  5
C81
102
{ACAD_REACTORS
330
D15
102
}
330
20
100
AcDbEntity
  8
STEMPEL
100
AcDbLine
 10
173.2757721535191
 20
421.7700560028943
 30
0.0
 11
172.7757721535191
 21
421.7700560028943
 31
0.0
  0
LINE
  5
C82
102
{ACAD_REACTORS
330
D15
102
}
330
20
100
AcDbEntity
  8
STEMPEL
100
AcDbLine
 10
172.775772153519
 20
433.7700560028943
 30
0.0
 11
172.775772153519
 21
421.7700560028943
 31
0.0
  0
LINE
  5
C83
102
{ACAD_REACTORS
330
D15
102
}
330
20
100
AcDbEntity
  8
STEMPEL
100
AcDbLine
 10
173.2757721535191
 20
406.7700560028943
 30
0.0
 11
172.7757721535191
 21
406.7700560028943
 31
0.0
  0
LINE
  5
C84
102
{ACAD_REACTORS
330
D15
102
}
330
20
100
AcDbEntity
  8
STEMPEL
100
AcDbLine
 10
173.2757721535191
 20
403.7700560028943
 30
0.0
 11
172.7757721535191
 21
403.7700560028943
 31
0.0
  0
LINE
  5
C85
102
{ACAD_REACTORS
330
D15
102
}
330
20
100
AcDbEntity
  8
STEMPEL
100
AcDbLine
 10
173.2757721535191
 20
406.7700560028943
 30
0.0
 11
173.2757721535191
 21
403.7700560028943
 31
0.0
  0
LINE
  5
C86
102
{ACAD_REACTORS
330
D15
102
}
330
20
100
AcDbEntity
  8
STEMPEL
100
AcDbLine
 10
172.775772153519
 20
418.7700560028944
 30
0.0
 11
172.775772153519
 21
406.7700560028943
 31
0.0
  0
LINE
  5
C87
102
{ACAD_REACTORS
330
D15
102
}
330
20
100
AcDbEntity
  8
STEMPEL
100
AcDbLine
 10
172.775772153519
 20
448.7700560028944
 30
0.0
 11
172.775772153519
 21
436.7700560028943
 31
0.0
  0
LINE
  5
C88
102
{ACAD_REACTORS
330
D15
102
}
330
20
100
AcDbEntity
  8
STEMPEL
100
AcDbLine
 10
173.2757721535191
 20
391.7700560028944
 30
0.0
 11
173.2757721535191
 21
388.7700560028944
 31
0.0
  0
LINE
  5
C89
102
{ACAD_REACTORS
330
D15
102
}
330
20
100
AcDbEntity
  8
STEMPEL
100
AcDbLine
 10
173.2757721535191
 20
391.7700560028944
 30
0.0
 11
172.7757721535191
 21
391.7700560028944
 31
0.0
  0
LINE
  5
C8A
102
{ACAD_REACTORS
330
D15
330
EA8
102
}
330
20
100
AcDbEntity
  8
STEMPEL
100
AcDbLine
 10
173.2757721535191
 20
388.7700560028944
 30
0.0
 11
172.7757721535191
 21
388.7700560028944
 31
0.0
  0
LINE
  5
C8B
102
{ACAD_REACTORS
330
D15
102
}
330
20
100
AcDbEntity
  8
STEMPEL
100
AcDbLine
 10
173.2757721535191
 20
376.7700560028944
 30
0.0
 11
173.2757721535191
 21
373.7700560028944
 31
0.0
  0
LINE
  5
C8C
102
{ACAD_REACTORS
330
D15
102
}
330
20
100
AcDbEntity
  8
STEMPEL
100
AcDbLine
 10
173.2757721535191
 20
376.7700560028944
 30
0.0
 11
172.7757721535191
 21
376.7700560028944
 31
0.0
  0
LINE
  5
C8D
102
{ACAD_REACTORS
330
D15
102
}
330
20
100
AcDbEntity
  8
STEMPEL
100
AcDbLine
 10
173.2757721535191
 20
373.7700560028944
 30
0.0
 11
172.7757721535191
 21
373.7700560028944
 31
0.0
  0
LINE
  5
C8E
102
{ACAD_REACTORS
330
D15
330
EA8
102
}
330
20
100
AcDbEntity
  8
STEMPEL
100
AcDbLine
 10
172.7757721535191
 20
388.7700560028944
 30
0.0
 11
172.7757721535191
 21
376.7700560028944
 31
0.0
  0
POINT
  5
C8F
330
20
100
AcDbEntity
  8
STEMPEL
100
AcDbPoint
 10
174.6258142842719
 20
359.7700560028944
 30
0.0
  0
LINE
  5
C90
102
{ACAD_REACTORS
330
D15
102
}
330
20
100
AcDbEntity
  8
STEMPEL
100
AcDbLine
 10
172.7757721535191
 20
373.7700560028944
 30
0.0
 11
172.7757721535191
 21
359.7700560028944
 31
0.0
  0
LINE
  5
C91
102
{ACAD_REACTORS
330
D15
102
}
330
20
100
AcDbEntity
  8
STEMPEL
100
AcDbLine
 10
172.775772153519
 20
403.7700560028943
 30
0.0
 11
172.7757721535191
 21
391.7700560028944
 31
0.0
  0
LINE
  5
C92
102
{ACAD_REACTORS
330
D15
102
}
330
20
100
AcDbEntity
  8
STEMPEL
100
AcDbLine
 10
177.275772153519
 20
501.7700560028946
 30
0.0
 11
174.775772153519
 21
359.7700560028944
 31
0.0
  0
LINE
  5
C93
102
{ACAD_REACTORS
330
D15
102
}
330
20
100
AcDbEntity
  8
STEMPEL
100
AcDbLine
 10
172.775772153519
 20
498.7700560028943
 30
0.0
 11
172.775772153519
 21
481.7700560028943
 31
0.0
  0
LINE
  5
C94
102
{ACAD_REACTORS
330
D15
330
E38
102
}
330
20
100
AcDbEntity
  8
STEMPEL
100
AcDbLine
 10
164.275772153519
 20
509.7700560028944
 30
0.0
 11
314.2757721535192
 21
509.7700560028946
 31
0.0
  0
LINE
  5
C95
102
{ACAD_REACTORS
330
D15
102
}
330
20
100
AcDbEntity
  8
STEMPEL
100
AcDbLine
 10
305.7757721535192
 20
498.7700560028943
 30
0.0
 11
305.7757721535192
 21
481.7700560028943
 31
0.0
  0
LINE
  5
C96
102
{ACAD_REACTORS
330
D15
102
}
330
20
100
AcDbEntity
  8
STEMPEL
100
AcDbLine
 10
301.2757721535193
 20
501.7700560028946
 30
0.0
 11
303.7757721535192
 21
359.7700560028944
 31
0.0
  0
LINE
  5
C98
102
{ACAD_REACTORS
330
D15
102
}
330
20
100
AcDbEntity
  8
STEMPEL
100
AcDbLine
 10
172.7757721535191
 20
359.7700560028943
 30
0.0
 11
198.0325908989166
 21
359.7700560028944
 31
0.0
  0
LINE
  5
C99
102
{ACAD_REACTORS
330
D15
102
}
330
20
100
AcDbEntity
  8
STEMPEL
100
AcDbLine
 10
305.7757721535192
 20
403.7700560028943
 30
0.0
 11
305.7757721535192
 21
391.7700560028944
 31
0.0
  0
LINE
  5
C9A
102
{ACAD_REACTORS
330
D15
102
}
330
20
100
AcDbEntity
  8
STEMPEL
100
AcDbLine
 10
305.7757721535192
 20
373.7700560028944
 30
0.0
 11
305.7757721535192
 21
359.7700560028944
 31
0.0
  0
POINT
  5
C9B
330
20
100
AcDbEntity
  8
STEMPEL
100
AcDbPoint
 10
303.9257300227664
 20
359.7700560028944
 30
0.0
  0
LINE
  5
C9C
102
{ACAD_REACTORS
330
D15
330
EA8
102
}
330
20
100
AcDbEntity
  8
STEMPEL
100
AcDbLine
 10
305.7757721535192
 20
388.7700560028944
 30
0.0
 11
305.7757721535192
 21
376.7700560028944
 31
0.0
  0
LINE
  5
C9D
102
{ACAD_REACTORS
330
D15
102
}
330
20
100
AcDbEntity
  8
STEMPEL
100
AcDbLine
 10
305.2757721535191
 20
373.7700560028944
 30
0.0
 11
305.7757721535192
 21
373.7700560028944
 31
0.0
  0
LINE
  5
C9E
102
{ACAD_REACTORS
330
D15
102
}
330
20
100
AcDbEntity
  8
STEMPEL
100
AcDbLine
 10
305.2757721535191
 20
376.7700560028944
 30
0.0
 11
305.7757721535192
 21
376.7700560028944
 31
0.0
  0
LINE
  5
C9F
102
{ACAD_REACTORS
330
D15
102
}
330
20
100
AcDbEntity
  8
STEMPEL
100
AcDbLine
 10
305.2757721535191
 20
376.7700560028944
 30
0.0
 11
305.2757721535191
 21
373.7700560028944
 31
0.0
  0
LINE
  5
CA0
102
{ACAD_REACTORS
330
D15
330
EA8
102
}
330
20
100
AcDbEntity
  8
STEMPEL
100
AcDbLine
 10
305.2757721535191
 20
388.7700560028944
 30
0.0
 11
305.7757721535192
 21
388.7700560028944
 31
0.0
  0
LINE
  5
CA1
102
{ACAD_REACTORS
330
D15
102
}
330
20
100
AcDbEntity
  8
STEMPEL
100
AcDbLine
 10
305.2757721535191
 20
391.7700560028944
 30
0.0
 11
305.7757721535192
 21
391.7700560028944
 31
0.0
  0
LINE
  5
CA2
102
{ACAD_REACTORS
330
D15
102
}
330
20
100
AcDbEntity
  8
STEMPEL
100
AcDbLine
 10
305.2757721535191
 20
391.7700560028944
 30
0.0
 11
305.2757721535191
 21
388.7700560028944
 31
0.0
  0
LINE
  5
CA3
102
{ACAD_REACTORS
330
D15
102
}
330
20
100
AcDbEntity
  8
STEMPEL
100
AcDbLine
 10
305.7757721535192
 20
448.7700560028944
 30
0.0
 11
305.7757721535192
 21
436.7700560028943
 31
0.0
  0
LINE
  5
CA4
102
{ACAD_REACTORS
330
D15
102
}
330
20
100
AcDbEntity
  8
STEMPEL
100
AcDbLine
 10
305.7757721535192
 20
418.7700560028944
 30
0.0
 11
305.7757721535192
 21
406.7700560028943
 31
0.0
  0
LINE
  5
CA5
102
{ACAD_REACTORS
330
D15
102
}
330
20
100
AcDbEntity
  8
STEMPEL
100
AcDbLine
 10
305.2757721535191
 20
406.7700560028943
 30
0.0
 11
305.2757721535191
 21
403.7700560028943
 31
0.0
  0
LINE
  5
CA6
102
{ACAD_REACTORS
330
D15
102
}
330
20
100
AcDbEntity
  8
STEMPEL
100
AcDbLine
 10
305.2757721535191
 20
403.7700560028943
 30
0.0
 11
305.7757721535192
 21
403.7700560028943
 31
0.0
  0
LINE
  5
CA7
102
{ACAD_REACTORS
330
D15
102
}
330
20
100
AcDbEntity
  8
STEMPEL
100
AcDbLine
 10
305.2757721535191
 20
406.7700560028943
 30
0.0
 11
305.7757721535192
 21
406.7700560028943
 31
0.0
  0
LINE
  5
CA8
102
{ACAD_REACTORS
330
D15
102
}
330
20
100
AcDbEntity
  8
STEMPEL
100
AcDbLine
 10
305.7757721535192
 20
433.7700560028943
 30
0.0
 11
305.7757721535192
 21
421.7700560028943
 31
0.0
  0
LINE
  5
CA9
102
{ACAD_REACTORS
330
D15
102
}
330
20
100
AcDbEntity
  8
STEMPEL
100
AcDbLine
 10
305.2757721535191
 20
421.7700560028943
 30
0.0
 11
305.7757721535192
 21
421.7700560028943
 31
0.0
  0
LINE
  5
CAA
102
{ACAD_REACTORS
330
D15
102
}
330
20
100
AcDbEntity
  8
STEMPEL
100
AcDbLine
 10
305.2757721535191
 20
418.7700560028943
 30
0.0
 11
305.7757721535192
 21
418.7700560028943
 31
0.0
  0
LINE
  5
CAB
102
{ACAD_REACTORS
330
D15
102
}
330
20
100
AcDbEntity
  8
STEMPEL
100
AcDbLine
 10
305.2757721535191
 20
421.7700560028943
 30
0.0
 11
305.2757721535191
 21
418.7700560028943
 31
0.0
  0
LINE
  5
CAC
102
{ACAD_REACTORS
330
D15
102
}
330
20
100
AcDbEntity
  8
STEMPEL
100
AcDbLine
 10
305.2757721535191
 20
433.7700560028943
 30
0.0
 11
305.7757721535192
 21
433.7700560028943
 31
0.0
  0
LINE
  5
CAD
102
{ACAD_REACTORS
330
D15
102
}
330
20
100
AcDbEntity
  8
STEMPEL
100
AcDbLine
 10
305.2757721535193
 20
436.7700560028943
 30
0.0
 11
305.7757721535192
 21
436.7700560028943
 31
0.0
  0
LINE
  5
CAE
102
{ACAD_REACTORS
330
D15
102
}
330
20
100
AcDbEntity
  8
STEMPEL
100
AcDbLine
 10
305.2757721535193
 20
436.7700560028944
 30
0.0
 11
305.2757721535191
 21
433.7700560028943
 31
0.0
  0
LINE
  5
CAF
102
{ACAD_REACTORS
330
D15
102
}
330
20
100
AcDbEntity
  8
STEMPEL
100
AcDbLine
 10
305.7757721535192
 20
463.7700560028943
 30
0.0
 11
305.7757721535192
 21
451.7700560028943
 31
0.0
  0
LINE
  5
CB0
102
{ACAD_REACTORS
330
D15
102
}
330
20
100
AcDbEntity
  8
STEMPEL
100
AcDbLine
 10
305.2757721535191
 20
451.7700560028943
 30
0.0
 11
305.2757721535191
 21
448.7700560028943
 31
0.0
  0
LINE
  5
CB1
102
{ACAD_REACTORS
330
D15
102
}
330
20
100
AcDbEntity
  8
STEMPEL
100
AcDbLine
 10
305.2757721535191
 20
448.7700560028944
 30
0.0
 11
305.7757721535192
 21
448.7700560028943
 31
0.0
  0
POINT
  5
CB2
330
20
100
AcDbEntity
  8
STEMPEL
100
AcDbPoint
 10
301.8933369380559
 20
444.2346054349811
 30
0.0
  0
LINE
  5
CB3
102
{ACAD_REACTORS
330
D15
102
}
330
20
100
AcDbEntity
  8
STEMPEL
100
AcDbLine
 10
305.2757721535191
 20
451.7700560028943
 30
0.0
 11
305.7757721535192
 21
451.7700560028943
 31
0.0
  0
LINE
  5
CB4
102
{ACAD_REACTORS
330
D15
102
}
330
20
100
AcDbEntity
  8
STEMPEL
100
AcDbLine
 10
305.7757721535192
 20
478.7700560028944
 30
0.0
 11
305.7757721535192
 21
466.7700560028943
 31
0.0
  0
LINE
  5
CB5
102
{ACAD_REACTORS
330
D15
102
}
330
20
100
AcDbEntity
  8
STEMPEL
100
AcDbLine
 10
305.2757721535191
 20
466.7700560028944
 30
0.0
 11
305.7757721535192
 21
466.7700560028944
 31
0.0
  0
LINE
  5
CB6
102
{ACAD_REACTORS
330
D15
102
}
330
20
100
AcDbEntity
  8
STEMPEL
100
AcDbLine
 10
305.2757721535191
 20
463.7700560028943
 30
0.0
 11
305.7757721535192
 21
463.7700560028943
 31
0.0
  0
LINE
  5
CB7
102
{ACAD_REACTORS
330
D15
102
}
330
20
100
AcDbEntity
  8
STEMPEL
100
AcDbLine
 10
305.2757721535191
 20
466.7700560028944
 30
0.0
 11
305.2757721535191
 21
463.7700560028943
 31
0.0
  0
LINE
  5
CB8
102
{ACAD_REACTORS
330
D15
102
}
330
20
100
AcDbEntity
  8
STEMPEL
100
AcDbLine
 10
305.2757721535191
 20
481.7700560028943
 30
0.0
 11
305.2757721535191
 21
478.7700560028944
 31
0.0
  0
LINE
  5
CB9
102
{ACAD_REACTORS
330
D15
102
}
330
20
100
AcDbEntity
  8
STEMPEL
100
AcDbLine
 10
305.2757721535191
 20
478.7700560028944
 30
0.0
 11
305.7757721535192
 21
478.7700560028944
 31
0.0
  0
LINE
  5
CBA
102
{ACAD_REACTORS
330
D15
102
}
330
20
100
AcDbEntity
  8
STEMPEL
100
AcDbLine
 10
305.2757721535191
 20
481.7700560028943
 30
0.0
 11
305.7757721535192
 21
481.7700560028943
 31
0.0
  0
LINE
  5
CBB
330
20
100
AcDbEntity
  8
STEMPEL
100
AcDbLine
 10
288.5891108284002
 20
505.7700560028943
 30
0.0
 11
297.0891108284002
 21
505.7700560028946
 31
0.0
  0
LINE
  5
CBC
102
{ACAD_REACTORS
330
D15
102
}
330
20
100
AcDbEntity
  8
STEMPEL
100
AcDbLine
 10
167.275772153519
 20
501.7700560028943
 30
0.0
 11
311.2757721535193
 21
501.7700560028946
 31
0.0
  0
LINE
  5
CBD
330
20
100
AcDbEntity
  8
STEMPEL
100
AcDbLine
 10
288.5891108284002
 20
501.7700560028943
 30
0.0
 11
288.5891108284002
 21
505.7700560028943
 31
0.0
  0
LINE
  5
CBE
330
20
100
AcDbEntity
  8
MITTEL
100
AcDbLine
 10
292.8391108284001
 20
493.7700560028946
 30
0.0
 11
292.8391108284002
 21
510.7700560028944
 31
0.0
  0
LINE
  5
CBF
102
{ACAD_REACTORS
330
D15
102
}
330
20
100
AcDbEntity
  8
STEMPEL
100
AcDbLine
 10
305.7757721535192
 20
498.7700560028943
 30
0.0
 11
314.2757721535192
 21
498.7700560028946
 31
0.0
  0
LINE
  5
CC0
330
20
100
AcDbEntity
  8
STEMPEL
100
AcDbLine
 10
297.0891108284001
 20
501.7700560028943
 30
0.0
 11
297.0891108284002
 21
505.7700560028946
 31
0.0
  0
POINT
  5
CC1
330
20
100
AcDbEntity
  8
STEMPEL
100
AcDbPoint
 10
301.2757721535193
 20
501.7700560028946
 30
0.0
  0
LINE
  5
CC2
102
{ACAD_REACTORS
330
D15
102
}
330
20
100
AcDbEntity
  8
STEMPEL
100
AcDbLine
 10
314.2757721535192
 20
509.7700560028946
 30
0.0
 11
314.2757721535192
 21
498.7700560028946
 31
0.0
  0
LINE
  5
CC3
102
{ACAD_REACTORS
330
D15
102
}
330
20
100
AcDbEntity
  8
STEMPEL
100
AcDbLine
 10
311.2757721535193
 20
509.7700560028946
 30
0.0
 11
311.2757721535193
 21
501.7700560028946
 31
0.0
  0
HATCH
  5
D15
330
20
100
AcDbEntity
  8
SCHRAFF
100
AcDbHatch
 10
0.0
 20
0.0
 30
0.0
210
0.0
220
0.0
230
1.0
  2
NET
 70
     0
 71
     1
 91
        2
 92
        7
 72
     0
 73
     1
 93
       40
 10
303.7757721535193
 20
359.7700560028944
 10
305.7757721535192
 20
359.7700560028943
 10
305.7757721535192
 20
373.7700560028943
 10
305.2757721535191
 20
373.7700560028944
 10
305.2757721535191
 20
376.7700560028944
 10
305.7757721535192
 20
376.7700560028944
 10
305.7757721535192
 20
388.7700560028944
 10
305.2757721535191
 20
388.7700560028944
 10
305.2757721535191
 20
391.7700560028944
 10
305.7757721535192
 20
391.7700560028944
 10
305.7757721535192
 20
403.7700560028943
 10
305.2757721535191
 20
403.7700560028943
 10
305.2757721535191
 20
406.7700560028943
 10
305.7757721535192
 20
406.7700560028943
 10
305.7757721535192
 20
418.7700560028943
 10
305.2757721535191
 20
418.7700560028943
 10
305.2757721535191
 20
421.7700560028943
 10
305.7757721535192
 20
421.7700560028943
 10
305.7757721535192
 20
433.7700560028943
 10
305.2757721535191
 20
433.7700560028942
 10
305.2757721535193
 20
436.7700560028943
 10
305.7757721535192
 20
436.7700560028943
 10
305.7757721535192
 20
448.7700560028943
 10
305.2757721535191
 20
448.7700560028944
 10
305.2757721535191
 20
451.7700560028943
 10
305.7757721535192
 20
451.7700560028943
 10
305.7757721535192
 20
463.7700560028943
 10
305.2757721535191
 20
463.7700560028943
 10
305.2757721535191
 20
466.7700560028944
 10
305.7757721535192
 20
466.7700560028944
 10
305.7757721535192
 20
478.7700560028944
 10
305.2757721535191
 20
478.7700560028944
 10
305.2757721535191
 20
481.7700560028943
 10
305.7757721535192
 20
481.7700560028943
 10
305.7757721535192
 20
498.7700560028944
 10
314.2757721535192
 20
498.7700560028947
 10
314.2757721535192
 20
509.7700560028947
 10
311.2757721535193
 20
509.7700560028947
 10
311.2757721535193
 20
501.7700560028946
 10
301.2757721535193
 20
501.7700560028945
 97
       40
330
CBF
330
CC2
330
C94
330
CC3
330
CBC
330
C96
330
C98
330
C9A
330
C9D
330
C9F
330
C9E
330
C9C
330
CA0
330
CA2
330
CA1
330
C99
330
CA6
330
CA5
330
CA7
330
CA4
330
CAA
330
CAB
330
CA9
330
CA8
330
CAC
330
CAE
330
CAD
330
CA3
330
CB1
330
CB0
330
CB3
330
CAF
330
CB6
330
CB7
330
CB5
330
CB4
330
CB9
330
CB8
330
CBA
330
C95
 92
        7
 72
     0
 73
     1
 93
       40
 10
172.775772153519
 20
481.7700560028943
 10
173.2757721535191
 20
481.7700560028943
 10
173.2757721535191
 20
478.7700560028944
 10
172.775772153519
 20
478.7700560028944
 10
172.775772153519
 20
466.7700560028943
 10
173.2757721535191
 20
466.7700560028944
 10
173.2757721535191
 20
463.7700560028943
 10
172.775772153519
 20
463.7700560028943
 10
172.775772153519
 20
451.7700560028943
 10
173.2757721535191
 20
451.7700560028943
 10
173.2757721535191
 20
448.7700560028943
 10
172.775772153519
 20
448.7700560028943
 10
172.775772153519
 20
436.7700560028943
 10
173.275772153519
 20
436.7700560028943
 10
173.2757721535191
 20
433.7700560028943
 10
172.775772153519
 20
433.7700560028943
 10
172.775772153519
 20
421.7700560028943
 10
173.2757721535191
 20
421.7700560028943
 10
173.2757721535191
 20
418.7700560028943
 10
172.775772153519
 20
418.7700560028943
 10
172.775772153519
 20
406.7700560028943
 10
173.2757721535191
 20
406.7700560028943
 10
173.2757721535191
 20
403.7700560028943
 10
172.775772153519
 20
403.7700560028943
 10
172.7757721535191
 20
391.7700560028944
 10
173.2757721535191
 20
391.7700560028944
 10
173.2757721535191
 20
388.7700560028944
 10
172.7757721535191
 20
388.7700560028944
 10
172.7757721535191
 20
376.7700560028944
 10
173.2757721535191
 20
376.7700560028944
 10
173.2757721535191
 20
373.7700560028944
 10
172.7757721535191
 20
373.7700560028944
 10
172.7757721535191
 20
359.7700560028943
 10
174.775772153519
 20
359.7700560028942
 10
177.275772153519
 20
501.7700560028943
 10
167.275772153519
 20
501.7700560028942
 10
167.275772153519
 20
509.7700560028944
 10
164.275772153519
 20
509.7700560028945
 10
164.275772153519
 20
498.7700560028946
 10
172.775772153519
 20
498.7700560028943
 97
       40
330
CBC
330
C68
330
C94
330
C69
330
C6C
330
C93
330
C70
330
C72
330
C71
330
C76
330
C75
330
C73
330
C74
330
C7B
330
C77
330
C7A
330
C79
330
C87
330
C7D
330
C7C
330
C7E
330
C82
330
C81
330
C7F
330
C80
330
C86
330
C83
330
C85
330
C84
330
C91
330
C89
330
C88
330
C8A
330
C8E
330
C8C
330
C8B
330
C8D
330
C90
330
C98
330
C92
 75
     0
 76
     1
 52
45.0
 41
15.0
 77
     0
 78
     2
 53
45.0
 43
338.6293220531547
 44
37.05685257766146
 45
-1.325825214724776
 46
1.325825214724776
 79
     0
 53
135.0
 43
338.6293220531547
 44
37.05685257766146
 45
-1.325825214724776
 46
-1.325825214724776
 79
     0
 47
0.3914305462307881
 98
        2
 10
303.5230860636239
 20
487.0922203964292
 10
173.867938561696
 20
493.3551100617883
  0
LINE
  5
D16
330
20
100
AcDbEntity
  8
STEMPEL
100
AcDbLine
 10
280.5189534081216
 20
359.7700560028944
 30
0.0
 11
305.7757721535192
 21
359.7700560028944
 31
0.0
  0
LINE
  5
D23
330
20
100
AcDbEntity
  8
TEXT
 62
     2
100
AcDbLine
 10
301.244512370026
 20
555.1970363834535
 30
0.0
 11
296.9811296422239
 21
525.0726658455317
 31
0.0
  0
LINE
  5
D24
330
20
100
AcDbEntity
  8
TEXT
 62
     2
100
AcDbLine
 10
301.244512370026
 20
555.1970363834535
 30
0.0
 11
404.8029971767562
 21
555.1970363834535
 31
0.0
  0
TEXT
  5
D25
330
20
100
AcDbEntity
  8
TEXT
 62
     1
100
AcDbText
 10
303.2083266589224
 20
545.7302888455083
 30
0.0
 40
7.0
  1
EDV-Art.Nr. 16197.000X
 41
0.8
  7
GREEKS
100
AcDbText
  0
TEXT
  5
D26
330
20
100
AcDbEntity
  8
TEXT
 62
     1
100
AcDbText
 10
303.2474477792517
 20
558.5769418003499
 30
0.0
 40
7.0
  1
Edelstahlsieb   143
 41
0.8
  7
GREEKS
100
AcDbText
  0
LINE
  5
D27
330
20
100
AcDbEntity
  8
TEXT
 62
     1
100
AcDbLine
 10
368.8840537845877
 20
565.5303411202018
 30
0.0
 11
368.8840537845877
 21
558.5303411202017
 31
0.0
  0
LINE
  5
D28
330
20
100
AcDbEntity
  8
TEXT
 62
     1
100
AcDbLine
 10
361.8840537845878
 20
558.5303411202017
 30
0.0
 11
361.8840537845878
 21
565.5303411202018
 31
0.0
  0
LINE
  5
D29
330
20
100
AcDbEntity
  8
TEXT
 62
     1
100
AcDbLine
 10
361.8840537845878
 20
565.5303411202018
 30
0.0
 11
368.8840537845877
 21
565.5303411202018
 31
0.0
  0
LINE
  5
D2A
330
20
100
AcDbEntity
  8
TEXT
 62
     1
100
AcDbLine
 10
368.8840537845877
 20
558.5303411202017
 30
0.0
 11
361.8840537845878
 21
558.5303411202017
 31
0.0
  0
DIMENSION
  5
D3E
330
20
100
AcDbEntity
  8
BEM
100
AcDbDimension
  2
*D14
 10
314.2757721535192
 20
521.9860052665032
 30
0.0
 11
242.502930521599
 21
521.9860052665032
 31
0.0
 70
   160
 71
     5
 42
150.0000000000002
  3
Standard
100
AcDbAlignedDimension
 13
164.275772153519
 23
509.7700560028944
 33
0.0
 14
314.2757721535192
 24
509.7700560028945
 34
0.0
100
AcDbRotatedDimension
1001
ACAD
1000
DSTYLE
1002
{
1070
    40
1040
2.0
1070
    41
1040
3.5
1070
    42
1040
1.0
1070
    43
1040
7.0
1070
    44
1040
1.0
1070
    47
1040
0.16
1070
    48
1040
0.16
1070
    73
1070
     0
1070
    74
1070
     0
1070
    77
1070
     1
1070
    78
1070
     8
1070
    79
1070
     2
1070
   140
1040
3.5
1070
   141
1040
1.5
1070
   145
1040
0.2857142857142857
1070
   146
1040
0.5
1070
   147
1040
1.5
1070
   172
1070
     1
1070
   178
1070
     1
1070
   179
1070
     2
1070
   271
1070
     2
1070
   272
1070
     2
1070
   284
1070
     8
1070
   285
1070
     8
1070
   286
1070
     8
1070
   340
1005
32
1002
}
  0
LWPOLYLINE
  5
D3F
330
20
100
AcDbEntity
  8
BEM
 62
     1
100
AcDbPolyline
 90
        4
 70
     1
 43
0.0
 10
226.9259390079471
 20
532.0025155668311
 10
226.9259390079471
 20
525.0025155668311
 10
233.9259390079471
 20
525.0025155668311
 10
233.9259390079471
 20
532.0025155668311
  0
LINE
  5
DE5
330
20
100
AcDbEntity
  8
STEMPEL
100
AcDbLine
 10
167.7757721535191
 20
501.7700560028944
 30
0.0
 11
310.7757721535191
 21
501.7700560028944
 31
0.0
  0
LINE
  5
DE7
330
20
100
AcDbEntity
  8
STEMPEL
100
AcDbLine
 10
181.6702466054381
 20
505.7700560028944
 30
0.0
 11
189.7473688422577
 21
505.7700560028944
 31
0.0
  0
LINE
  5
DEA
330
20
100
AcDbEntity
  8
MITTEL
100
AcDbLine
 10
177.7757721535191
 20
496.7700560028944
 30
0.0
 11
177.7757721535191
 21
514.7700560028943
 31
0.0
  0
LINE
  5
DFA
330
20
100
AcDbEntity
  8
STEMPEL
100
AcDbLine
 10
296.8812977016002
 20
505.7700560028944
 30
0.0
 11
288.8041754647805
 21
505.7700560028944
 31
0.0
  0
LINE
  5
E03
330
20
100
AcDbEntity
  8
MITTEL
100
AcDbLine
 10
300.7757721535191
 20
496.7700560028944
 30
0.0
 11
300.7757721535191
 21
514.7700560028943
 31
0.0
  0
LINE
  5
E17
330
20
100
AcDbEntity
  8
TEXT
 62
     1
100
AcDbLine
 10
122.4989216277093
 20
567.5694023807702
 30
0.0
 11
122.4989216277093
 21
560.5694023807703
 31
0.0
  0
LINE
  5
E18
330
20
100
AcDbEntity
  8
TEXT
 62
     1
100
AcDbLine
 10
115.4989216277093
 20
560.5694023807703
 30
0.0
 11
115.4989216277093
 21
567.5694023807702
 31
0.0
  0
LINE
  5
E19
330
20
100
AcDbEntity
  8
TEXT
 62
     1
100
AcDbLine
 10
122.4989216277093
 20
560.5694023807703
 30
0.0
 11
115.4989216277093
 21
560.5694023807703
 31
0.0
  0
LINE
  5
E1A
330
20
100
AcDbEntity
  8
TEXT
 62
     1
100
AcDbLine
 10
115.4989216277093
 20
567.5694023807702
 30
0.0
 11
122.4989216277093
 21
567.5694023807702
 31
0.0
  0
LINE
  5
E1B
330
20
100
AcDbEntity
  8
TEXT
 62
     2
100
AcDbLine
 10
154.9764567850596
 20
557.236097644022
 30
0.0
 11
166.2805903287792
 21
506.3863787369073
 31
0.0
  0
TEXT
  5
E1C
330
20
100
AcDbEntity
  8
TEXT
 62
     1
100
AcDbText
 10
51.43980018932882
 20
560.6160030609182
 30
0.0
 40
7.0
  1
Siebaufnahme   150
 41
0.8
  7
GREEKS
100
AcDbText
  0
LINE
  5
E1D
330
20
100
AcDbEntity
  8
TEXT
 62
     2
100
AcDbLine
 10
51.41797197832932
 20
557.236097644022
 30
0.0
 11
154.9764567850596
 21
557.236097644022
 31
0.0
  0
TEXT
  5
E1E
330
20
100
AcDbEntity
  8
TEXT
 62
     1
100
AcDbText
 10
51.40067906899947
 20
547.7693501060766
 30
0.0
 40
7.0
  1
EDV-Art.Nr. 16290.100X
 41
0.8
  7
GREEKS
100
AcDbText
  0
LINE
  5
E1F
330
20
100
AcDbEntity
  8
TEXT
 62
     2
100
AcDbLine
 10
296.0593847513272
 20
518.5597660174825
 30
0.0
 11
294.6736310236711
 21
508.7682550433455
 31
0.0
  0
LINE
  5
E20
330
20
100
AcDbEntity
  8
MITTEL
100
AcDbLine
 10
239.2757721535192
 20
424.6566308507198
 30
0.0
 11
239.2757721535192
 21
154.7700560028943
 31
0.0
  0
DIMENSION
  5
E21
102
{ACAD_XDICTIONARY
360
E2E
102
}
102
{ACAD_REACTORS
330
E38
102
}
330
20
100
AcDbEntity
  8
BEM
100
AcDbDimension
  2
*D15
 10
54.28425953797198
 20
509.7700560028945
 30
0.0
 11
47.7842595379719
 21
459.7700560028944
 31
0.0
 70
    32
  1
min.15 - max.100
 71
     5
 42
100.0000000000001
  3
Standard
100
AcDbAlignedDimension
 13
74.27577215351914
 23
409.7700560028944
 33
0.0
 14
164.275772153519
 24
509.7700560028944
 34
0.0
 50
90.0
100
AcDbRotatedDimension
1001
ACAD
1000
DSTYLE
1002
{
1070
    40
1040
2.0
1070
    41
1040
3.5
1070
    42
1040
1.0
1070
    43
1040
7.0
1070
    44
1040
1.0
1070
    47
1040
0.16
1070
    48
1040
0.16
1070
    73
1070
     0
1070
    74
1070
     0
1070
    77
1070
     1
1070
    78
1070
     8
1070
    79
1070
     2
1070
   140
1040
3.5
1070
   141
1040
1.5
1070
   145
1040
0.2857142857142857
1070
   146
1040
0.5
1070
   147
1040
1.5
1070
   172
1070
     1
1070
   178
1070
     1
1070
   179
1070
     2
1070
   271
1070
     2
1070
   272
1070
     2
1070
   284
1070
     8
1070
   285
1070
     8
1070
   286
1070
     8
1070
   340
1005
32
1002
}
  0
DIMENSION
  5
E4A
102
{ACAD_XDICTIONARY
360
E59
102
}
102
{ACAD_REACTORS
330
E65
102
}
330
20
100
AcDbEntity
  8
BEM
100
AcDbDimension
  2
*D16
 10
147.2387048765658
 20
498.7700560028946
 30
0.0
 11
140.7387048765658
 21
478.9700560028946
 31
0.0
 70
    32
 71
     5
 42
11.0
  3
Standard
100
AcDbAlignedDimension
 13
164.275772153519
 23
509.7700560028946
 33
0.0
 14
164.275772153519
 24
498.7700560028946
 34
0.0
 50
90.0
100
AcDbRotatedDimension
1001
ACAD
1000
DSTYLE
1002
{
1070
    40
1040
2.0
1070
    41
1040
3.5
1070
    42
1040
1.0
1070
    43
1040
7.0
1070
    44
1040
1.0
1070
    47
1040
0.16
1070
    48
1040
0.16
1070
    73
1070
     0
1070
    74
1070
     0
1070
    77
1070
     1
1070
    78
1070
     8
1070
    79
1070
     2
1070
   140
1040
3.5
1070
   141
1040
1.5
1070
   145
1040
0.2857142857142857
1070
   146
1040
0.5
1070
   147
1040
1.5
1070
   172
1070
     1
1070
   178
1070
     1
1070
   179
1070
     2
1070
   271
1070
     2
1070
   272
1070
     2
1070
   284
1070
     8
1070
   285
1070
     8
1070
   286
1070
     8
1070
   340
1005
32
1002
}
  0
LINE
  5
E66
330
20
100
AcDbEntity
  8
STEMPEL
100
AcDbLine
 10
305.2757721535191
 20
373.7700560028944
 30
0.0
 11
313.8420154237786
 21
373.7700560028945
 31
0.0
  0
LINE
  5
E67
330
20
100
AcDbEntity
  8
STEMPEL
100
AcDbLine
 10
305.2757721535191
 20
375.7700560028944
 30
0.0
 11
313.8420154237786
 21
375.7700560028945
 31
0.0
  0
LINE
  5
E68
330
20
100
AcDbEntity
  8
STEMPEL
100
AcDbLine
 10
305.2757721535192
 20
375.9854463120683
 30
0.0
 11
313.9663710767607
 21
375.9854463120683
 31
0.0
  0
LINE
  5
E69
102
{ACAD_REACTORS
330
EA8
102
}
330
20
100
AcDbEntity
  8
STEMPEL
100
AcDbLine
 10
305.7757721535192
 20
397.9854463120683
 30
0.0
 11
309.5757721535192
 21
397.9854463120683
 31
0.0
  0
LINE
  5
E6A
102
{ACAD_REACTORS
330
EA8
102
}
330
20
100
AcDbEntity
  8
STEMPEL
100
AcDbLine
 10
305.7757721535193
 20
407.9854463120683
 30
0.0
 11
314.2681324784326
 21
407.9854463120683
 31
0.0
  0
LINE
  5
E6B
330
20
100
AcDbEntity
  8
STEMPEL
100
AcDbLine
 10
305.7757721535192
 20
411.7700560028945
 30
0.0
 11
408.2332916863036
 21
411.7700560028945
 31
0.0
  0
HATCH
  5
EA8
330
20
100
AcDbEntity
  8
SCHRAFF
100
AcDbHatch
 10
0.0
 20
0.0
 30
0.0
210
0.0
220
0.0
230
1.0
  2
NET
 70
     0
 71
     1
 91
        4
 92
        7
 72
     1
 73
     1
 93
       25
 10
305.7757721535192
 20
378.9854463120681
 42
0.0
 10
309.275772153519
 20
378.9854463120683
 42
0.0
 10
311.0078229610881
 20
377.9854463120683
 42
0.0
 10
313.9663710767607
 20
377.9854463120683
 42
0.2679491924311269
 10
317.4304726918986
 20
379.9854463120683
 42
0.0
 10
324.2757721535191
 20
391.841852772619
 42
0.0
 10
324.275772153519
 20
394.4201013487909
 42
0.0
 10
324.1019032668757
 20
395.4061608046083
 42
0.8546036945818769
 10
320.1514164567592
 20
395.3348153083502
 42
-0.1288796595076653
 10
319.759491085546
 20
394.9280018846072
 42
-0.0751977790930109
 10
319.2971284279177
 20
394.7338377545643
 42
-0.0619448326459362
 10
318.6941077789194
 20
394.6588419571499
 42
-0.0619448326459091
 10
318.0910871299211
 20
394.7338377545642
 42
-0.0751977790928184
 10
317.6287244722934
 20
394.9280018846067
 42
-0.1070397744512545
 10
317.2872350896006
 20
395.253193380877
 42
-0.1437105985822141
 10
317.1876181563404
 20
395.5629988077584
 42
0.0
 10
316.2605218746161
 20
406.1597577975636
 42
0.3888787318529909
 10
314.2681324784326
 20
407.9854463120683
 42
0.0
 10
312.2833211368134
 20
407.9854463120683
 42
0.3888787318529907
 10
310.2909317406298
 20
406.1597577975636
 42
0.0
 10
309.5757721535193
 20
397.9854463120683
 42
0.0
 10
309.3710799035063
 20
397.9854463120683
 42
0.3639702342662105
 10
306.9090605209757
 20
395.9195667562356
 42
0.0
 10
305.6484088762964
 20
388.7700560028944
 42
0.0
 10
305.7757721535192
 20
388.7700560028944
 42
0.0
 97
       19
330
89A
330
8FB
330
898
330
899
330
8FA
330
874
330
E6A
330
873
330
871
330
E69
330
8F5
330
888
330
CA0
330
C9C
330
89D
330
892
330
89F
330
88F
330
88B
 92
       22
 72
     0
 73
     1
 93
        4
 10
312.2757721535192
 20
405.9854463120682
 10
314.2757721535192
 20
405.9854463120682
 10
314.275772153519
 20
382.9854463120683
 10
312.275772153519
 20
382.9854463120683
 97
        4
330
872
330
8F8
330
891
330
8F9
 92
        7
 72
     1
 73
     1
 93
       25
 10
172.7757721535191
 20
388.7700560028944
 42
0.0
 10
172.9031354307418
 20
388.7700560028944
 42
0.0
 10
171.6424837860625
 20
395.9195667562356
 42
0.363970234266187
 10
169.180464403532
 20
397.9854463120682
 42
0.0
 10
168.9757721535189
 20
397.9854463120682
 42
0.0
 10
168.2606125664083
 20
406.1597577975636
 42
0.3888787318529909
 10
166.2682231702248
 20
407.9854463120683
 42
0.0
 10
164.2834118286057
 20
407.9854463120683
 42
0.3888787318530111
 10
162.2910224324221
 20
406.1597577975636
 42
0.0
 10
161.3639261506978
 20
395.5629988077588
 42
-0.1437105985823427
 10
161.2643092174376
 20
395.2531933808771
 42
-0.1070397744511977
 10
160.922819834745
 20
394.9280018846069
 42
-0.0751977790926574
 10
160.4604571771184
 20
394.7338377545646
 42
-0.0619448326460525
 10
159.8574365281188
 20
394.6588419571499
 42
-0.0619448326460789
 10
159.2544158791191
 20
394.7338377545646
 42
-0.0751977790927278
 10
158.7920532214925
 20
394.9280018846069
 42
-0.1288796595078788
 10
158.4001278502787
 20
395.3348153083506
 42
0.8546036945817887
 10
154.4496410401623
 20
395.4061608046083
 42
0.0
 10
154.275772153519
 20
394.420101348791
 42
0.0
 10
154.275772153519
 20
391.841852772619
 42
0.0
 10
161.1210716151396
 20
379.9854463120683
 42
0.2679491924311229
 10
164.5851732302773
 20
377.9854463120683
 42
0.0
 10
167.54372134595
 20
377.9854463120683
 42
0.0
 10
169.275772153519
 20
378.9854463120683
 42
0.0
 10
172.7757721535191
 20
378.9854463120684
 42
0.0
 97
       19
330
C8A
330
8C1
330
8F3
330
87E
330
87A
330
87D
330
886
330
87C
330
8F2
330
8B9
330
8BF
330
8EF
330
8C0
330
8B8
330
8C7
330
8D0
330
8C2
330
8CF
330
C8E
 92
       22
 72
     0
 73
     1
 93
        4
 10
166.275772153519
 20
382.9854463120683
 10
164.275772153519
 20
382.9854463120683
 10
164.275772153519
 20
405.9854463120682
 10
166.275772153519
 20
405.9854463120682
 97
        4
330
8C6
330
8F1
330
87B
330
8F0
 75
     0
 76
     1
 52
45.0
 41
20.0
 77
     0
 78
     2
 53
45.0
 43
0.0
 44
0.0
 45
-1.767766952966368
 46
1.767766952966368
 79
     0
 53
135.0
 43
0.0
 44
0.0
 45
-1.767766952966368
 46
-1.767766952966368
 79
     0
 47
0.2669806205508081
 98
        4
 10
308.9615737173699
 20
385.7897964365723
 10
308.9615737173699
 20
385.7897964365723
 10
168.9647806817015
 20
383.1199901613647
 10
168.9647806817015
 20
383.1199901613647
  0
HATCH
  5
EF2
330
20
100
AcDbEntity
  8
SCHRAFF
100
AcDbHatch
 10
0.0
 20
0.0
 30
0.0
210
0.0
220
0.0
230
1.0
  2
_USER
 70
     0
 71
     0
 91
        8
 92
        7
 72
     1
 73
     1
 93
       12
 10
307.7757721535192
 20
508.2700560028944
 42
-0.4142135623730951
 10
309.2757721535191
 20
506.7700560028945
 42
0.0
 10
309.2757721535191
 20
501.7700560028944
 42
0.0
 10
310.7757721535191
 20
501.7700560028944
 42
0.0
 10
310.7757721535191
 20
506.7700560028945
 42
0.4142135623730951
 10
307.7757721535192
 20
509.7700560028944
 42
0.0
 10
278.2757721535191
 20
509.7700560028944
 42
0.4142135623730951
 10
275.2757721535191
 20
506.7700560028945
 42
0.0
 10
275.2757721535191
 20
505.7700560028944
 42
0.0
 10
276.7757721535192
 20
505.7700560028944
 42
0.0
 10
276.7757721535192
 20
506.7700560028945
 42
-0.4142135623730951
 10
278.2757721535191
 20
508.2700560028944
 42
0.0
 97
        0
 92
        7
 72
     1
 73
     1
 93
        8
 10
262.2757721535192
 20
506.7700560028945
 42
0.0
 10
262.2757721535192
 20
505.7700560028944
 42
0.0
 10
263.7757721535191
 20
505.7700560028944
 42
0.0
 10
263.7757721535191
 20
506.7700560028945
 42
-1.0
 10
266.7757721535191
 20
506.7700560028945
 42
0.0
 10
266.7757721535191
 20
505.7700560028944
 42
0.0
 10
268.2757721535192
 20
505.7700560028944
 42
0.0
 10
268.2757721535192
 20
506.7700560028945
 42
1.0
 97
        0
 92
        7
 72
     1
 73
     1
 93
        8
 10
249.2757721535191
 20
506.7700560028945
 42
0.0
 10
249.2757721535191
 20
505.7700560028944
 42
0.0
 10
250.7757721535191
 20
505.7700560028944
 42
0.0
 10
250.7757721535191
 20
506.7700560028945
 42
-1.0
 10
253.7757721535192
 20
506.7700560028945
 42
0.0
 10
253.7757721535192
 20
505.7700560028944
 42
0.0
 10
255.2757721535191
 20
505.7700560028944
 42
0.0
 10
255.2757721535191
 20
506.7700560028945
 42
1.0
 97
        0
 92
        7
 72
     1
 73
     1
 93
        6
 10
240.7757721535191
 20
506.7700560028944
 42
0.0
 10
240.7757721535191
 20
505.7700560028944
 42
0.0
 10
242.2757721535191
 20
505.7700560028944
 42
0.0
 10
242.2757721535191
 20
506.7700560028945
 42
0.4142135623730951
 10
239.2757721535192
 20
509.7700560028944
 42
0.0
 10
239.2757721535192
 20
508.2700560028944
 42
-0.4142135623731063
 97
        0
 92
        7
 72
     1
 73
     1
 93
        6
 10
237.7757721535191
 20
506.7700560028945
 42
-0.4142135623730951
 10
239.2757721535192
 20
508.2700560028944
 42
0.0
 10
239.2757721535192
 20
509.7700560028944
 42
0.4142135623730951
 10
236.2757721535191
 20
506.7700560028945
 42
0.0
 10
236.2757721535191
 20
505.7700560028944
 42
0.0
 10
237.7757721535191
 20
505.7700560028944
 42
0.0
 97
        0
 92
        7
 72
     1
 73
     1
 93
        8
 10
223.2757721535192
 20
506.7700560028945
 42
0.0
 10
223.2757721535191
 20
505.7700560028944
 42
0.0
 10
224.7757721535192
 20
505.7700560028945
 42
0.0
 10
224.7757721535192
 20
506.7700560028945
 42
-1.0
 10
227.7757721535191
 20
506.7700560028945
 42
0.0
 10
227.7757721535191
 20
505.7700560028944
 42
0.0
 10
229.2757721535191
 20
505.7700560028944
 42
0.0
 10
229.2757721535191
 20
506.7700560028945
 42
1.0
 97
        0
 92
        7
 72
     1
 73
     1
 93
        8
 10
214.7757721535191
 20
506.7700560028945
 42
0.0
 10
214.7757721535192
 20
505.7700560028944
 42
0.0
 10
216.2757721535192
 20
505.7700560028944
 42
0.0
 10
216.2757721535192
 20
506.7700560028945
 42
1.0
 10
210.2757721535192
 20
506.7700560028945
 42
0.0
 10
210.2757721535192
 20
505.7700560028944
 42
0.0
 10
211.7757721535192
 20
505.7700560028944
 42
0.0
 10
211.7757721535192
 20
506.7700560028945
 42
-1.0
 97
        0
 92
        7
 72
     1
 73
     1
 93
       12
 10
200.2757721535191
 20
509.7700560028944
 42
0.0
 10
170.7757721535192
 20
509.7700560028944
 42
0.4142135623730951
 10
167.7757721535192
 20
506.7700560028945
 42
0.0
 10
167.7757721535191
 20
501.7700560028944
 42
0.0
 10
169.2757721535192
 20
501.7700560028944
 42
0.0
 10
169.2757721535192
 20
506.7700560028945
 42
-0.4142135623730951
 10
170.7757721535192
 20
508.2700560028944
 42
0.0
 10
200.2757721535192
 20
508.2700560028944
 42
-0.4142135623730951
 10
201.7757721535192
 20
506.7700560028945
 42
0.0
 10
201.7757721535192
 20
505.7700560028944
 42
0.0
 10
203.2757721535192
 20
505.7700560028944
 42
0.0
 10
203.2757721535192
 20
506.7700560028945
 42
0.4142135623730979
 97
        0
 75
     0
 76
     0
 52
45.0
 41
2.0
 77
     0
 78
     1
 53
45.0
 43
7.190099059508952
 44
5.100022205174241
 45
-1.414213562373094
 46
1.414213562373095
 79
     0
 47
0.2345433472151938
 98
        8
 10
286.104169365084
 20
508.7723007788967
 10
264.9803375809205
 20
508.5377569441091
 10
252.7754568974827
 20
509.0068432143245
 10
241.5094138614544
 20
506.8959542986767
 10
237.284648814555
 20
506.8959542986767
 10
223.9062210718552
 20
506.8959542986767
 10
215.2219793829817
 20
507.1304967341044
 10
191.0469296111804
 20
508.5377569441091
  0
LINE
  5
EF4
330
20
100
AcDbEntity
  8
STEMPEL
100
AcDbLine
 10
170.7757721535192
 20
508.2700560028944
 30
0.0
 11
200.2757721535192
 21
508.2700560028944
 31
0.0
  0
ARC
  5
EF6
330
20
100
AcDbEntity
  8
STEMPEL
100
AcDbCircle
 10
170.7757721535192
 20
506.7700560028945
 30
0.0
 40
1.5
100
AcDbArc
 50
90.0
 51
180.0
  0
LINE
  5
EF7
330
20
100
AcDbEntity
  8
STEMPEL
100
AcDbLine
 10
167.7757721535192
 20
501.7700560028944
 30
0.0
 11
167.7757721535192
 21
506.7700560028945
 31
0.0
  0
LINE
  5
EF8
330
20
100
AcDbEntity
  8
STEMPEL
100
AcDbLine
 10
169.2757721535192
 20
501.7700560028944
 30
0.0
 11
169.2757721535192
 21
506.7700560028945
 31
0.0
  0
POINT
  5
EF9
330
20
100
AcDbEntity
  8
STEMPEL
100
AcDbPoint
 10
168.4615908361704
 20
508.6791303415292
 30
0.0
  0
ARC
  5
EFA
330
20
100
AcDbEntity
  8
STEMPEL
100
AcDbCircle
 10
170.7757721535192
 20
506.7700560028945
 30
0.0
 40
3.0
100
AcDbArc
 50
90.0
 51
180.0
  0
ARC
  5
EFB
330
20
100
AcDbEntity
  8
STEMPEL
100
AcDbCircle
 10
307.7757721535192
 20
506.7700560028945
 30
0.0
 40
3.0
100
AcDbArc
 50
0.0
 51
90.0
  0
LINE
  5
EFC
330
20
100
AcDbEntity
  8
STEMPEL
100
AcDbLine
 10
240.7757721535191
 20
505.7700560028944
 30
0.0
 11
250.7757721535191
 21
505.7700560028944
 31
0.0
  0
ARC
  5
EFD
330
20
100
AcDbEntity
  8
STEMPEL
100
AcDbCircle
 10
239.2757721535192
 20
506.7700560028945
 30
0.0
 40
3.0
100
AcDbArc
 50
0.0
 51
180.0
  0
LINE
  5
EFE
330
20
100
AcDbEntity
  8
STEMPEL
100
AcDbLine
 10
201.7757721535192
 20
505.7700560028944
 30
0.0
 11
211.7757721535192
 21
505.7700560028944
 31
0.0
  0
LINE
  5
EFF
330
20
100
AcDbEntity
  8
STEMPEL
100
AcDbLine
 10
201.7757721535192
 20
505.7700560028944
 30
0.0
 11
201.7757721535192
 21
506.7700560028945
 31
0.0
  0
POINT
  5
F00
330
20
100
AcDbEntity
  8
STEMPEL
100
AcDbPoint
 10
202.1732435245334
 20
509.0937604583237
 30
0.0
  0
LINE
  5
F01
330
20
100
AcDbEntity
  8
STEMPEL
100
AcDbLine
 10
203.2757721535192
 20
505.7700560028944
 30
0.0
 11
203.2757721535192
 21
506.7700560028945
 31
0.0
  0
ARC
  5
F02
330
20
100
AcDbEntity
  8
STEMPEL
100
AcDbCircle
 10
200.2757721535192
 20
506.7700560028945
 30
0.0
 40
1.5
100
AcDbArc
 50
0.0
 51
90.0
  0
ARC
  5
F03
330
20
100
AcDbEntity
  8
STEMPEL
100
AcDbCircle
 10
200.2757721535192
 20
506.7700560028945
 30
0.0
 40
3.0
100
AcDbArc
 50
0.0
 51
90.0
  0
ARC
  5
F05
330
20
100
AcDbEntity
  8
STEMPEL
100
AcDbCircle
 10
226.2757721535191
 20
506.7700560028945
 30
0.0
 40
1.5
100
AcDbArc
 50
0.0
 51
180.0
  0
ARC
  5
F06
330
20
100
AcDbEntity
  8
STEMPEL
100
AcDbCircle
 10
226.2757721535191
 20
506.7700560028945
 30
0.0
 40
3.0
100
AcDbArc
 50
0.0
 51
180.0
  0
LINE
  5
F07
330
20
100
AcDbEntity
  8
STEMPEL
100
AcDbLine
 10
214.7757721535192
 20
505.7700560028944
 30
0.0
 11
224.7757721535192
 21
505.7700560028944
 31
0.0
  0
ARC
  5
F08
330
20
100
AcDbEntity
  8
STEMPEL
100
AcDbCircle
 10
213.2757721535192
 20
506.7700560028945
 30
0.0
 40
3.0
100
AcDbArc
 50
0.0
 51
180.0
  0
LINE
  5
F09
330
20
100
AcDbEntity
  8
STEMPEL
100
AcDbLine
 10
210.2757721535192
 20
505.7700560028944
 30
0.0
 11
210.2757721535192
 21
506.7700560028945
 31
0.0
  0
ARC
  5
F0A
330
20
100
AcDbEntity
  8
STEMPEL
100
AcDbCircle
 10
213.2757721535192
 20
506.7700560028945
 30
0.0
 40
1.5
100
AcDbArc
 50
0.0
 51
180.0
  0
LINE
  5
F0B
330
20
100
AcDbEntity
  8
STEMPEL
100
AcDbLine
 10
211.7757721535192
 20
505.7700560028944
 30
0.0
 11
211.7757721535192
 21
506.7700560028945
 31
0.0
  0
LINE
  5
F0C
330
20
100
AcDbEntity
  8
STEMPEL
100
AcDbLine
 10
214.7757721535192
 20
505.7700560028944
 30
0.0
 11
214.7757721535192
 21
506.7700560028945
 31
0.0
  0
LINE
  5
F0D
330
20
100
AcDbEntity
  8
STEMPEL
100
AcDbLine
 10
223.2757721535192
 20
505.7700560028944
 30
0.0
 11
223.2757721535192
 21
506.7700560028945
 31
0.0
  0
LINE
  5
F0E
330
20
100
AcDbEntity
  8
STEMPEL
100
AcDbLine
 10
224.7757721535192
 20
505.7700560028944
 30
0.0
 11
224.7757721535192
 21
506.7700560028945
 31
0.0
  0
LINE
  5
F0F
330
20
100
AcDbEntity
  8
STEMPEL
100
AcDbLine
 10
216.2757721535192
 20
505.7700560028944
 30
0.0
 11
216.2757721535192
 21
506.7700560028945
 31
0.0
  0
LINE
  5
F10
330
20
100
AcDbEntity
  8
STEMPEL
100
AcDbLine
 10
227.7757721535191
 20
505.7700560028944
 30
0.0
 11
237.7757721535191
 21
505.7700560028944
 31
0.0
  0
LINE
  5
F11
330
20
100
AcDbEntity
  8
STEMPEL
100
AcDbLine
 10
227.7757721535191
 20
505.7700560028944
 30
0.0
 11
227.7757721535191
 21
506.7700560028945
 31
0.0
  0
LINE
  5
F12
330
20
100
AcDbEntity
  8
STEMPEL
100
AcDbLine
 10
229.2757721535191
 20
505.7700560028944
 30
0.0
 11
229.2757721535191
 21
506.7700560028945
 31
0.0
  0
ARC
  5
F13
330
20
100
AcDbEntity
  8
STEMPEL
100
AcDbCircle
 10
239.2757721535192
 20
506.7700560028945
 30
0.0
 40
1.5
100
AcDbArc
 50
0.0
 51
180.0
  0
LINE
  5
F14
330
20
100
AcDbEntity
  8
STEMPEL
100
AcDbLine
 10
236.2757721535191
 20
505.7700560028944
 30
0.0
 11
236.2757721535191
 21
506.7700560028945
 31
0.0
  0
LINE
  5
F15
330
20
100
AcDbEntity
  8
STEMPEL
100
AcDbLine
 10
237.7757721535191
 20
505.7700560028944
 30
0.0
 11
237.7757721535191
 21
506.7700560028945
 31
0.0
  0
LINE
  5
F16
330
20
100
AcDbEntity
  8
STEMPEL
100
AcDbLine
 10
240.7757721535191
 20
505.7700560028944
 30
0.0
 11
240.7757721535191
 21
506.7700560028945
 31
0.0
  0
LINE
  5
F17
330
20
100
AcDbEntity
  8
STEMPEL
100
AcDbLine
 10
266.7757721535191
 20
505.7700560028944
 30
0.0
 11
276.7757721535192
 21
505.7700560028944
 31
0.0
  0
ARC
  5
F18
330
20
100
AcDbEntity
  8
STEMPEL
100
AcDbCircle
 10
278.2757721535191
 20
506.7700560028945
 30
0.0
 40
1.5
100
AcDbArc
 50
90.0
 51
180.0
  0
ARC
  5
F19
330
20
100
AcDbEntity
  8
STEMPEL
100
AcDbCircle
 10
278.2757721535191
 20
506.7700560028945
 30
0.0
 40
3.0
100
AcDbArc
 50
90.0
 51
180.0
  0
LINE
  5
F1A
330
20
100
AcDbEntity
  8
STEMPEL
100
AcDbLine
 10
253.7757721535192
 20
505.7700560028944
 30
0.0
 11
263.7757721535191
 21
505.7700560028944
 31
0.0
  0
ARC
  5
F1B
330
20
100
AcDbEntity
  8
STEMPEL
100
AcDbCircle
 10
252.2757721535191
 20
506.7700560028945
 30
0.0
 40
3.0
100
AcDbArc
 50
0.0
 51
180.0
  0
LINE
  5
F1C
330
20
100
AcDbEntity
  8
STEMPEL
100
AcDbLine
 10
249.2757721535191
 20
505.7700560028944
 30
0.0
 11
249.2757721535191
 21
506.7700560028945
 31
0.0
  0
LINE
  5
F1D
330
20
100
AcDbEntity
  8
STEMPEL
100
AcDbLine
 10
242.2757721535191
 20
505.7700560028944
 30
0.0
 11
242.2757721535191
 21
506.7700560028945
 31
0.0
  0
LINE
  5
F1E
330
20
100
AcDbEntity
  8
STEMPEL
100
AcDbLine
 10
253.7757721535192
 20
505.7700560028944
 30
0.0
 11
253.7757721535192
 21
506.7700560028945
 31
0.0
  0
LINE
  5
F1F
330
20
100
AcDbEntity
  8
STEMPEL
100
AcDbLine
 10
255.2757721535191
 20
505.7700560028944
 30
0.0
 11
255.2757721535191
 21
506.7700560028945
 31
0.0
  0
LINE
  5
F20
330
20
100
AcDbEntity
  8
STEMPEL
100
AcDbLine
 10
250.7757721535191
 20
505.7700560028944
 30
0.0
 11
250.7757721535191
 21
506.7700560028945
 31
0.0
  0
ARC
  5
F21
330
20
100
AcDbEntity
  8
STEMPEL
100
AcDbCircle
 10
252.2757721535191
 20
506.7700560028945
 30
0.0
 40
1.5
100
AcDbArc
 50
0.0
 51
180.0
  0
ARC
  5
F22
330
20
100
AcDbEntity
  8
STEMPEL
100
AcDbCircle
 10
265.2757721535191
 20
506.7700560028945
 30
0.0
 40
3.0
100
AcDbArc
 50
0.0
 51
180.0
  0
ARC
  5
F23
330
20
100
AcDbEntity
  8
STEMPEL
100
AcDbCircle
 10
265.2757721535191
 20
506.7700560028945
 30
0.0
 40
1.5
100
AcDbArc
 50
0.0
 51
180.0
  0
LINE
  5
F24
330
20
100
AcDbEntity
  8
STEMPEL
100
AcDbLine
 10
262.2757721535192
 20
505.7700560028944
 30
0.0
 11
262.2757721535192
 21
506.7700560028945
 31
0.0
  0
LINE
  5
F25
330
20
100
AcDbEntity
  8
STEMPEL
100
AcDbLine
 10
263.7757721535191
 20
505.7700560028944
 30
0.0
 11
263.7757721535191
 21
506.7700560028945
 31
0.0
  0
LINE
  5
F26
330
20
100
AcDbEntity
  8
STEMPEL
100
AcDbLine
 10
266.7757721535191
 20
505.7700560028944
 30
0.0
 11
266.7757721535191
 21
506.7700560028945
 31
0.0
  0
LINE
  5
F27
330
20
100
AcDbEntity
  8
STEMPEL
100
AcDbLine
 10
275.2757721535191
 20
505.7700560028944
 30
0.0
 11
275.2757721535191
 21
506.7700560028945
 31
0.0
  0
LINE
  5
F28
330
20
100
AcDbEntity
  8
STEMPEL
100
AcDbLine
 10
268.2757721535192
 20
505.7700560028944
 30
0.0
 11
268.2757721535192
 21
506.7700560028945
 31
0.0
  0
LINE
  5
F29
330
20
100
AcDbEntity
  8
STEMPEL
100
AcDbLine
 10
307.7757721535192
 20
508.2700560028944
 30
0.0
 11
278.2757721535191
 21
508.2700560028944
 31
0.0
  0
LINE
  5
F2A
330
20
100
AcDbEntity
  8
STEMPEL
100
AcDbLine
 10
276.7757721535192
 20
505.7700560028944
 30
0.0
 11
276.7757721535192
 21
506.7700560028945
 31
0.0
  0
ARC
  5
F2B
330
20
100
AcDbEntity
  8
STEMPEL
100
AcDbCircle
 10
307.7757721535192
 20
506.7700560028945
 30
0.0
 40
1.5
100
AcDbArc
 50
0.0
 51
90.0
  0
LINE
  5
F2C
330
20
100
AcDbEntity
  8
STEMPEL
100
AcDbLine
 10
309.2757721535191
 20
501.7700560028944
 30
0.0
 11
309.2757721535191
 21
506.7700560028945
 31
0.0
  0
LINE
  5
F2D
330
20
100
AcDbEntity
  8
STEMPEL
100
AcDbLine
 10
310.7757721535191
 20
501.7700560028944
 30
0.0
 11
310.7757721535191
 21
506.7700560028945
 31
0.0
  0
ENDSEC
  0
SECTION
  2
OBJECTS
  0
DICTIONARY
  5
C
330
0
100
AcDbDictionary
281
     1
  3
ACAD_COLOR
350
1B
  3
ACAD_GROUP
350
D
  3
ACAD_LAYOUT
350
19
  3
ACAD_MATERIAL
350
1A
  3
ACAD_MLINESTYLE
350
16
  3
ACAD_PLOTSETTINGS
350
18
  3
ACAD_PLOTSTYLENAME
350
E
  3
AcDbVariableDictionary
350
9ED
  0
DICTIONARY
  5
E2E
330
E21
100
AcDbDictionary
280
     1
281
     1
  3
ACAD_DIMASSOC
360
E38
  0
DICTIONARY
  5
E59
330
E4A
100
AcDbDictionary
280
     1
281
     1
  3
ACAD_DIMASSOC
360
E65
  0
DICTIONARY
  5
1B
102
{ACAD_REACTORS
330
C
102
}
330
C
100
AcDbDictionary
281
     1
  0
DICTIONARY
  5
D
102
{ACAD_REACTORS
330
C
102
}
330
C
100
AcDbDictionary
281
     1
  0
DICTIONARY
  5
19
102
{ACAD_REACTORS
330
C
102
}
330
C
100
AcDbDictionary
281
     1
  3
Layout1
350
1F
  3
Model
350
23
  0
DICTIONARY
  5
1A
102
{ACAD_REACTORS
330
C
102
}
330
C
100
AcDbDictionary
281
     1
  0
DICTIONARY
  5
16
102
{ACAD_REACTORS
330
C
102
}
330
C
100
AcDbDictionary
281
     1
  3
Standard
350
17
  0
DICTIONARY
  5
18
102
{ACAD_REACTORS
330
C
102
}
330
C
100
AcDbDictionary
281
     1
  0
ACDBDICTIONARYWDFLT
  5
E
102
{ACAD_REACTORS
330
C
102
}
330
C
100
AcDbDictionary
281
     1
  3
Normal
350
F
100
AcDbDictionaryWithDefault
340
F
  0
DICTIONARY
  5
9ED
102
{ACAD_REACTORS
330
C
102
}
330
C
100
AcDbDictionary
281
     1
  3
DIMASSOC
350
9EF
  3
HIDETEXT
350
9EE
  3
PROJECTNAME
350
9F0
  0
DIMASSOC
  5
E38
102
{ACAD_REACTORS
330
E2E
102
}
330
E2E
100
AcDbDimAssoc
330
E21
 90
        3
 70
     0
 71
     0
  1
AcDbOsnapPointRef
 72
     6
331
90F
 73
     2
 91
        0
 40
0.2522166993406272
 10
0.0
 20
0.0
 30
0.0
332
909
 74
     2
 92
        0
 75
     0
  1
AcDbOsnapPointRef
 72
    13
331
C94
 73
     2
 91
        0
 40
0.0
 10
0.0
 20
0.0
 30
2.000000000000000E+50
 75
     0
  0
DIMASSOC
  5
E65
102
{ACAD_REACTORS
330
E59
102
}
330
E59
100
AcDbDimAssoc
330
E4A
 90
        3
 70
     0
 71
     0
  1
AcDbOsnapPointRef
 72
    13
331
C69
 73
     2
 91
        0
 40
0.0
 10
0.0
 20
0.0
 30
2.000000000000000E+50
 75
     0
  1
AcDbOsnapPointRef
 72
     6
331
C6C
 73
     2
 91
        0
 40
1.0
 10
0.0
 20
0.0
 30
0.0
332
C69
 74
     2
 92
        0
 75
     0
  0
LAYOUT
  5
1F
102
{ACAD_REACTORS
330
19
102
}
330
19
100
AcDbPlotSettings
  1

  2
RICOH Aficio 2027 PCL 6
  4

  6

 40
0.0
 41
0.0
 42
0.0
 43
0.0
 44
0.0
 45
0.0
 46
0.0
 47
0.0
 48
0.0
 49
0.0
140
0.0
141
0.0
142
1.0
143
1.0
 70
   688
 72
     0
 73
     0
 74
     5
  7
monochrome1.ctb
 75
    16
147
1.0
 76
     0
 77
     2
 78
   300
148
0.0
149
0.0
100
AcDbLayout
  1
Layout1
 70
     0
 71
     1
 10
0.0
 20
0.0
 11
12.0
 21
9.0
 12
0.0
 22
0.0
 32
0.0
 14
1.000000000000000E+20
 24
1.000000000000000E+20
 34
1.000000000000000E+20
 15
-1.000000000000000E+20
 25
-1.000000000000000E+20
 35
-1.000000000000000E+20
146
0.0
 13
0.0
 23
0.0
 33
0.0
 16
1.0
 26
0.0
 36
0.0
 17
0.0
 27
1.0
 37
0.0
 76
     0
330
1C
  0
LAYOUT
  5
23
102
{ACAD_REACTORS
330
19
102
}
330
19
100
AcDbPlotSettings
  1

  2
RICOH Aficio 2027 PCL 6
  4
A4
  6

 40
5.027083396911621
 41
5.027085304260253
 42
5.027084350585937
 43
5.027069091796875
 44
209.9733276367187
 45
296.9259948730469
 46
0.0
 47
0.0
 48
0.0
 49
0.0
140
0.0
141
0.0
142
1.0
143
1.0
 70
 11952
 72
     0
 73
     1
 74
     0
  7
monochrome1.ctb
 75
     0
147
1.0
 76
     0
 77
     2
 78
   300
148
2309.103498144468
149
99.3034878542867
100
AcDbLayout
  1
Model
 70
     1
 71
     0
 10
0.0
 20
0.0
 11
12.0
 21
9.0
 12
0.0
 22
0.0
 32
0.0
 14
0.0
 24
0.0
 34
0.0
 15
0.0
 25
0.0
 35
0.0
146
0.0
 13
0.0
 23
0.0
 33
0.0
 16
1.0
 26
0.0
 36
0.0
 17
0.0
 27
1.0
 37
0.0
 76
     0
330
20
  0
MLINESTYLE
  5
17
102
{ACAD_REACTORS
330
16
102
}
330
16
100
AcDbMlineStyle
  2
STANDARD
 70
     0
  3

 62
   256
 51
90.0
 52
90.0
 71
     2
 49
0.5
 62
   256
  6
BYLAYER
 49
-0.5
 62
   256
  6
BYLAYER
  0
ACDBPLACEHOLDER
  5
F
102
{ACAD_REACTORS
330
E
102
}
330
E
  0
DICTIONARYVAR
  5
9EF
102
{ACAD_REACTORS
330
9ED
102
}
330
9ED
100
DictionaryVariables
280
     0
  1
2
  0
DICTIONARYVAR
  5
9EE
102
{ACAD_REACTORS
330
9ED
102
}
330
9ED
100
DictionaryVariables
280
     0
  1
1
  0
DICTIONARYVAR
  5
9F0
102
{ACAD_REACTORS
330
9ED
102
}
330
9ED
100
DictionaryVariables
280
     0
  1

  0
ENDSEC
  0
EOF
