  0
SECTION
  2
HEADER
  9
$ACADVER
  1
AC1018
  9
$ACADMAINTVER
 70
     2
  9
$DWGCODEPAGE
  3
ANSI_1252
  9
$INSBASE
 10
0.0
 20
0.0
 30
0.0
  9
$EXTMIN
 10
-0.043778527968243
 20
-0.0309639658767083
 30
-0.0000000000000053
  9
$EXTMAX
 10
840.0406043276694
 20
594.0188998087733
 30
0.0000000000000099
  9
$LIMMIN
 10
0.0
 20
0.0
  9
$LIMMAX
 10
840.0
 20
594.0
  9
$ORTHOMODE
 70
     1
  9
$REGENMODE
 70
     1
  9
$FILLMODE
 70
     1
  9
$QTEXTMODE
 70
     0
  9
$MIRRTEXT
 70
     1
  9
$LTSCALE
 40
20.0
  9
$ATTMODE
 70
     1
  9
$TEXTSIZE
 40
3.5
  9
$TRACEWID
 40
1.0
  9
$TEXTSTYLE
  7
STANDARD
  9
$CLAYER
  8
BEM
  9
$CELTYPE
  6
ByLayer
  9
$CECOLOR
 62
   256
  9
$CELTSCALE
 40
1.0
  9
$DISPSILH
 70
     0
  9
$DIMSCALE
 40
2.0
  9
$DIMASZ
 40
3.5
  9
$DIMEXO
 40
1.0
  9
$DIMDLI
 40
7.0
  9
$DIMRND
 40
0.0
  9
$DIMDLE
 40
0.0
  9
$DIMEXE
 40
1.0
  9
$DIMTP
 40
0.0
  9
$DIMTM
 40
0.0
  9
$DIMTXT
 40
3.5
  9
$DIMCEN
 40
1.5
  9
$DIMTSZ
 40
0.0
  9
$DIMTOL
 70
     0
  9
$DIMLIM
 70
     0
  9
$DIMTIH
 70
     0
  9
$DIMTOH
 70
     0
  9
$DIMSE1
 70
     0
  9
$DIMSE2
 70
     0
  9
$DIMTAD
 70
     1
  9
$DIMZIN
 70
     8
  9
$DIMBLK
  1

  9
$DIMASO
 70
     1
  9
$DIMSHO
 70
     0
  9
$DIMPOST
  1

  9
$DIMAPOST
  1

  9
$DIMALT
 70
     0
  9
$DIMALTD
 70
     2
  9
$DIMALTF
 40
25.4
  9
$DIMLFAC
 40
1.0
  9
$DIMTOFL
 70
     1
  9
$DIMTVP
 40
0.0
  9
$DIMTIX
 70
     0
  9
$DIMSOXD
 70
     0
  9
$DIMSAH
 70
     0
  9
$DIMBLK1
  1

  9
$DIMBLK2
  1

  9
$DIMSTYLE
  2
Standard
  9
$DIMCLRD
 70
     0
  9
$DIMCLRE
 70
     0
  9
$DIMCLRT
 70
     1
  9
$DIMTFAC
 40
0.5142857142857144
  9
$DIMGAP
 40
1.5
  9
$DIMJUST
 70
     0
  9
$DIMSD1
 70
     0
  9
$DIMSD2
 70
     0
  9
$DIMTOLJ
 70
     1
  9
$DIMTZIN
 70
     8
  9
$DIMALTZ
 70
     8
  9
$DIMALTTZ
 70
     8
  9
$DIMUPT
 70
     0
  9
$DIMDEC
 70
     2
  9
$DIMTDEC
 70
     2
  9
$DIMALTU
 70
     2
  9
$DIMALTTD
 70
     2
  9
$DIMTXSTY
  7
STANDARD
  9
$DIMAUNIT
 70
     0
  9
$DIMADEC
 70
     2
  9
$DIMALTRND
 40
0.0
  9
$DIMAZIN
 70
     2
  9
$DIMDSEP
 70
    46
  9
$DIMATFIT
 70
     3
  9
$DIMFRAC
 70
     0
  9
$DIMLDRBLK
  1

  9
$DIMLUNIT
 70
     2
  9
$DIMLWD
 70
    -2
  9
$DIMLWE
 70
    -2
  9
$DIMTMOVE
 70
     0
  9
$LUNITS
 70
     2
  9
$LUPREC
 70
     2
  9
$SKETCHINC
 40
1.0
  9
$FILLETRAD
 40
0.0
  9
$AUNITS
 70
     0
  9
$AUPREC
 70
     0
  9
$MENU
  1
ACAD
  9
$ELEVATION
 40
0.0
  9
$PELEVATION
 40
0.0
  9
$THICKNESS
 40
0.0
  9
$LIMCHECK
 70
     0
  9
$CHAMFERA
 40
0.0
  9
$CHAMFERB
 40
0.0
  9
$CHAMFERC
 40
0.0
  9
$CHAMFERD
 40
0.0
  9
$SKPOLY
 70
     0
  9
$TDCREATE
 40
2455397.867059838
  9
$TDUCREATE
 40
2455397.783726505
  9
$TDUPDATE
 40
2455461.616086308
  9
$TDUUPDATE
 40
2455461.532752975
  9
$TDINDWG
 40
0.0273721296
  9
$TDUSRTIMER
 40
0.0273721296
  9
$USRTIMER
 70
     1
  9
$ANGBASE
 50
0.0
  9
$ANGDIR
 70
     0
  9
$PDMODE
 70
     0
  9
$PDSIZE
 40
0.0
  9
$PLINEWID
 40
0.0
  9
$SPLFRAME
 70
     0
  9
$SPLINETYPE
 70
     6
  9
$SPLINESEGS
 70
     8
  9
$HANDSEED
  5
7F7
  9
$SURFTAB1
 70
     6
  9
$SURFTAB2
 70
     6
  9
$SURFTYPE
 70
     6
  9
$SURFU
 70
     6
  9
$SURFV
 70
     6
  9
$UCSBASE
  2

  9
$UCSNAME
  2

  9
$UCSORG
 10
0.0
 20
0.0
 30
0.0
  9
$UCSXDIR
 10
1.0
 20
0.0
 30
0.0
  9
$UCSYDIR
 10
0.0
 20
1.0
 30
0.0
  9
$UCSORTHOREF
  2

  9
$UCSORTHOVIEW
 70
     0
  9
$UCSORGTOP
 10
0.0
 20
0.0
 30
0.0
  9
$UCSORGBOTTOM
 10
0.0
 20
0.0
 30
0.0
  9
$UCSORGLEFT
 10
0.0
 20
0.0
 30
0.0
  9
$UCSORGRIGHT
 10
0.0
 20
0.0
 30
0.0
  9
$UCSORGFRONT
 10
0.0
 20
0.0
 30
0.0
  9
$UCSORGBACK
 10
0.0
 20
0.0
 30
0.0
  9
$PUCSBASE
  2

  9
$PUCSNAME
  2

  9
$PUCSORG
 10
0.0
 20
0.0
 30
0.0
  9
$PUCSXDIR
 10
1.0
 20
0.0
 30
0.0
  9
$PUCSYDIR
 10
0.0
 20
1.0
 30
0.0
  9
$PUCSORTHOREF
  2

  9
$PUCSORTHOVIEW
 70
     0
  9
$PUCSORGTOP
 10
0.0
 20
0.0
 30
0.0
  9
$PUCSORGBOTTOM
 10
0.0
 20
0.0
 30
0.0
  9
$PUCSORGLEFT
 10
0.0
 20
0.0
 30
0.0
  9
$PUCSORGRIGHT
 10
0.0
 20
0.0
 30
0.0
  9
$PUCSORGFRONT
 10
0.0
 20
0.0
 30
0.0
  9
$PUCSORGBACK
 10
0.0
 20
0.0
 30
0.0
  9
$USERI1
 70
     0
  9
$USERI2
 70
     0
  9
$USERI3
 70
     0
  9
$USERI4
 70
     0
  9
$USERI5
 70
     0
  9
$USERR1
 40
0.0
  9
$USERR2
 40
0.0
  9
$USERR3
 40
0.0
  9
$USERR4
 40
0.0
  9
$USERR5
 40
0.0
  9
$WORLDVIEW
 70
     1
  9
$SHADEDGE
 70
     3
  9
$SHADEDIF
 70
    70
  9
$TILEMODE
 70
     1
  9
$MAXACTVP
 70
    16
  9
$PINSBASE
 10
0.0
 20
0.0
 30
0.0
  9
$PLIMCHECK
 70
     0
  9
$PEXTMIN
 10
1.000000000000000E+20
 20
1.000000000000000E+20
 30
1.000000000000000E+20
  9
$PEXTMAX
 10
-1.000000000000000E+20
 20
-1.000000000000000E+20
 30
-1.000000000000000E+20
  9
$PLIMMIN
 10
0.0
 20
0.0
  9
$PLIMMAX
 10
12.0
 20
9.0
  9
$UNITMODE
 70
     0
  9
$VISRETAIN
 70
     0
  9
$PLINEGEN
 70
     0
  9
$PSLTSCALE
 70
     0
  9
$TREEDEPTH
 70
  3020
  9
$CMLSTYLE
  2
Standard
  9
$CMLJUST
 70
     0
  9
$CMLSCALE
 40
1.0
  9
$PROXYGRAPHICS
 70
     1
  9
$MEASUREMENT
 70
     0
  9
$CELWEIGHT
370
    -1
  9
$ENDCAPS
280
     0
  9
$JOINSTYLE
280
     0
  9
$LWDISPLAY
290
     0
  9
$INSUNITS
 70
     0
  9
$HYPERLINKBASE
  1

  9
$STYLESHEET
  1
monochrome 1.ctb
  9
$XEDIT
290
     1
  9
$CEPSNTYPE
380
     0
  9
$PSTYLEMODE
290
     1
  9
$FINGERPRINTGUID
  2
{D68B0D0D-A558-11D7-B632-000102183313}
  9
$VERSIONGUID
  2
{3C3EFAD2-473F-4749-911D-73FB3E07A257}
  9
$EXTNAMES
290
     1
  9
$PSVPSCALE
 40
0.0
  9
$OLESTARTUP
290
     0
  9
$SORTENTS
280
   127
  9
$INDEXCTL
280
     0
  9
$HIDETEXT
280
     0
  9
$XCLIPFRAME
290
     0
  9
$HALOGAP
280
     0
  9
$OBSCOLOR
 70
   257
  9
$OBSLTYPE
280
     0
  9
$INTERSECTIONDISPLAY
280
     0
  9
$INTERSECTIONCOLOR
 70
   257
  9
$DIMASSOC
280
     1
  9
$PROJECTNAME
  1

  0
ENDSEC
  0
SECTION
  2
CLASSES
  0
CLASS
  1
ACDBDICTIONARYWDFLT
  2
AcDbDictionaryWithDefault
  3
ObjectDBX Classes
 90
        0
 91
        1
280
     0
281
     0
  0
CLASS
  1
DICTIONARYVAR
  2
AcDbDictionaryVar
  3
ObjectDBX Classes
 90
        0
 91
        2
280
     0
281
     0
  0
ENDSEC
  0
SECTION
  2
TABLES
  0
TABLE
  2
VPORT
  5
8
330
0
100
AcDbSymbolTable
 70
     2
  0
VPORT
  5
7F6
330
8
100
AcDbSymbolTableRecord
100
AcDbViewportTableRecord
  2
*Active
 70
     0
 10
0.0
 20
0.0
 11
1.0
 21
1.0
 12
419.9984128998504
 22
296.9939679214482
 13
0.0
 23
0.0
 14
1.0
 24
1.0
 15
10.0
 25
10.0
 16
0.0
 26
0.0
 36
1.0
 17
0.0
 27
0.0
 37
0.0
 40
632.1650757800512
 41
1.336927223719676
 42
50.0
 43
0.0
 44
0.0
 50
0.0
 51
0.0
 71
     0
 72
  1500
 73
     1
 74
     0
 75
     0
 76
     0
 77
     0
 78
     0
281
     0
 65
     1
110
0.0
120
0.0
130
0.0
111
1.0
121
0.0
131
0.0
112
0.0
122
1.0
132
0.0
 79
     0
146
0.0
  0
ENDTAB
  0
TABLE
  2
LTYPE
  5
5
330
0
100
AcDbSymbolTable
 70
     2
  0
LTYPE
  5
13
330
5
100
AcDbSymbolTableRecord
100
AcDbLinetypeTableRecord
  2
ByBlock
 70
     0
  3

 72
    65
 73
     0
 40
0.0
  0
LTYPE
  5
14
330
5
100
AcDbSymbolTableRecord
100
AcDbLinetypeTableRecord
  2
ByLayer
 70
     0
  3

 72
    65
 73
     0
 40
0.0
  0
LTYPE
  5
15
330
5
100
AcDbSymbolTableRecord
100
AcDbLinetypeTableRecord
  2
Continuous
 70
     0
  3
Solid line
 72
    65
 73
     0
 40
0.0
  0
LTYPE
  5
25
330
5
100
AcDbSymbolTableRecord
100
AcDbLinetypeTableRecord
  2
STRICHPUNKT
 70
     0
  3
__ . __ . __ . __ . __ . __ . __ . __ . __ . __
 72
    65
 73
     4
 40
1.0
 49
0.5
 74
     0
 49
-0.25
 74
     0
 49
0.0
 74
     0
 49
-0.25
 74
     0
  0
ENDTAB
  0
TABLE
  2
LAYER
  5
2
330
0
100
AcDbSymbolTable
 70
     9
  0
LAYER
  5
10
330
2
100
AcDbSymbolTableRecord
100
AcDbLayerTableRecord
  2
0
 70
     0
 62
     7
  6
Continuous
370
    -3
390
F
  0
LAYER
  5
2B
330
2
100
AcDbSymbolTableRecord
100
AcDbLayerTableRecord
  2
VOLL
 70
     0
 62
     1
  6
Continuous
370
    -3
390
F
  0
LAYER
  5
2C
330
2
100
AcDbSymbolTableRecord
100
AcDbLayerTableRecord
  2
HILF
 70
     0
 62
     2
  6
Continuous
370
    -3
390
F
  0
LAYER
  5
2D
330
2
100
AcDbSymbolTableRecord
100
AcDbLayerTableRecord
  2
MITTEL
 70
     0
 62
     2
  6
STRICHPUNKT
370
    -3
390
F
  0
LAYER
  5
2F
330
2
100
AcDbSymbolTableRecord
100
AcDbLayerTableRecord
  2
BEM
 70
     0
 62
     7
  6
Continuous
370
    -3
390
F
  0
LAYER
  5
30
330
2
100
AcDbSymbolTableRecord
100
AcDbLayerTableRecord
  2
STEMPEL
 70
     0
 62
     3
  6
Continuous
370
    -3
390
F
  0
LAYER
  5
33
330
2
100
AcDbSymbolTableRecord
100
AcDbLayerTableRecord
  2
TEXT
 70
     0
 62
     7
  6
Continuous
370
    -3
390
F
  0
LAYER
  5
583
330
2
100
AcDbSymbolTableRecord
100
AcDbLayerTableRecord
  2
SCHRAFF
 70
     0
 62
     7
  6
Continuous
370
    -3
390
F
  0
LAYER
  5
584
330
2
100
AcDbSymbolTableRecord
100
AcDbLayerTableRecord
  2
DEFPOINTS
 70
     0
 62
     7
  6
Continuous
290
     0
370
    -3
390
F
  0
ENDTAB
  0
TABLE
  2
STYLE
  5
3
330
0
100
AcDbSymbolTable
 70
     2
  0
STYLE
  5
11
330
3
100
AcDbSymbolTableRecord
100
AcDbTextStyleTableRecord
  2
STANDARD
 70
     0
 40
0.0
 41
0.8
 50
0.0
 71
     0
 42
3.5
  3
simplex.shx
  4

  0
STYLE
  5
24
330
3
100
AcDbSymbolTableRecord
100
AcDbTextStyleTableRecord
  2
GREEKS
 70
     0
 40
0.0
 41
0.8
 50
0.0
 71
     0
 42
2.5
  3
SIMPLEX.shx
  4

  0
ENDTAB
  0
TABLE
  2
VIEW
  5
6
330
0
100
AcDbSymbolTable
 70
     0
  0
ENDTAB
  0
TABLE
  2
UCS
  5
7
330
0
100
AcDbSymbolTable
 70
     0
  0
ENDTAB
  0
TABLE
  2
APPID
  5
9
330
0
100
AcDbSymbolTable
 70
     1
  0
APPID
  5
12
330
9
100
AcDbSymbolTableRecord
100
AcDbRegAppTableRecord
  2
ACAD
 70
     0
  0
ENDTAB
  0
TABLE
  2
DIMSTYLE
  5
A
330
0
100
AcDbSymbolTable
 70
     1
100
AcDbDimStyleTable
 71
     1
340
A2
  0
DIMSTYLE
105
A2
102
{ACAD_REACTORS
330
6F6
330
6F1
330
6EA
330
6E6
330
6E2
102
}
330
A
100
AcDbSymbolTableRecord
100
AcDbDimStyleTableRecord
  2
Standard
 70
     0
340
11
  0
ENDTAB
  0
TABLE
  2
BLOCK_RECORD
  5
1
330
0
100
AcDbSymbolTable
 70
    16
  0
BLOCK_RECORD
  5
1E
102
{ACAD_XDICTIONARY
360
DB
102
}
330
1
100
AcDbSymbolTableRecord
100
AcDbBlockTableRecord
  2
*Model_Space
340
21
  0
BLOCK_RECORD
  5
1A
102
{ACAD_XDICTIONARY
360
DD
102
}
330
1
100
AcDbSymbolTableRecord
100
AcDbBlockTableRecord
  2
*Paper_Space
340
1D
  0
BLOCK_RECORD
  5
22
330
1
100
AcDbSymbolTableRecord
100
AcDbBlockTableRecord
  2
LOGO
340
0
102
{BLKREFS
331
56
102
}
  0
BLOCK_RECORD
  5
23
330
1
100
AcDbSymbolTableRecord
100
AcDbBlockTableRecord
  2
LORO
340
0
102
{BLKREFS
331
9B
102
}
  0
BLOCK_RECORD
  5
184
330
1
100
AcDbSymbolTableRecord
100
AcDbBlockTableRecord
  2
*X2
340
0
102
{BLKREFS
331
6F2
102
}
  0
BLOCK_RECORD
  5
1C1
330
1
100
AcDbSymbolTableRecord
100
AcDbBlockTableRecord
  2
*X3
340
0
102
{BLKREFS
331
6E9
102
}
  0
BLOCK_RECORD
  5
230
330
1
100
AcDbSymbolTableRecord
100
AcDbBlockTableRecord
  2
*X4
340
0
102
{BLKREFS
331
6F0
102
}
  0
BLOCK_RECORD
  5
27C
330
1
100
AcDbSymbolTableRecord
100
AcDbBlockTableRecord
  2
*X5
340
0
102
{BLKREFS
331
6EF
102
}
  0
BLOCK_RECORD
  5
2B7
330
1
100
AcDbSymbolTableRecord
100
AcDbBlockTableRecord
  2
*X6
340
0
102
{BLKREFS
331
66A
331
6C8
102
}
  0
BLOCK_RECORD
  5
2EC
330
1
100
AcDbSymbolTableRecord
100
AcDbBlockTableRecord
  2
*X7
340
0
102
{BLKREFS
331
6EE
102
}
  0
BLOCK_RECORD
  5
312
330
1
100
AcDbSymbolTableRecord
100
AcDbBlockTableRecord
  2
*X8
340
0
102
{BLKREFS
331
685
331
6DA
102
}
  0
BLOCK_RECORD
  5
37C
330
1
100
AcDbSymbolTableRecord
100
AcDbBlockTableRecord
  2
*X9
340
0
102
{BLKREFS
331
691
102
}
  0
BLOCK_RECORD
  5
47A
330
1
100
AcDbSymbolTableRecord
100
AcDbBlockTableRecord
  2
*X10
340
0
102
{BLKREFS
331
6E3
102
}
  0
BLOCK_RECORD
  5
6F7
330
1
100
AcDbSymbolTableRecord
100
AcDbBlockTableRecord
  2
*D11
340
0
  0
BLOCK_RECORD
  5
704
330
1
100
AcDbSymbolTableRecord
100
AcDbBlockTableRecord
  2
*D12
340
0
  0
BLOCK_RECORD
  5
711
330
1
100
AcDbSymbolTableRecord
100
AcDbBlockTableRecord
  2
*D13
340
0
  0
BLOCK_RECORD
  5
71E
330
1
100
AcDbSymbolTableRecord
100
AcDbBlockTableRecord
  2
*D14
340
0
  0
BLOCK_RECORD
  5
72B
330
1
100
AcDbSymbolTableRecord
100
AcDbBlockTableRecord
  2
*D15
340
0
  0
ENDTAB
  0
ENDSEC
  0
SECTION
  2
BLOCKS
  0
BLOCK
  5
37
330
1E
100
AcDbEntity
  8
0
100
AcDbBlockBegin
  2
*Model_Space
 70
     0
 10
0.0
 20
0.0
 30
0.0
  3
*Model_Space
  1

  0
ENDBLK
  5
38
330
1E
100
AcDbEntity
  8
0
100
AcDbBlockEnd
  0
BLOCK
  5
35
330
1A
100
AcDbEntity
 67
     1
  8
0
100
AcDbBlockBegin
  2
*Paper_Space
 70
     0
 10
0.0
 20
0.0
 30
0.0
  3
*Paper_Space
  1

  0
ENDBLK
  5
36
330
1A
100
AcDbEntity
 67
     1
  8
0
100
AcDbBlockEnd
  0
BLOCK
  5
39
330
22
100
AcDbEntity
  8
0
100
AcDbBlockBegin
  2
LOGO
 70
     0
 10
0.0
 20
0.0
 30
0.0
  3
LOGO
  1

  0
ARC
  5
3A
330
22
100
AcDbEntity
  8
0
100
AcDbCircle
 10
11.59973089678112
 20
-9.271599258481501
 30
0.0
 40
4.5
100
AcDbArc
 50
270.0
 51
231.0575587310159
  0
LINE
  5
3B
330
22
100
AcDbEntity
  8
0
100
AcDbLine
 10
3.599730896781125
 20
-4.771599258481529
 30
0.0
 11
3.599730896781153
 21
-11.77159925848133
 31
0.0
  0
LINE
  5
3C
330
22
100
AcDbEntity
  8
0
100
AcDbLine
 10
2.599730896781125
 20
-4.771599258481529
 30
0.0
 11
2.599730896781153
 21
-11.77159925848133
 31
0.0
  0
CIRCLE
  5
3D
330
22
100
AcDbEntity
  8
0
100
AcDbCircle
 10
11.59973089678112
 20
-9.271599258481501
 30
0.0
 40
3.5
  0
ARC
  5
3E
330
22
100
AcDbEntity
  8
0
100
AcDbCircle
 10
31.59973089678115
 20
-9.271599258481472
 30
0.0
 40
4.5
100
AcDbArc
 50
270.0
 51
231.0575587310182
  0
LINE
  5
3F
330
22
100
AcDbEntity
  8
0
100
AcDbLine
 10
17.59973089678112
 20
-4.771599258481472
 30
0.0
 11
17.59973089678115
 21
-13.77159925848147
 31
0.0
  0
ARC
  5
40
330
22
100
AcDbEntity
  8
0
100
AcDbCircle
 10
22.59973089678116
 20
-7.271599258481472
 30
0.0
 40
2.5
100
AcDbArc
 50
293.1161887722295
 51
90.0
  0
CIRCLE
  5
41
330
22
100
AcDbEntity
  8
0
100
AcDbCircle
 10
31.59973089678115
 20
-9.271599258481472
 30
0.0
 40
3.5
  0
ARC
  5
42
330
22
100
AcDbEntity
  8
0
100
AcDbCircle
 10
4.599730896781153
 20
-11.77159925848133
 30
0.0
 40
1.0
100
AcDbArc
 50
180.0
 51
270.0
  0
ARC
  5
43
330
22
100
AcDbEntity
  8
0
100
AcDbCircle
 10
4.599730896781153
 20
-11.77159925848133
 30
0.0
 40
2.0
100
AcDbArc
 50
179.9999999999992
 51
270.0
  0
LINE
  5
44
330
22
100
AcDbEntity
  8
0
100
AcDbLine
 10
11.59973089678115
 20
-13.77159925848144
 30
0.0
 11
4.599730896781153
 21
-13.77159925848147
 31
0.0
  0
LINE
  5
45
330
22
100
AcDbEntity
  8
0
100
AcDbLine
 10
8.771303772034769
 20
-12.77159925848136
 30
0.0
 11
4.599730896781153
 21
-12.77159925848133
 31
0.0
  0
LINE
  5
46
330
22
100
AcDbEntity
  8
0
100
AcDbLine
 10
31.59973089678115
 20
-13.77159925848147
 30
0.0
 11
23.6715276665056
 21
-13.77159925848144
 31
0.0
  0
LINE
  5
47
330
22
100
AcDbEntity
  8
0
100
AcDbLine
 10
23.56565672307022
 20
-9.51278021337896
 30
0.0
 11
24.4388546544846
 21
-12.77159925848144
 31
0.0
  0
LINE
  5
48
330
22
100
AcDbEntity
  8
0
100
AcDbLine
 10
22.59973089678116
 20
-9.771599258481472
 30
0.0
 11
18.59973089678112
 21
-9.771599258481472
 31
0.0
  0
LINE
  5
49
330
22
100
AcDbEntity
  8
0
100
AcDbLine
 10
18.59973089678115
 20
-13.77159925848144
 30
0.0
 11
17.59973089678115
 21
-13.77159925848144
 31
0.0
  0
LINE
  5
4A
330
22
100
AcDbEntity
  8
0
100
AcDbLine
 10
18.59973089678115
 20
-9.771599258481472
 30
0.0
 11
18.59973089678115
 21
-13.77159925848144
 31
0.0
  0
LINE
  5
4B
330
22
100
AcDbEntity
  8
0
100
AcDbLine
 10
22.59973089678116
 20
-9.771599258481472
 30
0.0
 11
23.67152766650562
 21
-13.77159925848147
 31
0.0
  0
ARC
  5
4C
330
22
100
AcDbEntity
  8
0
100
AcDbCircle
 10
22.59973089678116
 20
-7.271599258481472
 30
0.0
 40
2.5
100
AcDbArc
 50
270.0
 51
270.0000000000007
  0
LINE
  5
4D
330
22
100
AcDbEntity
  8
0
100
AcDbLine
 10
28.77130377203494
 20
-12.77159925848147
 30
0.0
 11
24.43885465448463
 21
-12.77159925848144
 31
0.0
  0
LINE
  5
4E
330
22
100
AcDbEntity
  8
0
100
AcDbLine
 10
3.599730896781125
 20
-4.771599258481472
 30
0.0
 11
2.599730896781125
 21
-4.771599258481472
 31
0.0
  0
LINE
  5
4F
330
22
100
AcDbEntity
  8
0
100
AcDbLine
 10
22.59973089678116
 20
-8.771599258481472
 30
0.0
 11
18.59973089678115
 21
-8.771599258481472
 31
0.0
  0
LINE
  5
50
330
22
100
AcDbEntity
  8
0
100
AcDbLine
 10
22.59973089678116
 20
-5.771599258481472
 30
0.0
 11
18.59973089678115
 21
-5.771599258481472
 31
0.0
  0
LINE
  5
51
330
22
100
AcDbEntity
  8
0
100
AcDbLine
 10
22.59973089678116
 20
-4.771599258481472
 30
0.0
 11
17.59973089678115
 21
-4.771599258481472
 31
0.0
  0
LINE
  5
52
330
22
100
AcDbEntity
  8
0
100
AcDbLine
 10
18.59973089678115
 20
-5.771599258481472
 30
0.0
 11
18.59973089678115
 21
-8.771599258481472
 31
0.0
  0
ARC
  5
53
330
22
100
AcDbEntity
  8
0
100
AcDbCircle
 10
22.59973089678116
 20
-7.271599258481472
 30
0.0
 40
1.5
100
AcDbArc
 50
270.0
 51
90.0
  0
ENDBLK
  5
54
330
22
100
AcDbEntity
  8
0
100
AcDbBlockEnd
  0
BLOCK
  5
55
330
23
100
AcDbEntity
  8
0
100
AcDbBlockBegin
  2
LORO
 70
     0
 10
0.0
 20
0.0
 30
0.0
  3
LORO
  1

  0
INSERT
  5
56
330
23
100
AcDbEntity
  8
STEMPEL
100
AcDbBlockReference
  2
LOGO
 10
-1.748032802467321
 20
3.771489518552062
 30
0.0
  0
ENDBLK
  5
57
330
23
100
AcDbEntity
  8
0
100
AcDbBlockEnd
  0
BLOCK
  5
185
330
184
100
AcDbEntity
  8
0
100
AcDbBlockBegin
  2
*X2
 70
     1
 10
0.0
 20
0.0
 30
0.0
  3
*X2
  1

  0
LINE
  5
186
330
184
100
AcDbEntity
  8
0
 62
     0
100
AcDbLine
 10
182.3359627999391
 20
386.9
 30
0.0
 11
184.9299187518418
 21
386.9
 31
0.0
  0
LINE
  5
187
330
184
100
AcDbEntity
  8
0
 62
     0
100
AcDbLine
 10
257.9299187518418
 20
386.9
 30
0.0
 11
260.5238747037459
 21
386.9
 31
0.0
  0
LINE
  5
188
330
184
100
AcDbEntity
  8
0
 62
     0
100
AcDbLine
 10
182.2803847787668
 20
387.0
 30
0.0
 11
184.9299187518418
 21
387.0
 31
0.0
  0
LINE
  5
189
330
184
100
AcDbEntity
  8
0
 62
     0
100
AcDbLine
 10
257.9299187518418
 20
387.0
 30
0.0
 11
260.5794527249182
 21
387.0
 31
0.0
  0
LINE
  5
18A
330
184
100
AcDbEntity
  8
0
 62
     0
100
AcDbLine
 10
182.2296496784816
 20
387.1
 30
0.0
 11
184.9299187518418
 21
387.1
 31
0.0
  0
LINE
  5
18B
330
184
100
AcDbEntity
  8
0
 62
     0
100
AcDbLine
 10
257.9299187518418
 20
387.1
 30
0.0
 11
260.6301878252034
 21
387.1
 31
0.0
  0
LINE
  5
18C
330
184
100
AcDbEntity
  8
0
 62
     0
100
AcDbLine
 10
182.1834890945207
 20
387.2
 30
0.0
 11
184.9299187518418
 21
387.2
 31
0.0
  0
LINE
  5
18D
330
184
100
AcDbEntity
  8
0
 62
     0
100
AcDbLine
 10
257.9299187518418
 20
387.2
 30
0.0
 11
260.6763484091642
 21
387.2
 31
0.0
  0
LINE
  5
18E
330
184
100
AcDbEntity
  8
0
 62
     0
100
AcDbLine
 10
182.141675818258
 20
387.3
 30
0.0
 11
184.9299187518418
 21
387.3
 31
0.0
  0
LINE
  5
18F
330
184
100
AcDbEntity
  8
0
 62
     0
100
AcDbLine
 10
257.9299187518418
 20
387.3
 30
0.0
 11
260.7181616854269
 21
387.3
 31
0.0
  0
LINE
  5
190
330
184
100
AcDbEntity
  8
0
 62
     0
100
AcDbLine
 10
182.1040168691241
 20
387.4
 30
0.0
 11
184.9299187518418
 21
387.4
 31
0.0
  0
LINE
  5
191
330
184
100
AcDbEntity
  8
0
 62
     0
100
AcDbLine
 10
257.9299187518418
 20
387.4
 30
0.0
 11
260.7558206345607
 21
387.4
 31
0.0
  0
LINE
  5
192
330
184
100
AcDbEntity
  8
0
 62
     0
100
AcDbLine
 10
182.0703481119005
 20
387.5
 30
0.0
 11
184.9299187518418
 21
387.5
 31
0.0
  0
LINE
  5
193
330
184
100
AcDbEntity
  8
0
 62
     0
100
AcDbLine
 10
257.9299187518418
 20
387.5
 30
0.0
 11
260.7894893917844
 21
387.5
 31
0.0
  0
LINE
  5
194
330
184
100
AcDbEntity
  8
0
 62
     0
100
AcDbLine
 10
182.0405300554422
 20
387.6
 30
0.0
 11
184.9299187518418
 21
387.6
 31
0.0
  0
LINE
  5
195
330
184
100
AcDbEntity
  8
0
 62
     0
100
AcDbLine
 10
257.9299187518418
 20
387.6
 30
0.0
 11
260.8193074482426
 21
387.6
 31
0.0
  0
LINE
  5
196
330
184
100
AcDbEntity
  8
0
 62
     0
100
AcDbLine
 10
182.0144445480545
 20
387.7000000000001
 30
0.0
 11
184.9299187518418
 21
387.7000000000001
 31
0.0
  0
LINE
  5
197
330
184
100
AcDbEntity
  8
0
 62
     0
100
AcDbLine
 10
257.9299187518418
 20
387.7000000000001
 30
0.0
 11
260.8453929556303
 21
387.7000000000001
 31
0.0
  0
LINE
  5
198
330
184
100
AcDbEntity
  8
0
 62
     0
100
AcDbLine
 10
181.9919921654519
 20
387.8
 30
0.0
 11
184.9299187518418
 21
387.8
 31
0.0
  0
LINE
  5
199
330
184
100
AcDbEntity
  8
0
 62
     0
100
AcDbLine
 10
257.9299187518418
 20
387.8
 30
0.0
 11
260.8678453382328
 21
387.8
 31
0.0
  0
LINE
  5
19A
330
184
100
AcDbEntity
  8
0
 62
     0
100
AcDbLine
 10
181.973090143166
 20
387.9
 30
0.0
 11
184.9299187518418
 21
387.9
 31
0.0
  0
LINE
  5
19B
330
184
100
AcDbEntity
  8
0
 62
     0
100
AcDbLine
 10
257.9299187518418
 20
387.9
 30
0.0
 11
260.8867473605188
 21
387.9
 31
0.0
  0
LINE
  5
19C
330
184
100
AcDbEntity
  8
0
 62
     0
100
AcDbLine
 10
181.9576707448359
 20
388.0
 30
0.0
 11
184.9299187518418
 21
388.0
 31
0.0
  0
LINE
  5
19D
330
184
100
AcDbEntity
  8
0
 62
     0
100
AcDbLine
 10
257.9299187518418
 20
388.0
 30
0.0
 11
260.9021667588489
 21
388.0
 31
0.0
  0
LINE
  5
19E
330
184
100
AcDbEntity
  8
0
 62
     0
100
AcDbLine
 10
181.9456799863912
 20
388.1
 30
0.0
 11
184.9299187518418
 21
388.1
 31
0.0
  0
LINE
  5
19F
330
184
100
AcDbEntity
  8
0
 62
     0
100
AcDbLine
 10
257.9299187518418
 20
388.1
 30
0.0
 11
260.9141575172935
 21
388.1
 31
0.0
  0
LINE
  5
1A0
330
184
100
AcDbEntity
  8
0
 62
     0
100
AcDbLine
 10
181.9370766572292
 20
388.2000000000001
 30
0.0
 11
184.9299187518418
 21
388.2000000000001
 31
0.0
  0
LINE
  5
1A1
330
184
100
AcDbEntity
  8
0
 62
     0
100
AcDbLine
 10
257.9299187518418
 20
388.2000000000001
 30
0.0
 11
260.9227608464556
 21
388.2000000000001
 31
0.0
  0
LINE
  5
1A2
330
184
100
AcDbEntity
  8
0
 62
     0
100
AcDbLine
 10
181.9318315954448
 20
388.3
 30
0.0
 11
184.9299187518418
 21
388.3
 31
0.0
  0
LINE
  5
1A3
330
184
100
AcDbEntity
  8
0
 62
     0
100
AcDbLine
 10
257.9299187518418
 20
388.3
 30
0.0
 11
260.9280059082399
 21
388.3
 31
0.0
  0
LINE
  5
1A4
330
184
100
AcDbEntity
  8
0
 62
     0
100
AcDbLine
 10
182.3967024787329
 20
386.8
 30
0.0
 11
184.9299187518418
 21
386.8
 31
0.0
  0
LINE
  5
1A5
330
184
100
AcDbEntity
  8
0
 62
     0
100
AcDbLine
 10
257.9299187518418
 20
386.8
 30
0.0
 11
260.4631350249522
 21
386.8
 31
0.0
  0
LINE
  5
1A6
330
184
100
AcDbEntity
  8
0
 62
     0
100
AcDbLine
 10
182.4629850493932
 20
386.7
 30
0.0
 11
184.9299187518418
 21
386.7
 31
0.0
  0
LINE
  5
1A7
330
184
100
AcDbEntity
  8
0
 62
     0
100
AcDbLine
 10
257.9299187518418
 20
386.7
 30
0.0
 11
260.3968524542919
 21
386.7
 31
0.0
  0
LINE
  5
1A8
330
184
100
AcDbEntity
  8
0
 62
     0
100
AcDbLine
 10
182.5352707405029
 20
386.6
 30
0.0
 11
184.9299187518418
 21
386.6
 31
0.0
  0
LINE
  5
1A9
330
184
100
AcDbEntity
  8
0
 62
     0
100
AcDbLine
 10
257.9299187518418
 20
386.6
 30
0.0
 11
260.3245667631823
 21
386.6
 31
0.0
  0
LINE
  5
1AA
330
184
100
AcDbEntity
  8
0
 62
     0
100
AcDbLine
 10
182.6141216311634
 20
386.5
 30
0.0
 11
184.9299187518418
 21
386.5
 31
0.0
  0
LINE
  5
1AB
330
184
100
AcDbEntity
  8
0
 62
     0
100
AcDbLine
 10
257.9299187518418
 20
386.5
 30
0.0
 11
260.2457158725218
 21
386.5
 31
0.0
  0
LINE
  5
1AC
330
184
100
AcDbEntity
  8
0
 62
     0
100
AcDbLine
 10
182.7002341306285
 20
386.4
 30
0.0
 11
184.9299187518418
 21
386.4
 31
0.0
  0
LINE
  5
1AD
330
184
100
AcDbEntity
  8
0
 62
     0
100
AcDbLine
 10
257.9299187518418
 20
386.4
 30
0.0
 11
260.1596033730568
 21
386.4
 31
0.0
  0
LINE
  5
1AE
330
184
100
AcDbEntity
  8
0
 62
     0
100
AcDbLine
 10
182.7944865435973
 20
386.3
 30
0.0
 11
184.9299187518418
 21
386.3
 31
0.0
  0
LINE
  5
1AF
330
184
100
AcDbEntity
  8
0
 62
     0
100
AcDbLine
 10
257.9299187518418
 20
386.3
 30
0.0
 11
260.065350960088
 21
386.3
 31
0.0
  0
LINE
  5
1B0
330
184
100
AcDbEntity
  8
0
 62
     0
100
AcDbLine
 10
182.8980112928416
 20
386.2
 30
0.0
 11
184.9299187518418
 21
386.2
 31
0.0
  0
LINE
  5
1B1
330
184
100
AcDbEntity
  8
0
 62
     0
100
AcDbLine
 10
257.9299187518418
 20
386.2
 30
0.0
 11
259.9618262108439
 21
386.2
 31
0.0
  0
LINE
  5
1B2
330
184
100
AcDbEntity
  8
0
 62
     0
100
AcDbLine
 10
183.0123095299529
 20
386.1
 30
0.0
 11
184.9299187518418
 21
386.1
 31
0.0
  0
LINE
  5
1B3
330
184
100
AcDbEntity
  8
0
 62
     0
100
AcDbLine
 10
257.9299187518418
 20
386.1
 30
0.0
 11
259.8475279737328
 21
386.1
 31
0.0
  0
LINE
  5
1B4
330
184
100
AcDbEntity
  8
0
 62
     0
100
AcDbLine
 10
183.1394433027484
 20
386.0
 30
0.0
 11
184.9299187518418
 21
386.0
 31
0.0
  0
LINE
  5
1B5
330
184
100
AcDbEntity
  8
0
 62
     0
100
AcDbLine
 10
257.9299187518418
 20
386.0
 30
0.0
 11
259.7203942009374
 21
386.0
 31
0.0
  0
LINE
  5
1B6
330
184
100
AcDbEntity
  8
0
 62
     0
100
AcDbLine
 10
183.2823813350469
 20
385.9
 30
0.0
 11
184.9299187518418
 21
385.9
 31
0.0
  0
LINE
  5
1B7
330
184
100
AcDbEntity
  8
0
 62
     0
100
AcDbLine
 10
257.9299187518418
 20
385.9
 30
0.0
 11
259.5774561686391
 21
385.9
 31
0.0
  0
LINE
  5
1B8
330
184
100
AcDbEntity
  8
0
 62
     0
100
AcDbLine
 10
183.4456826703266
 20
385.8
 30
0.0
 11
184.9299187518418
 21
385.8
 31
0.0
  0
LINE
  5
1B9
330
184
100
AcDbEntity
  8
0
 62
     0
100
AcDbLine
 10
257.9299187518418
 20
385.8
 30
0.0
 11
259.4141548333598
 21
385.8
 31
0.0
  0
LINE
  5
1BA
330
184
100
AcDbEntity
  8
0
 62
     0
100
AcDbLine
 10
183.6370405860409
 20
385.7000000000001
 30
0.0
 11
184.9299187518418
 21
385.7000000000001
 31
0.0
  0
LINE
  5
1BB
330
184
100
AcDbEntity
  8
0
 62
     0
100
AcDbLine
 10
257.9299187518418
 20
385.7000000000001
 30
0.0
 11
259.2227969176458
 21
385.7000000000001
 31
0.0
  0
LINE
  5
1BC
330
184
100
AcDbEntity
  8
0
 62
     0
100
AcDbLine
 10
183.8715657117189
 20
385.6
 30
0.0
 11
184.9299187518418
 21
385.6
 31
0.0
  0
LINE
  5
1BD
330
184
100
AcDbEntity
  8
0
 62
     0
100
AcDbLine
 10
257.9299187518418
 20
385.6
 30
0.0
 11
258.9882717919686
 21
385.6
 31
0.0
  0
LINE
  5
1BE
330
184
100
AcDbEntity
  8
0
 62
     0
100
AcDbLine
 10
184.1891837361513
 20
385.5
 30
0.0
 11
184.9299187518418
 21
385.5
 31
0.0
  0
LINE
  5
1BF
330
184
100
AcDbEntity
  8
0
 62
     0
100
AcDbLine
 10
257.9299187518418
 20
385.5
 30
0.0
 11
258.6706537675379
 21
385.5
 31
0.0
  0
ENDBLK
  5
1C0
330
184
100
AcDbEntity
  8
0
100
AcDbBlockEnd
  0
BLOCK
  5
1C2
330
1C1
100
AcDbEntity
  8
0
100
AcDbBlockBegin
  2
*X3
 70
     1
 10
0.0
 20
0.0
 30
0.0
  3
*X3
  1

  0
LINE
  5
1C3
330
1C1
100
AcDbEntity
  8
0
 62
     0
100
AcDbLine
 10
184.9299187518418
 20
275.4395867437199
 30
0.0
 11
186.5299187518417
 21
277.0395867437198
 31
0.0
  0
LINE
  5
1C4
330
1C1
100
AcDbEntity
  8
0
 62
     0
100
AcDbLine
 10
256.3299187518418
 20
346.8395867437199
 30
0.0
 11
257.9299187518418
 21
348.4395867437199
 31
0.0
  0
LINE
  5
1C5
330
1C1
100
AcDbEntity
  8
0
 62
     0
100
AcDbLine
 10
184.9299187518418
 20
278.2680138684661
 30
0.0
 11
186.5299187518417
 21
279.868013868466
 31
0.0
  0
LINE
  5
1C6
330
1C1
100
AcDbEntity
  8
0
 62
     0
100
AcDbLine
 10
256.3299187518418
 20
349.668013868466
 30
0.0
 11
257.9299187518418
 21
351.2680138684661
 31
0.0
  0
LINE
  5
1C7
330
1C1
100
AcDbEntity
  8
0
 62
     0
100
AcDbLine
 10
184.9299187518418
 20
281.0964409932123
 30
0.0
 11
186.5299187518417
 21
282.6964409932122
 31
0.0
  0
LINE
  5
1C8
330
1C1
100
AcDbEntity
  8
0
 62
     0
100
AcDbLine
 10
256.3299187518418
 20
352.4964409932122
 30
0.0
 11
257.9299187518418
 21
354.0964409932123
 31
0.0
  0
LINE
  5
1C9
330
1C1
100
AcDbEntity
  8
0
 62
     0
100
AcDbLine
 10
184.9299187518418
 20
283.9248681179585
 30
0.0
 11
186.5299187518417
 21
285.5248681179584
 31
0.0
  0
LINE
  5
1CA
330
1C1
100
AcDbEntity
  8
0
 62
     0
100
AcDbLine
 10
256.3299187518418
 20
355.3248681179584
 30
0.0
 11
257.9299187518418
 21
356.9248681179585
 31
0.0
  0
LINE
  5
1CB
330
1C1
100
AcDbEntity
  8
0
 62
     0
100
AcDbLine
 10
184.9299187518418
 20
286.7532952427047
 30
0.0
 11
186.5299187518417
 21
288.3532952427046
 31
0.0
  0
LINE
  5
1CC
330
1C1
100
AcDbEntity
  8
0
 62
     0
100
AcDbLine
 10
256.3299187518418
 20
358.1532952427047
 30
0.0
 11
257.9299187518418
 21
359.7532952427047
 31
0.0
  0
LINE
  5
1CD
330
1C1
100
AcDbEntity
  8
0
 62
     0
100
AcDbLine
 10
184.9299187518418
 20
289.5817223674509
 30
0.0
 11
186.5299187518417
 21
291.1817223674508
 31
0.0
  0
LINE
  5
1CE
330
1C1
100
AcDbEntity
  8
0
 62
     0
100
AcDbLine
 10
256.3299187518418
 20
360.9817223674508
 30
0.0
 11
257.9299187518418
 21
362.5817223674508
 31
0.0
  0
LINE
  5
1CF
330
1C1
100
AcDbEntity
  8
0
 62
     0
100
AcDbLine
 10
184.9299187518418
 20
292.410149492197
 30
0.0
 11
186.5299187518417
 21
294.010149492197
 31
0.0
  0
LINE
  5
1D0
330
1C1
100
AcDbEntity
  8
0
 62
     0
100
AcDbLine
 10
256.3299187518418
 20
363.810149492197
 30
0.0
 11
257.9299187518418
 21
365.410149492197
 31
0.0
  0
LINE
  5
1D1
330
1C1
100
AcDbEntity
  8
0
 62
     0
100
AcDbLine
 10
184.9299187518418
 20
295.2385766169432
 30
0.0
 11
186.5299187518417
 21
296.8385766169431
 31
0.0
  0
LINE
  5
1D2
330
1C1
100
AcDbEntity
  8
0
 62
     0
100
AcDbLine
 10
256.3299187518418
 20
366.6385766169432
 30
0.0
 11
257.9299187518418
 21
368.2385766169432
 31
0.0
  0
LINE
  5
1D3
330
1C1
100
AcDbEntity
  8
0
 62
     0
100
AcDbLine
 10
184.9299187518418
 20
298.0670037416895
 30
0.0
 11
186.5299187518417
 21
299.6670037416893
 31
0.0
  0
LINE
  5
1D4
330
1C1
100
AcDbEntity
  8
0
 62
     0
100
AcDbLine
 10
256.3299187518418
 20
369.4670037416894
 30
0.0
 11
257.9299187518418
 21
371.0670037416894
 31
0.0
  0
LINE
  5
1D5
330
1C1
100
AcDbEntity
  8
0
 62
     0
100
AcDbLine
 10
184.9299187518418
 20
300.8954308664356
 30
0.0
 11
186.5299187518417
 21
302.4954308664355
 31
0.0
  0
LINE
  5
1D6
330
1C1
100
AcDbEntity
  8
0
 62
     0
100
AcDbLine
 10
256.3299187518418
 20
372.2954308664356
 30
0.0
 11
257.9299187518418
 21
373.8954308664356
 31
0.0
  0
LINE
  5
1D7
330
1C1
100
AcDbEntity
  8
0
 62
     0
100
AcDbLine
 10
184.9299187518418
 20
303.7238579911818
 30
0.0
 11
186.5299187518417
 21
305.3238579911818
 31
0.0
  0
LINE
  5
1D8
330
1C1
100
AcDbEntity
  8
0
 62
     0
100
AcDbLine
 10
256.3299187518418
 20
375.1238579911818
 30
0.0
 11
257.9299187518418
 21
376.7238579911818
 31
0.0
  0
LINE
  5
1D9
330
1C1
100
AcDbEntity
  8
0
 62
     0
100
AcDbLine
 10
184.9299187518418
 20
306.552285115928
 30
0.0
 11
186.5299187518417
 21
308.1522851159279
 31
0.0
  0
LINE
  5
1DA
330
1C1
100
AcDbEntity
  8
0
 62
     0
100
AcDbLine
 10
256.3299187518418
 20
377.952285115928
 30
0.0
 11
257.9299187518418
 21
379.552285115928
 31
0.0
  0
LINE
  5
1DB
330
1C1
100
AcDbEntity
  8
0
 62
     0
100
AcDbLine
 10
184.9299187518418
 20
309.3807122406742
 30
0.0
 11
186.5299187518417
 21
310.9807122406741
 31
0.0
  0
LINE
  5
1DC
330
1C1
100
AcDbEntity
  8
0
 62
     0
100
AcDbLine
 10
256.3299187518419
 20
380.7807122406742
 30
0.0
 11
257.9299187518418
 21
382.3807122406742
 31
0.0
  0
LINE
  5
1DD
330
1C1
100
AcDbEntity
  8
0
 62
     0
100
AcDbLine
 10
184.9299187518418
 20
312.2091393654204
 30
0.0
 11
186.5299187518417
 21
313.8091393654203
 31
0.0
  0
LINE
  5
1DE
330
1C1
100
AcDbEntity
  8
0
 62
     0
100
AcDbLine
 10
256.3299187518419
 20
383.6091393654204
 30
0.0
 11
257.9299187518418
 21
385.2091393654204
 31
0.0
  0
LINE
  5
1DF
330
1C1
100
AcDbEntity
  8
0
 62
     0
100
AcDbLine
 10
184.9299187518418
 20
315.0375664901666
 30
0.0
 11
186.5299187518417
 21
316.6375664901665
 31
0.0
  0
LINE
  5
1E0
330
1C1
100
AcDbEntity
  8
0
 62
     0
100
AcDbLine
 10
256.3299187518419
 20
386.4375664901666
 30
0.0
 11
257.9299187518418
 21
388.0375664901666
 31
0.0
  0
LINE
  5
1E1
330
1C1
100
AcDbEntity
  8
0
 62
     0
100
AcDbLine
 10
184.9299187518418
 20
317.8659936149128
 30
0.0
 11
186.5299187518417
 21
319.4659936149127
 31
0.0
  0
LINE
  5
1E2
330
1C1
100
AcDbEntity
  8
0
 62
     0
100
AcDbLine
 10
256.3299187518419
 20
389.2659936149128
 30
0.0
 11
257.4710391072652
 21
390.4071139703362
 31
0.0
  0
LINE
  5
1E3
330
1C1
100
AcDbEntity
  8
0
 62
     0
100
AcDbLine
 10
184.9299187518418
 20
320.6944207396589
 30
0.0
 11
186.5299187518417
 21
322.2944207396588
 31
0.0
  0
LINE
  5
1E4
330
1C1
100
AcDbEntity
  8
0
 62
     0
100
AcDbLine
 10
184.9299187518418
 20
323.5228478644052
 30
0.0
 11
186.5299187518417
 21
325.1228478644051
 31
0.0
  0
LINE
  5
1E5
330
1C1
100
AcDbEntity
  8
0
 62
     0
100
AcDbLine
 10
184.9299187518418
 20
326.3512749891514
 30
0.0
 11
186.5299187518417
 21
327.9512749891512
 31
0.0
  0
LINE
  5
1E6
330
1C1
100
AcDbEntity
  8
0
 62
     0
100
AcDbLine
 10
184.9299187518418
 20
329.1797021138975
 30
0.0
 11
186.5299187518417
 21
330.7797021138974
 31
0.0
  0
LINE
  5
1E7
330
1C1
100
AcDbEntity
  8
0
 62
     0
100
AcDbLine
 10
184.9299187518418
 20
332.0081292386437
 30
0.0
 11
186.5299187518417
 21
333.6081292386436
 31
0.0
  0
LINE
  5
1E8
330
1C1
100
AcDbEntity
  8
0
 62
     0
100
AcDbLine
 10
184.9299187518418
 20
334.8365563633899
 30
0.0
 11
186.5299187518417
 21
336.4365563633898
 31
0.0
  0
LINE
  5
1E9
330
1C1
100
AcDbEntity
  8
0
 62
     0
100
AcDbLine
 10
184.9299187518418
 20
337.6649834881361
 30
0.0
 11
186.5299187518417
 21
339.264983488136
 31
0.0
  0
LINE
  5
1EA
330
1C1
100
AcDbEntity
  8
0
 62
     0
100
AcDbLine
 10
184.9299187518418
 20
340.4934106128823
 30
0.0
 11
186.5299187518417
 21
342.0934106128822
 31
0.0
  0
LINE
  5
1EB
330
1C1
100
AcDbEntity
  8
0
 62
     0
100
AcDbLine
 10
184.9299187518418
 20
343.3218377376285
 30
0.0
 11
186.5299187518417
 21
344.9218377376284
 31
0.0
  0
LINE
  5
1EC
330
1C1
100
AcDbEntity
  8
0
 62
     0
100
AcDbLine
 10
184.9299187518418
 20
346.1502648623747
 30
0.0
 11
186.5299187518417
 21
347.7502648623746
 31
0.0
  0
LINE
  5
1ED
330
1C1
100
AcDbEntity
  8
0
 62
     0
100
AcDbLine
 10
184.9299187518418
 20
348.9786919871209
 30
0.0
 11
186.5299187518417
 21
350.5786919871208
 31
0.0
  0
LINE
  5
1EE
330
1C1
100
AcDbEntity
  8
0
 62
     0
100
AcDbLine
 10
184.9299187518418
 20
351.8071191118671
 30
0.0
 11
186.5299187518417
 21
353.407119111867
 31
0.0
  0
LINE
  5
1EF
330
1C1
100
AcDbEntity
  8
0
 62
     0
100
AcDbLine
 10
184.9299187518418
 20
354.6355462366133
 30
0.0
 11
186.5299187518417
 21
356.2355462366131
 31
0.0
  0
LINE
  5
1F0
330
1C1
100
AcDbEntity
  8
0
 62
     0
100
AcDbLine
 10
184.9299187518418
 20
357.4639733613594
 30
0.0
 11
186.5299187518417
 21
359.0639733613593
 31
0.0
  0
LINE
  5
1F1
330
1C1
100
AcDbEntity
  8
0
 62
     0
100
AcDbLine
 10
184.9299187518418
 20
360.2924004861056
 30
0.0
 11
186.5299187518417
 21
361.8924004861055
 31
0.0
  0
LINE
  5
1F2
330
1C1
100
AcDbEntity
  8
0
 62
     0
100
AcDbLine
 10
184.9299187518418
 20
363.1208276108518
 30
0.0
 11
186.5299187518417
 21
364.7208276108517
 31
0.0
  0
LINE
  5
1F3
330
1C1
100
AcDbEntity
  8
0
 62
     0
100
AcDbLine
 10
184.9299187518418
 20
365.949254735598
 30
0.0
 11
186.5299187518417
 21
367.5492547355978
 31
0.0
  0
LINE
  5
1F4
330
1C1
100
AcDbEntity
  8
0
 62
     0
100
AcDbLine
 10
184.9299187518418
 20
368.7776818603442
 30
0.0
 11
186.5299187518417
 21
370.377681860344
 31
0.0
  0
LINE
  5
1F5
330
1C1
100
AcDbEntity
  8
0
 62
     0
100
AcDbLine
 10
184.9299187518418
 20
371.6061089850904
 30
0.0
 11
186.5299187518417
 21
373.2061089850903
 31
0.0
  0
LINE
  5
1F6
330
1C1
100
AcDbEntity
  8
0
 62
     0
100
AcDbLine
 10
184.9299187518418
 20
374.4345361098366
 30
0.0
 11
186.5299187518417
 21
376.0345361098365
 31
0.0
  0
LINE
  5
1F7
330
1C1
100
AcDbEntity
  8
0
 62
     0
100
AcDbLine
 10
184.9299187518418
 20
377.2629632345827
 30
0.0
 11
186.5299187518417
 21
378.8629632345827
 31
0.0
  0
LINE
  5
1F8
330
1C1
100
AcDbEntity
  8
0
 62
     0
100
AcDbLine
 10
184.9299187518418
 20
380.091390359329
 30
0.0
 11
186.5299187518417
 21
381.6913903593288
 31
0.0
  0
LINE
  5
1F9
330
1C1
100
AcDbEntity
  8
0
 62
     0
100
AcDbLine
 10
184.9299187518418
 20
382.9198174840751
 30
0.0
 11
186.5299187518417
 21
384.519817484075
 31
0.0
  0
LINE
  5
1FA
330
1C1
100
AcDbEntity
  8
0
 62
     0
100
AcDbLine
 10
184.9299187518418
 20
385.7482446088213
 30
0.0
 11
186.5299187518417
 21
387.3482446088212
 31
0.0
  0
LINE
  5
1FB
330
1C1
100
AcDbEntity
  8
0
 62
     0
100
AcDbLine
 10
184.9299187518418
 20
388.5766717335675
 30
0.0
 11
186.5299187518417
 21
390.1766717335674
 31
0.0
  0
LINE
  5
1FC
330
1C1
100
AcDbEntity
  8
0
 62
     0
100
AcDbLine
 10
184.9299187518418
 20
272.6111596189737
 30
0.0
 11
186.5299187518417
 21
274.2111596189736
 31
0.0
  0
LINE
  5
1FD
330
1C1
100
AcDbEntity
  8
0
 62
     0
100
AcDbLine
 10
256.3299187518417
 20
344.0111596189737
 30
0.0
 11
257.9299187518418
 21
345.6111596189737
 31
0.0
  0
LINE
  5
1FE
330
1C1
100
AcDbEntity
  8
0
 62
     0
100
AcDbLine
 10
184.9299187518418
 20
269.7827324942275
 30
0.0
 11
186.5299187518417
 21
271.3827324942275
 31
0.0
  0
LINE
  5
1FF
330
1C1
100
AcDbEntity
  8
0
 62
     0
100
AcDbLine
 10
256.3299187518417
 20
341.1827324942274
 30
0.0
 11
257.9299187518418
 21
342.7827324942275
 31
0.0
  0
LINE
  5
200
330
1C1
100
AcDbEntity
  8
0
 62
     0
100
AcDbLine
 10
184.9299187518418
 20
266.9543053694813
 30
0.0
 11
186.5299187518417
 21
268.5543053694813
 31
0.0
  0
LINE
  5
201
330
1C1
100
AcDbEntity
  8
0
 62
     0
100
AcDbLine
 10
256.3299187518417
 20
338.3543053694813
 30
0.0
 11
257.9299187518418
 21
339.9543053694813
 31
0.0
  0
LINE
  5
202
330
1C1
100
AcDbEntity
  8
0
 62
     0
100
AcDbLine
 10
184.9299187518418
 20
264.1258782447352
 30
0.0
 11
186.5299187518417
 21
265.7258782447351
 31
0.0
  0
LINE
  5
203
330
1C1
100
AcDbEntity
  8
0
 62
     0
100
AcDbLine
 10
256.3299187518417
 20
335.525878244735
 30
0.0
 11
257.9299187518418
 21
337.1258782447351
 31
0.0
  0
LINE
  5
204
330
1C1
100
AcDbEntity
  8
0
 62
     0
100
AcDbLine
 10
184.9299187518418
 20
261.297451119989
 30
0.0
 11
186.5299187518417
 21
262.8974511199889
 31
0.0
  0
LINE
  5
205
330
1C1
100
AcDbEntity
  8
0
 62
     0
100
AcDbLine
 10
256.3299187518417
 20
332.6974511199888
 30
0.0
 11
257.9299187518418
 21
334.2974511199889
 31
0.0
  0
LINE
  5
206
330
1C1
100
AcDbEntity
  8
0
 62
     0
100
AcDbLine
 10
184.9299187518418
 20
258.4690239952428
 30
0.0
 11
186.5299187518417
 21
260.0690239952427
 31
0.0
  0
LINE
  5
207
330
1C1
100
AcDbEntity
  8
0
 62
     0
100
AcDbLine
 10
256.3299187518417
 20
329.8690239952426
 30
0.0
 11
257.9299187518418
 21
331.4690239952428
 31
0.0
  0
LINE
  5
208
330
1C1
100
AcDbEntity
  8
0
 62
     0
100
AcDbLine
 10
184.9299187518418
 20
255.6405968704966
 30
0.0
 11
186.5299187518417
 21
257.2405968704964
 31
0.0
  0
LINE
  5
209
330
1C1
100
AcDbEntity
  8
0
 62
     0
100
AcDbLine
 10
256.3299187518417
 20
327.0405968704964
 30
0.0
 11
257.9299187518418
 21
328.6405968704965
 31
0.0
  0
LINE
  5
20A
330
1C1
100
AcDbEntity
  8
0
 62
     0
100
AcDbLine
 10
184.9299187518418
 20
252.8121697457504
 30
0.0
 11
186.5299187518417
 21
254.4121697457503
 31
0.0
  0
LINE
  5
20B
330
1C1
100
AcDbEntity
  8
0
 62
     0
100
AcDbLine
 10
256.3299187518417
 20
324.2121697457502
 30
0.0
 11
257.9299187518418
 21
325.8121697457504
 31
0.0
  0
LINE
  5
20C
330
1C1
100
AcDbEntity
  8
0
 62
     0
100
AcDbLine
 10
184.9299187518418
 20
249.9837426210042
 30
0.0
 11
186.5299187518417
 21
251.5837426210041
 31
0.0
  0
LINE
  5
20D
330
1C1
100
AcDbEntity
  8
0
 62
     0
100
AcDbLine
 10
256.3299187518417
 20
321.383742621004
 30
0.0
 11
257.9299187518418
 21
322.9837426210042
 31
0.0
  0
LINE
  5
20E
330
1C1
100
AcDbEntity
  8
0
 62
     0
100
AcDbLine
 10
185.0306261699273
 20
247.2560229143435
 30
0.0
 11
186.5299187518417
 21
248.7553154962579
 31
0.0
  0
LINE
  5
20F
330
1C1
100
AcDbEntity
  8
0
 62
     0
100
AcDbLine
 10
256.3299187518417
 20
318.5553154962578
 30
0.0
 11
257.9299187518418
 21
320.155315496258
 31
0.0
  0
LINE
  5
210
330
1C1
100
AcDbEntity
  8
0
 62
     0
100
AcDbLine
 10
185.2581736537072
 20
244.6551432733772
 30
0.0
 11
186.7350734081026
 21
246.1320430277726
 31
0.0
  0
LINE
  5
211
330
1C1
100
AcDbEntity
  8
0
 62
     0
100
AcDbLine
 10
256.3299187518417
 20
315.7268883715116
 30
0.0
 11
257.9299187518418
 21
317.3268883715118
 31
0.0
  0
LINE
  5
212
330
1C1
100
AcDbEntity
  8
0
 62
     0
100
AcDbLine
 10
185.4857211374871
 20
242.0542636324109
 30
0.0
 11
186.9626208918825
 21
243.5311633868064
 31
0.0
  0
LINE
  5
213
330
1C1
100
AcDbEntity
  8
0
 62
     0
100
AcDbLine
 10
256.3299187518417
 20
312.8984612467655
 30
0.0
 11
257.9299187518418
 21
314.4984612467656
 31
0.0
  0
LINE
  5
214
330
1C1
100
AcDbEntity
  8
0
 62
     0
100
AcDbLine
 10
185.713268621267
 20
239.4533839914446
 30
0.0
 11
187.1901683756625
 21
240.9302837458401
 31
0.0
  0
LINE
  5
215
330
1C1
100
AcDbEntity
  8
0
 62
     0
100
AcDbLine
 10
256.3299187518417
 20
310.0700341220193
 30
0.0
 11
257.9299187518418
 21
311.6700341220195
 31
0.0
  0
LINE
  5
216
330
1C1
100
AcDbEntity
  8
0
 62
     0
100
AcDbLine
 10
256.3299187518416
 20
307.241606997273
 30
0.0
 11
257.9299187518418
 21
308.8416069972732
 31
0.0
  0
LINE
  5
217
330
1C1
100
AcDbEntity
  8
0
 62
     0
100
AcDbLine
 10
256.3299187518416
 20
304.4131798725268
 30
0.0
 11
257.9299187518418
 21
306.013179872527
 31
0.0
  0
LINE
  5
218
330
1C1
100
AcDbEntity
  8
0
 62
     0
100
AcDbLine
 10
256.3299187518416
 20
301.5847527477807
 30
0.0
 11
257.9299187518418
 21
303.1847527477808
 31
0.0
  0
LINE
  5
219
330
1C1
100
AcDbEntity
  8
0
 62
     0
100
AcDbLine
 10
256.3299187518416
 20
298.7563256230345
 30
0.0
 11
257.9299187518418
 21
300.3563256230346
 31
0.0
  0
LINE
  5
21A
330
1C1
100
AcDbEntity
  8
0
 62
     0
100
AcDbLine
 10
256.3299187518416
 20
295.9278984982883
 30
0.0
 11
257.9299187518418
 21
297.5278984982885
 31
0.0
  0
LINE
  5
21B
330
1C1
100
AcDbEntity
  8
0
 62
     0
100
AcDbLine
 10
256.3299187518416
 20
293.099471373542
 30
0.0
 11
257.9299187518418
 21
294.6994713735423
 31
0.0
  0
LINE
  5
21C
330
1C1
100
AcDbEntity
  8
0
 62
     0
100
AcDbLine
 10
256.3299187518416
 20
290.2710442487959
 30
0.0
 11
257.9299187518418
 21
291.8710442487961
 31
0.0
  0
LINE
  5
21D
330
1C1
100
AcDbEntity
  8
0
 62
     0
100
AcDbLine
 10
256.3299187518416
 20
287.4426171240497
 30
0.0
 11
257.9299187518418
 21
289.0426171240499
 31
0.0
  0
LINE
  5
21E
330
1C1
100
AcDbEntity
  8
0
 62
     0
100
AcDbLine
 10
256.3299187518416
 20
284.6141899993035
 30
0.0
 11
257.9299187518418
 21
286.2141899993037
 31
0.0
  0
LINE
  5
21F
330
1C1
100
AcDbEntity
  8
0
 62
     0
100
AcDbLine
 10
256.3299187518416
 20
281.7857628745572
 30
0.0
 11
257.9299187518418
 21
283.3857628745576
 31
0.0
  0
LINE
  5
220
330
1C1
100
AcDbEntity
  8
0
 62
     0
100
AcDbLine
 10
256.3299187518416
 20
278.9573357498111
 30
0.0
 11
257.9299187518418
 21
280.5573357498113
 31
0.0
  0
LINE
  5
221
330
1C1
100
AcDbEntity
  8
0
 62
     0
100
AcDbLine
 10
256.3299187518416
 20
276.1289086250648
 30
0.0
 11
257.9299187518418
 21
277.7289086250651
 31
0.0
  0
LINE
  5
222
330
1C1
100
AcDbEntity
  8
0
 62
     0
100
AcDbLine
 10
256.3299187518416
 20
273.3004815003186
 30
0.0
 11
257.9299187518418
 21
274.900481500319
 31
0.0
  0
LINE
  5
223
330
1C1
100
AcDbEntity
  8
0
 62
     0
100
AcDbLine
 10
256.3299187518415
 20
270.4720543755724
 30
0.0
 11
257.9299187518418
 21
272.0720543755728
 31
0.0
  0
LINE
  5
224
330
1C1
100
AcDbEntity
  8
0
 62
     0
100
AcDbLine
 10
256.3299187518415
 20
267.6436272508263
 30
0.0
 11
257.9299187518418
 21
269.2436272508266
 31
0.0
  0
LINE
  5
225
330
1C1
100
AcDbEntity
  8
0
 62
     0
100
AcDbLine
 10
256.3299187518415
 20
264.8152001260801
 30
0.0
 11
257.9299187518418
 21
266.4152001260804
 31
0.0
  0
LINE
  5
226
330
1C1
100
AcDbEntity
  8
0
 62
     0
100
AcDbLine
 10
256.3299187518415
 20
261.9867730013339
 30
0.0
 11
257.9299187518418
 21
263.5867730013341
 31
0.0
  0
LINE
  5
227
330
1C1
100
AcDbEntity
  8
0
 62
     0
100
AcDbLine
 10
256.3299187518415
 20
259.1583458765876
 30
0.0
 11
257.9299187518418
 21
260.758345876588
 31
0.0
  0
LINE
  5
228
330
1C1
100
AcDbEntity
  8
0
 62
     0
100
AcDbLine
 10
256.3299187518415
 20
256.3299187518415
 30
0.0
 11
257.9299187518418
 21
257.9299187518418
 31
0.0
  0
LINE
  5
229
330
1C1
100
AcDbEntity
  8
0
 62
     0
100
AcDbLine
 10
256.3299187518414
 20
253.5014916270953
 30
0.0
 11
257.9299187518418
 21
255.1014916270956
 31
0.0
  0
LINE
  5
22A
330
1C1
100
AcDbEntity
  8
0
 62
     0
100
AcDbLine
 10
256.3299187518414
 20
250.6730645023491
 30
0.0
 11
257.9299187518418
 21
252.2730645023494
 31
0.0
  0
LINE
  5
22B
330
1C1
100
AcDbEntity
  8
0
 62
     0
100
AcDbLine
 10
256.2692925840112
 20
247.7840112097727
 30
0.0
 11
257.9299187518418
 21
249.4446373776032
 31
0.0
  0
LINE
  5
22C
330
1C1
100
AcDbEntity
  8
0
 62
     0
100
AcDbLine
 10
255.9981120527308
 20
244.684403553746
 30
0.0
 11
257.7582126409331
 21
246.4445041419483
 31
0.0
  0
LINE
  5
22D
330
1C1
100
AcDbEntity
  8
0
 62
     0
100
AcDbLine
 10
255.7269315214503
 20
241.5847958977193
 30
0.0
 11
257.4870321096526
 21
243.3448964859216
 31
0.0
  0
LINE
  5
22E
330
1C1
100
AcDbEntity
  8
0
 62
     0
100
AcDbLine
 10
255.4557509901699
 20
238.4851882416927
 30
0.0
 11
257.2158515783721
 21
240.245288829895
 31
0.0
  0
ENDBLK
  5
22F
330
1C1
100
AcDbEntity
  8
0
100
AcDbBlockEnd
  0
BLOCK
  5
231
330
230
100
AcDbEntity
  8
0
100
AcDbBlockBegin
  2
*X4
 70
     1
 10
0.0
 20
0.0
 30
0.0
  3
*X4
  1

  0
LINE
  5
232
330
230
100
AcDbEntity
  8
0
 62
     0
100
AcDbLine
 10
163.9075472462249
 20
452.4071139703362
 30
0.0
 11
163.9299187518419
 21
452.4294854759532
 31
0.0
  0
LINE
  5
233
330
230
100
AcDbEntity
  8
0
 62
     0
100
AcDbLine
 10
161.1688489745415
 20
452.496842823399
 30
0.0
 11
163.0791201214787
 21
454.4071139703363
 31
0.0
  0
LINE
  5
234
330
230
100
AcDbEntity
  8
0
 62
     0
100
AcDbLine
 10
158.9946731841829
 20
453.1510941577867
 30
0.0
 11
160.5358749559991
 21
454.6922959296028
 31
0.0
  0
LINE
  5
235
330
230
100
AcDbEntity
  8
0
 62
     0
100
AcDbLine
 10
157.2609331594792
 20
454.2457812578291
 30
0.0
 11
158.6834758619232
 21
455.6683239602731
 31
0.0
  0
LINE
  5
236
330
230
100
AcDbEntity
  8
0
 62
     0
100
AcDbLine
 10
155.8915467654589
 20
455.7048219885551
 30
0.0
 11
157.3294295202763
 21
457.1427047433724
 31
0.0
  0
LINE
  5
237
330
230
100
AcDbEntity
  8
0
 62
     0
100
AcDbLine
 10
154.8241876353012
 20
457.4658899831435
 30
0.0
 11
156.2882892504389
 21
458.9299915982812
 31
0.0
  0
LINE
  5
238
330
230
100
AcDbEntity
  8
0
 62
     0
100
AcDbLine
 10
153.7889114548911
 20
459.2590409274796
 30
0.0
 11
155.2530130700288
 21
460.7231425426173
 31
0.0
  0
LINE
  5
239
330
230
100
AcDbEntity
  8
0
 62
     0
100
AcDbLine
 10
152.753635274481
 20
461.0521918718157
 30
0.0
 11
154.2177368896188
 21
462.5162934869535
 31
0.0
  0
LINE
  5
23A
330
230
100
AcDbEntity
  8
0
 62
     0
100
AcDbLine
 10
151.7183590940709
 20
462.8453428161519
 30
0.0
 11
153.1824607092087
 21
464.3094444312896
 31
0.0
  0
LINE
  5
23B
330
230
100
AcDbEntity
  8
0
 62
     0
100
AcDbLine
 10
150.6830829136609
 20
464.6384937604879
 30
0.0
 11
152.1471845287987
 21
466.1025953756257
 31
0.0
  0
LINE
  5
23C
330
230
100
AcDbEntity
  8
0
 62
     0
100
AcDbLine
 10
149.6478067332508
 20
466.431644704824
 30
0.0
 11
151.1119083483886
 21
467.8957463199618
 31
0.0
  0
LINE
  5
23D
330
230
100
AcDbEntity
  8
0
 62
     0
100
AcDbLine
 10
148.6125305528407
 20
468.2247956491601
 30
0.0
 11
150.0766321679785
 21
469.6888972642979
 31
0.0
  0
LINE
  5
23E
330
230
100
AcDbEntity
  8
0
 62
     0
100
AcDbLine
 10
147.9299187518419
 20
470.3706109729075
 30
0.0
 11
149.9299187518419
 21
472.3706109729075
 31
0.0
  0
LINE
  5
23F
330
230
100
AcDbEntity
  8
0
 62
     0
100
AcDbLine
 10
147.9299187518419
 20
473.1990380976538
 30
0.0
 11
150.4087404093871
 21
475.6778597551989
 31
0.0
  0
LINE
  5
240
330
230
100
AcDbEntity
  8
0
 62
     0
100
AcDbLine
 10
148.5621583708615
 20
476.6597048414196
 30
0.0
 11
151.0838194140108
 21
479.1813658845688
 31
0.0
  0
LINE
  5
241
330
230
100
AcDbEntity
  8
0
 62
     0
100
AcDbLine
 10
149.1702193397017
 20
480.0961929350059
 30
0.0
 11
151.0274217185975
 21
481.9533953139017
 31
0.0
  0
LINE
  5
242
330
230
100
AcDbEntity
  8
0
 62
     0
100
AcDbLine
 10
148.7861661513661
 20
482.5405668714164
 30
0.0
 11
150.298997689498
 21
484.0533984095483
 31
0.0
  0
LINE
  5
243
330
230
100
AcDbEntity
  8
0
 62
     0
100
AcDbLine
 10
147.7316107591274
 20
484.314438603924
 30
0.0
 11
149.1489085351231
 21
485.7317363799197
 31
0.0
  0
LINE
  5
244
330
230
100
AcDbEntity
  8
0
 62
     0
100
AcDbLine
 10
146.1869794860274
 20
485.5982344555703
 30
0.0
 11
147.6376787437679
 21
487.0489337133107
 31
0.0
  0
LINE
  5
245
330
230
100
AcDbEntity
  8
0
 62
     0
100
AcDbLine
 10
144.0967208528384
 20
486.3364029471274
 30
0.0
 11
145.7446260613981
 21
487.984308155687
 31
0.0
  0
LINE
  5
246
330
230
100
AcDbEntity
  8
0
 62
     0
100
AcDbLine
 10
141.3390047513012
 20
486.4071139703362
 30
0.0
 11
143.3374217289025
 21
488.4055309479376
 31
0.0
  0
LINE
  5
247
330
230
100
AcDbEntity
  8
0
 62
     0
100
AcDbLine
 10
138.510577626555
 20
486.4071139703362
 30
0.0
 11
140.5105776265549
 21
488.4071139703363
 31
0.0
  0
LINE
  5
248
330
230
100
AcDbEntity
  8
0
 62
     0
100
AcDbLine
 10
135.6821505018088
 20
486.4071139703362
 30
0.0
 11
137.6821505018087
 21
488.4071139703363
 31
0.0
  0
LINE
  5
249
330
230
100
AcDbEntity
  8
0
 62
     0
100
AcDbLine
 10
132.8537233770626
 20
486.4071139703362
 30
0.0
 11
134.8537233770626
 21
488.4071139703363
 31
0.0
  0
LINE
  5
24A
330
230
100
AcDbEntity
  8
0
 62
     0
100
AcDbLine
 10
130.0252962523164
 20
486.4071139703362
 30
0.0
 11
132.0252962523163
 21
488.4071139703363
 31
0.0
  0
LINE
  5
24B
330
230
100
AcDbEntity
  8
0
 62
     0
100
AcDbLine
 10
127.1968691275702
 20
486.4071139703362
 30
0.0
 11
129.1968691275702
 21
488.4071139703363
 31
0.0
  0
LINE
  5
24C
330
230
100
AcDbEntity
  8
0
 62
     0
100
AcDbLine
 10
124.368442002824
 20
486.4071139703362
 30
0.0
 11
126.368442002824
 21
488.4071139703363
 31
0.0
  0
LINE
  5
24D
330
230
100
AcDbEntity
  8
0
 62
     0
100
AcDbLine
 10
121.5400148780778
 20
486.4071139703362
 30
0.0
 11
123.5400148780778
 21
488.4071139703363
 31
0.0
  0
LINE
  5
24E
330
230
100
AcDbEntity
  8
0
 62
     0
100
AcDbLine
 10
118.7115877533316
 20
486.4071139703362
 30
0.0
 11
120.7115877533316
 21
488.4071139703363
 31
0.0
  0
LINE
  5
24F
330
230
100
AcDbEntity
  8
0
 62
     0
100
AcDbLine
 10
115.8831606285855
 20
486.4071139703362
 30
0.0
 11
117.8831606285854
 21
488.4071139703363
 31
0.0
  0
LINE
  5
250
330
230
100
AcDbEntity
  8
0
 62
     0
100
AcDbLine
 10
113.0547335038392
 20
486.4071139703362
 30
0.0
 11
115.0547335038392
 21
488.4071139703363
 31
0.0
  0
LINE
  5
251
330
230
100
AcDbEntity
  8
0
 62
     0
100
AcDbLine
 10
110.2263063790931
 20
486.4071139703362
 30
0.0
 11
112.226306379093
 21
488.4071139703363
 31
0.0
  0
LINE
  5
252
330
230
100
AcDbEntity
  8
0
 62
     0
100
AcDbLine
 10
107.3978792543469
 20
486.4071139703362
 30
0.0
 11
109.3978792543468
 21
488.4071139703363
 31
0.0
  0
LINE
  5
253
330
230
100
AcDbEntity
  8
0
 62
     0
100
AcDbLine
 10
104.5694521296007
 20
486.4071139703362
 30
0.0
 11
106.5694521296006
 21
488.4071139703363
 31
0.0
  0
LINE
  5
254
330
230
100
AcDbEntity
  8
0
 62
     0
100
AcDbLine
 10
101.7410250048545
 20
486.4071139703362
 30
0.0
 11
103.7410250048544
 21
488.4071139703363
 31
0.0
  0
LINE
  5
255
330
230
100
AcDbEntity
  8
0
 62
     0
100
AcDbLine
 10
98.91259788010833
 20
486.4071139703362
 30
0.0
 11
100.9125978801083
 21
488.4071139703363
 31
0.0
  0
LINE
  5
256
330
230
100
AcDbEntity
  8
0
 62
     0
100
AcDbLine
 10
96.08417075536214
 20
486.4071139703362
 30
0.0
 11
98.0841707553621
 21
488.4071139703363
 31
0.0
  0
LINE
  5
257
330
230
100
AcDbEntity
  8
0
 62
     0
100
AcDbLine
 10
92.93504850486487
 20
486.0864188445852
 30
0.0
 11
95.2557436306159
 21
488.4071139703363
 31
0.0
  0
LINE
  5
258
330
230
100
AcDbEntity
  8
0
 62
     0
100
AcDbLine
 10
89.44110911547246
 20
485.4209065799389
 30
0.0
 11
91.95611597740576
 21
487.9359134418723
 31
0.0
  0
LINE
  5
259
330
230
100
AcDbEntity
  8
0
 62
     0
100
AcDbLine
 10
85.94716972608008
 20
484.7553943152927
 30
0.0
 11
88.46217658801341
 21
487.2704011772261
 31
0.0
  0
LINE
  5
25A
330
230
100
AcDbEntity
  8
0
 62
     0
100
AcDbLine
 10
84.06440571256744
 20
485.7010574265264
 30
0.0
 11
84.96823719862105
 21
486.6048889125799
 31
0.0
  0
LINE
  5
25B
330
230
100
AcDbEntity
  8
0
 62
     0
100
AcDbLine
 10
291.7238302580068
 20
481.2284476160015
 30
0.0
 11
298.8602231119438
 21
488.3648404699385
 31
0.0
  0
LINE
  5
25C
330
230
100
AcDbEntity
  8
0
 62
     0
100
AcDbLine
 10
291.8897174460128
 20
478.5659076792613
 30
0.0
 11
293.6817581985074
 21
480.3579484317559
 31
0.0
  0
LINE
  5
25D
330
230
100
AcDbEntity
  8
0
 62
     0
100
AcDbLine
 10
299.7309237370878
 20
486.4071139703362
 30
0.0
 11
301.7309237370878
 21
488.4071139703362
 31
0.0
  0
LINE
  5
25E
330
230
100
AcDbEntity
  8
0
 62
     0
100
AcDbLine
 10
292.3500319159312
 20
476.1977950244335
 30
0.0
 11
294.0558816978833
 21
477.9036448063856
 31
0.0
  0
LINE
  5
25F
330
230
100
AcDbEntity
  8
0
 62
     0
100
AcDbLine
 10
302.559350861834
 20
486.4071139703362
 30
0.0
 11
304.5593508618339
 21
488.4071139703362
 31
0.0
  0
LINE
  5
260
330
230
100
AcDbEntity
  8
0
 62
     0
100
AcDbLine
 10
292.8103463858495
 20
473.8296823696057
 30
0.0
 11
294.5161961678017
 21
475.5355321515578
 31
0.0
  0
LINE
  5
261
330
230
100
AcDbEntity
  8
0
 62
     0
100
AcDbLine
 10
305.3877779865802
 20
486.4071139703362
 30
0.0
 11
307.3877779865802
 21
488.4071139703362
 31
0.0
  0
LINE
  5
262
330
230
100
AcDbEntity
  8
0
 62
     0
100
AcDbLine
 10
292.9299187518418
 20
471.1208276108518
 30
0.0
 11
294.9299187518418
 21
473.1208276108517
 31
0.0
  0
LINE
  5
263
330
230
100
AcDbEntity
  8
0
 62
     0
100
AcDbLine
 10
308.2162051113264
 20
486.4071139703362
 30
0.0
 11
310.2162051113263
 21
488.4071139703362
 31
0.0
  0
LINE
  5
264
330
230
100
AcDbEntity
  8
0
 62
     0
100
AcDbLine
 10
278.9299187518418
 20
454.2924004861055
 30
0.0
 11
279.0446322360725
 21
454.4071139703363
 31
0.0
  0
LINE
  5
265
330
230
100
AcDbEntity
  8
0
 62
     0
100
AcDbLine
 10
311.0446322360725
 20
486.4071139703362
 30
0.0
 11
313.0446322360725
 21
488.4071139703362
 31
0.0
  0
LINE
  5
266
330
230
100
AcDbEntity
  8
0
 62
     0
100
AcDbLine
 10
290.6751410068727
 20
466.0376227411364
 30
0.0
 11
294.9299187518418
 21
470.2924004861055
 31
0.0
  0
LINE
  5
267
330
230
100
AcDbEntity
  8
0
 62
     0
100
AcDbLine
 10
279.8730593608186
 20
452.4071139703361
 30
0.0
 11
282.0881025437259
 21
454.6221571532434
 31
0.0
  0
LINE
  5
268
330
230
100
AcDbEntity
  8
0
 62
     0
100
AcDbLine
 10
313.8730593608187
 20
486.4071139703362
 30
0.0
 11
315.8730593608187
 21
488.4071139703362
 31
0.0
  0
LINE
  5
269
330
230
100
AcDbEntity
  8
0
 62
     0
100
AcDbLine
 10
286.8114377017166
 20
459.3454923112341
 30
0.0
 11
292.2755393168543
 21
464.8095939263718
 31
0.0
  0
LINE
  5
26A
330
230
100
AcDbEntity
  8
0
 62
     0
100
AcDbLine
 10
283.1569319243338
 20
452.8625594091051
 30
0.0
 11
288.411836011698
 21
458.1174634964694
 31
0.0
  0
LINE
  5
26B
330
230
100
AcDbEntity
  8
0
 62
     0
100
AcDbLine
 10
316.7014864855649
 20
486.4071139703362
 30
0.0
 11
318.7014864855649
 21
488.4071139703362
 31
0.0
  0
LINE
  5
26C
330
230
100
AcDbEntity
  8
0
 62
     0
100
AcDbLine
 10
319.5299136103111
 20
486.4071139703362
 30
0.0
 11
321.5299136103111
 21
488.4071139703362
 31
0.0
  0
LINE
  5
26D
330
230
100
AcDbEntity
  8
0
 62
     0
100
AcDbLine
 10
322.3583407350572
 20
486.4071139703362
 30
0.0
 11
324.3583407350572
 21
488.4071139703362
 31
0.0
  0
LINE
  5
26E
330
230
100
AcDbEntity
  8
0
 62
     0
100
AcDbLine
 10
325.1867678598035
 20
486.4071139703362
 30
0.0
 11
327.1867678598035
 21
488.4071139703362
 31
0.0
  0
LINE
  5
26F
330
230
100
AcDbEntity
  8
0
 62
     0
100
AcDbLine
 10
328.0151949845497
 20
486.4071139703362
 30
0.0
 11
330.0151949845496
 21
488.4071139703362
 31
0.0
  0
LINE
  5
270
330
230
100
AcDbEntity
  8
0
 62
     0
100
AcDbLine
 10
330.8436221092958
 20
486.4071139703362
 30
0.0
 11
332.8436221092959
 21
488.4071139703362
 31
0.0
  0
LINE
  5
271
330
230
100
AcDbEntity
  8
0
 62
     0
100
AcDbLine
 10
333.6720492340421
 20
486.4071139703362
 30
0.0
 11
335.6720492340421
 21
488.4071139703362
 31
0.0
  0
LINE
  5
272
330
230
100
AcDbEntity
  8
0
 62
     0
100
AcDbLine
 10
336.5004763587882
 20
486.4071139703362
 30
0.0
 11
338.5004763587882
 21
488.4071139703362
 31
0.0
  0
LINE
  5
273
330
230
100
AcDbEntity
  8
0
 62
     0
100
AcDbLine
 10
339.3289034835344
 20
486.4071139703362
 30
0.0
 11
341.3289034835344
 21
488.4071139703362
 31
0.0
  0
LINE
  5
274
330
230
100
AcDbEntity
  8
0
 62
     0
100
AcDbLine
 10
342.1573306082806
 20
486.4071139703362
 30
0.0
 11
344.1573306082806
 21
488.4071139703362
 31
0.0
  0
LINE
  5
275
330
230
100
AcDbEntity
  8
0
 62
     0
100
AcDbLine
 10
344.9857577330268
 20
486.4071139703362
 30
0.0
 11
346.9857577330268
 21
488.4071139703362
 31
0.0
  0
LINE
  5
276
330
230
100
AcDbEntity
  8
0
 62
     0
100
AcDbLine
 10
347.814184857773
 20
486.4071139703362
 30
0.0
 11
349.592702280824
 21
488.1856313933872
 31
0.0
  0
LINE
  5
277
330
230
100
AcDbEntity
  8
0
 62
     0
100
AcDbLine
 10
350.2583763994963
 20
486.0228783873134
 30
0.0
 11
351.9685810656107
 21
487.7330830534279
 31
0.0
  0
LINE
  5
278
330
230
100
AcDbEntity
  8
0
 62
     0
100
AcDbLine
 10
352.6342551842831
 20
485.570330047354
 30
0.0
 11
354.3444598503976
 21
487.2805347134685
 31
0.0
  0
LINE
  5
279
330
230
100
AcDbEntity
  8
0
 62
     0
100
AcDbLine
 10
355.0101339690698
 20
485.1177817073945
 30
0.0
 11
356.7203386351843
 21
486.827986373509
 31
0.0
  0
LINE
  5
27A
330
230
100
AcDbEntity
  8
0
 62
     0
100
AcDbLine
 10
357.3860127538566
 20
484.665233367435
 30
0.0
 11
358.8833364918614
 21
486.1625571054399
 31
0.0
  0
ENDBLK
  5
27B
330
230
100
AcDbEntity
  8
0
100
AcDbBlockEnd
  0
BLOCK
  5
27D
330
27C
100
AcDbEntity
  8
0
100
AcDbBlockBegin
  2
*X5
 70
     1
 10
0.0
 20
0.0
 30
0.0
  3
*X5
  1

  0
LINE
  5
27E
330
27C
100
AcDbEntity
  8
0
 62
     0
100
AcDbLine
 10
162.1289519151894
 20
448.8113070299877
 30
0.0
 11
159.0137080721927
 21
451.9265508729843
 31
0.0
  0
LINE
  5
27F
330
27C
100
AcDbEntity
  8
0
 62
     0
100
AcDbLine
 10
163.6519511362066
 20
444.4598806842242
 30
0.0
 11
160.3920095822962
 21
447.7198222381345
 31
0.0
  0
LINE
  5
280
330
27C
100
AcDbEntity
  8
0
 62
     0
100
AcDbLine
 10
164.4109361662397
 20
440.8724685294449
 30
0.0
 11
161.9134390948266
 21
443.369965600858
 31
0.0
  0
LINE
  5
281
330
27C
100
AcDbEntity
  8
0
 62
     0
100
AcDbLine
 10
164.4299187518418
 20
438.0250588190966
 30
0.0
 11
162.4299187518419
 21
440.0250588190965
 31
0.0
  0
LINE
  5
282
330
27C
100
AcDbEntity
  8
0
 62
     0
100
AcDbLine
 10
164.4299187518418
 20
435.1966316943504
 30
0.0
 11
162.4299187518419
 21
437.1966316943503
 31
0.0
  0
LINE
  5
283
330
27C
100
AcDbEntity
  8
0
 62
     0
100
AcDbLine
 10
164.4299187518418
 20
432.3682045696042
 30
0.0
 11
162.4299187518419
 21
434.3682045696041
 31
0.0
  0
LINE
  5
284
330
27C
100
AcDbEntity
  8
0
 62
     0
100
AcDbLine
 10
164.4299187518418
 20
429.539777444858
 30
0.0
 11
162.4299187518419
 21
431.539777444858
 31
0.0
  0
LINE
  5
285
330
27C
100
AcDbEntity
  8
0
 62
     0
100
AcDbLine
 10
164.4299187518418
 20
426.7113503201119
 30
0.0
 11
162.4299187518419
 21
428.7113503201118
 31
0.0
  0
LINE
  5
286
330
27C
100
AcDbEntity
  8
0
 62
     0
100
AcDbLine
 10
164.4299187518418
 20
423.8829231953657
 30
0.0
 11
162.4299187518419
 21
425.8829231953655
 31
0.0
  0
LINE
  5
287
330
27C
100
AcDbEntity
  8
0
 62
     0
100
AcDbLine
 10
164.4299187518418
 20
421.0544960706195
 30
0.0
 11
162.4299187518419
 21
423.0544960706194
 31
0.0
  0
LINE
  5
288
330
27C
100
AcDbEntity
  8
0
 62
     0
100
AcDbLine
 10
164.4299187518418
 20
418.2260689458733
 30
0.0
 11
162.4299187518419
 21
420.2260689458732
 31
0.0
  0
LINE
  5
289
330
27C
100
AcDbEntity
  8
0
 62
     0
100
AcDbLine
 10
164.4299187518418
 20
415.3976418211271
 30
0.0
 11
162.4299187518419
 21
417.397641821127
 31
0.0
  0
LINE
  5
28A
330
27C
100
AcDbEntity
  8
0
 62
     0
100
AcDbLine
 10
164.7692469714451
 20
412.2298864767776
 30
0.0
 11
162.4299187518419
 21
414.5692146963808
 31
0.0
  0
LINE
  5
28B
330
27C
100
AcDbEntity
  8
0
 62
     0
100
AcDbLine
 10
184.9299187518418
 20
389.2407875716347
 30
0.0
 11
183.7635923531403
 21
390.4071139703362
 31
0.0
  0
LINE
  5
28C
330
27C
100
AcDbEntity
  8
0
 62
     0
100
AcDbLine
 10
165.6624344845228
 20
408.5082718389537
 30
0.0
 11
162.956127088274
 21
411.2145792352025
 31
0.0
  0
LINE
  5
28D
330
27C
100
AcDbEntity
  8
0
 62
     0
100
AcDbLine
 10
182.9351652283941
 20
388.4071139703362
 30
0.0
 11
180.9351652283941
 21
390.4071139703362
 31
0.0
  0
LINE
  5
28E
330
27C
100
AcDbEntity
  8
0
 62
     0
100
AcDbLine
 10
166.5556219976005
 20
404.7866572011297
 30
0.0
 11
163.8493146013516
 21
407.4929645973786
 31
0.0
  0
LINE
  5
28F
330
27C
100
AcDbEntity
  8
0
 62
     0
100
AcDbLine
 10
180.1067381036479
 20
388.4071139703362
 30
0.0
 11
178.1067381036479
 21
390.4071139703362
 31
0.0
  0
LINE
  5
290
330
27C
100
AcDbEntity
  8
0
 62
     0
100
AcDbLine
 10
167.4488095106782
 20
401.0650425633058
 30
0.0
 11
164.7425021144294
 21
403.7713499595547
 31
0.0
  0
LINE
  5
291
330
27C
100
AcDbEntity
  8
0
 62
     0
100
AcDbLine
 10
177.2783109789017
 20
388.4071139703362
 30
0.0
 11
175.2783109789017
 21
390.4071139703362
 31
0.0
  0
LINE
  5
292
330
27C
100
AcDbEntity
  8
0
 62
     0
100
AcDbLine
 10
168.3419970237559
 20
397.343427925482
 30
0.0
 11
165.635689627507
 21
400.0497353217308
 31
0.0
  0
LINE
  5
293
330
27C
100
AcDbEntity
  8
0
 62
     0
100
AcDbLine
 10
174.4445325808212
 20
388.4124652436706
 30
0.0
 11
171.5048283082581
 21
391.3521695162336
 31
0.0
  0
LINE
  5
294
330
27C
100
AcDbEntity
  8
0
 62
     0
100
AcDbLine
 10
169.6821487823359
 20
393.1748490421559
 30
0.0
 11
166.5288771405847
 21
396.328120683907
 31
0.0
  0
LINE
  5
295
330
27C
100
AcDbEntity
  8
0
 62
     0
100
AcDbLine
 10
170.2331517598273
 20
389.7954189399182
 30
0.0
 11
168.1253982060205
 21
391.9031724937251
 31
0.0
  0
LINE
  5
296
330
27C
100
AcDbEntity
  8
0
 62
     0
100
AcDbLine
 10
259.3026975965412
 20
388.4071139703363
 30
0.0
 11
257.9299187518418
 21
389.7798928150357
 31
0.0
  0
LINE
  5
297
330
27C
100
AcDbEntity
  8
0
 62
     0
100
AcDbLine
 10
262.1311247212875
 20
388.4071139703363
 30
0.0
 11
260.1311247212874
 21
390.4071139703362
 31
0.0
  0
LINE
  5
298
330
27C
100
AcDbEntity
  8
0
 62
     0
100
AcDbLine
 10
264.9595518460336
 20
388.4071139703363
 30
0.0
 11
262.9595518460337
 21
390.4071139703362
 31
0.0
  0
LINE
  5
299
330
27C
100
AcDbEntity
  8
0
 62
     0
100
AcDbLine
 10
267.7879789707798
 20
388.4071139703363
 30
0.0
 11
265.7879789707798
 21
390.4071139703362
 31
0.0
  0
LINE
  5
29A
330
27C
100
AcDbEntity
  8
0
 62
     0
100
AcDbLine
 10
270.3112408909074
 20
388.7122791749549
 30
0.0
 11
268.5975869509836
 21
390.4259331148787
 31
0.0
  0
LINE
  5
29B
330
27C
100
AcDbEntity
  8
0
 62
     0
100
AcDbLine
 10
272.279896285112
 20
389.5720509054965
 30
0.0
 11
270.8096051958738
 21
391.0423419947347
 31
0.0
  0
LINE
  5
29C
330
27C
100
AcDbEntity
  8
0
 62
     0
100
AcDbLine
 10
273.8543559219852
 20
390.8260183933695
 30
0.0
 11
272.4399754587553
 21
392.2403988565994
 31
0.0
  0
LINE
  5
29D
330
27C
100
AcDbEntity
  8
0
 62
     0
100
AcDbLine
 10
275.0694564119513
 20
392.4393450281495
 30
0.0
 11
273.5848062512446
 21
393.9239951888563
 31
0.0
  0
LINE
  5
29E
330
27C
100
AcDbEntity
  8
0
 62
     0
100
AcDbLine
 10
275.8811809662805
 20
394.4560475985666
 30
0.0
 11
274.2228650269154
 21
396.1143635379317
 31
0.0
  0
LINE
  5
29F
330
27C
100
AcDbEntity
  8
0
 62
     0
100
AcDbLine
 10
276.4290070681156
 20
396.7366486214776
 30
0.0
 11
274.7703025349308
 21
398.3953531546625
 31
0.0
  0
LINE
  5
2A0
330
27C
100
AcDbEntity
  8
0
 62
     0
100
AcDbLine
 10
276.976444576131
 20
399.0176382382084
 30
0.0
 11
275.3177400429462
 21
400.6763427713933
 31
0.0
  0
LINE
  5
2A1
330
27C
100
AcDbEntity
  8
0
 62
     0
100
AcDbLine
 10
277.5238820841464
 20
401.2986278549392
 30
0.0
 11
275.8651775509616
 21
402.957332388124
 31
0.0
  0
LINE
  5
2A2
330
27C
100
AcDbEntity
  8
0
 62
     0
100
AcDbLine
 10
278.0713195921618
 20
403.5796174716699
 30
0.0
 11
276.412615058977
 21
405.2383220048548
 31
0.0
  0
LINE
  5
2A3
330
27C
100
AcDbEntity
  8
0
 62
     0
100
AcDbLine
 10
278.6187571001772
 20
405.8606070884007
 30
0.0
 11
276.9600525669924
 21
407.5193116215856
 31
0.0
  0
LINE
  5
2A4
330
27C
100
AcDbEntity
  8
0
 62
     0
100
AcDbLine
 10
279.1661946081926
 20
408.1415967051315
 30
0.0
 11
277.5074900750078
 21
409.8003012383164
 31
0.0
  0
LINE
  5
2A5
330
27C
100
AcDbEntity
  8
0
 62
     0
100
AcDbLine
 10
279.713632116208
 20
410.4225863218623
 30
0.0
 11
278.0549275830231
 21
412.0812908550472
 31
0.0
  0
LINE
  5
2A6
330
27C
100
AcDbEntity
  8
0
 62
     0
100
AcDbLine
 10
280.2584453689322
 20
412.7062001938843
 30
0.0
 11
278.4299187518418
 21
414.5347268109746
 31
0.0
  0
LINE
  5
2A7
330
27C
100
AcDbEntity
  8
0
 62
     0
100
AcDbLine
 10
280.4299187518418
 20
415.3631539357209
 30
0.0
 11
278.4299187518418
 21
417.3631539357208
 31
0.0
  0
LINE
  5
2A8
330
27C
100
AcDbEntity
  8
0
 62
     0
100
AcDbLine
 10
280.4299187518418
 20
418.1915810604671
 30
0.0
 11
278.4299187518418
 21
420.1915810604671
 31
0.0
  0
LINE
  5
2A9
330
27C
100
AcDbEntity
  8
0
 62
     0
100
AcDbLine
 10
280.4299187518418
 20
421.0200081852133
 30
0.0
 11
278.4299187518418
 21
423.0200081852133
 31
0.0
  0
LINE
  5
2AA
330
27C
100
AcDbEntity
  8
0
 62
     0
100
AcDbLine
 10
280.4299187518418
 20
423.8484353099595
 30
0.0
 11
278.4299187518418
 21
425.8484353099595
 31
0.0
  0
LINE
  5
2AB
330
27C
100
AcDbEntity
  8
0
 62
     0
100
AcDbLine
 10
280.4299187518418
 20
426.6768624347057
 30
0.0
 11
278.4299187518418
 21
428.6768624347056
 31
0.0
  0
LINE
  5
2AC
330
27C
100
AcDbEntity
  8
0
 62
     0
100
AcDbLine
 10
280.4299187518418
 20
429.5052895594518
 30
0.0
 11
278.4299187518418
 21
431.5052895594518
 31
0.0
  0
LINE
  5
2AD
330
27C
100
AcDbEntity
  8
0
 62
     0
100
AcDbLine
 10
280.4299187518418
 20
432.333716684198
 30
0.0
 11
278.4299187518418
 21
434.333716684198
 31
0.0
  0
LINE
  5
2AE
330
27C
100
AcDbEntity
  8
0
 62
     0
100
AcDbLine
 10
280.4299187518418
 20
435.1621438089442
 30
0.0
 11
278.4299187518418
 21
437.1621438089442
 31
0.0
  0
LINE
  5
2AF
330
27C
100
AcDbEntity
  8
0
 62
     0
100
AcDbLine
 10
280.4299187518418
 20
437.9905709336903
 30
0.0
 11
278.4299187518418
 21
439.9905709336904
 31
0.0
  0
LINE
  5
2B0
330
27C
100
AcDbEntity
  8
0
 62
     0
100
AcDbLine
 10
280.4481176798368
 20
440.8007991304415
 30
0.0
 11
278.6687824430503
 21
442.5801343672281
 31
0.0
  0
LINE
  5
2B1
330
27C
100
AcDbEntity
  8
0
 62
     0
100
AcDbLine
 10
280.8879100051242
 20
443.1894339299003
 30
0.0
 11
279.3140729668571
 21
444.7632709681674
 31
0.0
  0
LINE
  5
2B2
330
27C
100
AcDbEntity
  8
0
 62
     0
100
AcDbLine
 10
281.6169703770074
 20
445.2888006827634
 30
0.0
 11
280.0473688880877
 21
446.8584021716831
 31
0.0
  0
LINE
  5
2B3
330
27C
100
AcDbEntity
  8
0
 62
     0
100
AcDbLine
 10
282.3502662982379
 20
447.3839318862791
 30
0.0
 11
280.7806648093182
 21
448.9535333751988
 31
0.0
  0
LINE
  5
2B4
330
27C
100
AcDbEntity
  8
0
 62
     0
100
AcDbLine
 10
283.0835622194684
 20
449.4790630897947
 30
0.0
 11
281.5139607305487
 21
451.0486645787145
 31
0.0
  0
LINE
  5
2B5
330
27C
100
AcDbEntity
  8
0
 62
     0
100
AcDbLine
 10
283.8168581406989
 20
451.5741942933104
 30
0.0
 11
283.2590096307744
 21
452.132042803235
 31
0.0
  0
ENDBLK
  5
2B6
330
27C
100
AcDbEntity
  8
0
100
AcDbBlockEnd
  0
BLOCK
  5
2B8
330
2B7
100
AcDbEntity
  8
0
100
AcDbBlockBegin
  2
*X6
 70
     1
 10
0.0
 20
0.0
 30
0.0
  3
*X6
  1

  0
LINE
  5
2B9
330
2B7
100
AcDbEntity
  8
0
 62
     0
100
AcDbLine
 10
159.4782100496859
 20
450.3306780455925
 30
0.0
 11
155.9814788402524
 21
453.8274092550261
 31
0.0
  0
LINE
  5
2BA
330
2B7
100
AcDbEntity
  8
0
 62
     0
100
AcDbLine
 10
159.5543600107368
 20
450.1131067283044
 30
0.0
 11
155.9531881694807
 21
453.7142785695606
 31
0.0
  0
LINE
  5
2BB
330
2B7
100
AcDbEntity
  8
0
 62
     0
100
AcDbLine
 10
159.6305099717877
 20
449.8955354110162
 30
0.0
 11
155.9271893210262
 21
453.5988560617776
 31
0.0
  0
LINE
  5
2BC
330
2B7
100
AcDbEntity
  8
0
 62
     0
100
AcDbLine
 10
159.7066599328385
 20
449.6779640937281
 30
0.0
 11
155.9035876232422
 21
453.4810364033244
 31
0.0
  0
LINE
  5
2BD
330
2B7
100
AcDbEntity
  8
0
 62
     0
100
AcDbLine
 10
159.7828098938894
 20
449.46039277644
 30
0.0
 11
155.882501159186
 21
453.3607015111432
 31
0.0
  0
LINE
  5
2BE
330
2B7
100
AcDbEntity
  8
0
 62
     0
100
AcDbLine
 10
159.8589598549402
 20
449.2428214591517
 30
0.0
 11
155.8640628656071
 21
453.2377184484849
 31
0.0
  0
LINE
  5
2BF
330
2B7
100
AcDbEntity
  8
0
 62
     0
100
AcDbLine
 10
159.9351098159911
 20
449.0252501418636
 30
0.0
 11
155.8484231138361
 21
453.1119368440186
 31
0.0
  0
LINE
  5
2C0
330
2B7
100
AcDbEntity
  8
0
 62
     0
100
AcDbLine
 10
160.011259777042
 20
448.8076788245754
 30
0.0
 11
155.8357529147989
 21
452.9831856868184
 31
0.0
  0
LINE
  5
2C1
330
2B7
100
AcDbEntity
  8
0
 62
     0
100
AcDbLine
 10
160.0874097380928
 20
448.5901075072873
 30
0.0
 11
155.8262479430193
 21
452.8512693023608
 31
0.0
  0
LINE
  5
2C2
330
2B7
100
AcDbEntity
  8
0
 62
     0
100
AcDbLine
 10
160.1635596991437
 20
448.3725361899991
 30
0.0
 11
155.8201336509829
 21
452.7159622381597
 31
0.0
  0
LINE
  5
2C3
330
2B7
100
AcDbEntity
  8
0
 62
     0
100
AcDbLine
 10
160.2397096601946
 20
448.1549648727108
 30
0.0
 11
155.8176718587157
 21
452.5770026741898
 31
0.0
  0
LINE
  5
2C4
330
2B7
100
AcDbEntity
  8
0
 62
     0
100
AcDbLine
 10
160.3158596212454
 20
447.9373935554227
 30
0.0
 11
155.8191693755171
 21
452.434083801151
 31
0.0
  0
LINE
  5
2C5
330
2B7
100
AcDbEntity
  8
0
 62
     0
100
AcDbLine
 10
160.3920095822963
 20
447.7198222381345
 30
0.0
 11
155.8249894784299
 21
452.2868423420009
 31
0.0
  0
LINE
  5
2C6
330
2B7
100
AcDbEntity
  8
0
 62
     0
100
AcDbLine
 10
160.3945529682123
 20
447.5758574959812
 30
0.0
 11
155.8355675002373
 21
452.1348429639561
 31
0.0
  0
LINE
  5
2C7
330
2B7
100
AcDbEntity
  8
0
 62
     0
100
AcDbLine
 10
160.237266624737
 20
447.5917224832192
 30
0.0
 11
155.8514324874754
 21
451.9775566204808
 31
0.0
  0
LINE
  5
2C8
330
2B7
100
AcDbEntity
  8
0
 62
     0
100
AcDbLine
 10
160.0740396529547
 20
447.6135280987641
 30
0.0
 11
155.8732381030203
 21
451.8143296486986
 31
0.0
  0
LINE
  5
2C9
330
2B7
100
AcDbEntity
  8
0
 62
     0
100
AcDbLine
 10
159.9040482764944
 20
447.6420981189872
 30
0.0
 11
155.9018081232433
 21
451.6443382722382
 31
0.0
  0
LINE
  5
2CA
330
2B7
100
AcDbEntity
  8
0
 62
     0
100
AcDbLine
 10
159.7262290599052
 20
447.678495979339
 30
0.0
 11
155.9382059835952
 21
451.4665190556491
 31
0.0
  0
LINE
  5
2CB
330
2B7
100
AcDbEntity
  8
0
 62
     0
100
AcDbLine
 10
159.5391676246174
 20
447.7241360583896
 30
0.0
 11
155.9838460626457
 21
451.2794576203612
 31
0.0
  0
LINE
  5
2CC
330
2B7
100
AcDbEntity
  8
0
 62
     0
100
AcDbLine
 10
159.3409101003204
 20
447.7809722264493
 30
0.0
 11
156.0406822307055
 21
451.0812000960641
 31
0.0
  0
LINE
  5
2CD
330
2B7
100
AcDbEntity
  8
0
 62
     0
100
AcDbLine
 10
159.1286192601141
 20
447.8518417104182
 30
0.0
 11
156.1115517146744
 21
450.8689092558579
 31
0.0
  0
LINE
  5
2CE
330
2B7
100
AcDbEntity
  8
0
 62
     0
100
AcDbLine
 10
158.8978822393727
 20
447.9411573749223
 30
0.0
 11
156.2008673791785
 21
450.6381722351165
 31
0.0
  0
LINE
  5
2CF
330
2B7
100
AcDbEntity
  8
0
 62
     0
100
AcDbLine
 10
158.641105714471
 20
448.0565125435866
 30
0.0
 11
156.3162225478428
 21
450.3813957102149
 31
0.0
  0
LINE
  5
2D0
330
2B7
100
AcDbEntity
  8
0
 62
     0
100
AcDbLine
 10
158.3428698023491
 20
448.2133270994713
 30
0.0
 11
156.4730371037275
 21
450.083159798093
 31
0.0
  0
LINE
  5
2D1
330
2B7
100
AcDbEntity
  8
0
 62
     0
100
AcDbLine
 10
157.9592288887512
 20
448.455546656832
 30
0.0
 11
156.7152566610881
 21
449.6995188844949
 31
0.0
  0
LINE
  5
2D2
330
2B7
100
AcDbEntity
  8
0
 62
     0
100
AcDbLine
 10
159.4020600886351
 20
450.5482493628807
 30
0.0
 11
156.0119670372605
 21
453.9383424142553
 31
0.0
  0
LINE
  5
2D3
330
2B7
100
AcDbEntity
  8
0
 62
     0
100
AcDbLine
 10
159.3259101275842
 20
450.7658206801689
 30
0.0
 11
156.0445680717288
 21
454.0471627360243
 31
0.0
  0
LINE
  5
2D4
330
2B7
100
AcDbEntity
  8
0
 62
     0
100
AcDbLine
 10
159.2497601665334
 20
450.983391997457
 30
0.0
 11
156.079205674581
 21
454.1539464894094
 31
0.0
  0
LINE
  5
2D5
330
2B7
100
AcDbEntity
  8
0
 62
     0
100
AcDbLine
 10
159.1736102054825
 20
451.2009633147453
 30
0.0
 11
156.1158110000026
 21
454.2587625202251
 31
0.0
  0
LINE
  5
2D6
330
2B7
100
AcDbEntity
  8
0
 62
     0
100
AcDbLine
 10
159.0974602444317
 20
451.4185346320334
 30
0.0
 11
156.1543217843022
 21
454.3616730921628
 31
0.0
  0
LINE
  5
2D7
330
2B7
100
AcDbEntity
  8
0
 62
     0
100
AcDbLine
 10
159.0213102833808
 20
451.6361059493216
 30
0.0
 11
156.1946816319546
 21
454.4627346007477
 31
0.0
  0
LINE
  5
2D8
330
2B7
100
AcDbEntity
  8
0
 62
     0
100
AcDbLine
 10
158.9451603223299
 20
451.8536772666098
 30
0.0
 11
156.2368394065929
 21
454.5619981823469
 31
0.0
  0
LINE
  5
2D9
330
2B7
100
AcDbEntity
  8
0
 62
     0
100
AcDbLine
 10
159.0137080721927
 20
451.9265508729843
 30
0.0
 11
156.2807487092282
 21
454.6595102359487
 31
0.0
  0
LINE
  5
2DA
330
2B7
100
AcDbEntity
  8
0
 62
     0
100
AcDbLine
 10
159.1184646323685
 20
451.9632156690457
 30
0.0
 11
156.3263674294644
 21
454.7553128719498
 31
0.0
  0
LINE
  5
2DB
330
2B7
100
AcDbEntity
  8
0
 62
     0
100
AcDbLine
 10
159.2232211925443
 20
451.9998804651073
 30
0.0
 11
156.373657358203
 21
454.8494442994486
 31
0.0
  0
LINE
  5
2DC
330
2B7
100
AcDbEntity
  8
0
 62
     0
100
AcDbLine
 10
159.3279777527201
 20
452.0365452611688
 30
0.0
 11
156.4225838524774
 21
454.9419391614115
 31
0.0
  0
LINE
  5
2DD
330
2B7
100
AcDbEntity
  8
0
 62
     0
100
AcDbLine
 10
159.4327343128959
 20
452.0732100572304
 30
0.0
 11
157.2564351193678
 21
454.2495092507585
 31
0.0
  0
LINE
  5
2DE
330
2B7
100
AcDbEntity
  8
0
 62
     0
100
AcDbLine
 10
159.5374908730717
 20
452.1098748532919
 30
0.0
 11
157.8350953410163
 21
453.8122703853472
 31
0.0
  0
LINE
  5
2DF
330
2B7
100
AcDbEntity
  8
0
 62
     0
100
AcDbLine
 10
159.6422474332475
 20
452.1465396493534
 30
0.0
 11
158.2324191222768
 21
453.5563679603241
 31
0.0
  0
LINE
  5
2E0
330
2B7
100
AcDbEntity
  8
0
 62
     0
100
AcDbLine
 10
159.7470039934232
 20
452.1832044454149
 30
0.0
 11
158.5621656348939
 21
453.3680428039442
 31
0.0
  0
LINE
  5
2E1
330
2B7
100
AcDbEntity
  8
0
 62
     0
100
AcDbLine
 10
159.851760553599
 20
452.2198692414764
 30
0.0
 11
158.8531159519464
 21
453.2185138431291
 31
0.0
  0
LINE
  5
2E2
330
2B7
100
AcDbEntity
  8
0
 62
     0
100
AcDbLine
 10
159.9565171137748
 20
452.2565340375379
 30
0.0
 11
159.1179173695606
 21
453.0951337817522
 31
0.0
  0
LINE
  5
2E3
330
2B7
100
AcDbEntity
  8
0
 62
     0
100
AcDbLine
 10
160.0612736739506
 20
452.2931988335995
 30
0.0
 11
159.3634765490219
 21
452.9909959585282
 31
0.0
  0
LINE
  5
2E4
330
2B7
100
AcDbEntity
  8
0
 62
     0
100
AcDbLine
 10
160.1660302341264
 20
452.329863629661
 30
0.0
 11
159.5940600640272
 21
452.9018337997603
 31
0.0
  0
LINE
  5
2E5
330
2B7
100
AcDbEntity
  8
0
 62
     0
100
AcDbLine
 10
160.2707867943022
 20
452.3665284257226
 30
0.0
 11
159.8125247779627
 21
452.8247904420619
 31
0.0
  0
LINE
  5
2E6
330
2B7
100
AcDbEntity
  8
0
 62
     0
100
AcDbLine
 10
160.375543354478
 20
452.403193221784
 30
0.0
 11
160.0208960794674
 21
452.7578404967947
 31
0.0
  0
LINE
  5
2E7
330
2B7
100
AcDbEntity
  8
0
 62
     0
100
AcDbLine
 10
160.4802999146538
 20
452.4398580178456
 30
0.0
 11
160.220672548849
 21
452.6994853836503
 31
0.0
  0
LINE
  5
2E8
330
2B7
100
AcDbEntity
  8
0
 62
     0
100
AcDbLine
 10
160.5850564748295
 20
452.476522813907
 30
0.0
 11
160.413000409787
 21
452.6485788789496
 31
0.0
  0
LINE
  5
2E9
330
2B7
100
AcDbEntity
  8
0
 62
     0
100
AcDbLine
 10
160.6898130350053
 20
452.5131876099686
 30
0.0
 11
160.5987799745038
 21
452.6042206704701
 31
0.0
  0
LINE
  5
2EA
330
2B7
100
AcDbEntity
  8
0
 62
     0
100
AcDbLine
 10
160.7945695951811
 20
452.5498524060301
 30
0.0
 11
160.7787339417159
 21
452.5656880594953
 31
0.0
  0
ENDBLK
  5
2EB
330
2B7
100
AcDbEntity
  8
0
100
AcDbBlockEnd
  0
BLOCK
  5
2ED
330
2EC
100
AcDbEntity
  8
0
100
AcDbBlockBegin
  2
*X7
 70
     1
 10
0.0
 20
0.0
 30
0.0
  3
*X7
  1

  0
LINE
  5
2EE
330
2EC
100
AcDbEntity
  8
0
 62
     0
100
AcDbLine
 10
712.5519651891379
 20
95.95485199446855
 30
0.0
 11
713.9447965105164
 21
97.34768331584701
 31
0.0
  0
LINE
  5
2EF
330
2EC
100
AcDbEntity
  8
0
 62
     0
100
AcDbLine
 10
711.9447965105164
 20
96.76189687822009
 30
0.0
 11
713.9447965105164
 21
98.76189687822011
 31
0.0
  0
LINE
  5
2F0
330
2EC
100
AcDbEntity
  8
0
 62
     0
100
AcDbLine
 10
711.9447965105164
 20
98.17611044059319
 30
0.0
 11
713.9447965105164
 21
100.1761104405932
 31
0.0
  0
LINE
  5
2F1
330
2EC
100
AcDbEntity
  8
0
 62
     0
100
AcDbLine
 10
711.9447965105164
 20
99.59032400296628
 30
0.0
 11
713.9447965105164
 21
101.5903240029663
 31
0.0
  0
LINE
  5
2F2
330
2EC
100
AcDbEntity
  8
0
 62
     0
100
AcDbLine
 10
711.9447965105164
 20
101.0045375653394
 30
0.0
 11
713.9447965105164
 21
103.0045375653394
 31
0.0
  0
LINE
  5
2F3
330
2EC
100
AcDbEntity
  8
0
 62
     0
100
AcDbLine
 10
711.9447965105164
 20
102.4187511277124
 30
0.0
 11
713.9447965105164
 21
104.4187511277125
 31
0.0
  0
LINE
  5
2F4
330
2EC
100
AcDbEntity
  8
0
 62
     0
100
AcDbLine
 10
711.9447965105164
 20
103.8329646900856
 30
0.0
 11
713.9447965105164
 21
105.8329646900856
 31
0.0
  0
LINE
  5
2F5
330
2EC
100
AcDbEntity
  8
0
 62
     0
100
AcDbLine
 10
711.9447965105164
 20
105.2471782524586
 30
0.0
 11
713.9447965105164
 21
107.2471782524586
 31
0.0
  0
LINE
  5
2F6
330
2EC
100
AcDbEntity
  8
0
 62
     0
100
AcDbLine
 10
711.9447965105164
 20
106.6613918148317
 30
0.0
 11
713.9447965105164
 21
108.6613918148317
 31
0.0
  0
LINE
  5
2F7
330
2EC
100
AcDbEntity
  8
0
 62
     0
100
AcDbLine
 10
711.9447965105164
 20
108.0756053772048
 30
0.0
 11
713.9447965105164
 21
110.0756053772048
 31
0.0
  0
LINE
  5
2F8
330
2EC
100
AcDbEntity
  8
0
 62
     0
100
AcDbLine
 10
711.9447965105164
 20
109.4898189395779
 30
0.0
 11
713.9447965105164
 21
111.4898189395779
 31
0.0
  0
LINE
  5
2F9
330
2EC
100
AcDbEntity
  8
0
 62
     0
100
AcDbLine
 10
711.9447965105164
 20
110.904032501951
 30
0.0
 11
713.9447965105164
 21
112.904032501951
 31
0.0
  0
LINE
  5
2FA
330
2EC
100
AcDbEntity
  8
0
 62
     0
100
AcDbLine
 10
711.9447965105164
 20
112.3182460643241
 30
0.0
 11
713.9447965105164
 21
114.3182460643241
 31
0.0
  0
LINE
  5
2FB
330
2EC
100
AcDbEntity
  8
0
 62
     0
100
AcDbLine
 10
711.9447965105164
 20
113.7324596266972
 30
0.0
 11
713.9447965105164
 21
115.7324596266972
 31
0.0
  0
LINE
  5
2FC
330
2EC
100
AcDbEntity
  8
0
 62
     0
100
AcDbLine
 10
711.9447965105164
 20
115.1466731890703
 30
0.0
 11
713.9447965105164
 21
117.1466731890703
 31
0.0
  0
LINE
  5
2FD
330
2EC
100
AcDbEntity
  8
0
 62
     0
100
AcDbLine
 10
711.9447965105164
 20
116.5608867514434
 30
0.0
 11
713.9447965105164
 21
118.5608867514434
 31
0.0
  0
LINE
  5
2FE
330
2EC
100
AcDbEntity
  8
0
 62
     0
100
AcDbLine
 10
711.9447965105164
 20
117.9751003138165
 30
0.0
 11
712.9245481911683
 21
118.9548519944685
 31
0.0
  0
LINE
  5
2FF
330
2EC
100
AcDbEntity
  8
0
 62
     0
100
AcDbLine
 10
829.9447965105166
 20
118.59537463685
 30
0.0
 11
830.3042738681353
 21
118.9548519944686
 31
0.0
  0
LINE
  5
300
330
2EC
100
AcDbEntity
  8
0
 62
     0
100
AcDbLine
 10
829.9447965105166
 20
117.1811610744769
 30
0.0
 11
831.7184874305084
 21
118.9548519944686
 31
0.0
  0
LINE
  5
301
330
2EC
100
AcDbEntity
  8
0
 62
     0
100
AcDbLine
 10
829.9447965105166
 20
115.7669475121038
 30
0.0
 11
831.9447965105165
 21
117.7669475121037
 31
0.0
  0
LINE
  5
302
330
2EC
100
AcDbEntity
  8
0
 62
     0
100
AcDbLine
 10
829.9447965105166
 20
114.3527339497307
 30
0.0
 11
831.9447965105165
 21
116.3527339497306
 31
0.0
  0
LINE
  5
303
330
2EC
100
AcDbEntity
  8
0
 62
     0
100
AcDbLine
 10
829.9447965105166
 20
112.9385203873576
 30
0.0
 11
831.9447965105165
 21
114.9385203873575
 31
0.0
  0
LINE
  5
304
330
2EC
100
AcDbEntity
  8
0
 62
     0
100
AcDbLine
 10
829.9447965105166
 20
111.5243068249845
 30
0.0
 11
831.9447965105165
 21
113.5243068249844
 31
0.0
  0
LINE
  5
305
330
2EC
100
AcDbEntity
  8
0
 62
     0
100
AcDbLine
 10
829.9447965105166
 20
110.1100932626114
 30
0.0
 11
831.9447965105165
 21
112.1100932626113
 31
0.0
  0
LINE
  5
306
330
2EC
100
AcDbEntity
  8
0
 62
     0
100
AcDbLine
 10
829.9447965105166
 20
108.6958797002383
 30
0.0
 11
831.9447965105165
 21
110.6958797002382
 31
0.0
  0
LINE
  5
307
330
2EC
100
AcDbEntity
  8
0
 62
     0
100
AcDbLine
 10
829.9447965105166
 20
107.2816661378652
 30
0.0
 11
831.9447965105165
 21
109.2816661378651
 31
0.0
  0
LINE
  5
308
330
2EC
100
AcDbEntity
  8
0
 62
     0
100
AcDbLine
 10
829.9447965105166
 20
105.8674525754921
 30
0.0
 11
831.9447965105165
 21
107.867452575492
 31
0.0
  0
LINE
  5
309
330
2EC
100
AcDbEntity
  8
0
 62
     0
100
AcDbLine
 10
829.9447965105166
 20
104.453239013119
 30
0.0
 11
831.9447965105165
 21
106.4532390131189
 31
0.0
  0
LINE
  5
30A
330
2EC
100
AcDbEntity
  8
0
 62
     0
100
AcDbLine
 10
829.9447965105166
 20
103.0390254507459
 30
0.0
 11
831.9447965105165
 21
105.0390254507458
 31
0.0
  0
LINE
  5
30B
330
2EC
100
AcDbEntity
  8
0
 62
     0
100
AcDbLine
 10
829.9447965105166
 20
101.6248118883728
 30
0.0
 11
831.9447965105165
 21
103.6248118883728
 31
0.0
  0
LINE
  5
30C
330
2EC
100
AcDbEntity
  8
0
 62
     0
100
AcDbLine
 10
829.9447965105166
 20
100.2105983259997
 30
0.0
 11
831.9447965105165
 21
102.2105983259997
 31
0.0
  0
LINE
  5
30D
330
2EC
100
AcDbEntity
  8
0
 62
     0
100
AcDbLine
 10
829.9447965105166
 20
98.79638476362664
 30
0.0
 11
831.9447965105165
 21
100.7963847636266
 31
0.0
  0
LINE
  5
30E
330
2EC
100
AcDbEntity
  8
0
 62
     0
100
AcDbLine
 10
829.9447965105166
 20
97.38217120125355
 30
0.0
 11
831.9447965105165
 21
99.38217120125349
 31
0.0
  0
LINE
  5
30F
330
2EC
100
AcDbEntity
  8
0
 62
     0
100
AcDbLine
 10
829.9447965105166
 20
95.96795763888046
 30
0.0
 11
831.9447965105165
 21
97.9679576388804
 31
0.0
  0
LINE
  5
310
330
2EC
100
AcDbEntity
  8
0
 62
     0
100
AcDbLine
 10
831.345904428478
 20
95.95485199446867
 30
0.0
 11
831.9447965105165
 21
96.55374407650731
 31
0.0
  0
ENDBLK
  5
311
330
2EC
100
AcDbEntity
  8
0
100
AcDbBlockEnd
  0
BLOCK
  5
313
330
312
100
AcDbEntity
  8
0
100
AcDbBlockBegin
  2
*X8
 70
     1
 10
0.0
 20
0.0
 30
0.0
  3
*X8
  1

  0
LINE
  5
314
330
312
100
AcDbEntity
  8
0
 62
     0
100
AcDbLine
 10
155.2086067422902
 20
462.8000565584382
 30
0.0
 11
161.4299187518417
 21
469.0213685679899
 31
0.0
  0
LINE
  5
315
330
312
100
AcDbEntity
  8
0
 62
     0
100
AcDbLine
 10
163.4299187518417
 20
471.0213685679899
 30
0.0
 11
167.5178976999541
 21
475.1093475161023
 31
0.0
  0
LINE
  5
316
330
312
100
AcDbEntity
  8
0
 62
     0
100
AcDbLine
 10
154.2380353231557
 20
464.4811355687534
 30
0.0
 11
161.4299187518417
 21
471.6730189974394
 31
0.0
  0
LINE
  5
317
330
312
100
AcDbEntity
  8
0
 62
     0
100
AcDbLine
 10
163.4299187518417
 20
473.6730189974394
 30
0.0
 11
166.0521281186665
 21
476.2952283642642
 31
0.0
  0
LINE
  5
318
330
312
100
AcDbEntity
  8
0
 62
     0
100
AcDbLine
 10
153.2674639040213
 20
466.1622145790685
 30
0.0
 11
161.4299187518417
 21
474.324669426889
 31
0.0
  0
LINE
  5
319
330
312
100
AcDbEntity
  8
0
 62
     0
100
AcDbLine
 10
163.4299187518417
 20
476.324669426889
 30
0.0
 11
165.8388023526228
 21
478.7335530276701
 31
0.0
  0
LINE
  5
31A
330
312
100
AcDbEntity
  8
0
 62
     0
100
AcDbLine
 10
152.2968924848868
 20
467.8432935893836
 30
0.0
 11
156.5355846159629
 21
472.0819857204597
 31
0.0
  0
LINE
  5
31B
330
312
100
AcDbEntity
  8
0
 62
     0
100
AcDbLine
 10
163.4299187518417
 20
478.9763198563385
 30
0.0
 11
165.6254765865791
 21
481.1718776910758
 31
0.0
  0
LINE
  5
31C
330
312
100
AcDbEntity
  8
0
 62
     0
100
AcDbLine
 10
158.621601221951
 20
474.1680023264478
 30
0.0
 11
161.4299187518417
 21
476.9763198563386
 31
0.0
  0
LINE
  5
31D
330
312
100
AcDbEntity
  8
0
 62
     0
100
AcDbLine
 10
151.3263210657524
 20
469.5243725996987
 30
0.0
 11
155.7083745650944
 21
473.9064260990407
 31
0.0
  0
LINE
  5
31E
330
312
100
AcDbEntity
  8
0
 62
     0
100
AcDbLine
 10
163.4299187518417
 20
481.6279702857881
 30
0.0
 11
165.4119605478389
 21
483.6100120817852
 31
0.0
  0
LINE
  5
31F
330
312
100
AcDbEntity
  8
0
 62
     0
100
AcDbLine
 10
158.8758329700265
 20
477.0738845039728
 30
0.0
 11
161.4299187518417
 21
479.6279702857881
 31
0.0
  0
LINE
  5
320
330
312
100
AcDbEntity
  8
0
 62
     0
100
AcDbLine
 10
150.9299187518419
 20
471.7796207152377
 30
0.0
 11
154.3516863656898
 21
475.2013883290857
 31
0.0
  0
LINE
  5
321
330
312
100
AcDbEntity
  8
0
 62
     0
100
AcDbLine
 10
162.5574120069403
 20
483.4071139703361
 30
0.0
 11
164.3363228858418
 21
485.1860248492377
 31
0.0
  0
LINE
  5
322
330
312
100
AcDbEntity
  8
0
 62
     0
100
AcDbLine
 10
159.130064718102
 20
479.9797666814979
 30
0.0
 11
161.4299187518417
 21
482.2796207152377
 31
0.0
  0
LINE
  5
323
330
312
100
AcDbEntity
  8
0
 62
     0
100
AcDbLine
 10
159.3842964661774
 20
482.8856488590229
 30
0.0
 11
161.9057615774907
 21
485.4071139703361
 31
0.0
  0
LINE
  5
324
330
312
100
AcDbEntity
  8
0
 62
     0
100
AcDbLine
 10
156.1791781614246
 20
461.1189775481231
 30
0.0
 11
161.4299187518417
 21
466.3697181385403
 31
0.0
  0
LINE
  5
325
330
312
100
AcDbEntity
  8
0
 62
     0
100
AcDbLine
 10
163.4299187518417
 20
468.3697181385404
 30
0.0
 11
168.7189454946619
 21
473.6587448813605
 31
0.0
  0
LINE
  5
326
330
312
100
AcDbEntity
  8
0
 62
     0
100
AcDbLine
 10
157.149749580559
 20
459.437898537808
 30
0.0
 11
161.4299187518417
 21
463.7180677090908
 31
0.0
  0
LINE
  5
327
330
312
100
AcDbEntity
  8
0
 62
     0
100
AcDbLine
 10
163.4299187518417
 20
465.7180677090908
 30
0.0
 11
169.1348644949927
 21
471.4230134522416
 31
0.0
  0
LINE
  5
328
330
312
100
AcDbEntity
  8
0
 62
     0
100
AcDbLine
 10
158.122506159027
 20
457.7590046868264
 30
0.0
 11
161.4299187518417
 21
461.0664172796412
 31
0.0
  0
LINE
  5
329
330
312
100
AcDbEntity
  8
0
 62
     0
100
AcDbLine
 10
163.4299187518417
 20
463.0664172796413
 30
0.0
 11
169.5323369000187
 21
469.1688354278181
 31
0.0
  0
LINE
  5
32A
330
312
100
AcDbEntity
  8
0
 62
     0
100
AcDbLine
 10
159.3972809599568
 20
456.3821290583066
 30
0.0
 11
163.4222658719863
 21
460.4071139703362
 31
0.0
  0
LINE
  5
32B
330
312
100
AcDbEntity
  8
0
 62
     0
100
AcDbLine
 10
163.4299187518417
 20
460.4147668501917
 30
0.0
 11
169.9298093050446
 21
466.9146574033945
 31
0.0
  0
LINE
  5
32C
330
312
100
AcDbEntity
  8
0
 62
     0
100
AcDbLine
 10
161.2090569884361
 20
455.5422546573364
 30
0.0
 11
170.3272817100706
 21
464.6604793789709
 31
0.0
  0
LINE
  5
32D
330
312
100
AcDbEntity
  8
0
 62
     0
100
AcDbLine
 10
163.7255667308854
 20
455.4071139703362
 30
0.0
 11
170.7247541150965
 21
462.4063013545473
 31
0.0
  0
LINE
  5
32E
330
312
100
AcDbEntity
  8
0
 62
     0
100
AcDbLine
 10
167.377217160335
 20
456.4071139703362
 30
0.0
 11
171.1222265201225
 21
460.1521233301237
 31
0.0
  0
LINE
  5
32F
330
312
100
AcDbEntity
  8
0
 62
     0
100
AcDbLine
 10
170.0288675897845
 20
456.4071139703362
 30
0.0
 11
172.2313110436787
 21
458.6095574242303
 31
0.0
  0
LINE
  5
330
330
312
100
AcDbEntity
  8
0
 62
     0
100
AcDbLine
 10
172.6805180192341
 20
456.4071139703362
 30
0.0
 11
173.4299187518417
 21
457.1565147029438
 31
0.0
  0
LINE
  5
331
330
312
100
AcDbEntity
  8
0
 62
     0
100
AcDbLine
 10
173.4299187518417
 20
457.6628834571518
 30
0.0
 11
172.6269431908367
 21
458.4658590181568
 31
0.0
  0
LINE
  5
332
330
312
100
AcDbEntity
  8
0
 62
     0
100
AcDbLine
 10
161.4299187518417
 20
469.6628834571519
 30
0.0
 11
158.4222699982109
 21
472.6705322107825
 31
0.0
  0
LINE
  5
333
330
312
100
AcDbEntity
  8
0
 62
     0
100
AcDbLine
 10
171.1668630620169
 20
459.9259391469765
 30
0.0
 11
163.4299187518417
 21
467.6628834571518
 31
0.0
  0
LINE
  5
334
330
312
100
AcDbEntity
  8
0
 62
     0
100
AcDbLine
 10
172.0340378092077
 20
456.4071139703362
 30
0.0
 11
163.4299187518417
 21
465.0112330277022
 31
0.0
  0
LINE
  5
335
330
312
100
AcDbEntity
  8
0
 62
     0
100
AcDbLine
 10
161.4299187518417
 20
467.0112330277023
 30
0.0
 11
153.087226546158
 21
475.353925233386
 31
0.0
  0
LINE
  5
336
330
312
100
AcDbEntity
  8
0
 62
     0
100
AcDbLine
 10
169.3823873797582
 20
456.4071139703362
 30
0.0
 11
163.4299187518417
 21
462.3595825982526
 31
0.0
  0
LINE
  5
337
330
312
100
AcDbEntity
  8
0
 62
     0
100
AcDbLine
 10
161.4299187518417
 20
464.3595825982527
 30
0.0
 11
151.4222529712444
 21
474.36724837885
 31
0.0
  0
LINE
  5
338
330
312
100
AcDbEntity
  8
0
 62
     0
100
AcDbLine
 10
166.8036425496413
 20
456.3342083710036
 30
0.0
 11
162.7307369503086
 21
460.4071139703362
 31
0.0
  0
LINE
  5
339
330
312
100
AcDbEntity
  8
0
 62
     0
100
AcDbLine
 10
161.4299187518417
 20
461.7079321688031
 30
0.0
 11
150.9299187518419
 21
472.207932168803
 31
0.0
  0
LINE
  5
33A
330
312
100
AcDbEntity
  8
0
 62
     0
100
AcDbLine
 10
165.0790865208591
 20
455.4071139703362
 30
0.0
 11
151.8242280012919
 21
468.6619724899034
 31
0.0
  0
LINE
  5
33B
330
312
100
AcDbEntity
  8
0
 62
     0
100
AcDbLine
 10
162.4274360914095
 20
455.4071139703362
 30
0.0
 11
155.4464498498757
 21
462.38810021187
 31
0.0
  0
LINE
  5
33C
330
312
100
AcDbEntity
  8
0
 62
     0
100
AcDbLine
 10
170.5934417275152
 20
463.1510109109278
 30
0.0
 11
163.4299187518417
 21
470.3145338866014
 31
0.0
  0
LINE
  5
33D
330
312
100
AcDbEntity
  8
0
 62
     0
100
AcDbLine
 10
161.4299187518417
 20
472.3145338866014
 30
0.0
 11
158.6984190073301
 21
475.046033631113
 31
0.0
  0
LINE
  5
33E
330
312
100
AcDbEntity
  8
0
 62
     0
100
AcDbLine
 10
170.0257923045424
 20
466.3703107633502
 30
0.0
 11
163.4299187518417
 21
472.9661843160509
 31
0.0
  0
LINE
  5
33F
330
312
100
AcDbEntity
  8
0
 62
     0
100
AcDbLine
 10
161.4299187518417
 20
474.9661843160509
 30
0.0
 11
158.9117447733738
 21
477.4843582945189
 31
0.0
  0
LINE
  5
340
330
312
100
AcDbEntity
  8
0
 62
     0
100
AcDbLine
 10
169.4581428815697
 20
469.5896106157725
 30
0.0
 11
163.4299187518417
 21
475.6178347455004
 31
0.0
  0
LINE
  5
341
330
312
100
AcDbEntity
  8
0
 62
     0
100
AcDbLine
 10
161.4299187518417
 20
477.6178347455005
 30
0.0
 11
159.1250705394175
 21
479.9226829579247
 31
0.0
  0
LINE
  5
342
330
312
100
AcDbEntity
  8
0
 62
     0
100
AcDbLine
 10
168.8904934585968
 20
472.8089104681949
 30
0.0
 11
166.2922899564556
 21
475.4071139703362
 31
0.0
  0
LINE
  5
343
330
312
100
AcDbEntity
  8
0
 62
     0
100
AcDbLine
 10
161.4299187518417
 20
480.26948517495
 30
0.0
 11
159.3383963054612
 21
482.3610076213306
 31
0.0
  0
LINE
  5
344
330
312
100
AcDbEntity
  8
0
 62
     0
100
AcDbLine
 10
166.1142517339017
 20
475.58515219289
 30
0.0
 11
163.4299187518417
 21
478.26948517495
 31
0.0
  0
LINE
  5
345
330
312
100
AcDbEntity
  8
0
 62
     0
100
AcDbLine
 10
165.8600199858261
 20
478.4910343704151
 30
0.0
 11
163.4299187518417
 21
480.9211356043995
 31
0.0
  0
LINE
  5
346
330
312
100
AcDbEntity
  8
0
 62
     0
100
AcDbLine
 10
161.4299187518417
 20
482.9211356043995
 30
0.0
 11
159.7982389729221
 21
484.5528153833192
 31
0.0
  0
LINE
  5
347
330
312
100
AcDbEntity
  8
0
 62
     0
100
AcDbLine
 10
165.6057882377506
 20
481.3969165479402
 30
0.0
 11
161.5955908153547
 21
485.4071139703361
 31
0.0
  0
LINE
  5
348
330
312
100
AcDbEntity
  8
0
 62
     0
100
AcDbLine
 10
164.9047400670013
 20
484.749615148139
 30
0.0
 11
164.7647802545581
 21
484.8895749605823
 31
0.0
  0
ENDBLK
  5
349
330
312
100
AcDbEntity
  8
0
100
AcDbBlockEnd
  0
BLOCK
  5
37D
330
37C
100
AcDbEntity
  8
0
100
AcDbBlockBegin
  2
*X9
 70
     1
 10
0.0
 20
0.0
 30
0.0
  3
*X9
  1

  0
LINE
  5
37E
330
37C
100
AcDbEntity
  8
0
 62
     0
100
AcDbLine
 10
600.9251023437212
 20
422.380640094118
 30
0.0
 11
601.9251023437212
 21
423.3806400941181
 31
0.0
  0
LINE
  5
37F
330
37C
100
AcDbEntity
  8
0
 62
     0
100
AcDbLine
 10
599.1573353907549
 20
422.380640094118
 30
0.0
 11
600.1573353907549
 21
423.3806400941181
 31
0.0
  0
LINE
  5
380
330
37C
100
AcDbEntity
  8
0
 62
     0
100
AcDbLine
 10
597.3895684377885
 20
422.380640094118
 30
0.0
 11
598.3895684377885
 21
423.3806400941181
 31
0.0
  0
LINE
  5
381
330
37C
100
AcDbEntity
  8
0
 62
     0
100
AcDbLine
 10
595.6218014848221
 20
422.380640094118
 30
0.0
 11
596.6218014848221
 21
423.3806400941181
 31
0.0
  0
LINE
  5
382
330
37C
100
AcDbEntity
  8
0
 62
     0
100
AcDbLine
 10
593.8540345318557
 20
422.380640094118
 30
0.0
 11
594.8540345318559
 21
423.3806400941181
 31
0.0
  0
LINE
  5
383
330
37C
100
AcDbEntity
  8
0
 62
     0
100
AcDbLine
 10
592.0862675788894
 20
422.380640094118
 30
0.0
 11
593.0862675788894
 21
423.3806400941181
 31
0.0
  0
LINE
  5
384
330
37C
100
AcDbEntity
  8
0
 62
     0
100
AcDbLine
 10
590.3185006259231
 20
422.380640094118
 30
0.0
 11
591.318500625923
 21
423.3806400941181
 31
0.0
  0
LINE
  5
385
330
37C
100
AcDbEntity
  8
0
 62
     0
100
AcDbLine
 10
588.5507336729566
 20
422.380640094118
 30
0.0
 11
589.5507336729568
 21
423.3806400941181
 31
0.0
  0
LINE
  5
386
330
37C
100
AcDbEntity
  8
0
 62
     0
100
AcDbLine
 10
586.7829667199903
 20
422.380640094118
 30
0.0
 11
587.7829667199903
 21
423.3806400941181
 31
0.0
  0
LINE
  5
387
330
37C
100
AcDbEntity
  8
0
 62
     0
100
AcDbLine
 10
585.0151997670239
 20
422.380640094118
 30
0.0
 11
586.0151997670239
 21
423.3806400941181
 31
0.0
  0
LINE
  5
388
330
37C
100
AcDbEntity
  8
0
 62
     0
100
AcDbLine
 10
583.2474328140575
 20
422.380640094118
 30
0.0
 11
584.2474328140577
 21
423.3806400941181
 31
0.0
  0
LINE
  5
389
330
37C
100
AcDbEntity
  8
0
 62
     0
100
AcDbLine
 10
581.4796658610912
 20
422.380640094118
 30
0.0
 11
582.4796658610912
 21
423.3806400941181
 31
0.0
  0
LINE
  5
38A
330
37C
100
AcDbEntity
  8
0
 62
     0
100
AcDbLine
 10
579.7118989081248
 20
422.380640094118
 30
0.0
 11
580.7118989081248
 21
423.3806400941181
 31
0.0
  0
LINE
  5
38B
330
37C
100
AcDbEntity
  8
0
 62
     0
100
AcDbLine
 10
577.9441319551584
 20
422.380640094118
 30
0.0
 11
578.9441319551584
 21
423.3806400941181
 31
0.0
  0
LINE
  5
38C
330
37C
100
AcDbEntity
  8
0
 62
     0
100
AcDbLine
 10
576.176365002192
 20
422.3806400941179
 30
0.0
 11
577.1763650021921
 21
423.3806400941181
 31
0.0
  0
LINE
  5
38D
330
37C
100
AcDbEntity
  8
0
 62
     0
100
AcDbLine
 10
574.4085980492257
 20
422.3806400941179
 30
0.0
 11
575.4085980492257
 21
423.3806400941181
 31
0.0
  0
LINE
  5
38E
330
37C
100
AcDbEntity
  8
0
 62
     0
100
AcDbLine
 10
572.6408310962593
 20
422.3806400941179
 30
0.0
 11
573.6408310962594
 21
423.3806400941181
 31
0.0
  0
LINE
  5
38F
330
37C
100
AcDbEntity
  8
0
 62
     0
100
AcDbLine
 10
570.8730641432929
 20
422.3806400941179
 30
0.0
 11
571.873064143293
 21
423.3806400941181
 31
0.0
  0
LINE
  5
390
330
37C
100
AcDbEntity
  8
0
 62
     0
100
AcDbLine
 10
569.1052971903266
 20
422.3806400941179
 30
0.0
 11
570.1052971903266
 21
423.3806400941181
 31
0.0
  0
LINE
  5
391
330
37C
100
AcDbEntity
  8
0
 62
     0
100
AcDbLine
 10
567.3375302373601
 20
422.3806400941179
 30
0.0
 11
568.3375302373603
 21
423.3806400941181
 31
0.0
  0
LINE
  5
392
330
37C
100
AcDbEntity
  8
0
 62
     0
100
AcDbLine
 10
565.5697632843938
 20
422.3806400941179
 30
0.0
 11
566.5697632843939
 21
423.3806400941181
 31
0.0
  0
LINE
  5
393
330
37C
100
AcDbEntity
  8
0
 62
     0
100
AcDbLine
 10
563.8019963314274
 20
422.3806400941179
 30
0.0
 11
564.8019963314275
 21
423.3806400941181
 31
0.0
  0
LINE
  5
394
330
37C
100
AcDbEntity
  8
0
 62
     0
100
AcDbLine
 10
562.034229378461
 20
422.3806400941179
 30
0.0
 11
563.0342293784612
 21
423.3806400941181
 31
0.0
  0
LINE
  5
395
330
37C
100
AcDbEntity
  8
0
 62
     0
100
AcDbLine
 10
560.2664624254948
 20
422.3806400941179
 30
0.0
 11
561.2664624254948
 21
423.3806400941181
 31
0.0
  0
LINE
  5
396
330
37C
100
AcDbEntity
  8
0
 62
     0
100
AcDbLine
 10
558.4986954725283
 20
422.3806400941179
 30
0.0
 11
559.4986954725284
 21
423.3806400941181
 31
0.0
  0
LINE
  5
397
330
37C
100
AcDbEntity
  8
0
 62
     0
100
AcDbLine
 10
556.7309285195619
 20
422.3806400941179
 30
0.0
 11
557.7309285195621
 21
423.3806400941181
 31
0.0
  0
LINE
  5
398
330
37C
100
AcDbEntity
  8
0
 62
     0
100
AcDbLine
 10
554.9631615665955
 20
422.3806400941179
 30
0.0
 11
555.9631615665956
 21
423.3806400941181
 31
0.0
  0
LINE
  5
399
330
37C
100
AcDbEntity
  8
0
 62
     0
100
AcDbLine
 10
553.1953946136292
 20
422.3806400941179
 30
0.0
 11
554.1953946136293
 21
423.3806400941181
 31
0.0
  0
LINE
  5
39A
330
37C
100
AcDbEntity
  8
0
 62
     0
100
AcDbLine
 10
551.4276276606628
 20
422.3806400941178
 30
0.0
 11
552.427627660663
 21
423.3806400941181
 31
0.0
  0
LINE
  5
39B
330
37C
100
AcDbEntity
  8
0
 62
     0
100
AcDbLine
 10
549.6598607076964
 20
422.3806400941178
 30
0.0
 11
550.6598607076965
 21
423.3806400941181
 31
0.0
  0
LINE
  5
39C
330
37C
100
AcDbEntity
  8
0
 62
     0
100
AcDbLine
 10
547.8920937547301
 20
422.3806400941178
 30
0.0
 11
548.8920937547302
 21
423.3806400941181
 31
0.0
  0
LINE
  5
39D
330
37C
100
AcDbEntity
  8
0
 62
     0
100
AcDbLine
 10
546.1243268017637
 20
422.3806400941178
 30
0.0
 11
547.1243268017637
 21
423.3806400941181
 31
0.0
  0
LINE
  5
39E
330
37C
100
AcDbEntity
  8
0
 62
     0
100
AcDbLine
 10
544.3565598487973
 20
422.3806400941178
 30
0.0
 11
545.3565598487974
 21
423.3806400941181
 31
0.0
  0
LINE
  5
39F
330
37C
100
AcDbEntity
  8
0
 62
     0
100
AcDbLine
 10
542.588792895831
 20
422.3806400941178
 30
0.0
 11
543.5887928958311
 21
423.3806400941181
 31
0.0
  0
LINE
  5
3A0
330
37C
100
AcDbEntity
  8
0
 62
     0
100
AcDbLine
 10
540.8210259428646
 20
422.3806400941178
 30
0.0
 11
541.8210259428646
 21
423.3806400941181
 31
0.0
  0
LINE
  5
3A1
330
37C
100
AcDbEntity
  8
0
 62
     0
100
AcDbLine
 10
539.0532589898982
 20
422.3806400941178
 30
0.0
 11
540.0532589898983
 21
423.3806400941181
 31
0.0
  0
LINE
  5
3A2
330
37C
100
AcDbEntity
  8
0
 62
     0
100
AcDbLine
 10
537.2854920369318
 20
422.3806400941178
 30
0.0
 11
538.285492036932
 21
423.3806400941181
 31
0.0
  0
LINE
  5
3A3
330
37C
100
AcDbEntity
  8
0
 62
     0
100
AcDbLine
 10
535.5177250839655
 20
422.3806400941178
 30
0.0
 11
536.5177250839656
 21
423.380640094118
 31
0.0
  0
LINE
  5
3A4
330
37C
100
AcDbEntity
  8
0
 62
     0
100
AcDbLine
 10
533.749958130999
 20
422.3806400941178
 30
0.0
 11
534.7499581309993
 21
423.380640094118
 31
0.0
  0
LINE
  5
3A5
330
37C
100
AcDbEntity
  8
0
 62
     0
100
AcDbLine
 10
531.9821911780327
 20
422.3806400941178
 30
0.0
 11
532.9821911780328
 21
423.380640094118
 31
0.0
  0
LINE
  5
3A6
330
37C
100
AcDbEntity
  8
0
 62
     0
100
AcDbLine
 10
496.5646220122922
 20
388.7308378813437
 30
0.0
 11
500.4601716915428
 21
392.6263875605943
 31
0.0
  0
LINE
  5
3A7
330
37C
100
AcDbEntity
  8
0
 62
     0
100
AcDbLine
 10
530.2144242250664
 20
422.3806400941178
 30
0.0
 11
531.2144242250665
 21
423.380640094118
 31
0.0
  0
LINE
  5
3A8
330
37C
100
AcDbEntity
  8
0
 62
     0
100
AcDbLine
 10
494.4466572720999
 20
388.3806400941178
 30
0.0
 11
495.5484210665667
 21
389.4824038885847
 31
0.0
  0
LINE
  5
3A9
330
37C
100
AcDbEntity
  8
0
 62
     0
100
AcDbLine
 10
528.4466572720999
 20
422.3806400941178
 30
0.0
 11
529.4466572721002
 21
423.380640094118
 31
0.0
  0
LINE
  5
3AA
330
37C
100
AcDbEntity
  8
0
 62
     0
100
AcDbLine
 10
500.1429354496965
 20
394.0769182717144
 30
0.0
 11
502.8749862572653
 21
396.8089690792833
 31
0.0
  0
LINE
  5
3AB
330
37C
100
AcDbEntity
  8
0
 62
     0
100
AcDbLine
 10
492.6788903191336
 20
388.3806400941178
 30
0.0
 11
493.6788903191335
 21
389.3806400941178
 31
0.0
  0
LINE
  5
3AC
330
37C
100
AcDbEntity
  8
0
 62
     0
100
AcDbLine
 10
526.6788903191336
 20
422.3806400941178
 30
0.0
 11
527.6788903191337
 21
423.380640094118
 31
0.0
  0
LINE
  5
3AD
330
37C
100
AcDbEntity
  8
0
 62
     0
100
AcDbLine
 10
502.5577500154192
 20
398.2594997904034
 30
0.0
 11
503.2837037454605
 21
398.9854535204448
 31
0.0
  0
LINE
  5
3AE
330
37C
100
AcDbEntity
  8
0
 62
     0
100
AcDbLine
 10
503.2837037454606
 20
398.9854535204449
 30
0.0
 11
505.2898008229879
 21
400.9915505979722
 31
0.0
  0
LINE
  5
3AF
330
37C
100
AcDbEntity
  8
0
 62
     0
100
AcDbLine
 10
490.9111233661672
 20
388.3806400941178
 30
0.0
 11
491.9111233661673
 21
389.3806400941178
 31
0.0
  0
LINE
  5
3B0
330
37C
100
AcDbEntity
  8
0
 62
     0
100
AcDbLine
 10
524.9111233661672
 20
422.3806400941178
 30
0.0
 11
525.9111233661674
 21
423.380640094118
 31
0.0
  0
LINE
  5
3B1
330
37C
100
AcDbEntity
  8
0
 62
     0
100
AcDbLine
 10
504.9725645811419
 20
402.4420813090925
 30
0.0
 11
506.9785433634643
 21
404.4480600914148
 31
0.0
  0
LINE
  5
3B2
330
37C
100
AcDbEntity
  8
0
 62
     0
100
AcDbLine
 10
489.1433564132008
 20
388.3806400941178
 30
0.0
 11
490.1433564132008
 21
389.3806400941178
 31
0.0
  0
LINE
  5
3B3
330
37C
100
AcDbEntity
  8
0
 62
     0
100
AcDbLine
 10
523.1433564132008
 20
422.3806400941178
 30
0.0
 11
524.143356413201
 21
423.380640094118
 31
0.0
  0
LINE
  5
3B4
330
37C
100
AcDbEntity
  8
0
 62
     0
100
AcDbLine
 10
505.9785433634642
 20
405.2158270443812
 30
0.0
 11
506.9785433634643
 21
406.2158270443813
 31
0.0
  0
LINE
  5
3B5
330
37C
100
AcDbEntity
  8
0
 62
     0
100
AcDbLine
 10
487.3755894602345
 20
388.3806400941178
 30
0.0
 11
488.3755894602344
 21
389.3806400941178
 31
0.0
  0
LINE
  5
3B6
330
37C
100
AcDbEntity
  8
0
 62
     0
100
AcDbLine
 10
521.3755894602345
 20
422.3806400941178
 30
0.0
 11
522.3755894602346
 21
423.380640094118
 31
0.0
  0
LINE
  5
3B7
330
37C
100
AcDbEntity
  8
0
 62
     0
100
AcDbLine
 10
505.9785433634642
 20
406.9835939973476
 30
0.0
 11
506.8490739182356
 21
407.854124552119
 31
0.0
  0
LINE
  5
3B8
330
37C
100
AcDbEntity
  8
0
 62
     0
100
AcDbLine
 10
485.6078225072681
 20
388.3806400941178
 30
0.0
 11
486.6078225072681
 21
389.3806400941178
 31
0.0
  0
LINE
  5
3B9
330
37C
100
AcDbEntity
  8
0
 62
     0
100
AcDbLine
 10
519.6078225072681
 20
422.3806400941178
 30
0.0
 11
520.6078225072683
 21
423.380640094118
 31
0.0
  0
LINE
  5
3BA
330
37C
100
AcDbEntity
  8
0
 62
     0
100
AcDbLine
 10
505.7084524835607
 20
408.4812700704104
 30
0.0
 11
506.5613773745367
 21
409.3341949613863
 31
0.0
  0
LINE
  5
3BB
330
37C
100
AcDbEntity
  8
0
 62
     0
100
AcDbLine
 10
505.4207559398617
 20
409.9613404796778
 30
0.0
 11
506.2736808308376
 21
410.8142653706537
 31
0.0
  0
LINE
  5
3BC
330
37C
100
AcDbEntity
  8
0
 62
     0
100
AcDbLine
 10
517.8400555543017
 20
422.3806400941178
 30
0.0
 11
518.8400555543019
 21
423.380640094118
 31
0.0
  0
LINE
  5
3BD
330
37C
100
AcDbEntity
  8
0
 62
     0
100
AcDbLine
 10
505.1330593961628
 20
411.4414108889453
 30
0.0
 11
505.9859842871387
 21
412.2943357799211
 31
0.0
  0
LINE
  5
3BE
330
37C
100
AcDbEntity
  8
0
 62
     0
100
AcDbLine
 10
516.0722886013353
 20
422.3806400941178
 30
0.0
 11
517.0722886013355
 21
423.380640094118
 31
0.0
  0
LINE
  5
3BF
330
37C
100
AcDbEntity
  8
0
 62
     0
100
AcDbLine
 10
504.8487061903931
 20
412.9248246361419
 30
0.0
 11
505.7494604104379
 21
413.8255788561868
 31
0.0
  0
LINE
  5
3C0
330
37C
100
AcDbEntity
  8
0
 62
     0
100
AcDbLine
 10
514.304521648369
 20
422.3806400941178
 30
0.0
 11
515.3045216483691
 21
423.380640094118
 31
0.0
  0
LINE
  5
3C1
330
37C
100
AcDbEntity
  8
0
 62
     0
100
AcDbLine
 10
504.7323060836681
 20
414.5761914823833
 30
0.0
 11
505.8364653786597
 21
415.6803507773749
 31
0.0
  0
LINE
  5
3C2
330
37C
100
AcDbEntity
  8
0
 62
     0
100
AcDbLine
 10
512.4304706859744
 20
422.2743560846896
 30
0.0
 11
513.5346299809663
 21
423.3785153796815
 31
0.0
  0
LINE
  5
3C3
330
37C
100
AcDbEntity
  8
0
 62
     0
100
AcDbLine
 10
505.0149194156721
 20
416.6265717673535
 30
0.0
 11
506.8484926355922
 21
418.4601449872738
 31
0.0
  0
LINE
  5
3C4
330
37C
100
AcDbEntity
  8
0
 62
     0
100
AcDbLine
 10
509.6506764760755
 20
421.2623288277571
 30
0.0
 11
511.484249695996
 21
423.0959020476776
 31
0.0
  0
LINE
  5
3C5
330
37C
100
AcDbEntity
  8
0
 62
     0
100
AcDbLine
 10
602.6928692966876
 20
422.380640094118
 30
0.0
 11
603.6928692966877
 21
423.3806400941181
 31
0.0
  0
LINE
  5
3C6
330
37C
100
AcDbEntity
  8
0
 62
     0
100
AcDbLine
 10
604.460636249654
 20
422.380640094118
 30
0.0
 11
605.460636249654
 21
423.3806400941181
 31
0.0
  0
LINE
  5
3C7
330
37C
100
AcDbEntity
  8
0
 62
     0
100
AcDbLine
 10
606.2284032026203
 20
422.380640094118
 30
0.0
 11
607.2284032026203
 21
423.3806400941181
 31
0.0
  0
LINE
  5
3C8
330
37C
100
AcDbEntity
  8
0
 62
     0
100
AcDbLine
 10
607.9961701555868
 20
422.380640094118
 30
0.0
 11
608.9961701555868
 21
423.3806400941181
 31
0.0
  0
LINE
  5
3C9
330
37C
100
AcDbEntity
  8
0
 62
     0
100
AcDbLine
 10
609.7639371085531
 20
422.380640094118
 30
0.0
 11
610.7639371085531
 21
423.3806400941181
 31
0.0
  0
LINE
  5
3CA
330
37C
100
AcDbEntity
  8
0
 62
     0
100
AcDbLine
 10
611.5317040615194
 20
422.380640094118
 30
0.0
 11
612.5317040615195
 21
423.3806400941181
 31
0.0
  0
LINE
  5
3CB
330
37C
100
AcDbEntity
  8
0
 62
     0
100
AcDbLine
 10
613.2994710144859
 20
422.380640094118
 30
0.0
 11
614.2994710144859
 21
423.3806400941181
 31
0.0
  0
LINE
  5
3CC
330
37C
100
AcDbEntity
  8
0
 62
     0
100
AcDbLine
 10
615.0672379674522
 20
422.380640094118
 30
0.0
 11
616.0672379674522
 21
423.3806400941181
 31
0.0
  0
LINE
  5
3CD
330
37C
100
AcDbEntity
  8
0
 62
     0
100
AcDbLine
 10
616.8350049204186
 20
422.380640094118
 30
0.0
 11
617.8350049204186
 21
423.3806400941181
 31
0.0
  0
LINE
  5
3CE
330
37C
100
AcDbEntity
  8
0
 62
     0
100
AcDbLine
 10
618.602771873385
 20
422.380640094118
 30
0.0
 11
619.602771873385
 21
423.3806400941181
 31
0.0
  0
LINE
  5
3CF
330
37C
100
AcDbEntity
  8
0
 62
     0
100
AcDbLine
 10
620.3705388263513
 20
422.380640094118
 30
0.0
 11
621.3705388263512
 21
423.3806400941181
 31
0.0
  0
LINE
  5
3D0
330
37C
100
AcDbEntity
  8
0
 62
     0
100
AcDbLine
 10
622.1383057793177
 20
422.380640094118
 30
0.0
 11
623.1383057793177
 21
423.3806400941181
 31
0.0
  0
LINE
  5
3D1
330
37C
100
AcDbEntity
  8
0
 62
     0
100
AcDbLine
 10
623.9060727322841
 20
422.380640094118
 30
0.0
 11
624.9060727322841
 21
423.3806400941181
 31
0.0
  0
LINE
  5
3D2
330
37C
100
AcDbEntity
  8
0
 62
     0
100
AcDbLine
 10
625.6738396852504
 20
422.3806400941181
 30
0.0
 11
626.6738396852505
 21
423.3806400941181
 31
0.0
  0
LINE
  5
3D3
330
37C
100
AcDbEntity
  8
0
 62
     0
100
AcDbLine
 10
627.4416066382168
 20
422.3806400941181
 30
0.0
 11
628.4416066382168
 21
423.3806400941181
 31
0.0
  0
LINE
  5
3D4
330
37C
100
AcDbEntity
  8
0
 62
     0
100
AcDbLine
 10
629.2093735911833
 20
422.3806400941181
 30
0.0
 11
630.2093735911832
 21
423.3806400941181
 31
0.0
  0
LINE
  5
3D5
330
37C
100
AcDbEntity
  8
0
 62
     0
100
AcDbLine
 10
630.9771405441495
 20
422.3806400941181
 30
0.0
 11
631.9771405441496
 21
423.3806400941181
 31
0.0
  0
LINE
  5
3D6
330
37C
100
AcDbEntity
  8
0
 62
     0
100
AcDbLine
 10
632.7449074971159
 20
422.3806400941181
 30
0.0
 11
633.7449074971159
 21
423.3806400941181
 31
0.0
  0
LINE
  5
3D7
330
37C
100
AcDbEntity
  8
0
 62
     0
100
AcDbLine
 10
634.5126744500824
 20
422.3806400941181
 30
0.0
 11
635.5126744500823
 21
423.3806400941181
 31
0.0
  0
LINE
  5
3D8
330
37C
100
AcDbEntity
  8
0
 62
     0
100
AcDbLine
 10
636.2804414030486
 20
422.3806400941181
 30
0.0
 11
637.2804414030487
 21
423.3806400941181
 31
0.0
  0
LINE
  5
3D9
330
37C
100
AcDbEntity
  8
0
 62
     0
100
AcDbLine
 10
638.0482083560151
 20
422.3806400941181
 30
0.0
 11
639.048208356015
 21
423.3806400941181
 31
0.0
  0
LINE
  5
3DA
330
37C
100
AcDbEntity
  8
0
 62
     0
100
AcDbLine
 10
639.8159753089815
 20
422.3806400941181
 30
0.0
 11
640.8159753089814
 21
423.3806400941181
 31
0.0
  0
LINE
  5
3DB
330
37C
100
AcDbEntity
  8
0
 62
     0
100
AcDbLine
 10
641.5837422619477
 20
422.3806400941181
 30
0.0
 11
642.5837422619478
 21
423.3806400941181
 31
0.0
  0
LINE
  5
3DC
330
37C
100
AcDbEntity
  8
0
 62
     0
100
AcDbLine
 10
643.3515092149142
 20
422.3806400941181
 30
0.0
 11
644.3515092149141
 21
423.3806400941181
 31
0.0
  0
LINE
  5
3DD
330
37C
100
AcDbEntity
  8
0
 62
     0
100
AcDbLine
 10
645.1192761678806
 20
422.3806400941181
 30
0.0
 11
646.1192761678805
 21
423.3806400941181
 31
0.0
  0
LINE
  5
3DE
330
37C
100
AcDbEntity
  8
0
 62
     0
100
AcDbLine
 10
646.887043120847
 20
422.3806400941181
 30
0.0
 11
647.8870431208469
 21
423.3806400941181
 31
0.0
  0
LINE
  5
3DF
330
37C
100
AcDbEntity
  8
0
 62
     0
100
AcDbLine
 10
648.6548100738133
 20
422.3806400941181
 30
0.0
 11
649.6548100738133
 21
423.3806400941181
 31
0.0
  0
LINE
  5
3E0
330
37C
100
AcDbEntity
  8
0
 62
     0
100
AcDbLine
 10
650.4225770267797
 20
422.3806400941182
 30
0.0
 11
651.4225770267796
 21
423.3806400941181
 31
0.0
  0
LINE
  5
3E1
330
37C
100
AcDbEntity
  8
0
 62
     0
100
AcDbLine
 10
652.1903439797461
 20
422.3806400941182
 30
0.0
 11
653.190343979746
 21
423.3806400941181
 31
0.0
  0
LINE
  5
3E2
330
37C
100
AcDbEntity
  8
0
 62
     0
100
AcDbLine
 10
653.9581109327124
 20
422.3806400941182
 30
0.0
 11
654.9581109327124
 21
423.3806400941181
 31
0.0
  0
LINE
  5
3E3
330
37C
100
AcDbEntity
  8
0
 62
     0
100
AcDbLine
 10
655.7258778856788
 20
422.3806400941182
 30
0.0
 11
656.7258778856787
 21
423.3806400941181
 31
0.0
  0
LINE
  5
3E4
330
37C
100
AcDbEntity
  8
0
 62
     0
100
AcDbLine
 10
657.4936448386452
 20
422.3806400941182
 30
0.0
 11
658.4936448386452
 21
423.3806400941181
 31
0.0
  0
LINE
  5
3E5
330
37C
100
AcDbEntity
  8
0
 62
     0
100
AcDbLine
 10
659.2614117916116
 20
422.3806400941182
 30
0.0
 11
660.2614117916115
 21
423.3806400941181
 31
0.0
  0
LINE
  5
3E6
330
37C
100
AcDbEntity
  8
0
 62
     0
100
AcDbLine
 10
661.0291787445779
 20
422.3806400941182
 30
0.0
 11
662.0291787445778
 21
423.3806400941181
 31
0.0
  0
LINE
  5
3E7
330
37C
100
AcDbEntity
  8
0
 62
     0
100
AcDbLine
 10
662.7969456975442
 20
422.3806400941182
 30
0.0
 11
663.7969456975443
 21
423.3806400941181
 31
0.0
  0
LINE
  5
3E8
330
37C
100
AcDbEntity
  8
0
 62
     0
100
AcDbLine
 10
664.5647126505107
 20
422.3806400941182
 30
0.0
 11
665.5647126505106
 21
423.3806400941181
 31
0.0
  0
LINE
  5
3E9
330
37C
100
AcDbEntity
  8
0
 62
     0
100
AcDbLine
 10
666.332479603477
 20
422.3806400941182
 30
0.0
 11
667.332479603477
 21
423.3806400941181
 31
0.0
  0
LINE
  5
3EA
330
37C
100
AcDbEntity
  8
0
 62
     0
100
AcDbLine
 10
668.1002465564435
 20
422.3806400941182
 30
0.0
 11
669.1002465564434
 21
423.3806400941181
 31
0.0
  0
LINE
  5
3EB
330
37C
100
AcDbEntity
  8
0
 62
     0
100
AcDbLine
 10
669.8680135094098
 20
422.3806400941182
 30
0.0
 11
670.8680135094096
 21
423.3806400941181
 31
0.0
  0
LINE
  5
3EC
330
37C
100
AcDbEntity
  8
0
 62
     0
100
AcDbLine
 10
671.6357804623761
 20
422.3806400941182
 30
0.0
 11
672.6357804623761
 21
423.3806400941181
 31
0.0
  0
LINE
  5
3ED
330
37C
100
AcDbEntity
  8
0
 62
     0
100
AcDbLine
 10
673.4035474153426
 20
422.3806400941182
 30
0.0
 11
674.4035474153425
 21
423.3806400941181
 31
0.0
  0
LINE
  5
3EE
330
37C
100
AcDbEntity
  8
0
 62
     0
100
AcDbLine
 10
675.1713143683089
 20
422.3806400941182
 30
0.0
 11
676.1713143683087
 21
423.3806400941181
 31
0.0
  0
LINE
  5
3EF
330
37C
100
AcDbEntity
  8
0
 62
     0
100
AcDbLine
 10
676.9390813212753
 20
422.3806400941182
 30
0.0
 11
677.9390813212752
 21
423.3806400941181
 31
0.0
  0
LINE
  5
3F0
330
37C
100
AcDbEntity
  8
0
 62
     0
100
AcDbLine
 10
678.7068482742417
 20
422.3806400941182
 30
0.0
 11
679.7068482742416
 21
423.3806400941181
 31
0.0
  0
LINE
  5
3F1
330
37C
100
AcDbEntity
  8
0
 62
     0
100
AcDbLine
 10
680.474615227208
 20
422.3806400941182
 30
0.0
 11
681.4746152272079
 21
423.3806400941181
 31
0.0
  0
LINE
  5
3F2
330
37C
100
AcDbEntity
  8
0
 62
     0
100
AcDbLine
 10
682.2423821801744
 20
422.3806400941182
 30
0.0
 11
683.2423821801743
 21
423.3806400941181
 31
0.0
  0
LINE
  5
3F3
330
37C
100
AcDbEntity
  8
0
 62
     0
100
AcDbLine
 10
684.0101491331408
 20
422.3806400941182
 30
0.0
 11
685.0101491331407
 21
423.3806400941181
 31
0.0
  0
LINE
  5
3F4
330
37C
100
AcDbEntity
  8
0
 62
     0
100
AcDbLine
 10
567.5688535670485
 20
422.3806400941179
 30
0.0
 11
566.5688535670484
 21
423.3806400941181
 31
0.0
  0
LINE
  5
3F5
330
37C
100
AcDbEntity
  8
0
 62
     0
100
AcDbLine
 10
565.8010866140821
 20
422.3806400941179
 30
0.0
 11
564.801086614082
 21
423.3806400941181
 31
0.0
  0
LINE
  5
3F6
330
37C
100
AcDbEntity
  8
0
 62
     0
100
AcDbLine
 10
564.0333196611158
 20
422.3806400941179
 30
0.0
 11
563.0333196611156
 21
423.3806400941181
 31
0.0
  0
LINE
  5
3F7
330
37C
100
AcDbEntity
  8
0
 62
     0
100
AcDbLine
 10
562.2655527081494
 20
422.3806400941179
 30
0.0
 11
561.2655527081493
 21
423.3806400941181
 31
0.0
  0
LINE
  5
3F8
330
37C
100
AcDbEntity
  8
0
 62
     0
100
AcDbLine
 10
560.497785755183
 20
422.3806400941179
 30
0.0
 11
559.4977857551829
 21
423.3806400941181
 31
0.0
  0
LINE
  5
3F9
330
37C
100
AcDbEntity
  8
0
 62
     0
100
AcDbLine
 10
558.7300188022167
 20
422.3806400941178
 30
0.0
 11
557.7300188022165
 21
423.3806400941181
 31
0.0
  0
LINE
  5
3FA
330
37C
100
AcDbEntity
  8
0
 62
     0
100
AcDbLine
 10
556.9622518492503
 20
422.3806400941178
 30
0.0
 11
555.9622518492502
 21
423.3806400941181
 31
0.0
  0
LINE
  5
3FB
330
37C
100
AcDbEntity
  8
0
 62
     0
100
AcDbLine
 10
555.1944848962839
 20
422.3806400941178
 30
0.0
 11
554.1944848962838
 21
423.3806400941181
 31
0.0
  0
LINE
  5
3FC
330
37C
100
AcDbEntity
  8
0
 62
     0
100
AcDbLine
 10
553.4267179433176
 20
422.3806400941178
 30
0.0
 11
552.4267179433175
 21
423.3806400941181
 31
0.0
  0
LINE
  5
3FD
330
37C
100
AcDbEntity
  8
0
 62
     0
100
AcDbLine
 10
551.6589509903512
 20
422.3806400941178
 30
0.0
 11
550.658950990351
 21
423.3806400941181
 31
0.0
  0
LINE
  5
3FE
330
37C
100
AcDbEntity
  8
0
 62
     0
100
AcDbLine
 10
549.8911840373848
 20
422.3806400941178
 30
0.0
 11
548.8911840373847
 21
423.3806400941181
 31
0.0
  0
LINE
  5
3FF
330
37C
100
AcDbEntity
  8
0
 62
     0
100
AcDbLine
 10
548.1234170844185
 20
422.3806400941178
 30
0.0
 11
547.1234170844184
 21
423.3806400941181
 31
0.0
  0
LINE
  5
400
330
37C
100
AcDbEntity
  8
0
 62
     0
100
AcDbLine
 10
546.3556501314521
 20
422.3806400941178
 30
0.0
 11
545.3556501314519
 21
423.3806400941181
 31
0.0
  0
LINE
  5
401
330
37C
100
AcDbEntity
  8
0
 62
     0
100
AcDbLine
 10
544.5878831784857
 20
422.3806400941178
 30
0.0
 11
543.5878831784856
 21
423.3806400941181
 31
0.0
  0
LINE
  5
402
330
37C
100
AcDbEntity
  8
0
 62
     0
100
AcDbLine
 10
542.8201162255194
 20
422.3806400941178
 30
0.0
 11
541.8201162255193
 21
423.3806400941181
 31
0.0
  0
LINE
  5
403
330
37C
100
AcDbEntity
  8
0
 62
     0
100
AcDbLine
 10
541.0523492725531
 20
422.3806400941178
 30
0.0
 11
540.0523492725528
 21
423.3806400941181
 31
0.0
  0
LINE
  5
404
330
37C
100
AcDbEntity
  8
0
 62
     0
100
AcDbLine
 10
539.2845823195866
 20
422.3806400941178
 30
0.0
 11
538.2845823195865
 21
423.3806400941181
 31
0.0
  0
LINE
  5
405
330
37C
100
AcDbEntity
  8
0
 62
     0
100
AcDbLine
 10
537.5168153666203
 20
422.3806400941178
 30
0.0
 11
536.5168153666202
 21
423.3806400941181
 31
0.0
  0
LINE
  5
406
330
37C
100
AcDbEntity
  8
0
 62
     0
100
AcDbLine
 10
535.749048413654
 20
422.3806400941178
 30
0.0
 11
534.7490484136537
 21
423.3806400941181
 31
0.0
  0
LINE
  5
407
330
37C
100
AcDbEntity
  8
0
 62
     0
100
AcDbLine
 10
533.9812814606875
 20
422.3806400941178
 30
0.0
 11
532.9812814606874
 21
423.3806400941181
 31
0.0
  0
LINE
  5
408
330
37C
100
AcDbEntity
  8
0
 62
     0
100
AcDbLine
 10
532.2135145077212
 20
422.3806400941178
 30
0.0
 11
531.213514507721
 21
423.3806400941181
 31
0.0
  0
LINE
  5
409
330
37C
100
AcDbEntity
  8
0
 62
     0
100
AcDbLine
 10
530.4457475547549
 20
422.3806400941178
 30
0.0
 11
529.4457475547546
 21
423.3806400941181
 31
0.0
  0
LINE
  5
40A
330
37C
100
AcDbEntity
  8
0
 62
     0
100
AcDbLine
 10
528.6779806017884
 20
422.3806400941178
 30
0.0
 11
527.6779806017883
 21
423.3806400941181
 31
0.0
  0
LINE
  5
40B
330
37C
100
AcDbEntity
  8
0
 62
     0
100
AcDbLine
 10
526.9102136488221
 20
422.3806400941178
 30
0.0
 11
525.9102136488219
 21
423.3806400941181
 31
0.0
  0
LINE
  5
40C
330
37C
100
AcDbEntity
  8
0
 62
     0
100
AcDbLine
 10
525.1424466958558
 20
422.3806400941178
 30
0.0
 11
524.1424466958555
 21
423.3806400941181
 31
0.0
  0
LINE
  5
40D
330
37C
100
AcDbEntity
  8
0
 62
     0
100
AcDbLine
 10
523.3746797428893
 20
422.3806400941178
 30
0.0
 11
522.3746797428892
 21
423.3806400941181
 31
0.0
  0
LINE
  5
40E
330
37C
100
AcDbEntity
  8
0
 62
     0
100
AcDbLine
 10
521.606912789923
 20
422.3806400941178
 30
0.0
 11
520.6069127899228
 21
423.3806400941181
 31
0.0
  0
LINE
  5
40F
330
37C
100
AcDbEntity
  8
0
 62
     0
100
AcDbLine
 10
519.8391458369567
 20
422.3806400941178
 30
0.0
 11
518.8391458369564
 21
423.3806400941181
 31
0.0
  0
LINE
  5
410
330
37C
100
AcDbEntity
  8
0
 62
     0
100
AcDbLine
 10
518.0713788839902
 20
422.3806400941178
 30
0.0
 11
517.0713788839901
 21
423.3806400941181
 31
0.0
  0
LINE
  5
411
330
37C
100
AcDbEntity
  8
0
 62
     0
100
AcDbLine
 10
516.3036119310239
 20
422.3806400941178
 30
0.0
 11
515.3036119310237
 21
423.3806400941181
 31
0.0
  0
LINE
  5
412
330
37C
100
AcDbEntity
  8
0
 62
     0
100
AcDbLine
 10
514.5358449780576
 20
422.3806400941178
 30
0.0
 11
513.5378992357694
 21
423.3785858364059
 31
0.0
  0
LINE
  5
413
330
37C
100
AcDbEntity
  8
0
 62
     0
100
AcDbLine
 10
512.8200211338779
 20
422.328696985331
 30
0.0
 11
511.9465828878097
 21
423.2021352313992
 31
0.0
  0
LINE
  5
414
330
37C
100
AcDbEntity
  8
0
 62
     0
100
AcDbLine
 10
511.3596060789319
 20
422.0213450873107
 30
0.0
 11
510.5724547322267
 21
422.8084964340158
 31
0.0
  0
LINE
  5
415
330
37C
100
AcDbEntity
  8
0
 62
     0
100
AcDbLine
 10
510.1023885118741
 20
421.5107957014021
 30
0.0
 11
509.3630816300269
 21
422.2501025832492
 31
0.0
  0
LINE
  5
416
330
37C
100
AcDbEntity
  8
0
 62
     0
100
AcDbLine
 10
509.0075066063043
 20
420.8379106540055
 30
0.0
 11
508.2928940826821
 21
421.5525231776277
 31
0.0
  0
LINE
  5
417
330
37C
100
AcDbEntity
  8
0
 62
     0
100
AcDbLine
 10
508.0567658557795
 20
420.020884451564
 30
0.0
 11
507.3496563730218
 21
420.7279939343217
 31
0.0
  0
LINE
  5
418
330
37C
100
AcDbEntity
  8
0
 62
     0
100
AcDbLine
 10
507.244987121694
 20
419.0648962326831
 30
0.0
 11
506.5297793403466
 21
419.7801040140304
 31
0.0
  0
LINE
  5
419
330
37C
100
AcDbEntity
  8
0
 62
     0
100
AcDbLine
 10
506.577767172706
 20
417.9643492287047
 30
0.0
 11
505.8371394497578
 21
418.704976951653
 31
0.0
  0
LINE
  5
41A
330
37C
100
AcDbEntity
  8
0
 62
     0
100
AcDbLine
 10
506.0739080114252
 20
416.7004414370191
 30
0.0
 11
505.2843579233635
 21
417.4899915250809
 31
0.0
  0
LINE
  5
41B
330
37C
100
AcDbEntity
  8
0
 62
     0
100
AcDbLine
 10
505.7755118092791
 20
415.2310706861989
 30
0.0
 11
504.8976786442946
 21
416.1089038511835
 31
0.0
  0
LINE
  5
41C
330
37C
100
AcDbEntity
  8
0
 62
     0
100
AcDbLine
 10
505.7839251793225
 20
413.4548903631891
 30
0.0
 11
504.7310788333971
 21
414.5077367091145
 31
0.0
  0
LINE
  5
41D
330
37C
100
AcDbEntity
  8
0
 62
     0
100
AcDbLine
 10
506.1812457011281
 20
411.289802888417
 30
0.0
 11
504.9167325486945
 21
412.5543160408508
 31
0.0
  0
LINE
  5
41E
330
37C
100
AcDbEntity
  8
0
 62
     0
100
AcDbLine
 10
506.6077733675923
 20
409.0955082689865
 30
0.0
 11
505.3432602151586
 21
410.3600214214204
 31
0.0
  0
LINE
  5
41F
330
37C
100
AcDbEntity
  8
0
 62
     0
100
AcDbLine
 10
506.9785433634643
 20
406.9569713201483
 30
0.0
 11
505.7697878816226
 21
408.16572680199
 31
0.0
  0
LINE
  5
420
330
37C
100
AcDbEntity
  8
0
 62
     0
100
AcDbLine
 10
506.9785433634643
 20
405.1892043671819
 30
0.0
 11
505.9785433634642
 21
406.1892043671819
 31
0.0
  0
LINE
  5
421
330
37C
100
AcDbEntity
  8
0
 62
     0
100
AcDbLine
 10
506.7973237963197
 20
403.6026569813601
 30
0.0
 11
505.9785433634642
 21
404.4214374142155
 31
0.0
  0
LINE
  5
422
330
37C
100
AcDbEntity
  8
0
 62
     0
100
AcDbLine
 10
506.1502761835634
 20
402.4819376411501
 30
0.0
 11
505.4182253759945
 21
403.2139884487189
 31
0.0
  0
LINE
  5
423
330
37C
100
AcDbEntity
  8
0
 62
     0
100
AcDbLine
 10
505.5032285708072
 20
401.36121830094
 30
0.0
 11
504.7711777632382
 21
402.0932691085088
 31
0.0
  0
LINE
  5
424
330
37C
100
AcDbEntity
  8
0
 62
     0
100
AcDbLine
 10
504.8561809580508
 20
400.2404989607299
 30
0.0
 11
504.1241301504819
 21
400.9725497682987
 31
0.0
  0
LINE
  5
425
330
37C
100
AcDbEntity
  8
0
 62
     0
100
AcDbLine
 10
504.2091333452945
 20
399.1197796205199
 30
0.0
 11
503.4770825377257
 21
399.8518304280887
 31
0.0
  0
LINE
  5
426
330
37C
100
AcDbEntity
  8
0
 62
     0
100
AcDbLine
 10
503.5620857325382
 20
397.9990602803098
 30
0.0
 11
502.8300349249692
 21
398.7311110878786
 31
0.0
  0
LINE
  5
427
330
37C
100
AcDbEntity
  8
0
 62
     0
100
AcDbLine
 10
502.9150381197819
 20
396.8783409400997
 30
0.0
 11
502.182987312213
 21
397.6103917476686
 31
0.0
  0
LINE
  5
428
330
37C
100
AcDbEntity
  8
0
 62
     0
100
AcDbLine
 10
502.2679905070257
 20
395.7576215998896
 30
0.0
 11
501.5359396994567
 21
396.4896724074585
 31
0.0
  0
LINE
  5
429
330
37C
100
AcDbEntity
  8
0
 62
     0
100
AcDbLine
 10
501.6209428942693
 20
394.6369022596796
 30
0.0
 11
500.8888920867004
 21
395.3689530672484
 31
0.0
  0
LINE
  5
42A
330
37C
100
AcDbEntity
  8
0
 62
     0
100
AcDbLine
 10
500.9738952815131
 20
393.5161829194695
 30
0.0
 11
500.2418444739441
 21
394.2482337270383
 31
0.0
  0
LINE
  5
42B
330
37C
100
AcDbEntity
  8
0
 62
     0
100
AcDbLine
 10
500.3268476687567
 20
392.3954635792594
 30
0.0
 11
499.5947968611878
 21
393.1275143868283
 31
0.0
  0
LINE
  5
42C
330
37C
100
AcDbEntity
  8
0
 62
     0
100
AcDbLine
 10
499.6788927801583
 20
391.2756515148915
 30
0.0
 11
498.9477492484315
 21
392.0067950466182
 31
0.0
  0
LINE
  5
42D
330
37C
100
AcDbEntity
  8
0
 62
     0
100
AcDbLine
 10
498.9160897203251
 20
390.2706876217584
 30
0.0
 11
498.2085801053137
 21
390.9781972367698
 31
0.0
  0
LINE
  5
42E
330
37C
100
AcDbEntity
  8
0
 62
     0
100
AcDbLine
 10
497.9668242599522
 20
389.4521861291648
 30
0.0
 11
497.2459492397123
 21
390.1730611494047
 31
0.0
  0
LINE
  5
42F
330
37C
100
AcDbEntity
  8
0
 62
     0
100
AcDbLine
 10
496.821763324417
 20
388.8294801117337
 30
0.0
 11
496.0413718925854
 21
389.6098715435652
 31
0.0
  0
LINE
  5
430
330
37C
100
AcDbEntity
  8
0
 62
     0
100
AcDbLine
 10
495.4362423799391
 20
388.4472341032451
 30
0.0
 11
494.5028363890664
 21
389.3806400941178
 31
0.0
  0
LINE
  5
431
330
37C
100
AcDbEntity
  8
0
 62
     0
100
AcDbLine
 10
493.7350694361001
 20
388.3806400941178
 30
0.0
 11
492.7350694361002
 21
389.3806400941178
 31
0.0
  0
LINE
  5
432
330
37C
100
AcDbEntity
  8
0
 62
     0
100
AcDbLine
 10
491.9673024831337
 20
388.3806400941178
 30
0.0
 11
490.9673024831337
 21
389.3806400941178
 31
0.0
  0
LINE
  5
433
330
37C
100
AcDbEntity
  8
0
 62
     0
100
AcDbLine
 10
490.1995355301673
 20
388.3806400941178
 30
0.0
 11
489.1995355301673
 21
389.3806400941178
 31
0.0
  0
LINE
  5
434
330
37C
100
AcDbEntity
  8
0
 62
     0
100
AcDbLine
 10
488.431768577201
 20
388.3806400941178
 30
0.0
 11
487.431768577201
 21
389.3806400941178
 31
0.0
  0
LINE
  5
435
330
37C
100
AcDbEntity
  8
0
 62
     0
100
AcDbLine
 10
486.6640016242346
 20
388.3806400941178
 30
0.0
 11
485.6640016242346
 21
389.3806400941178
 31
0.0
  0
LINE
  5
436
330
37C
100
AcDbEntity
  8
0
 62
     0
100
AcDbLine
 10
569.3366205200148
 20
422.3806400941179
 30
0.0
 11
568.3366205200147
 21
423.3806400941181
 31
0.0
  0
LINE
  5
437
330
37C
100
AcDbEntity
  8
0
 62
     0
100
AcDbLine
 10
571.1043874729812
 20
422.3806400941179
 30
0.0
 11
570.1043874729812
 21
423.3806400941181
 31
0.0
  0
LINE
  5
438
330
37C
100
AcDbEntity
  8
0
 62
     0
100
AcDbLine
 10
572.8721544259476
 20
422.3806400941179
 30
0.0
 11
571.8721544259475
 21
423.3806400941181
 31
0.0
  0
LINE
  5
439
330
37C
100
AcDbEntity
  8
0
 62
     0
100
AcDbLine
 10
574.6399213789139
 20
422.3806400941179
 30
0.0
 11
573.6399213789138
 21
423.3806400941181
 31
0.0
  0
LINE
  5
43A
330
37C
100
AcDbEntity
  8
0
 62
     0
100
AcDbLine
 10
576.4076883318803
 20
422.3806400941179
 30
0.0
 11
575.4076883318803
 21
423.3806400941181
 31
0.0
  0
LINE
  5
43B
330
37C
100
AcDbEntity
  8
0
 62
     0
100
AcDbLine
 10
578.1754552848467
 20
422.3806400941179
 30
0.0
 11
577.1754552848466
 21
423.3806400941181
 31
0.0
  0
LINE
  5
43C
330
37C
100
AcDbEntity
  8
0
 62
     0
100
AcDbLine
 10
579.943222237813
 20
422.3806400941179
 30
0.0
 11
578.9432222378129
 21
423.3806400941181
 31
0.0
  0
LINE
  5
43D
330
37C
100
AcDbEntity
  8
0
 62
     0
100
AcDbLine
 10
581.7109891907794
 20
422.3806400941179
 30
0.0
 11
580.7109891907794
 21
423.3806400941181
 31
0.0
  0
LINE
  5
43E
330
37C
100
AcDbEntity
  8
0
 62
     0
100
AcDbLine
 10
583.4787561437458
 20
422.3806400941179
 30
0.0
 11
582.4787561437457
 21
423.3806400941181
 31
0.0
  0
LINE
  5
43F
330
37C
100
AcDbEntity
  8
0
 62
     0
100
AcDbLine
 10
585.2465230967121
 20
422.380640094118
 30
0.0
 11
584.246523096712
 21
423.3806400941181
 31
0.0
  0
LINE
  5
440
330
37C
100
AcDbEntity
  8
0
 62
     0
100
AcDbLine
 10
587.0142900496785
 20
422.380640094118
 30
0.0
 11
586.0142900496785
 21
423.3806400941181
 31
0.0
  0
LINE
  5
441
330
37C
100
AcDbEntity
  8
0
 62
     0
100
AcDbLine
 10
588.7820570026449
 20
422.380640094118
 30
0.0
 11
587.7820570026448
 21
423.3806400941181
 31
0.0
  0
LINE
  5
442
330
37C
100
AcDbEntity
  8
0
 62
     0
100
AcDbLine
 10
590.5498239556112
 20
422.380640094118
 30
0.0
 11
589.5498239556112
 21
423.3806400941181
 31
0.0
  0
LINE
  5
443
330
37C
100
AcDbEntity
  8
0
 62
     0
100
AcDbLine
 10
592.3175909085776
 20
422.380640094118
 30
0.0
 11
591.3175909085776
 21
423.3806400941181
 31
0.0
  0
LINE
  5
444
330
37C
100
AcDbEntity
  8
0
 62
     0
100
AcDbLine
 10
594.085357861544
 20
422.380640094118
 30
0.0
 11
593.0853578615439
 21
423.3806400941181
 31
0.0
  0
LINE
  5
445
330
37C
100
AcDbEntity
  8
0
 62
     0
100
AcDbLine
 10
595.8531248145103
 20
422.380640094118
 30
0.0
 11
594.8531248145103
 21
423.3806400941181
 31
0.0
  0
LINE
  5
446
330
37C
100
AcDbEntity
  8
0
 62
     0
100
AcDbLine
 10
597.6208917674767
 20
422.380640094118
 30
0.0
 11
596.6208917674767
 21
423.3806400941181
 31
0.0
  0
LINE
  5
447
330
37C
100
AcDbEntity
  8
0
 62
     0
100
AcDbLine
 10
599.3886587204431
 20
422.380640094118
 30
0.0
 11
598.388658720443
 21
423.3806400941181
 31
0.0
  0
LINE
  5
448
330
37C
100
AcDbEntity
  8
0
 62
     0
100
AcDbLine
 10
601.1564256734094
 20
422.380640094118
 30
0.0
 11
600.1564256734094
 21
423.3806400941181
 31
0.0
  0
LINE
  5
449
330
37C
100
AcDbEntity
  8
0
 62
     0
100
AcDbLine
 10
602.9241926263758
 20
422.380640094118
 30
0.0
 11
601.9241926263758
 21
423.3806400941181
 31
0.0
  0
LINE
  5
44A
330
37C
100
AcDbEntity
  8
0
 62
     0
100
AcDbLine
 10
604.6919595793422
 20
422.380640094118
 30
0.0
 11
603.691959579342
 21
423.3806400941181
 31
0.0
  0
LINE
  5
44B
330
37C
100
AcDbEntity
  8
0
 62
     0
100
AcDbLine
 10
606.4597265323085
 20
422.380640094118
 30
0.0
 11
605.4597265323085
 21
423.3806400941181
 31
0.0
  0
LINE
  5
44C
330
37C
100
AcDbEntity
  8
0
 62
     0
100
AcDbLine
 10
608.2274934852749
 20
422.380640094118
 30
0.0
 11
607.2274934852749
 21
423.3806400941181
 31
0.0
  0
LINE
  5
44D
330
37C
100
AcDbEntity
  8
0
 62
     0
100
AcDbLine
 10
609.9952604382413
 20
422.380640094118
 30
0.0
 11
608.9952604382412
 21
423.3806400941181
 31
0.0
  0
LINE
  5
44E
330
37C
100
AcDbEntity
  8
0
 62
     0
100
AcDbLine
 10
611.7630273912076
 20
422.380640094118
 30
0.0
 11
610.7630273912076
 21
423.3806400941181
 31
0.0
  0
LINE
  5
44F
330
37C
100
AcDbEntity
  8
0
 62
     0
100
AcDbLine
 10
613.530794344174
 20
422.380640094118
 30
0.0
 11
612.530794344174
 21
423.3806400941181
 31
0.0
  0
LINE
  5
450
330
37C
100
AcDbEntity
  8
0
 62
     0
100
AcDbLine
 10
615.2985612971404
 20
422.380640094118
 30
0.0
 11
614.2985612971403
 21
423.3806400941181
 31
0.0
  0
LINE
  5
451
330
37C
100
AcDbEntity
  8
0
 62
     0
100
AcDbLine
 10
617.0663282501067
 20
422.380640094118
 30
0.0
 11
616.0663282501067
 21
423.3806400941181
 31
0.0
  0
LINE
  5
452
330
37C
100
AcDbEntity
  8
0
 62
     0
100
AcDbLine
 10
618.8340952030731
 20
422.380640094118
 30
0.0
 11
617.834095203073
 21
423.3806400941181
 31
0.0
  0
LINE
  5
453
330
37C
100
AcDbEntity
  8
0
 62
     0
100
AcDbLine
 10
620.6018621560395
 20
422.380640094118
 30
0.0
 11
619.6018621560394
 21
423.3806400941181
 31
0.0
  0
LINE
  5
454
330
37C
100
AcDbEntity
  8
0
 62
     0
100
AcDbLine
 10
622.3696291090058
 20
422.380640094118
 30
0.0
 11
621.3696291090058
 21
423.3806400941181
 31
0.0
  0
LINE
  5
455
330
37C
100
AcDbEntity
  8
0
 62
     0
100
AcDbLine
 10
624.1373960619722
 20
422.380640094118
 30
0.0
 11
623.1373960619721
 21
423.3806400941181
 31
0.0
  0
LINE
  5
456
330
37C
100
AcDbEntity
  8
0
 62
     0
100
AcDbLine
 10
625.9051630149386
 20
422.380640094118
 30
0.0
 11
624.9051630149385
 21
423.3806400941181
 31
0.0
  0
LINE
  5
457
330
37C
100
AcDbEntity
  8
0
 62
     0
100
AcDbLine
 10
627.6729299679049
 20
422.380640094118
 30
0.0
 11
626.6729299679049
 21
423.3806400941181
 31
0.0
  0
LINE
  5
458
330
37C
100
AcDbEntity
  8
0
 62
     0
100
AcDbLine
 10
629.4406969208713
 20
422.380640094118
 30
0.0
 11
628.4406969208713
 21
423.3806400941181
 31
0.0
  0
LINE
  5
459
330
37C
100
AcDbEntity
  8
0
 62
     0
100
AcDbLine
 10
631.2084638738376
 20
422.380640094118
 30
0.0
 11
630.2084638738376
 21
423.3806400941181
 31
0.0
  0
LINE
  5
45A
330
37C
100
AcDbEntity
  8
0
 62
     0
100
AcDbLine
 10
632.976230826804
 20
422.380640094118
 30
0.0
 11
631.976230826804
 21
423.3806400941181
 31
0.0
  0
LINE
  5
45B
330
37C
100
AcDbEntity
  8
0
 62
     0
100
AcDbLine
 10
634.7439977797704
 20
422.3806400941181
 30
0.0
 11
633.7439977797704
 21
423.3806400941181
 31
0.0
  0
LINE
  5
45C
330
37C
100
AcDbEntity
  8
0
 62
     0
100
AcDbLine
 10
636.5117647327367
 20
422.3806400941181
 30
0.0
 11
635.5117647327367
 21
423.3806400941181
 31
0.0
  0
LINE
  5
45D
330
37C
100
AcDbEntity
  8
0
 62
     0
100
AcDbLine
 10
638.2795316857031
 20
422.3806400941181
 30
0.0
 11
637.2795316857031
 21
423.3806400941181
 31
0.0
  0
LINE
  5
45E
330
37C
100
AcDbEntity
  8
0
 62
     0
100
AcDbLine
 10
640.0472986386695
 20
422.3806400941181
 30
0.0
 11
639.0472986386695
 21
423.3806400941181
 31
0.0
  0
LINE
  5
45F
330
37C
100
AcDbEntity
  8
0
 62
     0
100
AcDbLine
 10
641.8150655916358
 20
422.3806400941181
 30
0.0
 11
640.8150655916358
 21
423.3806400941181
 31
0.0
  0
LINE
  5
460
330
37C
100
AcDbEntity
  8
0
 62
     0
100
AcDbLine
 10
643.5828325446022
 20
422.3806400941181
 30
0.0
 11
642.5828325446023
 21
423.3806400941181
 31
0.0
  0
LINE
  5
461
330
37C
100
AcDbEntity
  8
0
 62
     0
100
AcDbLine
 10
645.3505994975686
 20
422.3806400941181
 30
0.0
 11
644.3505994975686
 21
423.3806400941181
 31
0.0
  0
LINE
  5
462
330
37C
100
AcDbEntity
  8
0
 62
     0
100
AcDbLine
 10
647.1183664505349
 20
422.3806400941181
 30
0.0
 11
646.1183664505349
 21
423.3806400941181
 31
0.0
  0
LINE
  5
463
330
37C
100
AcDbEntity
  8
0
 62
     0
100
AcDbLine
 10
648.8861334035012
 20
422.3806400941181
 30
0.0
 11
647.8861334035014
 21
423.3806400941181
 31
0.0
  0
LINE
  5
464
330
37C
100
AcDbEntity
  8
0
 62
     0
100
AcDbLine
 10
650.6539003564677
 20
422.3806400941181
 30
0.0
 11
649.6539003564677
 21
423.3806400941181
 31
0.0
  0
LINE
  5
465
330
37C
100
AcDbEntity
  8
0
 62
     0
100
AcDbLine
 10
652.421667309434
 20
422.3806400941181
 30
0.0
 11
651.421667309434
 21
423.3806400941181
 31
0.0
  0
LINE
  5
466
330
37C
100
AcDbEntity
  8
0
 62
     0
100
AcDbLine
 10
654.1894342624003
 20
422.3806400941181
 30
0.0
 11
653.1894342624005
 21
423.3806400941181
 31
0.0
  0
LINE
  5
467
330
37C
100
AcDbEntity
  8
0
 62
     0
100
AcDbLine
 10
655.9572012153668
 20
422.3806400941181
 30
0.0
 11
654.9572012153667
 21
423.3806400941181
 31
0.0
  0
LINE
  5
468
330
37C
100
AcDbEntity
  8
0
 62
     0
100
AcDbLine
 10
657.7249681683331
 20
422.3806400941181
 30
0.0
 11
656.7249681683331
 21
423.3806400941181
 31
0.0
  0
LINE
  5
469
330
37C
100
AcDbEntity
  8
0
 62
     0
100
AcDbLine
 10
659.4927351212994
 20
422.3806400941182
 30
0.0
 11
658.4927351212995
 21
423.3806400941181
 31
0.0
  0
LINE
  5
46A
330
37C
100
AcDbEntity
  8
0
 62
     0
100
AcDbLine
 10
661.2605020742659
 20
422.3806400941182
 30
0.0
 11
660.2605020742658
 21
423.3806400941181
 31
0.0
  0
LINE
  5
46B
330
37C
100
AcDbEntity
  8
0
 62
     0
100
AcDbLine
 10
663.0282690272322
 20
422.3806400941182
 30
0.0
 11
662.0282690272323
 21
423.3806400941181
 31
0.0
  0
LINE
  5
46C
330
37C
100
AcDbEntity
  8
0
 62
     0
100
AcDbLine
 10
664.7960359801985
 20
422.3806400941182
 30
0.0
 11
663.7960359801986
 21
423.3806400941181
 31
0.0
  0
LINE
  5
46D
330
37C
100
AcDbEntity
  8
0
 62
     0
100
AcDbLine
 10
666.563802933165
 20
422.3806400941182
 30
0.0
 11
665.5638029331649
 21
423.3806400941181
 31
0.0
  0
LINE
  5
46E
330
37C
100
AcDbEntity
  8
0
 62
     0
100
AcDbLine
 10
668.3315698861313
 20
422.3806400941182
 30
0.0
 11
667.3315698861314
 21
423.3806400941181
 31
0.0
  0
LINE
  5
46F
330
37C
100
AcDbEntity
  8
0
 62
     0
100
AcDbLine
 10
670.0993368390976
 20
422.3806400941182
 30
0.0
 11
669.0993368390977
 21
423.3806400941181
 31
0.0
  0
LINE
  5
470
330
37C
100
AcDbEntity
  8
0
 62
     0
100
AcDbLine
 10
671.8671037920641
 20
422.3806400941182
 30
0.0
 11
670.867103792064
 21
423.3806400941181
 31
0.0
  0
LINE
  5
471
330
37C
100
AcDbEntity
  8
0
 62
     0
100
AcDbLine
 10
673.6348707450304
 20
422.3806400941182
 30
0.0
 11
672.6348707450305
 21
423.3806400941181
 31
0.0
  0
LINE
  5
472
330
37C
100
AcDbEntity
  8
0
 62
     0
100
AcDbLine
 10
675.4026376979967
 20
422.3806400941182
 30
0.0
 11
674.4026376979968
 21
423.3806400941181
 31
0.0
  0
LINE
  5
473
330
37C
100
AcDbEntity
  8
0
 62
     0
100
AcDbLine
 10
677.1704046509632
 20
422.3806400941182
 30
0.0
 11
676.1704046509631
 21
423.3806400941181
 31
0.0
  0
LINE
  5
474
330
37C
100
AcDbEntity
  8
0
 62
     0
100
AcDbLine
 10
678.9381716039295
 20
422.3806400941182
 30
0.0
 11
677.9381716039296
 21
423.3806400941181
 31
0.0
  0
LINE
  5
475
330
37C
100
AcDbEntity
  8
0
 62
     0
100
AcDbLine
 10
680.7059385568958
 20
422.3806400941182
 30
0.0
 11
679.7059385568959
 21
423.3806400941181
 31
0.0
  0
LINE
  5
476
330
37C
100
AcDbEntity
  8
0
 62
     0
100
AcDbLine
 10
682.4737055098623
 20
422.3806400941182
 30
0.0
 11
681.4737055098624
 21
423.3806400941181
 31
0.0
  0
LINE
  5
477
330
37C
100
AcDbEntity
  8
0
 62
     0
100
AcDbLine
 10
684.2414724628286
 20
422.3806400941182
 30
0.0
 11
683.2414724628287
 21
423.3806400941181
 31
0.0
  0
LINE
  5
478
330
37C
100
AcDbEntity
  8
0
 62
     0
100
AcDbLine
 10
685.4785433634641
 20
422.9113361464489
 30
0.0
 11
685.009239415795
 21
423.3806400941181
 31
0.0
  0
ENDBLK
  5
479
330
37C
100
AcDbEntity
  8
0
100
AcDbBlockEnd
  0
BLOCK
  5
47B
330
47A
100
AcDbEntity
  8
0
100
AcDbBlockBegin
  2
*X10
 70
     1
 10
0.0
 20
0.0
 30
0.0
  3
*X10
  1

  0
LINE
  5
47C
330
47A
100
AcDbEntity
  8
0
 62
     0
100
AcDbLine
 10
302.1724872924049
 20
422.3806400941179
 30
0.0
 11
303.1724872924048
 21
423.3806400941179
 31
0.0
  0
LINE
  5
47D
330
47A
100
AcDbEntity
  8
0
 62
     0
100
AcDbLine
 10
300.4047203394386
 20
422.3806400941179
 30
0.0
 11
301.4047203394385
 21
423.3806400941179
 31
0.0
  0
LINE
  5
47E
330
47A
100
AcDbEntity
  8
0
 62
     0
100
AcDbLine
 10
298.6369533864722
 20
422.3806400941179
 30
0.0
 11
299.6369533864721
 21
423.3806400941179
 31
0.0
  0
LINE
  5
47F
330
47A
100
AcDbEntity
  8
0
 62
     0
100
AcDbLine
 10
296.8691864335058
 20
422.3806400941179
 30
0.0
 11
297.8691864335057
 21
423.3806400941179
 31
0.0
  0
LINE
  5
480
330
47A
100
AcDbEntity
  8
0
 62
     0
100
AcDbLine
 10
295.1014194805394
 20
422.3806400941179
 30
0.0
 11
296.1014194805393
 21
423.3806400941179
 31
0.0
  0
LINE
  5
481
330
47A
100
AcDbEntity
  8
0
 62
     0
100
AcDbLine
 10
293.333652527573
 20
422.3806400941179
 30
0.0
 11
294.333652527573
 21
423.3806400941179
 31
0.0
  0
LINE
  5
482
330
47A
100
AcDbEntity
  8
0
 62
     0
100
AcDbLine
 10
291.5658855746067
 20
422.3806400941179
 30
0.0
 11
292.5658855746066
 21
423.3806400941179
 31
0.0
  0
LINE
  5
483
330
47A
100
AcDbEntity
  8
0
 62
     0
100
AcDbLine
 10
289.7981186216403
 20
422.3806400941179
 30
0.0
 11
290.7981186216403
 21
423.3806400941179
 31
0.0
  0
LINE
  5
484
330
47A
100
AcDbEntity
  8
0
 62
     0
100
AcDbLine
 10
288.0303516686739
 20
422.3806400941179
 30
0.0
 11
289.0303516686739
 21
423.3806400941179
 31
0.0
  0
LINE
  5
485
330
47A
100
AcDbEntity
  8
0
 62
     0
100
AcDbLine
 10
286.2625847157076
 20
422.3806400941179
 30
0.0
 11
287.2625847157075
 21
423.3806400941179
 31
0.0
  0
LINE
  5
486
330
47A
100
AcDbEntity
  8
0
 62
     0
100
AcDbLine
 10
284.4948177627412
 20
422.3806400941179
 30
0.0
 11
285.4948177627412
 21
423.3806400941179
 31
0.0
  0
LINE
  5
487
330
47A
100
AcDbEntity
  8
0
 62
     0
100
AcDbLine
 10
282.7270508097748
 20
422.3806400941179
 30
0.0
 11
283.7270508097748
 21
423.3806400941179
 31
0.0
  0
LINE
  5
488
330
47A
100
AcDbEntity
  8
0
 62
     0
100
AcDbLine
 10
280.9592838568084
 20
422.3806400941179
 30
0.0
 11
281.9592838568084
 21
423.3806400941179
 31
0.0
  0
LINE
  5
489
330
47A
100
AcDbEntity
  8
0
 62
     0
100
AcDbLine
 10
279.191516903842
 20
422.3806400941179
 30
0.0
 11
280.191516903842
 21
423.3806400941179
 31
0.0
  0
LINE
  5
48A
330
47A
100
AcDbEntity
  8
0
 62
     0
100
AcDbLine
 10
277.4237499508757
 20
422.3806400941179
 30
0.0
 11
278.4237499508757
 21
423.3806400941179
 31
0.0
  0
LINE
  5
48B
330
47A
100
AcDbEntity
  8
0
 62
     0
100
AcDbLine
 10
275.6559829979094
 20
422.3806400941179
 30
0.0
 11
276.6559829979093
 21
423.3806400941179
 31
0.0
  0
LINE
  5
48C
330
47A
100
AcDbEntity
  8
0
 62
     0
100
AcDbLine
 10
273.888216044943
 20
422.3806400941179
 30
0.0
 11
274.8882160449429
 21
423.3806400941179
 31
0.0
  0
LINE
  5
48D
330
47A
100
AcDbEntity
  8
0
 62
     0
100
AcDbLine
 10
272.1204490919766
 20
422.3806400941179
 30
0.0
 11
273.1204490919765
 21
423.3806400941179
 31
0.0
  0
LINE
  5
48E
330
47A
100
AcDbEntity
  8
0
 62
     0
100
AcDbLine
 10
270.3526821390102
 20
422.3806400941179
 30
0.0
 11
271.3526821390102
 21
423.3806400941179
 31
0.0
  0
LINE
  5
48F
330
47A
100
AcDbEntity
  8
0
 62
     0
100
AcDbLine
 10
268.5849151860439
 20
422.3806400941179
 30
0.0
 11
269.5849151860438
 21
423.3806400941179
 31
0.0
  0
LINE
  5
490
330
47A
100
AcDbEntity
  8
0
 62
     0
100
AcDbLine
 10
266.8171482330775
 20
422.3806400941179
 30
0.0
 11
267.8171482330774
 21
423.3806400941179
 31
0.0
  0
LINE
  5
491
330
47A
100
AcDbEntity
  8
0
 62
     0
100
AcDbLine
 10
265.0493812801111
 20
422.3806400941179
 30
0.0
 11
266.0493812801111
 21
423.3806400941179
 31
0.0
  0
LINE
  5
492
330
47A
100
AcDbEntity
  8
0
 62
     0
100
AcDbLine
 10
263.2816143271447
 20
422.3806400941179
 30
0.0
 11
264.2816143271446
 21
423.3806400941179
 31
0.0
  0
LINE
  5
493
330
47A
100
AcDbEntity
  8
0
 62
     0
100
AcDbLine
 10
261.5138473741784
 20
422.3806400941179
 30
0.0
 11
262.5138473741783
 21
423.3806400941179
 31
0.0
  0
LINE
  5
494
330
47A
100
AcDbEntity
  8
0
 62
     0
100
AcDbLine
 10
259.746080421212
 20
422.3806400941179
 30
0.0
 11
260.746080421212
 21
423.3806400941179
 31
0.0
  0
LINE
  5
495
330
47A
100
AcDbEntity
  8
0
 62
     0
100
AcDbLine
 10
257.9783134682456
 20
422.3806400941179
 30
0.0
 11
258.9783134682456
 21
423.3806400941179
 31
0.0
  0
LINE
  5
496
330
47A
100
AcDbEntity
  8
0
 62
     0
100
AcDbLine
 10
256.2105465152793
 20
422.3806400941178
 30
0.0
 11
257.2105465152792
 21
423.3806400941179
 31
0.0
  0
LINE
  5
497
330
47A
100
AcDbEntity
  8
0
 62
     0
100
AcDbLine
 10
254.4427795623129
 20
422.3806400941178
 30
0.0
 11
255.4427795623128
 21
423.3806400941179
 31
0.0
  0
LINE
  5
498
330
47A
100
AcDbEntity
  8
0
 62
     0
100
AcDbLine
 10
252.6750126093465
 20
422.3806400941178
 30
0.0
 11
253.6750126093465
 21
423.3806400941179
 31
0.0
  0
LINE
  5
499
330
47A
100
AcDbEntity
  8
0
 62
     0
100
AcDbLine
 10
250.9072456563802
 20
422.3806400941178
 30
0.0
 11
251.9072456563801
 21
423.3806400941179
 31
0.0
  0
LINE
  5
49A
330
47A
100
AcDbEntity
  8
0
 62
     0
100
AcDbLine
 10
249.1394787034138
 20
422.3806400941178
 30
0.0
 11
250.1394787034137
 21
423.3806400941179
 31
0.0
  0
LINE
  5
49B
330
47A
100
AcDbEntity
  8
0
 62
     0
100
AcDbLine
 10
247.3717117504474
 20
422.3806400941178
 30
0.0
 11
248.3717117504474
 21
423.3806400941179
 31
0.0
  0
LINE
  5
49C
330
47A
100
AcDbEntity
  8
0
 62
     0
100
AcDbLine
 10
245.6039447974811
 20
422.3806400941178
 30
0.0
 11
246.603944797481
 21
423.3806400941179
 31
0.0
  0
LINE
  5
49D
330
47A
100
AcDbEntity
  8
0
 62
     0
100
AcDbLine
 10
243.8361778445147
 20
422.3806400941178
 30
0.0
 11
244.8361778445146
 21
423.3806400941179
 31
0.0
  0
LINE
  5
49E
330
47A
100
AcDbEntity
  8
0
 62
     0
100
AcDbLine
 10
242.0684108915483
 20
422.3806400941178
 30
0.0
 11
243.0684108915483
 21
423.3806400941179
 31
0.0
  0
LINE
  5
49F
330
47A
100
AcDbEntity
  8
0
 62
     0
100
AcDbLine
 10
240.3006439385819
 20
422.3806400941178
 30
0.0
 11
241.3006439385819
 21
423.3806400941179
 31
0.0
  0
LINE
  5
4A0
330
47A
100
AcDbEntity
  8
0
 62
     0
100
AcDbLine
 10
238.5328769856156
 20
422.3806400941178
 30
0.0
 11
239.5328769856155
 21
423.3806400941179
 31
0.0
  0
LINE
  5
4A1
330
47A
100
AcDbEntity
  8
0
 62
     0
100
AcDbLine
 10
236.7651100326492
 20
422.3806400941178
 30
0.0
 11
237.7651100326492
 21
423.3806400941178
 31
0.0
  0
LINE
  5
4A2
330
47A
100
AcDbEntity
  8
0
 62
     0
100
AcDbLine
 10
234.9973430796829
 20
422.3806400941178
 30
0.0
 11
235.9973430796828
 21
423.3806400941178
 31
0.0
  0
LINE
  5
4A3
330
47A
100
AcDbEntity
  8
0
 62
     0
100
AcDbLine
 10
233.2295761267165
 20
422.3806400941178
 30
0.0
 11
234.2295761267164
 21
423.3806400941178
 31
0.0
  0
LINE
  5
4A4
330
47A
100
AcDbEntity
  8
0
 62
     0
100
AcDbLine
 10
231.4618091737501
 20
422.3806400941178
 30
0.0
 11
232.4618091737501
 21
423.3806400941178
 31
0.0
  0
LINE
  5
4A5
330
47A
100
AcDbEntity
  8
0
 62
     0
100
AcDbLine
 10
229.6940422207837
 20
422.3806400941178
 30
0.0
 11
230.6940422207837
 21
423.3806400941178
 31
0.0
  0
LINE
  5
4A6
330
47A
100
AcDbEntity
  8
0
 62
     0
100
AcDbLine
 10
227.9262752678174
 20
422.3806400941178
 30
0.0
 11
228.9262752678173
 21
423.3806400941178
 31
0.0
  0
LINE
  5
4A7
330
47A
100
AcDbEntity
  8
0
 62
     0
100
AcDbLine
 10
226.158508314851
 20
422.3806400941178
 30
0.0
 11
227.1585083148509
 21
423.3806400941178
 31
0.0
  0
LINE
  5
4A8
330
47A
100
AcDbEntity
  8
0
 62
     0
100
AcDbLine
 10
224.3907413618846
 20
422.3806400941178
 30
0.0
 11
225.3907413618846
 21
423.3806400941178
 31
0.0
  0
LINE
  5
4A9
330
47A
100
AcDbEntity
  8
0
 62
     0
100
AcDbLine
 10
222.6229744089183
 20
422.3806400941178
 30
0.0
 11
223.6229744089182
 21
423.3806400941178
 31
0.0
  0
LINE
  5
4AA
330
47A
100
AcDbEntity
  8
0
 62
     0
100
AcDbLine
 10
220.8552074559519
 20
422.3806400941178
 30
0.0
 11
221.8552074559518
 21
423.3806400941178
 31
0.0
  0
LINE
  5
4AB
330
47A
100
AcDbEntity
  8
0
 62
     0
100
AcDbLine
 10
219.0874405029855
 20
422.3806400941178
 30
0.0
 11
220.0874405029855
 21
423.3806400941178
 31
0.0
  0
LINE
  5
4AC
330
47A
100
AcDbEntity
  8
0
 62
     0
100
AcDbLine
 10
217.3196735500191
 20
422.3806400941178
 30
0.0
 11
218.3196735500191
 21
423.3806400941178
 31
0.0
  0
LINE
  5
4AD
330
47A
100
AcDbEntity
  8
0
 62
     0
100
AcDbLine
 10
215.5519065970528
 20
422.3806400941178
 30
0.0
 11
216.5519065970527
 21
423.3806400941178
 31
0.0
  0
LINE
  5
4AE
330
47A
100
AcDbEntity
  8
0
 62
     0
100
AcDbLine
 10
213.7841396440864
 20
422.3806400941178
 30
0.0
 11
214.7841396440863
 21
423.3806400941178
 31
0.0
  0
LINE
  5
4AF
330
47A
100
AcDbEntity
  8
0
 62
     0
100
AcDbLine
 10
212.01637269112
 20
422.3806400941178
 30
0.0
 11
213.01637269112
 21
423.3806400941178
 31
0.0
  0
LINE
  5
4B0
330
47A
100
AcDbEntity
  8
0
 62
     0
100
AcDbLine
 10
210.2486057381537
 20
422.3806400941178
 30
0.0
 11
211.2486057381536
 21
423.3806400941178
 31
0.0
  0
LINE
  5
4B1
330
47A
100
AcDbEntity
  8
0
 62
     0
100
AcDbLine
 10
208.4808387851873
 20
422.3806400941178
 30
0.0
 11
209.4808387851872
 21
423.3806400941178
 31
0.0
  0
LINE
  5
4B2
330
47A
100
AcDbEntity
  8
0
 62
     0
100
AcDbLine
 10
206.7130718322209
 20
422.3806400941178
 30
0.0
 11
207.7130718322209
 21
423.3806400941178
 31
0.0
  0
LINE
  5
4B3
330
47A
100
AcDbEntity
  8
0
 62
     0
100
AcDbLine
 10
204.9453048792545
 20
422.3806400941178
 30
0.0
 11
205.9453048792545
 21
423.3806400941178
 31
0.0
  0
LINE
  5
4B4
330
47A
100
AcDbEntity
  8
0
 62
     0
100
AcDbLine
 10
203.1775379262882
 20
422.3806400941178
 30
0.0
 11
204.1775379262881
 21
423.3806400941178
 31
0.0
  0
LINE
  5
4B5
330
47A
100
AcDbEntity
  8
0
 62
     0
100
AcDbLine
 10
201.4097709733218
 20
422.3806400941178
 30
0.0
 11
202.4097709733217
 21
423.3806400941178
 31
0.0
  0
LINE
  5
4B6
330
47A
100
AcDbEntity
  8
0
 62
     0
100
AcDbLine
 10
199.6420040203554
 20
422.3806400941178
 30
0.0
 11
200.6420040203554
 21
423.3806400941178
 31
0.0
  0
LINE
  5
4B7
330
47A
100
AcDbEntity
  8
0
 62
     0
100
AcDbLine
 10
197.874237067389
 20
422.3806400941178
 30
0.0
 11
198.874237067389
 21
423.3806400941178
 31
0.0
  0
LINE
  5
4B8
330
47A
100
AcDbEntity
  8
0
 62
     0
100
AcDbLine
 10
196.1064701144227
 20
422.3806400941178
 30
0.0
 11
197.1064701144226
 21
423.3806400941178
 31
0.0
  0
LINE
  5
4B9
330
47A
100
AcDbEntity
  8
0
 62
     0
100
AcDbLine
 10
194.3387031614563
 20
422.3806400941178
 30
0.0
 11
195.3387031614562
 21
423.3806400941178
 31
0.0
  0
LINE
  5
4BA
330
47A
100
AcDbEntity
  8
0
 62
     0
100
AcDbLine
 10
192.57093620849
 20
422.3806400941178
 30
0.0
 11
193.5709362084899
 21
423.3806400941178
 31
0.0
  0
LINE
  5
4BB
330
47A
100
AcDbEntity
  8
0
 62
     0
100
AcDbLine
 10
190.8031692555235
 20
422.3806400941178
 30
0.0
 11
191.8031692555235
 21
423.3806400941178
 31
0.0
  0
LINE
  5
4BC
330
47A
100
AcDbEntity
  8
0
 62
     0
100
AcDbLine
 10
189.0354023025572
 20
422.3806400941178
 30
0.0
 11
190.0354023025571
 21
423.3806400941178
 31
0.0
  0
LINE
  5
4BD
330
47A
100
AcDbEntity
  8
0
 62
     0
100
AcDbLine
 10
187.2676353495908
 20
422.3806400941178
 30
0.0
 11
188.2676353495908
 21
423.3806400941178
 31
0.0
  0
LINE
  5
4BE
330
47A
100
AcDbEntity
  8
0
 62
     0
100
AcDbLine
 10
185.4998683966244
 20
422.3806400941178
 30
0.0
 11
186.4998683966244
 21
423.3806400941178
 31
0.0
  0
LINE
  5
4BF
330
47A
100
AcDbEntity
  8
0
 62
     0
100
AcDbLine
 10
303.9402542453712
 20
422.3806400941179
 30
0.0
 11
304.9402542453712
 21
423.3806400941179
 31
0.0
  0
LINE
  5
4C0
330
47A
100
AcDbEntity
  8
0
 62
     0
100
AcDbLine
 10
305.7080211983376
 20
422.3806400941179
 30
0.0
 11
306.7080211983376
 21
423.3806400941179
 31
0.0
  0
LINE
  5
4C1
330
47A
100
AcDbEntity
  8
0
 62
     0
100
AcDbLine
 10
307.475788151304
 20
422.3806400941179
 30
0.0
 11
308.475788151304
 21
423.3806400941179
 31
0.0
  0
LINE
  5
4C2
330
47A
100
AcDbEntity
  8
0
 62
     0
100
AcDbLine
 10
309.2435551042703
 20
422.3806400941179
 30
0.0
 11
310.2435551042703
 21
423.3806400941179
 31
0.0
  0
LINE
  5
4C3
330
47A
100
AcDbEntity
  8
0
 62
     0
100
AcDbLine
 10
311.0113220572367
 20
422.3806400941179
 30
0.0
 11
312.0113220572367
 21
423.3806400941179
 31
0.0
  0
LINE
  5
4C4
330
47A
100
AcDbEntity
  8
0
 62
     0
100
AcDbLine
 10
312.7790890102031
 20
422.3806400941179
 30
0.0
 11
313.7790890102031
 21
423.3806400941179
 31
0.0
  0
LINE
  5
4C5
330
47A
100
AcDbEntity
  8
0
 62
     0
100
AcDbLine
 10
314.5468559631695
 20
422.3806400941179
 30
0.0
 11
315.5468559631694
 21
423.3806400941179
 31
0.0
  0
LINE
  5
4C6
330
47A
100
AcDbEntity
  8
0
 62
     0
100
AcDbLine
 10
316.3146229161358
 20
422.3806400941179
 30
0.0
 11
317.3146229161358
 21
423.3806400941179
 31
0.0
  0
LINE
  5
4C7
330
47A
100
AcDbEntity
  8
0
 62
     0
100
AcDbLine
 10
318.0823898691022
 20
422.3806400941179
 30
0.0
 11
319.0823898691022
 21
423.3806400941179
 31
0.0
  0
LINE
  5
4C8
330
47A
100
AcDbEntity
  8
0
 62
     0
100
AcDbLine
 10
319.8501568220686
 20
422.3806400941179
 30
0.0
 11
320.8501568220685
 21
423.3806400941179
 31
0.0
  0
LINE
  5
4C9
330
47A
100
AcDbEntity
  8
0
 62
     0
100
AcDbLine
 10
321.6179237750349
 20
422.3806400941179
 30
0.0
 11
322.6179237750349
 21
423.3806400941179
 31
0.0
  0
LINE
  5
4CA
330
47A
100
AcDbEntity
  8
0
 62
     0
100
AcDbLine
 10
323.3856907280014
 20
422.3806400941179
 30
0.0
 11
324.3856907280013
 21
423.3806400941179
 31
0.0
  0
LINE
  5
4CB
330
47A
100
AcDbEntity
  8
0
 62
     0
100
AcDbLine
 10
325.1534576809677
 20
422.3806400941179
 30
0.0
 11
326.1534576809676
 21
423.3806400941179
 31
0.0
  0
LINE
  5
4CC
330
47A
100
AcDbEntity
  8
0
 62
     0
100
AcDbLine
 10
326.921224633934
 20
422.3806400941179
 30
0.0
 11
327.921224633934
 21
423.3806400941179
 31
0.0
  0
LINE
  5
4CD
330
47A
100
AcDbEntity
  8
0
 62
     0
100
AcDbLine
 10
328.6889915869005
 20
422.3806400941179
 30
0.0
 11
329.6889915869004
 21
423.3806400941179
 31
0.0
  0
LINE
  5
4CE
330
47A
100
AcDbEntity
  8
0
 62
     0
100
AcDbLine
 10
330.4567585398668
 20
422.3806400941179
 30
0.0
 11
331.4567585398668
 21
423.3806400941179
 31
0.0
  0
LINE
  5
4CF
330
47A
100
AcDbEntity
  8
0
 62
     0
100
AcDbLine
 10
332.2245254928331
 20
422.3806400941179
 30
0.0
 11
333.2245254928332
 21
423.3806400941179
 31
0.0
  0
LINE
  5
4D0
330
47A
100
AcDbEntity
  8
0
 62
     0
100
AcDbLine
 10
333.9922924457995
 20
422.3806400941179
 30
0.0
 11
334.9922924457995
 21
423.3806400941179
 31
0.0
  0
LINE
  5
4D1
330
47A
100
AcDbEntity
  8
0
 62
     0
100
AcDbLine
 10
335.7600593987659
 20
422.3806400941179
 30
0.0
 11
336.7600593987658
 21
423.3806400941179
 31
0.0
  0
LINE
  5
4D2
330
47A
100
AcDbEntity
  8
0
 62
     0
100
AcDbLine
 10
337.5278263517323
 20
422.3806400941179
 30
0.0
 11
338.5278263517323
 21
423.3806400941179
 31
0.0
  0
LINE
  5
4D3
330
47A
100
AcDbEntity
  8
0
 62
     0
100
AcDbLine
 10
339.2955933046986
 20
422.3806400941179
 30
0.0
 11
340.2955933046986
 21
423.3806400941179
 31
0.0
  0
LINE
  5
4D4
330
47A
100
AcDbEntity
  8
0
 62
     0
100
AcDbLine
 10
341.063360257665
 20
422.3806400941179
 30
0.0
 11
342.0633602576649
 21
423.3806400941179
 31
0.0
  0
LINE
  5
4D5
330
47A
100
AcDbEntity
  8
0
 62
     0
100
AcDbLine
 10
342.8311272106314
 20
422.380640094118
 30
0.0
 11
343.8311272106314
 21
423.3806400941179
 31
0.0
  0
LINE
  5
4D6
330
47A
100
AcDbEntity
  8
0
 62
     0
100
AcDbLine
 10
344.5988941635978
 20
422.380640094118
 30
0.0
 11
345.5988941635977
 21
423.3806400941179
 31
0.0
  0
LINE
  5
4D7
330
47A
100
AcDbEntity
  8
0
 62
     0
100
AcDbLine
 10
346.3666611165641
 20
422.380640094118
 30
0.0
 11
347.3666611165641
 21
423.3806400941179
 31
0.0
  0
LINE
  5
4D8
330
47A
100
AcDbEntity
  8
0
 62
     0
100
AcDbLine
 10
348.1344280695305
 20
422.380640094118
 30
0.0
 11
349.1344280695305
 21
423.3806400941179
 31
0.0
  0
LINE
  5
4D9
330
47A
100
AcDbEntity
  8
0
 62
     0
100
AcDbLine
 10
349.9021950224969
 20
422.380640094118
 30
0.0
 11
350.9021950224968
 21
423.3806400941179
 31
0.0
  0
LINE
  5
4DA
330
47A
100
AcDbEntity
  8
0
 62
     0
100
AcDbLine
 10
351.6699619754632
 20
422.380640094118
 30
0.0
 11
352.6699619754632
 21
423.3806400941179
 31
0.0
  0
LINE
  5
4DB
330
47A
100
AcDbEntity
  8
0
 62
     0
100
AcDbLine
 10
353.4377289284297
 20
422.380640094118
 30
0.0
 11
354.4377289284296
 21
423.3806400941179
 31
0.0
  0
LINE
  5
4DC
330
47A
100
AcDbEntity
  8
0
 62
     0
100
AcDbLine
 10
355.205495881396
 20
422.380640094118
 30
0.0
 11
356.2054958813959
 21
423.3806400941179
 31
0.0
  0
LINE
  5
4DD
330
47A
100
AcDbEntity
  8
0
 62
     0
100
AcDbLine
 10
356.9732628343623
 20
422.380640094118
 30
0.0
 11
357.9446012313331
 21
423.3519784910887
 31
0.0
  0
LINE
  5
4DE
330
47A
100
AcDbEntity
  8
0
 62
     0
100
AcDbLine
 10
358.6189815445966
 20
422.2585918513859
 30
0.0
 11
359.4596734193807
 21
423.0992837261699
 31
0.0
  0
LINE
  5
4DF
330
47A
100
AcDbEntity
  8
0
 62
     0
100
AcDbLine
 10
360.0093355397425
 20
421.8811788935654
 30
0.0
 11
360.7784231675475
 21
422.6502665213703
 31
0.0
  0
LINE
  5
4E0
330
47A
100
AcDbEntity
  8
0
 62
     0
100
AcDbLine
 10
361.2128581292591
 20
421.3169345301156
 30
0.0
 11
361.942362200907
 21
422.0464386017635
 31
0.0
  0
LINE
  5
4E1
330
47A
100
AcDbEntity
  8
0
 62
     0
100
AcDbLine
 10
362.2614849807433
 20
420.5977944286334
 30
0.0
 11
362.9720506941755
 21
421.3083601420656
 31
0.0
  0
LINE
  5
4E2
330
47A
100
AcDbEntity
  8
0
 62
     0
100
AcDbLine
 10
363.1687835133693
 20
419.737326008293
 30
0.0
 11
363.8767325982116
 21
420.4452750931353
 31
0.0
  0
LINE
  5
4E3
330
47A
100
AcDbEntity
  8
0
 62
     0
100
AcDbLine
 10
363.9365482235561
 20
418.7373237655134
 30
0.0
 11
364.6576551567426
 21
419.4584306987
 31
0.0
  0
LINE
  5
4E4
330
47A
100
AcDbEntity
  8
0
 62
     0
100
AcDbLine
 10
364.5555607547802
 20
417.5885693437712
 30
0.0
 11
365.3084729624398
 21
418.3414815514309
 31
0.0
  0
LINE
  5
4E5
330
47A
100
AcDbEntity
  8
0
 62
     0
100
AcDbLine
 10
365.001411968351
 20
416.2666536043757
 30
0.0
 11
365.8130852867685
 21
417.0783269227931
 31
0.0
  0
LINE
  5
4E6
330
47A
100
AcDbEntity
  8
0
 62
     0
100
AcDbLine
 10
365.219818751951
 20
414.7172934350093
 30
0.0
 11
366.1388745339601
 21
415.6363492170183
 31
0.0
  0
LINE
  5
4E7
330
47A
100
AcDbEntity
  8
0
 62
     0
100
AcDbLine
 10
365.0691767774376
 20
412.7988845075296
 30
0.0
 11
366.2164098013539
 21
413.9461175314458
 31
0.0
  0
LINE
  5
4E8
330
47A
100
AcDbEntity
  8
0
 62
     0
100
AcDbLine
 10
364.6426491109735
 20
410.604589888099
 30
0.0
 11
365.9071622634073
 21
411.8691030405329
 31
0.0
  0
LINE
  5
4E9
330
47A
100
AcDbEntity
  8
0
 62
     0
100
AcDbLine
 10
364.2161214445094
 20
408.4102952686685
 30
0.0
 11
365.4806345969433
 21
409.6748084211025
 31
0.0
  0
LINE
  5
4EA
330
47A
100
AcDbEntity
  8
0
 62
     0
100
AcDbLine
 10
363.9785433634645
 20
406.4049502346573
 30
0.0
 11
365.0541069304793
 21
407.4805138016721
 31
0.0
  0
LINE
  5
4EB
330
47A
100
AcDbEntity
  8
0
 62
     0
100
AcDbLine
 10
363.9785433634645
 20
404.6371832816909
 30
0.0
 11
364.9785433634645
 21
405.637183281691
 31
0.0
  0
LINE
  5
4EC
330
47A
100
AcDbEntity
  8
0
 62
     0
100
AcDbLine
 10
364.3618166713234
 20
403.2526896365835
 30
0.0
 11
365.0938674788923
 21
403.9847404441523
 31
0.0
  0
LINE
  5
4ED
330
47A
100
AcDbEntity
  8
0
 62
     0
100
AcDbLine
 10
365.0088642840797
 20
402.1319702963734
 30
0.0
 11
365.7409150916486
 21
402.8640211039423
 31
0.0
  0
LINE
  5
4EE
330
47A
100
AcDbEntity
  8
0
 62
     0
100
AcDbLine
 10
365.655911896836
 20
401.0112509561634
 30
0.0
 11
366.3879627044049
 21
401.7433017637323
 31
0.0
  0
LINE
  5
4EF
330
47A
100
AcDbEntity
  8
0
 62
     0
100
AcDbLine
 10
366.3029595095923
 20
399.8905316159533
 30
0.0
 11
367.0350103171612
 21
400.6225824235221
 31
0.0
  0
LINE
  5
4F0
330
47A
100
AcDbEntity
  8
0
 62
     0
100
AcDbLine
 10
366.9500071223486
 20
398.7698122757432
 30
0.0
 11
367.6820579299175
 21
399.5018630833121
 31
0.0
  0
LINE
  5
4F1
330
47A
100
AcDbEntity
  8
0
 62
     0
100
AcDbLine
 10
367.5970547351049
 20
397.6490929355331
 30
0.0
 11
368.3291055426737
 21
398.381143743102
 31
0.0
  0
LINE
  5
4F2
330
47A
100
AcDbEntity
  8
0
 62
     0
100
AcDbLine
 10
368.2441023478612
 20
396.5283735953231
 30
0.0
 11
368.97615315543
 21
397.2604244028919
 31
0.0
  0
LINE
  5
4F3
330
47A
100
AcDbEntity
  8
0
 62
     0
100
AcDbLine
 10
368.8911499606175
 20
395.407654255113
 30
0.0
 11
369.6232007681863
 21
396.1397050626819
 31
0.0
  0
LINE
  5
4F4
330
47A
100
AcDbEntity
  8
0
 62
     0
100
AcDbLine
 10
369.5381975733738
 20
394.2869349149029
 30
0.0
 11
370.2702483809426
 21
395.0189857224718
 31
0.0
  0
LINE
  5
4F5
330
47A
100
AcDbEntity
  8
0
 62
     0
100
AcDbLine
 10
370.1852451861301
 20
393.1662155746928
 30
0.0
 11
370.9172959936989
 21
393.8982663822617
 31
0.0
  0
LINE
  5
4F6
330
47A
100
AcDbEntity
  8
0
 62
     0
100
AcDbLine
 10
370.8322927988864
 20
392.0454962344828
 30
0.0
 11
371.5643436064552
 21
392.7775470420516
 31
0.0
  0
LINE
  5
4F7
330
47A
100
AcDbEntity
  8
0
 62
     0
100
AcDbLine
 10
371.4958879847785
 20
390.9413244674086
 30
0.0
 11
372.2162171097987
 21
391.6616535924288
 31
0.0
  0
LINE
  5
4F8
330
47A
100
AcDbEntity
  8
0
 62
     0
100
AcDbLine
 10
372.3174846629581
 20
389.9951541926217
 30
0.0
 11
373.0250898345315
 21
390.7027593641952
 31
0.0
  0
LINE
  5
4F9
330
47A
100
AcDbEntity
  8
0
 62
     0
100
AcDbLine
 10
373.3256095688679
 20
389.2355121455652
 30
0.0
 11
374.0591071150174
 21
389.9690096917147
 31
0.0
  0
LINE
  5
4FA
330
47A
100
AcDbEntity
  8
0
 62
     0
100
AcDbLine
 10
374.5385777524556
 20
388.6807133761866
 30
0.0
 11
375.3521818029199
 21
389.4943174266509
 31
0.0
  0
LINE
  5
4FB
330
47A
100
AcDbEntity
  8
0
 62
     0
100
AcDbLine
 10
376.0191648844916
 20
388.3935335552562
 30
0.0
 11
377.0062714233533
 21
389.3806400941178
 31
0.0
  0
LINE
  5
4FC
330
47A
100
AcDbEntity
  8
0
 62
     0
100
AcDbLine
 10
377.7740383763196
 20
388.3806400941179
 30
0.0
 11
378.7740383763197
 21
389.3806400941178
 31
0.0
  0
LINE
  5
4FD
330
47A
100
AcDbEntity
  8
0
 62
     0
100
AcDbLine
 10
379.541805329286
 20
388.3806400941179
 30
0.0
 11
380.541805329286
 21
389.3806400941178
 31
0.0
  0
LINE
  5
4FE
330
47A
100
AcDbEntity
  8
0
 62
     0
100
AcDbLine
 10
381.3095722822524
 20
388.3806400941179
 30
0.0
 11
382.3095722822523
 21
389.3806400941178
 31
0.0
  0
LINE
  5
4FF
330
47A
100
AcDbEntity
  8
0
 62
     0
100
AcDbLine
 10
383.0773392352187
 20
388.3806400941179
 30
0.0
 11
384.0773392352188
 21
389.3806400941178
 31
0.0
  0
LINE
  5
500
330
47A
100
AcDbEntity
  8
0
 62
     0
100
AcDbLine
 10
384.8451061881851
 20
388.3806400941179
 30
0.0
 11
385.4785433634643
 21
389.014077269397
 31
0.0
  0
LINE
  5
501
330
47A
100
AcDbEntity
  8
0
 62
     0
100
AcDbLine
 10
268.8162385157322
 20
422.3806400941179
 30
0.0
 11
267.8162385157322
 21
423.3806400941178
 31
0.0
  0
LINE
  5
502
330
47A
100
AcDbEntity
  8
0
 62
     0
100
AcDbLine
 10
267.0484715627658
 20
422.3806400941179
 30
0.0
 11
266.0484715627659
 21
423.3806400941178
 31
0.0
  0
LINE
  5
503
330
47A
100
AcDbEntity
  8
0
 62
     0
100
AcDbLine
 10
265.2807046097994
 20
422.3806400941179
 30
0.0
 11
264.2807046097995
 21
423.3806400941178
 31
0.0
  0
LINE
  5
504
330
47A
100
AcDbEntity
  8
0
 62
     0
100
AcDbLine
 10
263.5129376568331
 20
422.3806400941179
 30
0.0
 11
262.5129376568331
 21
423.3806400941178
 31
0.0
  0
LINE
  5
505
330
47A
100
AcDbEntity
  8
0
 62
     0
100
AcDbLine
 10
261.7451707038668
 20
422.3806400941179
 30
0.0
 11
260.7451707038668
 21
423.3806400941178
 31
0.0
  0
LINE
  5
506
330
47A
100
AcDbEntity
  8
0
 62
     0
100
AcDbLine
 10
259.9774037509003
 20
422.3806400941179
 30
0.0
 11
258.9774037509004
 21
423.3806400941178
 31
0.0
  0
LINE
  5
507
330
47A
100
AcDbEntity
  8
0
 62
     0
100
AcDbLine
 10
258.209636797934
 20
422.3806400941179
 30
0.0
 11
257.209636797934
 21
423.3806400941178
 31
0.0
  0
LINE
  5
508
330
47A
100
AcDbEntity
  8
0
 62
     0
100
AcDbLine
 10
256.4418698449677
 20
422.3806400941179
 30
0.0
 11
255.4418698449678
 21
423.3806400941178
 31
0.0
  0
LINE
  5
509
330
47A
100
AcDbEntity
  8
0
 62
     0
100
AcDbLine
 10
254.6741028920013
 20
422.3806400941179
 30
0.0
 11
253.6741028920014
 21
423.3806400941178
 31
0.0
  0
LINE
  5
50A
330
47A
100
AcDbEntity
  8
0
 62
     0
100
AcDbLine
 10
252.906335939035
 20
422.3806400941179
 30
0.0
 11
251.906335939035
 21
423.3806400941178
 31
0.0
  0
LINE
  5
50B
330
47A
100
AcDbEntity
  8
0
 62
     0
100
AcDbLine
 10
251.1385689860686
 20
422.3806400941179
 30
0.0
 11
250.1385689860686
 21
423.3806400941178
 31
0.0
  0
LINE
  5
50C
330
47A
100
AcDbEntity
  8
0
 62
     0
100
AcDbLine
 10
249.3708020331022
 20
422.3806400941179
 30
0.0
 11
248.3708020331023
 21
423.3806400941178
 31
0.0
  0
LINE
  5
50D
330
47A
100
AcDbEntity
  8
0
 62
     0
100
AcDbLine
 10
247.6030350801358
 20
422.3806400941179
 30
0.0
 11
246.6030350801359
 21
423.3806400941178
 31
0.0
  0
LINE
  5
50E
330
47A
100
AcDbEntity
  8
0
 62
     0
100
AcDbLine
 10
245.8352681271695
 20
422.3806400941179
 30
0.0
 11
244.8352681271695
 21
423.3806400941178
 31
0.0
  0
LINE
  5
50F
330
47A
100
AcDbEntity
  8
0
 62
     0
100
AcDbLine
 10
244.0675011742031
 20
422.3806400941179
 30
0.0
 11
243.0675011742032
 21
423.3806400941178
 31
0.0
  0
LINE
  5
510
330
47A
100
AcDbEntity
  8
0
 62
     0
100
AcDbLine
 10
242.2997342212367
 20
422.3806400941179
 30
0.0
 11
241.2997342212368
 21
423.3806400941178
 31
0.0
  0
LINE
  5
511
330
47A
100
AcDbEntity
  8
0
 62
     0
100
AcDbLine
 10
240.5319672682704
 20
422.3806400941179
 30
0.0
 11
239.5319672682704
 21
423.3806400941178
 31
0.0
  0
LINE
  5
512
330
47A
100
AcDbEntity
  8
0
 62
     0
100
AcDbLine
 10
238.764200315304
 20
422.3806400941179
 30
0.0
 11
237.7642003153041
 21
423.3806400941178
 31
0.0
  0
LINE
  5
513
330
47A
100
AcDbEntity
  8
0
 62
     0
100
AcDbLine
 10
236.9964333623376
 20
422.3806400941179
 30
0.0
 11
235.9964333623377
 21
423.3806400941178
 31
0.0
  0
LINE
  5
514
330
47A
100
AcDbEntity
  8
0
 62
     0
100
AcDbLine
 10
235.2286664093713
 20
422.3806400941179
 30
0.0
 11
234.2286664093713
 21
423.3806400941178
 31
0.0
  0
LINE
  5
515
330
47A
100
AcDbEntity
  8
0
 62
     0
100
AcDbLine
 10
233.4608994564049
 20
422.3806400941179
 30
0.0
 11
232.460899456405
 21
423.3806400941178
 31
0.0
  0
LINE
  5
516
330
47A
100
AcDbEntity
  8
0
 62
     0
100
AcDbLine
 10
231.6931325034385
 20
422.3806400941178
 30
0.0
 11
230.6931325034386
 21
423.3806400941178
 31
0.0
  0
LINE
  5
517
330
47A
100
AcDbEntity
  8
0
 62
     0
100
AcDbLine
 10
229.9253655504722
 20
422.3806400941178
 30
0.0
 11
228.9253655504722
 21
423.3806400941178
 31
0.0
  0
LINE
  5
518
330
47A
100
AcDbEntity
  8
0
 62
     0
100
AcDbLine
 10
228.1575985975058
 20
422.3806400941178
 30
0.0
 11
227.1575985975058
 21
423.3806400941178
 31
0.0
  0
LINE
  5
519
330
47A
100
AcDbEntity
  8
0
 62
     0
100
AcDbLine
 10
226.3898316445394
 20
422.3806400941178
 30
0.0
 11
225.3898316445395
 21
423.3806400941178
 31
0.0
  0
LINE
  5
51A
330
47A
100
AcDbEntity
  8
0
 62
     0
100
AcDbLine
 10
224.622064691573
 20
422.3806400941178
 30
0.0
 11
223.6220646915731
 21
423.3806400941178
 31
0.0
  0
LINE
  5
51B
330
47A
100
AcDbEntity
  8
0
 62
     0
100
AcDbLine
 10
222.8542977386067
 20
422.3806400941178
 30
0.0
 11
221.8542977386068
 21
423.3806400941178
 31
0.0
  0
LINE
  5
51C
330
47A
100
AcDbEntity
  8
0
 62
     0
100
AcDbLine
 10
221.0865307856403
 20
422.3806400941178
 30
0.0
 11
220.0865307856404
 21
423.3806400941178
 31
0.0
  0
LINE
  5
51D
330
47A
100
AcDbEntity
  8
0
 62
     0
100
AcDbLine
 10
219.318763832674
 20
422.3806400941178
 30
0.0
 11
218.318763832674
 21
423.3806400941178
 31
0.0
  0
LINE
  5
51E
330
47A
100
AcDbEntity
  8
0
 62
     0
100
AcDbLine
 10
217.5509968797076
 20
422.3806400941178
 30
0.0
 11
216.5509968797076
 21
423.3806400941178
 31
0.0
  0
LINE
  5
51F
330
47A
100
AcDbEntity
  8
0
 62
     0
100
AcDbLine
 10
215.7832299267412
 20
422.3806400941178
 30
0.0
 11
214.7832299267413
 21
423.3806400941178
 31
0.0
  0
LINE
  5
520
330
47A
100
AcDbEntity
  8
0
 62
     0
100
AcDbLine
 10
214.0154629737748
 20
422.3806400941178
 30
0.0
 11
213.0154629737749
 21
423.3806400941178
 31
0.0
  0
LINE
  5
521
330
47A
100
AcDbEntity
  8
0
 62
     0
100
AcDbLine
 10
212.2476960208085
 20
422.3806400941178
 30
0.0
 11
211.2476960208085
 21
423.3806400941178
 31
0.0
  0
LINE
  5
522
330
47A
100
AcDbEntity
  8
0
 62
     0
100
AcDbLine
 10
210.4799290678421
 20
422.3806400941178
 30
0.0
 11
209.4799290678422
 21
423.3806400941178
 31
0.0
  0
LINE
  5
523
330
47A
100
AcDbEntity
  8
0
 62
     0
100
AcDbLine
 10
208.7121621148757
 20
422.3806400941178
 30
0.0
 11
207.7121621148758
 21
423.3806400941178
 31
0.0
  0
LINE
  5
524
330
47A
100
AcDbEntity
  8
0
 62
     0
100
AcDbLine
 10
206.9443951619094
 20
422.3806400941178
 30
0.0
 11
205.9443951619094
 21
423.3806400941178
 31
0.0
  0
LINE
  5
525
330
47A
100
AcDbEntity
  8
0
 62
     0
100
AcDbLine
 10
205.176628208943
 20
422.3806400941178
 30
0.0
 11
204.1766282089431
 21
423.3806400941177
 31
0.0
  0
LINE
  5
526
330
47A
100
AcDbEntity
  8
0
 62
     0
100
AcDbLine
 10
203.4088612559767
 20
422.3806400941178
 30
0.0
 11
202.4088612559767
 21
423.3806400941177
 31
0.0
  0
LINE
  5
527
330
47A
100
AcDbEntity
  8
0
 62
     0
100
AcDbLine
 10
201.6410943030103
 20
422.3806400941178
 30
0.0
 11
200.6410943030104
 21
423.3806400941177
 31
0.0
  0
LINE
  5
528
330
47A
100
AcDbEntity
  8
0
 62
     0
100
AcDbLine
 10
199.8733273500439
 20
422.3806400941178
 30
0.0
 11
198.873327350044
 21
423.3806400941177
 31
0.0
  0
LINE
  5
529
330
47A
100
AcDbEntity
  8
0
 62
     0
100
AcDbLine
 10
198.1055603970775
 20
422.3806400941178
 30
0.0
 11
197.1055603970776
 21
423.3806400941177
 31
0.0
  0
LINE
  5
52A
330
47A
100
AcDbEntity
  8
0
 62
     0
100
AcDbLine
 10
196.3377934441112
 20
422.3806400941178
 30
0.0
 11
195.3377934441112
 21
423.3806400941177
 31
0.0
  0
LINE
  5
52B
330
47A
100
AcDbEntity
  8
0
 62
     0
100
AcDbLine
 10
194.5700264911448
 20
422.3806400941178
 30
0.0
 11
193.5700264911448
 21
423.3806400941177
 31
0.0
  0
LINE
  5
52C
330
47A
100
AcDbEntity
  8
0
 62
     0
100
AcDbLine
 10
192.8022595381784
 20
422.3806400941178
 30
0.0
 11
191.8022595381785
 21
423.3806400941177
 31
0.0
  0
LINE
  5
52D
330
47A
100
AcDbEntity
  8
0
 62
     0
100
AcDbLine
 10
191.034492585212
 20
422.3806400941178
 30
0.0
 11
190.0344925852121
 21
423.3806400941177
 31
0.0
  0
LINE
  5
52E
330
47A
100
AcDbEntity
  8
0
 62
     0
100
AcDbLine
 10
189.2667256322457
 20
422.3806400941178
 30
0.0
 11
188.2667256322458
 21
423.3806400941177
 31
0.0
  0
LINE
  5
52F
330
47A
100
AcDbEntity
  8
0
 62
     0
100
AcDbLine
 10
187.4989586792793
 20
422.3806400941178
 30
0.0
 11
186.4989586792794
 21
423.3806400941177
 31
0.0
  0
LINE
  5
530
330
47A
100
AcDbEntity
  8
0
 62
     0
100
AcDbLine
 10
185.731191726313
 20
422.3806400941178
 30
0.0
 11
185.4785433634642
 21
422.6332884569665
 31
0.0
  0
LINE
  5
531
330
47A
100
AcDbEntity
  8
0
 62
     0
100
AcDbLine
 10
270.5840054686985
 20
422.3806400941179
 30
0.0
 11
269.5840054686986
 21
423.3806400941178
 31
0.0
  0
LINE
  5
532
330
47A
100
AcDbEntity
  8
0
 62
     0
100
AcDbLine
 10
272.3517724216649
 20
422.3806400941179
 30
0.0
 11
271.351772421665
 21
423.3806400941178
 31
0.0
  0
LINE
  5
533
330
47A
100
AcDbEntity
  8
0
 62
     0
100
AcDbLine
 10
274.1195393746313
 20
422.3806400941179
 30
0.0
 11
273.1195393746314
 21
423.3806400941178
 31
0.0
  0
LINE
  5
534
330
47A
100
AcDbEntity
  8
0
 62
     0
100
AcDbLine
 10
275.8873063275976
 20
422.3806400941179
 30
0.0
 11
274.8873063275977
 21
423.3806400941178
 31
0.0
  0
LINE
  5
535
330
47A
100
AcDbEntity
  8
0
 62
     0
100
AcDbLine
 10
277.655073280564
 20
422.3806400941179
 30
0.0
 11
276.6550732805641
 21
423.3806400941178
 31
0.0
  0
LINE
  5
536
330
47A
100
AcDbEntity
  8
0
 62
     0
100
AcDbLine
 10
279.4228402335304
 20
422.3806400941179
 30
0.0
 11
278.4228402335305
 21
423.3806400941178
 31
0.0
  0
LINE
  5
537
330
47A
100
AcDbEntity
  8
0
 62
     0
100
AcDbLine
 10
281.1906071864968
 20
422.3806400941179
 30
0.0
 11
280.1906071864968
 21
423.3806400941178
 31
0.0
  0
LINE
  5
538
330
47A
100
AcDbEntity
  8
0
 62
     0
100
AcDbLine
 10
282.9583741394631
 20
422.3806400941179
 30
0.0
 11
281.9583741394632
 21
423.3806400941178
 31
0.0
  0
LINE
  5
539
330
47A
100
AcDbEntity
  8
0
 62
     0
100
AcDbLine
 10
284.7261410924295
 20
422.3806400941179
 30
0.0
 11
283.7261410924295
 21
423.3806400941178
 31
0.0
  0
LINE
  5
53A
330
47A
100
AcDbEntity
  8
0
 62
     0
100
AcDbLine
 10
286.4939080453959
 20
422.3806400941179
 30
0.0
 11
285.4939080453959
 21
423.3806400941178
 31
0.0
  0
LINE
  5
53B
330
47A
100
AcDbEntity
  8
0
 62
     0
100
AcDbLine
 10
288.2616749983622
 20
422.3806400941179
 30
0.0
 11
287.2616749983623
 21
423.3806400941178
 31
0.0
  0
LINE
  5
53C
330
47A
100
AcDbEntity
  8
0
 62
     0
100
AcDbLine
 10
290.0294419513286
 20
422.3806400941179
 30
0.0
 11
289.0294419513286
 21
423.3806400941178
 31
0.0
  0
LINE
  5
53D
330
47A
100
AcDbEntity
  8
0
 62
     0
100
AcDbLine
 10
291.797208904295
 20
422.3806400941179
 30
0.0
 11
290.797208904295
 21
423.3806400941179
 31
0.0
  0
LINE
  5
53E
330
47A
100
AcDbEntity
  8
0
 62
     0
100
AcDbLine
 10
293.5649758572613
 20
422.3806400941179
 30
0.0
 11
292.5649758572614
 21
423.3806400941179
 31
0.0
  0
LINE
  5
53F
330
47A
100
AcDbEntity
  8
0
 62
     0
100
AcDbLine
 10
295.3327428102276
 20
422.3806400941179
 30
0.0
 11
294.3327428102277
 21
423.3806400941179
 31
0.0
  0
LINE
  5
540
330
47A
100
AcDbEntity
  8
0
 62
     0
100
AcDbLine
 10
297.1005097631941
 20
422.3806400941179
 30
0.0
 11
296.1005097631941
 21
423.3806400941179
 31
0.0
  0
LINE
  5
541
330
47A
100
AcDbEntity
  8
0
 62
     0
100
AcDbLine
 10
298.8682767161604
 20
422.3806400941179
 30
0.0
 11
297.8682767161605
 21
423.3806400941179
 31
0.0
  0
LINE
  5
542
330
47A
100
AcDbEntity
  8
0
 62
     0
100
AcDbLine
 10
300.6360436691268
 20
422.3806400941179
 30
0.0
 11
299.6360436691269
 21
423.3806400941179
 31
0.0
  0
LINE
  5
543
330
47A
100
AcDbEntity
  8
0
 62
     0
100
AcDbLine
 10
302.4038106220932
 20
422.3806400941179
 30
0.0
 11
301.4038106220932
 21
423.3806400941179
 31
0.0
  0
LINE
  5
544
330
47A
100
AcDbEntity
  8
0
 62
     0
100
AcDbLine
 10
304.1715775750595
 20
422.3806400941179
 30
0.0
 11
303.1715775750596
 21
423.3806400941179
 31
0.0
  0
LINE
  5
545
330
47A
100
AcDbEntity
  8
0
 62
     0
100
AcDbLine
 10
305.9393445280259
 20
422.3806400941179
 30
0.0
 11
304.939344528026
 21
423.3806400941179
 31
0.0
  0
LINE
  5
546
330
47A
100
AcDbEntity
  8
0
 62
     0
100
AcDbLine
 10
307.7071114809923
 20
422.3806400941179
 30
0.0
 11
306.7071114809924
 21
423.3806400941179
 31
0.0
  0
LINE
  5
547
330
47A
100
AcDbEntity
  8
0
 62
     0
100
AcDbLine
 10
309.4748784339586
 20
422.3806400941179
 30
0.0
 11
308.4748784339587
 21
423.3806400941179
 31
0.0
  0
LINE
  5
548
330
47A
100
AcDbEntity
  8
0
 62
     0
100
AcDbLine
 10
311.242645386925
 20
422.3806400941179
 30
0.0
 11
310.242645386925
 21
423.3806400941179
 31
0.0
  0
LINE
  5
549
330
47A
100
AcDbEntity
  8
0
 62
     0
100
AcDbLine
 10
313.0104123398914
 20
422.3806400941179
 30
0.0
 11
312.0104123398915
 21
423.3806400941179
 31
0.0
  0
LINE
  5
54A
330
47A
100
AcDbEntity
  8
0
 62
     0
100
AcDbLine
 10
314.7781792928578
 20
422.3806400941179
 30
0.0
 11
313.7781792928578
 21
423.3806400941179
 31
0.0
  0
LINE
  5
54B
330
47A
100
AcDbEntity
  8
0
 62
     0
100
AcDbLine
 10
316.5459462458241
 20
422.3806400941179
 30
0.0
 11
315.5459462458241
 21
423.3806400941179
 31
0.0
  0
LINE
  5
54C
330
47A
100
AcDbEntity
  8
0
 62
     0
100
AcDbLine
 10
318.3137131987905
 20
422.3806400941179
 30
0.0
 11
317.3137131987906
 21
423.3806400941179
 31
0.0
  0
LINE
  5
54D
330
47A
100
AcDbEntity
  8
0
 62
     0
100
AcDbLine
 10
320.0814801517569
 20
422.380640094118
 30
0.0
 11
319.0814801517569
 21
423.3806400941179
 31
0.0
  0
LINE
  5
54E
330
47A
100
AcDbEntity
  8
0
 62
     0
100
AcDbLine
 10
321.8492471047232
 20
422.380640094118
 30
0.0
 11
320.8492471047232
 21
423.3806400941179
 31
0.0
  0
LINE
  5
54F
330
47A
100
AcDbEntity
  8
0
 62
     0
100
AcDbLine
 10
323.6170140576896
 20
422.380640094118
 30
0.0
 11
322.6170140576896
 21
423.3806400941179
 31
0.0
  0
LINE
  5
550
330
47A
100
AcDbEntity
  8
0
 62
     0
100
AcDbLine
 10
325.3847810106559
 20
422.380640094118
 30
0.0
 11
324.384781010656
 21
423.3806400941179
 31
0.0
  0
LINE
  5
551
330
47A
100
AcDbEntity
  8
0
 62
     0
100
AcDbLine
 10
327.1525479636224
 20
422.380640094118
 30
0.0
 11
326.1525479636224
 21
423.3806400941179
 31
0.0
  0
LINE
  5
552
330
47A
100
AcDbEntity
  8
0
 62
     0
100
AcDbLine
 10
328.9203149165887
 20
422.380640094118
 30
0.0
 11
327.9203149165887
 21
423.3806400941179
 31
0.0
  0
LINE
  5
553
330
47A
100
AcDbEntity
  8
0
 62
     0
100
AcDbLine
 10
330.688081869555
 20
422.380640094118
 30
0.0
 11
329.6880818695551
 21
423.3806400941179
 31
0.0
  0
LINE
  5
554
330
47A
100
AcDbEntity
  8
0
 62
     0
100
AcDbLine
 10
332.4558488225215
 20
422.380640094118
 30
0.0
 11
331.4558488225215
 21
423.3806400941179
 31
0.0
  0
LINE
  5
555
330
47A
100
AcDbEntity
  8
0
 62
     0
100
AcDbLine
 10
334.2236157754878
 20
422.380640094118
 30
0.0
 11
333.2236157754879
 21
423.3806400941179
 31
0.0
  0
LINE
  5
556
330
47A
100
AcDbEntity
  8
0
 62
     0
100
AcDbLine
 10
335.9913827284541
 20
422.380640094118
 30
0.0
 11
334.9913827284542
 21
423.3806400941179
 31
0.0
  0
LINE
  5
557
330
47A
100
AcDbEntity
  8
0
 62
     0
100
AcDbLine
 10
337.7591496814205
 20
422.380640094118
 30
0.0
 11
336.7591496814206
 21
423.3806400941179
 31
0.0
  0
LINE
  5
558
330
47A
100
AcDbEntity
  8
0
 62
     0
100
AcDbLine
 10
339.5269166343869
 20
422.380640094118
 30
0.0
 11
338.526916634387
 21
423.3806400941179
 31
0.0
  0
LINE
  5
559
330
47A
100
AcDbEntity
  8
0
 62
     0
100
AcDbLine
 10
375.1632285826186
 20
388.5120950988527
 30
0.0
 11
369.7428402091808
 21
393.9324834722905
 31
0.0
  0
LINE
  5
55A
330
47A
100
AcDbEntity
  8
0
 62
     0
100
AcDbLine
 10
341.2946835873533
 20
422.380640094118
 30
0.0
 11
340.2946835873533
 21
423.3806400941179
 31
0.0
  0
LINE
  5
55B
330
47A
100
AcDbEntity
  8
0
 62
     0
100
AcDbLine
 10
377.0624505403198
 20
388.3806400941179
 30
0.0
 11
376.0492527876446
 21
389.393837846793
 31
0.0
  0
LINE
  5
55C
330
47A
100
AcDbEntity
  8
0
 62
     0
100
AcDbLine
 10
343.0624505403196
 20
422.380640094118
 30
0.0
 11
342.0624505403197
 21
423.3806400941179
 31
0.0
  0
LINE
  5
55D
330
47A
100
AcDbEntity
  8
0
 62
     0
100
AcDbLine
 10
370.0600764510267
 20
395.3830141834109
 30
0.0
 11
367.3280256434582
 21
398.1150649909794
 31
0.0
  0
LINE
  5
55E
330
47A
100
AcDbEntity
  8
0
 62
     0
100
AcDbLine
 10
378.8302174932861
 20
388.3806400941179
 30
0.0
 11
377.8302174932861
 21
389.3806400941178
 31
0.0
  0
LINE
  5
55F
330
47A
100
AcDbEntity
  8
0
 62
     0
100
AcDbLine
 10
344.830217493286
 20
422.380640094118
 30
0.0
 11
343.8302174932861
 21
423.3806400941179
 31
0.0
  0
LINE
  5
560
330
47A
100
AcDbEntity
  8
0
 62
     0
100
AcDbLine
 10
367.6452618853042
 20
399.5655957020998
 30
0.0
 11
364.9132110777356
 21
402.2976465096683
 31
0.0
  0
LINE
  5
561
330
47A
100
AcDbEntity
  8
0
 62
     0
100
AcDbLine
 10
380.5979844462525
 20
388.3806400941179
 30
0.0
 11
379.5979844462525
 21
389.3806400941178
 31
0.0
  0
LINE
  5
562
330
47A
100
AcDbEntity
  8
0
 62
     0
100
AcDbLine
 10
346.5979844462524
 20
422.380640094118
 30
0.0
 11
345.5979844462524
 21
423.3806400941179
 31
0.0
  0
LINE
  5
563
330
47A
100
AcDbEntity
  8
0
 62
     0
100
AcDbLine
 10
365.2304473195818
 20
403.7481772207885
 30
0.0
 11
363.9785433634645
 21
405.0000811769058
 31
0.0
  0
LINE
  5
564
330
47A
100
AcDbEntity
  8
0
 62
     0
100
AcDbLine
 10
382.3657513992189
 20
388.3806400941179
 30
0.0
 11
381.3657513992188
 21
389.3806400941178
 31
0.0
  0
LINE
  5
565
330
47A
100
AcDbEntity
  8
0
 62
     0
100
AcDbLine
 10
348.3657513992187
 20
422.380640094118
 30
0.0
 11
347.3657513992188
 21
423.3806400941179
 31
0.0
  0
LINE
  5
566
330
47A
100
AcDbEntity
  8
0
 62
     0
100
AcDbLine
 10
364.9785433634645
 20
405.7678481298721
 30
0.0
 11
363.9785433634645
 21
406.7678481298722
 31
0.0
  0
LINE
  5
567
330
47A
100
AcDbEntity
  8
0
 62
     0
100
AcDbLine
 10
384.1335183521853
 20
388.3806400941179
 30
0.0
 11
383.1335183521852
 21
389.3806400941178
 31
0.0
  0
LINE
  5
568
330
47A
100
AcDbEntity
  8
0
 62
     0
100
AcDbLine
 10
350.1335183521851
 20
422.380640094118
 30
0.0
 11
349.1335183521851
 21
423.3806400941179
 31
0.0
  0
LINE
  5
569
330
47A
100
AcDbEntity
  8
0
 62
     0
100
AcDbLine
 10
365.0507767805944
 20
407.4633816657085
 30
0.0
 11
364.1978518896185
 21
408.3163065566846
 31
0.0
  0
LINE
  5
56A
330
47A
100
AcDbEntity
  8
0
 62
     0
100
AcDbLine
 10
385.4785433634643
 20
388.8033820358052
 30
0.0
 11
384.9012853051516
 21
389.3806400941178
 31
0.0
  0
LINE
  5
56B
330
47A
100
AcDbEntity
  8
0
 62
     0
100
AcDbLine
 10
351.9012853051515
 20
422.380640094118
 30
0.0
 11
350.9012853051515
 21
423.3806400941179
 31
0.0
  0
LINE
  5
56C
330
47A
100
AcDbEntity
  8
0
 62
     0
100
AcDbLine
 10
365.3384733242934
 20
408.943452074976
 30
0.0
 11
364.4855484333174
 21
409.796376965952
 31
0.0
  0
LINE
  5
56D
330
47A
100
AcDbEntity
  8
0
 62
     0
100
AcDbLine
 10
365.6261698679923
 20
410.4235224842434
 30
0.0
 11
364.7732449770164
 21
411.2764473752194
 31
0.0
  0
LINE
  5
56E
330
47A
100
AcDbEntity
  8
0
 62
     0
100
AcDbLine
 10
353.6690522581178
 20
422.380640094118
 30
0.0
 11
352.6690522581179
 21
423.3806400941179
 31
0.0
  0
LINE
  5
56F
330
47A
100
AcDbEntity
  8
0
 62
     0
100
AcDbLine
 10
365.9138664116913
 20
411.9035928935108
 30
0.0
 11
365.0609415207154
 21
412.7565177844868
 31
0.0
  0
LINE
  5
570
330
47A
100
AcDbEntity
  8
0
 62
     0
100
AcDbLine
 10
355.4368192110842
 20
422.380640094118
 30
0.0
 11
354.4368192110842
 21
423.3806400941179
 31
0.0
  0
LINE
  5
571
330
47A
100
AcDbEntity
  8
0
 62
     0
100
AcDbLine
 10
366.1744907873885
 20
413.4107354707801
 30
0.0
 11
365.2268743100446
 21
414.3583519481238
 31
0.0
  0
LINE
  5
572
330
47A
100
AcDbEntity
  8
0
 62
     0
100
AcDbLine
 10
357.2045861640506
 20
422.380640094118
 30
0.0
 11
356.2045861640506
 21
423.3806400941179
 31
0.0
  0
LINE
  5
573
330
47A
100
AcDbEntity
  8
0
 62
     0
100
AcDbLine
 10
366.193107219781
 20
415.1598859913539
 30
0.0
 11
364.9730526298595
 21
416.3799405812754
 31
0.0
  0
LINE
  5
574
330
47A
100
AcDbEntity
  8
0
 62
     0
100
AcDbLine
 10
359.2262058448548
 20
422.1267873662801
 30
0.0
 11
358.0061512549331
 21
423.3468419562018
 31
0.0
  0
LINE
  5
575
330
47A
100
AcDbEntity
  8
0
 62
     0
100
AcDbLine
 10
365.6967159401387
 20
417.4240442239625
 30
0.0
 11
360.2703094875417
 21
422.8504506765595
 31
0.0
  0
ENDBLK
  5
576
330
47A
100
AcDbEntity
  8
0
100
AcDbBlockEnd
  0
BLOCK
  5
702
330
6F7
100
AcDbEntity
  8
0
100
AcDbBlockBegin
  2
*D11
 70
     1
 10
0.0
 20
0.0
 30
0.0
  3
*D11
  1

  0
LINE
  5
7BB
330
6F7
100
AcDbEntity
  8
BEM
 62
     0
370
    -2
100
AcDbLine
 10
306.4785433634642
 20
422.3806400941178
 30
0.0
 11
285.8504677245666
 21
422.3806400941178
 31
0.0
  0
LINE
  5
7BC
330
6F7
100
AcDbEntity
  8
BEM
 62
     0
370
    -2
100
AcDbLine
 10
386.785717848061
 20
322.3806400941177
 30
0.0
 11
285.8504677245666
 21
322.3806400941178
 31
0.0
  0
LINE
  5
7BD
330
6F7
100
AcDbEntity
  8
BEM
 62
     0
370
    -2
100
AcDbLine
 10
287.8504677245666
 20
415.3806400941178
 30
0.0
 11
287.8504677245666
 21
329.3806400941178
 31
0.0
  0
SOLID
  5
7BE
330
6F7
100
AcDbEntity
  8
BEM
 62
     0
100
AcDbTrace
 10
286.6838010578999
 20
415.3806400941178
 30
0.0
 11
289.0171343912333
 21
415.3806400941178
 31
0.0
 12
287.8504677245666
 22
422.3806400941178
 32
0.0
 13
287.8504677245666
 23
422.3806400941178
 33
0.0
  0
SOLID
  5
7BF
330
6F7
100
AcDbEntity
  8
BEM
 62
     0
100
AcDbTrace
 10
286.6838010578998
 20
329.3806400941178
 30
0.0
 11
289.0171343912332
 21
329.3806400941178
 31
0.0
 12
287.8504677245666
 22
322.3806400941178
 32
0.0
 13
287.8504677245666
 23
322.3806400941178
 33
0.0
  0
MTEXT
  5
7C0
330
6F7
100
AcDbEntity
  8
BEM
 62
     1
100
AcDbMText
 10
281.3504677245665
 20
372.3806400941179
 30
0.0
 40
7.0
 41
0.0
 71
     5
 72
     1
  1
\A1;100
 11
0.0000000000000001
 21
1.0
 31
0.0
 73
     1
 44
1.0
  0
POINT
  5
7C1
330
6F7
100
AcDbEntity
  8
DEFPOINTS
 62
     0
100
AcDbPoint
 10
308.4785433634642
 20
422.3806400941178
 30
0.0
  0
POINT
  5
7C2
330
6F7
100
AcDbEntity
  8
DEFPOINTS
 62
     0
100
AcDbPoint
 10
388.7857178480611
 20
322.3806400941177
 30
0.0
  0
POINT
  5
7C3
330
6F7
100
AcDbEntity
  8
DEFPOINTS
 62
     0
100
AcDbPoint
 10
287.8504677245666
 20
322.3806400941178
 30
0.0
  0
ENDBLK
  5
703
330
6F7
100
AcDbEntity
  8
0
100
AcDbBlockEnd
  0
BLOCK
  5
70F
330
704
100
AcDbEntity
  8
0
100
AcDbBlockBegin
  2
*D12
 70
     1
 10
0.0
 20
0.0
 30
0.0
  3
*D12
  1

  0
LINE
  5
7B2
330
704
100
AcDbEntity
  8
BEM
 62
     0
370
    -2
100
AcDbLine
 10
397.8534299987236
 20
172.3806400941179
 30
0.0
 11
272.2732614357437
 21
172.3806400941179
 31
0.0
  0
LINE
  5
7B3
330
704
100
AcDbEntity
  8
BEM
 62
     0
370
    -2
100
AcDbLine
 10
306.4785433634642
 20
422.3806400941178
 30
0.0
 11
272.2732614357437
 21
422.3806400941178
 31
0.0
  0
LINE
  5
7B4
330
704
100
AcDbEntity
  8
BEM
 62
     0
370
    -2
100
AcDbLine
 10
274.2732614357437
 20
179.3806400941179
 30
0.0
 11
274.2732614357437
 21
415.3806400941178
 31
0.0
  0
SOLID
  5
7B5
330
704
100
AcDbEntity
  8
BEM
 62
     0
100
AcDbTrace
 10
273.106594769077
 20
179.3806400941179
 30
0.0
 11
275.4399281024104
 21
179.3806400941179
 31
0.0
 12
274.2732614357437
 22
172.3806400941179
 32
0.0
 13
274.2732614357437
 23
172.3806400941179
 33
0.0
  0
SOLID
  5
7B6
330
704
100
AcDbEntity
  8
BEM
 62
     0
100
AcDbTrace
 10
273.106594769077
 20
415.3806400941178
 30
0.0
 11
275.4399281024104
 21
415.3806400941178
 31
0.0
 12
274.2732614357437
 22
422.3806400941178
 32
0.0
 13
274.2732614357437
 23
422.3806400941178
 33
0.0
  0
MTEXT
  5
7B7
330
704
100
AcDbEntity
  8
BEM
 62
     1
100
AcDbMText
 10
267.7732614357436
 20
297.380640094118
 30
0.0
 40
7.0
 41
0.0
 71
     5
 72
     1
  1
\A1;250
 11
0.0000000000000001
 21
1.0
 31
0.0
 73
     1
 44
1.0
  0
POINT
  5
7B8
330
704
100
AcDbEntity
  8
DEFPOINTS
 62
     0
100
AcDbPoint
 10
399.8534299987237
 20
172.3806400941179
 30
0.0
  0
POINT
  5
7B9
330
704
100
AcDbEntity
  8
DEFPOINTS
 62
     0
100
AcDbPoint
 10
308.4785433634642
 20
422.3806400941178
 30
0.0
  0
POINT
  5
7BA
330
704
100
AcDbEntity
  8
DEFPOINTS
 62
     0
100
AcDbPoint
 10
274.2732614357437
 20
422.3806400941178
 30
0.0
  0
ENDBLK
  5
710
330
704
100
AcDbEntity
  8
0
100
AcDbBlockEnd
  0
BLOCK
  5
71C
330
711
100
AcDbEntity
  8
0
100
AcDbBlockBegin
  2
*D13
 70
     1
 10
0.0
 20
0.0
 30
0.0
  3
*D13
  1

  0
LINE
  5
7A9
330
711
100
AcDbEntity
  8
BEM
 62
     0
370
    -2
100
AcDbLine
 10
398.9785433634643
 20
180.380640094118
 30
0.0
 11
398.9785433634643
 21
149.4228894653308
 31
0.0
  0
LINE
  5
7AA
330
711
100
AcDbEntity
  8
BEM
 62
     0
370
    -2
100
AcDbLine
 10
471.9785433634642
 20
180.3806400941179
 30
0.0
 11
471.9785433634642
 21
149.4228894653308
 31
0.0
  0
LINE
  5
7AB
330
711
100
AcDbEntity
  8
BEM
 62
     0
370
    -2
100
AcDbLine
 10
405.9785433634642
 20
151.4228894653308
 30
0.0
 11
464.9785433634642
 21
151.4228894653308
 31
0.0
  0
SOLID
  5
7AC
330
711
100
AcDbEntity
  8
BEM
 62
     0
100
AcDbTrace
 10
405.9785433634642
 20
152.5895561319975
 30
0.0
 11
405.9785433634642
 21
150.2562227986642
 31
0.0
 12
398.9785433634643
 22
151.4228894653308
 32
0.0
 13
398.9785433634643
 23
151.4228894653308
 33
0.0
  0
SOLID
  5
7AD
330
711
100
AcDbEntity
  8
BEM
 62
     0
100
AcDbTrace
 10
464.9785433634642
 20
152.5895561319975
 30
0.0
 11
464.9785433634642
 21
150.2562227986642
 31
0.0
 12
471.9785433634642
 22
151.4228894653308
 32
0.0
 13
471.9785433634642
 23
151.4228894653308
 33
0.0
  0
MTEXT
  5
7AE
330
711
100
AcDbEntity
  8
BEM
 62
     1
100
AcDbMText
 10
435.4785433634642
 20
157.9228894653308
 30
0.0
 40
7.0
 41
0.0
 71
     5
 72
     1
  1
\A1;%%C73
 73
     1
 44
1.0
  0
POINT
  5
7AF
330
711
100
AcDbEntity
  8
DEFPOINTS
 62
     0
100
AcDbPoint
 10
398.9785433634643
 20
182.380640094118
 30
0.0
  0
POINT
  5
7B0
330
711
100
AcDbEntity
  8
DEFPOINTS
 62
     0
100
AcDbPoint
 10
471.9785433634642
 20
182.3806400941179
 30
0.0
  0
POINT
  5
7B1
330
711
100
AcDbEntity
  8
DEFPOINTS
 62
     0
100
AcDbPoint
 10
471.9785433634642
 20
151.4228894653308
 30
0.0
  0
ENDBLK
  5
71D
330
711
100
AcDbEntity
  8
0
100
AcDbBlockEnd
  0
BLOCK
  5
729
330
71E
100
AcDbEntity
  8
0
100
AcDbBlockBegin
  2
*D14
 70
     1
 10
0.0
 20
0.0
 30
0.0
  3
*D14
  1

  0
LINE
  5
7A0
330
71E
100
AcDbEntity
  8
BEM
 62
     0
370
    -2
100
AcDbLine
 10
297.9785433634642
 20
422.3806400941178
 30
0.0
 11
297.9785433634642
 21
437.3722233438871
 31
0.0
  0
LINE
  5
7A1
330
71E
100
AcDbEntity
  8
BEM
 62
     0
370
    -2
100
AcDbLine
 10
572.9785433634642
 20
422.3806400941178
 30
0.0
 11
572.9785433634642
 21
437.3722233438871
 31
0.0
  0
LINE
  5
7A2
330
71E
100
AcDbEntity
  8
BEM
 62
     0
370
    -2
100
AcDbLine
 10
304.9785433634643
 20
435.3722233438871
 30
0.0
 11
565.9785433634643
 21
435.3722233438871
 31
0.0
  0
SOLID
  5
7A3
330
71E
100
AcDbEntity
  8
BEM
 62
     0
100
AcDbTrace
 10
304.9785433634643
 20
436.5388900105537
 30
0.0
 11
304.9785433634643
 21
434.2055566772204
 31
0.0
 12
297.9785433634642
 22
435.3722233438871
 32
0.0
 13
297.9785433634642
 23
435.3722233438871
 33
0.0
  0
SOLID
  5
7A4
330
71E
100
AcDbEntity
  8
BEM
 62
     0
100
AcDbTrace
 10
565.9785433634643
 20
436.5388900105537
 30
0.0
 11
565.9785433634643
 21
434.2055566772204
 31
0.0
 12
572.9785433634642
 22
435.3722233438871
 32
0.0
 13
572.9785433634642
 23
435.3722233438871
 33
0.0
  0
MTEXT
  5
7A5
330
71E
100
AcDbEntity
  8
BEM
 62
     1
100
AcDbMText
 10
435.4785433634642
 20
441.8722233438871
 30
0.0
 40
7.0
 41
0.0
 71
     5
 72
     1
  1
\A1;%%c275
 73
     1
 44
1.0
  0
POINT
  5
7A6
330
71E
100
AcDbEntity
  8
DEFPOINTS
 62
     0
100
AcDbPoint
 10
297.9785433634642
 20
420.3806400941178
 30
0.0
  0
POINT
  5
7A7
330
71E
100
AcDbEntity
  8
DEFPOINTS
 62
     0
100
AcDbPoint
 10
572.9785433634642
 20
420.3806400941178
 30
0.0
  0
POINT
  5
7A8
330
71E
100
AcDbEntity
  8
DEFPOINTS
 62
     0
100
AcDbPoint
 10
572.9785433634642
 20
435.3722233438871
 30
0.0
  0
ENDBLK
  5
72A
330
71E
100
AcDbEntity
  8
0
100
AcDbBlockEnd
  0
BLOCK
  5
736
330
72B
100
AcDbEntity
  8
0
100
AcDbBlockBegin
  2
*D15
 70
     1
 10
0.0
 20
0.0
 30
0.0
  3
*D15
  1

  0
LINE
  5
7D6
330
72B
100
AcDbEntity
  8
BEM
 62
     0
370
    -2
100
AcDbLine
 10
185.4785433634642
 20
425.3806400941178
 30
0.0
 11
185.4785433634642
 21
453.4843981361578
 31
0.0
  0
LINE
  5
7D7
330
72B
100
AcDbEntity
  8
BEM
 62
     0
370
    -2
100
AcDbLine
 10
685.4785433634642
 20
425.3806400941181
 30
0.0
 11
685.4785433634642
 21
453.4843981361578
 31
0.0
  0
LINE
  5
7D8
330
72B
100
AcDbEntity
  8
BEM
 62
     0
370
    -2
100
AcDbLine
 10
192.4785433634643
 20
451.4843981361577
 30
0.0
 11
678.4785433634643
 21
451.4843981361577
 31
0.0
  0
SOLID
  5
7D9
330
72B
100
AcDbEntity
  8
BEM
 62
     0
100
AcDbTrace
 10
192.4785433634643
 20
452.6510648028244
 30
0.0
 11
192.4785433634643
 21
450.3177314694911
 31
0.0
 12
185.4785433634642
 22
451.4843981361577
 32
0.0
 13
185.4785433634642
 23
451.4843981361577
 33
0.0
  0
SOLID
  5
7DA
330
72B
100
AcDbEntity
  8
BEM
 62
     0
100
AcDbTrace
 10
678.4785433634643
 20
452.6510648028244
 30
0.0
 11
678.4785433634643
 21
450.3177314694911
 31
0.0
 12
685.4785433634642
 22
451.4843981361577
 32
0.0
 13
685.4785433634642
 23
451.4843981361577
 33
0.0
  0
MTEXT
  5
7DB
330
72B
100
AcDbEntity
  8
BEM
 62
     1
100
AcDbMText
 10
440.1020744917785
 20
457.9843981361578
 30
0.0
 40
7.0
 41
0.0
 71
     5
 72
     1
  1
\A1;500
 73
     1
 44
1.0
  0
POINT
  5
7DC
330
72B
100
AcDbEntity
  8
DEFPOINTS
 62
     0
100
AcDbPoint
 10
185.4785433634642
 20
423.3806400941177
 30
0.0
  0
POINT
  5
7DD
330
72B
100
AcDbEntity
  8
DEFPOINTS
 62
     0
100
AcDbPoint
 10
685.4785433634642
 20
423.3806400941181
 30
0.0
  0
POINT
  5
7DE
330
72B
100
AcDbEntity
  8
DEFPOINTS
 62
     0
100
AcDbPoint
 10
685.4785433634642
 20
451.4843981361577
 30
0.0
  0
ENDBLK
  5
737
330
72B
100
AcDbEntity
  8
0
100
AcDbBlockEnd
  0
ENDSEC
  0
SECTION
  2
ENTITIES
  0
LINE
  5
58
330
1E
100
AcDbEntity
  8
STEMPEL
100
AcDbLine
 10
830.0000000000002
 20
110.0
 30
0.0
 11
470.0000000000001
 21
110.0
 31
0.0
  0
LINE
  5
59
330
1E
100
AcDbEntity
  8
STEMPEL
100
AcDbLine
 10
470.0000000000001
 20
110.0
 30
0.0
 11
470.0000000000001
 21
10.0
 31
0.0
  0
LINE
  5
5A
330
1E
100
AcDbEntity
  8
STEMPEL
100
AcDbLine
 10
566.0000000000002
 20
109.9999999999999
 30
0.0
 11
566.0000000000001
 21
9.999999999999886
 31
0.0
  0
LINE
  5
5B
330
1E
100
AcDbEntity
  8
STEMPEL
100
AcDbLine
 10
650.0
 20
110.0
 30
0.0
 11
650.0
 21
10.0
 31
0.0
  0
LINE
  5
5C
330
1E
100
AcDbEntity
  8
STEMPEL
100
AcDbLine
 10
752.0000000000002
 20
109.9999999999997
 30
0.0
 11
752.0000000000002
 21
40.0
 31
0.0
  0
LINE
  5
5D
330
1E
100
AcDbEntity
  8
STEMPEL
100
AcDbLine
 10
566.0
 20
30.0
 30
0.0
 11
470.0000000000001
 21
30.0
 31
0.0
  0
LINE
  5
5E
330
1E
100
AcDbEntity
  8
STEMPEL
100
AcDbLine
 10
830.0000000000002
 20
40.0
 30
0.0
 11
566.0000000000001
 21
40.0
 31
0.0
  0
LINE
  5
5F
330
1E
100
AcDbEntity
  8
STEMPEL
100
AcDbLine
 10
830.0000000000002
 20
80.0
 30
0.0
 11
566.0000000000002
 21
80.0
 31
0.0
  0
LINE
  5
60
330
1E
100
AcDbEntity
  8
VOLL
100
AcDbLine
 10
484.0000000000002
 20
110.0
 30
0.0
 11
484.0000000000001
 21
9.999999999999985
 31
0.0
  0
LINE
  5
61
330
1E
100
AcDbEntity
  8
VOLL
100
AcDbLine
 10
524.0000000000001
 20
109.9999999999999
 30
0.0
 11
524.0000000000001
 21
9.999999999999943
 31
0.0
  0
LINE
  5
62
330
1E
100
AcDbEntity
  8
VOLL
100
AcDbLine
 10
544.0000000000002
 20
109.9999999999999
 30
0.0
 11
544.0000000000001
 21
9.999999999999914
 31
0.0
  0
LINE
  5
63
330
1E
100
AcDbEntity
  8
VOLL
100
AcDbLine
 10
584.0000000000002
 20
80.0
 30
0.0
 11
584.0000000000002
 21
40.0
 31
0.0
  0
LINE
  5
64
330
1E
100
AcDbEntity
  8
VOLL
100
AcDbLine
 10
610.0000000000002
 20
109.9999999999998
 30
0.0
 11
610.0000000000001
 21
40.0
 31
0.0
  0
LINE
  5
65
330
1E
100
AcDbEntity
  8
HILF
100
AcDbLine
 10
470.0000000000001
 20
100.0
 30
0.0
 11
566.0000000000002
 21
100.0
 31
0.0
  0
LINE
  5
66
330
1E
100
AcDbEntity
  8
HILF
100
AcDbLine
 10
470.0000000000001
 20
90.0
 30
0.0
 11
566.0000000000002
 21
90.0
 31
0.0
  0
LINE
  5
67
330
1E
100
AcDbEntity
  8
HILF
100
AcDbLine
 10
470.0000000000001
 20
80.0
 30
0.0
 11
566.0000000000002
 21
80.0
 31
0.0
  0
LINE
  5
68
330
1E
100
AcDbEntity
  8
HILF
100
AcDbLine
 10
470.0000000000001
 20
70.0
 30
0.0
 11
566.0000000000002
 21
70.0
 31
0.0
  0
LINE
  5
69
330
1E
100
AcDbEntity
  8
HILF
100
AcDbLine
 10
470.0000000000001
 20
60.0
 30
0.0
 11
566.0000000000002
 21
60.0
 31
0.0
  0
LINE
  5
6A
330
1E
100
AcDbEntity
  8
HILF
100
AcDbLine
 10
470.0000000000001
 20
50.0
 30
0.0
 11
566.0000000000002
 21
50.0
 31
0.0
  0
LINE
  5
6B
330
1E
100
AcDbEntity
  8
HILF
100
AcDbLine
 10
470.0000000000001
 20
40.0
 30
0.0
 11
566.0000000000002
 21
40.0
 31
0.0
  0
LINE
  5
6C
330
1E
100
AcDbEntity
  8
HILF
100
AcDbLine
 10
566.0000000000002
 20
70.0
 30
0.0
 11
650.0
 21
70.0
 31
0.0
  0
LINE
  5
6D
330
1E
100
AcDbEntity
  8
HILF
100
AcDbLine
 10
566.0000000000002
 20
60.0
 30
0.0
 11
650.0
 21
60.0
 31
0.0
  0
LINE
  5
6E
330
1E
100
AcDbEntity
  8
HILF
100
AcDbLine
 10
566.0000000000002
 20
50.0
 30
0.0
 11
650.0
 21
50.0
 31
0.0
  0
LINE
  5
6F
330
1E
100
AcDbEntity
  8
HILF
100
AcDbLine
 10
654.7736801096948
 20
84.03758247564136
 30
0.0
 11
746.6297842514811
 21
84.03758247564136
 31
0.0
  0
LINE
  5
70
330
1E
100
AcDbEntity
  8
HILF
100
AcDbLine
 10
654.7736801096948
 20
70.0
 30
0.0
 11
746.6297842514811
 21
70.0
 31
0.0
  0
LINE
  5
71
330
1E
100
AcDbEntity
  8
HILF
100
AcDbLine
 10
654.7736801096948
 20
60.0
 30
0.0
 11
746.6297842514811
 21
60.0
 31
0.0
  0
LINE
  5
72
330
1E
100
AcDbEntity
  8
HILF
100
AcDbLine
 10
654.7736801096948
 20
50.0
 30
0.0
 11
746.6297842514811
 21
50.0
 31
0.0
  0
LINE
  5
73
330
1E
100
AcDbEntity
  8
VOLL
100
AcDbLine
 10
752.0000000000002
 20
60.0
 30
0.0
 11
830.0000000000002
 21
60.0
 31
0.0
  0
LINE
  5
74
330
1E
100
AcDbEntity
  8
HILF
100
AcDbLine
 10
756.7238616296995
 20
83.77983636955823
 30
0.0
 11
824.858883932673
 21
83.77983636955823
 31
0.0
  0
LINE
  5
75
330
1E
100
AcDbEntity
  8
HILF
100
AcDbLine
 10
654.7736801096948
 20
14.89398258028305
 30
0.0
 11
824.858883932673
 21
14.89398258028305
 31
0.0
  0
TEXT
  5
76
330
1E
100
AcDbEntity
  8
TEXT
100
AcDbText
 10
492.3998239263297
 20
18.67381894984129
 30
0.0
 40
4.0
  1
Änderung
 41
0.8
  7
GREEKS
 72
     1
 11
503.1426810691868
 21
18.67381894984129
 31
0.0
100
AcDbText
  0
TEXT
  5
78
330
1E
100
AcDbEntity
  8
TEXT
100
AcDbText
 10
573.5163572150378
 20
102.4620895087088
 30
0.0
 40
5.0
  1
Maßstab
 41
0.8
  7
GREEKS
100
AcDbText
  0
TEXT
  5
79
330
1E
100
AcDbEntity
  8
TEXT
100
AcDbText
 10
654.8779403809011
 20
102.5489328011779
 30
0.0
 40
5.0
  1
Benennung
 41
0.8
  7
GREEKS
100
AcDbText
  0
TEXT
  5
7A
330
1E
100
AcDbEntity
  8
TEXT
100
AcDbText
 10
756.1787549576343
 20
102.3132034537135
 30
0.0
 40
5.0
  1
Zeichnungs Nr.
 41
0.8
  7
GREEKS
100
AcDbText
  0
TEXT
  5
7B
330
1E
100
AcDbEntity
  8
TEXT
100
AcDbText
 10
654.742238391136
 20
30.84560570193055
 30
0.0
 40
5.0
  1
Bauvorhaben
 41
0.8
  7
GREEKS
100
AcDbText
  0
TEXT
  5
7C
330
1E
100
AcDbEntity
  8
TEXT
100
AcDbText
 10
756.7238616296995
 20
73.18118237099965
 30
0.0
 40
5.0
  1
Ersatz für:
 41
0.8
  7
GREEKS
100
AcDbText
  0
TEXT
  5
7D
330
1E
100
AcDbEntity
  8
TEXT
100
AcDbText
 10
478.2664110704577
 20
13.65465846027187
 30
0.0
 40
4.0
  1
Index
 50
90.0
 41
0.8
  7
GREEKS
100
AcDbText
  0
TEXT
  5
7E
330
1E
100
AcDbEntity
  8
TEXT
100
AcDbText
 10
529.8990113186979
 20
18.67156269339808
 30
0.0
 40
4.0
  1
Tag
 41
0.8
  7
GREEKS
 72
     1
 11
533.6323446520313
 21
18.67156269339808
 31
0.0
100
AcDbText
  0
TEXT
  5
7F
330
1E
100
AcDbEntity
  8
TEXT
100
AcDbText
 10
548.9795678138293
 20
18.59324216966404
 30
0.0
 40
4.0
  1
Name
 41
0.8
  7
GREEKS
 72
     1
 11
555.3033773376388
 21
18.59324216966404
 31
0.0
100
AcDbText
  0
TEXT
  5
80
330
1E
100
AcDbEntity
  8
TEXT
100
AcDbText
 10
592.3311673153651
 20
73.31880501229919
 30
0.0
 40
4.0
  1
Tag
 41
0.8
  7
GREEKS
100
AcDbText
  0
TEXT
  5
81
330
1E
100
AcDbEntity
  8
TEXT
100
AcDbText
 10
622.4626584226296
 20
73.3096109191522
 30
0.0
 40
4.0
  1
Name
 41
0.8
  7
GREEKS
100
AcDbText
  0
TEXT
  5
82
330
1E
100
AcDbEntity
  8
TEXT
100
AcDbText
 10
567.5836127167616
 20
63.62990369617961
 30
0.0
 40
4.0
  1
Gez.
 41
0.8
  7
GREEKS
100
AcDbText
  0
TEXT
  5
83
330
1E
100
AcDbEntity
  8
TEXT
100
AcDbText
 10
567.5515086571673
 20
53.68926291428373
 30
0.0
 40
4.0
  1
Gepr.
 41
0.8
  7
GREEKS
100
AcDbText
  0
TEXT
  5
84
330
1E
100
AcDbEntity
  8
TEXT
100
AcDbText
 10
567.6006777387304
 20
43.52946389649804
 30
0.0
 40
4.0
  1
Norm.
 41
0.8
  7
GREEKS
100
AcDbText
  0
TEXT
  5
85
330
1E
100
AcDbEntity
  8
TEXT
100
AcDbText
 10
757.2400861497007
 20
52.07416177878596
 30
0.0
 40
5.0
  1
ersetzt durch:
 41
0.8
  7
GREEKS
100
AcDbText
  0
TEXT
  5
86
330
1E
100
AcDbEntity
  8
TEXT
100
AcDbText
 10
568.8693027807324
 20
72.96682596523723
 30
0.0
 40
4.0
  1
2008
 41
0.8
  7
GREEKS
100
AcDbText
  0
LINE
  5
87
330
1E
100
AcDbEntity
  8
HILF
100
AcDbLine
 10
0.0
 20
0.0
 30
0.0
 11
840.0
 21
0.0
 31
0.0
  0
LINE
  5
88
330
1E
100
AcDbEntity
  8
HILF
100
AcDbLine
 10
840.0
 20
0.0
 30
0.0
 11
840.0
 21
594.0
 31
0.0
  0
LINE
  5
89
330
1E
100
AcDbEntity
  8
HILF
100
AcDbLine
 10
840.0
 20
594.0
 30
0.0
 11
0.0
 21
594.0
 31
0.0
  0
LINE
  5
8B
330
1E
100
AcDbEntity
  8
STEMPEL
100
AcDbLine
 10
830.0
 20
584.0
 30
0.0
 11
40.0
 21
584.0
 31
0.0
  0
LINE
  5
8D
330
1E
100
AcDbEntity
  8
STEMPEL
100
AcDbLine
 10
40.0
 20
10.0
 30
0.0
 11
830.0
 21
10.0
 31
0.0
  0
LINE
  5
8E
330
1E
100
AcDbEntity
  8
STEMPEL
100
AcDbLine
 10
830.0
 20
10.0
 30
0.0
 11
830.0
 21
584.0
 31
0.0
  0
TEXT
  5
8F
330
1E
100
AcDbEntity
  8
TEXT
 62
     1
100
AcDbText
 10
655.0390572473189
 20
87.37343075652544
 30
0.0
 40
7.0
  1
Balkondirektablauf DN70
 41
0.7
  7
GREEKS
100
AcDbText
  0
TEXT
  5
90
330
1E
100
AcDbEntity
  8
TEXT
 62
     1
100
AcDbText
 10
766.6628088850802
 20
87.37343075652544
 30
0.0
 40
7.0
  1
16230070W
 41
0.8
  7
GREEKS
 72
     1
 11
790.1294755517469
 21
87.37343075652544
 31
0.0
100
AcDbText
  0
TEXT
  5
91
330
1E
100
AcDbEntity
  8
TEXT
100
AcDbText
 10
618.509022641583
 20
102.83989611379
 30
0.0
 40
5.0
  1
Zul.Abw.
 41
0.8
  7
GREEKS
100
AcDbText
  0
TEXT
  5
93
330
1E
100
AcDbEntity
  8
TEXT
100
AcDbText
 10
590.1565237511869
 20
63.1508587612022
 30
0.0
 40
4.0
  1
02.06.
 41
0.8
  7
GREEKS
 72
     1
 11
597.1660475607107
 21
63.1508587612022
 31
0.0
100
AcDbText
  0
TEXT
  5
94
330
1E
100
AcDbEntity
  8
TEXT
100
AcDbText
 10
624.023175322661
 20
62.94297655165468
 30
0.0
 40
4.0
  1
Koeh
 41
0.8
  7
GREEKS
 72
     1
 11
629.2803181798038
 21
62.94297655165468
 31
0.0
100
AcDbText
  0
TEXT
  5
95
330
1E
100
AcDbEntity
  8
TEXT
100
AcDbText
 10
654.3410940884992
 20
72.10021383107525
 30
0.0
 40
5.0
  1
Grundeinheit
 41
0.8
  7
GREEKS
100
AcDbText
  0
TEXT
  5
96
330
1E
100
AcDbEntity
  8
TEXT
100
AcDbText
 10
654.3410940884992
 20
62.34559085209035
 30
0.0
 40
5.0
  1

 41
0.8
  7
GREEKS
100
AcDbText
  0
TEXT
  5
97
330
1E
100
AcDbEntity
  8
TEXT
100
AcDbText
 10
654.3410940884992
 20
52.59097337846058
 30
0.0
 40
5.0
  1
EDV-Art.Nr. 16230.070X
 41
0.8
  7
GREEKS
100
AcDbText
  0
TEXT
  5
98
330
1E
100
AcDbEntity
  8
TEXT
100
AcDbText
 10
654.1676050109348
 20
43.31127624791508
 30
0.0
 40
4.0
  1
16230070W.DWG
 41
0.8
  7
GREEKS
100
AcDbText
  0
TEXT
  5
99
330
1E
100
AcDbEntity
  8
TEXT
 62
     1
100
AcDbText
 10
582.7034912034222
 20
87.47077088414977
 30
0.0
 40
7.0
  1
1:2
 41
0.8
  7
GREEKS
100
AcDbText
  0
TEXT
  5
9A
330
1E
100
AcDbEntity
  8
TEXT
100
AcDbText
 10
470.0441139350127
 20
114.1143585051043
 30
0.0
 40
5.0
  1
Erstellt mit AUTOCAD 2004
 41
0.8
  7
GREEKS
100
AcDbText
  0
INSERT
  5
9B
330
1E
100
AcDbEntity
  8
HILF
100
AcDbBlockReference
  2
LORO
 10
573.0624985962354
 20
36.9805930029896
 30
0.0
 41
2.0
 42
2.0
 43
2.0
  0
LINE
  5
9C
330
1E
100
AcDbEntity
  8
BEM
100
AcDbLine
 10
456.0
 20
0.0
 30
0.0
 11
456.0
 21
10.0
 31
0.0
  0
LINE
  5
13E
330
1E
100
AcDbEntity
  8
HILF
100
AcDbLine
 10
0.0
 20
0.0
 30
0.0
 11
0.0
 21
594.0
 31
0.0
  0
LINE
  5
13F
330
1E
100
AcDbEntity
  8
STEMPEL
100
AcDbLine
 10
40.0
 20
10.0
 30
0.0
 11
40.0
 21
584.0
 31
0.0
  0
LINE
  5
14A
330
1E
100
AcDbEntity
  8
HILF
100
AcDbLine
 10
0.0
 20
297.0
 30
0.0
 11
40.0
 21
297.0
 31
0.0
  0
TEXT
  5
15B
330
1E
100
AcDbEntity
  8
BEM
100
AcDbText
 10
837.3022923857165
 20
10.16790107998861
 30
0.0
 40
4.0
  1
Diese Zeichnung ist urheberrechtlich geschützt und bleibt unser Eigentum. Sie darf weder ganz noch teilweise verfielfältigt und nicht an Dritte weitergegeben werden.
 50
90.0
 41
0.8
  7
GREEKS
100
AcDbText
  0
LINE
  5
640
330
1E
100
AcDbEntity
  8
STEMPEL
100
AcDbLine
 10
685.4785433634641
 20
423.3806400941181
 30
0.0
 11
685.4785433634642
 21
422.3806400941182
 31
0.0
  0
TEXT
  5
641
330
1E
100
AcDbEntity
  8
TEXT
 62
     1
100
AcDbText
 10
690.6201860668412
 20
378.0561660770496
 30
0.0
 40
7.0
  1
Anschluámanschette
 41
0.8
  7
GREEKS
100
AcDbText
  0
LINE
  5
642
330
1E
100
AcDbEntity
  8
TEXT
 62
     2
100
AcDbLine
 10
794.667472970751
 20
375.0529234786885
 30
0.0
 11
689.2498646802847
 21
375.0529234786885
 31
0.0
  0
TEXT
  5
643
330
1E
100
AcDbEntity
  8
TEXT
 62
     1
100
AcDbText
 10
690.6201860668412
 20
365.461328626768
 30
0.0
 40
7.0
  1
EDV-Art.Nr. 16004.070X
 41
0.8
  7
GREEKS
100
AcDbText
  0
LINE
  5
644
330
1E
100
AcDbEntity
  8
STEMPEL
100
AcDbLine
 10
572.9785433634642
 20
420.3806400941178
 30
0.0
 11
572.6043191476842
 21
418.4159629612727
 31
0.0
  0
LINE
  5
645
330
1E
100
AcDbEntity
  8
STEMPEL
100
AcDbLine
 10
562.4785433634643
 20
422.3806400941178
 30
0.0
 11
572.9785433634642
 21
420.3806400941178
 31
0.0
  0
LINE
  5
646
330
1E
100
AcDbEntity
  8
STEMPEL
100
AcDbLine
 10
562.2897642002483
 20
420.3806400941178
 30
0.0
 11
572.6043191476842
 21
418.4159629612727
 31
0.0
  0
ARC
  5
647
330
1E
100
AcDbEntity
  8
STEMPEL
100
AcDbCircle
 10
513.7301813692316
 20
414.3806400941178
 30
0.0
 40
6.0
100
AcDbArc
 50
90.0
 51
190.9999999999987
  0
ARC
  5
648
330
1E
100
AcDbEntity
  8
STEMPEL
100
AcDbCircle
 10
495.470903688378
 20
417.3806400941179
 30
0.0
 40
2.0
100
AcDbArc
 50
5.000000000000026
 51
90.0
  0
ARC
  5
649
330
1E
100
AcDbEntity
  8
STEMPEL
100
AcDbCircle
 10
493.4861830385512
 20
417.3806400941179
 30
0.0
 40
2.0
100
AcDbArc
 50
90.0
 51
175.0
  0
LINE
  5
64A
330
1E
100
AcDbEntity
  8
STEMPEL
100
AcDbLine
 10
495.4785433634644
 20
417.3806400941179
 30
0.0
 11
493.4785433634645
 21
417.3806400941177
 31
0.0
  0
LINE
  5
64B
330
1E
100
AcDbEntity
  8
STEMPEL
100
AcDbLine
 10
505.9785433634642
 20
407.0917729495252
 30
0.0
 11
505.9785433634642
 21
404.1844876714112
 31
0.0
  0
LINE
  5
64C
330
1E
100
AcDbEntity
  8
STEMPEL
100
AcDbLine
 10
505.9785433634642
 20
407.0917729495252
 30
0.0
 11
504.8955367182027
 21
412.6633591357291
 31
0.0
  0
LINE
  5
64D
330
1E
100
AcDbEntity
  8
STEMPEL
100
AcDbLine
 10
506.9785433634642
 20
407.1880619977226
 30
0.0
 11
506.9785433634642
 21
403.9165384789801
 31
0.0
  0
LINE
  5
64E
330
1E
100
AcDbEntity
  8
STEMPEL
100
AcDbLine
 10
506.9785433634642
 20
407.1880619977226
 30
0.0
 11
505.8771639016502
 21
412.8541681311055
 31
0.0
  0
LINE
  5
64F
330
1E
100
AcDbEntity
  8
STEMPEL
100
AcDbLine
 10
508.9785433634642
 20
407.3806400941178
 30
0.0
 11
508.9785433634642
 21
403.3806400941178
 31
0.0
  0
ARC
  5
650
330
1E
100
AcDbEntity
  8
STEMPEL
100
AcDbCircle
 10
499.6843956245347
 20
407.1667845695741
 30
0.0
 40
1.307262162693065
100
AcDbArc
 50
185.0000280746028
 51
355.2430280821055
  0
ARC
  5
651
330
1E
100
AcDbEntity
  8
STEMPEL
100
AcDbCircle
 10
490.5738511134516
 20
406.8806400941177
 30
0.0
 40
2.5
100
AcDbArc
 50
90.0
 51
170.0000000000014
  0
LINE
  5
652
330
1E
100
AcDbEntity
  8
STEMPEL
100
AcDbLine
 10
495.4785433634644
 20
394.380640094118
 30
0.0
 11
493.4785433634645
 21
394.380640094118
 31
0.0
  0
LINE
  5
653
330
1E
100
AcDbEntity
  8
STEMPEL
100
AcDbLine
 10
485.7699596071342
 20
394.033343738784
 30
0.0
 11
488.111831730921
 21
407.314760538285
 31
0.0
  0
LINE
  5
654
330
1E
100
AcDbEntity
  8
STEMPEL
100
AcDbLine
 10
505.9785433634642
 20
404.1844876714112
 30
0.0
 11
498.8749136526458
 21
391.8806400941177
 31
0.0
  0
LINE
  5
655
330
1E
100
AcDbEntity
  8
STEMPEL
100
AcDbLine
 10
508.9785433634642
 20
403.3806400941178
 30
0.0
 11
501.4729898639991
 21
390.3806400941178
 31
0.0
  0
LINE
  5
656
330
1E
100
AcDbEntity
  8
STEMPEL
100
AcDbLine
 10
506.9785433634642
 20
403.9165384789801
 30
0.0
 11
499.7409390564302
 21
391.3806400941179
 31
0.0
  0
ARC
  5
657
330
1E
100
AcDbEntity
  8
STEMPEL
100
AcDbCircle
 10
503.4785433634643
 20
406.8510503290311
 30
0.0
 40
2.5
100
AcDbArc
 50
10.99999999999869
 51
175.2430280821054
  0
LINE
  5
658
330
1E
100
AcDbEntity
  8
STEMPEL
100
AcDbLine
 10
495.4785433634644
 20
394.380640094118
 30
0.0
 11
495.4785433634644
 21
417.3806400941179
 31
0.0
  0
LINE
  5
659
330
1E
100
AcDbEntity
  8
STEMPEL
100
AcDbLine
 10
493.4785433634645
 20
394.380640094118
 30
0.0
 11
493.4785433634645
 21
417.3806400941177
 31
0.0
  0
ARC
  5
65A
330
1E
100
AcDbEntity
  8
STEMPEL
100
AcDbCircle
 10
513.7301813692316
 20
414.3806400941178
 30
0.0
 40
9.0
100
AcDbArc
 50
90.0
 51
190.9999999999987
  0
ARC
  5
65B
330
1E
100
AcDbEntity
  8
STEMPEL
100
AcDbCircle
 10
513.7301813692316
 20
414.3806400941178
 30
0.0
 40
8.0
100
AcDbArc
 50
90.0
 51
190.9999999999987
  0
LINE
  5
65C
330
1E
100
AcDbEntity
  8
STEMPEL
100
AcDbLine
 10
497.4632930845614
 20
417.5549515796133
 30
0.0
 11
498.3821079594601
 21
407.0528495029647
 31
0.0
  0
LINE
  5
65D
330
1E
100
AcDbEntity
  8
STEMPEL
100
AcDbLine
 10
491.4937936423675
 20
417.5549515796133
 30
0.0
 11
490.778634055257
 21
409.3806400941179
 31
0.0
  0
LINE
  5
65E
330
1E
100
AcDbEntity
  8
STEMPEL
100
AcDbLine
 10
508.9785433634642
 20
407.3806400941178
 30
0.0
 11
507.8404182685456
 21
413.2357861218586
 31
0.0
  0
LINE
  5
65F
330
1E
100
AcDbEntity
  8
BEM
 62
     1
100
AcDbLine
 10
424.101413162266
 20
461.6956632410159
 30
0.0
 11
431.101413162266
 21
461.6956632410159
 31
0.0
  0
LINE
  5
660
330
1E
100
AcDbEntity
  8
BEM
 62
     1
100
AcDbLine
 10
431.101413162266
 20
454.695663241016
 30
0.0
 11
424.101413162266
 21
454.695663241016
 31
0.0
  0
LINE
  5
661
330
1E
100
AcDbEntity
  8
BEM
 62
     1
100
AcDbLine
 10
424.101413162266
 20
454.695663241016
 30
0.0
 11
424.101413162266
 21
461.6956632410159
 31
0.0
  0
LINE
  5
662
330
1E
100
AcDbEntity
  8
BEM
 62
     1
100
AcDbLine
 10
431.101413162266
 20
461.6956632410159
 30
0.0
 11
431.101413162266
 21
454.695663241016
 31
0.0
  0
LINE
  5
663
330
1E
100
AcDbEntity
  8
STEMPEL
100
AcDbLine
 10
483.4785433634644
 20
390.380640094118
 30
0.0
 11
483.4785433634644
 21
392.380640094118
 31
0.0
  0
LINE
  5
664
330
1E
100
AcDbEntity
  8
STEMPEL
100
AcDbLine
 10
462.0727156574084
 20
392.3806400941178
 30
0.0
 11
483.8003441011099
 21
392.3806400941178
 31
0.0
  0
LINE
  5
665
330
1E
100
AcDbEntity
  8
STEMPEL
100
AcDbLine
 10
462.0727156574084
 20
396.3806400941178
 30
0.0
 11
452.4785433634642
 21
422.3806400941179
 31
0.0
  0
LINE
  5
666
330
1E
100
AcDbEntity
  8
STEMPEL
100
AcDbLine
 10
462.0727156574084
 20
390.3806400941178
 30
0.0
 11
489.9785433634646
 21
390.3806400941178
 31
0.0
  0
LINE
  5
667
330
1E
100
AcDbEntity
  8
STEMPEL
100
AcDbLine
 10
453.5855632435339
 20
419.3806400941198
 30
0.0
 11
495.4709036883778
 21
419.3806400941211
 31
0.0
  0
LINE
  5
668
330
1E
100
AcDbEntity
  8
STEMPEL
100
AcDbLine
 10
457.2756295104364
 20
409.3806400941176
 30
0.0
 11
490.778634055257
 21
409.3806400941176
 31
0.0
  0
ARC
  5
669
330
1E
100
AcDbEntity
  8
STEMPEL
100
AcDbCircle
 10
483.8003441011099
 20
394.380640094118
 30
0.0
 40
2.0
100
AcDbArc
 50
270.0
 51
350.0000000000014
  0
INSERT
  5
66A
330
1E
100
AcDbEntity
  8
SCHRAFF
100
AcDbBlockReference
  2
*X6
 10
656.9084621153053
 20
-66.02647387621868
 30
0.0
 41
-1.0
1001
ACAD
1000
HATCH
1002
{
1070
    16
1000
_U,I
1040
0.1
1040
2.356194490192344
1070
     0
1002
}
  0
LINE
  5
66B
330
1E
100
AcDbEntity
  8
STEMPEL
100
AcDbLine
 10
496.0908266507321
 20
386.5314515840992
 30
0.0
 11
497.9785433634642
 21
385.870750734643
 31
0.0
  0
LINE
  5
66C
330
1E
100
AcDbEntity
  8
STEMPEL
100
AcDbLine
 10
492.9785433634642
 20
388.3806400941178
 30
0.0
 11
492.9785433634642
 21
386.3806400941178
 31
0.0
  0
ARC
  5
66D
330
1E
100
AcDbEntity
  8
STEMPEL
100
AcDbCircle
 10
504.4785433634642
 20
374.1712934483329
 30
0.0
 40
10.0
100
AcDbArc
 50
160.7099537808137
 51
180.0
  0
ARC
  5
66E
330
1E
100
AcDbEntity
  8
STEMPEL
100
AcDbCircle
 10
504.4785433634642
 20
374.1712934483329
 30
0.0
 40
12.0
100
AcDbArc
 50
160.7099537808137
 51
180.0
  0
LINE
  5
66F
330
1E
100
AcDbEntity
  8
STEMPEL
100
AcDbLine
 10
493.152243087072
 20
378.1354985450702
 30
0.0
 11
496.0908266507321
 21
386.5314515840992
 31
0.0
  0
LINE
  5
670
330
1E
100
AcDbEntity
  8
STEMPEL
100
AcDbLine
 10
495.0399597998041
 20
377.474797695614
 30
0.0
 11
497.9785433634642
 21
385.870750734643
 31
0.0
  0
ARC
  5
671
330
1E
100
AcDbEntity
  8
SCHRAFF
100
AcDbCircle
 10
496.0908266507321
 20
386.5314515840991
 30
0.0
 40
5.0
100
AcDbArc
 50
274.2881322590142
 51
29.35276053511742
  0
ARC
  5
672
330
1E
100
AcDbEntity
  8
STEMPEL
100
AcDbCircle
 10
486.4785433634643
 20
348.3272004466042
 30
0.0
 40
8.0
100
AcDbArc
 50
346.5042667192067
 51
0.0
  0
ARC
  5
673
330
1E
100
AcDbEntity
  8
STEMPEL
100
AcDbCircle
 10
486.4785433634643
 20
348.3272004466043
 30
0.0
 40
6.0
100
AcDbArc
 50
346.5042667192067
 51
0.0
  0
LINE
  5
674
330
1E
100
AcDbEntity
  8
STEMPEL
100
AcDbLine
 10
492.4785433634642
 20
374.1712934483329
 30
0.0
 11
492.4785433634642
 21
348.3272004466043
 31
0.0
  0
LINE
  5
675
330
1E
100
AcDbEntity
  8
STEMPEL
100
AcDbLine
 10
494.4785433634642
 20
374.1712934483329
 30
0.0
 11
494.4785433634642
 21
348.3272004466042
 31
0.0
  0
LINE
  5
676
330
1E
100
AcDbEntity
  8
STEMPEL
100
AcDbLine
 10
492.3128671753472
 20
346.9269627317523
 30
0.0
 11
488.0056926907505
 21
328.9804023792659
 31
0.0
  0
LINE
  5
677
330
1E
100
AcDbEntity
  8
STEMPEL
100
AcDbLine
 10
494.2576417793084
 20
346.4602168268015
 30
0.0
 11
489.9504672947116
 21
328.5136564743151
 31
0.0
  0
LINE
  5
678
330
1E
100
AcDbEntity
  8
STEMPEL
100
AcDbLine
 10
485.4785433634642
 20
389.3806400941178
 30
0.0
 11
485.4785433634642
 21
388.3806400941178
 31
0.0
  0
LINE
  5
679
330
1E
100
AcDbEntity
  8
STEMPEL
100
AcDbLine
 10
471.9785433634642
 20
322.3806400941179
 30
0.0
 11
482.1713688788674
 21
322.3806400941179
 31
0.0
  0
LINE
  5
67A
330
1E
100
AcDbEntity
  8
STEMPEL
100
AcDbLine
 10
462.0727156574084
 20
324.3806400941178
 30
0.0
 11
482.1713688788674
 21
324.3806400941178
 31
0.0
  0
ARC
  5
67B
330
1E
100
AcDbEntity
  8
SCHRAFF
100
AcDbCircle
 10
471.978543363464
 20
322.3806400941176
 30
0.0
 40
3.0
100
AcDbArc
 50
270.0
 51
0.0
  0
LINE
  5
67C
330
1E
100
AcDbEntity
  8
STEMPEL
100
AcDbLine
 10
462.0727156574084
 20
389.3806400941178
 30
0.0
 11
494.5447866337235
 21
389.3806400941178
 31
0.0
  0
LINE
  5
67D
330
1E
100
AcDbEntity
  8
HILF
100
AcDbLine
 10
462.0727156574084
 20
347.3806400941177
 30
0.0
 11
490.3649328832023
 21
347.3806400941177
 31
0.0
  0
LINE
  5
67E
330
1E
100
AcDbEntity
  8
HILF
100
AcDbLine
 10
462.0727156574084
 20
375.8707507346431
 30
0.0
 11
490.4785433634642
 21
375.8707507346431
 31
0.0
  0
LINE
  5
67F
330
1E
100
AcDbEntity
  8
STEMPEL
100
AcDbLine
 10
462.0727156574084
 20
386.3806400941178
 30
0.0
 11
494.5447866337235
 21
386.3806400941177
 31
0.0
  0
LINE
  5
680
330
1E
100
AcDbEntity
  8
STEMPEL
100
AcDbLine
 10
462.0727156574084
 20
388.3806400941178
 30
0.0
 11
494.5447866337235
 21
388.3806400941178
 31
0.0
  0
ARC
  5
681
330
1E
100
AcDbEntity
  8
STEMPEL
100
AcDbCircle
 10
482.1713688788674
 20
330.3806400941178
 30
0.0
 40
8.0
100
AcDbArc
 50
270.0
 51
346.5042667192067
  0
ARC
  5
682
330
1E
100
AcDbEntity
  8
STEMPEL
100
AcDbCircle
 10
482.1713688788674
 20
330.3806400941178
 30
0.0
 40
6.0
100
AcDbArc
 50
270.0
 51
346.5042667192067
  0
LINE
  5
683
330
1E
100
AcDbEntity
  8
STEMPEL
100
AcDbLine
 10
462.0727156574084
 20
324.3806400941178
 30
0.0
 11
462.0727156574084
 21
396.3806400941178
 31
0.0
  0
LINE
  5
684
330
1E
100
AcDbEntity
  8
TEXT
 62
     2
100
AcDbLine
 10
541.7477602008708
 20
375.0292993032333
 30
0.0
 11
499.8155598395079
 21
401.1454802548793
 31
0.0
  0
INSERT
  5
685
330
1E
100
AcDbEntity
  8
SCHRAFF
100
AcDbBlockReference
  2
*X8
 10
656.9084621153056
 20
-66.02647387621868
 30
0.0
 41
-1.0
1001
ACAD
1000
HATCH
1002
{
1070
    16
1000
NET,I
1040
15.0
1040
0.7853981633974483
1002
}
  0
ARC
  5
686
330
1E
100
AcDbEntity
  8
STEMPEL
100
AcDbCircle
 10
494.5447866337235
 20
394.3806400941178
 30
0.0
 40
5.0
100
AcDbArc
 50
270.0
 51
329.9999999999995
  0
LINE
  5
687
330
1E
100
AcDbEntity
  8
STEMPEL
100
AcDbLine
 10
489.9785433634646
 20
390.3806400941178
 30
0.0
 11
491.7105941710333
 21
389.380640094118
 31
0.0
  0
ARC
  5
688
330
1E
100
AcDbEntity
  8
STEMPEL
100
AcDbCircle
 10
494.5447866337235
 20
394.3806400941178
 30
0.0
 40
8.0
100
AcDbArc
 50
270.0
 51
329.9999999999995
  0
ARC
  5
689
330
1E
100
AcDbEntity
  8
STEMPEL
100
AcDbCircle
 10
494.5447866337235
 20
394.3806400941178
 30
0.0
 40
6.0
100
AcDbArc
 50
270.0
 51
329.9999999999995
  0
TEXT
  5
68A
330
1E
100
AcDbEntity
  8
TEXT
 62
     1
100
AcDbText
 10
543.1180815874273
 20
365.4377044513128
 30
0.0
 40
7.0
  1
EDV-Art.Nr. 16201.070X
 41
0.8
  7
GREEKS
100
AcDbText
  0
LINE
  5
68B
330
1E
100
AcDbEntity
  8
TEXT
 62
     2
100
AcDbLine
 10
647.1653684913368
 20
375.0292993032333
 30
0.0
 11
541.7477602008708
 21
375.0292993032333
 31
0.0
  0
TEXT
  5
68C
330
1E
100
AcDbEntity
  8
TEXT
 62
     1
100
AcDbText
 10
543.1180815874273
 20
378.0325419015945
 30
0.0
 40
7.0
  1
Klemmring DN70
 41
0.8
  7
GREEKS
100
AcDbText
  0
LINE
  5
68D
330
1E
100
AcDbEntity
  8
STEMPEL
100
AcDbLine
 10
562.2897642002483
 20
420.3806400941178
 30
0.0
 11
513.7301813692316
 21
420.3806400941178
 31
0.0
  0
LINE
  5
68E
330
1E
100
AcDbEntity
  8
STEMPEL
100
AcDbLine
 10
572.6043191476842
 20
418.4159629612727
 30
0.0
 11
509.2898920365623
 21
418.4159629612727
 31
0.0
  0
LINE
  5
68F
330
1E
100
AcDbEntity
  8
TEXT
 62
     2
100
AcDbLine
 10
689.2498646802847
 20
375.0529234786885
 30
0.0
 11
666.1331250274201
 21
422.9340898811519
 31
0.0
  0
LINE
  5
690
330
1E
100
AcDbEntity
  8
STEMPEL
100
AcDbLine
 10
513.7301813692316
 20
422.3806400941178
 30
0.0
 11
685.4785433634642
 21
422.3806400941182
 31
0.0
  0
INSERT
  5
691
330
1E
100
AcDbEntity
  8
SCHRAFF
100
AcDbBlockReference
  2
*X9
 10
0.0
 20
0.0
 30
0.0
1001
ACAD
1000
HATCH
1002
{
1070
    16
1000
NET,I
1040
10.0
1040
0.7853981633974483
1002
}
  0
LINE
  5
692
330
1E
100
AcDbEntity
  8
STEMPEL
100
AcDbLine
 10
470.3785433634639
 20
182.4504976027697
 30
0.0
 11
469.4975449881355
 21
172.3806400941179
 31
0.0
  0
LINE
  5
693
330
1E
100
AcDbEntity
  8
STEMPEL
100
AcDbLine
 10
471.978543363464
 20
182.380640094118
 30
0.0
 11
471.1036567282048
 21
172.3806400941179
 31
0.0
  0
LINE
  5
694
330
1E
100
AcDbEntity
  8
TEXT
 62
     2
100
AcDbLine
 10
490.0728409286662
 20
211.6248819446568
 30
0.0
 11
471.1185874848813
 21
202.6435353580191
 31
0.0
  0
LINE
  5
695
330
1E
100
AcDbEntity
  8
TEXT
 62
     2
100
AcDbLine
 10
595.4904492191322
 20
211.6248819446568
 30
0.0
 11
490.0728409286662
 21
211.6248819446568
 31
0.0
  0
TEXT
  5
696
330
1E
100
AcDbEntity
  8
TEXT
 62
     1
100
AcDbText
 10
491.4431623152227
 20
202.0332870927362
 30
0.0
 40
7.0
  1
EDV-Art.Nr. 16279.070X
 41
0.8
  7
GREEKS
100
AcDbText
  0
TEXT
  5
697
330
1E
100
AcDbEntity
  8
TEXT
 62
     1
100
AcDbText
 10
491.4431623152227
 20
214.628124543018
 30
0.0
 40
7.0
  1
Ablauftopf DN70
 41
0.8
  7
GREEKS
100
AcDbText
  0
LINE
  5
698
330
1E
100
AcDbEntity
  8
MITTEL
100
AcDbLine
 10
435.4785433634642
 20
428.380640094118
 30
0.0
 11
435.478543363464
 21
167.380640094118
 31
0.0
  0
LINE
  5
699
330
1E
100
AcDbEntity
  8
STEMPEL
100
AcDbLine
 10
470.3785433634643
 20
324.3806400941178
 30
0.0
 11
470.3785433634639
 21
182.4504976027697
 31
0.0
  0
LINE
  5
69A
330
1E
100
AcDbEntity
  8
STEMPEL
100
AcDbLine
 10
471.9785433634642
 20
324.3806400941178
 30
0.0
 11
471.9785433634642
 21
182.3806400941179
 31
0.0
  0
LINE
  5
69B
330
1E
100
AcDbEntity
  8
STEMPEL
100
AcDbLine
 10
387.4785433634643
 20
390.3806400941178
 30
0.0
 11
387.4785433634643
 21
392.3806400941178
 31
0.0
  0
LINE
  5
69C
330
1E
100
AcDbEntity
  8
STEMPEL
100
AcDbLine
 10
408.88437106952
 20
396.3806400941178
 30
0.0
 11
418.4785433634642
 21
422.3806400941178
 31
0.0
  0
LINE
  5
69D
330
1E
100
AcDbEntity
  8
STEMPEL
100
AcDbLine
 10
375.4785433634643
 20
417.3806400941177
 30
0.0
 11
377.4785433634643
 21
417.3806400941177
 31
0.0
  0
ARC
  5
69E
330
1E
100
AcDbEntity
  8
STEMPEL
100
AcDbCircle
 10
375.486183038551
 20
417.3806400941177
 30
0.0
 40
2.0
100
AcDbArc
 50
90.0
 51
175.0
  0
ARC
  5
69F
330
1E
100
AcDbEntity
  8
STEMPEL
100
AcDbCircle
 10
377.4709036883778
 20
417.3806400941177
 30
0.0
 40
2.0
100
AcDbArc
 50
5.000000000000026
 51
90.0
  0
ARC
  5
6A0
330
1E
100
AcDbEntity
  8
STEMPEL
100
AcDbCircle
 10
357.2269053576972
 20
414.3806400941178
 30
0.0
 40
6.0
100
AcDbArc
 50
349.0000000000013
 51
90.0
  0
ARC
  5
6A1
330
1E
100
AcDbEntity
  8
STEMPEL
100
AcDbCircle
 10
380.3832356134774
 20
406.8806400941177
 30
0.0
 40
2.5
100
AcDbArc
 50
9.999999999998609
 51
90.0
  0
ARC
  5
6A2
330
1E
100
AcDbEntity
  8
STEMPEL
100
AcDbCircle
 10
387.1567426258189
 20
394.3806400941178
 30
0.0
 40
2.0
100
AcDbArc
 50
189.9999999999986
 51
270.0
  0
LINE
  5
6A3
330
1E
100
AcDbEntity
  8
STEMPEL
100
AcDbLine
 10
375.4785433634643
 20
394.3806400941178
 30
0.0
 11
377.4785433634643
 21
394.3806400941178
 31
0.0
  0
LINE
  5
6A4
330
1E
100
AcDbEntity
  8
STEMPEL
100
AcDbLine
 10
385.1871271197945
 20
394.033343738784
 30
0.0
 11
382.845254996008
 21
407.314760538285
 31
0.0
  0
ARC
  5
6A5
330
1E
100
AcDbEntity
  8
STEMPEL
100
AcDbCircle
 10
367.4785433634645
 20
406.8510503290312
 30
0.0
 40
2.5
100
AcDbArc
 50
4.756971917894529
 51
169.0000000000013
  0
LINE
  5
6A6
330
1E
100
AcDbEntity
  8
STEMPEL
100
AcDbLine
 10
364.9785433634645
 20
407.091772949525
 30
0.0
 11
364.9785433634645
 21
404.1844876714113
 31
0.0
  0
LINE
  5
6A7
330
1E
100
AcDbEntity
  8
STEMPEL
100
AcDbLine
 10
364.9785433634645
 20
407.091772949525
 30
0.0
 11
366.061550008726
 21
412.6633591357291
 31
0.0
  0
LINE
  5
6A8
330
1E
100
AcDbEntity
  8
STEMPEL
100
AcDbLine
 10
363.9785433634645
 20
407.1880619977226
 30
0.0
 11
365.0799228252786
 21
412.8541681311055
 31
0.0
  0
LINE
  5
6A9
330
1E
100
AcDbEntity
  8
STEMPEL
100
AcDbLine
 10
363.9785433634645
 20
407.1880619977226
 30
0.0
 11
363.9785433634645
 21
403.9165384789801
 31
0.0
  0
LINE
  5
6AA
330
1E
100
AcDbEntity
  8
STEMPEL
100
AcDbLine
 10
361.9785433634645
 20
407.3806400941178
 30
0.0
 11
361.9785433634645
 21
403.3806400941178
 31
0.0
  0
LINE
  5
6AB
330
1E
100
AcDbEntity
  8
STEMPEL
100
AcDbLine
 10
361.9785433634645
 20
403.3806400941178
 30
0.0
 11
369.4840968629296
 21
390.3806400941178
 31
0.0
  0
LINE
  5
6AC
330
1E
100
AcDbEntity
  8
STEMPEL
100
AcDbLine
 10
364.9785433634645
 20
404.1844876714113
 30
0.0
 11
372.0821730742827
 21
391.8806400941178
 31
0.0
  0
LINE
  5
6AD
330
1E
100
AcDbEntity
  8
STEMPEL
100
AcDbLine
 10
363.9785433634645
 20
403.9165384789801
 30
0.0
 11
371.2161476704985
 21
391.3806400941179
 31
0.0
  0
ARC
  5
6AE
330
1E
100
AcDbEntity
  8
STEMPEL
100
AcDbCircle
 10
371.2726911023938
 20
407.1667845695743
 30
0.0
 40
1.307262162693065
100
AcDbArc
 50
184.7569719178945
 51
354.9999719253972
  0
LINE
  5
6AF
330
1E
100
AcDbEntity
  8
STEMPEL
100
AcDbLine
 10
377.4785433634643
 20
394.3806400941178
 30
0.0
 11
377.4785433634643
 21
417.3806400941177
 31
0.0
  0
LINE
  5
6B0
330
1E
100
AcDbEntity
  8
STEMPEL
100
AcDbLine
 10
375.4785433634643
 20
394.3806400941178
 30
0.0
 11
375.4785433634643
 21
417.3806400941177
 31
0.0
  0
ARC
  5
6B1
330
1E
100
AcDbEntity
  8
STEMPEL
100
AcDbCircle
 10
357.2269053576972
 20
414.3806400941178
 30
0.0
 40
9.0
100
AcDbArc
 50
349.0000000000013
 51
90.0
  0
LINE
  5
6B2
330
1E
100
AcDbEntity
  8
STEMPEL
100
AcDbLine
 10
379.4632930845612
 20
417.554951579613
 30
0.0
 11
380.1784526716719
 21
409.3806400941176
 31
0.0
  0
LINE
  5
6B3
330
1E
100
AcDbEntity
  8
STEMPEL
100
AcDbLine
 10
373.4937936423673
 20
417.554951579613
 30
0.0
 11
372.5749787674686
 21
407.0528495029647
 31
0.0
  0
ARC
  5
6B4
330
1E
100
AcDbEntity
  8
STEMPEL
100
AcDbCircle
 10
357.2269053576972
 20
414.3806400941178
 30
0.0
 40
8.0
100
AcDbArc
 50
349.0000000000013
 51
90.0
  0
LINE
  5
6B5
330
1E
100
AcDbEntity
  8
STEMPEL
100
AcDbLine
 10
361.9785433634645
 20
407.3806400941178
 30
0.0
 11
363.1166684583832
 21
413.2357861218586
 31
0.0
  0
LINE
  5
6B6
330
1E
100
AcDbEntity
  8
STEMPEL
100
AcDbLine
 10
380.9785433634642
 20
390.3806400941178
 30
0.0
 11
408.88437106952
 21
390.3806400941178
 31
0.0
  0
LINE
  5
6B7
330
1E
100
AcDbEntity
  8
STEMPEL
100
AcDbLine
 10
387.1567426258189
 20
392.3806400941178
 30
0.0
 11
408.88437106952
 21
392.3806400941178
 31
0.0
  0
LINE
  5
6B8
330
1E
100
AcDbEntity
  8
STEMPEL
100
AcDbLine
 10
375.486183038551
 20
419.3806400941177
 30
0.0
 11
417.3715234833942
 21
419.3806400941189
 31
0.0
  0
LINE
  5
6B9
330
1E
100
AcDbEntity
  8
STEMPEL
100
AcDbLine
 10
380.1784526716719
 20
409.3806400941176
 30
0.0
 11
413.6814572164921
 21
409.3806400941178
 31
0.0
  0
LINE
  5
6BA
330
1E
100
AcDbEntity
  8
STEMPEL
100
AcDbLine
 10
297.9785433634642
 20
420.3806400941178
 30
0.0
 11
298.3527675792442
 21
418.4159629612727
 31
0.0
  0
LINE
  5
6BB
330
1E
100
AcDbEntity
  8
STEMPEL
100
AcDbLine
 10
308.6673225266802
 20
420.3806400941178
 30
0.0
 11
298.3527675792442
 21
418.4159629612727
 31
0.0
  0
LINE
  5
6BC
330
1E
100
AcDbEntity
  8
STEMPEL
100
AcDbLine
 10
308.4785433634642
 20
422.3806400941178
 30
0.0
 11
297.9785433634642
 21
420.3806400941178
 31
0.0
  0
LINE
  5
6BD
330
1E
100
AcDbEntity
  8
STEMPEL
100
AcDbLine
 10
298.3527675792442
 20
418.4159629612727
 30
0.0
 11
361.6671946903664
 21
418.4159629612727
 31
0.0
  0
LINE
  5
6BE
330
1E
100
AcDbEntity
  8
STEMPEL
100
AcDbLine
 10
308.6673225266802
 20
420.3806400941178
 30
0.0
 11
357.2269053576972
 21
420.3806400941178
 31
0.0
  0
LINE
  5
6BF
330
1E
100
AcDbEntity
  8
STEMPEL
100
AcDbLine
 10
385.4785433634643
 20
389.3806400941178
 30
0.0
 11
385.4785433634643
 21
388.3806400941178
 31
0.0
  0
LINE
  5
6C0
330
1E
100
AcDbEntity
  8
STEMPEL
100
AcDbLine
 10
374.8662600761964
 20
386.5314515840992
 30
0.0
 11
372.9785433634642
 21
385.870750734643
 31
0.0
  0
POINT
  5
6C1
330
1E
100
AcDbEntity
  8
DEFPOINTS
  6
ByBlock
 62
     0
100
AcDbPoint
 10
372.8135794703419
 20
387.2357671156399
 30
0.0
  0
POINT
  5
6C2
330
1E
100
AcDbEntity
  8
DEFPOINTS
  6
ByBlock
 62
     0
100
AcDbPoint
 10
372.7873174303211
 20
387.249055368842
 30
0.0
  0
LINE
  5
6C3
330
1E
100
AcDbEntity
  8
STEMPEL
100
AcDbLine
 10
377.9785433634645
 20
388.3806400941178
 30
0.0
 11
377.9785433634645
 21
386.3806400941178
 31
0.0
  0
ARC
  5
6C4
330
1E
100
AcDbEntity
  8
STEMPEL
100
AcDbCircle
 10
366.4785433634643
 20
374.1712934483329
 30
0.0
 40
12.0
100
AcDbArc
 50
0.0
 51
19.29004621918627
  0
ARC
  5
6C5
330
1E
100
AcDbEntity
  8
STEMPEL
100
AcDbCircle
 10
366.4785433634643
 20
374.1712934483329
 30
0.0
 40
10.0
100
AcDbArc
 50
0.0
 51
19.29004621918627
  0
LINE
  5
6C6
330
1E
100
AcDbEntity
  8
STEMPEL
100
AcDbLine
 10
377.8048436398567
 20
378.1354985450702
 30
0.0
 11
374.8662600761964
 21
386.5314515840992
 31
0.0
  0
LINE
  5
6C7
330
1E
100
AcDbEntity
  8
STEMPEL
100
AcDbLine
 10
375.9171269271246
 20
377.474797695614
 30
0.0
 11
372.9785433634642
 21
385.870750734643
 31
0.0
  0
INSERT
  5
6C8
330
1E
100
AcDbEntity
  8
SCHRAFF
100
AcDbBlockReference
  2
*X6
 10
214.0486246116225
 20
-66.02647387621846
 30
0.0
1001
ACAD
1000
HATCH
1002
{
1070
    16
1000
_U,I
1040
0.1
1040
2.356194490192344
1070
     0
1002
}
  0
ARC
  5
6C9
330
1E
100
AcDbEntity
  8
SCHRAFF
100
AcDbCircle
 10
374.8662600761964
 20
386.5314515840992
 30
0.0
 40
5.0
100
AcDbArc
 50
150.6472394648826
 51
265.7118677409858
  0
ARC
  5
6CA
330
1E
100
AcDbEntity
  8
STEMPEL
100
AcDbCircle
 10
384.4785433634643
 20
348.3272004466043
 30
0.0
 40
6.0
100
AcDbArc
 50
180.0
 51
193.4957332807933
  0
ARC
  5
6CB
330
1E
100
AcDbEntity
  8
STEMPEL
100
AcDbCircle
 10
384.4785433634645
 20
348.3272004466044
 30
0.0
 40
8.0
100
AcDbArc
 50
180.0
 51
193.4957332807933
  0
LINE
  5
6CC
330
1E
100
AcDbEntity
  8
STEMPEL
100
AcDbLine
 10
376.4785433634643
 20
374.1712934483329
 30
0.0
 11
376.4785433634645
 21
348.3272004466044
 31
0.0
  0
LINE
  5
6CD
330
1E
100
AcDbEntity
  8
STEMPEL
100
AcDbLine
 10
378.4785433634643
 20
374.1712934483329
 30
0.0
 11
378.4785433634643
 21
348.3272004466043
 31
0.0
  0
LINE
  5
6CE
330
1E
100
AcDbEntity
  8
STEMPEL
100
AcDbLine
 10
376.412300093205
 20
389.3806400941178
 30
0.0
 11
408.8843710695198
 21
389.3806400941178
 31
0.0
  0
LINE
  5
6CF
330
1E
100
AcDbEntity
  8
HILF
100
AcDbLine
 10
380.5921538437289
 20
347.3806400941179
 30
0.0
 11
408.88437106952
 21
347.3806400941177
 31
0.0
  0
LINE
  5
6D0
330
1E
100
AcDbEntity
  8
HILF
100
AcDbLine
 10
380.4785433634643
 20
375.8707507346431
 30
0.0
 11
408.8843710695198
 21
375.8707507346431
 31
0.0
  0
LINE
  5
6D1
330
1E
100
AcDbEntity
  8
STEMPEL
100
AcDbLine
 10
376.412300093205
 20
388.3806400941178
 30
0.0
 11
408.8843710695198
 21
388.3806400941178
 31
0.0
  0
LINE
  5
6D2
330
1E
100
AcDbEntity
  8
STEMPEL
100
AcDbLine
 10
376.412300093205
 20
386.3806400941178
 30
0.0
 11
408.8843710695198
 21
386.3806400941178
 31
0.0
  0
LINE
  5
6D3
330
1E
100
AcDbEntity
  8
STEMPEL
100
AcDbLine
 10
388.7857178480611
 20
322.3806400941177
 30
0.0
 11
398.9785433634645
 21
322.3806400941177
 31
0.0
  0
LINE
  5
6D4
330
1E
100
AcDbEntity
  8
STEMPEL
100
AcDbLine
 10
388.7857178480611
 20
324.3806400941178
 30
0.0
 11
408.8843710695198
 21
324.3806400941178
 31
0.0
  0
ARC
  5
6D5
330
1E
100
AcDbEntity
  8
SCHRAFF
100
AcDbCircle
 10
398.9785433634643
 20
322.3806400941177
 30
0.0
 40
3.0
100
AcDbArc
 50
180.0
 51
270.0
  0
ARC
  5
6D6
330
1E
100
AcDbEntity
  8
STEMPEL
100
AcDbCircle
 10
388.7857178480611
 20
330.3806400941177
 30
0.0
 40
8.0
100
AcDbArc
 50
193.4957332807933
 51
270.0
  0
ARC
  5
6D7
330
1E
100
AcDbEntity
  8
STEMPEL
100
AcDbCircle
 10
388.7857178480611
 20
330.3806400941178
 30
0.0
 40
6.0
100
AcDbArc
 50
193.4957332807933
 51
270.0
  0
LINE
  5
6D8
330
1E
100
AcDbEntity
  8
STEMPEL
100
AcDbLine
 10
378.6442195515813
 20
346.9269627317523
 30
0.0
 11
382.951394036178
 21
328.9804023792659
 31
0.0
  0
LINE
  5
6D9
330
1E
100
AcDbEntity
  8
STEMPEL
100
AcDbLine
 10
376.6994449476204
 20
346.4602168268019
 30
0.0
 11
381.0066194322169
 21
328.5136564743151
 31
0.0
  0
INSERT
  5
6DA
330
1E
100
AcDbEntity
  8
SCHRAFF
100
AcDbBlockReference
  2
*X8
 10
214.0486246116225
 20
-66.02647387621846
 30
0.0
1001
ACAD
1000
HATCH
1002
{
1070
    16
1000
NET,I
1040
15.0
1040
0.7853981633974483
1002
}
  0
ARC
  5
6DB
330
1E
100
AcDbEntity
  8
STEMPEL
100
AcDbCircle
 10
376.412300093205
 20
394.3806400941178
 30
0.0
 40
5.0
100
AcDbArc
 50
210.0000000000005
 51
270.0
  0
LINE
  5
6DC
330
1E
100
AcDbEntity
  8
STEMPEL
100
AcDbLine
 10
380.9785433634642
 20
390.3806400941178
 30
0.0
 11
379.2464925558954
 21
389.3806400941178
 31
0.0
  0
ARC
  5
6DD
330
1E
100
AcDbEntity
  8
STEMPEL
100
AcDbCircle
 10
376.412300093205
 20
394.3806400941178
 30
0.0
 40
6.0
100
AcDbArc
 50
210.0000000000005
 51
270.0
  0
ARC
  5
6DE
330
1E
100
AcDbEntity
  8
STEMPEL
100
AcDbCircle
 10
376.412300093205
 20
394.3806400941178
 30
0.0
 40
8.0
100
AcDbArc
 50
210.0000000000005
 51
270.0
  0
LINE
  5
6DF
330
1E
100
AcDbEntity
  8
STEMPEL
100
AcDbLine
 10
408.88437106952
 20
324.3806400941178
 30
0.0
 11
408.88437106952
 21
396.3806400941178
 31
0.0
  0
LINE
  5
6E0
330
1E
100
AcDbEntity
  8
STEMPEL
100
AcDbLine
 10
185.4785433634642
 20
423.3806400941177
 30
0.0
 11
185.4785433634642
 21
422.3806400941177
 31
0.0
  0
LINE
  5
6E1
330
1E
100
AcDbEntity
  8
STEMPEL
100
AcDbLine
 10
185.4785433634642
 20
422.3806400941178
 30
0.0
 11
357.2269053576972
 21
422.3806400941179
 31
0.0
  0
DIMENSION
  5
6E2
330
1E
100
AcDbEntity
  8
BEM
100
AcDbDimension
  2
*D11
 10
287.8504677245666
 20
322.3806400941178
 30
0.0
 11
281.3504677245665
 21
372.3806400941179
 31
0.0
 70
    32
 71
     5
 42
100.0
  3
Standard
100
AcDbAlignedDimension
 13
308.4785433634642
 23
422.3806400941178
 33
0.0
 14
388.7857178480611
 24
322.3806400941177
 34
0.0
 50
90.0
100
AcDbRotatedDimension
1001
ACAD
1000
DSTYLE
1002
{
1070
    40
1040
2.0
1070
    41
1040
3.5
1070
    42
1040
1.0
1070
    43
1040
7.0
1070
    44
1040
1.0
1070
    73
1070
     0
1070
    74
1070
     0
1070
    77
1070
     1
1070
    78
1070
     8
1070
    79
1070
     2
1070
   140
1040
3.5
1070
   141
1040
1.5
1070
   146
1040
0.5142857142857144
1070
   147
1040
1.5
1070
   172
1070
     1
1070
   178
1070
     1
1070
   179
1070
     2
1070
   271
1070
     2
1070
   272
1070
     2
1070
   284
1070
     8
1070
   285
1070
     8
1070
   286
1070
     8
1002
}
  0
INSERT
  5
6E3
330
1E
100
AcDbEntity
  8
SCHRAFF
100
AcDbBlockReference
  2
*X10
 10
0.0
 20
0.0
 30
0.0
1001
ACAD
1000
HATCH
1002
{
1070
    16
1000
NET,I
1040
10.0
1040
0.7853981633974483
1002
}
  0
LINE
  5
6E4
330
1E
100
AcDbEntity
  8
STEMPEL
100
AcDbLine
 10
400.5785433634641
 20
182.4504976027709
 30
0.0
 11
401.4595417387927
 21
172.380640094118
 31
0.0
  0
LINE
  5
6E5
330
1E
100
AcDbEntity
  8
STEMPEL
100
AcDbLine
 10
398.9785433634643
 20
182.380640094118
 30
0.0
 11
399.8534299987237
 21
172.3806400941179
 31
0.0
  0
DIMENSION
  5
6E6
330
1E
100
AcDbEntity
  8
BEM
100
AcDbDimension
  2
*D12
 10
274.2732614357437
 20
422.3806400941178
 30
0.0
 11
267.7732614357436
 21
297.380640094118
 31
0.0
 70
    32
 71
     5
 42
249.9999999999999
  3
Standard
100
AcDbAlignedDimension
 13
399.8534299987237
 23
172.3806400941179
 33
0.0
 14
308.4785433634642
 24
422.3806400941178
 34
0.0
 50
90.0
100
AcDbRotatedDimension
1001
ACAD
1000
DSTYLE
1002
{
1070
    40
1040
2.0
1070
    41
1040
3.5
1070
    42
1040
1.0
1070
    43
1040
7.0
1070
    44
1040
1.0
1070
    73
1070
     0
1070
    74
1070
     0
1070
    77
1070
     1
1070
    78
1070
     8
1070
    79
1070
     2
1070
   140
1040
3.5
1070
   141
1040
1.5
1070
   146
1040
0.5142857142857144
1070
   147
1040
1.5
1070
   172
1070
     1
1070
   178
1070
     1
1070
   179
1070
     2
1070
   271
1070
     2
1070
   272
1070
     2
1070
   284
1070
     8
1070
   285
1070
     8
1070
   286
1070
     8
1002
}
  0
LINE
  5
6E7
330
1E
100
AcDbEntity
  8
STEMPEL
100
AcDbLine
 10
400.5785433634641
 20
324.3806400941178
 30
0.0
 11
400.5785433634641
 21
182.4504976027709
 31
0.0
  0
LINE
  5
6E8
330
1E
100
AcDbEntity
  8
STEMPEL
100
AcDbLine
 10
398.9785433634643
 20
324.3806400941178
 30
0.0
 11
398.9785433634643
 21
182.380640094118
 31
0.0
  0
INSERT
  5
6E9
330
1E
100
AcDbEntity
  8
SCHRAFF
100
AcDbBlockReference
  2
*X3
 10
214.0486246116225
 20
-66.02647387621846
 30
0.0
1001
ACAD
1000
HATCH
1002
{
1070
    16
1000
_U,I
1040
2.0
1040
0.7853981633974483
1070
     0
1002
}
  0
DIMENSION
  5
6EA
330
1E
100
AcDbEntity
  8
BEM
100
AcDbDimension
  2
*D13
 10
471.9785433634642
 20
151.4228894653308
 30
0.0
 11
435.4785433634642
 21
157.9228894653308
 31
0.0
 70
    32
  1
%%C<>
 71
     5
 42
73.0
  3
Standard
100
AcDbAlignedDimension
 13
398.9785433634643
 23
182.380640094118
 33
0.0
 14
471.9785433634642
 24
182.3806400941179
 34
0.0
100
AcDbRotatedDimension
1001
ACAD
1000
DSTYLE
1002
{
1070
    40
1040
2.0
1070
    41
1040
3.5
1070
    42
1040
1.0
1070
    43
1040
7.0
1070
    44
1040
1.0
1070
    73
1070
     0
1070
    74
1070
     0
1070
    77
1070
     1
1070
    78
1070
     8
1070
    79
1070
     2
1070
   140
1040
3.5
1070
   141
1040
1.5
1070
   146
1040
0.5142857142857144
1070
   147
1040
1.5
1070
   172
1070
     1
1070
   178
1070
     1
1070
   179
1070
     2
1070
   271
1070
     2
1070
   272
1070
     2
1070
   284
1070
     8
1070
   285
1070
     8
1070
   286
1070
     8
1002
}
  0
LINE
  5
6EB
330
1E
100
AcDbEntity
  8
HILF
100
AcDbLine
 10
402.1907668436028
 20
182.3806400941181
 30
0.0
 11
468.7663198833254
 21
182.3806400941178
 31
0.0
  0
LINE
  5
6EC
330
1E
100
AcDbEntity
  8
STEMPEL
100
AcDbLine
 10
399.8534299987237
 20
172.3806400941179
 30
0.0
 11
471.1036567282048
 21
172.3806400941179
 31
0.0
  0
LINE
  5
6ED
330
1E
100
AcDbEntity
  8
STEMPEL
100
AcDbLine
 10
185.4785433634642
 20
423.3806400941177
 30
0.0
 11
685.4785433634642
 21
423.3806400941181
 31
0.0
  0
INSERT
  5
6EE
330
1E
100
AcDbEntity
  8
SCHRAFF
100
AcDbBlockReference
  2
*X7
 10
-336.4662531470522
 20
298.4257880996493
 30
0.0
1001
ACAD
1000
HATCH
1002
{
1070
    16
1000
_U,I
1040
1.0
1040
0.7853981633974483
1070
     0
1002
}
  0
INSERT
  5
6EF
330
1E
100
AcDbEntity
  8
SCHRAFF
100
AcDbBlockReference
  2
*X5
 10
214.0486246116225
 20
-66.02647387621846
 30
0.0
1001
ACAD
1000
HATCH
1002
{
1070
    16
1000
_U,I
1040
2.0
1040
2.356194490192344
1070
     0
1002
}
  0
INSERT
  5
6F0
330
1E
100
AcDbEntity
  8
SCHRAFF
100
AcDbBlockReference
  2
*X4
 10
214.0486246116225
 20
-66.02647387621846
 30
0.0
1001
ACAD
1000
HATCH
1002
{
1070
    16
1000
_U,I
1040
2.0
1040
0.7853981633974483
1070
     0
1002
}
  0
DIMENSION
  5
6F1
330
1E
100
AcDbEntity
  8
BEM
100
AcDbDimension
  2
*D14
 10
572.9785433634642
 20
435.3722233438871
 30
0.0
 11
435.4785433634642
 21
441.8722233438871
 31
0.0
 70
    32
  1
%%c<>
 71
     5
 42
275.0
  3
Standard
100
AcDbAlignedDimension
 13
297.9785433634642
 23
420.3806400941178
 33
0.0
 14
572.9785433634642
 24
420.3806400941178
 34
0.0
100
AcDbRotatedDimension
1001
ACAD
1000
DSTYLE
1002
{
1070
    40
1040
2.0
1070
    41
1040
3.5
1070
    42
1040
1.0
1070
    43
1040
7.0
1070
    44
1040
1.0
1070
    73
1070
     0
1070
    74
1070
     0
1070
    77
1070
     1
1070
    78
1070
     8
1070
    79
1070
     2
1070
   140
1040
3.5
1070
   141
1040
1.5
1070
   146
1040
0.5142857142857144
1070
   147
1040
1.5
1070
   172
1070
     1
1070
   178
1070
     1
1070
   179
1070
     2
1070
   271
1070
     2
1070
   272
1070
     2
1070
   284
1070
     8
1070
   285
1070
     8
1070
   286
1070
     8
1002
}
  0
INSERT
  5
6F2
330
1E
100
AcDbEntity
  8
SCHRAFF
100
AcDbBlockReference
  2
*X2
 10
214.0486246116225
 20
-66.02647387621846
 30
0.0
1001
ACAD
1000
HATCH
1002
{
1070
    16
1000
_U,I
1040
0.1
1040
0.0
1070
     0
1002
}
  0
LINE
  5
6F3
330
1E
100
AcDbEntity
  8
STEMPEL
100
AcDbLine
 10
418.4785433634642
 20
422.3806400941179
 30
0.0
 11
452.4785433634642
 21
422.3806400941179
 31
0.0
  0
LINE
  5
6F4
330
1E
100
AcDbEntity
  8
HILF
100
AcDbLine
 10
453.66351354896
 20
414.0945678512363
 30
0.0
 11
417.2935731779682
 21
414.0945678512363
 31
0.0
  0
LINE
  5
6F5
330
1E
100
AcDbEntity
  8
HILF
100
AcDbLine
 10
452.7830131452097
 20
417.3806400941178
 30
0.0
 11
418.1740735817186
 21
417.3806400941178
 31
0.0
  0
DIMENSION
  5
6F6
330
1E
100
AcDbEntity
  8
BEM
100
AcDbDimension
  2
*D15
 10
685.4785433634642
 20
451.4843981361577
 30
0.0
 11
440.1020744917785
 21
451.4843981361577
 31
0.0
 70
   160
 71
     5
 42
500.0
  3
Standard
100
AcDbAlignedDimension
 13
185.4785433634642
 23
423.3806400941177
 33
0.0
 14
685.4785433634642
 24
423.3806400941181
 34
0.0
100
AcDbRotatedDimension
1001
ACAD
1000
DSTYLE
1002
{
1070
    40
1040
2.0
1070
    41
1040
3.5
1070
    42
1040
1.0
1070
    43
1040
7.0
1070
    44
1040
1.0
1070
    73
1070
     0
1070
    74
1070
     0
1070
    77
1070
     1
1070
    78
1070
     8
1070
    79
1070
     2
1070
   140
1040
3.5
1070
   141
1040
1.5
1070
   146
1040
0.5142857142857144
1070
   147
1040
1.5
1070
   172
1070
     1
1070
   178
1070
     1
1070
   179
1070
     2
1070
   271
1070
     2
1070
   272
1070
     2
1070
   284
1070
     8
1070
   285
1070
     8
1070
   286
1070
     8
1002
}
  0
TEXT
  5
7E0
330
1E
100
AcDbEntity
  8
TEXT
100
AcDbText
 10
612.2898419893276
 20
89.7113923599058
 30
0.0
 40
4.0
  1
DIN EN1123-2
 41
0.8
  7
GREEKS
 72
     1
 11
629.2803181798038
 21
89.7113923599058
 31
0.0
100
AcDbText
  0
TEXT
  5
7E1
330
1E
100
AcDbEntity
  8
TEXT
 62
     1
100
AcDbText
 10
428.7526248390393
 20
247.0421680200916
 30
0.0
 40
7.0
  1
DN70
 50
90.0
 41
0.8
  7
GREEKS
100
AcDbText
  0
ENDSEC
  0
SECTION
  2
OBJECTS
  0
DICTIONARY
  5
C
330
0
100
AcDbDictionary
281
     1
  3
ACAD_COLOR
350
11A
  3
ACAD_GROUP
350
D
  3
ACAD_LAYOUT
350
19
  3
ACAD_MATERIAL
350
119
  3
ACAD_MLINESTYLE
350
16
  3
ACAD_PLOTSETTINGS
350
18
  3
ACAD_PLOTSTYLENAME
350
E
  3
AcDbVariableDictionary
350
125
  0
DICTIONARY
  5
DB
330
1E
100
AcDbDictionary
280
     1
281
     1
  3
ACAD_LAYOUTSELFREF
360
10F
  0
DICTIONARY
  5
DD
330
1A
100
AcDbDictionary
280
     1
281
     1
  3
ACAD_LAYOUTSELFREF
360
10E
  0
DICTIONARY
  5
11A
102
{ACAD_REACTORS
330
C
102
}
330
C
100
AcDbDictionary
281
     1
  0
DICTIONARY
  5
D
102
{ACAD_REACTORS
330
C
102
}
330
C
100
AcDbDictionary
281
     1
  0
DICTIONARY
  5
19
102
{ACAD_REACTORS
330
C
102
}
330
C
100
AcDbDictionary
281
     1
  3
Layout1
350
1D
  3
Model
350
21
  0
DICTIONARY
  5
119
102
{ACAD_REACTORS
330
C
102
}
330
C
100
AcDbDictionary
281
     1
  0
DICTIONARY
  5
16
102
{ACAD_REACTORS
330
C
102
}
330
C
100
AcDbDictionary
281
     1
  3
Standard
350
17
  0
DICTIONARY
  5
18
102
{ACAD_REACTORS
330
C
102
}
330
C
100
AcDbDictionary
281
     1
  0
ACDBDICTIONARYWDFLT
  5
E
102
{ACAD_REACTORS
330
C
102
}
330
C
100
AcDbDictionary
281
     1
  3
Normal
350
F
100
AcDbDictionaryWithDefault
340
F
  0
DICTIONARY
  5
125
102
{ACAD_REACTORS
330
C
102
}
330
C
100
AcDbDictionary
281
     1
  3
DIMASSOC
350
126
  3
PROJECTNAME
350
127
  0
XRECORD
  5
10F
102
{ACAD_REACTORS
330
DB
102
}
330
DB
100
AcDbXrecord
280
     1
340
1E
  0
XRECORD
  5
10E
102
{ACAD_REACTORS
330
DD
102
}
330
DD
100
AcDbXrecord
280
     1
340
1A
  0
LAYOUT
  5
1D
102
{ACAD_REACTORS
330
19
102
}
330
19
100
AcDbPlotSettings
  1

  2
\\NT_WORK01\HP LaserJet 5000 PCL 6
  4

  6

 40
0.0
 41
0.0
 42
0.0
 43
0.0
 44
0.0
 45
0.0
 46
0.0
 47
0.0
 48
0.0
 49
0.0
140
0.0
141
0.0
142
1.0
143
1.0
 70
   688
 72
     0
 73
     0
 74
     5
  7

 75
    16
147
1.0
 76
     0
 77
     2
 78
   300
148
0.0
149
0.0
100
AcDbLayout
  1
Layout1
 70
     0
 71
     1
 10
0.0
 20
0.0
 11
12.0
 21
9.0
 12
0.0
 22
0.0
 32
0.0
 14
1.000000000000000E+20
 24
1.000000000000000E+20
 34
1.000000000000000E+20
 15
-1.000000000000000E+20
 25
-1.000000000000000E+20
 35
-1.000000000000000E+20
146
0.0
 13
0.0
 23
0.0
 33
0.0
 16
1.0
 26
0.0
 36
0.0
 17
0.0
 27
1.0
 37
0.0
 76
     0
330
1A
  0
LAYOUT
  5
21
102
{ACAD_REACTORS
330
19
102
}
330
19
100
AcDbPlotSettings
  1

  2
none_device
  4
Letter_(8.50_x_11.00_Inches)
  6

 40
6.349999904632568
 41
6.349999904632568
 42
6.350006103515625
 43
6.350006103515625
 44
215.8999938964844
 45
279.3999938964844
 46
0.0
 47
0.0
 48
0.0
 49
0.0
140
0.0
141
0.0
142
1.0
143
1.0
 70
 11952
 72
     0
 73
     1
 74
     0
  7

 75
     0
147
1.0
 76
     0
 77
     2
 78
   300
148
-2639.46322524955
149
484.8496772018664
100
AcDbLayout
  1
Model
 70
     1
 71
     0
 10
0.0
 20
0.0
 11
12.0
 21
9.0
 12
0.0
 22
0.0
 32
0.0
 14
0.0
 24
0.0
 34
0.0
 15
0.0
 25
0.0
 35
0.0
146
0.0
 13
0.0
 23
0.0
 33
0.0
 16
1.0
 26
0.0
 36
0.0
 17
0.0
 27
1.0
 37
0.0
 76
     0
330
1E
  0
MLINESTYLE
  5
17
102
{ACAD_REACTORS
330
16
102
}
330
16
100
AcDbMlineStyle
  2
STANDARD
 70
     0
  3

 62
   256
 51
90.0
 52
90.0
 71
     2
 49
0.5
 62
   256
  6
BYLAYER
 49
-0.5
 62
   256
  6
BYLAYER
  0
ACDBPLACEHOLDER
  5
F
102
{ACAD_REACTORS
330
E
102
}
330
E
  0
DICTIONARYVAR
  5
126
102
{ACAD_REACTORS
330
125
102
}
330
125
100
DictionaryVariables
280
     0
  1
1
  0
DICTIONARYVAR
  5
127
102
{ACAD_REACTORS
330
125
102
}
330
125
100
DictionaryVariables
280
     0
  1

  0
ENDSEC
  0
EOF
