  0
SECTION
  2
HEADER
  9
$ACADVER
  1
AC1018
  9
$ACADMAINTVER
 70
     2
  9
$DWGCODEPAGE
  3
ANSI_1252
  9
$INSBASE
 10
0.0
 20
0.0
 30
0.0
  9
$EXTMIN
 10
-0.0064082024694017
 20
-0.0090630292066862
 30
-0.0015258207003583
  9
$EXTMAX
 10
210.006409180358
 20
297.0090644122208
 30
0.0000000349246037
  9
$LIMMIN
 10
0.0
 20
0.0
  9
$LIMMAX
 10
210.0
 20
297.0
  9
$ORTHOMODE
 70
     0
  9
$REGENMODE
 70
     1
  9
$FILLMODE
 70
     1
  9
$QTEXTMODE
 70
     0
  9
$MIRRTEXT
 70
     1
  9
$LTSCALE
 40
10.0
  9
$ATTMODE
 70
     1
  9
$TEXTSIZE
 40
3.5
  9
$TRACEWID
 40
1.0
  9
$TEXTSTYLE
  7
STANDARD
  9
$CLAYER
  8
BEM
  9
$CELTYPE
  6
ByLayer
  9
$CECOLOR
 62
   256
  9
$CELTSCALE
 40
1.0
  9
$DISPSILH
 70
     0
  9
$DIMSCALE
 40
1.0
  9
$DIMASZ
 40
3.5
  9
$DIMEXO
 40
1.0
  9
$DIMDLI
 40
7.0
  9
$DIMRND
 40
0.0
  9
$DIMDLE
 40
0.0
  9
$DIMEXE
 40
1.0
  9
$DIMTP
 40
0.0
  9
$DIMTM
 40
0.0
  9
$DIMTXT
 40
3.5
  9
$DIMCEN
 40
1.5
  9
$DIMTSZ
 40
0.0
  9
$DIMTOL
 70
     0
  9
$DIMLIM
 70
     0
  9
$DIMTIH
 70
     0
  9
$DIMTOH
 70
     0
  9
$DIMSE1
 70
     0
  9
$DIMSE2
 70
     0
  9
$DIMTAD
 70
     1
  9
$DIMZIN
 70
     8
  9
$DIMBLK
  1

  9
$DIMASO
 70
     1
  9
$DIMSHO
 70
     0
  9
$DIMPOST
  1

  9
$DIMAPOST
  1

  9
$DIMALT
 70
     0
  9
$DIMALTD
 70
     2
  9
$DIMALTF
 40
25.4
  9
$DIMLFAC
 40
1.0
  9
$DIMTOFL
 70
     1
  9
$DIMTVP
 40
0.0
  9
$DIMTIX
 70
     0
  9
$DIMSOXD
 70
     0
  9
$DIMSAH
 70
     0
  9
$DIMBLK1
  1

  9
$DIMBLK2
  1

  9
$DIMSTYLE
  2
Standard
  9
$DIMCLRD
 70
     0
  9
$DIMCLRE
 70
     0
  9
$DIMCLRT
 70
     1
  9
$DIMTFAC
 40
0.5
  9
$DIMGAP
 40
1.5
  9
$DIMJUST
 70
     0
  9
$DIMSD1
 70
     0
  9
$DIMSD2
 70
     0
  9
$DIMTOLJ
 70
     1
  9
$DIMTZIN
 70
     8
  9
$DIMALTZ
 70
     8
  9
$DIMALTTZ
 70
     8
  9
$DIMUPT
 70
     0
  9
$DIMDEC
 70
     2
  9
$DIMTDEC
 70
     2
  9
$DIMALTU
 70
     2
  9
$DIMALTTD
 70
     2
  9
$DIMTXSTY
  7
STANDARD
  9
$DIMAUNIT
 70
     0
  9
$DIMADEC
 70
     2
  9
$DIMALTRND
 40
0.0
  9
$DIMAZIN
 70
     2
  9
$DIMDSEP
 70
    46
  9
$DIMATFIT
 70
     3
  9
$DIMFRAC
 70
     0
  9
$DIMLDRBLK
  1

  9
$DIMLUNIT
 70
     2
  9
$DIMLWD
 70
    -2
  9
$DIMLWE
 70
    -2
  9
$DIMTMOVE
 70
     0
  9
$LUNITS
 70
     2
  9
$LUPREC
 70
     2
  9
$SKETCHINC
 40
1.0
  9
$FILLETRAD
 40
0.0
  9
$AUNITS
 70
     0
  9
$AUPREC
 70
     0
  9
$MENU
  1
ACAD
  9
$ELEVATION
 40
0.0
  9
$PELEVATION
 40
0.0
  9
$THICKNESS
 40
0.0
  9
$LIMCHECK
 70
     0
  9
$CHAMFERA
 40
0.0
  9
$CHAMFERB
 40
0.0
  9
$CHAMFERC
 40
0.0
  9
$CHAMFERD
 40
0.0
  9
$SKPOLY
 70
     0
  9
$TDCREATE
 40
2455397.867059838
  9
$TDUCREATE
 40
2455397.783726505
  9
$TDUPDATE
 40
2455461.604561215
  9
$TDUUPDATE
 40
2455461.521227882
  9
$TDINDWG
 40
0.0752191898
  9
$TDUSRTIMER
 40
0.0752191898
  9
$USRTIMER
 70
     1
  9
$ANGBASE
 50
0.0
  9
$ANGDIR
 70
     0
  9
$PDMODE
 70
     0
  9
$PDSIZE
 40
0.0
  9
$PLINEWID
 40
0.0
  9
$SPLFRAME
 70
     0
  9
$SPLINETYPE
 70
     6
  9
$SPLINESEGS
 70
     8
  9
$HANDSEED
  5
E9A
  9
$SURFTAB1
 70
     6
  9
$SURFTAB2
 70
     6
  9
$SURFTYPE
 70
     6
  9
$SURFU
 70
     6
  9
$SURFV
 70
     6
  9
$UCSBASE
  2

  9
$UCSNAME
  2

  9
$UCSORG
 10
0.0
 20
0.0
 30
0.0
  9
$UCSXDIR
 10
1.0
 20
0.0
 30
0.0
  9
$UCSYDIR
 10
0.0
 20
1.0
 30
0.0
  9
$UCSORTHOREF
  2

  9
$UCSORTHOVIEW
 70
     0
  9
$UCSORGTOP
 10
0.0
 20
0.0
 30
0.0
  9
$UCSORGBOTTOM
 10
0.0
 20
0.0
 30
0.0
  9
$UCSORGLEFT
 10
0.0
 20
0.0
 30
0.0
  9
$UCSORGRIGHT
 10
0.0
 20
0.0
 30
0.0
  9
$UCSORGFRONT
 10
0.0
 20
0.0
 30
0.0
  9
$UCSORGBACK
 10
0.0
 20
0.0
 30
0.0
  9
$PUCSBASE
  2

  9
$PUCSNAME
  2

  9
$PUCSORG
 10
0.0
 20
0.0
 30
0.0
  9
$PUCSXDIR
 10
1.0
 20
0.0
 30
0.0
  9
$PUCSYDIR
 10
0.0
 20
1.0
 30
0.0
  9
$PUCSORTHOREF
  2

  9
$PUCSORTHOVIEW
 70
     0
  9
$PUCSORGTOP
 10
0.0
 20
0.0
 30
0.0
  9
$PUCSORGBOTTOM
 10
0.0
 20
0.0
 30
0.0
  9
$PUCSORGLEFT
 10
0.0
 20
0.0
 30
0.0
  9
$PUCSORGRIGHT
 10
0.0
 20
0.0
 30
0.0
  9
$PUCSORGFRONT
 10
0.0
 20
0.0
 30
0.0
  9
$PUCSORGBACK
 10
0.0
 20
0.0
 30
0.0
  9
$USERI1
 70
     0
  9
$USERI2
 70
     0
  9
$USERI3
 70
     0
  9
$USERI4
 70
     0
  9
$USERI5
 70
     0
  9
$USERR1
 40
0.0
  9
$USERR2
 40
0.0
  9
$USERR3
 40
0.0
  9
$USERR4
 40
0.0
  9
$USERR5
 40
0.0
  9
$WORLDVIEW
 70
     1
  9
$SHADEDGE
 70
     3
  9
$SHADEDIF
 70
    70
  9
$TILEMODE
 70
     1
  9
$MAXACTVP
 70
    16
  9
$PINSBASE
 10
0.0
 20
0.0
 30
0.0
  9
$PLIMCHECK
 70
     0
  9
$PEXTMIN
 10
1.000000000000000E+20
 20
1.000000000000000E+20
 30
1.000000000000000E+20
  9
$PEXTMAX
 10
-1.000000000000000E+20
 20
-1.000000000000000E+20
 30
-1.000000000000000E+20
  9
$PLIMMIN
 10
0.0
 20
0.0
  9
$PLIMMAX
 10
12.0
 20
9.0
  9
$UNITMODE
 70
     0
  9
$VISRETAIN
 70
     0
  9
$PLINEGEN
 70
     0
  9
$PSLTSCALE
 70
     0
  9
$TREEDEPTH
 70
  3020
  9
$CMLSTYLE
  2
Standard
  9
$CMLJUST
 70
     0
  9
$CMLSCALE
 40
1.0
  9
$PROXYGRAPHICS
 70
     1
  9
$MEASUREMENT
 70
     0
  9
$CELWEIGHT
370
    -1
  9
$ENDCAPS
280
     0
  9
$JOINSTYLE
280
     0
  9
$LWDISPLAY
290
     0
  9
$INSUNITS
 70
     0
  9
$HYPERLINKBASE
  1

  9
$STYLESHEET
  1
monochrome 1.ctb
  9
$XEDIT
290
     1
  9
$CEPSNTYPE
380
     0
  9
$PSTYLEMODE
290
     1
  9
$FINGERPRINTGUID
  2
{D68B0D0D-A558-11D7-B632-000102183313}
  9
$VERSIONGUID
  2
{363D454B-261F-4A19-AA84-B9C56BB38216}
  9
$EXTNAMES
290
     1
  9
$PSVPSCALE
 40
0.0
  9
$OLESTARTUP
290
     0
  9
$SORTENTS
280
   127
  9
$INDEXCTL
280
     0
  9
$HIDETEXT
280
     0
  9
$XCLIPFRAME
290
     0
  9
$HALOGAP
280
     0
  9
$OBSCOLOR
 70
   257
  9
$OBSLTYPE
280
     0
  9
$INTERSECTIONDISPLAY
280
     0
  9
$INTERSECTIONCOLOR
 70
   257
  9
$DIMASSOC
280
     1
  9
$PROJECTNAME
  1

  0
ENDSEC
  0
SECTION
  2
CLASSES
  0
CLASS
  1
ACDBDICTIONARYWDFLT
  2
AcDbDictionaryWithDefault
  3
ObjectDBX Classes
 90
        0
 91
        1
280
     0
281
     0
  0
CLASS
  1
DICTIONARYVAR
  2
AcDbDictionaryVar
  3
ObjectDBX Classes
 90
        0
 91
        2
280
     0
281
     0
  0
ENDSEC
  0
SECTION
  2
TABLES
  0
TABLE
  2
VPORT
  5
8
330
0
100
AcDbSymbolTable
 70
     2
  0
VPORT
  5
E99
330
8
100
AcDbSymbolTableRecord
100
AcDbViewportTableRecord
  2
*Active
 70
     0
 10
0.0
 20
0.0
 11
1.0
 21
1.0
 12
105.0000004889443
 22
148.500000691507
 13
0.0
 23
0.0
 14
1.0
 24
1.0
 15
10.0
 25
10.0
 16
0.0
 26
0.0
 36
1.0
 17
0.0
 27
0.0
 37
0.0
 40
299.4166587532021
 41
1.336927223719676
 42
50.0
 43
0.0
 44
0.0
 50
0.0
 51
0.0
 71
     0
 72
  1500
 73
     1
 74
     0
 75
     0
 76
     0
 77
     0
 78
     0
281
     0
 65
     1
110
0.0
120
0.0
130
0.0
111
1.0
121
0.0
131
0.0
112
0.0
122
1.0
132
0.0
 79
     0
146
0.0
  0
ENDTAB
  0
TABLE
  2
LTYPE
  5
5
330
0
100
AcDbSymbolTable
 70
     3
  0
LTYPE
  5
13
330
5
100
AcDbSymbolTableRecord
100
AcDbLinetypeTableRecord
  2
ByBlock
 70
     0
  3

 72
    65
 73
     0
 40
0.0
  0
LTYPE
  5
14
330
5
100
AcDbSymbolTableRecord
100
AcDbLinetypeTableRecord
  2
ByLayer
 70
     0
  3

 72
    65
 73
     0
 40
0.0
  0
LTYPE
  5
15
330
5
100
AcDbSymbolTableRecord
100
AcDbLinetypeTableRecord
  2
Continuous
 70
     0
  3
Solid line
 72
    65
 73
     0
 40
0.0
  0
LTYPE
  5
25
330
5
100
AcDbSymbolTableRecord
100
AcDbLinetypeTableRecord
  2
STRICHPUNKT
 70
     0
  3
__ . __ . __ . __ . __ . __ . __ . __ . __ . __
 72
    65
 73
     4
 40
1.0
 49
0.5
 74
     0
 49
-0.25
 74
     0
 49
0.0
 74
     0
 49
-0.25
 74
     0
  0
LTYPE
  5
34
330
5
100
AcDbSymbolTableRecord
100
AcDbLinetypeTableRecord
  2
AUSGEZOGEN
 70
     0
  3
Ausgezogene Linie
 72
    65
 73
     0
 40
0.0
  0
ENDTAB
  0
TABLE
  2
LAYER
  5
2
330
0
100
AcDbSymbolTable
 70
     9
  0
LAYER
  5
10
330
2
100
AcDbSymbolTableRecord
100
AcDbLayerTableRecord
  2
0
 70
     0
 62
     7
  6
Continuous
370
    -3
390
F
  0
LAYER
  5
2B
330
2
100
AcDbSymbolTableRecord
100
AcDbLayerTableRecord
  2
VOLL
 70
     0
 62
     1
  6
Continuous
370
    -3
390
F
  0
LAYER
  5
2C
330
2
100
AcDbSymbolTableRecord
100
AcDbLayerTableRecord
  2
HILF
 70
     0
 62
     2
  6
Continuous
370
    -3
390
F
  0
LAYER
  5
2D
330
2
100
AcDbSymbolTableRecord
100
AcDbLayerTableRecord
  2
MITTEL
 70
     0
 62
     2
  6
STRICHPUNKT
370
    -3
390
F
  0
LAYER
  5
2F
330
2
100
AcDbSymbolTableRecord
100
AcDbLayerTableRecord
  2
BEM
 70
     0
 62
     7
  6
Continuous
370
    -3
390
F
  0
LAYER
  5
30
330
2
100
AcDbSymbolTableRecord
100
AcDbLayerTableRecord
  2
STEMPEL
 70
     0
 62
     3
  6
Continuous
370
    -3
390
F
  0
LAYER
  5
33
330
2
100
AcDbSymbolTableRecord
100
AcDbLayerTableRecord
  2
TEXT
 70
     0
 62
     7
  6
Continuous
370
    -3
390
F
  0
LAYER
  5
261
330
2
100
AcDbSymbolTableRecord
100
AcDbLayerTableRecord
  2
DEFPOINTS
 70
     0
 62
     7
  6
AUSGEZOGEN
290
     0
370
    -3
390
F
  0
LAYER
  5
262
330
2
100
AcDbSymbolTableRecord
100
AcDbLayerTableRecord
  2
SCHRAFF
 70
     0
 62
     7
  6
AUSGEZOGEN
370
    -3
390
F
  0
ENDTAB
  0
TABLE
  2
STYLE
  5
3
330
0
100
AcDbSymbolTable
 70
     2
  0
STYLE
  5
11
330
3
100
AcDbSymbolTableRecord
100
AcDbTextStyleTableRecord
  2
STANDARD
 70
     0
 40
0.0
 41
0.8
 50
0.0
 71
     0
 42
3.5
  3
simplex.shx
  4

  0
STYLE
  5
24
330
3
100
AcDbSymbolTableRecord
100
AcDbTextStyleTableRecord
  2
GREEKS
 70
     0
 40
0.0
 41
0.8
 50
0.0
 71
     0
 42
2.5
  3
SIMPLEX.shx
  4

  0
ENDTAB
  0
TABLE
  2
VIEW
  5
6
330
0
100
AcDbSymbolTable
 70
     0
  0
ENDTAB
  0
TABLE
  2
UCS
  5
7
330
0
100
AcDbSymbolTable
 70
     0
  0
ENDTAB
  0
TABLE
  2
APPID
  5
9
330
0
100
AcDbSymbolTable
 70
     1
  0
APPID
  5
12
330
9
100
AcDbSymbolTableRecord
100
AcDbRegAppTableRecord
  2
ACAD
 70
     0
  0
ENDTAB
  0
TABLE
  2
DIMSTYLE
  5
A
330
0
100
AcDbSymbolTable
 70
     1
100
AcDbDimStyleTable
 71
     1
340
A2
  0
DIMSTYLE
105
A2
102
{ACAD_REACTORS
330
E5F
330
E6C
102
}
330
A
100
AcDbSymbolTableRecord
100
AcDbDimStyleTableRecord
  2
Standard
 70
     0
340
11
  0
ENDTAB
  0
TABLE
  2
BLOCK_RECORD
  5
1
330
0
100
AcDbSymbolTable
 70
     3
  0
BLOCK_RECORD
  5
1E
102
{ACAD_XDICTIONARY
360
DB
102
}
330
1
100
AcDbSymbolTableRecord
100
AcDbBlockTableRecord
  2
*Model_Space
340
21
  0
BLOCK_RECORD
  5
1A
102
{ACAD_XDICTIONARY
360
DD
102
}
330
1
100
AcDbSymbolTableRecord
100
AcDbBlockTableRecord
  2
*Paper_Space
340
1D
  0
BLOCK_RECORD
  5
22
330
1
100
AcDbSymbolTableRecord
100
AcDbBlockTableRecord
  2
LOGO
340
0
102
{BLKREFS
331
A6A
102
}
  0
BLOCK_RECORD
  5
E60
330
1
100
AcDbSymbolTableRecord
100
AcDbBlockTableRecord
  2
*D1
340
0
  0
BLOCK_RECORD
  5
E6D
330
1
100
AcDbSymbolTableRecord
100
AcDbBlockTableRecord
  2
*D2
340
0
  0
ENDTAB
  0
ENDSEC
  0
SECTION
  2
BLOCKS
  0
BLOCK
  5
37
330
1E
100
AcDbEntity
  8
0
100
AcDbBlockBegin
  2
*Model_Space
 70
     0
 10
0.0
 20
0.0
 30
0.0
  3
*Model_Space
  1

  0
ENDBLK
  5
38
330
1E
100
AcDbEntity
  8
0
100
AcDbBlockEnd
  0
BLOCK
  5
35
330
1A
100
AcDbEntity
 67
     1
  8
0
100
AcDbBlockBegin
  2
*Paper_Space
 70
     0
 10
0.0
 20
0.0
 30
0.0
  3
*Paper_Space
  1

  0
ENDBLK
  5
36
330
1A
100
AcDbEntity
 67
     1
  8
0
100
AcDbBlockEnd
  0
BLOCK
  5
39
330
22
100
AcDbEntity
  8
0
100
AcDbBlockBegin
  2
LOGO
 70
     0
 10
0.0
 20
0.0
 30
0.0
  3
LOGO
  1

  0
ARC
  5
3A
330
22
100
AcDbEntity
  8
0
100
AcDbCircle
 10
11.59973089678112
 20
-9.271599258481501
 30
0.0
 40
4.5
100
AcDbArc
 50
270.0
 51
231.0575587310159
  0
LINE
  5
3B
330
22
100
AcDbEntity
  8
0
100
AcDbLine
 10
3.599730896781125
 20
-4.771599258481529
 30
0.0
 11
3.599730896781153
 21
-11.77159925848133
 31
0.0
  0
LINE
  5
3C
330
22
100
AcDbEntity
  8
0
100
AcDbLine
 10
2.599730896781125
 20
-4.771599258481529
 30
0.0
 11
2.599730896781153
 21
-11.77159925848133
 31
0.0
  0
CIRCLE
  5
3D
330
22
100
AcDbEntity
  8
0
100
AcDbCircle
 10
11.59973089678112
 20
-9.271599258481501
 30
0.0
 40
3.5
  0
ARC
  5
3E
330
22
100
AcDbEntity
  8
0
100
AcDbCircle
 10
31.59973089678115
 20
-9.271599258481472
 30
0.0
 40
4.5
100
AcDbArc
 50
270.0
 51
231.0575587310182
  0
LINE
  5
3F
330
22
100
AcDbEntity
  8
0
100
AcDbLine
 10
17.59973089678112
 20
-4.771599258481472
 30
0.0
 11
17.59973089678115
 21
-13.77159925848147
 31
0.0
  0
ARC
  5
40
330
22
100
AcDbEntity
  8
0
100
AcDbCircle
 10
22.59973089678116
 20
-7.271599258481472
 30
0.0
 40
2.5
100
AcDbArc
 50
293.1161887722295
 51
90.0
  0
CIRCLE
  5
41
330
22
100
AcDbEntity
  8
0
100
AcDbCircle
 10
31.59973089678115
 20
-9.271599258481472
 30
0.0
 40
3.5
  0
ARC
  5
42
330
22
100
AcDbEntity
  8
0
100
AcDbCircle
 10
4.599730896781153
 20
-11.77159925848133
 30
0.0
 40
1.0
100
AcDbArc
 50
180.0
 51
270.0
  0
ARC
  5
43
330
22
100
AcDbEntity
  8
0
100
AcDbCircle
 10
4.599730896781153
 20
-11.77159925848133
 30
0.0
 40
2.0
100
AcDbArc
 50
179.9999999999992
 51
270.0
  0
LINE
  5
44
330
22
100
AcDbEntity
  8
0
100
AcDbLine
 10
11.59973089678115
 20
-13.77159925848144
 30
0.0
 11
4.599730896781153
 21
-13.77159925848147
 31
0.0
  0
LINE
  5
45
330
22
100
AcDbEntity
  8
0
100
AcDbLine
 10
8.771303772034769
 20
-12.77159925848136
 30
0.0
 11
4.599730896781153
 21
-12.77159925848133
 31
0.0
  0
LINE
  5
46
330
22
100
AcDbEntity
  8
0
100
AcDbLine
 10
31.59973089678115
 20
-13.77159925848147
 30
0.0
 11
23.6715276665056
 21
-13.77159925848144
 31
0.0
  0
LINE
  5
47
330
22
100
AcDbEntity
  8
0
100
AcDbLine
 10
23.56565672307022
 20
-9.51278021337896
 30
0.0
 11
24.4388546544846
 21
-12.77159925848144
 31
0.0
  0
LINE
  5
48
330
22
100
AcDbEntity
  8
0
100
AcDbLine
 10
22.59973089678116
 20
-9.771599258481472
 30
0.0
 11
18.59973089678112
 21
-9.771599258481472
 31
0.0
  0
LINE
  5
49
330
22
100
AcDbEntity
  8
0
100
AcDbLine
 10
18.59973089678115
 20
-13.77159925848144
 30
0.0
 11
17.59973089678115
 21
-13.77159925848144
 31
0.0
  0
LINE
  5
4A
330
22
100
AcDbEntity
  8
0
100
AcDbLine
 10
18.59973089678115
 20
-9.771599258481472
 30
0.0
 11
18.59973089678115
 21
-13.77159925848144
 31
0.0
  0
LINE
  5
4B
330
22
100
AcDbEntity
  8
0
100
AcDbLine
 10
22.59973089678116
 20
-9.771599258481472
 30
0.0
 11
23.67152766650562
 21
-13.77159925848147
 31
0.0
  0
ARC
  5
4C
330
22
100
AcDbEntity
  8
0
100
AcDbCircle
 10
22.59973089678116
 20
-7.271599258481472
 30
0.0
 40
2.5
100
AcDbArc
 50
270.0
 51
270.0000000000007
  0
LINE
  5
4D
330
22
100
AcDbEntity
  8
0
100
AcDbLine
 10
28.77130377203494
 20
-12.77159925848147
 30
0.0
 11
24.43885465448463
 21
-12.77159925848144
 31
0.0
  0
LINE
  5
4E
330
22
100
AcDbEntity
  8
0
100
AcDbLine
 10
3.599730896781125
 20
-4.771599258481472
 30
0.0
 11
2.599730896781125
 21
-4.771599258481472
 31
0.0
  0
LINE
  5
4F
330
22
100
AcDbEntity
  8
0
100
AcDbLine
 10
22.59973089678116
 20
-8.771599258481472
 30
0.0
 11
18.59973089678115
 21
-8.771599258481472
 31
0.0
  0
LINE
  5
50
330
22
100
AcDbEntity
  8
0
100
AcDbLine
 10
22.59973089678116
 20
-5.771599258481472
 30
0.0
 11
18.59973089678115
 21
-5.771599258481472
 31
0.0
  0
LINE
  5
51
330
22
100
AcDbEntity
  8
0
100
AcDbLine
 10
22.59973089678116
 20
-4.771599258481472
 30
0.0
 11
17.59973089678115
 21
-4.771599258481472
 31
0.0
  0
LINE
  5
52
330
22
100
AcDbEntity
  8
0
100
AcDbLine
 10
18.59973089678115
 20
-5.771599258481472
 30
0.0
 11
18.59973089678115
 21
-8.771599258481472
 31
0.0
  0
ARC
  5
53
330
22
100
AcDbEntity
  8
0
100
AcDbCircle
 10
22.59973089678116
 20
-7.271599258481472
 30
0.0
 40
1.5
100
AcDbArc
 50
270.0
 51
90.0
  0
ENDBLK
  5
54
330
22
100
AcDbEntity
  8
0
100
AcDbBlockEnd
  0
BLOCK
  5
E6A
330
E60
100
AcDbEntity
  8
0
100
AcDbBlockBegin
  2
*D1
 70
     1
 10
0.0
 20
0.0
 30
0.0
  3
*D1
  1

  0
LINE
  5
E61
330
E60
100
AcDbEntity
  8
BEM
 62
     0
370
    -2
100
AcDbLine
 10
110.291842248799
 20
283.658720579003
 30
0.0
 11
97.66435131468369
 21
283.658720579003
 31
0.0
  0
LINE
  5
E62
330
E60
100
AcDbEntity
  8
BEM
 62
     0
370
    -2
100
AcDbLine
 10
110.2918422487989
 20
253.658720579003
 30
0.0
 11
97.66435131468369
 21
253.658720579003
 31
0.0
  0
LINE
  5
E63
330
E60
100
AcDbEntity
  8
BEM
 62
     0
370
    -2
100
AcDbLine
 10
98.66435131468371
 20
280.158720579003
 30
0.0
 11
98.66435131468371
 21
257.158720579003
 31
0.0
  0
SOLID
  5
E64
330
E60
100
AcDbEntity
  8
BEM
 62
     0
100
AcDbTrace
 10
98.08101798135037
 20
280.158720579003
 30
0.0
 11
99.24768464801703
 21
280.158720579003
 31
0.0
 12
98.66435131468371
 22
283.658720579003
 32
0.0
 13
98.66435131468371
 23
283.658720579003
 33
0.0
  0
SOLID
  5
E65
330
E60
100
AcDbEntity
  8
BEM
 62
     0
100
AcDbTrace
 10
98.08101798135037
 20
257.158720579003
 30
0.0
 11
99.24768464801703
 21
257.158720579003
 31
0.0
 12
98.66435131468371
 22
253.658720579003
 32
0.0
 13
98.66435131468371
 23
253.658720579003
 33
0.0
  0
MTEXT
  5
E66
330
E60
100
AcDbEntity
  8
BEM
 62
     1
100
AcDbMText
 10
95.41435131468366
 20
268.658720579003
 30
0.0
 40
3.5
 41
0.0
 71
     5
 72
     1
  1
\A1;30
 11
0.0000000000000001
 21
1.0
 31
0.0
 73
     1
 44
1.0
  0
POINT
  5
E67
330
E60
100
AcDbEntity
  8
DEFPOINTS
 62
     0
100
AcDbPoint
 10
111.291842248799
 20
283.658720579003
 30
0.0
  0
POINT
  5
E68
330
E60
100
AcDbEntity
  8
DEFPOINTS
 62
     0
100
AcDbPoint
 10
111.291842248799
 20
253.658720579003
 30
0.0
  0
POINT
  5
E69
330
E60
100
AcDbEntity
  8
DEFPOINTS
 62
     0
100
AcDbPoint
 10
98.66435131468371
 20
253.658720579003
 30
0.0
  0
ENDBLK
  5
E6B
330
E60
100
AcDbEntity
  8
0
100
AcDbBlockEnd
  0
BLOCK
  5
E77
330
E6D
100
AcDbEntity
  8
0
100
AcDbBlockBegin
  2
*D2
 70
     1
 10
0.0
 20
0.0
 30
0.0
  3
*D2
  1

  0
LINE
  5
E79
330
E6D
100
AcDbEntity
  8
BEM
 62
     0
370
    -2
100
AcDbLine
 10
22.79184224879896
 20
267.4679345833315
 30
0.0
 11
22.79184224879896
 21
242.1453668913908
 31
0.0
  0
LINE
  5
E7A
330
E6D
100
AcDbEntity
  8
BEM
 62
     0
370
    -2
100
AcDbLine
 10
199.7918422487992
 20
267.4679345833315
 30
0.0
 11
199.7918422487992
 21
242.1453668913908
 31
0.0
  0
LINE
  5
E7B
330
E6D
100
AcDbEntity
  8
BEM
 62
     0
370
    -2
100
AcDbLine
 10
26.29184224879896
 20
243.1453668913909
 30
0.0
 11
196.2918422487992
 21
243.1453668913909
 31
0.0
  0
SOLID
  5
E7C
330
E6D
100
AcDbEntity
  8
BEM
 62
     0
100
AcDbTrace
 10
26.29184224879896
 20
243.7287002247242
 30
0.0
 11
26.29184224879896
 21
242.5620335580575
 31
0.0
 12
22.79184224879896
 22
243.1453668913909
 32
0.0
 13
22.79184224879896
 23
243.1453668913909
 33
0.0
  0
SOLID
  5
E7D
330
E6D
100
AcDbEntity
  8
BEM
 62
     0
100
AcDbTrace
 10
196.2918422487992
 20
243.7287002247242
 30
0.0
 11
196.2918422487992
 21
242.5620335580575
 31
0.0
 12
199.7918422487992
 22
243.1453668913909
 32
0.0
 13
199.7918422487992
 23
243.1453668913909
 33
0.0
  0
MTEXT
  5
E7E
330
E6D
100
AcDbEntity
  8
BEM
 62
     1
100
AcDbMText
 10
111.2918422487991
 20
246.3953668913908
 30
0.0
 40
3.5
 41
0.0
 71
     5
 72
     1
  1
\A1;%%c177
 73
     1
 44
1.0
  0
POINT
  5
E7F
330
E6D
100
AcDbEntity
  8
DEFPOINTS
 62
     0
100
AcDbPoint
 10
22.79184224879896
 20
268.4679345833315
 30
0.0
  0
POINT
  5
E80
330
E6D
100
AcDbEntity
  8
DEFPOINTS
 62
     0
100
AcDbPoint
 10
199.7918422487992
 20
268.4679345833315
 30
0.0
  0
POINT
  5
E81
330
E6D
100
AcDbEntity
  8
DEFPOINTS
 62
     0
100
AcDbPoint
 10
199.7918422487992
 20
243.1453668913909
 30
0.0
  0
ENDBLK
  5
E78
330
E6D
100
AcDbEntity
  8
0
100
AcDbBlockEnd
  0
ENDSEC
  0
SECTION
  2
ENTITIES
  0
LINE
  5
A26
330
1E
100
AcDbEntity
  8
STEMPEL
100
AcDbLine
 10
205.0
 20
55.00000000000003
 30
0.0
 11
19.99999999999998
 21
55.0
 31
0.0
  0
LINE
  5
A27
330
1E
100
AcDbEntity
  8
STEMPEL
100
AcDbLine
 10
68.00000000000006
 20
54.99999999999997
 30
0.0
 11
68.0
 21
4.999999999999985
 31
0.0
  0
LINE
  5
A28
330
1E
100
AcDbEntity
  8
STEMPEL
100
AcDbLine
 10
110.0
 20
55.00000000000003
 30
0.0
 11
110.0
 21
4.999999999999985
 31
0.0
  0
LINE
  5
A29
330
1E
100
AcDbEntity
  8
STEMPEL
100
AcDbLine
 10
166.0
 20
54.99999999999989
 30
0.0
 11
166.0
 21
20.0
 31
0.0
  0
LINE
  5
A2A
330
1E
100
AcDbEntity
  8
STEMPEL
100
AcDbLine
 10
67.99999999999994
 20
14.99999999999998
 30
0.0
 11
19.99999999999998
 21
14.99999999999998
 31
0.0
  0
LINE
  5
A2B
330
1E
100
AcDbEntity
  8
STEMPEL
100
AcDbLine
 10
205.0
 20
20.0
 30
0.0
 11
68.00000000000006
 21
19.99999999999998
 31
0.0
  0
LINE
  5
A2C
330
1E
100
AcDbEntity
  8
STEMPEL
100
AcDbLine
 10
205.0
 20
40.0
 30
0.0
 11
68.00000000000006
 21
39.99999999999997
 31
0.0
  0
LINE
  5
A2D
330
1E
100
AcDbEntity
  8
VOLL
100
AcDbLine
 10
27.00000000000005
 20
55.00000000000003
 30
0.0
 11
26.99999999999999
 21
4.999999999999985
 31
0.0
  0
LINE
  5
A2E
330
1E
100
AcDbEntity
  8
VOLL
100
AcDbLine
 10
47.00000000000005
 20
54.99999999999997
 30
0.0
 11
47.0
 21
4.999999999999985
 31
0.0
  0
LINE
  5
A2F
330
1E
100
AcDbEntity
  8
VOLL
100
AcDbLine
 10
57.00000000000006
 20
54.99999999999997
 30
0.0
 11
57.0
 21
4.999999999999985
 31
0.0
  0
LINE
  5
A30
330
1E
100
AcDbEntity
  8
VOLL
100
AcDbLine
 10
77.00000000000006
 20
39.99999999999997
 30
0.0
 11
77.00000000000006
 21
19.99999999999998
 31
0.0
  0
LINE
  5
A31
330
1E
100
AcDbEntity
  8
VOLL
100
AcDbLine
 10
90.00000000000005
 20
54.99999999999992
 30
0.0
 11
90.0
 21
19.99999999999998
 31
0.0
  0
LINE
  5
A32
330
1E
100
AcDbEntity
  8
HILF
100
AcDbLine
 10
20.00000000000004
 20
50.00000000000003
 30
0.0
 11
68.00000000000006
 21
50.00000000000003
 31
0.0
  0
LINE
  5
A33
330
1E
100
AcDbEntity
  8
HILF
100
AcDbLine
 10
20.00000000000004
 20
45.00000000000002
 30
0.0
 11
68.00000000000006
 21
45.00000000000002
 31
0.0
  0
LINE
  5
A34
330
1E
100
AcDbEntity
  8
HILF
100
AcDbLine
 10
20.00000000000004
 20
39.99999999999997
 30
0.0
 11
68.00000000000006
 21
39.99999999999997
 31
0.0
  0
LINE
  5
A35
330
1E
100
AcDbEntity
  8
HILF
100
AcDbLine
 10
20.00000000000004
 20
34.99999999999997
 30
0.0
 11
68.00000000000006
 21
34.99999999999997
 31
0.0
  0
LINE
  5
A36
330
1E
100
AcDbEntity
  8
HILF
100
AcDbLine
 10
20.00000000000004
 20
29.99999999999999
 30
0.0
 11
68.00000000000006
 21
29.99999999999999
 31
0.0
  0
LINE
  5
A37
330
1E
100
AcDbEntity
  8
HILF
100
AcDbLine
 10
20.00000000000004
 20
24.99999999999999
 30
0.0
 11
68.00000000000006
 21
24.99999999999999
 31
0.0
  0
LINE
  5
A38
330
1E
100
AcDbEntity
  8
HILF
100
AcDbLine
 10
20.00000000000004
 20
19.99999999999998
 30
0.0
 11
68.00000000000006
 21
19.99999999999998
 31
0.0
  0
LINE
  5
A39
330
1E
100
AcDbEntity
  8
HILF
100
AcDbLine
 10
68.00000000000006
 20
34.99999999999997
 30
0.0
 11
110.0
 21
34.99999999999997
 31
0.0
  0
LINE
  5
A3A
330
1E
100
AcDbEntity
  8
HILF
100
AcDbLine
 10
68.00000000000006
 20
29.99999999999999
 30
0.0
 11
110.0
 21
29.99999999999999
 31
0.0
  0
LINE
  5
A3B
330
1E
100
AcDbEntity
  8
HILF
100
AcDbLine
 10
68.00000000000006
 20
24.99999999999999
 30
0.0
 11
110.0
 21
24.99999999999999
 31
0.0
  0
LINE
  5
A3C
330
1E
100
AcDbEntity
  8
HILF
100
AcDbLine
 10
112.3868400548474
 20
42.01879123782069
 30
0.0
 11
162.4176958278155
 21
42.01879123782069
 31
0.0
  0
LINE
  5
A3D
330
1E
100
AcDbEntity
  8
HILF
100
AcDbLine
 10
112.3868400548474
 20
34.99999999999997
 30
0.0
 11
162.4176958278155
 21
34.99999999999997
 31
0.0
  0
LINE
  5
A3E
330
1E
100
AcDbEntity
  8
HILF
100
AcDbLine
 10
112.3868400548474
 20
29.99999999999999
 30
0.0
 11
162.4176958278155
 21
29.99999999999999
 31
0.0
  0
LINE
  5
A3F
330
1E
100
AcDbEntity
  8
HILF
100
AcDbLine
 10
112.3868400548474
 20
24.99999999999999
 30
0.0
 11
162.4176958278155
 21
24.99999999999999
 31
0.0
  0
LINE
  5
A40
330
1E
100
AcDbEntity
  8
VOLL
100
AcDbLine
 10
166.0
 20
30.0
 30
0.0
 11
205.0
 21
30.0
 31
0.0
  0
LINE
  5
A41
330
1E
100
AcDbEntity
  8
HILF
100
AcDbLine
 10
168.3619308148496
 20
41.88991818477913
 30
0.0
 11
202.4294419663364
 21
41.88991818477913
 31
0.0
  0
LINE
  5
A42
330
1E
100
AcDbEntity
  8
HILF
100
AcDbLine
 10
111.7454849644942
 20
7.446991290141568
 30
0.0
 11
202.4294419663364
 21
7.446991290141568
 31
0.0
  0
TEXT
  5
A43
330
1E
100
AcDbEntity
  8
TEXT
100
AcDbText
 10
31.9308298981591
 20
9.336909474920659
 30
0.0
 40
2.0
  1
Änderung
 41
0.8
  7
GREEKS
 72
     1
 11
37.30225846958767
 21
9.336909474920659
 31
0.0
100
AcDbText
  0
TEXT
  5
A44
330
1E
100
AcDbEntity
  8
TEXT
100
AcDbText
 10
71.75817860751886
 20
51.23104475435443
 30
0.0
 40
2.5
  1
Maßstab
 41
0.8
  7
GREEKS
100
AcDbText
  0
TEXT
  5
A45
330
1E
100
AcDbEntity
  8
TEXT
100
AcDbText
 10
92.14294773670257
 20
51.20920842174095
 30
0.0
 40
2.5
  1
Zul. Abw.
 41
0.8
  7
GREEKS
100
AcDbText
  0
TEXT
  5
A46
330
1E
100
AcDbEntity
  8
TEXT
100
AcDbText
 10
112.4389701904505
 20
51.27446640058898
 30
0.0
 40
2.5
  1
Benennung
 41
0.8
  7
GREEKS
100
AcDbText
  0
TEXT
  5
A47
330
1E
100
AcDbEntity
  8
TEXT
100
AcDbText
 10
168.089377478817
 20
51.15660172685682
 30
0.0
 40
2.5
  1
Zeichnungs Nr.
 41
0.8
  7
GREEKS
100
AcDbText
  0
TEXT
  5
A48
330
1E
100
AcDbEntity
  8
TEXT
100
AcDbText
 10
112.371119195568
 20
15.42280285096528
 30
0.0
 40
2.5
  1
Bauvorhaben
 41
0.8
  7
GREEKS
100
AcDbText
  0
TEXT
  5
A49
330
1E
100
AcDbEntity
  8
TEXT
100
AcDbText
 10
168.3619308148496
 20
36.59059118549985
 30
0.0
 40
2.5
  1
Ersatz für:
 41
0.8
  7
GREEKS
100
AcDbText
  0
TEXT
  5
A4A
330
1E
100
AcDbEntity
  8
TEXT
100
AcDbText
 10
24.13320553522878
 20
6.827329230135958
 30
0.0
 40
2.0
  1
Index
 50
90.0
 41
0.8
  7
GREEKS
100
AcDbText
  0
TEXT
  5
A4B
330
1E
100
AcDbEntity
  8
TEXT
100
AcDbText
 10
50.04673380377405
 20
9.33578134669905
 30
0.0
 40
2.0
  1
Tag
 41
0.8
  7
GREEKS
 72
     1
 11
51.91340047044072
 21
9.33578134669905
 31
0.0
100
AcDbText
  0
TEXT
  5
A4C
330
1E
100
AcDbEntity
  8
TEXT
100
AcDbText
 10
59.50613721932963
 20
9.29662108483204
 30
0.0
 40
2.0
  1
Name
 41
0.8
  7
GREEKS
 72
     1
 11
62.66804198123439
 21
9.29662108483204
 31
0.0
100
AcDbText
  0
TEXT
  5
A4D
330
1E
100
AcDbEntity
  8
TEXT
100
AcDbText
 10
81.16558365768254
 20
36.65940250614963
 30
0.0
 40
2.0
  1
Tag
 41
0.8
  7
GREEKS
100
AcDbText
  0
TEXT
  5
A4E
330
1E
100
AcDbEntity
  8
TEXT
100
AcDbText
 10
96.23132921131475
 20
36.65480545957612
 30
0.0
 40
2.0
  1
Name
 41
0.8
  7
GREEKS
100
AcDbText
  0
TEXT
  5
A4F
330
1E
100
AcDbEntity
  8
TEXT
100
AcDbText
 10
68.79180635838077
 20
31.81495184808982
 30
0.0
 40
2.0
  1
Gez.
 41
0.8
  7
GREEKS
100
AcDbText
  0
TEXT
  5
A50
330
1E
100
AcDbEntity
  8
TEXT
100
AcDbText
 10
68.77575432858361
 20
26.84463145714189
 30
0.0
 40
2.0
  1
Gepr.
 41
0.8
  7
GREEKS
100
AcDbText
  0
TEXT
  5
A51
330
1E
100
AcDbEntity
  8
TEXT
100
AcDbText
 10
68.80033886936519
 20
21.76473194824904
 30
0.0
 40
2.0
  1
Norm.
 41
0.8
  7
GREEKS
100
AcDbText
  0
LINE
  5
A52
330
1E
100
AcDbEntity
  8
STEMPEL
100
AcDbLine
 10
24.99999999999995
 20
5.0
 30
0.0
 11
205.0
 21
5.0
 31
0.0
  0
TEXT
  5
A53
330
1E
100
AcDbEntity
  8
TEXT
100
AcDbText
 10
168.6200430748503
 20
26.03708088939301
 30
0.0
 40
2.5
  1
ersetzt durch:
 41
0.8
  7
GREEKS
100
AcDbText
  0
LINE
  5
A54
330
1E
100
AcDbEntity
  8
STEMPEL
100
AcDbLine
 10
205.0
 20
5.0
 30
0.0
 11
19.99999999999994
 21
5.0
 31
0.0
  0
LINE
  5
A55
330
1E
100
AcDbEntity
  8
STEMPEL
100
AcDbLine
 10
205.0
 20
5.0
 30
0.0
 11
205.0
 21
292.0
 31
0.0
  0
LINE
  5
A56
330
1E
100
AcDbEntity
  8
STEMPEL
100
AcDbLine
 10
20.0
 20
5.0
 30
0.0
 11
19.99999999999994
 21
292.0
 31
0.0
  0
LINE
  5
A57
330
1E
100
AcDbEntity
  8
STEMPEL
100
AcDbLine
 10
205.0
 20
292.0
 30
0.0
 11
19.99999999999994
 21
292.0
 31
0.0
  0
LINE
  5
A58
330
1E
100
AcDbEntity
  8
HILF
100
AcDbLine
 10
0.0
 20
0.0
 30
0.0
 11
-0.0000000000000568
 21
297.0
 31
0.0
  0
LINE
  5
A59
330
1E
100
AcDbEntity
  8
HILF
100
AcDbLine
 10
210.0
 20
297.0000000000001
 30
0.0
 11
0.0
 21
297.0
 31
0.0
  0
LINE
  5
A5A
330
1E
100
AcDbEntity
  8
HILF
100
AcDbLine
 10
210.0
 20
0.0
 30
0.0
 11
0.0
 21
0.0
 31
0.0
  0
LINE
  5
A5B
330
1E
100
AcDbEntity
  8
HILF
100
AcDbLine
 10
15.54383567856928
 20
148.5
 30
0.0
 11
0.0000000000000568
 21
148.5
 31
0.0
  0
TEXT
  5
A5C
330
1E
100
AcDbEntity
  8
TEXT
100
AcDbText
 10
69.31105491105199
 20
36.57012735575833
 30
0.0
 40
2.0
  1
2008
 41
0.8
  7
GREEKS
100
AcDbText
  0
LINE
  5
A5D
330
1E
100
AcDbEntity
  8
HILF
100
AcDbLine
 10
210.0
 20
-0.0000000000000568
 30
0.0
 11
210.0
 21
297.0
 31
0.0
  0
TEXT
  5
A5E
330
1E
100
AcDbEntity
  8
VOLL
100
AcDbText
 10
78.07675471698113
 20
31.02594776470585
 30
0.0
 40
1.8
  1

  7
GREEKS
100
AcDbText
  0
TEXT
  5
A5F
330
1E
100
AcDbEntity
  8
TEXT
100
AcDbText
 10
20.92754975488837
 20
55.83599999999997
 30
0.0
 40
2.5
  1
Erstellt mit AUTOCAD 2004
 41
0.8
  7
GREEKS
100
AcDbText
  0
TEXT
  5
A60
330
1E
100
AcDbEntity
  8
TEXT
100
AcDbText
 10
97.21080242906285
 20
31.54481959861755
 30
0.0
 40
2.0
  1
Koeh
 41
0.8
  7
GREEKS
 72
     1
 11
99.83937385763429
 21
31.54481959861755
 31
0.0
100
AcDbText
  0
TEXT
  5
A61
330
1E
100
AcDbEntity
  8
TEXT
 62
     1
100
AcDbText
 10
173.173178173626
 20
44.07450714456979
 30
0.0
 40
3.5
  1
16205100W
 41
0.8
  7
GREEKS
 72
     1
 11
184.6398448402927
 21
44.07450714456979
 31
0.0
100
AcDbText
  0
TEXT
  5
A62
330
1E
100
AcDbEntity
  8
TEXT
 62
     1
100
AcDbText
 10
75.25031532409435
 20
44.07450714456979
 30
0.0
 40
3.5
  1
1:1
 41
0.8
  7
GREEKS
100
AcDbText
  0
TEXT
  5
A63
330
1E
100
AcDbEntity
  8
TEXT
100
AcDbText
 10
80.19949855411802
 20
31.55382520412866
 30
0.0
 40
2.0
  1
02.06.
 41
0.8
  7
GREEKS
 72
     1
 11
83.70426045887993
 21
31.55382520412866
 31
0.0
100
AcDbText
  0
TEXT
  5
A64
330
1E
100
AcDbEntity
  8
TEXT
 62
     1
100
AcDbText
 10
113.4467865528701
 20
43.70874394626889
 30
0.0
 40
3.5
  1
Klemmring DN100
 41
0.8
  7
GREEKS
100
AcDbText
  0
TEXT
  5
A65
330
1E
100
AcDbEntity
  8
TEXT
100
AcDbText
 10
112.5648195562657
 20
35.75167208792644
 30
0.0
 40
2.5
  1
mit Entwässerungsöffnung
 41
0.8
  7
GREEKS
100
AcDbText
  0
TEXT
  5
A66
330
1E
100
AcDbEntity
  8
TEXT
100
AcDbText
 10
112.5648195562657
 20
31.05790353387428
 30
0.0
 40
2.5
  1

 41
0.8
  7
GREEKS
100
AcDbText
  0
TEXT
  5
A67
330
1E
100
AcDbEntity
  8
TEXT
100
AcDbText
 10
112.5648195562657
 20
25.82005971521079
 30
0.0
 40
2.5
  1
EDV-Art.Nr. 16205.100X
 41
0.8
  7
GREEKS
100
AcDbText
  0
TEXT
  5
A68
330
1E
100
AcDbEntity
  8
TEXT
100
AcDbText
 10
112.4918750788913
 20
21.31487076511316
 30
0.0
 40
2.0
  1
16205070X.DWG
 41
0.8
  7
GREEKS
100
AcDbText
  0
TEXT
  5
A69
330
1E
100
AcDbEntity
  8
TEXT
100
AcDbText
 10
91.00830419928012
 20
45.38181920511511
 30
0.0
 40
2.0
  1
DIN ISO3302-1
 41
0.8
  7
GREEKS
 72
     1
 11
99.80830419928011
 21
45.38181920511511
 31
0.0
100
AcDbText
  0
INSERT
  5
A6A
330
1E
100
AcDbEntity
  8
STEMPEL
100
AcDbBlockReference
  2
LOGO
 10
70.4977742728897
 20
22.51052638224161
 30
0.0
  0
TEXT
  5
A6B
330
1E
100
AcDbEntity
  8
BEM
100
AcDbText
 10
208.6511461928583
 20
5.083950539994247
 30
0.0
 40
2.0
  1
Diese Zeichnung ist urheberrechtlich geschützt und bleibt unser Eigentum. Sie darf weder ganz noch teilweise verfielfältigt und nicht an Dritte weitergegeben werden.
 50
90.0
 41
0.8
  7
GREEKS
100
AcDbText
  0
TEXT
  5
A97
330
1E
100
AcDbEntity
  8
TEXT
 62
     1
100
AcDbText
 10
167.5218159340564
 20
60.65332001107273
 30
0.0
 40
3.5
  1
Werkstoff: EPDM
 41
0.8
  7
GREEKS
100
AcDbText
  0
HATCH
  5
DB4
330
1E
100
AcDbEntity
  8
SCHRAFF
100
AcDbHatch
 10
0.0
 20
0.0
 30
0.0
210
0.0
220
0.0
230
1.0
  2
NET
 70
     0
 71
     1
 91
        4
 92
        7
 72
     1
 73
     1
 93
       13
 10
179.9295576418066
 20
254.658720579003
 42
0.0
 10
181.291842248799
 20
254.658720579003
 42
0.0
 10
183.0238930563681
 20
253.6587205790029
 42
0.0
 10
188.2918422487991
 20
253.658720579003
 42
0.0
 10
194.9918422487993
 20
265.2634609897148
 42
0.0
 10
197.9388898615555
 20
266.0531200176088
 42
1.0
 10
196.6447946360429
 20
270.8827491490542
 42
0.0
 10
191.7066429373314
 20
269.5595753892821
 42
-0.4663076581550122
 10
189.1966154509428
 20
271.3171155563649
 42
0.0
 10
188.276591969896
 20
281.8330320644983
 42
0.3888787318529951
 10
186.2842025737125
 20
283.658720579003
 42
0.0
 10
184.2993912320933
 20
283.658720579003
 42
0.3888787318529951
 10
182.3070018359098
 20
281.8330320644983
 42
0.0
 97
       13
330
E56
330
E55
330
E57
330
E59
330
E1F
330
E5A
330
E5C
330
E5B
330
E1C
330
DDD
330
E31
330
DDF
330
E2C
 92
       22
 72
     0
 73
     1
 93
        4
 10
184.2918422487991
 20
281.658720579003
 10
186.2918422487991
 20
281.6587205790029
 10
186.291842248799
 20
258.658720579003
 10
184.291842248799
 20
258.658720579003
 97
        4
330
E5D
330
E1D
330
E53
330
E1E
 92
        7
 72
     1
 73
     1
 93
       14
 10
41.00244684857144
 20
273.5375094489544
 42
0.0
 10
40.27668266168837
 20
281.8330320644983
 42
0.3888787318529909
 10
38.28429326550488
 20
283.658720579003
 42
0.0
 10
36.29948192388565
 20
283.658720579003
 42
0.3888787318529941
 10
34.30709252770214
 20
281.8330320644983
 42
0.0
 10
33.38706904665537
 20
271.3171155563649
 42
-0.4663076581550005
 10
30.87704156026683
 20
269.5595753892821
 42
0.0
 10
25.93888986155525
 20
270.8827491490542
 42
1.0
 10
24.64479463604266
 20
266.0531200176088
 42
0.0
 10
27.59184224879893
 20
265.2634609897147
 42
0.0
 10
34.29184224879907
 20
253.658720579003
 42
0.0
 10
39.55979144123012
 20
253.658720579003
 42
0.0
 10
41.29184224879897
 20
254.658720579003
 42
0.0
 10
41.99184224879901
 20
254.658720579003
 42
0.0
 97
       14
330
DE3
330
E19
330
DE0
330
E1A
330
DE4
330
DF1
330
DF0
330
DEC
330
DED
330
DEB
330
DDF
330
DEA
330
DDD
330
DF6
 92
       22
 72
     0
 73
     1
 93
        4
 10
38.29184224879918
 20
258.658720579003
 10
36.29184224879919
 20
258.658720579003
 10
36.29184224879907
 20
281.658720579003
 10
38.29184224879907
 20
281.658720579003
 97
        4
330
DEE
330
DE6
330
E1B
330
DE5
 75
     0
 76
     1
 52
45.0
 41
20.0
 77
     0
 78
     2
 53
45.0
 43
-5.917270361700957
 44
28.72421348402281
 45
-1.767766952966368
 46
1.767766952966368
 79
     0
 53
135.0
 43
-5.917270361700957
 44
28.72421348402281
 45
-1.767766952966368
 46
-1.767766952966368
 79
     0
 47
0.2155233436789513
 98
        4
 10
182.3379261466953
 20
260.0847718480238
 10
182.3379261466953
 20
260.0847718480238
 10
40.43801446878626
 20
263.3176222344602
 10
40.43801446878626
 20
263.3176222344602
  0
HATCH
  5
DB5
330
1E
100
AcDbEntity
  8
SCHRAFF
100
AcDbHatch
 10
0.0
 20
0.0
 30
0.0
210
0.0
220
0.0
230
1.0
  2
_USER
 70
     0
 71
     1
 91
        2
 92
        7
 72
     0
 73
     1
 93
        4
 10
184.291842248799
 20
258.658720579003
 10
186.291842248799
 20
258.6587205790029
 10
186.2918422487991
 20
281.658720579003
 10
184.2918422487991
 20
281.658720579003
 97
        4
330
E5D
330
E1E
330
E53
330
E1D
 92
        7
 72
     0
 73
     1
 93
        4
 10
38.29184224879907
 20
281.658720579003
 10
36.29184224879907
 20
281.658720579003
 10
36.29184224879919
 20
258.658720579003
 10
38.29184224879919
 20
258.658720579003
 97
        4
330
E1B
330
DE6
330
DEE
330
DE5
 75
     0
 76
     0
 52
45.0
 41
2.0
 77
     0
 78
     1
 53
45.0
 43
-5.917270361700957
 44
28.72421348402281
 45
-1.414213562373094
 46
1.414213562373095
 79
     0
 47
0.2297725758363224
 98
        2
 10
184.8049256426509
 20
274.6447947373072
 10
37.43185343876564
 20
275.104340092956
  0
LINE
  5
DB6
330
1E
100
AcDbEntity
  8
MITTEL
100
AcDbLine
 10
111.5200748684081
 20
241.807787508278
 30
0.0
 11
111.520074868408
 21
57.54884170883349
 31
0.0
  0
ARC
  5
DB7
330
1E
100
AcDbEntity
  8
STEMPEL
100
AcDbCircle
 10
111.520074868408
 20
151.0488417088335
 30
0.0
 40
62.5
100
AcDbArc
 50
4.588565735784882
 51
40.4114342642143
  0
ARC
  5
DB8
330
1E
100
AcDbEntity
  8
HILF
100
AcDbCircle
 10
111.520074868408
 20
151.0488417088335
 30
0.0
 40
65.0
100
AcDbArc
 50
4.411725785771129
 51
40.58827421422997
  0
ARC
  5
DB9
330
1E
100
AcDbEntity
  8
STEMPEL
100
AcDbCircle
 10
111.520074868408
 20
151.0488417088335
 30
0.0
 40
62.5
100
AcDbArc
 50
139.5885657357857
 51
175.4114342642151
  0
ARC
  5
DBA
330
1E
100
AcDbEntity
  8
HILF
100
AcDbCircle
 10
111.520074868408
 20
151.0488417088335
 30
0.0
 40
65.0
100
AcDbArc
 50
139.41172578577
 51
175.5882742142288
  0
LINE
  5
DBB
330
1E
100
AcDbEntity
  8
MITTEL
100
AcDbLine
 10
111.520074868408
 20
151.048841708834
 30
0.0
 11
45.40559082746614
 21
217.1633257497759
 31
0.0
  0
LINE
  5
DBC
330
1E
100
AcDbEntity
  8
MITTEL
100
AcDbLine
 10
111.5200748684081
 20
151.048841708834
 30
0.0
 11
177.63455890935
 21
217.1633257497759
 31
0.0
  0
CIRCLE
  5
DBD
330
1E
100
AcDbEntity
  8
HILF
100
AcDbCircle
 10
111.520074868408
 20
151.0488417088335
 30
0.0
 40
77.0
  0
CIRCLE
  5
DBE
330
1E
100
AcDbEntity
  8
HILF
100
AcDbCircle
 10
111.520074868408
 20
151.0488417088335
 30
0.0
 40
71.0
  0
CIRCLE
  5
DBF
330
1E
100
AcDbEntity
  8
STEMPEL
100
AcDbCircle
 10
111.520074868408
 20
151.0488417088335
 30
0.0
 40
70.3
  0
CIRCLE
  5
DC0
330
1E
100
AcDbEntity
  8
STEMPEL
100
AcDbCircle
 10
111.520074868408
 20
151.0488417088335
 30
0.0
 40
88.49999999999999
  0
ARC
  5
DC2
330
1E
100
AcDbEntity
  8
HILF
100
AcDbCircle
 10
111.520074868408
 20
151.0488417088335
 30
0.0
 40
65.0
100
AcDbArc
 50
229.41172578577
 51
265.5882742142288
  0
ARC
  5
DC3
330
1E
100
AcDbEntity
  8
STEMPEL
100
AcDbCircle
 10
111.520074868408
 20
151.0488417088335
 30
0.0
 40
62.5
100
AcDbArc
 50
229.5885657357868
 51
265.4114342642151
  0
LINE
  5
DC4
330
1E
100
AcDbEntity
  8
MITTEL
100
AcDbLine
 10
111.520074868408
 20
151.048841708833
 30
0.0
 11
45.40559082746614
 21
84.93435766789104
 31
0.0
  0
LINE
  5
DC5
330
1E
100
AcDbEntity
  8
MITTEL
100
AcDbLine
 10
19.99999999999997
 20
151.0488417088334
 30
0.0
 11
205.0200748684081
 21
151.0488417088335
 31
0.0
  0
ARC
  5
DC6
330
1E
100
AcDbEntity
  8
STEMPEL
100
AcDbCircle
 10
111.520074868408
 20
151.0488417088335
 30
0.0
 40
62.5
100
AcDbArc
 50
184.5885657357849
 51
220.4114342642143
  0
ARC
  5
DC7
330
1E
100
AcDbEntity
  8
HILF
100
AcDbCircle
 10
111.520074868408
 20
151.0488417088335
 30
0.0
 40
65.0
100
AcDbArc
 50
184.4117257857711
 51
220.5882742142299
  0
LINE
  5
DC8
330
1E
100
AcDbEntity
  8
STEMPEL
100
AcDbLine
 10
63.93201549571035
 20
110.5318501480007
 30
0.0
 11
58.40082387712584
 21
105.0006585294162
 31
0.0
  0
ARC
  5
DC9
330
1E
100
AcDbEntity
  8
STEMPEL
100
AcDbCircle
 10
111.520074868408
 20
151.0488417088335
 30
0.0
 40
69.29999999999999
100
AcDbArc
 50
220.8625103567486
 51
229.137489643252
  0
LINE
  5
DCA
330
1E
100
AcDbEntity
  8
STEMPEL
100
AcDbLine
 10
71.00308330757582
 20
103.4607823361353
 30
0.0
 11
65.47189168899137
 21
97.92959071755085
 31
0.0
  0
ARC
  5
DCB
330
1E
100
AcDbEntity
  8
STEMPEL
100
AcDbCircle
 10
111.520074868408
 20
151.0488417088335
 30
0.0
 40
69.29999999999999
100
AcDbArc
 50
175.862510356747
 51
184.1374896432529
  0
LINE
  5
DCC
330
1E
100
AcDbEntity
  8
STEMPEL
100
AcDbLine
 10
41.39810969343602
 20
146.0488417088335
 30
0.0
 11
49.22039589652252
 21
146.0488417088335
 31
0.0
  0
LINE
  5
DCD
330
1E
100
AcDbEntity
  8
STEMPEL
100
AcDbLine
 10
41.39810969343602
 20
156.0488417088335
 30
0.0
 11
49.22039589652252
 21
156.0488417088334
 31
0.0
  0
ARC
  5
DCE
330
1E
100
AcDbEntity
  8
STEMPEL
100
AcDbCircle
 10
111.520074868408
 20
151.0488417088335
 30
0.0
 40
62.5
100
AcDbArc
 50
274.5885657357849
 51
310.4114342642132
  0
ARC
  5
DCF
330
1E
100
AcDbEntity
  8
HILF
100
AcDbCircle
 10
111.520074868408
 20
151.0488417088335
 30
0.0
 40
65.0
100
AcDbArc
 50
274.4117257857712
 51
310.5882742142299
  0
LINE
  5
DD0
330
1E
100
AcDbEntity
  8
MITTEL
100
AcDbLine
 10
111.5200748684081
 20
151.048841708833
 30
0.0
 11
177.63455890935
 21
84.93435766789104
 31
0.0
  0
ARC
  5
DD1
330
1E
100
AcDbEntity
  8
STEMPEL
100
AcDbCircle
 10
111.520074868408
 20
151.0488417088335
 30
0.0
 40
69.29999999999999
100
AcDbArc
 50
265.8625103567471
 51
274.1374896432529
  0
LINE
  5
DD2
330
1E
100
AcDbEntity
  8
STEMPEL
100
AcDbLine
 10
106.520074868408
 20
88.74916273694793
 30
0.0
 11
106.520074868408
 21
80.92687653386139
 31
0.0
  0
LINE
  5
DD3
330
1E
100
AcDbEntity
  8
STEMPEL
100
AcDbLine
 10
116.520074868408
 20
88.74916273694793
 30
0.0
 11
116.520074868408
 21
80.92687653386139
 31
0.0
  0
ARC
  5
DD4
330
1E
100
AcDbEntity
  8
STEMPEL
100
AcDbCircle
 10
111.520074868408
 20
151.0488417088335
 30
0.0
 40
62.5
100
AcDbArc
 50
319.5885657357857
 51
355.4114342642151
  0
ARC
  5
DD5
330
1E
100
AcDbEntity
  8
HILF
100
AcDbCircle
 10
111.520074868408
 20
151.0488417088335
 30
0.0
 40
65.0
100
AcDbArc
 50
319.41172578577
 51
355.5882742142289
  0
ARC
  5
DD6
330
1E
100
AcDbEntity
  8
STEMPEL
100
AcDbCircle
 10
111.520074868408
 20
151.0488417088335
 30
0.0
 40
69.29999999999999
100
AcDbArc
 50
310.862510356748
 51
319.1374896432514
  0
LINE
  5
DD7
330
1E
100
AcDbEntity
  8
STEMPEL
100
AcDbLine
 10
152.0370664292403
 20
103.4607823361353
 30
0.0
 11
157.5682580478247
 21
97.92959071755085
 31
0.0
  0
LINE
  5
DD8
330
1E
100
AcDbEntity
  8
STEMPEL
100
AcDbLine
 10
159.1081342411058
 20
110.5318501480007
 30
0.0
 11
164.6393258596903
 21
105.0006585294163
 31
0.0
  0
ARC
  5
DD9
330
1E
100
AcDbEntity
  8
STEMPEL
100
AcDbCircle
 10
111.520074868408
 20
151.0488417088335
 30
0.0
 40
69.29999999999999
100
AcDbArc
 50
355.8625103567471
 51
4.137489643252952
  0
LINE
  5
DDA
330
1E
100
AcDbEntity
  8
STEMPEL
100
AcDbLine
 10
173.8197538402936
 20
146.0488417088335
 30
0.0
 11
181.6420400433802
 21
146.0488417088335
 31
0.0
  0
LINE
  5
DDB
330
1E
100
AcDbEntity
  8
STEMPEL
100
AcDbLine
 10
173.8197538402936
 20
156.0488417088335
 30
0.0
 11
181.6420400433802
 21
156.0488417088335
 31
0.0
  0
LINE
  5
DDC
330
1E
100
AcDbEntity
  8
STEMPEL
100
AcDbLine
 10
70.77485068796676
 20
256.658720579003
 30
0.0
 11
106.291842248799
 21
256.658720579003
 31
0.0
  0
LINE
  5
DDD
102
{ACAD_REACTORS
330
DB4
102
}
330
1E
100
AcDbEntity
  8
STEMPEL
100
AcDbLine
 10
41.29184224879895
 20
254.658720579003
 30
0.0
 11
181.2918422487991
 21
254.658720579003
 31
0.0
  0
LINE
  5
DDE
330
1E
100
AcDbEntity
  8
STEMPEL
100
AcDbLine
 10
40.991842248799
 20
273.658720579003
 30
0.0
 11
181.5918422487992
 21
273.658720579003
 31
0.0
  0
LINE
  5
DDF
102
{ACAD_REACTORS
330
DB4
102
}
330
1E
100
AcDbEntity
  8
STEMPEL
100
AcDbLine
 10
34.29184224879907
 20
253.658720579003
 30
0.0
 11
188.291842248799
 21
253.6587205790029
 31
0.0
  0
LINE
  5
DE0
102
{ACAD_REACTORS
330
DB4
102
}
330
1E
100
AcDbEntity
  8
STEMPEL
100
AcDbLine
 10
36.29948192388565
 20
283.658720579003
 30
0.0
 11
184.2993912320933
 21
283.658720579003
 31
0.0
  0
ARC
  5
DE1
330
1E
100
AcDbEntity
  8
HILF
100
AcDbCircle
 10
111.520074868408
 20
151.0488417088335
 30
0.0
 40
65.0
100
AcDbArc
 50
94.41172578577122
 51
130.5882742142299
  0
ARC
  5
DE2
330
1E
100
AcDbEntity
  8
STEMPEL
100
AcDbCircle
 10
111.520074868408
 20
151.0488417088335
 30
0.0
 40
62.5
100
AcDbArc
 50
94.5885657357849
 51
130.4114342642131
  0
LINE
  5
DE3
102
{ACAD_REACTORS
330
DB4
102
}
330
1E
100
AcDbEntity
  8
STEMPEL
100
AcDbLine
 10
41.00244684857142
 20
273.5375094489542
 30
0.0
 11
40.27668266168837
 21
281.8330320644983
 31
0.0
  0
LINE
  5
DE4
102
{ACAD_REACTORS
330
DB4
102
}
330
1E
100
AcDbEntity
  8
STEMPEL
100
AcDbLine
 10
34.30709252770214
 20
281.8330320644983
 30
0.0
 11
33.38706904665537
 21
271.3171155563649
 31
0.0
  0
LINE
  5
DE5
102
{ACAD_REACTORS
330
DB5
330
DB4
102
}
330
1E
100
AcDbEntity
  8
STEMPEL
100
AcDbLine
 10
38.29184224879919
 20
258.658720579003
 30
0.0
 11
38.29184224879907
 21
281.658720579003
 31
0.0
  0
LINE
  5
DE6
102
{ACAD_REACTORS
330
DB5
330
DB4
102
}
330
1E
100
AcDbEntity
  8
STEMPEL
100
AcDbLine
 10
36.29184224879919
 20
258.658720579003
 30
0.0
 11
36.29184224879907
 21
281.658720579003
 31
0.0
  0
LINE
  5
DE7
330
1E
100
AcDbEntity
  8
STEMPEL
100
AcDbLine
 10
63.93201549571035
 20
191.5658332696662
 30
0.0
 11
58.40082387712584
 21
197.0970248882507
 31
0.0
  0
ARC
  5
DE8
330
1E
100
AcDbEntity
  8
STEMPEL
100
AcDbCircle
 10
111.520074868408
 20
151.0488417088335
 30
0.0
 40
69.29999999999999
100
AcDbArc
 50
130.862510356748
 51
139.1374896432514
  0
LINE
  5
DE9
330
1E
100
AcDbEntity
  8
STEMPEL
100
AcDbLine
 10
71.00308330757588
 20
198.6369010815317
 30
0.0
 11
65.47189168899137
 21
204.1680927001162
 31
0.0
  0
LINE
  5
DEA
102
{ACAD_REACTORS
330
DB4
102
}
330
1E
100
AcDbEntity
  8
STEMPEL
100
AcDbLine
 10
41.29184224879895
 20
254.658720579003
 30
0.0
 11
39.55979144123012
 21
253.658720579003
 31
0.0
  0
LINE
  5
DEB
102
{ACAD_REACTORS
330
DB4
102
}
330
1E
100
AcDbEntity
  8
STEMPEL
100
AcDbLine
 10
34.29184224879907
 20
253.658720579003
 30
0.0
 11
27.59184224879891
 21
265.2634609897147
 31
0.0
  0
ARC
  5
DEC
102
{ACAD_REACTORS
330
DB4
102
}
330
1E
100
AcDbEntity
  8
STEMPEL
100
AcDbCircle
 10
25.29184224879896
 20
268.4679345833315
 30
0.0
 40
2.499999999999997
100
AcDbArc
 50
74.99999999999873
 51
254.9999999999987
  0
LINE
  5
DED
102
{ACAD_REACTORS
330
DB4
102
}
330
1E
100
AcDbEntity
  8
STEMPEL
100
AcDbLine
 10
27.59184224879891
 20
265.2634609897147
 30
0.0
 11
24.64479463604266
 21
266.0531200176088
 31
0.0
  0
LINE
  5
DEE
102
{ACAD_REACTORS
330
DB5
330
DB4
102
}
330
1E
100
AcDbEntity
  8
STEMPEL
100
AcDbLine
 10
36.29184224879919
 20
258.658720579003
 30
0.0
 11
38.29184224879919
 21
258.658720579003
 31
0.0
  0
LINE
  5
DEF
330
1E
100
AcDbEntity
  8
STEMPEL
100
AcDbLine
 10
25.28881837294193
 20
270.9679327545658
 30
0.0
 11
33.32756333702253
 21
270.9776560284054
 31
0.0
  0
LINE
  5
DF0
102
{ACAD_REACTORS
330
DB4
102
}
330
1E
100
AcDbEntity
  8
STEMPEL
100
AcDbLine
 10
30.87704156026678
 20
269.5595753892821
 30
0.0
 11
25.93888986155525
 21
270.8827491490542
 31
0.0
  0
ARC
  5
DF1
102
{ACAD_REACTORS
330
DB4
102
}
330
1E
100
AcDbEntity
  8
STEMPEL
100
AcDbCircle
 10
31.39467965047186
 20
271.4914270418602
 30
0.0
 40
2.0
100
AcDbArc
 50
254.9999999999987
 51
355.0000000000003
  0
LINE
  5
DF2
330
1E
100
AcDbEntity
  8
STEMPEL
100
AcDbLine
 10
70.77485068796687
 20
254.658720579003
 30
0.0
 11
70.77485068796676
 21
256.658720579003
 31
0.0
  0
LINE
  5
DF3
330
1E
100
AcDbEntity
  8
STEMPEL
100
AcDbLine
 10
63.70378287610134
 20
254.658720579003
 30
0.0
 11
63.70378287610122
 21
256.658720579003
 31
0.0
  0
LINE
  5
DF4
330
1E
100
AcDbEntity
  8
STEMPEL
100
AcDbLine
 10
65.24365906938226
 20
273.658720579003
 30
0.0
 11
65.95258715262992
 21
254.658720579003
 31
0.0
  0
LINE
  5
DF5
330
1E
100
AcDbEntity
  8
STEMPEL
100
AcDbLine
 10
48.79184224879918
 20
254.658720579003
 30
0.0
 11
48.79184224879907
 21
256.658720579003
 31
0.0
  0
LINE
  5
DF6
102
{ACAD_REACTORS
330
DB4
102
}
330
1E
100
AcDbEntity
  8
STEMPEL
100
AcDbLine
 10
41.991842248799
 20
254.658720579003
 30
0.0
 11
41.00244684857142
 21
273.5375094489542
 31
0.0
  0
POLYLINE
  5
DF7
330
1E
100
AcDbEntity
  8
STEMPEL
100
AcDb2dPolyline
 66
     1
 10
0.0
 20
0.0
 30
0.0
 70
     4
 75
     6
  0
VERTEX
  5
DF8
330
DF7
100
AcDbEntity
  8
STEMPEL
100
AcDbVertex
100
AcDb2dVertex
 10
58.17259125751673
 20
273.658720579003
 30
0.0
 70
    16
  0
VERTEX
  5
DF9
330
DF7
100
AcDbEntity
  8
STEMPEL
100
AcDbVertex
100
AcDb2dVertex
 10
58.17259125751673
 20
273.658720579003
 30
0.0
 70
     8
  0
VERTEX
  5
DFA
330
DF7
100
AcDbEntity
  8
STEMPEL
100
AcDbVertex
100
AcDb2dVertex
 10
58.99514382816625
 20
272.9259425738582
 30
0.0
 70
     8
  0
VERTEX
  5
DFB
330
DF7
100
AcDbEntity
  8
STEMPEL
100
AcDbVertex
100
AcDb2dVertex
 10
59.65058663287618
 20
270.9945531327927
 30
0.0
 70
     8
  0
VERTEX
  5
DFC
330
DF7
100
AcDbEntity
  8
STEMPEL
100
AcDbVertex
100
AcDb2dVertex
 10
60.20373832342688
 20
268.2649691173588
 30
0.0
 70
     8
  0
VERTEX
  5
DFD
330
DF7
100
AcDbEntity
  8
STEMPEL
100
AcDbVertex
100
AcDb2dVertex
 10
60.71941755159855
 20
265.137607389109
 30
0.0
 70
     8
  0
VERTEX
  5
DFE
330
DF7
100
AcDbEntity
  8
STEMPEL
100
AcDbVertex
100
AcDb2dVertex
 10
61.26244296917156
 20
262.0128848095959
 30
0.0
 70
     8
  0
VERTEX
  5
DFF
330
DF7
100
AcDbEntity
  8
STEMPEL
100
AcDbVertex
100
AcDb2dVertex
 10
61.89763322792612
 20
259.2912182403722
 30
0.0
 70
     8
  0
VERTEX
  5
E00
330
DF7
100
AcDbEntity
  8
STEMPEL
100
AcDbVertex
100
AcDb2dVertex
 10
62.68980697964258
 20
257.3730245429904
 30
0.0
 70
     8
  0
VERTEX
  5
E01
330
DF7
100
AcDbEntity
  8
STEMPEL
100
AcDbVertex
100
AcDb2dVertex
 10
63.70378287610122
 20
256.658720579003
 30
0.0
 70
     8
  0
VERTEX
  5
E02
330
DF7
100
AcDbEntity
  8
STEMPEL
100
AcDbVertex
100
AcDb2dVertex
 10
60.64649437986179
 20
273.658720579003
 30
0.0
 70
    16
  0
VERTEX
  5
E03
330
DF7
100
AcDbEntity
  8
STEMPEL
100
AcDbVertex
100
AcDb2dVertex
 10
60.64649437986179
 20
256.6024187392855
 30
0.0
 70
    16
  0
VERTEX
  5
E04
330
DF7
100
AcDbEntity
  8
STEMPEL
100
AcDbVertex
100
AcDb2dVertex
 10
63.70378287610122
 20
256.658720579003
 30
0.0
 70
    16
  0
SEQEND
  5
E05
330
DF7
100
AcDbEntity
  8
STEMPEL
  0
LINE
  5
E06
330
1E
100
AcDbEntity
  8
STEMPEL
100
AcDbLine
 10
47.97004151115368
 20
256.658720579003
 30
0.0
 11
63.70378287610122
 21
256.658720579003
 31
0.0
  0
LINE
  5
E07
330
1E
100
AcDbEntity
  8
STEMPEL
100
AcDbLine
 10
46.00042600512927
 20
258.3114242236691
 30
0.0
 11
43.65855388134252
 21
271.5928410231703
 31
0.0
  0
ARC
  5
E08
330
1E
100
AcDbEntity
  8
STEMPEL
100
AcDbCircle
 10
47.97004151115368
 20
258.658720579003
 30
0.0
 40
2.0
100
AcDbArc
 50
189.9999999999986
 51
270.0
  0
ARC
  5
E09
330
1E
100
AcDbEntity
  8
STEMPEL
100
AcDbCircle
 10
41.19653449881195
 20
271.158720579003
 30
0.0
 40
2.5
100
AcDbArc
 50
9.999999999998609
 51
90.0
  0
POLYLINE
  5
E0A
330
1E
100
AcDbEntity
  8
STEMPEL
100
AcDb2dPolyline
 66
     1
 10
0.0
 20
0.0
 30
0.0
 70
     4
 75
     6
  0
VERTEX
  5
E0B
330
E0A
100
AcDbEntity
  8
STEMPEL
100
AcDbVertex
100
AcDb2dVertex
 10
65.24365906938226
 20
273.658720579003
 30
0.0
 70
    16
  0
VERTEX
  5
E0C
330
E0A
100
AcDbEntity
  8
STEMPEL
100
AcDbVertex
100
AcDb2dVertex
 10
65.24365906938226
 20
273.658720579003
 30
0.0
 70
     8
  0
VERTEX
  5
E0D
330
E0A
100
AcDbEntity
  8
STEMPEL
100
AcDbVertex
100
AcDb2dVertex
 10
66.06621164003178
 20
272.9259425738582
 30
0.0
 70
     8
  0
VERTEX
  5
E0E
330
E0A
100
AcDbEntity
  8
STEMPEL
100
AcDbVertex
100
AcDb2dVertex
 10
66.72165444474171
 20
270.9945531327927
 30
0.0
 70
     8
  0
VERTEX
  5
E0F
330
E0A
100
AcDbEntity
  8
STEMPEL
100
AcDbVertex
100
AcDb2dVertex
 10
67.27480613529241
 20
268.2649691173588
 30
0.0
 70
     8
  0
VERTEX
  5
E10
330
E0A
100
AcDbEntity
  8
STEMPEL
100
AcDbVertex
100
AcDb2dVertex
 10
67.79048536346408
 20
265.137607389109
 30
0.0
 70
     8
  0
VERTEX
  5
E11
330
E0A
100
AcDbEntity
  8
STEMPEL
100
AcDbVertex
100
AcDb2dVertex
 10
68.33351078103709
 20
262.0128848095959
 30
0.0
 70
     8
  0
VERTEX
  5
E12
330
E0A
100
AcDbEntity
  8
STEMPEL
100
AcDbVertex
100
AcDb2dVertex
 10
68.96870103979165
 20
259.2912182403722
 30
0.0
 70
     8
  0
VERTEX
  5
E13
330
E0A
100
AcDbEntity
  8
STEMPEL
100
AcDbVertex
100
AcDb2dVertex
 10
69.76087479150817
 20
257.3730245429904
 30
0.0
 70
     8
  0
VERTEX
  5
E14
330
E0A
100
AcDbEntity
  8
STEMPEL
100
AcDbVertex
100
AcDb2dVertex
 10
70.77485068796676
 20
256.658720579003
 30
0.0
 70
     8
  0
VERTEX
  5
E15
330
E0A
100
AcDbEntity
  8
STEMPEL
100
AcDbVertex
100
AcDb2dVertex
 10
67.71756219172733
 20
273.658720579003
 30
0.0
 70
    16
  0
VERTEX
  5
E16
330
E0A
100
AcDbEntity
  8
STEMPEL
100
AcDbVertex
100
AcDb2dVertex
 10
67.71756219172733
 20
256.6024187392855
 30
0.0
 70
    16
  0
VERTEX
  5
E17
330
E0A
100
AcDbEntity
  8
STEMPEL
100
AcDbVertex
100
AcDb2dVertex
 10
70.77485068796676
 20
256.658720579003
 30
0.0
 70
    16
  0
SEQEND
  5
E18
330
E0A
100
AcDbEntity
  8
STEMPEL
  0
ARC
  5
E19
102
{ACAD_REACTORS
330
DB4
102
}
330
1E
100
AcDbEntity
  8
STEMPEL
100
AcDbCircle
 10
38.28429326550486
 20
281.658720579003
 30
0.0
 40
2.0
100
AcDbArc
 50
4.999999999999743
 51
90.0
  0
ARC
  5
E1A
102
{ACAD_REACTORS
330
DB4
102
}
330
1E
100
AcDbEntity
  8
STEMPEL
100
AcDbCircle
 10
36.29948192388565
 20
281.658720579003
 30
0.0
 40
2.0
100
AcDbArc
 50
90.0
 51
175.0000000000002
  0
LINE
  5
E1B
102
{ACAD_REACTORS
330
DB5
330
DB4
102
}
330
1E
100
AcDbEntity
  8
STEMPEL
100
AcDbLine
 10
36.29184224879907
 20
281.658720579003
 30
0.0
 11
38.29184224879907
 21
281.658720579003
 31
0.0
  0
LINE
  5
E1C
102
{ACAD_REACTORS
330
DB4
102
}
330
1E
100
AcDbEntity
  8
STEMPEL
100
AcDbLine
 10
179.9295576418066
 20
254.658720579003
 30
0.0
 11
182.3070018359098
 21
281.8330320644983
 31
0.0
  0
LINE
  5
E1D
102
{ACAD_REACTORS
330
DB5
330
DB4
102
}
330
1E
100
AcDbEntity
  8
STEMPEL
100
AcDbLine
 10
186.291842248799
 20
258.658720579003
 30
0.0
 11
186.2918422487991
 21
281.658720579003
 31
0.0
  0
LINE
  5
E1E
102
{ACAD_REACTORS
330
DB5
330
DB4
102
}
330
1E
100
AcDbEntity
  8
STEMPEL
100
AcDbLine
 10
184.291842248799
 20
258.658720579003
 30
0.0
 11
184.2918422487991
 21
281.658720579003
 31
0.0
  0
LINE
  5
E1F
102
{ACAD_REACTORS
330
DB4
102
}
330
1E
100
AcDbEntity
  8
STEMPEL
100
AcDbLine
 10
188.276591969896
 20
281.8330320644983
 30
0.0
 11
189.1966154509428
 21
271.3171155563649
 31
0.0
  0
LINE
  5
E20
330
1E
100
AcDbEntity
  8
MITTEL
100
AcDbLine
 10
111.291842248799
 20
249.8475406763895
 30
0.0
 11
111.291842248799
 21
288.658720579003
 31
0.0
  0
LINE
  5
E21
330
1E
100
AcDbEntity
  8
STEMPEL
100
AcDbLine
 10
116.2918422487989
 20
256.658720579003
 30
0.0
 11
151.8088338096315
 21
256.658720579003
 31
0.0
  0
ARC
  5
E22
330
1E
100
AcDbEntity
  8
HILF
100
AcDbCircle
 10
111.520074868408
 20
151.0488417088335
 30
0.0
 40
65.0
100
AcDbArc
 50
49.41172578577003
 51
85.58827421422881
  0
ARC
  5
E23
330
1E
100
AcDbEntity
  8
STEMPEL
100
AcDbCircle
 10
111.520074868408
 20
151.0488417088335
 30
0.0
 40
62.5
100
AcDbArc
 50
49.58856573578684
 51
85.41143426421509
  0
ARC
  5
E24
330
1E
100
AcDbEntity
  8
STEMPEL
100
AcDbCircle
 10
111.520074868408
 20
151.0488417088335
 30
0.0
 40
69.29999999999999
100
AcDbArc
 50
85.86251035674708
 51
94.13748964325291
  0
LINE
  5
E25
330
1E
100
AcDbEntity
  8
STEMPEL
100
AcDbLine
 10
106.520074868408
 20
221.1708068838056
 30
0.0
 11
106.520074868408
 21
213.348520680719
 31
0.0
  0
LINE
  5
E26
330
1E
100
AcDbEntity
  8
STEMPEL
100
AcDbLine
 10
116.520074868408
 20
221.1708068838056
 30
0.0
 11
116.520074868408
 21
213.348520680719
 31
0.0
  0
LINE
  5
E27
330
1E
100
AcDbEntity
  8
STEMPEL
100
AcDbLine
 10
106.2918422487989
 20
254.658720579003
 30
0.0
 11
106.2918422487989
 21
273.658720579003
 31
0.0
  0
LINE
  5
E28
330
1E
100
AcDbEntity
  8
STEMPEL
100
AcDbLine
 10
116.2918422487989
 20
254.658720579003
 30
0.0
 11
116.2918422487989
 21
273.658720579003
 31
0.0
  0
ARC
  5
E29
330
1E
100
AcDbEntity
  8
STEMPEL
100
AcDbCircle
 10
111.520074868408
 20
151.0488417088335
 30
0.0
 40
69.29999999999999
100
AcDbArc
 50
40.86251035674861
 51
49.13748964325197
  0
LINE
  5
E2A
330
1E
100
AcDbEntity
  8
STEMPEL
100
AcDbLine
 10
159.1081342411058
 20
191.5658332696662
 30
0.0
 11
164.6393258596903
 21
197.0970248882507
 31
0.0
  0
LINE
  5
E2B
330
1E
100
AcDbEntity
  8
STEMPEL
100
AcDbLine
 10
152.0370664292403
 20
198.6369010815317
 30
0.0
 11
157.5682580478247
 21
204.1680927001161
 31
0.0
  0
LINE
  5
E2C
102
{ACAD_REACTORS
330
DB4
102
}
330
1E
100
AcDbEntity
  8
STEMPEL
100
AcDbLine
 10
188.291842248799
 20
253.6587205790029
 30
0.0
 11
194.9918422487993
 21
265.2634609897147
 31
0.0
  0
LINE
  5
E2D
330
1E
100
AcDbEntity
  8
STEMPEL
100
AcDbLine
 10
173.7918422487989
 20
254.658720579003
 30
0.0
 11
173.791842248799
 21
256.658720579003
 31
0.0
  0
LINE
  5
E2E
330
1E
100
AcDbEntity
  8
STEMPEL
100
AcDbLine
 10
158.8799016214973
 20
254.658720579003
 30
0.0
 11
158.8799016214972
 21
256.658720579003
 31
0.0
  0
LINE
  5
E2F
330
1E
100
AcDbEntity
  8
STEMPEL
100
AcDbLine
 10
151.8088338096316
 20
254.658720579003
 30
0.0
 11
151.8088338096315
 21
256.658720579003
 31
0.0
  0
LINE
  5
E30
330
1E
100
AcDbEntity
  8
STEMPEL
100
AcDbLine
 10
157.3400254282159
 20
273.6587205790028
 30
0.0
 11
156.6310973449681
 21
254.6587205790028
 31
0.0
  0
LINE
  5
E31
102
{ACAD_REACTORS
330
DB4
102
}
330
1E
100
AcDbEntity
  8
STEMPEL
100
AcDbLine
 10
181.2918422487991
 20
254.658720579003
 30
0.0
 11
183.023893056368
 21
253.658720579003
 31
0.0
  0
LINE
  5
E32
330
1E
100
AcDbEntity
  8
STEMPEL
100
AcDbLine
 10
158.8799016214972
 20
256.658720579003
 30
0.0
 11
174.6136429864444
 21
256.658720579003
 31
0.0
  0
POLYLINE
  5
E33
330
1E
100
AcDbEntity
  8
STEMPEL
100
AcDb2dPolyline
 66
     1
 10
0.0
 20
0.0
 30
0.0
 70
     4
 75
     6
  0
VERTEX
  5
E34
330
E33
100
AcDbEntity
  8
STEMPEL
100
AcDbVertex
100
AcDb2dVertex
 10
157.3400254282159
 20
273.6587205790028
 30
0.0
 70
    16
  0
VERTEX
  5
E35
330
E33
100
AcDbEntity
  8
STEMPEL
100
AcDbVertex
100
AcDb2dVertex
 10
157.3400254282159
 20
273.6587205790028
 30
0.0
 70
     8
  0
VERTEX
  5
E36
330
E33
100
AcDbEntity
  8
STEMPEL
100
AcDbVertex
100
AcDb2dVertex
 10
156.5174728575663
 20
272.9259425738581
 30
0.0
 70
     8
  0
VERTEX
  5
E37
330
E33
100
AcDbEntity
  8
STEMPEL
100
AcDbVertex
100
AcDb2dVertex
 10
155.8620300528563
 20
270.9945531327925
 30
0.0
 70
     8
  0
VERTEX
  5
E38
330
E33
100
AcDbEntity
  8
STEMPEL
100
AcDbVertex
100
AcDb2dVertex
 10
155.3088783623057
 20
268.2649691173585
 30
0.0
 70
     8
  0
VERTEX
  5
E39
330
E33
100
AcDbEntity
  8
STEMPEL
100
AcDbVertex
100
AcDb2dVertex
 10
154.7931991341339
 20
265.1376073891088
 30
0.0
 70
     8
  0
VERTEX
  5
E3A
330
E33
100
AcDbEntity
  8
STEMPEL
100
AcDbVertex
100
AcDb2dVertex
 10
154.250173716561
 20
262.0128848095957
 30
0.0
 70
     8
  0
VERTEX
  5
E3B
330
E33
100
AcDbEntity
  8
STEMPEL
100
AcDbVertex
100
AcDb2dVertex
 10
153.6149834578063
 20
259.291218240372
 30
0.0
 70
     8
  0
VERTEX
  5
E3C
330
E33
100
AcDbEntity
  8
STEMPEL
100
AcDbVertex
100
AcDb2dVertex
 10
152.8228097060898
 20
257.3730245429902
 30
0.0
 70
     8
  0
VERTEX
  5
E3D
330
E33
100
AcDbEntity
  8
STEMPEL
100
AcDbVertex
100
AcDb2dVertex
 10
151.8088338096312
 20
256.6587205790028
 30
0.0
 70
     8
  0
VERTEX
  5
E3E
330
E33
100
AcDbEntity
  8
STEMPEL
100
AcDbVertex
100
AcDb2dVertex
 10
154.8661223058708
 20
273.6587205790028
 30
0.0
 70
    16
  0
VERTEX
  5
E3F
330
E33
100
AcDbEntity
  8
STEMPEL
100
AcDbVertex
100
AcDb2dVertex
 10
154.8661223058707
 20
256.6024187392854
 30
0.0
 70
    16
  0
VERTEX
  5
E40
330
E33
100
AcDbEntity
  8
STEMPEL
100
AcDbVertex
100
AcDb2dVertex
 10
151.8088338096312
 20
256.6587205790028
 30
0.0
 70
    16
  0
SEQEND
  5
E41
330
E33
100
AcDbEntity
  8
STEMPEL
  0
POLYLINE
  5
E42
330
1E
100
AcDbEntity
  8
STEMPEL
100
AcDb2dPolyline
 66
     1
 10
0.0
 20
0.0
 30
0.0
 70
     4
 75
     6
  0
VERTEX
  5
E43
330
E42
100
AcDbEntity
  8
STEMPEL
100
AcDbVertex
100
AcDb2dVertex
 10
164.4110932400814
 20
273.6587205790027
 30
0.0
 70
    16
  0
VERTEX
  5
E44
330
E42
100
AcDbEntity
  8
STEMPEL
100
AcDbVertex
100
AcDb2dVertex
 10
164.4110932400814
 20
273.6587205790027
 30
0.0
 70
     8
  0
VERTEX
  5
E45
330
E42
100
AcDbEntity
  8
STEMPEL
100
AcDbVertex
100
AcDb2dVertex
 10
163.5885406694318
 20
272.925942573858
 30
0.0
 70
     8
  0
VERTEX
  5
E46
330
E42
100
AcDbEntity
  8
STEMPEL
100
AcDbVertex
100
AcDb2dVertex
 10
162.9330978647219
 20
270.9945531327925
 30
0.0
 70
     8
  0
VERTEX
  5
E47
330
E42
100
AcDbEntity
  8
STEMPEL
100
AcDbVertex
100
AcDb2dVertex
 10
162.3799461741712
 20
268.2649691173585
 30
0.0
 70
     8
  0
VERTEX
  5
E48
330
E42
100
AcDbEntity
  8
STEMPEL
100
AcDbVertex
100
AcDb2dVertex
 10
161.8642669459994
 20
265.1376073891087
 30
0.0
 70
     8
  0
VERTEX
  5
E49
330
E42
100
AcDbEntity
  8
STEMPEL
100
AcDbVertex
100
AcDb2dVertex
 10
161.3212415284265
 20
262.0128848095957
 30
0.0
 70
     8
  0
VERTEX
  5
E4A
330
E42
100
AcDbEntity
  8
STEMPEL
100
AcDbVertex
100
AcDb2dVertex
 10
160.6860512696719
 20
259.291218240372
 30
0.0
 70
     8
  0
VERTEX
  5
E4B
330
E42
100
AcDbEntity
  8
STEMPEL
100
AcDbVertex
100
AcDb2dVertex
 10
159.8938775179554
 20
257.3730245429902
 30
0.0
 70
     8
  0
VERTEX
  5
E4C
330
E42
100
AcDbEntity
  8
STEMPEL
100
AcDbVertex
100
AcDb2dVertex
 10
158.8799016214968
 20
256.6587205790028
 30
0.0
 70
     8
  0
VERTEX
  5
E4D
330
E42
100
AcDbEntity
  8
STEMPEL
100
AcDbVertex
100
AcDb2dVertex
 10
161.9371901177363
 20
273.6587205790028
 30
0.0
 70
    16
  0
VERTEX
  5
E4E
330
E42
100
AcDbEntity
  8
STEMPEL
100
AcDbVertex
100
AcDb2dVertex
 10
161.9371901177362
 20
256.6024187392853
 30
0.0
 70
    16
  0
VERTEX
  5
E4F
330
E42
100
AcDbEntity
  8
STEMPEL
100
AcDbVertex
100
AcDb2dVertex
 10
158.8799016214968
 20
256.6587205790028
 30
0.0
 70
    16
  0
SEQEND
  5
E50
330
E42
100
AcDbEntity
  8
STEMPEL
  0
LINE
  5
E51
330
1E
100
AcDbEntity
  8
STEMPEL
100
AcDbLine
 10
176.5832584924688
 20
258.3114242236691
 30
0.0
 11
178.9251306162556
 21
271.5928410231703
 31
0.0
  0
ARC
  5
E52
330
1E
100
AcDbEntity
  8
STEMPEL
100
AcDbCircle
 10
174.6136429864444
 20
258.658720579003
 30
0.0
 40
2.0
100
AcDbArc
 50
270.0
 51
350.0000000000014
  0
LINE
  5
E53
102
{ACAD_REACTORS
330
DB5
330
DB4
102
}
330
1E
100
AcDbEntity
  8
STEMPEL
100
AcDbLine
 10
186.291842248799
 20
258.658720579003
 30
0.0
 11
184.291842248799
 21
258.658720579003
 31
0.0
  0
ARC
  5
E54
330
1E
100
AcDbEntity
  8
STEMPEL
100
AcDbCircle
 10
181.3871499987862
 20
271.158720579003
 30
0.0
 40
2.5
100
AcDbArc
 50
90.0
 51
170.0000000000014
  0
ARC
  5
E55
102
{ACAD_REACTORS
330
DB4
102
}
330
1E
100
AcDbEntity
  8
STEMPEL
100
AcDbCircle
 10
197.2918422487992
 20
268.4679345833315
 30
0.0
 40
2.499999999999997
100
AcDbArc
 50
285.0000000000012
 51
105.0000000000012
  0
LINE
  5
E56
102
{ACAD_REACTORS
330
DB4
102
}
330
1E
100
AcDbEntity
  8
STEMPEL
100
AcDbLine
 10
194.9918422487993
 20
265.2634609897147
 30
0.0
 11
197.9388898615555
 21
266.0531200176088
 31
0.0
  0
LINE
  5
E57
102
{ACAD_REACTORS
330
DB4
102
}
330
1E
100
AcDbEntity
  8
STEMPEL
100
AcDbLine
 10
191.7066429373314
 20
269.5595753892821
 30
0.0
 11
196.6447946360429
 21
270.8827491490542
 31
0.0
  0
LINE
  5
E58
330
1E
100
AcDbEntity
  8
STEMPEL
100
AcDbLine
 10
197.2948661246562
 20
270.9679327545658
 30
0.0
 11
189.2561211605757
 21
270.9776560284054
 31
0.0
  0
ARC
  5
E59
102
{ACAD_REACTORS
330
DB4
102
}
330
1E
100
AcDbEntity
  8
STEMPEL
100
AcDbCircle
 10
191.1890048471263
 20
271.4914270418602
 30
0.0
 40
2.0
100
AcDbArc
 50
184.9999999999997
 51
285.0000000000012
  0
ARC
  5
E5A
102
{ACAD_REACTORS
330
DB4
102
}
330
1E
100
AcDbEntity
  8
STEMPEL
100
AcDbCircle
 10
186.2842025737125
 20
281.658720579003
 30
0.0
 40
2.0
100
AcDbArc
 50
4.999999999999743
 51
90.0
  0
ARC
  5
E5B
102
{ACAD_REACTORS
330
DB4
102
}
330
1E
100
AcDbEntity
  8
STEMPEL
100
AcDbCircle
 10
184.2993912320933
 20
281.658720579003
 30
0.0
 40
2.0
100
AcDbArc
 50
90.0
 51
175.0000000000002
  0
LINE
  5
E5C
102
{ACAD_REACTORS
330
DB4
102
}
330
1E
100
AcDbEntity
  8
STEMPEL
100
AcDbLine
 10
184.2993912320933
 20
283.658720579003
 30
0.0
 11
186.2842025737125
 21
283.658720579003
 31
0.0
  0
LINE
  5
E5D
102
{ACAD_REACTORS
330
DB5
330
DB4
102
}
330
1E
100
AcDbEntity
  8
STEMPEL
100
AcDbLine
 10
186.2918422487991
 20
281.658720579003
 30
0.0
 11
184.2918422487991
 21
281.658720579003
 31
0.0
  0
DIMENSION
  5
E5F
330
1E
100
AcDbEntity
  8
BEM
100
AcDbDimension
  2
*D1
 10
98.66435131468371
 20
253.658720579003
 30
0.0
 11
95.41435131468366
 21
268.658720579003
 31
0.0
 70
    32
 71
     5
 42
30.0
  3
Standard
100
AcDbAlignedDimension
 13
111.291842248799
 23
283.658720579003
 33
0.0
 14
111.291842248799
 24
253.658720579003
 34
0.0
 50
90.0
100
AcDbRotatedDimension
1001
ACAD
1000
DSTYLE
1002
{
1070
    41
1040
3.5
1070
    42
1040
1.0
1070
    43
1040
7.0
1070
    44
1040
1.0
1070
    73
1070
     0
1070
    74
1070
     0
1070
    77
1070
     1
1070
    78
1070
     8
1070
    79
1070
     2
1070
   140
1040
3.5
1070
   141
1040
1.5
1070
   146
1040
0.5
1070
   147
1040
1.5
1070
   172
1070
     1
1070
   178
1070
     1
1070
   179
1070
     2
1070
   271
1070
     2
1070
   272
1070
     2
1070
   284
1070
     8
1070
   285
1070
     8
1070
   286
1070
     8
1002
}
  0
DIMENSION
  5
E6C
330
1E
100
AcDbEntity
  8
BEM
100
AcDbDimension
  2
*D2
 10
199.7918422487992
 20
243.1453668913909
 30
0.0
 11
111.2918422487991
 21
246.3953668913908
 31
0.0
 70
    32
  1
%%c<>
 71
     5
 42
177.0000000000003
  3
Standard
100
AcDbAlignedDimension
 13
22.79184224879896
 23
268.4679345833315
 33
0.0
 14
199.7918422487992
 24
268.4679345833315
 34
0.0
100
AcDbRotatedDimension
1001
ACAD
1000
DSTYLE
1002
{
1070
    41
1040
3.5
1070
    42
1040
1.0
1070
    43
1040
7.0
1070
    44
1040
1.0
1070
    73
1070
     0
1070
    74
1070
     0
1070
    77
1070
     1
1070
    78
1070
     8
1070
    79
1070
     2
1070
   140
1040
3.5
1070
   141
1040
1.5
1070
   146
1040
0.5
1070
   147
1040
1.5
1070
   172
1070
     1
1070
   178
1070
     1
1070
   179
1070
     2
1070
   271
1070
     2
1070
   272
1070
     2
1070
   284
1070
     8
1070
   285
1070
     8
1070
   286
1070
     8
1002
}
  0
ENDSEC
  0
SECTION
  2
OBJECTS
  0
DICTIONARY
  5
C
330
0
100
AcDbDictionary
281
     1
  3
ACAD_COLOR
350
11A
  3
ACAD_GROUP
350
D
  3
ACAD_LAYOUT
350
19
  3
ACAD_MATERIAL
350
119
  3
ACAD_MLINESTYLE
350
16
  3
ACAD_PLOTSETTINGS
350
18
  3
ACAD_PLOTSTYLENAME
350
E
  3
AcDbVariableDictionary
350
125
  0
DICTIONARY
  5
DB
330
1E
100
AcDbDictionary
280
     1
281
     1
  3
ACAD_LAYOUTSELFREF
360
10F
  0
DICTIONARY
  5
DD
330
1A
100
AcDbDictionary
280
     1
281
     1
  3
ACAD_LAYOUTSELFREF
360
10E
  0
DICTIONARY
  5
11A
102
{ACAD_REACTORS
330
C
102
}
330
C
100
AcDbDictionary
281
     1
  0
DICTIONARY
  5
D
102
{ACAD_REACTORS
330
C
102
}
330
C
100
AcDbDictionary
281
     1
  0
DICTIONARY
  5
19
102
{ACAD_REACTORS
330
C
102
}
330
C
100
AcDbDictionary
281
     1
  3
Layout1
350
1D
  3
Model
350
21
  0
DICTIONARY
  5
119
102
{ACAD_REACTORS
330
C
102
}
330
C
100
AcDbDictionary
281
     1
  0
DICTIONARY
  5
16
102
{ACAD_REACTORS
330
C
102
}
330
C
100
AcDbDictionary
281
     1
  3
Standard
350
17
  0
DICTIONARY
  5
18
102
{ACAD_REACTORS
330
C
102
}
330
C
100
AcDbDictionary
281
     1
  0
ACDBDICTIONARYWDFLT
  5
E
102
{ACAD_REACTORS
330
C
102
}
330
C
100
AcDbDictionary
281
     1
  3
Normal
350
F
100
AcDbDictionaryWithDefault
340
F
  0
DICTIONARY
  5
125
102
{ACAD_REACTORS
330
C
102
}
330
C
100
AcDbDictionary
281
     1
  3
DIMASSOC
350
126
  3
PROJECTNAME
350
127
  0
XRECORD
  5
10F
102
{ACAD_REACTORS
330
DB
102
}
330
DB
100
AcDbXrecord
280
     1
340
1E
  0
XRECORD
  5
10E
102
{ACAD_REACTORS
330
DD
102
}
330
DD
100
AcDbXrecord
280
     1
340
1A
  0
LAYOUT
  5
1D
102
{ACAD_REACTORS
330
19
102
}
330
19
100
AcDbPlotSettings
  1

  2
\\NT_WORK01\HP LaserJet 5000 PCL 6
  4

  6

 40
0.0
 41
0.0
 42
0.0
 43
0.0
 44
0.0
 45
0.0
 46
0.0
 47
0.0
 48
0.0
 49
0.0
140
0.0
141
0.0
142
1.0
143
1.0
 70
   688
 72
     0
 73
     0
 74
     5
  7

 75
    16
147
1.0
 76
     0
 77
     2
 78
   300
148
0.0
149
0.0
100
AcDbLayout
  1
Layout1
 70
     0
 71
     1
 10
0.0
 20
0.0
 11
12.0
 21
9.0
 12
0.0
 22
0.0
 32
0.0
 14
1.000000000000000E+20
 24
1.000000000000000E+20
 34
1.000000000000000E+20
 15
-1.000000000000000E+20
 25
-1.000000000000000E+20
 35
-1.000000000000000E+20
146
0.0
 13
0.0
 23
0.0
 33
0.0
 16
1.0
 26
0.0
 36
0.0
 17
0.0
 27
1.0
 37
0.0
 76
     0
330
1A
  0
LAYOUT
  5
21
102
{ACAD_REACTORS
330
19
102
}
330
19
100
AcDbPlotSettings
  1

  2
none_device
  4
Letter_(8.50_x_11.00_Inches)
  6

 40
6.349999904632568
 41
6.349999904632568
 42
6.350006103515625
 43
6.350006103515625
 44
215.8999938964844
 45
279.3999938964844
 46
0.0
 47
0.0
 48
0.0
 49
0.0
140
0.0
141
0.0
142
1.0
143
1.0
 70
 11952
 72
     0
 73
     1
 74
     0
  7

 75
     0
147
1.0
 76
     0
 77
     2
 78
   300
148
1135.591553746481
149
30.69154860138803
100
AcDbLayout
  1
Model
 70
     1
 71
     0
 10
0.0
 20
0.0
 11
12.0
 21
9.0
 12
0.0
 22
0.0
 32
0.0
 14
0.0
 24
0.0
 34
0.0
 15
0.0
 25
0.0
 35
0.0
146
0.0
 13
0.0
 23
0.0
 33
0.0
 16
1.0
 26
0.0
 36
0.0
 17
0.0
 27
1.0
 37
0.0
 76
     0
330
1E
  0
MLINESTYLE
  5
17
102
{ACAD_REACTORS
330
16
102
}
330
16
100
AcDbMlineStyle
  2
STANDARD
 70
     0
  3

 62
   256
 51
90.0
 52
90.0
 71
     2
 49
0.5
 62
   256
  6
BYLAYER
 49
-0.5
 62
   256
  6
BYLAYER
  0
ACDBPLACEHOLDER
  5
F
102
{ACAD_REACTORS
330
E
102
}
330
E
  0
DICTIONARYVAR
  5
126
102
{ACAD_REACTORS
330
125
102
}
330
125
100
DictionaryVariables
280
     0
  1
1
  0
DICTIONARYVAR
  5
127
102
{ACAD_REACTORS
330
125
102
}
330
125
100
DictionaryVariables
280
     0
  1

  0
ENDSEC
  0
EOF
