  0
SECTION
  2
HEADER
  9
$ACADVER
  1
AC1018
  9
$ACADMAINTVER
 70
     2
  9
$DWGCODEPAGE
  3
ANSI_1252
  9
$INSBASE
 10
0.0
 20
0.0
 30
0.0
  9
$EXTMIN
 10
-0.0045573378346262
 20
-0.0090585340732332
 30
-0.0000000000000053
  9
$EXTMAX
 10
210.0126114865546
 20
297.0090664869001
 30
0.0000000000000099
  9
$LIMMIN
 10
0.0
 20
0.0
  9
$LIMMAX
 10
210.0
 20
297.0
  9
$ORTHOMODE
 70
     0
  9
$REGENMODE
 70
     1
  9
$FILLMODE
 70
     1
  9
$QTEXTMODE
 70
     0
  9
$MIRRTEXT
 70
     1
  9
$LTSCALE
 40
10.0
  9
$ATTMODE
 70
     1
  9
$TEXTSIZE
 40
3.5
  9
$TRACEWID
 40
1.0
  9
$TEXTSTYLE
  7
STANDARD
  9
$CLAYER
  8
BEM
  9
$CELTYPE
  6
ByLayer
  9
$CECOLOR
 62
   256
  9
$CELTSCALE
 40
1.0
  9
$DISPSILH
 70
     0
  9
$DIMSCALE
 40
1.0
  9
$DIMASZ
 40
3.5
  9
$DIMEXO
 40
1.0
  9
$DIMDLI
 40
7.0
  9
$DIMRND
 40
0.0
  9
$DIMDLE
 40
0.0
  9
$DIMEXE
 40
1.0
  9
$DIMTP
 40
0.0
  9
$DIMTM
 40
0.0
  9
$DIMTXT
 40
3.5
  9
$DIMCEN
 40
1.5
  9
$DIMTSZ
 40
0.0
  9
$DIMTOL
 70
     0
  9
$DIMLIM
 70
     0
  9
$DIMTIH
 70
     0
  9
$DIMTOH
 70
     0
  9
$DIMSE1
 70
     0
  9
$DIMSE2
 70
     0
  9
$DIMTAD
 70
     1
  9
$DIMZIN
 70
     8
  9
$DIMBLK
  1

  9
$DIMASO
 70
     1
  9
$DIMSHO
 70
     0
  9
$DIMPOST
  1

  9
$DIMAPOST
  1

  9
$DIMALT
 70
     0
  9
$DIMALTD
 70
     2
  9
$DIMALTF
 40
25.4
  9
$DIMLFAC
 40
1.0
  9
$DIMTOFL
 70
     1
  9
$DIMTVP
 40
0.0
  9
$DIMTIX
 70
     0
  9
$DIMSOXD
 70
     0
  9
$DIMSAH
 70
     0
  9
$DIMBLK1
  1

  9
$DIMBLK2
  1

  9
$DIMSTYLE
  2
Standard
  9
$DIMCLRD
 70
     0
  9
$DIMCLRE
 70
     0
  9
$DIMCLRT
 70
     1
  9
$DIMTFAC
 40
0.5
  9
$DIMGAP
 40
1.5
  9
$DIMJUST
 70
     0
  9
$DIMSD1
 70
     0
  9
$DIMSD2
 70
     0
  9
$DIMTOLJ
 70
     1
  9
$DIMTZIN
 70
     8
  9
$DIMALTZ
 70
     8
  9
$DIMALTTZ
 70
     8
  9
$DIMUPT
 70
     0
  9
$DIMDEC
 70
     2
  9
$DIMTDEC
 70
     2
  9
$DIMALTU
 70
     2
  9
$DIMALTTD
 70
     2
  9
$DIMTXSTY
  7
STANDARD
  9
$DIMAUNIT
 70
     0
  9
$DIMADEC
 70
     2
  9
$DIMALTRND
 40
0.0
  9
$DIMAZIN
 70
     2
  9
$DIMDSEP
 70
    46
  9
$DIMATFIT
 70
     3
  9
$DIMFRAC
 70
     0
  9
$DIMLDRBLK
  1

  9
$DIMLUNIT
 70
     2
  9
$DIMLWD
 70
    -2
  9
$DIMLWE
 70
    -2
  9
$DIMTMOVE
 70
     0
  9
$LUNITS
 70
     2
  9
$LUPREC
 70
     2
  9
$SKETCHINC
 40
1.0
  9
$FILLETRAD
 40
0.0
  9
$AUNITS
 70
     0
  9
$AUPREC
 70
     0
  9
$MENU
  1
ACAD
  9
$ELEVATION
 40
0.0
  9
$PELEVATION
 40
0.0
  9
$THICKNESS
 40
0.0
  9
$LIMCHECK
 70
     0
  9
$CHAMFERA
 40
0.0
  9
$CHAMFERB
 40
0.0
  9
$CHAMFERC
 40
0.0
  9
$CHAMFERD
 40
0.0
  9
$SKPOLY
 70
     0
  9
$TDCREATE
 40
2455397.867059838
  9
$TDUCREATE
 40
2455397.783726505
  9
$TDUPDATE
 40
2455461.604858287
  9
$TDUUPDATE
 40
2455461.521524954
  9
$TDINDWG
 40
0.0724841782
  9
$TDUSRTIMER
 40
0.0724841782
  9
$USRTIMER
 70
     1
  9
$ANGBASE
 50
0.0
  9
$ANGDIR
 70
     0
  9
$PDMODE
 70
     0
  9
$PDSIZE
 40
0.0
  9
$PLINEWID
 40
0.0
  9
$SPLFRAME
 70
     0
  9
$SPLINETYPE
 70
     6
  9
$SPLINESEGS
 70
     8
  9
$HANDSEED
  5
D12
  9
$SURFTAB1
 70
     6
  9
$SURFTAB2
 70
     6
  9
$SURFTYPE
 70
     6
  9
$SURFU
 70
     6
  9
$SURFV
 70
     6
  9
$UCSBASE
  2

  9
$UCSNAME
  2

  9
$UCSORG
 10
0.0
 20
0.0
 30
0.0
  9
$UCSXDIR
 10
1.0
 20
0.0
 30
0.0
  9
$UCSYDIR
 10
0.0
 20
1.0
 30
0.0
  9
$UCSORTHOREF
  2

  9
$UCSORTHOVIEW
 70
     0
  9
$UCSORGTOP
 10
0.0
 20
0.0
 30
0.0
  9
$UCSORGBOTTOM
 10
0.0
 20
0.0
 30
0.0
  9
$UCSORGLEFT
 10
0.0
 20
0.0
 30
0.0
  9
$UCSORGRIGHT
 10
0.0
 20
0.0
 30
0.0
  9
$UCSORGFRONT
 10
0.0
 20
0.0
 30
0.0
  9
$UCSORGBACK
 10
0.0
 20
0.0
 30
0.0
  9
$PUCSBASE
  2

  9
$PUCSNAME
  2

  9
$PUCSORG
 10
0.0
 20
0.0
 30
0.0
  9
$PUCSXDIR
 10
1.0
 20
0.0
 30
0.0
  9
$PUCSYDIR
 10
0.0
 20
1.0
 30
0.0
  9
$PUCSORTHOREF
  2

  9
$PUCSORTHOVIEW
 70
     0
  9
$PUCSORGTOP
 10
0.0
 20
0.0
 30
0.0
  9
$PUCSORGBOTTOM
 10
0.0
 20
0.0
 30
0.0
  9
$PUCSORGLEFT
 10
0.0
 20
0.0
 30
0.0
  9
$PUCSORGRIGHT
 10
0.0
 20
0.0
 30
0.0
  9
$PUCSORGFRONT
 10
0.0
 20
0.0
 30
0.0
  9
$PUCSORGBACK
 10
0.0
 20
0.0
 30
0.0
  9
$USERI1
 70
     0
  9
$USERI2
 70
     0
  9
$USERI3
 70
     0
  9
$USERI4
 70
     0
  9
$USERI5
 70
     0
  9
$USERR1
 40
0.0
  9
$USERR2
 40
0.0
  9
$USERR3
 40
0.0
  9
$USERR4
 40
0.0
  9
$USERR5
 40
0.0
  9
$WORLDVIEW
 70
     1
  9
$SHADEDGE
 70
     3
  9
$SHADEDIF
 70
    70
  9
$TILEMODE
 70
     1
  9
$MAXACTVP
 70
    16
  9
$PINSBASE
 10
0.0
 20
0.0
 30
0.0
  9
$PLIMCHECK
 70
     0
  9
$PEXTMIN
 10
1.000000000000000E+20
 20
1.000000000000000E+20
 30
1.000000000000000E+20
  9
$PEXTMAX
 10
-1.000000000000000E+20
 20
-1.000000000000000E+20
 30
-1.000000000000000E+20
  9
$PLIMMIN
 10
0.0
 20
0.0
  9
$PLIMMAX
 10
12.0
 20
9.0
  9
$UNITMODE
 70
     0
  9
$VISRETAIN
 70
     0
  9
$PLINEGEN
 70
     0
  9
$PSLTSCALE
 70
     0
  9
$TREEDEPTH
 70
  3020
  9
$CMLSTYLE
  2
Standard
  9
$CMLJUST
 70
     0
  9
$CMLSCALE
 40
1.0
  9
$PROXYGRAPHICS
 70
     1
  9
$MEASUREMENT
 70
     0
  9
$CELWEIGHT
370
    -1
  9
$ENDCAPS
280
     0
  9
$JOINSTYLE
280
     0
  9
$LWDISPLAY
290
     0
  9
$INSUNITS
 70
     0
  9
$HYPERLINKBASE
  1

  9
$STYLESHEET
  1
monochrome 1.ctb
  9
$XEDIT
290
     1
  9
$CEPSNTYPE
380
     0
  9
$PSTYLEMODE
290
     1
  9
$FINGERPRINTGUID
  2
{D68B0D0D-A558-11D7-B632-000102183313}
  9
$VERSIONGUID
  2
{7D66A5ED-367D-436B-8C59-522B298D7DF5}
  9
$EXTNAMES
290
     1
  9
$PSVPSCALE
 40
0.0
  9
$OLESTARTUP
290
     0
  9
$SORTENTS
280
   127
  9
$INDEXCTL
280
     0
  9
$HIDETEXT
280
     0
  9
$XCLIPFRAME
290
     0
  9
$HALOGAP
280
     0
  9
$OBSCOLOR
 70
   257
  9
$OBSLTYPE
280
     0
  9
$INTERSECTIONDISPLAY
280
     0
  9
$INTERSECTIONCOLOR
 70
   257
  9
$DIMASSOC
280
     1
  9
$PROJECTNAME
  1

  0
ENDSEC
  0
SECTION
  2
CLASSES
  0
CLASS
  1
ACDBDICTIONARYWDFLT
  2
AcDbDictionaryWithDefault
  3
ObjectDBX Classes
 90
        0
 91
        1
280
     0
281
     0
  0
CLASS
  1
DICTIONARYVAR
  2
AcDbDictionaryVar
  3
ObjectDBX Classes
 90
        0
 91
        2
280
     0
281
     0
  0
ENDSEC
  0
SECTION
  2
TABLES
  0
TABLE
  2
VPORT
  5
8
330
0
100
AcDbSymbolTable
 70
     2
  0
VPORT
  5
D11
330
8
100
AcDbSymbolTableRecord
100
AcDbViewportTableRecord
  2
*Active
 70
     0
 10
0.0
 20
0.0
 11
1.0
 21
1.0
 12
105.00402707436
 22
148.5000039764134
 13
0.0
 23
0.0
 14
1.0
 24
1.0
 15
10.0
 25
10.0
 16
0.0
 26
0.0
 36
1.0
 17
0.0
 27
0.0
 37
0.0
 40
299.4166563132019
 41
1.336927223719676
 42
50.0
 43
0.0
 44
0.0
 50
0.0
 51
0.0
 71
     0
 72
  1500
 73
     1
 74
     0
 75
     0
 76
     0
 77
     0
 78
     0
281
     0
 65
     1
110
0.0
120
0.0
130
0.0
111
1.0
121
0.0
131
0.0
112
0.0
122
1.0
132
0.0
 79
     0
146
0.0
  0
ENDTAB
  0
TABLE
  2
LTYPE
  5
5
330
0
100
AcDbSymbolTable
 70
     3
  0
LTYPE
  5
13
330
5
100
AcDbSymbolTableRecord
100
AcDbLinetypeTableRecord
  2
ByBlock
 70
     0
  3

 72
    65
 73
     0
 40
0.0
  0
LTYPE
  5
14
330
5
100
AcDbSymbolTableRecord
100
AcDbLinetypeTableRecord
  2
ByLayer
 70
     0
  3

 72
    65
 73
     0
 40
0.0
  0
LTYPE
  5
15
330
5
100
AcDbSymbolTableRecord
100
AcDbLinetypeTableRecord
  2
Continuous
 70
     0
  3
Solid line
 72
    65
 73
     0
 40
0.0
  0
LTYPE
  5
25
330
5
100
AcDbSymbolTableRecord
100
AcDbLinetypeTableRecord
  2
STRICHPUNKT
 70
     0
  3
__ . __ . __ . __ . __ . __ . __ . __ . __ . __
 72
    65
 73
     4
 40
1.0
 49
0.5
 74
     0
 49
-0.25
 74
     0
 49
0.0
 74
     0
 49
-0.25
 74
     0
  0
LTYPE
  5
34
330
5
100
AcDbSymbolTableRecord
100
AcDbLinetypeTableRecord
  2
AUSGEZOGEN
 70
     0
  3
Ausgezogene Linie
 72
    65
 73
     0
 40
0.0
  0
ENDTAB
  0
TABLE
  2
LAYER
  5
2
330
0
100
AcDbSymbolTable
 70
     9
  0
LAYER
  5
10
330
2
100
AcDbSymbolTableRecord
100
AcDbLayerTableRecord
  2
0
 70
     0
 62
     7
  6
Continuous
370
    -3
390
F
  0
LAYER
  5
2B
330
2
100
AcDbSymbolTableRecord
100
AcDbLayerTableRecord
  2
VOLL
 70
     0
 62
     1
  6
Continuous
370
    -3
390
F
  0
LAYER
  5
2C
330
2
100
AcDbSymbolTableRecord
100
AcDbLayerTableRecord
  2
HILF
 70
     0
 62
     2
  6
Continuous
370
    -3
390
F
  0
LAYER
  5
2D
330
2
100
AcDbSymbolTableRecord
100
AcDbLayerTableRecord
  2
MITTEL
 70
     0
 62
     2
  6
STRICHPUNKT
370
    -3
390
F
  0
LAYER
  5
2F
330
2
100
AcDbSymbolTableRecord
100
AcDbLayerTableRecord
  2
BEM
 70
     0
 62
     7
  6
Continuous
370
    -3
390
F
  0
LAYER
  5
30
330
2
100
AcDbSymbolTableRecord
100
AcDbLayerTableRecord
  2
STEMPEL
 70
     0
 62
     3
  6
Continuous
370
    -3
390
F
  0
LAYER
  5
33
330
2
100
AcDbSymbolTableRecord
100
AcDbLayerTableRecord
  2
TEXT
 70
     0
 62
     7
  6
Continuous
370
    -3
390
F
  0
LAYER
  5
261
330
2
100
AcDbSymbolTableRecord
100
AcDbLayerTableRecord
  2
DEFPOINTS
 70
     0
 62
     7
  6
AUSGEZOGEN
290
     0
370
    -3
390
F
  0
LAYER
  5
262
330
2
100
AcDbSymbolTableRecord
100
AcDbLayerTableRecord
  2
SCHRAFF
 70
     0
 62
     7
  6
AUSGEZOGEN
370
    -3
390
F
  0
ENDTAB
  0
TABLE
  2
STYLE
  5
3
330
0
100
AcDbSymbolTable
 70
     2
  0
STYLE
  5
11
330
3
100
AcDbSymbolTableRecord
100
AcDbTextStyleTableRecord
  2
STANDARD
 70
     0
 40
0.0
 41
0.8
 50
0.0
 71
     0
 42
3.5
  3
simplex.shx
  4

  0
STYLE
  5
24
330
3
100
AcDbSymbolTableRecord
100
AcDbTextStyleTableRecord
  2
GREEKS
 70
     0
 40
0.0
 41
0.8
 50
0.0
 71
     0
 42
2.5
  3
SIMPLEX.shx
  4

  0
ENDTAB
  0
TABLE
  2
VIEW
  5
6
330
0
100
AcDbSymbolTable
 70
     0
  0
ENDTAB
  0
TABLE
  2
UCS
  5
7
330
0
100
AcDbSymbolTable
 70
     0
  0
ENDTAB
  0
TABLE
  2
APPID
  5
9
330
0
100
AcDbSymbolTable
 70
     1
  0
APPID
  5
12
330
9
100
AcDbSymbolTableRecord
100
AcDbRegAppTableRecord
  2
ACAD
 70
     0
  0
ENDTAB
  0
TABLE
  2
DIMSTYLE
  5
A
330
0
100
AcDbSymbolTable
 70
     1
100
AcDbDimStyleTable
 71
     1
340
A2
  0
DIMSTYLE
105
A2
102
{ACAD_REACTORS
330
CE3
330
CF0
102
}
330
A
100
AcDbSymbolTableRecord
100
AcDbDimStyleTableRecord
  2
Standard
 70
     0
340
11
  0
ENDTAB
  0
TABLE
  2
BLOCK_RECORD
  5
1
330
0
100
AcDbSymbolTable
 70
     3
  0
BLOCK_RECORD
  5
1E
102
{ACAD_XDICTIONARY
360
DB
102
}
330
1
100
AcDbSymbolTableRecord
100
AcDbBlockTableRecord
  2
*Model_Space
340
21
  0
BLOCK_RECORD
  5
1A
102
{ACAD_XDICTIONARY
360
DD
102
}
330
1
100
AcDbSymbolTableRecord
100
AcDbBlockTableRecord
  2
*Paper_Space
340
1D
  0
BLOCK_RECORD
  5
22
330
1
100
AcDbSymbolTableRecord
100
AcDbBlockTableRecord
  2
LOGO
340
0
102
{BLKREFS
331
A6A
102
}
  0
BLOCK_RECORD
  5
CE4
330
1
100
AcDbSymbolTableRecord
100
AcDbBlockTableRecord
  2
*D1
340
0
  0
BLOCK_RECORD
  5
CF1
330
1
100
AcDbSymbolTableRecord
100
AcDbBlockTableRecord
  2
*D2
340
0
  0
ENDTAB
  0
ENDSEC
  0
SECTION
  2
BLOCKS
  0
BLOCK
  5
37
330
1E
100
AcDbEntity
  8
0
100
AcDbBlockBegin
  2
*Model_Space
 70
     0
 10
0.0
 20
0.0
 30
0.0
  3
*Model_Space
  1

  0
ENDBLK
  5
38
330
1E
100
AcDbEntity
  8
0
100
AcDbBlockEnd
  0
BLOCK
  5
35
330
1A
100
AcDbEntity
 67
     1
  8
0
100
AcDbBlockBegin
  2
*Paper_Space
 70
     0
 10
0.0
 20
0.0
 30
0.0
  3
*Paper_Space
  1

  0
ENDBLK
  5
36
330
1A
100
AcDbEntity
 67
     1
  8
0
100
AcDbBlockEnd
  0
BLOCK
  5
39
330
22
100
AcDbEntity
  8
0
100
AcDbBlockBegin
  2
LOGO
 70
     0
 10
0.0
 20
0.0
 30
0.0
  3
LOGO
  1

  0
ARC
  5
3A
330
22
100
AcDbEntity
  8
0
100
AcDbCircle
 10
11.59973089678112
 20
-9.271599258481501
 30
0.0
 40
4.5
100
AcDbArc
 50
270.0
 51
231.0575587310159
  0
LINE
  5
3B
330
22
100
AcDbEntity
  8
0
100
AcDbLine
 10
3.599730896781125
 20
-4.771599258481529
 30
0.0
 11
3.599730896781153
 21
-11.77159925848133
 31
0.0
  0
LINE
  5
3C
330
22
100
AcDbEntity
  8
0
100
AcDbLine
 10
2.599730896781125
 20
-4.771599258481529
 30
0.0
 11
2.599730896781153
 21
-11.77159925848133
 31
0.0
  0
CIRCLE
  5
3D
330
22
100
AcDbEntity
  8
0
100
AcDbCircle
 10
11.59973089678112
 20
-9.271599258481501
 30
0.0
 40
3.5
  0
ARC
  5
3E
330
22
100
AcDbEntity
  8
0
100
AcDbCircle
 10
31.59973089678115
 20
-9.271599258481472
 30
0.0
 40
4.5
100
AcDbArc
 50
270.0
 51
231.0575587310182
  0
LINE
  5
3F
330
22
100
AcDbEntity
  8
0
100
AcDbLine
 10
17.59973089678112
 20
-4.771599258481472
 30
0.0
 11
17.59973089678115
 21
-13.77159925848147
 31
0.0
  0
ARC
  5
40
330
22
100
AcDbEntity
  8
0
100
AcDbCircle
 10
22.59973089678116
 20
-7.271599258481472
 30
0.0
 40
2.5
100
AcDbArc
 50
293.1161887722295
 51
90.0
  0
CIRCLE
  5
41
330
22
100
AcDbEntity
  8
0
100
AcDbCircle
 10
31.59973089678115
 20
-9.271599258481472
 30
0.0
 40
3.5
  0
ARC
  5
42
330
22
100
AcDbEntity
  8
0
100
AcDbCircle
 10
4.599730896781153
 20
-11.77159925848133
 30
0.0
 40
1.0
100
AcDbArc
 50
180.0
 51
270.0
  0
ARC
  5
43
330
22
100
AcDbEntity
  8
0
100
AcDbCircle
 10
4.599730896781153
 20
-11.77159925848133
 30
0.0
 40
2.0
100
AcDbArc
 50
179.9999999999992
 51
270.0
  0
LINE
  5
44
330
22
100
AcDbEntity
  8
0
100
AcDbLine
 10
11.59973089678115
 20
-13.77159925848144
 30
0.0
 11
4.599730896781153
 21
-13.77159925848147
 31
0.0
  0
LINE
  5
45
330
22
100
AcDbEntity
  8
0
100
AcDbLine
 10
8.771303772034769
 20
-12.77159925848136
 30
0.0
 11
4.599730896781153
 21
-12.77159925848133
 31
0.0
  0
LINE
  5
46
330
22
100
AcDbEntity
  8
0
100
AcDbLine
 10
31.59973089678115
 20
-13.77159925848147
 30
0.0
 11
23.6715276665056
 21
-13.77159925848144
 31
0.0
  0
LINE
  5
47
330
22
100
AcDbEntity
  8
0
100
AcDbLine
 10
23.56565672307022
 20
-9.51278021337896
 30
0.0
 11
24.4388546544846
 21
-12.77159925848144
 31
0.0
  0
LINE
  5
48
330
22
100
AcDbEntity
  8
0
100
AcDbLine
 10
22.59973089678116
 20
-9.771599258481472
 30
0.0
 11
18.59973089678112
 21
-9.771599258481472
 31
0.0
  0
LINE
  5
49
330
22
100
AcDbEntity
  8
0
100
AcDbLine
 10
18.59973089678115
 20
-13.77159925848144
 30
0.0
 11
17.59973089678115
 21
-13.77159925848144
 31
0.0
  0
LINE
  5
4A
330
22
100
AcDbEntity
  8
0
100
AcDbLine
 10
18.59973089678115
 20
-9.771599258481472
 30
0.0
 11
18.59973089678115
 21
-13.77159925848144
 31
0.0
  0
LINE
  5
4B
330
22
100
AcDbEntity
  8
0
100
AcDbLine
 10
22.59973089678116
 20
-9.771599258481472
 30
0.0
 11
23.67152766650562
 21
-13.77159925848147
 31
0.0
  0
ARC
  5
4C
330
22
100
AcDbEntity
  8
0
100
AcDbCircle
 10
22.59973089678116
 20
-7.271599258481472
 30
0.0
 40
2.5
100
AcDbArc
 50
270.0
 51
270.0000000000007
  0
LINE
  5
4D
330
22
100
AcDbEntity
  8
0
100
AcDbLine
 10
28.77130377203494
 20
-12.77159925848147
 30
0.0
 11
24.43885465448463
 21
-12.77159925848144
 31
0.0
  0
LINE
  5
4E
330
22
100
AcDbEntity
  8
0
100
AcDbLine
 10
3.599730896781125
 20
-4.771599258481472
 30
0.0
 11
2.599730896781125
 21
-4.771599258481472
 31
0.0
  0
LINE
  5
4F
330
22
100
AcDbEntity
  8
0
100
AcDbLine
 10
22.59973089678116
 20
-8.771599258481472
 30
0.0
 11
18.59973089678115
 21
-8.771599258481472
 31
0.0
  0
LINE
  5
50
330
22
100
AcDbEntity
  8
0
100
AcDbLine
 10
22.59973089678116
 20
-5.771599258481472
 30
0.0
 11
18.59973089678115
 21
-5.771599258481472
 31
0.0
  0
LINE
  5
51
330
22
100
AcDbEntity
  8
0
100
AcDbLine
 10
22.59973089678116
 20
-4.771599258481472
 30
0.0
 11
17.59973089678115
 21
-4.771599258481472
 31
0.0
  0
LINE
  5
52
330
22
100
AcDbEntity
  8
0
100
AcDbLine
 10
18.59973089678115
 20
-5.771599258481472
 30
0.0
 11
18.59973089678115
 21
-8.771599258481472
 31
0.0
  0
ARC
  5
53
330
22
100
AcDbEntity
  8
0
100
AcDbCircle
 10
22.59973089678116
 20
-7.271599258481472
 30
0.0
 40
1.5
100
AcDbArc
 50
270.0
 51
90.0
  0
ENDBLK
  5
54
330
22
100
AcDbEntity
  8
0
100
AcDbBlockEnd
  0
BLOCK
  5
CEE
330
CE4
100
AcDbEntity
  8
0
100
AcDbBlockBegin
  2
*D1
 70
     1
 10
0.0
 20
0.0
 30
0.0
  3
*D1
  1

  0
LINE
  5
CE5
330
CE4
100
AcDbEntity
  8
BEM
 62
     0
370
    -2
100
AcDbLine
 10
37.38718971970623
 20
253.5019445803383
 30
0.0
 11
37.38718971970623
 21
277.090744011436
 31
0.0
  0
LINE
  5
CE6
330
CE4
100
AcDbEntity
  8
BEM
 62
     0
370
    -2
100
AcDbLine
 10
183.3871897197063
 20
253.5019445803385
 30
0.0
 11
183.3871897197063
 21
277.090744011436
 31
0.0
  0
LINE
  5
CE7
330
CE4
100
AcDbEntity
  8
BEM
 62
     0
370
    -2
100
AcDbLine
 10
40.88718971970623
 20
276.090744011436
 30
0.0
 11
179.8871897197063
 21
276.090744011436
 31
0.0
  0
SOLID
  5
CE8
330
CE4
100
AcDbEntity
  8
BEM
 62
     0
100
AcDbTrace
 10
40.88718971970623
 20
276.6740773447693
 30
0.0
 11
40.88718971970623
 21
275.5074106781027
 31
0.0
 12
37.38718971970623
 22
276.090744011436
 32
0.0
 13
37.38718971970623
 23
276.090744011436
 33
0.0
  0
SOLID
  5
CE9
330
CE4
100
AcDbEntity
  8
BEM
 62
     0
100
AcDbTrace
 10
179.8871897197063
 20
276.6740773447693
 30
0.0
 11
179.8871897197063
 21
275.5074106781027
 31
0.0
 12
183.3871897197063
 22
276.090744011436
 32
0.0
 13
183.3871897197063
 23
276.090744011436
 33
0.0
  0
MTEXT
  5
CEA
330
CE4
100
AcDbEntity
  8
BEM
 62
     1
100
AcDbMText
 10
110.3871897197062
 20
279.340744011436
 30
0.0
 40
3.5
 41
0.0
 71
     5
 72
     1
  1
\A1;146
 73
     1
 44
1.0
  0
POINT
  5
CEB
330
CE4
100
AcDbEntity
  8
DEFPOINTS
 62
     0
100
AcDbPoint
 10
37.38718971970623
 20
252.5019445803383
 30
0.0
  0
POINT
  5
CEC
330
CE4
100
AcDbEntity
  8
DEFPOINTS
 62
     0
100
AcDbPoint
 10
183.3871897197063
 20
252.5019445803384
 30
0.0
  0
POINT
  5
CED
330
CE4
100
AcDbEntity
  8
DEFPOINTS
 62
     0
100
AcDbPoint
 10
183.3871897197063
 20
276.090744011436
 30
0.0
  0
ENDBLK
  5
CEF
330
CE4
100
AcDbEntity
  8
0
100
AcDbBlockEnd
  0
BLOCK
  5
CFB
330
CF1
100
AcDbEntity
  8
0
100
AcDbBlockBegin
  2
*D2
 70
     1
 10
0.0
 20
0.0
 30
0.0
  3
*D2
  1

  0
LINE
  5
CF2
330
CF1
100
AcDbEntity
  8
BEM
 62
     0
370
    -2
100
AcDbLine
 10
171.3795500446197
 20
267.8125668957023
 30
0.0
 11
192.8281716131491
 21
267.8125668957023
 31
0.0
  0
LINE
  5
CF3
330
CF1
100
AcDbEntity
  8
BEM
 62
     0
370
    -2
100
AcDbLine
 10
173.3871897197064
 20
237.8125668956988
 30
0.0
 11
192.8281716131491
 21
237.8125668956988
 31
0.0
  0
LINE
  5
CF4
330
CF1
100
AcDbEntity
  8
BEM
 62
     0
370
    -2
100
AcDbLine
 10
191.8281716131491
 20
264.3125668957023
 30
0.0
 11
191.8281716131491
 21
241.3125668956988
 31
0.0
  0
SOLID
  5
CF5
330
CF1
100
AcDbEntity
  8
BEM
 62
     0
100
AcDbTrace
 10
191.2448382798158
 20
264.3125668957023
 30
0.0
 11
192.4115049464825
 21
264.3125668957023
 31
0.0
 12
191.8281716131491
 22
267.8125668957023
 32
0.0
 13
191.8281716131491
 23
267.8125668957023
 33
0.0
  0
SOLID
  5
CF6
330
CF1
100
AcDbEntity
  8
BEM
 62
     0
100
AcDbTrace
 10
191.2448382798158
 20
241.3125668956988
 30
0.0
 11
192.4115049464825
 21
241.3125668956988
 31
0.0
 12
191.8281716131491
 22
237.8125668956988
 32
0.0
 13
191.8281716131491
 23
237.8125668956988
 33
0.0
  0
MTEXT
  5
CF7
330
CF1
100
AcDbEntity
  8
BEM
 62
     1
100
AcDbMText
 10
188.5781716131491
 20
252.8125668957006
 30
0.0
 40
3.5
 41
0.0
 71
     5
 72
     1
  1
\A1;30
 11
0.0000000000000001
 21
1.0
 31
0.0
 73
     1
 44
1.0
  0
POINT
  5
CF8
330
CF1
100
AcDbEntity
  8
DEFPOINTS
 62
     0
100
AcDbPoint
 10
170.3795500446197
 20
267.8125668957023
 30
0.0
  0
POINT
  5
CF9
330
CF1
100
AcDbEntity
  8
DEFPOINTS
 62
     0
100
AcDbPoint
 10
172.3871897197064
 20
237.8125668956988
 30
0.0
  0
POINT
  5
CFA
330
CF1
100
AcDbEntity
  8
DEFPOINTS
 62
     0
100
AcDbPoint
 10
191.8281716131491
 20
237.8125668956988
 30
0.0
  0
ENDBLK
  5
CFC
330
CF1
100
AcDbEntity
  8
0
100
AcDbBlockEnd
  0
ENDSEC
  0
SECTION
  2
ENTITIES
  0
LINE
  5
A26
330
1E
100
AcDbEntity
  8
STEMPEL
100
AcDbLine
 10
205.0
 20
55.00000000000003
 30
0.0
 11
19.99999999999998
 21
55.0
 31
0.0
  0
LINE
  5
A27
330
1E
100
AcDbEntity
  8
STEMPEL
100
AcDbLine
 10
68.00000000000006
 20
54.99999999999997
 30
0.0
 11
68.0
 21
4.999999999999985
 31
0.0
  0
LINE
  5
A28
330
1E
100
AcDbEntity
  8
STEMPEL
100
AcDbLine
 10
110.0
 20
55.00000000000003
 30
0.0
 11
110.0
 21
4.999999999999985
 31
0.0
  0
LINE
  5
A29
330
1E
100
AcDbEntity
  8
STEMPEL
100
AcDbLine
 10
166.0
 20
54.99999999999989
 30
0.0
 11
166.0
 21
20.0
 31
0.0
  0
LINE
  5
A2A
330
1E
100
AcDbEntity
  8
STEMPEL
100
AcDbLine
 10
67.99999999999994
 20
14.99999999999998
 30
0.0
 11
19.99999999999998
 21
14.99999999999998
 31
0.0
  0
LINE
  5
A2B
330
1E
100
AcDbEntity
  8
STEMPEL
100
AcDbLine
 10
205.0
 20
20.0
 30
0.0
 11
68.00000000000006
 21
19.99999999999998
 31
0.0
  0
LINE
  5
A2C
330
1E
100
AcDbEntity
  8
STEMPEL
100
AcDbLine
 10
205.0
 20
40.0
 30
0.0
 11
68.00000000000006
 21
39.99999999999997
 31
0.0
  0
LINE
  5
A2D
330
1E
100
AcDbEntity
  8
VOLL
100
AcDbLine
 10
27.00000000000005
 20
55.00000000000003
 30
0.0
 11
26.99999999999999
 21
4.999999999999985
 31
0.0
  0
LINE
  5
A2E
330
1E
100
AcDbEntity
  8
VOLL
100
AcDbLine
 10
47.00000000000005
 20
54.99999999999997
 30
0.0
 11
47.0
 21
4.999999999999985
 31
0.0
  0
LINE
  5
A2F
330
1E
100
AcDbEntity
  8
VOLL
100
AcDbLine
 10
57.00000000000006
 20
54.99999999999997
 30
0.0
 11
57.0
 21
4.999999999999985
 31
0.0
  0
LINE
  5
A30
330
1E
100
AcDbEntity
  8
VOLL
100
AcDbLine
 10
77.00000000000006
 20
39.99999999999997
 30
0.0
 11
77.00000000000006
 21
19.99999999999998
 31
0.0
  0
LINE
  5
A31
330
1E
100
AcDbEntity
  8
VOLL
100
AcDbLine
 10
90.00000000000005
 20
54.99999999999992
 30
0.0
 11
90.0
 21
19.99999999999998
 31
0.0
  0
LINE
  5
A32
330
1E
100
AcDbEntity
  8
HILF
100
AcDbLine
 10
20.00000000000004
 20
50.00000000000003
 30
0.0
 11
68.00000000000006
 21
50.00000000000003
 31
0.0
  0
LINE
  5
A33
330
1E
100
AcDbEntity
  8
HILF
100
AcDbLine
 10
20.00000000000004
 20
45.00000000000002
 30
0.0
 11
68.00000000000006
 21
45.00000000000002
 31
0.0
  0
LINE
  5
A34
330
1E
100
AcDbEntity
  8
HILF
100
AcDbLine
 10
20.00000000000004
 20
39.99999999999997
 30
0.0
 11
68.00000000000006
 21
39.99999999999997
 31
0.0
  0
LINE
  5
A35
330
1E
100
AcDbEntity
  8
HILF
100
AcDbLine
 10
20.00000000000004
 20
34.99999999999997
 30
0.0
 11
68.00000000000006
 21
34.99999999999997
 31
0.0
  0
LINE
  5
A36
330
1E
100
AcDbEntity
  8
HILF
100
AcDbLine
 10
20.00000000000004
 20
29.99999999999999
 30
0.0
 11
68.00000000000006
 21
29.99999999999999
 31
0.0
  0
LINE
  5
A37
330
1E
100
AcDbEntity
  8
HILF
100
AcDbLine
 10
20.00000000000004
 20
24.99999999999999
 30
0.0
 11
68.00000000000006
 21
24.99999999999999
 31
0.0
  0
LINE
  5
A38
330
1E
100
AcDbEntity
  8
HILF
100
AcDbLine
 10
20.00000000000004
 20
19.99999999999998
 30
0.0
 11
68.00000000000006
 21
19.99999999999998
 31
0.0
  0
LINE
  5
A39
330
1E
100
AcDbEntity
  8
HILF
100
AcDbLine
 10
68.00000000000006
 20
34.99999999999997
 30
0.0
 11
110.0
 21
34.99999999999997
 31
0.0
  0
LINE
  5
A3A
330
1E
100
AcDbEntity
  8
HILF
100
AcDbLine
 10
68.00000000000006
 20
29.99999999999999
 30
0.0
 11
110.0
 21
29.99999999999999
 31
0.0
  0
LINE
  5
A3B
330
1E
100
AcDbEntity
  8
HILF
100
AcDbLine
 10
68.00000000000006
 20
24.99999999999999
 30
0.0
 11
110.0
 21
24.99999999999999
 31
0.0
  0
LINE
  5
A3C
330
1E
100
AcDbEntity
  8
HILF
100
AcDbLine
 10
112.3868400548474
 20
42.01879123782069
 30
0.0
 11
162.4176958278155
 21
42.01879123782069
 31
0.0
  0
LINE
  5
A3D
330
1E
100
AcDbEntity
  8
HILF
100
AcDbLine
 10
112.3868400548474
 20
34.99999999999997
 30
0.0
 11
162.4176958278155
 21
34.99999999999997
 31
0.0
  0
LINE
  5
A3E
330
1E
100
AcDbEntity
  8
HILF
100
AcDbLine
 10
112.3868400548474
 20
29.99999999999999
 30
0.0
 11
162.4176958278155
 21
29.99999999999999
 31
0.0
  0
LINE
  5
A3F
330
1E
100
AcDbEntity
  8
HILF
100
AcDbLine
 10
112.3868400548474
 20
24.99999999999999
 30
0.0
 11
162.4176958278155
 21
24.99999999999999
 31
0.0
  0
LINE
  5
A40
330
1E
100
AcDbEntity
  8
VOLL
100
AcDbLine
 10
166.0
 20
30.0
 30
0.0
 11
205.0
 21
30.0
 31
0.0
  0
LINE
  5
A41
330
1E
100
AcDbEntity
  8
HILF
100
AcDbLine
 10
168.3619308148496
 20
41.88991818477913
 30
0.0
 11
202.4294419663364
 21
41.88991818477913
 31
0.0
  0
LINE
  5
A42
330
1E
100
AcDbEntity
  8
HILF
100
AcDbLine
 10
111.7454849644942
 20
7.446991290141568
 30
0.0
 11
202.4294419663364
 21
7.446991290141568
 31
0.0
  0
TEXT
  5
A43
330
1E
100
AcDbEntity
  8
TEXT
100
AcDbText
 10
31.9308298981591
 20
9.336909474920659
 30
0.0
 40
2.0
  1
Änderung
 41
0.8
  7
GREEKS
 72
     1
 11
37.30225846958767
 21
9.336909474920659
 31
0.0
100
AcDbText
  0
TEXT
  5
A44
330
1E
100
AcDbEntity
  8
TEXT
100
AcDbText
 10
71.75817860751886
 20
51.23104475435443
 30
0.0
 40
2.5
  1
Maßstab
 41
0.8
  7
GREEKS
100
AcDbText
  0
TEXT
  5
A45
330
1E
100
AcDbEntity
  8
TEXT
100
AcDbText
 10
92.14294773670257
 20
51.20920842174095
 30
0.0
 40
2.5
  1
Zul. Abw.
 41
0.8
  7
GREEKS
100
AcDbText
  0
TEXT
  5
A46
330
1E
100
AcDbEntity
  8
TEXT
100
AcDbText
 10
112.4389701904505
 20
51.27446640058898
 30
0.0
 40
2.5
  1
Benennung
 41
0.8
  7
GREEKS
100
AcDbText
  0
TEXT
  5
A47
330
1E
100
AcDbEntity
  8
TEXT
100
AcDbText
 10
168.089377478817
 20
51.15660172685682
 30
0.0
 40
2.5
  1
Zeichnungs Nr.
 41
0.8
  7
GREEKS
100
AcDbText
  0
TEXT
  5
A48
330
1E
100
AcDbEntity
  8
TEXT
100
AcDbText
 10
112.371119195568
 20
15.42280285096528
 30
0.0
 40
2.5
  1
Bauvorhaben
 41
0.8
  7
GREEKS
100
AcDbText
  0
TEXT
  5
A49
330
1E
100
AcDbEntity
  8
TEXT
100
AcDbText
 10
168.3619308148496
 20
36.59059118549985
 30
0.0
 40
2.5
  1
Ersatz für:
 41
0.8
  7
GREEKS
100
AcDbText
  0
TEXT
  5
A4A
330
1E
100
AcDbEntity
  8
TEXT
100
AcDbText
 10
24.13320553522878
 20
6.827329230135958
 30
0.0
 40
2.0
  1
Index
 50
90.0
 41
0.8
  7
GREEKS
100
AcDbText
  0
TEXT
  5
A4B
330
1E
100
AcDbEntity
  8
TEXT
100
AcDbText
 10
50.04673380377405
 20
9.33578134669905
 30
0.0
 40
2.0
  1
Tag
 41
0.8
  7
GREEKS
 72
     1
 11
51.91340047044072
 21
9.33578134669905
 31
0.0
100
AcDbText
  0
TEXT
  5
A4C
330
1E
100
AcDbEntity
  8
TEXT
100
AcDbText
 10
59.50613721932963
 20
9.29662108483204
 30
0.0
 40
2.0
  1
Name
 41
0.8
  7
GREEKS
 72
     1
 11
62.66804198123439
 21
9.29662108483204
 31
0.0
100
AcDbText
  0
TEXT
  5
A4D
330
1E
100
AcDbEntity
  8
TEXT
100
AcDbText
 10
81.16558365768254
 20
36.65940250614963
 30
0.0
 40
2.0
  1
Tag
 41
0.8
  7
GREEKS
100
AcDbText
  0
TEXT
  5
A4E
330
1E
100
AcDbEntity
  8
TEXT
100
AcDbText
 10
96.23132921131475
 20
36.65480545957612
 30
0.0
 40
2.0
  1
Name
 41
0.8
  7
GREEKS
100
AcDbText
  0
TEXT
  5
A4F
330
1E
100
AcDbEntity
  8
TEXT
100
AcDbText
 10
68.79180635838077
 20
31.81495184808982
 30
0.0
 40
2.0
  1
Gez.
 41
0.8
  7
GREEKS
100
AcDbText
  0
TEXT
  5
A50
330
1E
100
AcDbEntity
  8
TEXT
100
AcDbText
 10
68.77575432858361
 20
26.84463145714189
 30
0.0
 40
2.0
  1
Gepr.
 41
0.8
  7
GREEKS
100
AcDbText
  0
TEXT
  5
A51
330
1E
100
AcDbEntity
  8
TEXT
100
AcDbText
 10
68.80033886936519
 20
21.76473194824904
 30
0.0
 40
2.0
  1
Norm.
 41
0.8
  7
GREEKS
100
AcDbText
  0
LINE
  5
A52
330
1E
100
AcDbEntity
  8
STEMPEL
100
AcDbLine
 10
24.99999999999995
 20
5.0
 30
0.0
 11
205.0
 21
5.0
 31
0.0
  0
TEXT
  5
A53
330
1E
100
AcDbEntity
  8
TEXT
100
AcDbText
 10
168.6200430748503
 20
26.03708088939301
 30
0.0
 40
2.5
  1
ersetzt durch:
 41
0.8
  7
GREEKS
100
AcDbText
  0
LINE
  5
A54
330
1E
100
AcDbEntity
  8
STEMPEL
100
AcDbLine
 10
205.0
 20
5.0
 30
0.0
 11
19.99999999999994
 21
5.0
 31
0.0
  0
LINE
  5
A55
330
1E
100
AcDbEntity
  8
STEMPEL
100
AcDbLine
 10
205.0
 20
5.0
 30
0.0
 11
205.0
 21
292.0
 31
0.0
  0
LINE
  5
A56
330
1E
100
AcDbEntity
  8
STEMPEL
100
AcDbLine
 10
20.0
 20
5.0
 30
0.0
 11
19.99999999999994
 21
292.0
 31
0.0
  0
LINE
  5
A57
330
1E
100
AcDbEntity
  8
STEMPEL
100
AcDbLine
 10
205.0
 20
292.0
 30
0.0
 11
19.99999999999994
 21
292.0
 31
0.0
  0
LINE
  5
A58
330
1E
100
AcDbEntity
  8
HILF
100
AcDbLine
 10
0.0
 20
0.0
 30
0.0
 11
-0.0000000000000568
 21
297.0
 31
0.0
  0
LINE
  5
A59
330
1E
100
AcDbEntity
  8
HILF
100
AcDbLine
 10
210.0
 20
297.0000000000001
 30
0.0
 11
0.0
 21
297.0
 31
0.0
  0
LINE
  5
A5A
330
1E
100
AcDbEntity
  8
HILF
100
AcDbLine
 10
210.0
 20
0.0
 30
0.0
 11
0.0
 21
0.0
 31
0.0
  0
LINE
  5
A5B
330
1E
100
AcDbEntity
  8
HILF
100
AcDbLine
 10
15.54383567856928
 20
148.5
 30
0.0
 11
0.0000000000000568
 21
148.5
 31
0.0
  0
TEXT
  5
A5C
330
1E
100
AcDbEntity
  8
TEXT
100
AcDbText
 10
69.31105491105199
 20
36.57012735575833
 30
0.0
 40
2.0
  1
2008
 41
0.8
  7
GREEKS
100
AcDbText
  0
LINE
  5
A5D
330
1E
100
AcDbEntity
  8
HILF
100
AcDbLine
 10
210.0
 20
-0.0000000000000568
 30
0.0
 11
210.0
 21
297.0
 31
0.0
  0
TEXT
  5
A5E
330
1E
100
AcDbEntity
  8
VOLL
100
AcDbText
 10
78.07675471698113
 20
31.02594776470585
 30
0.0
 40
1.8
  1

  7
GREEKS
100
AcDbText
  0
TEXT
  5
A5F
330
1E
100
AcDbEntity
  8
TEXT
100
AcDbText
 10
20.92754975488837
 20
55.83599999999997
 30
0.0
 40
2.5
  1
Erstellt mit AUTOCAD 2004
 41
0.8
  7
GREEKS
100
AcDbText
  0
TEXT
  5
A60
330
1E
100
AcDbEntity
  8
TEXT
100
AcDbText
 10
97.21080242906285
 20
31.54481959861755
 30
0.0
 40
2.0
  1
Koeh
 41
0.8
  7
GREEKS
 72
     1
 11
99.83937385763429
 21
31.54481959861755
 31
0.0
100
AcDbText
  0
TEXT
  5
A61
330
1E
100
AcDbEntity
  8
TEXT
 62
     1
100
AcDbText
 10
172.9065115069593
 20
44.07450714456979
 30
0.0
 40
3.5
  1
16205070W
 41
0.8
  7
GREEKS
 72
     1
 11
184.6398448402927
 21
44.07450714456979
 31
0.0
100
AcDbText
  0
TEXT
  5
A62
330
1E
100
AcDbEntity
  8
TEXT
 62
     1
100
AcDbText
 10
75.25031532409435
 20
44.07450714456979
 30
0.0
 40
3.5
  1
1:1
 41
0.8
  7
GREEKS
100
AcDbText
  0
TEXT
  5
A63
330
1E
100
AcDbEntity
  8
TEXT
100
AcDbText
 10
80.19949855411802
 20
31.55382520412866
 30
0.0
 40
2.0
  1
02.06.
 41
0.8
  7
GREEKS
 72
     1
 11
83.70426045887993
 21
31.55382520412866
 31
0.0
100
AcDbText
  0
TEXT
  5
A64
330
1E
100
AcDbEntity
  8
TEXT
 62
     1
100
AcDbText
 10
113.4467865528701
 20
43.70874394626889
 30
0.0
 40
3.5
  1
Klemmring DN70
 41
0.8
  7
GREEKS
100
AcDbText
  0
TEXT
  5
A65
330
1E
100
AcDbEntity
  8
TEXT
100
AcDbText
 10
112.5648195562657
 20
35.75167208792644
 30
0.0
 40
2.5
  1
mit Entwässerungsöffnung
 41
0.8
  7
GREEKS
100
AcDbText
  0
TEXT
  5
A66
330
1E
100
AcDbEntity
  8
TEXT
100
AcDbText
 10
112.5648195562657
 20
31.05790353387428
 30
0.0
 40
2.5
  1

 41
0.8
  7
GREEKS
100
AcDbText
  0
TEXT
  5
A67
330
1E
100
AcDbEntity
  8
TEXT
100
AcDbText
 10
112.5648195562657
 20
25.82005971521079
 30
0.0
 40
2.5
  1
EDV-Art.Nr. 16205.070X
 41
0.8
  7
GREEKS
100
AcDbText
  0
TEXT
  5
A68
330
1E
100
AcDbEntity
  8
TEXT
100
AcDbText
 10
112.4918750788913
 20
21.31487076511316
 30
0.0
 40
2.0
  1
16205070X.DWG
 41
0.8
  7
GREEKS
100
AcDbText
  0
TEXT
  5
A69
330
1E
100
AcDbEntity
  8
TEXT
100
AcDbText
 10
91.00830419928012
 20
45.38181920511511
 30
0.0
 40
2.0
  1
DIN ISO3302-1
 41
0.8
  7
GREEKS
 72
     1
 11
99.80830419928011
 21
45.38181920511511
 31
0.0
100
AcDbText
  0
INSERT
  5
A6A
330
1E
100
AcDbEntity
  8
STEMPEL
100
AcDbBlockReference
  2
LOGO
 10
70.4977742728897
 20
22.51052638224161
 30
0.0
  0
TEXT
  5
A6B
330
1E
100
AcDbEntity
  8
BEM
100
AcDbText
 10
208.6511461928583
 20
5.083950539994247
 30
0.0
 40
2.0
  1
Diese Zeichnung ist urheberrechtlich geschützt und bleibt unser Eigentum. Sie darf weder ganz noch teilweise verfielfältigt und nicht an Dritte weitergegeben werden.
 50
90.0
 41
0.8
  7
GREEKS
100
AcDbText
  0
TEXT
  5
A97
330
1E
100
AcDbEntity
  8
TEXT
 62
     1
100
AcDbText
 10
140.5981882781748
 20
69.7916761277414
 30
0.0
 40
3.5
  1
Werkstoff: EPDM
 41
0.8
  7
GREEKS
100
AcDbText
  0
HATCH
  5
BA6
330
1E
100
AcDbEntity
  8
SCHRAFF
100
AcDbHatch
 10
0.0
 20
0.0
 30
0.0
210
0.0
220
0.0
230
1.0
  2
NET
 70
     0
 71
     1
 91
        4
 92
        7
 72
     1
 73
     1
 93
       14
 10
179.096846342157
 20
249.4340330671243
 42
0.0
 10
181.5342373324627
 20
250.0871300146157
 42
1.0
 10
180.2401421069501
 20
254.916759146061
 42
0.0
 10
175.8007818020908
 20
253.7272361374631
 42
-0.4663076581550286
 10
173.2907543157021
 20
255.4847763045459
 42
0.0
 10
172.3719394408033
 20
265.9868783811944
 42
0.3888787318534386
 10
170.3795500446197
 20
267.8125668957023
 42
0.0
 10
168.394829394793
 20
267.8125668957023
 42
0.3888787318529623
 10
166.4024399986097
 20
265.9868783811976
 42
0.0
 10
165.6872804114977
 20
257.8125668956868
 42
0.0
 10
164.6915326051207
 20
238.8125668956988
 42
0.0
 10
164.8871897197066
 20
238.8125668956989
 42
0.0
 10
166.6192405272754
 20
237.8125668956988
 42
0.0
 10
172.3871897197064
 20
237.8125668956988
 42
0.0
 97
       14
330
C54
330
C53
330
C55
330
C22
330
C4F
330
BFD
330
BE5
330
BFE
330
C51
330
C45
330
BE7
330
C4B
330
BE6
330
C24
 92
       22
 72
     0
 73
     1
 93
        4
 10
170.3871897197064
 20
242.812566895699
 10
168.3871897197064
 20
242.8125668956989
 10
168.3871897197064
 20
265.8125668956988
 10
170.3871897197064
 20
265.812566895699
 97
        4
330
C4E
330
C46
330
C52
330
C47
 92
        7
 72
     1
 73
     1
 93
       14
 10
44.97359763732196
 20
253.7272361374629
 42
0.0
 10
40.53423733246245
 20
254.9167591460609
 42
1.0
 10
39.24014210694986
 20
250.0871300146155
 42
0.0
 10
41.67753309725574
 20
249.4340330671242
 42
0.0
 10
48.38718971970616
 20
237.8125668956988
 42
0.0
 10
54.15513891213729
 20
237.8125668956988
 42
0.0
 10
55.88718971970617
 20
238.8125668956989
 42
0.0
 10
56.08284683429161
 20
238.8125668956989
 42
0.0
 10
55.0870990279138
 20
257.8125668956989
 42
0.0
 10
54.37193944080309
 20
265.9868783811942
 42
0.3888787318529992
 10
52.37955004461953
 20
267.8125668956989
 42
0.0
 10
50.39482939479285
 20
267.8125668956989
 42
0.3888787318530114
 10
48.40243999860922
 20
265.9868783811942
 42
0.0
 10
47.48362512371045
 20
255.4847763045458
 42
-0.4663076581549908
 97
       14
330
BFA
330
BE8
330
BE5
330
BE9
330
BF4
330
BF9
330
BF5
330
BF8
330
BF7
330
BEB
330
BE6
330
BF1
330
BE7
330
BEC
 92
       22
 72
     0
 73
     1
 93
        4
 10
50.38718971970616
 20
265.8125668956988
 10
52.38718971970616
 20
265.8125668956988
 10
52.38718971970616
 20
242.8125668956989
 10
50.38718971970616
 20
242.8125668956989
 97
        4
330
BF3
330
BEE
330
BEF
330
BED
 75
     0
 76
     1
 52
45.0
 41
20.0
 77
     0
 78
     2
 53
45.0
 43
-14.99636782210882
 44
25.78914004016179
 45
-1.767766952966368
 46
1.767766952966368
 79
     0
 53
135.0
 43
-14.99636782210882
 44
25.78914004016179
 45
-1.767766952966368
 46
-1.767766952966368
 79
     0
 47
0.1779339205857925
 98
        4
 10
173.9950366454725
 20
249.2481866687725
 10
173.9950366454725
 20
249.2481866687725
 10
45.09316397370844
 20
250.4937237855624
 10
45.09316397370844
 20
250.4937237855624
  0
HATCH
  5
BA7
330
1E
100
AcDbEntity
  8
SCHRAFF
100
AcDbHatch
 10
0.0
 20
0.0
 30
0.0
210
0.0
220
0.0
230
1.0
  2
_USER
 70
     0
 71
     1
 91
        2
 92
        7
 72
     0
 73
     1
 93
        4
 10
168.3871897197064
 20
242.812566895699
 10
170.3871897197064
 20
242.812566895699
 10
170.3871897197064
 20
265.812566895699
 10
168.3871897197064
 20
265.8125668956988
 97
        4
330
C52
330
C46
330
C4E
330
C47
 92
        7
 72
     0
 73
     1
 93
        4
 10
50.38718971970616
 20
242.8125668956989
 10
52.38718971970616
 20
242.8125668956989
 10
52.38718971970616
 20
265.8125668956988
 10
50.38718971970616
 20
265.8125668956988
 97
        4
330
BF3
330
BED
330
BEF
330
BEE
 75
     0
 76
     0
 52
45.0
 41
2.0
 77
     0
 78
     1
 53
45.0
 43
-14.99636782210882
 44
25.78914004016179
 45
-1.414213562373094
 46
1.414213562373095
 79
     0
 47
0.1779339205857925
 98
        2
 10
169.0098808662576
 20
262.5932309166833
 10
51.14656648416008
 20
262.4152971431501
  0
LINE
  5
BA8
330
1E
100
AcDbEntity
  8
MITTEL
100
AcDbLine
 10
110.3871897197061
 20
220.4580769164428
 30
0.0
 11
110.3871897197061
 21
64.22919422553793
 31
0.0
  0
LINE
  5
BAB
330
1E
100
AcDbEntity
  8
STEMPEL
100
AcDbLine
 10
147.6792044848754
 20
172.6790238697465
 30
0.0
 11
152.8655663570061
 21
177.8653857418772
 31
0.0
  0
LINE
  5
BAC
330
1E
100
AcDbEntity
  8
STEMPEL
100
AcDbLine
 10
73.0951749545369
 20
172.6790238697465
 30
0.0
 11
67.9088130824062
 21
177.8653857418772
 31
0.0
  0
ARC
  5
BAD
330
1E
100
AcDbEntity
  8
HILF
100
AcDbCircle
 10
110.3871897197061
 20
142.4580769164427
 30
0.0
 40
50.0
100
AcDbArc
 50
5.739170477268105
 51
39.26082952273424
  0
ARC
  5
BAE
330
1E
100
AcDbEntity
  8
HILF
100
AcDbCircle
 10
110.3871897197061
 20
142.4580769164427
 30
0.0
 40
50.0
100
AcDbArc
 50
140.7391704772657
 51
174.2608295227318
  0
LINE
  5
BAF
330
1E
100
AcDbEntity
  8
MITTEL
100
AcDbLine
 10
110.3871897197061
 20
142.4580769164427
 30
0.0
 11
55.23286078715546
 21
197.6124058489934
 31
0.0
  0
LINE
  5
BB0
330
1E
100
AcDbEntity
  8
MITTEL
100
AcDbLine
 10
110.3871897197061
 20
142.4580769164427
 30
0.0
 11
165.5415186522568
 21
197.6124058489934
 31
0.0
  0
CIRCLE
  5
BB1
330
1E
100
AcDbEntity
  8
STEMPEL
100
AcDbCircle
 10
110.3871897197061
 20
142.4580769164427
 30
0.0
 40
55.3
  0
CIRCLE
  5
BB2
330
1E
100
AcDbEntity
  8
HILF
100
AcDbCircle
 10
110.3871897197061
 20
142.4580769164427
 30
0.0
 40
56.0
  0
CIRCLE
  5
BB3
330
1E
100
AcDbEntity
  8
HILF
100
AcDbCircle
 10
110.3871897197061
 20
142.4580769164427
 30
0.0
 40
62.0
  0
CIRCLE
  5
BB4
330
1E
100
AcDbEntity
  8
STEMPEL
100
AcDbCircle
 10
110.3871897197061
 20
142.4580769164427
 30
0.0
 40
73.0
  0
ARC
  5
BB6
330
1E
100
AcDbEntity
  8
STEMPEL
100
AcDbCircle
 10
110.3871897197061
 20
142.4580769164427
 30
0.0
 40
54.29999999999999
100
AcDbArc
 50
219.7166613534752
 51
230.2833386465246
  0
LINE
  5
BB7
330
1E
100
AcDbEntity
  8
STEMPEL
100
AcDbLine
 10
73.0951749545369
 20
112.237129963139
 30
0.0
 11
67.9088130824062
 21
107.0507680910083
 31
0.0
  0
ARC
  5
BB8
330
1E
100
AcDbEntity
  8
STEMPEL
100
AcDbCircle
 10
110.3871897197061
 20
142.4580769164427
 30
0.0
 40
48.0
100
AcDbArc
 50
185.9791567963024
 51
219.0208432036998
  0
ARC
  5
BB9
330
1E
100
AcDbEntity
  8
HILF
100
AcDbCircle
 10
110.3871897197061
 20
142.4580769164427
 30
0.0
 40
50.0
100
AcDbArc
 50
185.7391704772681
 51
219.2608295227342
  0
LINE
  5
BBA
330
1E
100
AcDbEntity
  8
MITTEL
100
AcDbLine
 10
110.3871897197061
 20
142.4580769164428
 30
0.0
 11
55.23286078715546
 21
87.30374798389206
 31
0.0
  0
LINE
  5
BBB
330
1E
100
AcDbEntity
  8
MITTEL
100
AcDbLine
 10
32.38718971970616
 20
142.4580769164427
 30
0.0
 11
188.3871897197061
 21
142.4580769164427
 31
0.0
  0
ARC
  5
BBC
330
1E
100
AcDbEntity
  8
STEMPEL
100
AcDbCircle
 10
110.3871897197061
 20
142.4580769164427
 30
0.0
 40
48.0
100
AcDbArc
 50
140.9791567963
 51
174.0208432036976
  0
ARC
  5
BBD
330
1E
100
AcDbEntity
  8
STEMPEL
100
AcDbCircle
 10
110.3871897197061
 20
142.4580769164427
 30
0.0
 40
54.29999999999999
100
AcDbArc
 50
174.7166613534765
 51
185.2833386465234
  0
LINE
  5
BBE
330
1E
100
AcDbEntity
  8
STEMPEL
100
AcDbLine
 10
55.31369337164415
 20
137.4580769164427
 30
0.0
 11
62.6483166705861
 21
137.4580769164427
 31
0.0
  0
LINE
  5
BBF
330
1E
100
AcDbEntity
  8
STEMPEL
100
AcDbLine
 10
55.31369337164415
 20
147.4580769164427
 30
0.0
 11
62.6483166705861
 21
147.4580769164427
 31
0.0
  0
ARC
  5
BC0
330
1E
100
AcDbEntity
  8
STEMPEL
100
AcDbCircle
 10
110.3871897197061
 20
142.4580769164427
 30
0.0
 40
48.0
100
AcDbArc
 50
275.9791567963024
 51
309.0208432037
  0
ARC
  5
BC1
330
1E
100
AcDbEntity
  8
HILF
100
AcDbCircle
 10
110.3871897197061
 20
142.4580769164427
 30
0.0
 40
50.0
100
AcDbArc
 50
275.7391704772681
 51
309.2608295227338
  0
LINE
  5
BC2
330
1E
100
AcDbEntity
  8
MITTEL
100
AcDbLine
 10
110.3871897197061
 20
142.4580769164428
 30
0.0
 11
165.5415186522569
 21
87.3037479838921
 31
0.0
  0
ARC
  5
BC3
330
1E
100
AcDbEntity
  8
STEMPEL
100
AcDbCircle
 10
110.3871897197061
 20
142.4580769164427
 30
0.0
 40
48.0
100
AcDbArc
 50
230.9791567963001
 51
264.0208432036976
  0
ARC
  5
BC4
330
1E
100
AcDbEntity
  8
HILF
100
AcDbCircle
 10
110.3871897197061
 20
142.4580769164427
 30
0.0
 40
50.0
100
AcDbArc
 50
230.7391704772662
 51
264.2608295227319
  0
LINE
  5
BC5
330
1E
100
AcDbEntity
  8
STEMPEL
100
AcDbLine
 10
80.16624276640238
 20
105.1660621512735
 30
0.0
 11
74.97988089427167
 21
99.97970027914284
 31
0.0
  0
LINE
  5
BC6
330
1E
100
AcDbEntity
  8
STEMPEL
100
AcDbLine
 10
115.3871897197061
 20
94.71920386732273
 30
0.0
 11
115.3871897197061
 21
87.38458056838075
 31
0.0
  0
LINE
  5
BC7
330
1E
100
AcDbEntity
  8
STEMPEL
100
AcDbLine
 10
105.3871897197061
 20
94.71920386732273
 30
0.0
 11
105.3871897197061
 21
87.38458056838075
 31
0.0
  0
ARC
  5
BC8
330
1E
100
AcDbEntity
  8
STEMPEL
100
AcDbCircle
 10
110.3871897197061
 20
142.4580769164427
 30
0.0
 40
54.29999999999999
100
AcDbArc
 50
264.7166613534765
 51
275.2833386465235
  0
ARC
  5
BC9
330
1E
100
AcDbEntity
  8
STEMPEL
100
AcDbCircle
 10
110.3871897197061
 20
142.4580769164427
 30
0.0
 40
48.0
100
AcDbArc
 50
320.9791567963
 51
354.0208432036976
  0
ARC
  5
BCA
330
1E
100
AcDbEntity
  8
HILF
100
AcDbCircle
 10
110.3871897197061
 20
142.4580769164427
 30
0.0
 40
50.0
100
AcDbArc
 50
320.7391704772662
 51
354.2608295227319
  0
LINE
  5
BCB
330
1E
100
AcDbEntity
  8
STEMPEL
100
AcDbLine
 10
140.6081366730099
 20
105.1660621512735
 30
0.0
 11
145.7944985451406
 21
99.97970027914284
 31
0.0
  0
ARC
  5
BCC
330
1E
100
AcDbEntity
  8
STEMPEL
100
AcDbCircle
 10
110.3871897197061
 20
142.4580769164427
 30
0.0
 40
54.29999999999999
100
AcDbArc
 50
309.7166613534753
 51
320.2833386465247
  0
LINE
  5
BCD
330
1E
100
AcDbEntity
  8
STEMPEL
100
AcDbLine
 10
147.6792044848754
 20
112.237129963139
 30
0.0
 11
152.8655663570061
 21
107.0507680910083
 31
0.0
  0
ARC
  5
BCE
330
1E
100
AcDbEntity
  8
STEMPEL
100
AcDbCircle
 10
110.3871897197061
 20
142.4580769164427
 30
0.0
 40
48.0
100
AcDbArc
 50
5.97915679630241
 51
39.02084320369985
  0
ARC
  5
BCF
330
1E
100
AcDbEntity
  8
STEMPEL
100
AcDbCircle
 10
110.3871897197061
 20
142.4580769164427
 30
0.0
 40
54.29999999999999
100
AcDbArc
 50
354.7166613534765
 51
5.283338646523469
  0
LINE
  5
BD0
330
1E
100
AcDbEntity
  8
STEMPEL
100
AcDbLine
 10
158.1260627688262
 20
137.4580769164427
 30
0.0
 11
165.4606860677681
 21
137.4580769164427
 31
0.0
  0
LINE
  5
BD1
330
1E
100
AcDbEntity
  8
STEMPEL
100
AcDbLine
 10
158.1260627688262
 20
147.4580769164427
 30
0.0
 11
165.4606860677681
 21
147.4580769164427
 31
0.0
  0
LINE
  5
BD3
330
1E
100
AcDbEntity
  8
STEMPEL
100
AcDbLine
 10
62.06538898206076
 20
240.8125668956988
 30
0.0
 11
73.0951749545369
 21
240.8125668956988
 31
0.0
  0
POLYLINE
  5
BD4
330
1E
100
AcDbEntity
  8
STEMPEL
100
AcDb2dPolyline
 66
     1
 10
0.0
 20
0.0
 30
0.0
 70
     4
 75
     6
  0
VERTEX
  5
BD5
330
BD4
100
AcDbEntity
  8
STEMPEL
100
AcDbVertex
100
AcDb2dVertex
 10
67.9088130824062
 20
257.8125668956988
 30
0.0
 70
    16
  0
VERTEX
  5
BD6
330
BD4
100
AcDbEntity
  8
STEMPEL
100
AcDbVertex
100
AcDb2dVertex
 10
67.9088130824062
 20
257.8125668956988
 30
0.0
 70
     8
  0
VERTEX
  5
BD7
330
BD4
100
AcDbEntity
  8
STEMPEL
100
AcDbVertex
100
AcDb2dVertex
 10
68.73142159740814
 20
257.0792625224649
 30
0.0
 70
     8
  0
VERTEX
  5
BD8
330
BD4
100
AcDbEntity
  8
STEMPEL
100
AcDbVertex
100
AcDb2dVertex
 10
69.46043857534158
 20
255.1577329726434
 30
0.0
 70
     8
  0
VERTEX
  5
BD9
330
BD4
100
AcDbEntity
  8
STEMPEL
100
AcDbVertex
100
AcDb2dVertex
 10
70.11770286176028
 20
252.4431301288527
 30
0.0
 70
     8
  0
VERTEX
  5
BDA
330
BD4
100
AcDbEntity
  8
STEMPEL
100
AcDbVertex
100
AcDb2dVertex
 10
70.72505330221798
 20
249.3306058737116
 30
0.0
 70
     8
  0
VERTEX
  5
BDB
330
BD4
100
AcDbEntity
  8
STEMPEL
100
AcDbVertex
100
AcDb2dVertex
 10
71.30432874226864
 20
246.2153120898384
 30
0.0
 70
     8
  0
VERTEX
  5
BDC
330
BD4
100
AcDbEntity
  8
STEMPEL
100
AcDbVertex
100
AcDb2dVertex
 10
71.87736802746599
 20
243.4924006598517
 30
0.0
 70
     8
  0
VERTEX
  5
BDD
330
BD4
100
AcDbEntity
  8
STEMPEL
100
AcDbVertex
100
AcDb2dVertex
 10
72.46601000336392
 20
241.55702346637
 30
0.0
 70
     8
  0
VERTEX
  5
BDE
330
BD4
100
AcDbEntity
  8
STEMPEL
100
AcDbVertex
100
AcDb2dVertex
 10
73.09209351551624
 20
240.8043323920117
 30
0.0
 70
     8
  0
VERTEX
  5
BDF
330
BD4
100
AcDbEntity
  8
STEMPEL
100
AcDbVertex
100
AcDb2dVertex
 10
70.24663681232858
 20
257.7926349204081
 30
0.0
 70
    16
  0
VERTEX
  5
BE0
330
BD4
100
AcDbEntity
  8
STEMPEL
100
AcDbVertex
100
AcDb2dVertex
 10
71.35320312761201
 20
240.8833476469193
 30
0.0
 70
    16
  0
VERTEX
  5
BE1
330
BD4
100
AcDbEntity
  8
STEMPEL
100
AcDbVertex
100
AcDb2dVertex
 10
73.09209351551624
 20
240.8043323920117
 30
0.0
 70
    16
  0
SEQEND
  5
BE2
330
BD4
100
AcDbEntity
  8
STEMPEL
  0
ARC
  5
BE3
330
1E
100
AcDbEntity
  8
STEMPEL
100
AcDbCircle
 10
110.3871897197061
 20
142.4580769164427
 30
0.0
 40
54.29999999999999
100
AcDbArc
 50
129.716661353475
 51
140.2833386465244
  0
LINE
  5
BE4
330
1E
100
AcDbEntity
  8
STEMPEL
100
AcDbLine
 10
55.08709902791384
 20
257.8125668956988
 30
0.0
 11
165.6872804114989
 21
257.8125668956988
 31
0.0
  0
LINE
  5
BE5
102
{ACAD_REACTORS
330
BA6
102
}
330
1E
100
AcDbEntity
  8
STEMPEL
100
AcDbLine
 10
50.39482939479285
 20
267.8125668956989
 30
0.0
 11
170.3795500446197
 21
267.8125668957023
 31
0.0
  0
LINE
  5
BE6
102
{ACAD_REACTORS
330
BA6
102
}
330
1E
100
AcDbEntity
  8
STEMPEL
100
AcDbLine
 10
48.38718971970616
 20
237.8125668956988
 30
0.0
 11
172.3871897197064
 21
237.8125668956988
 31
0.0
  0
LINE
  5
BE7
102
{ACAD_REACTORS
330
BA6
102
}
330
1E
100
AcDbEntity
  8
STEMPEL
100
AcDbLine
 10
55.88718971970616
 20
238.8125668956988
 30
0.0
 11
164.8871897197066
 21
238.8125668956988
 31
0.0
  0
ARC
  5
BE8
102
{ACAD_REACTORS
330
BA6
102
}
330
1E
100
AcDbEntity
  8
STEMPEL
100
AcDbCircle
 10
52.37955004461969
 20
265.8125668956989
 30
0.0
 40
2.0
100
AcDbArc
 50
4.999999999999796
 51
90.0
  0
ARC
  5
BE9
102
{ACAD_REACTORS
330
BA6
102
}
330
1E
100
AcDbEntity
  8
STEMPEL
100
AcDbCircle
 10
50.39482939479285
 20
265.8125668956988
 30
0.0
 40
2.0
100
AcDbArc
 50
90.0
 51
175.0000000000002
  0
LINE
  5
BEA
330
1E
100
AcDbEntity
  8
STEMPEL
100
AcDbLine
 10
60.09577347603635
 20
242.465270540365
 30
0.0
 11
57.75390135224984
 21
255.7466873398661
 31
0.0
  0
LINE
  5
BEB
102
{ACAD_REACTORS
330
BA6
102
}
330
1E
100
AcDbEntity
  8
STEMPEL
100
AcDbLine
 10
48.38718971970616
 20
237.8125668956988
 30
0.0
 11
41.67753309725571
 21
249.4340330671242
 31
0.0
  0
LINE
  5
BEC
102
{ACAD_REACTORS
330
BA6
102
}
330
1E
100
AcDbEntity
  8
STEMPEL
100
AcDbLine
 10
55.08709902791384
 20
257.8125668956989
 30
0.0
 11
56.08284683429161
 21
238.8125668956989
 31
0.0
  0
LINE
  5
BED
102
{ACAD_REACTORS
330
BA7
330
BA6
102
}
330
1E
100
AcDbEntity
  8
STEMPEL
100
AcDbLine
 10
50.38718971970616
 20
242.8125668956989
 30
0.0
 11
50.38718971970616
 21
265.8125668956988
 31
0.0
  0
LINE
  5
BEE
102
{ACAD_REACTORS
330
BA7
330
BA6
102
}
330
1E
100
AcDbEntity
  8
STEMPEL
100
AcDbLine
 10
52.38718971970616
 20
242.8125668956989
 30
0.0
 11
52.38718971970616
 21
265.8125668956988
 31
0.0
  0
LINE
  5
BEF
102
{ACAD_REACTORS
330
BA7
330
BA6
102
}
330
1E
100
AcDbEntity
  8
STEMPEL
100
AcDbLine
 10
50.38718971970616
 20
242.8125668956989
 30
0.0
 11
52.38718971970616
 21
242.8125668956989
 31
0.0
  0
ARC
  5
BF0
330
1E
100
AcDbEntity
  8
STEMPEL
100
AcDbCircle
 10
62.06538898206076
 20
242.8125668956989
 30
0.0
 40
2.0
100
AcDbArc
 50
189.9999999999985
 51
270.0
  0
LINE
  5
BF1
102
{ACAD_REACTORS
330
BA6
102
}
330
1E
100
AcDbEntity
  8
STEMPEL
100
AcDbLine
 10
55.88718971970616
 20
238.8125668956988
 30
0.0
 11
54.15513891213731
 21
237.8125668956989
 31
0.0
  0
LINE
  5
BF2
330
1E
100
AcDbEntity
  8
STEMPEL
100
AcDbLine
 10
62.38718971970616
 20
238.8125668956989
 30
0.0
 11
62.38718971970616
 21
240.8125668956988
 31
0.0
  0
LINE
  5
BF3
102
{ACAD_REACTORS
330
BA7
330
BA6
102
}
330
1E
100
AcDbEntity
  8
STEMPEL
100
AcDbLine
 10
50.38718971970616
 20
265.8125668956988
 30
0.0
 11
52.38718971970616
 21
265.8125668956988
 31
0.0
  0
LINE
  5
BF4
102
{ACAD_REACTORS
330
BA6
102
}
330
1E
100
AcDbEntity
  8
STEMPEL
100
AcDbLine
 10
48.40243999860923
 20
265.9868783811942
 30
0.0
 11
47.48362512371045
 21
255.4847763045458
 31
0.0
  0
LINE
  5
BF5
102
{ACAD_REACTORS
330
BA6
102
}
330
1E
100
AcDbEntity
  8
STEMPEL
100
AcDbLine
 10
44.97359763732197
 20
253.7272361374629
 30
0.0
 11
40.53423733246245
 21
254.9167591460609
 31
0.0
  0
LINE
  5
BF6
330
1E
100
AcDbEntity
  8
STEMPEL
100
AcDbLine
 10
39.88000405918365
 20
255.0019342535734
 30
0.0
 11
47.38755973432057
 21
255.0235130412833
 31
0.0
  0
LINE
  5
BF7
102
{ACAD_REACTORS
330
BA6
102
}
330
1E
100
AcDbEntity
  8
STEMPEL
100
AcDbLine
 10
41.67753309725571
 20
249.4340330671242
 30
0.0
 11
39.24014210694986
 21
250.0871300146155
 31
0.0
  0
ARC
  5
BF8
102
{ACAD_REACTORS
330
BA6
102
}
330
1E
100
AcDbEntity
  8
STEMPEL
100
AcDbCircle
 10
39.88718971970616
 20
252.5019445803383
 30
0.0
 40
2.499999999999928
100
AcDbArc
 50
74.99999999999845
 51
255.0000000000026
  0
ARC
  5
BF9
102
{ACAD_REACTORS
330
BA6
102
}
330
1E
100
AcDbEntity
  8
STEMPEL
100
AcDbCircle
 10
45.49123572752705
 20
255.6590877900411
 30
0.0
 40
2.0
100
AcDbArc
 50
254.9999999999983
 51
355.0000000000002
  0
LINE
  5
BFA
102
{ACAD_REACTORS
330
BA6
102
}
330
1E
100
AcDbEntity
  8
STEMPEL
100
AcDbLine
 10
54.37193944080309
 20
265.9868783811942
 30
0.0
 11
55.08709902791384
 21
257.8125668956989
 31
0.0
  0
ARC
  5
BFB
330
1E
100
AcDbEntity
  8
STEMPEL
100
AcDbCircle
 10
55.29188196971927
 20
255.3125668956988
 30
0.0
 40
2.5
100
AcDbArc
 50
9.999999999998536
 51
90.0
  0
ARC
  5
BFD
102
{ACAD_REACTORS
330
BA6
102
}
330
1E
100
AcDbEntity
  8
STEMPEL
100
AcDbCircle
 10
170.3795500446199
 20
265.812566895699
 30
0.0
 40
2.0
100
AcDbArc
 50
4.999999999999796
 51
90.0
  0
ARC
  5
BFE
102
{ACAD_REACTORS
330
BA6
102
}
330
1E
100
AcDbEntity
  8
STEMPEL
100
AcDbCircle
 10
168.3948293947931
 20
265.812566895699
 30
0.0
 40
2.0
100
AcDbArc
 50
90.0
 51
175.0000000000002
  0
LINE
  5
BFF
330
1E
100
AcDbEntity
  8
MITTEL
100
AcDbLine
 10
110.3871897197061
 20
232.8125668956988
 30
0.0
 11
110.3871897197061
 21
272.8125668957006
 31
0.0
  0
LINE
  5
C00
330
1E
100
AcDbEntity
  8
STEMPEL
100
AcDbLine
 10
115.3871897197061
 20
240.8125668956988
 30
0.0
 11
140.6081366730099
 21
240.8125668956988
 31
0.0
  0
ARC
  5
C01
330
1E
100
AcDbEntity
  8
STEMPEL
100
AcDbCircle
 10
110.3871897197061
 20
142.4580769164427
 30
0.0
 40
48.0
100
AcDbArc
 50
50.97915679630002
 51
84.02084320369764
  0
ARC
  5
C02
330
1E
100
AcDbEntity
  8
HILF
100
AcDbCircle
 10
110.3871897197061
 20
142.4580769164427
 30
0.0
 40
50.0
100
AcDbArc
 50
50.7391704772662
 51
84.26082952273189
  0
ARC
  5
C04
330
1E
100
AcDbEntity
  8
STEMPEL
100
AcDbCircle
 10
110.3871897197061
 20
142.4580769164427
 30
0.0
 40
48.0
100
AcDbArc
 50
95.97915679630236
 51
129.0208432036999
  0
ARC
  5
C05
330
1E
100
AcDbEntity
  8
HILF
100
AcDbCircle
 10
110.3871897197061
 20
142.4580769164427
 30
0.0
 40
50.0
100
AcDbArc
 50
95.7391704772681
 51
129.2608295227339
  0
LINE
  5
C06
330
1E
100
AcDbEntity
  8
STEMPEL
100
AcDbLine
 10
80.16624276640243
 20
179.750091681612
 30
0.0
 11
74.97988089427167
 21
184.9364535537427
 31
0.0
  0
LINE
  5
C07
330
1E
100
AcDbEntity
  8
STEMPEL
100
AcDbLine
 10
115.3871897197061
 20
197.5315732645047
 30
0.0
 11
115.3871897197061
 21
190.1969499655628
 31
0.0
  0
LINE
  5
C08
330
1E
100
AcDbEntity
  8
STEMPEL
100
AcDbLine
 10
105.3871897197061
 20
197.5315732645047
 30
0.0
 11
105.3871897197061
 21
190.1969499655628
 31
0.0
  0
ARC
  5
C09
330
1E
100
AcDbEntity
  8
STEMPEL
100
AcDbCircle
 10
110.3871897197061
 20
142.4580769164427
 30
0.0
 40
54.29999999999999
100
AcDbArc
 50
84.71666135347657
 51
95.28333864652344
  0
LINE
  5
C0A
330
1E
100
AcDbEntity
  8
STEMPEL
100
AcDbLine
 10
80.16624276640238
 20
240.8125668956988
 30
0.0
 11
105.3871897197061
 21
240.8125668956988
 31
0.0
  0
LINE
  5
C0B
330
1E
100
AcDbEntity
  8
STEMPEL
100
AcDbLine
 10
74.97988089427167
 20
257.8125668956988
 30
0.0
 11
75.68994972679655
 21
238.8125668956988
 31
0.0
  0
POLYLINE
  5
C0C
330
1E
100
AcDbEntity
  8
STEMPEL
100
AcDb2dPolyline
 66
     1
 10
0.0
 20
0.0
 30
0.0
 70
     4
 75
     6
  0
VERTEX
  5
C0D
330
C0C
100
AcDbEntity
  8
STEMPEL
100
AcDbVertex
100
AcDb2dVertex
 10
74.97988089427167
 20
257.8125668956988
 30
0.0
 70
    16
  0
VERTEX
  5
C0E
330
C0C
100
AcDbEntity
  8
STEMPEL
100
AcDbVertex
100
AcDb2dVertex
 10
74.97988089427167
 20
257.8125668956988
 30
0.0
 70
     8
  0
VERTEX
  5
C0F
330
C0C
100
AcDbEntity
  8
STEMPEL
100
AcDbVertex
100
AcDb2dVertex
 10
75.80248940927368
 20
257.0792625224649
 30
0.0
 70
     8
  0
VERTEX
  5
C10
330
C0C
100
AcDbEntity
  8
STEMPEL
100
AcDbVertex
100
AcDb2dVertex
 10
76.53150638720706
 20
255.1577329726434
 30
0.0
 70
     8
  0
VERTEX
  5
C11
330
C0C
100
AcDbEntity
  8
STEMPEL
100
AcDbVertex
100
AcDb2dVertex
 10
77.18877067362575
 20
252.4431301288527
 30
0.0
 70
     8
  0
VERTEX
  5
C12
330
C0C
100
AcDbEntity
  8
STEMPEL
100
AcDbVertex
100
AcDb2dVertex
 10
77.79612111408346
 20
249.3306058737116
 30
0.0
 70
     8
  0
VERTEX
  5
C13
330
C0C
100
AcDbEntity
  8
STEMPEL
100
AcDbVertex
100
AcDb2dVertex
 10
78.37539655413412
 20
246.2153120898384
 30
0.0
 70
     8
  0
VERTEX
  5
C14
330
C0C
100
AcDbEntity
  8
STEMPEL
100
AcDbVertex
100
AcDb2dVertex
 10
78.94843583933152
 20
243.4924006598517
 30
0.0
 70
     8
  0
VERTEX
  5
C15
330
C0C
100
AcDbEntity
  8
STEMPEL
100
AcDbVertex
100
AcDb2dVertex
 10
79.5370778152294
 20
241.55702346637
 30
0.0
 70
     8
  0
VERTEX
  5
C16
330
C0C
100
AcDbEntity
  8
STEMPEL
100
AcDbVertex
100
AcDb2dVertex
 10
80.16316132738172
 20
240.8043323920117
 30
0.0
 70
     8
  0
VERTEX
  5
C17
330
C0C
100
AcDbEntity
  8
STEMPEL
100
AcDbVertex
100
AcDb2dVertex
 10
77.31770462419405
 20
257.7926349204081
 30
0.0
 70
    16
  0
VERTEX
  5
C18
330
C0C
100
AcDbEntity
  8
STEMPEL
100
AcDbVertex
100
AcDb2dVertex
 10
78.42427093947748
 20
240.8833476469193
 30
0.0
 70
    16
  0
VERTEX
  5
C19
330
C0C
100
AcDbEntity
  8
STEMPEL
100
AcDbVertex
100
AcDb2dVertex
 10
80.16316132738172
 20
240.8043323920117
 30
0.0
 70
    16
  0
SEQEND
  5
C1A
330
C0C
100
AcDbEntity
  8
STEMPEL
  0
LINE
  5
C1B
330
1E
100
AcDbEntity
  8
STEMPEL
100
AcDbLine
 10
73.0951749545369
 20
238.8125668956988
 30
0.0
 11
73.0951749545369
 21
240.8125668956988
 31
0.0
  0
LINE
  5
C1C
330
1E
100
AcDbEntity
  8
STEMPEL
100
AcDbLine
 10
80.16624276640238
 20
238.8125668956988
 30
0.0
 11
80.16624276640238
 21
240.8125668956988
 31
0.0
  0
LINE
  5
C1D
330
1E
100
AcDbEntity
  8
STEMPEL
100
AcDbLine
 10
115.3871897197061
 20
238.8125668956988
 30
0.0
 11
115.3871897197061
 21
257.8125668956989
 31
0.0
  0
LINE
  5
C1E
330
1E
100
AcDbEntity
  8
STEMPEL
100
AcDbLine
 10
105.3871897197061
 20
238.8125668956988
 30
0.0
 11
105.3871897197061
 21
257.8125668956989
 31
0.0
  0
ARC
  5
C1F
330
1E
100
AcDbEntity
  8
STEMPEL
100
AcDbCircle
 10
110.3871897197061
 20
142.4580769164427
 30
0.0
 40
54.29999999999999
100
AcDbArc
 50
39.71666135347561
 51
50.28333864652496
  0
LINE
  5
C20
330
1E
100
AcDbEntity
  8
STEMPEL
100
AcDbLine
 10
140.6081366730099
 20
179.750091681612
 30
0.0
 11
145.7944985451406
 21
184.9364535537427
 31
0.0
  0
ARC
  5
C22
102
{ACAD_REACTORS
330
BA6
102
}
330
1E
100
AcDbEntity
  8
STEMPEL
100
AcDbCircle
 10
175.2831437118857
 20
255.6590877900412
 30
0.0
 40
2.0
100
AcDbArc
 50
184.9999999999998
 51
285.0000000000017
  0
LINE
  5
C23
330
1E
100
AcDbEntity
  8
STEMPEL
100
AcDbLine
 10
180.8943753802289
 20
255.0019342535736
 30
0.0
 11
173.3868197050922
 21
255.0235130412834
 31
0.0
  0
LINE
  5
C24
102
{ACAD_REACTORS
330
BA6
102
}
330
1E
100
AcDbEntity
  8
STEMPEL
100
AcDbLine
 10
172.3871897197064
 20
237.8125668956988
 30
0.0
 11
179.096846342157
 21
249.4340330671243
 31
0.0
  0
POLYLINE
  5
C25
330
1E
100
AcDbEntity
  8
STEMPEL
100
AcDb2dPolyline
 66
     1
 10
0.0
 20
0.0
 30
0.0
 70
     4
 75
     6
  0
VERTEX
  5
C26
330
C25
100
AcDbEntity
  8
STEMPEL
100
AcDbVertex
100
AcDb2dVertex
 10
152.8655663570061
 20
257.8125668956988
 30
0.0
 70
    16
  0
VERTEX
  5
C27
330
C25
100
AcDbEntity
  8
STEMPEL
100
AcDbVertex
100
AcDb2dVertex
 10
152.8655663570061
 20
257.8125668956988
 30
0.0
 70
     8
  0
VERTEX
  5
C28
330
C25
100
AcDbEntity
  8
STEMPEL
100
AcDbVertex
100
AcDb2dVertex
 10
152.0429578420041
 20
257.0792625224649
 30
0.0
 70
     8
  0
VERTEX
  5
C29
330
C25
100
AcDbEntity
  8
STEMPEL
100
AcDbVertex
100
AcDb2dVertex
 10
151.3139408640707
 20
255.1577329726434
 30
0.0
 70
     8
  0
VERTEX
  5
C2A
330
C25
100
AcDbEntity
  8
STEMPEL
100
AcDbVertex
100
AcDb2dVertex
 10
150.656676577652
 20
252.4431301288527
 30
0.0
 70
     8
  0
VERTEX
  5
C2B
330
C25
100
AcDbEntity
  8
STEMPEL
100
AcDbVertex
100
AcDb2dVertex
 10
150.0493261371943
 20
249.3306058737116
 30
0.0
 70
     8
  0
VERTEX
  5
C2C
330
C25
100
AcDbEntity
  8
STEMPEL
100
AcDbVertex
100
AcDb2dVertex
 10
149.4700506971437
 20
246.2153120898384
 30
0.0
 70
     8
  0
VERTEX
  5
C2D
330
C25
100
AcDbEntity
  8
STEMPEL
100
AcDbVertex
100
AcDb2dVertex
 10
148.8970114119463
 20
243.4924006598517
 30
0.0
 70
     8
  0
VERTEX
  5
C2E
330
C25
100
AcDbEntity
  8
STEMPEL
100
AcDbVertex
100
AcDb2dVertex
 10
148.3083694360484
 20
241.55702346637
 30
0.0
 70
     8
  0
VERTEX
  5
C2F
330
C25
100
AcDbEntity
  8
STEMPEL
100
AcDbVertex
100
AcDb2dVertex
 10
147.682285923896
 20
240.8043323920117
 30
0.0
 70
     8
  0
VERTEX
  5
C30
330
C25
100
AcDbEntity
  8
STEMPEL
100
AcDbVertex
100
AcDb2dVertex
 10
150.5277426270837
 20
257.7926349204081
 30
0.0
 70
    16
  0
VERTEX
  5
C31
330
C25
100
AcDbEntity
  8
STEMPEL
100
AcDbVertex
100
AcDb2dVertex
 10
149.4211763118003
 20
240.8833476469193
 30
0.0
 70
    16
  0
VERTEX
  5
C32
330
C25
100
AcDbEntity
  8
STEMPEL
100
AcDbVertex
100
AcDb2dVertex
 10
147.682285923896
 20
240.8043323920117
 30
0.0
 70
    16
  0
SEQEND
  5
C33
330
C25
100
AcDbEntity
  8
STEMPEL
  0
LINE
  5
C34
330
1E
100
AcDbEntity
  8
STEMPEL
100
AcDbLine
 10
160.6786059633762
 20
242.4652705403651
 30
0.0
 11
163.0204780871629
 21
255.7466873398662
 31
0.0
  0
LINE
  5
C35
330
1E
100
AcDbEntity
  8
STEMPEL
100
AcDbLine
 10
145.7944985451406
 20
257.8125668956988
 30
0.0
 11
145.0844297126157
 21
238.8125668956988
 31
0.0
  0
POLYLINE
  5
C36
330
1E
100
AcDbEntity
  8
STEMPEL
100
AcDb2dPolyline
 66
     1
 10
0.0
 20
0.0
 30
0.0
 70
     4
 75
     6
  0
VERTEX
  5
C37
330
C36
100
AcDbEntity
  8
STEMPEL
100
AcDbVertex
100
AcDb2dVertex
 10
145.7944985451406
 20
257.8125668956988
 30
0.0
 70
    16
  0
VERTEX
  5
C38
330
C36
100
AcDbEntity
  8
STEMPEL
100
AcDbVertex
100
AcDb2dVertex
 10
145.7944985451406
 20
257.8125668956988
 30
0.0
 70
     8
  0
VERTEX
  5
C39
330
C36
100
AcDbEntity
  8
STEMPEL
100
AcDbVertex
100
AcDb2dVertex
 10
144.9718900301386
 20
257.0792625224649
 30
0.0
 70
     8
  0
VERTEX
  5
C3A
330
C36
100
AcDbEntity
  8
STEMPEL
100
AcDbVertex
100
AcDb2dVertex
 10
144.2428730522052
 20
255.1577329726434
 30
0.0
 70
     8
  0
VERTEX
  5
C3B
330
C36
100
AcDbEntity
  8
STEMPEL
100
AcDbVertex
100
AcDb2dVertex
 10
143.5856087657865
 20
252.4431301288527
 30
0.0
 70
     8
  0
VERTEX
  5
C3C
330
C36
100
AcDbEntity
  8
STEMPEL
100
AcDbVertex
100
AcDb2dVertex
 10
142.9782583253288
 20
249.3306058737116
 30
0.0
 70
     8
  0
VERTEX
  5
C3D
330
C36
100
AcDbEntity
  8
STEMPEL
100
AcDbVertex
100
AcDb2dVertex
 10
142.3989828852782
 20
246.2153120898384
 30
0.0
 70
     8
  0
VERTEX
  5
C3E
330
C36
100
AcDbEntity
  8
STEMPEL
100
AcDbVertex
100
AcDb2dVertex
 10
141.8259436000808
 20
243.4924006598517
 30
0.0
 70
     8
  0
VERTEX
  5
C3F
330
C36
100
AcDbEntity
  8
STEMPEL
100
AcDbVertex
100
AcDb2dVertex
 10
141.2373016241829
 20
241.55702346637
 30
0.0
 70
     8
  0
VERTEX
  5
C40
330
C36
100
AcDbEntity
  8
STEMPEL
100
AcDbVertex
100
AcDb2dVertex
 10
140.6112181120306
 20
240.8043323920117
 30
0.0
 70
     8
  0
VERTEX
  5
C41
330
C36
100
AcDbEntity
  8
STEMPEL
100
AcDbVertex
100
AcDb2dVertex
 10
143.4566748152182
 20
257.7926349204081
 30
0.0
 70
    16
  0
VERTEX
  5
C42
330
C36
100
AcDbEntity
  8
STEMPEL
100
AcDbVertex
100
AcDb2dVertex
 10
142.3501084999348
 20
240.8833476469193
 30
0.0
 70
    16
  0
VERTEX
  5
C43
330
C36
100
AcDbEntity
  8
STEMPEL
100
AcDbVertex
100
AcDb2dVertex
 10
140.6112181120306
 20
240.8043323920117
 30
0.0
 70
    16
  0
SEQEND
  5
C44
330
C36
100
AcDbEntity
  8
STEMPEL
  0
LINE
  5
C45
102
{ACAD_REACTORS
330
BA6
102
}
330
1E
100
AcDbEntity
  8
STEMPEL
100
AcDbLine
 10
165.6872804114984
 20
257.8125668956989
 30
0.0
 11
164.6915326051207
 21
238.8125668956989
 31
0.0
  0
LINE
  5
C46
102
{ACAD_REACTORS
330
BA7
330
BA6
102
}
330
1E
100
AcDbEntity
  8
STEMPEL
100
AcDbLine
 10
168.3871897197064
 20
242.812566895699
 30
0.0
 11
168.3871897197064
 21
265.8125668956988
 31
0.0
  0
LINE
  5
C47
102
{ACAD_REACTORS
330
BA7
330
BA6
102
}
330
1E
100
AcDbEntity
  8
STEMPEL
100
AcDbLine
 10
170.3871897197064
 20
242.812566895699
 30
0.0
 11
170.3871897197064
 21
265.812566895699
 31
0.0
  0
LINE
  5
C48
330
1E
100
AcDbEntity
  8
STEMPEL
100
AcDbLine
 10
147.6792044848754
 20
240.8125668956988
 30
0.0
 11
158.7089904573518
 21
240.8125668956988
 31
0.0
  0
LINE
  5
C49
330
1E
100
AcDbEntity
  8
STEMPEL
100
AcDbLine
 10
140.6081366730099
 20
238.8125668956988
 30
0.0
 11
140.6081366730099
 21
240.8125668956988
 31
0.0
  0
LINE
  5
C4A
330
1E
100
AcDbEntity
  8
STEMPEL
100
AcDbLine
 10
147.6792044848754
 20
238.8125668956988
 30
0.0
 11
147.6792044848754
 21
240.8125668956988
 31
0.0
  0
LINE
  5
C4B
102
{ACAD_REACTORS
330
BA6
102
}
330
1E
100
AcDbEntity
  8
STEMPEL
100
AcDbLine
 10
164.8871897197066
 20
238.8125668956988
 30
0.0
 11
166.6192405272752
 21
237.812566895699
 31
0.0
  0
LINE
  5
C4C
330
1E
100
AcDbEntity
  8
STEMPEL
100
AcDbLine
 10
158.3871897197064
 20
238.812566895699
 30
0.0
 11
158.3871897197064
 21
240.812566895699
 31
0.0
  0
ARC
  5
C4D
330
1E
100
AcDbEntity
  8
STEMPEL
100
AcDbCircle
 10
158.7089904573518
 20
242.812566895699
 30
0.0
 40
2.0
100
AcDbArc
 50
270.0
 51
350.0000000000015
  0
LINE
  5
C4E
102
{ACAD_REACTORS
330
BA7
330
BA6
102
}
330
1E
100
AcDbEntity
  8
STEMPEL
100
AcDbLine
 10
170.3871897197064
 20
242.812566895699
 30
0.0
 11
168.3871897197064
 21
242.812566895699
 31
0.0
  0
LINE
  5
C4F
102
{ACAD_REACTORS
330
BA6
102
}
330
1E
100
AcDbEntity
  8
STEMPEL
100
AcDbLine
 10
172.3719394408033
 20
265.9868783811944
 30
0.0
 11
173.2907543157021
 21
255.4847763045459
 31
0.0
  0
ARC
  5
C50
330
1E
100
AcDbEntity
  8
STEMPEL
100
AcDbCircle
 10
165.4824974696935
 20
255.3125668956989
 30
0.0
 40
2.5
100
AcDbArc
 50
90.0
 51
170.0000000000014
  0
LINE
  5
C51
102
{ACAD_REACTORS
330
BA6
102
}
330
1E
100
AcDbEntity
  8
STEMPEL
100
AcDbLine
 10
166.4024399986094
 20
265.9868783811943
 30
0.0
 11
165.6872804114989
 21
257.812566895699
 31
0.0
  0
LINE
  5
C52
102
{ACAD_REACTORS
330
BA7
330
BA6
102
}
330
1E
100
AcDbEntity
  8
STEMPEL
100
AcDbLine
 10
170.3871897197064
 20
265.812566895699
 30
0.0
 11
168.3871897197064
 21
265.8125668956988
 31
0.0
  0
ARC
  5
C53
102
{ACAD_REACTORS
330
BA6
102
}
330
1E
100
AcDbEntity
  8
STEMPEL
100
AcDbCircle
 10
180.8871897197064
 20
252.5019445803384
 30
0.0
 40
2.499999999999928
100
AcDbArc
 50
285.0000000000017
 51
105.0000000000015
  0
LINE
  5
C54
102
{ACAD_REACTORS
330
BA6
102
}
330
1E
100
AcDbEntity
  8
STEMPEL
100
AcDbLine
 10
179.096846342157
 20
249.4340330671243
 30
0.0
 11
181.5342373324627
 21
250.0871300146157
 31
0.0
  0
LINE
  5
C55
102
{ACAD_REACTORS
330
BA6
102
}
330
1E
100
AcDbEntity
  8
STEMPEL
100
AcDbLine
 10
175.8007818020908
 20
253.7272361374631
 30
0.0
 11
180.2401421069501
 21
254.916759146061
 31
0.0
  0
DIMENSION
  5
CE3
330
1E
100
AcDbEntity
  8
BEM
100
AcDbDimension
  2
*D1
 10
183.3871897197063
 20
276.090744011436
 30
0.0
 11
110.3871897197062
 21
279.340744011436
 31
0.0
 70
    32
 71
     5
 42
146.0000000000001
  3
Standard
100
AcDbAlignedDimension
 13
37.38718971970623
 23
252.5019445803383
 33
0.0
 14
183.3871897197063
 24
252.5019445803384
 34
0.0
100
AcDbRotatedDimension
1001
ACAD
1000
DSTYLE
1002
{
1070
    41
1040
3.5
1070
    42
1040
1.0
1070
    43
1040
7.0
1070
    44
1040
1.0
1070
    73
1070
     0
1070
    74
1070
     0
1070
    77
1070
     1
1070
    78
1070
     8
1070
    79
1070
     2
1070
   140
1040
3.5
1070
   141
1040
1.5
1070
   146
1040
0.5
1070
   147
1040
1.5
1070
   172
1070
     1
1070
   178
1070
     1
1070
   179
1070
     2
1070
   271
1070
     2
1070
   272
1070
     2
1070
   284
1070
     8
1070
   285
1070
     8
1070
   286
1070
     8
1002
}
  0
DIMENSION
  5
CF0
330
1E
100
AcDbEntity
  8
BEM
100
AcDbDimension
  2
*D2
 10
191.8281716131491
 20
237.8125668956988
 30
0.0
 11
188.5781716131491
 21
252.8125668957006
 31
0.0
 70
    32
 71
     5
 42
30.00000000000355
  3
Standard
100
AcDbAlignedDimension
 13
170.3795500446197
 23
267.8125668957023
 33
0.0
 14
172.3871897197064
 24
237.8125668956988
 34
0.0
 50
90.0
100
AcDbRotatedDimension
1001
ACAD
1000
DSTYLE
1002
{
1070
    41
1040
3.5
1070
    42
1040
1.0
1070
    43
1040
7.0
1070
    44
1040
1.0
1070
    73
1070
     0
1070
    74
1070
     0
1070
    77
1070
     1
1070
    78
1070
     8
1070
    79
1070
     2
1070
   140
1040
3.5
1070
   141
1040
1.5
1070
   146
1040
0.5
1070
   147
1040
1.5
1070
   172
1070
     1
1070
   178
1070
     1
1070
   179
1070
     2
1070
   271
1070
     2
1070
   272
1070
     2
1070
   284
1070
     8
1070
   285
1070
     8
1070
   286
1070
     8
1002
}
  0
ENDSEC
  0
SECTION
  2
OBJECTS
  0
DICTIONARY
  5
C
330
0
100
AcDbDictionary
281
     1
  3
ACAD_COLOR
350
11A
  3
ACAD_GROUP
350
D
  3
ACAD_LAYOUT
350
19
  3
ACAD_MATERIAL
350
119
  3
ACAD_MLINESTYLE
350
16
  3
ACAD_PLOTSETTINGS
350
18
  3
ACAD_PLOTSTYLENAME
350
E
  3
AcDbVariableDictionary
350
125
  0
DICTIONARY
  5
DB
330
1E
100
AcDbDictionary
280
     1
281
     1
  3
ACAD_LAYOUTSELFREF
360
10F
  0
DICTIONARY
  5
DD
330
1A
100
AcDbDictionary
280
     1
281
     1
  3
ACAD_LAYOUTSELFREF
360
10E
  0
DICTIONARY
  5
11A
102
{ACAD_REACTORS
330
C
102
}
330
C
100
AcDbDictionary
281
     1
  0
DICTIONARY
  5
D
102
{ACAD_REACTORS
330
C
102
}
330
C
100
AcDbDictionary
281
     1
  0
DICTIONARY
  5
19
102
{ACAD_REACTORS
330
C
102
}
330
C
100
AcDbDictionary
281
     1
  3
Layout1
350
1D
  3
Model
350
21
  0
DICTIONARY
  5
119
102
{ACAD_REACTORS
330
C
102
}
330
C
100
AcDbDictionary
281
     1
  0
DICTIONARY
  5
16
102
{ACAD_REACTORS
330
C
102
}
330
C
100
AcDbDictionary
281
     1
  3
Standard
350
17
  0
DICTIONARY
  5
18
102
{ACAD_REACTORS
330
C
102
}
330
C
100
AcDbDictionary
281
     1
  0
ACDBDICTIONARYWDFLT
  5
E
102
{ACAD_REACTORS
330
C
102
}
330
C
100
AcDbDictionary
281
     1
  3
Normal
350
F
100
AcDbDictionaryWithDefault
340
F
  0
DICTIONARY
  5
125
102
{ACAD_REACTORS
330
C
102
}
330
C
100
AcDbDictionary
281
     1
  3
DIMASSOC
350
126
  3
PROJECTNAME
350
127
  0
XRECORD
  5
10F
102
{ACAD_REACTORS
330
DB
102
}
330
DB
100
AcDbXrecord
280
     1
340
1E
  0
XRECORD
  5
10E
102
{ACAD_REACTORS
330
DD
102
}
330
DD
100
AcDbXrecord
280
     1
340
1A
  0
LAYOUT
  5
1D
102
{ACAD_REACTORS
330
19
102
}
330
19
100
AcDbPlotSettings
  1

  2
\\NT_WORK01\HP LaserJet 5000 PCL 6
  4

  6

 40
0.0
 41
0.0
 42
0.0
 43
0.0
 44
0.0
 45
0.0
 46
0.0
 47
0.0
 48
0.0
 49
0.0
140
0.0
141
0.0
142
1.0
143
1.0
 70
   688
 72
     0
 73
     0
 74
     5
  7

 75
    16
147
1.0
 76
     0
 77
     2
 78
   300
148
0.0
149
0.0
100
AcDbLayout
  1
Layout1
 70
     0
 71
     1
 10
0.0
 20
0.0
 11
12.0
 21
9.0
 12
0.0
 22
0.0
 32
0.0
 14
1.000000000000000E+20
 24
1.000000000000000E+20
 34
1.000000000000000E+20
 15
-1.000000000000000E+20
 25
-1.000000000000000E+20
 35
-1.000000000000000E+20
146
0.0
 13
0.0
 23
0.0
 33
0.0
 16
1.0
 26
0.0
 36
0.0
 17
0.0
 27
1.0
 37
0.0
 76
     0
330
1A
  0
LAYOUT
  5
21
102
{ACAD_REACTORS
330
19
102
}
330
19
100
AcDbPlotSettings
  1

  2
none_device
  4
Letter_(8.50_x_11.00_Inches)
  6

 40
6.349999904632568
 41
6.349999904632568
 42
6.350006103515625
 43
6.350006103515625
 44
215.8999938964844
 45
279.3999938964844
 46
0.0
 47
0.0
 48
0.0
 49
0.0
140
0.0
141
0.0
142
1.0
143
1.0
 70
 11952
 72
     0
 73
     1
 74
     0
  7

 75
     0
147
1.0
 76
     0
 77
     2
 78
   300
148
1135.48924748892
149
30.69143417676331
100
AcDbLayout
  1
Model
 70
     1
 71
     0
 10
0.0
 20
0.0
 11
12.0
 21
9.0
 12
0.0
 22
0.0
 32
0.0
 14
0.0
 24
0.0
 34
0.0
 15
0.0
 25
0.0
 35
0.0
146
0.0
 13
0.0
 23
0.0
 33
0.0
 16
1.0
 26
0.0
 36
0.0
 17
0.0
 27
1.0
 37
0.0
 76
     0
330
1E
  0
MLINESTYLE
  5
17
102
{ACAD_REACTORS
330
16
102
}
330
16
100
AcDbMlineStyle
  2
STANDARD
 70
     0
  3

 62
   256
 51
90.0
 52
90.0
 71
     2
 49
0.5
 62
   256
  6
BYLAYER
 49
-0.5
 62
   256
  6
BYLAYER
  0
ACDBPLACEHOLDER
  5
F
102
{ACAD_REACTORS
330
E
102
}
330
E
  0
DICTIONARYVAR
  5
126
102
{ACAD_REACTORS
330
125
102
}
330
125
100
DictionaryVariables
280
     0
  1
1
  0
DICTIONARYVAR
  5
127
102
{ACAD_REACTORS
330
125
102
}
330
125
100
DictionaryVariables
280
     0
  1

  0
ENDSEC
  0
EOF
