  0
SECTION
  2
HEADER
  9
$ACADVER
  1
AC1018
  9
$ACADMAINTVER
 70
     2
  9
$DWGCODEPAGE
  3
ANSI_1252
  9
$INSBASE
 10
0.0
 20
0.0
 30
0.0
  9
$EXTMIN
 10
-0.0077628746072946
 20
-0.0135919849680022
 30
-0.0000000000000058
  9
$EXTMAX
 10
210.0158153118449
 20
297.0135975173197
 30
0.0000000000000104
  9
$LIMMIN
 10
0.0
 20
0.0
  9
$LIMMAX
 10
210.0
 20
297.0
  9
$ORTHOMODE
 70
     0
  9
$REGENMODE
 70
     1
  9
$FILLMODE
 70
     1
  9
$QTEXTMODE
 70
     0
  9
$MIRRTEXT
 70
     1
  9
$LTSCALE
 40
10.0
  9
$ATTMODE
 70
     1
  9
$TEXTSIZE
 40
3.5
  9
$TRACEWID
 40
1.0
  9
$TEXTSTYLE
  7
STANDARD
  9
$CLAYER
  8
BEM
  9
$CELTYPE
  6
ByLayer
  9
$CECOLOR
 62
   256
  9
$CELTSCALE
 40
1.0
  9
$DISPSILH
 70
     0
  9
$DIMSCALE
 40
1.0
  9
$DIMASZ
 40
3.5
  9
$DIMEXO
 40
1.0
  9
$DIMDLI
 40
7.0
  9
$DIMRND
 40
0.0
  9
$DIMDLE
 40
0.0
  9
$DIMEXE
 40
1.0
  9
$DIMTP
 40
0.0
  9
$DIMTM
 40
0.0
  9
$DIMTXT
 40
3.5
  9
$DIMCEN
 40
1.5
  9
$DIMTSZ
 40
0.0
  9
$DIMTOL
 70
     0
  9
$DIMLIM
 70
     0
  9
$DIMTIH
 70
     0
  9
$DIMTOH
 70
     0
  9
$DIMSE1
 70
     0
  9
$DIMSE2
 70
     0
  9
$DIMTAD
 70
     1
  9
$DIMZIN
 70
     8
  9
$DIMBLK
  1

  9
$DIMASO
 70
     1
  9
$DIMSHO
 70
     0
  9
$DIMPOST
  1

  9
$DIMAPOST
  1

  9
$DIMALT
 70
     0
  9
$DIMALTD
 70
     2
  9
$DIMALTF
 40
25.4
  9
$DIMLFAC
 40
1.0
  9
$DIMTOFL
 70
     1
  9
$DIMTVP
 40
0.0
  9
$DIMTIX
 70
     0
  9
$DIMSOXD
 70
     0
  9
$DIMSAH
 70
     0
  9
$DIMBLK1
  1

  9
$DIMBLK2
  1

  9
$DIMSTYLE
  2
Standard
  9
$DIMCLRD
 70
     0
  9
$DIMCLRE
 70
     0
  9
$DIMCLRT
 70
     1
  9
$DIMTFAC
 40
0.5
  9
$DIMGAP
 40
1.5
  9
$DIMJUST
 70
     0
  9
$DIMSD1
 70
     0
  9
$DIMSD2
 70
     0
  9
$DIMTOLJ
 70
     1
  9
$DIMTZIN
 70
     8
  9
$DIMALTZ
 70
     8
  9
$DIMALTTZ
 70
     8
  9
$DIMUPT
 70
     0
  9
$DIMDEC
 70
     2
  9
$DIMTDEC
 70
     2
  9
$DIMALTU
 70
     2
  9
$DIMALTTD
 70
     2
  9
$DIMTXSTY
  7
STANDARD
  9
$DIMAUNIT
 70
     0
  9
$DIMADEC
 70
     2
  9
$DIMALTRND
 40
0.0
  9
$DIMAZIN
 70
     2
  9
$DIMDSEP
 70
    46
  9
$DIMATFIT
 70
     3
  9
$DIMFRAC
 70
     0
  9
$DIMLDRBLK
  1

  9
$DIMLUNIT
 70
     2
  9
$DIMLWD
 70
    -2
  9
$DIMLWE
 70
    -2
  9
$DIMTMOVE
 70
     0
  9
$LUNITS
 70
     2
  9
$LUPREC
 70
     2
  9
$SKETCHINC
 40
1.0
  9
$FILLETRAD
 40
0.0
  9
$AUNITS
 70
     0
  9
$AUPREC
 70
     0
  9
$MENU
  1
ACAD
  9
$ELEVATION
 40
0.0
  9
$PELEVATION
 40
0.0
  9
$THICKNESS
 40
0.0
  9
$LIMCHECK
 70
     0
  9
$CHAMFERA
 40
0.0
  9
$CHAMFERB
 40
0.0
  9
$CHAMFERC
 40
0.0
  9
$CHAMFERD
 40
0.0
  9
$SKPOLY
 70
     0
  9
$TDCREATE
 40
2455397.867059838
  9
$TDUCREATE
 40
2455397.783726505
  9
$TDUPDATE
 40
2455461.601257303
  9
$TDUUPDATE
 40
2455461.517923970
  9
$TDINDWG
 40
0.0694894329
  9
$TDUSRTIMER
 40
0.0694894329
  9
$USRTIMER
 70
     1
  9
$ANGBASE
 50
0.0
  9
$ANGDIR
 70
     0
  9
$PDMODE
 70
     0
  9
$PDSIZE
 40
0.0
  9
$PLINEWID
 40
0.0
  9
$SPLFRAME
 70
     0
  9
$SPLINETYPE
 70
     6
  9
$SPLINESEGS
 70
     8
  9
$HANDSEED
  5
AA3
  9
$SURFTAB1
 70
     6
  9
$SURFTAB2
 70
     6
  9
$SURFTYPE
 70
     6
  9
$SURFU
 70
     6
  9
$SURFV
 70
     6
  9
$UCSBASE
  2

  9
$UCSNAME
  2

  9
$UCSORG
 10
0.0
 20
0.0
 30
0.0
  9
$UCSXDIR
 10
1.0
 20
0.0
 30
0.0
  9
$UCSYDIR
 10
0.0
 20
1.0
 30
0.0
  9
$UCSORTHOREF
  2

  9
$UCSORTHOVIEW
 70
     0
  9
$UCSORGTOP
 10
0.0
 20
0.0
 30
0.0
  9
$UCSORGBOTTOM
 10
0.0
 20
0.0
 30
0.0
  9
$UCSORGLEFT
 10
0.0
 20
0.0
 30
0.0
  9
$UCSORGRIGHT
 10
0.0
 20
0.0
 30
0.0
  9
$UCSORGFRONT
 10
0.0
 20
0.0
 30
0.0
  9
$UCSORGBACK
 10
0.0
 20
0.0
 30
0.0
  9
$PUCSBASE
  2

  9
$PUCSNAME
  2

  9
$PUCSORG
 10
0.0
 20
0.0
 30
0.0
  9
$PUCSXDIR
 10
1.0
 20
0.0
 30
0.0
  9
$PUCSYDIR
 10
0.0
 20
1.0
 30
0.0
  9
$PUCSORTHOREF
  2

  9
$PUCSORTHOVIEW
 70
     0
  9
$PUCSORGTOP
 10
0.0
 20
0.0
 30
0.0
  9
$PUCSORGBOTTOM
 10
0.0
 20
0.0
 30
0.0
  9
$PUCSORGLEFT
 10
0.0
 20
0.0
 30
0.0
  9
$PUCSORGRIGHT
 10
0.0
 20
0.0
 30
0.0
  9
$PUCSORGFRONT
 10
0.0
 20
0.0
 30
0.0
  9
$PUCSORGBACK
 10
0.0
 20
0.0
 30
0.0
  9
$USERI1
 70
     0
  9
$USERI2
 70
     0
  9
$USERI3
 70
     0
  9
$USERI4
 70
     0
  9
$USERI5
 70
     0
  9
$USERR1
 40
0.0
  9
$USERR2
 40
0.0
  9
$USERR3
 40
0.0
  9
$USERR4
 40
0.0
  9
$USERR5
 40
0.0
  9
$WORLDVIEW
 70
     1
  9
$SHADEDGE
 70
     3
  9
$SHADEDIF
 70
    70
  9
$TILEMODE
 70
     1
  9
$MAXACTVP
 70
    16
  9
$PINSBASE
 10
0.0
 20
0.0
 30
0.0
  9
$PLIMCHECK
 70
     0
  9
$PEXTMIN
 10
1.000000000000000E+20
 20
1.000000000000000E+20
 30
1.000000000000000E+20
  9
$PEXTMAX
 10
-1.000000000000000E+20
 20
-1.000000000000000E+20
 30
-1.000000000000000E+20
  9
$PLIMMIN
 10
0.0
 20
0.0
  9
$PLIMMAX
 10
12.0
 20
9.0
  9
$UNITMODE
 70
     0
  9
$VISRETAIN
 70
     0
  9
$PLINEGEN
 70
     0
  9
$PSLTSCALE
 70
     0
  9
$TREEDEPTH
 70
  3020
  9
$CMLSTYLE
  2
Standard
  9
$CMLJUST
 70
     0
  9
$CMLSCALE
 40
1.0
  9
$PROXYGRAPHICS
 70
     1
  9
$MEASUREMENT
 70
     0
  9
$CELWEIGHT
370
    -1
  9
$ENDCAPS
280
     0
  9
$JOINSTYLE
280
     0
  9
$LWDISPLAY
290
     0
  9
$INSUNITS
 70
     0
  9
$HYPERLINKBASE
  1

  9
$STYLESHEET
  1
monochrome 1.ctb
  9
$XEDIT
290
     1
  9
$CEPSNTYPE
380
     0
  9
$PSTYLEMODE
290
     1
  9
$FINGERPRINTGUID
  2
{D68B0D0D-A558-11D7-B632-000102183313}
  9
$VERSIONGUID
  2
{CC4D2BA6-AAC2-4D08-8BA7-792B58DBC6F7}
  9
$EXTNAMES
290
     1
  9
$PSVPSCALE
 40
0.0
  9
$OLESTARTUP
290
     0
  9
$SORTENTS
280
   127
  9
$INDEXCTL
280
     0
  9
$HIDETEXT
280
     0
  9
$XCLIPFRAME
290
     0
  9
$HALOGAP
280
     0
  9
$OBSCOLOR
 70
   257
  9
$OBSLTYPE
280
     0
  9
$INTERSECTIONDISPLAY
280
     0
  9
$INTERSECTIONCOLOR
 70
   257
  9
$DIMASSOC
280
     1
  9
$PROJECTNAME
  1

  0
ENDSEC
  0
SECTION
  2
CLASSES
  0
CLASS
  1
ACDBDICTIONARYWDFLT
  2
AcDbDictionaryWithDefault
  3
ObjectDBX Classes
 90
        0
 91
        1
280
     0
281
     0
  0
CLASS
  1
DICTIONARYVAR
  2
AcDbDictionaryVar
  3
ObjectDBX Classes
 90
        0
 91
        2
280
     0
281
     0
  0
ENDSEC
  0
SECTION
  2
TABLES
  0
TABLE
  2
VPORT
  5
8
330
0
100
AcDbSymbolTable
 70
     2
  0
VPORT
  5
AA2
330
8
100
AcDbSymbolTableRecord
100
AcDbViewportTableRecord
  2
*Active
 70
     0
 10
0.0
 20
0.0
 11
1.0
 21
1.0
 12
105.0040262186188
 22
148.5000027661758
 13
0.0
 23
0.0
 14
1.0
 24
1.0
 15
10.0
 25
10.0
 16
0.0
 26
0.0
 36
1.0
 17
0.0
 27
0.0
 37
0.0
 40
299.4257939935578
 41
1.336927223719676
 42
50.0
 43
0.0
 44
0.0
 50
0.0
 51
0.0
 71
     0
 72
  1500
 73
     1
 74
     0
 75
     0
 76
     0
 77
     0
 78
     0
281
     0
 65
     1
110
0.0
120
0.0
130
0.0
111
1.0
121
0.0
131
0.0
112
0.0
122
1.0
132
0.0
 79
     0
146
0.0
  0
ENDTAB
  0
TABLE
  2
LTYPE
  5
5
330
0
100
AcDbSymbolTable
 70
     3
  0
LTYPE
  5
13
330
5
100
AcDbSymbolTableRecord
100
AcDbLinetypeTableRecord
  2
ByBlock
 70
     0
  3

 72
    65
 73
     0
 40
0.0
  0
LTYPE
  5
14
330
5
100
AcDbSymbolTableRecord
100
AcDbLinetypeTableRecord
  2
ByLayer
 70
     0
  3

 72
    65
 73
     0
 40
0.0
  0
LTYPE
  5
15
330
5
100
AcDbSymbolTableRecord
100
AcDbLinetypeTableRecord
  2
Continuous
 70
     0
  3
Solid line
 72
    65
 73
     0
 40
0.0
  0
LTYPE
  5
25
330
5
100
AcDbSymbolTableRecord
100
AcDbLinetypeTableRecord
  2
STRICHPUNKT
 70
     0
  3
__ . __ . __ . __ . __ . __ . __ . __ . __ . __
 72
    65
 73
     4
 40
1.0
 49
0.5
 74
     0
 49
-0.25
 74
     0
 49
0.0
 74
     0
 49
-0.25
 74
     0
  0
LTYPE
  5
34
330
5
100
AcDbSymbolTableRecord
100
AcDbLinetypeTableRecord
  2
AUSGEZOGEN
 70
     0
  3
Ausgezogene Linie
 72
    65
 73
     0
 40
0.0
  0
ENDTAB
  0
TABLE
  2
LAYER
  5
2
330
0
100
AcDbSymbolTable
 70
     9
  0
LAYER
  5
10
330
2
100
AcDbSymbolTableRecord
100
AcDbLayerTableRecord
  2
0
 70
     0
 62
     7
  6
Continuous
370
    -3
390
F
  0
LAYER
  5
2B
330
2
100
AcDbSymbolTableRecord
100
AcDbLayerTableRecord
  2
VOLL
 70
     0
 62
     1
  6
Continuous
370
    -3
390
F
  0
LAYER
  5
2C
330
2
100
AcDbSymbolTableRecord
100
AcDbLayerTableRecord
  2
HILF
 70
     0
 62
     2
  6
Continuous
370
    -3
390
F
  0
LAYER
  5
2D
330
2
100
AcDbSymbolTableRecord
100
AcDbLayerTableRecord
  2
MITTEL
 70
     0
 62
     2
  6
STRICHPUNKT
370
    -3
390
F
  0
LAYER
  5
2F
330
2
100
AcDbSymbolTableRecord
100
AcDbLayerTableRecord
  2
BEM
 70
     0
 62
     7
  6
Continuous
370
    -3
390
F
  0
LAYER
  5
30
330
2
100
AcDbSymbolTableRecord
100
AcDbLayerTableRecord
  2
STEMPEL
 70
     0
 62
     3
  6
Continuous
370
    -3
390
F
  0
LAYER
  5
33
330
2
100
AcDbSymbolTableRecord
100
AcDbLayerTableRecord
  2
TEXT
 70
     0
 62
     7
  6
Continuous
370
    -3
390
F
  0
LAYER
  5
261
330
2
100
AcDbSymbolTableRecord
100
AcDbLayerTableRecord
  2
DEFPOINTS
 70
     0
 62
     7
  6
AUSGEZOGEN
290
     0
370
    -3
390
F
  0
LAYER
  5
262
330
2
100
AcDbSymbolTableRecord
100
AcDbLayerTableRecord
  2
SCHRAFF
 70
     0
 62
     7
  6
AUSGEZOGEN
370
    -3
390
F
  0
ENDTAB
  0
TABLE
  2
STYLE
  5
3
330
0
100
AcDbSymbolTable
 70
     2
  0
STYLE
  5
11
330
3
100
AcDbSymbolTableRecord
100
AcDbTextStyleTableRecord
  2
STANDARD
 70
     0
 40
0.0
 41
0.8
 50
0.0
 71
     0
 42
3.5
  3
simplex.shx
  4

  0
STYLE
  5
24
330
3
100
AcDbSymbolTableRecord
100
AcDbTextStyleTableRecord
  2
GREEKS
 70
     0
 40
0.0
 41
0.8
 50
0.0
 71
     0
 42
2.5
  3
SIMPLEX.shx
  4

  0
ENDTAB
  0
TABLE
  2
VIEW
  5
6
330
0
100
AcDbSymbolTable
 70
     0
  0
ENDTAB
  0
TABLE
  2
UCS
  5
7
330
0
100
AcDbSymbolTable
 70
     0
  0
ENDTAB
  0
TABLE
  2
APPID
  5
9
330
0
100
AcDbSymbolTable
 70
     1
  0
APPID
  5
12
330
9
100
AcDbSymbolTableRecord
100
AcDbRegAppTableRecord
  2
ACAD
 70
     0
  0
ENDTAB
  0
TABLE
  2
DIMSTYLE
  5
A
330
0
100
AcDbSymbolTable
 70
     1
100
AcDbDimStyleTable
 71
     1
340
A2
  0
DIMSTYLE
105
A2
102
{ACAD_REACTORS
330
968
330
975
330
982
102
}
330
A
100
AcDbSymbolTableRecord
100
AcDbDimStyleTableRecord
  2
Standard
 70
     0
340
11
  0
ENDTAB
  0
TABLE
  2
BLOCK_RECORD
  5
1
330
0
100
AcDbSymbolTable
 70
     4
  0
BLOCK_RECORD
  5
1E
102
{ACAD_XDICTIONARY
360
DB
102
}
330
1
100
AcDbSymbolTableRecord
100
AcDbBlockTableRecord
  2
*Model_Space
340
21
  0
BLOCK_RECORD
  5
1A
102
{ACAD_XDICTIONARY
360
DD
102
}
330
1
100
AcDbSymbolTableRecord
100
AcDbBlockTableRecord
  2
*Paper_Space
340
1D
  0
BLOCK_RECORD
  5
22
330
1
100
AcDbSymbolTableRecord
100
AcDbBlockTableRecord
  2
LOGO
340
0
102
{BLKREFS
331
A6A
102
}
  0
BLOCK_RECORD
  5
969
330
1
100
AcDbSymbolTableRecord
100
AcDbBlockTableRecord
  2
*D1
340
0
  0
BLOCK_RECORD
  5
976
330
1
100
AcDbSymbolTableRecord
100
AcDbBlockTableRecord
  2
*D2
340
0
  0
BLOCK_RECORD
  5
983
330
1
100
AcDbSymbolTableRecord
100
AcDbBlockTableRecord
  2
*D3
340
0
  0
ENDTAB
  0
ENDSEC
  0
SECTION
  2
BLOCKS
  0
BLOCK
  5
37
330
1E
100
AcDbEntity
  8
0
100
AcDbBlockBegin
  2
*Model_Space
 70
     0
 10
0.0
 20
0.0
 30
0.0
  3
*Model_Space
  1

  0
ENDBLK
  5
38
330
1E
100
AcDbEntity
  8
0
100
AcDbBlockEnd
  0
BLOCK
  5
35
330
1A
100
AcDbEntity
 67
     1
  8
0
100
AcDbBlockBegin
  2
*Paper_Space
 70
     0
 10
0.0
 20
0.0
 30
0.0
  3
*Paper_Space
  1

  0
ENDBLK
  5
36
330
1A
100
AcDbEntity
 67
     1
  8
0
100
AcDbBlockEnd
  0
BLOCK
  5
39
330
22
100
AcDbEntity
  8
0
100
AcDbBlockBegin
  2
LOGO
 70
     0
 10
0.0
 20
0.0
 30
0.0
  3
LOGO
  1

  0
ARC
  5
3A
330
22
100
AcDbEntity
  8
0
100
AcDbCircle
 10
11.59973089678112
 20
-9.271599258481501
 30
0.0
 40
4.5
100
AcDbArc
 50
270.0
 51
231.0575587310159
  0
LINE
  5
3B
330
22
100
AcDbEntity
  8
0
100
AcDbLine
 10
3.599730896781125
 20
-4.771599258481529
 30
0.0
 11
3.599730896781153
 21
-11.77159925848133
 31
0.0
  0
LINE
  5
3C
330
22
100
AcDbEntity
  8
0
100
AcDbLine
 10
2.599730896781125
 20
-4.771599258481529
 30
0.0
 11
2.599730896781153
 21
-11.77159925848133
 31
0.0
  0
CIRCLE
  5
3D
330
22
100
AcDbEntity
  8
0
100
AcDbCircle
 10
11.59973089678112
 20
-9.271599258481501
 30
0.0
 40
3.5
  0
ARC
  5
3E
330
22
100
AcDbEntity
  8
0
100
AcDbCircle
 10
31.59973089678115
 20
-9.271599258481472
 30
0.0
 40
4.5
100
AcDbArc
 50
270.0
 51
231.0575587310182
  0
LINE
  5
3F
330
22
100
AcDbEntity
  8
0
100
AcDbLine
 10
17.59973089678112
 20
-4.771599258481472
 30
0.0
 11
17.59973089678115
 21
-13.77159925848147
 31
0.0
  0
ARC
  5
40
330
22
100
AcDbEntity
  8
0
100
AcDbCircle
 10
22.59973089678116
 20
-7.271599258481472
 30
0.0
 40
2.5
100
AcDbArc
 50
293.1161887722295
 51
90.0
  0
CIRCLE
  5
41
330
22
100
AcDbEntity
  8
0
100
AcDbCircle
 10
31.59973089678115
 20
-9.271599258481472
 30
0.0
 40
3.5
  0
ARC
  5
42
330
22
100
AcDbEntity
  8
0
100
AcDbCircle
 10
4.599730896781153
 20
-11.77159925848133
 30
0.0
 40
1.0
100
AcDbArc
 50
180.0
 51
270.0
  0
ARC
  5
43
330
22
100
AcDbEntity
  8
0
100
AcDbCircle
 10
4.599730896781153
 20
-11.77159925848133
 30
0.0
 40
2.0
100
AcDbArc
 50
179.9999999999992
 51
270.0
  0
LINE
  5
44
330
22
100
AcDbEntity
  8
0
100
AcDbLine
 10
11.59973089678115
 20
-13.77159925848144
 30
0.0
 11
4.599730896781153
 21
-13.77159925848147
 31
0.0
  0
LINE
  5
45
330
22
100
AcDbEntity
  8
0
100
AcDbLine
 10
8.771303772034769
 20
-12.77159925848136
 30
0.0
 11
4.599730896781153
 21
-12.77159925848133
 31
0.0
  0
LINE
  5
46
330
22
100
AcDbEntity
  8
0
100
AcDbLine
 10
31.59973089678115
 20
-13.77159925848147
 30
0.0
 11
23.6715276665056
 21
-13.77159925848144
 31
0.0
  0
LINE
  5
47
330
22
100
AcDbEntity
  8
0
100
AcDbLine
 10
23.56565672307022
 20
-9.51278021337896
 30
0.0
 11
24.4388546544846
 21
-12.77159925848144
 31
0.0
  0
LINE
  5
48
330
22
100
AcDbEntity
  8
0
100
AcDbLine
 10
22.59973089678116
 20
-9.771599258481472
 30
0.0
 11
18.59973089678112
 21
-9.771599258481472
 31
0.0
  0
LINE
  5
49
330
22
100
AcDbEntity
  8
0
100
AcDbLine
 10
18.59973089678115
 20
-13.77159925848144
 30
0.0
 11
17.59973089678115
 21
-13.77159925848144
 31
0.0
  0
LINE
  5
4A
330
22
100
AcDbEntity
  8
0
100
AcDbLine
 10
18.59973089678115
 20
-9.771599258481472
 30
0.0
 11
18.59973089678115
 21
-13.77159925848144
 31
0.0
  0
LINE
  5
4B
330
22
100
AcDbEntity
  8
0
100
AcDbLine
 10
22.59973089678116
 20
-9.771599258481472
 30
0.0
 11
23.67152766650562
 21
-13.77159925848147
 31
0.0
  0
ARC
  5
4C
330
22
100
AcDbEntity
  8
0
100
AcDbCircle
 10
22.59973089678116
 20
-7.271599258481472
 30
0.0
 40
2.5
100
AcDbArc
 50
270.0
 51
270.0000000000007
  0
LINE
  5
4D
330
22
100
AcDbEntity
  8
0
100
AcDbLine
 10
28.77130377203494
 20
-12.77159925848147
 30
0.0
 11
24.43885465448463
 21
-12.77159925848144
 31
0.0
  0
LINE
  5
4E
330
22
100
AcDbEntity
  8
0
100
AcDbLine
 10
3.599730896781125
 20
-4.771599258481472
 30
0.0
 11
2.599730896781125
 21
-4.771599258481472
 31
0.0
  0
LINE
  5
4F
330
22
100
AcDbEntity
  8
0
100
AcDbLine
 10
22.59973089678116
 20
-8.771599258481472
 30
0.0
 11
18.59973089678115
 21
-8.771599258481472
 31
0.0
  0
LINE
  5
50
330
22
100
AcDbEntity
  8
0
100
AcDbLine
 10
22.59973089678116
 20
-5.771599258481472
 30
0.0
 11
18.59973089678115
 21
-5.771599258481472
 31
0.0
  0
LINE
  5
51
330
22
100
AcDbEntity
  8
0
100
AcDbLine
 10
22.59973089678116
 20
-4.771599258481472
 30
0.0
 11
17.59973089678115
 21
-4.771599258481472
 31
0.0
  0
LINE
  5
52
330
22
100
AcDbEntity
  8
0
100
AcDbLine
 10
18.59973089678115
 20
-5.771599258481472
 30
0.0
 11
18.59973089678115
 21
-8.771599258481472
 31
0.0
  0
ARC
  5
53
330
22
100
AcDbEntity
  8
0
100
AcDbCircle
 10
22.59973089678116
 20
-7.271599258481472
 30
0.0
 40
1.5
100
AcDbArc
 50
270.0
 51
90.0
  0
ENDBLK
  5
54
330
22
100
AcDbEntity
  8
0
100
AcDbBlockEnd
  0
BLOCK
  5
973
330
969
100
AcDbEntity
  8
0
100
AcDbBlockBegin
  2
*D1
 70
     1
 10
0.0
 20
0.0
 30
0.0
  3
*D1
  1

  0
LINE
  5
A7E
330
969
100
AcDbEntity
  8
BEM
 62
     0
370
    -2
100
AcDbLine
 10
59.86904152862326
 20
153.9477379726529
 30
0.0
 11
59.86904152862326
 21
141.0077358618466
 31
0.0
  0
LINE
  5
A7F
330
969
100
AcDbEntity
  8
BEM
 62
     0
370
    -2
100
AcDbLine
 10
155.8690415286235
 20
153.9477379726529
 30
0.0
 11
155.8690415286235
 21
141.0077358618466
 31
0.0
  0
LINE
  5
A80
330
969
100
AcDbEntity
  8
BEM
 62
     0
370
    -2
100
AcDbLine
 10
63.36904152862326
 20
142.0077358618466
 30
0.0
 11
152.3690415286235
 21
142.0077358618466
 31
0.0
  0
SOLID
  5
A81
330
969
100
AcDbEntity
  8
BEM
 62
     0
100
AcDbTrace
 10
63.36904152862326
 20
142.59106919518
 30
0.0
 11
63.36904152862326
 21
141.4244025285133
 31
0.0
 12
59.86904152862326
 22
142.0077358618466
 32
0.0
 13
59.86904152862326
 23
142.0077358618466
 33
0.0
  0
SOLID
  5
A82
330
969
100
AcDbEntity
  8
BEM
 62
     0
100
AcDbTrace
 10
152.3690415286235
 20
142.59106919518
 30
0.0
 11
152.3690415286235
 21
141.4244025285133
 31
0.0
 12
155.8690415286235
 22
142.0077358618466
 32
0.0
 13
155.8690415286235
 23
142.0077358618466
 33
0.0
  0
MTEXT
  5
A83
330
969
100
AcDbEntity
  8
BEM
 62
     1
100
AcDbMText
 10
107.8690415286233
 20
145.2577358618466
 30
0.0
 40
3.5
 41
0.0
 71
     5
 72
     1
  1
\A1;%%c96
 73
     1
 44
1.0
  0
POINT
  5
A84
330
969
100
AcDbEntity
  8
DEFPOINTS
 62
     0
100
AcDbPoint
 10
59.86904152862326
 20
154.9477379726529
 30
0.0
  0
POINT
  5
A85
330
969
100
AcDbEntity
  8
DEFPOINTS
 62
     0
100
AcDbPoint
 10
155.8690415286235
 20
154.9477379726529
 30
0.0
  0
POINT
  5
A86
330
969
100
AcDbEntity
  8
DEFPOINTS
 62
     0
100
AcDbPoint
 10
155.8690415286235
 20
142.0077358618466
 30
0.0
  0
ENDBLK
  5
974
330
969
100
AcDbEntity
  8
0
100
AcDbBlockEnd
  0
BLOCK
  5
980
330
976
100
AcDbEntity
  8
0
100
AcDbBlockBegin
  2
*D2
 70
     1
 10
0.0
 20
0.0
 30
0.0
  3
*D2
  1

  0
LINE
  5
A75
330
976
100
AcDbEntity
  8
BEM
 62
     0
370
    -2
100
AcDbLine
 10
34.86904152862332
 20
169.6371156572923
 30
0.0
 11
34.86904152862332
 21
191.8450244915772
 31
0.0
  0
LINE
  5
A76
330
976
100
AcDbEntity
  8
BEM
 62
     0
370
    -2
100
AcDbLine
 10
180.8690415286234
 20
169.6371156572924
 30
0.0
 11
180.8690415286234
 21
191.8450244915772
 31
0.0
  0
LINE
  5
A77
330
976
100
AcDbEntity
  8
BEM
 62
     0
370
    -2
100
AcDbLine
 10
38.36904152862331
 20
190.8450244915772
 30
0.0
 11
177.3690415286234
 21
190.8450244915772
 31
0.0
  0
SOLID
  5
A78
330
976
100
AcDbEntity
  8
BEM
 62
     0
100
AcDbTrace
 10
38.36904152862331
 20
191.4283578249105
 30
0.0
 11
38.36904152862331
 21
190.2616911582438
 31
0.0
 12
34.86904152862332
 22
190.8450244915772
 32
0.0
 13
34.86904152862332
 23
190.8450244915772
 33
0.0
  0
SOLID
  5
A79
330
976
100
AcDbEntity
  8
BEM
 62
     0
100
AcDbTrace
 10
177.3690415286234
 20
191.4283578249105
 30
0.0
 11
177.3690415286234
 21
190.2616911582438
 31
0.0
 12
180.8690415286234
 22
190.8450244915772
 32
0.0
 13
180.8690415286234
 23
190.8450244915772
 33
0.0
  0
MTEXT
  5
A7A
330
976
100
AcDbEntity
  8
BEM
 62
     1
100
AcDbMText
 10
107.8690415286233
 20
194.0950244915772
 30
0.0
 40
3.5
 41
0.0
 71
     5
 72
     1
  1
\A1;%%c146
 73
     1
 44
1.0
  0
POINT
  5
A7B
330
976
100
AcDbEntity
  8
DEFPOINTS
 62
     0
100
AcDbPoint
 10
34.86904152862332
 20
168.6371156572923
 30
0.0
  0
POINT
  5
A7C
330
976
100
AcDbEntity
  8
DEFPOINTS
 62
     0
100
AcDbPoint
 10
180.8690415286234
 20
168.6371156572924
 30
0.0
  0
POINT
  5
A7D
330
976
100
AcDbEntity
  8
DEFPOINTS
 62
     0
100
AcDbPoint
 10
180.8690415286234
 20
190.8450244915772
 30
0.0
  0
ENDBLK
  5
981
330
976
100
AcDbEntity
  8
0
100
AcDbBlockEnd
  0
BLOCK
  5
98D
330
983
100
AcDbEntity
  8
0
100
AcDbBlockBegin
  2
*D3
 70
     1
 10
0.0
 20
0.0
 30
0.0
  3
*D3
  1

  0
LINE
  5
A6C
330
983
100
AcDbEntity
  8
BEM
 62
     0
370
    -2
100
AcDbLine
 10
170.8690415286234
 20
153.9477379726528
 30
0.0
 11
189.1698050068962
 21
153.9477379726528
 31
0.0
  0
LINE
  5
A6D
330
983
100
AcDbEntity
  8
BEM
 62
     0
370
    -2
100
AcDbLine
 10
168.8614018535368
 20
183.9477379726563
 30
0.0
 11
189.1698050068962
 21
183.9477379726563
 31
0.0
  0
LINE
  5
A6E
330
983
100
AcDbEntity
  8
BEM
 62
     0
370
    -2
100
AcDbLine
 10
188.1698050068962
 20
157.4477379726528
 30
0.0
 11
188.1698050068962
 21
180.4477379726563
 31
0.0
  0
SOLID
  5
A6F
330
983
100
AcDbEntity
  8
BEM
 62
     0
100
AcDbTrace
 10
187.5864716735629
 20
157.4477379726528
 30
0.0
 11
188.7531383402295
 21
157.4477379726528
 31
0.0
 12
188.1698050068962
 22
153.9477379726528
 32
0.0
 13
188.1698050068962
 23
153.9477379726528
 33
0.0
  0
SOLID
  5
A70
330
983
100
AcDbEntity
  8
BEM
 62
     0
100
AcDbTrace
 10
187.5864716735629
 20
180.4477379726563
 30
0.0
 11
188.7531383402295
 21
180.4477379726563
 31
0.0
 12
188.1698050068962
 22
183.9477379726563
 32
0.0
 13
188.1698050068962
 23
183.9477379726563
 33
0.0
  0
MTEXT
  5
A71
330
983
100
AcDbEntity
  8
BEM
 62
     1
100
AcDbMText
 10
184.9198050068962
 20
168.9477379726546
 30
0.0
 40
3.5
 41
0.0
 71
     5
 72
     1
  1
\A1;30
 11
0.0000000000000001
 21
1.0
 31
0.0
 73
     1
 44
1.0
  0
POINT
  5
A72
330
983
100
AcDbEntity
  8
DEFPOINTS
 62
     0
100
AcDbPoint
 10
169.8690415286234
 20
153.9477379726528
 30
0.0
  0
POINT
  5
A73
330
983
100
AcDbEntity
  8
DEFPOINTS
 62
     0
100
AcDbPoint
 10
167.8614018535368
 20
183.9477379726563
 30
0.0
  0
POINT
  5
A74
330
983
100
AcDbEntity
  8
DEFPOINTS
 62
     0
100
AcDbPoint
 10
188.1698050068962
 20
183.9477379726563
 30
0.0
  0
ENDBLK
  5
98E
330
983
100
AcDbEntity
  8
0
100
AcDbBlockEnd
  0
ENDSEC
  0
SECTION
  2
ENTITIES
  0
LINE
  5
299
102
{ACAD_REACTORS
330
338
102
}
330
1E
100
AcDbEntity
  8
STEMPEL
100
AcDbLine
 10
167.8690415286235
 20
181.947737972653
 30
0.0
 11
165.8690415286235
 21
181.9477379726529
 31
0.0
  0
ARC
  5
29A
330
1E
100
AcDbEntity
  8
STEMPEL
100
AcDbCircle
 10
167.861401853537
 20
181.947737972653
 30
0.0
 40
2.0
100
AcDbArc
 50
5.000000000000625
 51
90.0
  0
LINE
  5
29B
330
1E
100
AcDbEntity
  8
STEMPEL
100
AcDbLine
 10
173.2826336110079
 20
169.8624072144172
 30
0.0
 11
177.7219939158672
 21
171.0519302230151
 31
0.0
  0
LINE
  5
29C
330
1E
100
AcDbEntity
  8
STEMPEL
100
AcDbLine
 10
178.376227189146
 20
171.1371053305276
 30
0.0
 11
170.8686715140093
 21
171.1586841182374
 31
0.0
  0
ARC
  5
29D
330
1E
100
AcDbEntity
  8
STEMPEL
100
AcDbCircle
 10
172.7649955208028
 20
171.7942588669952
 30
0.0
 40
2.0
100
AcDbArc
 50
184.9999999999998
 51
285.0000000000004
  0
LINE
  5
29E
330
1E
100
AcDbEntity
  8
STEMPEL
100
AcDbLine
 10
169.8537912497204
 20
182.1220494581484
 30
0.0
 11
170.7726061246192
 21
171.6199473814999
 31
0.0
  0
LINE
  5
29F
330
1E
100
AcDbEntity
  8
STEMPEL
100
AcDbLine
 10
176.5786981510741
 20
165.5692041440784
 30
0.0
 11
179.0160891413798
 21
166.2223010915697
 31
0.0
  0
LINE
  5
2A0
102
{ACAD_REACTORS
330
338
102
}
330
1E
100
AcDbEntity
  8
STEMPEL
100
AcDbLine
 10
167.8690415286235
 20
158.947737972653
 30
0.0
 11
165.8690415286235
 21
158.947737972653
 31
0.0
  0
LINE
  5
2A1
330
1E
100
AcDbEntity
  8
STEMPEL
100
AcDbLine
 10
169.8690415286234
 20
153.9477379726528
 30
0.0
 11
176.5786981510741
 21
165.5692041440784
 31
0.0
  0
LINE
  5
2A2
102
{ACAD_REACTORS
330
338
102
}
330
1E
100
AcDbEntity
  8
STEMPEL
100
AcDbLine
 10
167.8690415286235
 20
158.947737972653
 30
0.0
 11
167.8690415286235
 21
181.947737972653
 31
0.0
  0
LINE
  5
2A3
102
{ACAD_REACTORS
330
338
102
}
330
1E
100
AcDbEntity
  8
STEMPEL
100
AcDbLine
 10
165.8690415286235
 20
158.947737972653
 30
0.0
 11
165.8690415286235
 21
181.9477379726529
 31
0.0
  0
ARC
  5
2A4
330
1E
100
AcDbEntity
  8
STEMPEL
100
AcDbCircle
 10
178.3690415286235
 20
168.6371156572924
 30
0.0
 40
2.499999999999928
100
AcDbArc
 50
284.9999999999996
 51
105.0000000000004
  0
ARC
  5
2A6
330
1E
100
AcDbEntity
  8
STEMPEL
100
AcDbCircle
 10
162.9643492786106
 20
171.4477379726529
 30
0.0
 40
2.5
100
AcDbArc
 50
90.0
 51
169.9999999999997
  0
LINE
  5
2A7
330
1E
100
AcDbEntity
  8
STEMPEL
100
AcDbLine
 10
163.8842918075265
 20
182.1220494581483
 30
0.0
 11
163.169132220416
 21
173.947737972653
 31
0.0
  0
ARC
  5
2A8
330
1E
100
AcDbEntity
  8
STEMPEL
100
AcDbCircle
 10
156.1908422662688
 20
158.947737972653
 30
0.0
 40
2.0
100
AcDbArc
 50
270.0
 51
350.0000000000007
  0
LINE
  5
2A9
330
1E
100
AcDbEntity
  8
STEMPEL
100
AcDbLine
 10
155.8690415286235
 20
154.947737972653
 30
0.0
 11
155.8690415286235
 21
156.947737972653
 31
0.0
  0
LINE
  5
2AA
330
1E
100
AcDbEntity
  8
STEMPEL
100
AcDbLine
 10
158.1604577722933
 20
158.6004416173191
 30
0.0
 11
160.50232989608
 21
171.8818584168202
 31
0.0
  0
ARC
  5
2AB
330
1E
100
AcDbEntity
  8
STEMPEL
100
AcDbCircle
 10
165.8766812037101
 20
181.947737972653
 30
0.0
 40
2.0
100
AcDbArc
 50
90.0
 51
175.0000000000002
  0
LINE
  5
2AC
330
1E
100
AcDbEntity
  8
STEMPEL
100
AcDbLine
 10
162.3690415286237
 20
154.9477379726529
 30
0.0
 11
164.1010923361923
 21
153.947737972653
 31
0.0
  0
LINE
  5
2AF
330
1E
100
AcDbEntity
  8
MITTEL
100
AcDbLine
 10
107.8690415286232
 20
148.9477379726528
 30
0.0
 11
107.8690415286232
 21
188.9477379726546
 31
0.0
  0
LINE
  5
2B0
102
{ACAD_REACTORS
330
338
102
}
330
1E
100
AcDbEntity
  8
STEMPEL
100
AcDbLine
 10
47.86904152862326
 20
181.9477379726528
 30
0.0
 11
49.86904152862326
 21
181.9477379726528
 31
0.0
  0
ARC
  5
2B1
330
1E
100
AcDbEntity
  8
STEMPEL
100
AcDbCircle
 10
49.86140185353679
 20
181.9477379726529
 30
0.0
 40
2.0
100
AcDbArc
 50
4.999999999999778
 51
90.0
  0
ARC
  5
2B2
330
1E
100
AcDbEntity
  8
STEMPEL
100
AcDbCircle
 10
52.77373377863637
 20
171.4477379726528
 30
0.0
 40
2.5
100
AcDbArc
 50
10.00000000000021
 51
90.0
  0
LINE
  5
2B3
330
1E
100
AcDbEntity
  8
STEMPEL
100
AcDbLine
 10
51.85379124972019
 20
182.1220494581482
 30
0.0
 11
52.56895083683094
 21
173.9477379726529
 31
0.0
  0
ARC
  5
2B4
330
1E
100
AcDbEntity
  8
STEMPEL
100
AcDbCircle
 10
42.97308753644415
 20
171.7942588669951
 30
0.0
 40
2.0
100
AcDbArc
 50
255.0000000000001
 51
355.0000000000002
  0
LINE
  5
2B5
330
1E
100
AcDbEntity
  8
STEMPEL
100
AcDbLine
 10
42.45544944623907
 20
169.862407214417
 30
0.0
 11
38.01608914137955
 21
171.0519302230149
 31
0.0
  0
LINE
  5
2B6
330
1E
100
AcDbEntity
  8
STEMPEL
100
AcDbLine
 10
37.36185586810075
 20
171.1371053305275
 30
0.0
 11
44.86941154323767
 21
171.1586841182373
 31
0.0
  0
LINE
  5
2B7
330
1E
100
AcDbEntity
  8
STEMPEL
100
AcDbLine
 10
45.88429180752632
 20
182.1220494581482
 30
0.0
 11
44.96547693262755
 21
171.6199473814998
 31
0.0
  0
ARC
  5
2B8
330
1E
100
AcDbEntity
  8
STEMPEL
100
AcDbCircle
 10
47.87668120370994
 20
181.9477379726529
 30
0.0
 40
2.0
100
AcDbArc
 50
90.0
 51
174.9999999999993
  0
ARC
  5
2B9
330
1E
100
AcDbEntity
  8
STEMPEL
100
AcDbCircle
 10
59.54724079097786
 20
158.9477379726529
 30
0.0
 40
2.0
100
AcDbArc
 50
189.9999999999993
 51
270.0
  0
LINE
  5
2BA
102
{ACAD_REACTORS
330
338
102
}
330
1E
100
AcDbEntity
  8
STEMPEL
100
AcDbLine
 10
47.86904152862326
 20
158.9477379726529
 30
0.0
 11
49.86904152862326
 21
158.9477379726529
 31
0.0
  0
LINE
  5
2BB
330
1E
100
AcDbEntity
  8
STEMPEL
100
AcDbLine
 10
53.36904152862326
 20
154.9477379726529
 30
0.0
 11
51.63699072105441
 21
153.9477379726529
 31
0.0
  0
LINE
  5
2BC
330
1E
100
AcDbEntity
  8
STEMPEL
100
AcDbLine
 10
59.86904152862326
 20
154.9477379726529
 30
0.0
 11
59.86904152862326
 21
156.9477379726529
 31
0.0
  0
LINE
  5
2BD
330
1E
100
AcDbEntity
  8
STEMPEL
100
AcDbLine
 10
39.15938490617282
 20
165.5692041440782
 30
0.0
 11
36.72199391586696
 21
166.2223010915695
 31
0.0
  0
LINE
  5
2BE
330
1E
100
AcDbEntity
  8
STEMPEL
100
AcDbLine
 10
45.86904152862326
 20
153.9477379726528
 30
0.0
 11
39.15938490617282
 21
165.5692041440782
 31
0.0
  0
LINE
  5
2BF
102
{ACAD_REACTORS
330
338
102
}
330
1E
100
AcDbEntity
  8
STEMPEL
100
AcDbLine
 10
49.86904152862326
 20
158.9477379726529
 30
0.0
 11
49.86904152862326
 21
181.9477379726528
 31
0.0
  0
LINE
  5
2C0
102
{ACAD_REACTORS
330
338
102
}
330
1E
100
AcDbEntity
  8
STEMPEL
100
AcDbLine
 10
47.86904152862326
 20
158.9477379726529
 30
0.0
 11
47.86904152862326
 21
181.9477379726528
 31
0.0
  0
ARC
  5
2C1
330
1E
100
AcDbEntity
  8
STEMPEL
100
AcDbCircle
 10
37.36904152862326
 20
168.6371156572923
 30
0.0
 40
2.499999999999928
100
AcDbArc
 50
75.00000000000007
 51
255.0000000000004
  0
LINE
  5
2C2
330
1E
100
AcDbEntity
  8
STEMPEL
100
AcDbLine
 10
57.57762528495345
 20
158.600441617319
 30
0.0
 11
55.23575316116694
 21
171.8818584168201
 31
0.0
  0
LINE
  5
2C4
330
1E
100
AcDbEntity
  8
STEMPEL
100
AcDbLine
 10
53.36904152862326
 20
154.9477379726529
 30
0.0
 11
162.3690415286237
 21
154.9477379726529
 31
0.0
  0
LINE
  5
2C5
330
1E
100
AcDbEntity
  8
STEMPEL
100
AcDbLine
 10
45.86904152862326
 20
153.9477379726528
 30
0.0
 11
169.8690415286234
 21
153.9477379726528
 31
0.0
  0
LINE
  5
2C6
330
1E
100
AcDbEntity
  8
STEMPEL
100
AcDbLine
 10
47.87668120370994
 20
183.9477379726529
 30
0.0
 11
167.8614018535368
 21
183.9477379726563
 31
0.0
  0
LINE
  5
2C7
330
1E
100
AcDbEntity
  8
STEMPEL
100
AcDbLine
 10
59.54724079097786
 20
156.9477379726529
 30
0.0
 11
156.1908422662688
 21
156.9477379726529
 31
0.0
  0
LINE
  5
2C8
330
1E
100
AcDbEntity
  8
STEMPEL
100
AcDbLine
 10
52.56895083683094
 20
173.9477379726528
 30
0.0
 11
163.169132220416
 21
173.9477379726528
 31
0.0
  0
HATCH
  5
338
330
1E
100
AcDbEntity
  8
SCHRAFF
100
AcDbHatch
 10
0.0
 20
0.0
 30
0.0
210
0.0
220
0.0
230
1.0
  2
_USER
 70
     0
 71
     1
 91
        2
 92
        7
 72
     0
 73
     1
 93
        4
 10
167.8690415286234
 20
181.9477379726529
 10
165.8690415286235
 20
181.9477379726528
 10
165.8690415286235
 20
158.947737972653
 10
167.8690415286235
 20
158.947737972653
 97
        4
330
299
330
2A3
330
2A0
330
2A2
 92
        7
 72
     0
 73
     1
 93
        4
 10
49.86904152862326
 20
181.9477379726528
 10
47.86904152862325
 20
181.9477379726528
 10
47.86904152862326
 20
158.9477379726529
 10
49.86904152862326
 20
158.9477379726529
 97
        4
330
2B0
330
2C0
330
2BA
330
2BF
 75
     0
 76
     0
 52
45.0
 41
2.0
 77
     0
 78
     1
 53
45.0
 43
-9.553375244489984
 44
124.7451884189305
 45
-1.414213562373094
 46
1.414213562373095
 79
     0
 47
0.2177834414342877
 98
        2
 10
166.8875734676985
 20
169.018566750724
 10
49.20133654886353
 20
168.3652167254826
  0
HATCH
  5
36A
330
1E
100
AcDbEntity
  8
SCHRAFF
100
AcDbHatch
 10
0.0
 20
0.0
 30
0.0
210
0.0
220
0.0
230
1.0
  2
NET
 70
     0
 71
     0
 91
        4
 92
        7
 72
     1
 73
     1
 93
       19
 10
170.7726061246192
 20
171.6199473814999
 42
0.0
 10
169.8537912497204
 20
182.1220494581484
 42
0.3888787318534379
 10
167.8614018535368
 20
183.9477379726563
 42
0.0
 10
165.87668120371
 20
183.9477379726563
 42
0.3888787318529621
 10
163.8842918075269
 20
182.1220494581516
 42
0.0
 10
163.169132220416
 20
173.9477379726528
 42
0.0
 10
162.9643492786106
 20
173.9477379726528
 42
0.3639702342662036
 10
160.50232989608
 20
171.8818584168202
 42
0.0
 10
158.1604577722933
 20
158.6004416173191
 42
-0.3639702342662092
 10
156.1908422662688
 20
156.9477379726529
 42
0.0
 10
155.8690415286235
 20
156.9477379726529
 42
0.0
 10
155.8690415286235
 20
154.9477379726529
 42
0.0
 10
162.3690415286237
 20
154.9477379726529
 42
0.0
 10
164.1010923361926
 20
153.9477379726528
 42
0.0
 10
169.8690415286234
 20
153.9477379726528
 42
0.0
 10
176.5786981510741
 20
165.5692041440784
 42
0.0
 10
179.0160891413798
 20
166.2223010915697
 42
1.0
 10
177.7219939158672
 20
171.0519302230151
 42
0.0
 10
173.2826336110079
 20
169.8624072144172
 42
-0.4663076581550273
 97
        0
 92
       22
 72
     0
 73
     1
 93
        4
 10
167.8690415286235
 20
158.947737972653
 10
165.8690415286235
 20
158.947737972653
 10
165.8690415286235
 20
181.9477379726529
 10
167.8690415286235
 20
181.947737972653
 97
        0
 92
        7
 72
     1
 73
     1
 93
       19
 10
55.23575316116694
 20
171.8818584168201
 42
0.3639702342662034
 10
52.77373377863643
 20
173.9477379726528
 42
0.0
 10
52.56895083683094
 20
173.9477379726528
 42
0.0
 10
51.85379124972019
 20
182.1220494581482
 42
0.388878731852999
 10
49.86140185353661
 20
183.9477379726529
 42
0.0
 10
47.87668120370994
 20
183.9477379726529
 42
0.3888787318530089
 10
45.88429180752632
 20
182.1220494581482
 42
0.0
 10
44.96547693262755
 20
171.6199473814998
 42
-0.466307658154999
 10
42.45544944623901
 20
169.862407214417
 42
0.0
 10
38.01608914137955
 20
171.0519302230149
 42
1.0
 10
36.72199391586696
 20
166.2223010915695
 42
0.0
 10
39.15938490617282
 20
165.5692041440782
 42
0.0
 10
45.86904152862326
 20
153.9477379726528
 42
0.0
 10
51.6369907210543
 20
153.9477379726528
 42
0.0
 10
53.36904152862326
 20
154.9477379726529
 42
0.0
 10
59.86904152862326
 20
154.9477379726529
 42
0.0
 10
59.86904152862326
 20
156.9477379726529
 42
0.0
 10
59.54724079097786
 20
156.9477379726529
 42
-0.3639702342662045
 10
57.57762528495345
 20
158.600441617319
 42
0.0
 97
        0
 92
       22
 72
     0
 73
     1
 93
        4
 10
49.86904152862326
 20
158.9477379726529
 10
47.86904152862326
 20
158.9477379726529
 10
47.86904152862326
 20
181.9477379726528
 10
49.86904152862326
 20
181.9477379726528
 97
        0
 75
     0
 76
     1
 52
45.0
 41
20.0
 77
     0
 78
     2
 53
45.0
 43
-9.553375244489984
 44
124.7451884189305
 45
-1.767766952966368
 46
1.767766952966368
 79
     0
 53
135.0
 43
-9.553375244489984
 44
124.7451884189305
 45
-1.767766952966368
 46
-1.767766952966368
 79
     0
 47
0.2177834414342877
 98
        4
 10
171.2463223143597
 20
165.9695985193764
 10
171.2463223143597
 20
165.9695985193764
 10
52.68833652914145
 20
164.8806818106405
 10
52.68833652914145
 20
164.8806818106405
  0
DIMENSION
  5
968
330
1E
100
AcDbEntity
  8
BEM
100
AcDbDimension
  2
*D1
 10
155.8690415286235
 20
142.0077358618466
 30
0.0
 11
107.8690415286233
 21
145.2577358618466
 31
0.0
 70
    32
  1
%%c<>
 71
     5
 42
96.00000000000022
  3
Standard
100
AcDbAlignedDimension
 13
59.86904152862326
 23
154.9477379726529
 33
0.0
 14
155.8690415286235
 24
154.9477379726529
 34
0.0
100
AcDbRotatedDimension
1001
ACAD
1000
DSTYLE
1002
{
1070
    41
1040
3.5
1070
    42
1040
1.0
1070
    43
1040
7.0
1070
    44
1040
1.0
1070
    73
1070
     0
1070
    74
1070
     0
1070
    77
1070
     1
1070
    78
1070
     8
1070
    79
1070
     2
1070
   140
1040
3.5
1070
   141
1040
1.5
1070
   146
1040
0.5
1070
   147
1040
1.5
1070
   172
1070
     1
1070
   178
1070
     1
1070
   179
1070
     2
1070
   271
1070
     2
1070
   272
1070
     2
1070
   284
1070
     8
1070
   285
1070
     8
1070
   286
1070
     8
1002
}
  0
DIMENSION
  5
975
330
1E
100
AcDbEntity
  8
BEM
100
AcDbDimension
  2
*D2
 10
180.8690415286234
 20
190.8450244915772
 30
0.0
 11
107.8690415286233
 21
194.0950244915772
 31
0.0
 70
    32
  1
%%c<>
 71
     5
 42
146.0
  3
Standard
100
AcDbAlignedDimension
 13
34.86904152862332
 23
168.6371156572923
 33
0.0
 14
180.8690415286234
 24
168.6371156572924
 34
0.0
100
AcDbRotatedDimension
1001
ACAD
1000
DSTYLE
1002
{
1070
    41
1040
3.5
1070
    42
1040
1.0
1070
    43
1040
7.0
1070
    44
1040
1.0
1070
    73
1070
     0
1070
    74
1070
     0
1070
    77
1070
     1
1070
    78
1070
     8
1070
    79
1070
     2
1070
   140
1040
3.5
1070
   141
1040
1.5
1070
   146
1040
0.5
1070
   147
1040
1.5
1070
   172
1070
     1
1070
   178
1070
     1
1070
   179
1070
     2
1070
   271
1070
     2
1070
   272
1070
     2
1070
   284
1070
     8
1070
   285
1070
     8
1070
   286
1070
     8
1002
}
  0
DIMENSION
  5
982
330
1E
100
AcDbEntity
  8
BEM
100
AcDbDimension
  2
*D3
 10
188.1698050068962
 20
183.9477379726563
 30
0.0
 11
184.9198050068962
 21
168.9477379726546
 31
0.0
 70
    32
 71
     5
 42
30.00000000000353
  3
Standard
100
AcDbAlignedDimension
 13
169.8690415286234
 23
153.9477379726528
 33
0.0
 14
167.8614018535368
 24
183.9477379726563
 34
0.0
 50
90.0
100
AcDbRotatedDimension
1001
ACAD
1000
DSTYLE
1002
{
1070
    41
1040
3.5
1070
    42
1040
1.0
1070
    43
1040
7.0
1070
    44
1040
1.0
1070
    73
1070
     0
1070
    74
1070
     0
1070
    77
1070
     1
1070
    78
1070
     8
1070
    79
1070
     2
1070
   140
1040
3.5
1070
   141
1040
1.5
1070
   146
1040
0.5
1070
   147
1040
1.5
1070
   172
1070
     1
1070
   178
1070
     1
1070
   179
1070
     2
1070
   271
1070
     2
1070
   272
1070
     2
1070
   284
1070
     8
1070
   285
1070
     8
1070
   286
1070
     8
1002
}
  0
LINE
  5
A26
330
1E
100
AcDbEntity
  8
STEMPEL
100
AcDbLine
 10
205.0
 20
55.00000000000003
 30
0.0
 11
19.99999999999998
 21
55.0
 31
0.0
  0
LINE
  5
A27
330
1E
100
AcDbEntity
  8
STEMPEL
100
AcDbLine
 10
68.00000000000006
 20
54.99999999999997
 30
0.0
 11
68.0
 21
4.999999999999985
 31
0.0
  0
LINE
  5
A28
330
1E
100
AcDbEntity
  8
STEMPEL
100
AcDbLine
 10
110.0
 20
55.00000000000003
 30
0.0
 11
110.0
 21
4.999999999999985
 31
0.0
  0
LINE
  5
A29
330
1E
100
AcDbEntity
  8
STEMPEL
100
AcDbLine
 10
166.0
 20
54.99999999999989
 30
0.0
 11
166.0
 21
20.0
 31
0.0
  0
LINE
  5
A2A
330
1E
100
AcDbEntity
  8
STEMPEL
100
AcDbLine
 10
67.99999999999994
 20
14.99999999999998
 30
0.0
 11
19.99999999999998
 21
14.99999999999998
 31
0.0
  0
LINE
  5
A2B
330
1E
100
AcDbEntity
  8
STEMPEL
100
AcDbLine
 10
205.0
 20
20.0
 30
0.0
 11
68.00000000000006
 21
19.99999999999998
 31
0.0
  0
LINE
  5
A2C
330
1E
100
AcDbEntity
  8
STEMPEL
100
AcDbLine
 10
205.0
 20
40.0
 30
0.0
 11
68.00000000000006
 21
39.99999999999997
 31
0.0
  0
LINE
  5
A2D
330
1E
100
AcDbEntity
  8
VOLL
100
AcDbLine
 10
27.00000000000005
 20
55.00000000000003
 30
0.0
 11
26.99999999999999
 21
4.999999999999985
 31
0.0
  0
LINE
  5
A2E
330
1E
100
AcDbEntity
  8
VOLL
100
AcDbLine
 10
47.00000000000005
 20
54.99999999999997
 30
0.0
 11
47.0
 21
4.999999999999985
 31
0.0
  0
LINE
  5
A2F
330
1E
100
AcDbEntity
  8
VOLL
100
AcDbLine
 10
57.00000000000006
 20
54.99999999999997
 30
0.0
 11
57.0
 21
4.999999999999985
 31
0.0
  0
LINE
  5
A30
330
1E
100
AcDbEntity
  8
VOLL
100
AcDbLine
 10
77.00000000000006
 20
39.99999999999997
 30
0.0
 11
77.00000000000006
 21
19.99999999999998
 31
0.0
  0
LINE
  5
A31
330
1E
100
AcDbEntity
  8
VOLL
100
AcDbLine
 10
90.00000000000005
 20
54.99999999999992
 30
0.0
 11
90.0
 21
19.99999999999998
 31
0.0
  0
LINE
  5
A32
330
1E
100
AcDbEntity
  8
HILF
100
AcDbLine
 10
20.00000000000004
 20
50.00000000000003
 30
0.0
 11
68.00000000000006
 21
50.00000000000003
 31
0.0
  0
LINE
  5
A33
330
1E
100
AcDbEntity
  8
HILF
100
AcDbLine
 10
20.00000000000004
 20
45.00000000000002
 30
0.0
 11
68.00000000000006
 21
45.00000000000002
 31
0.0
  0
LINE
  5
A34
330
1E
100
AcDbEntity
  8
HILF
100
AcDbLine
 10
20.00000000000004
 20
39.99999999999997
 30
0.0
 11
68.00000000000006
 21
39.99999999999997
 31
0.0
  0
LINE
  5
A35
330
1E
100
AcDbEntity
  8
HILF
100
AcDbLine
 10
20.00000000000004
 20
34.99999999999997
 30
0.0
 11
68.00000000000006
 21
34.99999999999997
 31
0.0
  0
LINE
  5
A36
330
1E
100
AcDbEntity
  8
HILF
100
AcDbLine
 10
20.00000000000004
 20
29.99999999999999
 30
0.0
 11
68.00000000000006
 21
29.99999999999999
 31
0.0
  0
LINE
  5
A37
330
1E
100
AcDbEntity
  8
HILF
100
AcDbLine
 10
20.00000000000004
 20
24.99999999999999
 30
0.0
 11
68.00000000000006
 21
24.99999999999999
 31
0.0
  0
LINE
  5
A38
330
1E
100
AcDbEntity
  8
HILF
100
AcDbLine
 10
20.00000000000004
 20
19.99999999999998
 30
0.0
 11
68.00000000000006
 21
19.99999999999998
 31
0.0
  0
LINE
  5
A39
330
1E
100
AcDbEntity
  8
HILF
100
AcDbLine
 10
68.00000000000006
 20
34.99999999999997
 30
0.0
 11
110.0
 21
34.99999999999997
 31
0.0
  0
LINE
  5
A3A
330
1E
100
AcDbEntity
  8
HILF
100
AcDbLine
 10
68.00000000000006
 20
29.99999999999999
 30
0.0
 11
110.0
 21
29.99999999999999
 31
0.0
  0
LINE
  5
A3B
330
1E
100
AcDbEntity
  8
HILF
100
AcDbLine
 10
68.00000000000006
 20
24.99999999999999
 30
0.0
 11
110.0
 21
24.99999999999999
 31
0.0
  0
LINE
  5
A3C
330
1E
100
AcDbEntity
  8
HILF
100
AcDbLine
 10
112.3868400548474
 20
42.01879123782069
 30
0.0
 11
162.4176958278155
 21
42.01879123782069
 31
0.0
  0
LINE
  5
A3D
330
1E
100
AcDbEntity
  8
HILF
100
AcDbLine
 10
112.3868400548474
 20
34.99999999999997
 30
0.0
 11
162.4176958278155
 21
34.99999999999997
 31
0.0
  0
LINE
  5
A3E
330
1E
100
AcDbEntity
  8
HILF
100
AcDbLine
 10
112.3868400548474
 20
29.99999999999999
 30
0.0
 11
162.4176958278155
 21
29.99999999999999
 31
0.0
  0
LINE
  5
A3F
330
1E
100
AcDbEntity
  8
HILF
100
AcDbLine
 10
112.3868400548474
 20
24.99999999999999
 30
0.0
 11
162.4176958278155
 21
24.99999999999999
 31
0.0
  0
LINE
  5
A40
330
1E
100
AcDbEntity
  8
VOLL
100
AcDbLine
 10
166.0
 20
30.0
 30
0.0
 11
205.0
 21
30.0
 31
0.0
  0
LINE
  5
A41
330
1E
100
AcDbEntity
  8
HILF
100
AcDbLine
 10
168.3619308148496
 20
41.88991818477913
 30
0.0
 11
202.4294419663364
 21
41.88991818477913
 31
0.0
  0
LINE
  5
A42
330
1E
100
AcDbEntity
  8
HILF
100
AcDbLine
 10
111.7454849644942
 20
7.446991290141568
 30
0.0
 11
202.4294419663364
 21
7.446991290141568
 31
0.0
  0
TEXT
  5
A43
330
1E
100
AcDbEntity
  8
TEXT
100
AcDbText
 10
31.9308298981591
 20
9.336909474920659
 30
0.0
 40
2.0
  1
Änderung
 41
0.8
  7
GREEKS
 72
     1
 11
37.30225846958767
 21
9.336909474920659
 31
0.0
100
AcDbText
  0
TEXT
  5
A44
330
1E
100
AcDbEntity
  8
TEXT
100
AcDbText
 10
71.75817860751886
 20
51.23104475435443
 30
0.0
 40
2.5
  1
Maßstab
 41
0.8
  7
GREEKS
100
AcDbText
  0
TEXT
  5
A45
330
1E
100
AcDbEntity
  8
TEXT
100
AcDbText
 10
92.14294773670257
 20
51.20920842174095
 30
0.0
 40
2.5
  1
Zul. Abw.
 41
0.8
  7
GREEKS
100
AcDbText
  0
TEXT
  5
A46
330
1E
100
AcDbEntity
  8
TEXT
100
AcDbText
 10
112.4389701904505
 20
51.27446640058898
 30
0.0
 40
2.5
  1
Benennung
 41
0.8
  7
GREEKS
100
AcDbText
  0
TEXT
  5
A47
330
1E
100
AcDbEntity
  8
TEXT
100
AcDbText
 10
168.089377478817
 20
51.15660172685682
 30
0.0
 40
2.5
  1
Zeichnungs Nr.
 41
0.8
  7
GREEKS
100
AcDbText
  0
TEXT
  5
A48
330
1E
100
AcDbEntity
  8
TEXT
100
AcDbText
 10
112.371119195568
 20
15.42280285096528
 30
0.0
 40
2.5
  1
Bauvorhaben
 41
0.8
  7
GREEKS
100
AcDbText
  0
TEXT
  5
A49
330
1E
100
AcDbEntity
  8
TEXT
100
AcDbText
 10
168.3619308148496
 20
36.59059118549985
 30
0.0
 40
2.5
  1
Ersatz für:
 41
0.8
  7
GREEKS
100
AcDbText
  0
TEXT
  5
A4A
330
1E
100
AcDbEntity
  8
TEXT
100
AcDbText
 10
24.13320553522878
 20
6.827329230135958
 30
0.0
 40
2.0
  1
Index
 50
90.0
 41
0.8
  7
GREEKS
100
AcDbText
  0
TEXT
  5
A4B
330
1E
100
AcDbEntity
  8
TEXT
100
AcDbText
 10
50.04673380377405
 20
9.33578134669905
 30
0.0
 40
2.0
  1
Tag
 41
0.8
  7
GREEKS
 72
     1
 11
51.91340047044072
 21
9.33578134669905
 31
0.0
100
AcDbText
  0
TEXT
  5
A4C
330
1E
100
AcDbEntity
  8
TEXT
100
AcDbText
 10
59.50613721932963
 20
9.29662108483204
 30
0.0
 40
2.0
  1
Name
 41
0.8
  7
GREEKS
 72
     1
 11
62.66804198123439
 21
9.29662108483204
 31
0.0
100
AcDbText
  0
TEXT
  5
A4D
330
1E
100
AcDbEntity
  8
TEXT
100
AcDbText
 10
81.16558365768254
 20
36.65940250614963
 30
0.0
 40
2.0
  1
Tag
 41
0.8
  7
GREEKS
100
AcDbText
  0
TEXT
  5
A4E
330
1E
100
AcDbEntity
  8
TEXT
100
AcDbText
 10
96.23132921131475
 20
36.65480545957612
 30
0.0
 40
2.0
  1
Name
 41
0.8
  7
GREEKS
100
AcDbText
  0
TEXT
  5
A4F
330
1E
100
AcDbEntity
  8
TEXT
100
AcDbText
 10
68.79180635838077
 20
31.81495184808982
 30
0.0
 40
2.0
  1
Gez.
 41
0.8
  7
GREEKS
100
AcDbText
  0
TEXT
  5
A50
330
1E
100
AcDbEntity
  8
TEXT
100
AcDbText
 10
68.77575432858361
 20
26.84463145714189
 30
0.0
 40
2.0
  1
Gepr.
 41
0.8
  7
GREEKS
100
AcDbText
  0
TEXT
  5
A51
330
1E
100
AcDbEntity
  8
TEXT
100
AcDbText
 10
68.80033886936519
 20
21.76473194824904
 30
0.0
 40
2.0
  1
Norm.
 41
0.8
  7
GREEKS
100
AcDbText
  0
LINE
  5
A52
330
1E
100
AcDbEntity
  8
STEMPEL
100
AcDbLine
 10
24.99999999999995
 20
5.0
 30
0.0
 11
205.0
 21
5.0
 31
0.0
  0
TEXT
  5
A53
330
1E
100
AcDbEntity
  8
TEXT
100
AcDbText
 10
168.6200430748503
 20
26.03708088939301
 30
0.0
 40
2.5
  1
ersetzt durch:
 41
0.8
  7
GREEKS
100
AcDbText
  0
LINE
  5
A54
330
1E
100
AcDbEntity
  8
STEMPEL
100
AcDbLine
 10
205.0
 20
5.0
 30
0.0
 11
19.99999999999994
 21
5.0
 31
0.0
  0
LINE
  5
A55
330
1E
100
AcDbEntity
  8
STEMPEL
100
AcDbLine
 10
205.0
 20
5.0
 30
0.0
 11
205.0
 21
292.0
 31
0.0
  0
LINE
  5
A56
330
1E
100
AcDbEntity
  8
STEMPEL
100
AcDbLine
 10
20.0
 20
5.0
 30
0.0
 11
19.99999999999994
 21
292.0
 31
0.0
  0
LINE
  5
A57
330
1E
100
AcDbEntity
  8
STEMPEL
100
AcDbLine
 10
205.0
 20
292.0
 30
0.0
 11
19.99999999999994
 21
292.0
 31
0.0
  0
LINE
  5
A58
330
1E
100
AcDbEntity
  8
HILF
100
AcDbLine
 10
0.0
 20
0.0
 30
0.0
 11
-0.0000000000000568
 21
297.0
 31
0.0
  0
LINE
  5
A59
330
1E
100
AcDbEntity
  8
HILF
100
AcDbLine
 10
210.0
 20
297.0000000000001
 30
0.0
 11
0.0
 21
297.0
 31
0.0
  0
LINE
  5
A5A
330
1E
100
AcDbEntity
  8
HILF
100
AcDbLine
 10
210.0
 20
0.0
 30
0.0
 11
0.0
 21
0.0
 31
0.0
  0
LINE
  5
A5B
330
1E
100
AcDbEntity
  8
HILF
100
AcDbLine
 10
15.54383567856928
 20
148.5
 30
0.0
 11
0.0000000000000568
 21
148.5
 31
0.0
  0
TEXT
  5
A5C
330
1E
100
AcDbEntity
  8
TEXT
100
AcDbText
 10
69.31105491105199
 20
36.57012735575833
 30
0.0
 40
2.0
  1
2008
 41
0.8
  7
GREEKS
100
AcDbText
  0
LINE
  5
A5D
330
1E
100
AcDbEntity
  8
HILF
100
AcDbLine
 10
210.0
 20
-0.0000000000000568
 30
0.0
 11
210.0
 21
297.0
 31
0.0
  0
TEXT
  5
A5E
330
1E
100
AcDbEntity
  8
VOLL
100
AcDbText
 10
78.07675471698113
 20
31.02594776470585
 30
0.0
 40
1.8
  1

  7
GREEKS
100
AcDbText
  0
TEXT
  5
A5F
330
1E
100
AcDbEntity
  8
TEXT
100
AcDbText
 10
20.92754975488837
 20
55.83599999999997
 30
0.0
 40
2.5
  1
Erstellt mit AUTOCAD 2004
 41
0.8
  7
GREEKS
100
AcDbText
  0
TEXT
  5
A60
330
1E
100
AcDbEntity
  8
TEXT
100
AcDbText
 10
97.21080242906285
 20
31.54481959861755
 30
0.0
 40
2.0
  1
Koeh
 41
0.8
  7
GREEKS
 72
     1
 11
99.83937385763429
 21
31.54481959861755
 31
0.0
100
AcDbText
  0
TEXT
  5
A61
330
1E
100
AcDbEntity
  8
TEXT
 62
     1
100
AcDbText
 10
172.1571920604668
 20
44.07450714456979
 30
0.0
 40
3.5
  1
16201070W
 41
0.8
  7
GREEKS
 72
     1
 11
183.6238587271335
 21
44.07450714456979
 31
0.0
100
AcDbText
  0
TEXT
  5
A62
330
1E
100
AcDbEntity
  8
TEXT
 62
     1
100
AcDbText
 10
75.25031532409435
 20
44.07450714456979
 30
0.0
 40
3.5
  1
1:1
 41
0.8
  7
GREEKS
100
AcDbText
  0
TEXT
  5
A63
330
1E
100
AcDbEntity
  8
TEXT
100
AcDbText
 10
80.19949855411802
 20
31.55382520412866
 30
0.0
 40
2.0
  1
02.06.
 41
0.8
  7
GREEKS
 72
     1
 11
83.70426045887993
 21
31.55382520412866
 31
0.0
100
AcDbText
  0
TEXT
  5
A64
330
1E
100
AcDbEntity
  8
TEXT
 62
     1
100
AcDbText
 10
113.4467865528701
 20
43.70874394626889
 30
0.0
 40
3.5
  1
Klemmring DN70
 41
0.8
  7
GREEKS
100
AcDbText
  0
TEXT
  5
A65
330
1E
100
AcDbEntity
  8
TEXT
100
AcDbText
 10
112.5648195562657
 20
35.75167208792644
 30
0.0
 40
2.5
  1
ohne Entwässerungsöffnung
 41
0.8
  7
GREEKS
100
AcDbText
  0
TEXT
  5
A66
330
1E
100
AcDbEntity
  8
TEXT
100
AcDbText
 10
112.5648195562657
 20
31.05790353387428
 30
0.0
 40
2.5
  1

 41
0.8
  7
GREEKS
100
AcDbText
  0
TEXT
  5
A67
330
1E
100
AcDbEntity
  8
TEXT
100
AcDbText
 10
112.5648195562657
 20
25.82005971521079
 30
0.0
 40
2.5
  1
EDV-Art.Nr. 16201.070X
 41
0.8
  7
GREEKS
100
AcDbText
  0
TEXT
  5
A68
330
1E
100
AcDbEntity
  8
TEXT
100
AcDbText
 10
112.4918750788913
 20
21.31487076511316
 30
0.0
 40
2.0
  1
16201070X.DWG
 41
0.8
  7
GREEKS
100
AcDbText
  0
TEXT
  5
A69
330
1E
100
AcDbEntity
  8
TEXT
100
AcDbText
 10
91.00830419928012
 20
45.38181920511511
 30
0.0
 40
2.0
  1
DIN ISO3302-1
 41
0.8
  7
GREEKS
 72
     1
 11
99.80830419928011
 21
45.38181920511511
 31
0.0
100
AcDbText
  0
INSERT
  5
A6A
330
1E
100
AcDbEntity
  8
STEMPEL
100
AcDbBlockReference
  2
LOGO
 10
70.4977742728897
 20
22.51052638224161
 30
0.0
  0
TEXT
  5
A6B
330
1E
100
AcDbEntity
  8
BEM
100
AcDbText
 10
208.6511461928583
 20
5.083950539994247
 30
0.0
 40
2.0
  1
Diese Zeichnung ist urheberrechtlich geschützt und bleibt unser Eigentum. Sie darf weder ganz noch teilweise verfielfältigt und nicht an Dritte weitergegeben werden.
 50
90.0
 41
0.8
  7
GREEKS
100
AcDbText
  0
TEXT
  5
A97
330
1E
100
AcDbEntity
  8
TEXT
 62
     1
100
AcDbText
 10
140.5981882781748
 20
69.7916761277414
 30
0.0
 40
3.5
  1
Werkstoff: EPDM
 41
0.8
  7
GREEKS
100
AcDbText
  0
ENDSEC
  0
SECTION
  2
OBJECTS
  0
DICTIONARY
  5
C
330
0
100
AcDbDictionary
281
     1
  3
ACAD_COLOR
350
11A
  3
ACAD_GROUP
350
D
  3
ACAD_LAYOUT
350
19
  3
ACAD_MATERIAL
350
119
  3
ACAD_MLINESTYLE
350
16
  3
ACAD_PLOTSETTINGS
350
18
  3
ACAD_PLOTSTYLENAME
350
E
  3
AcDbVariableDictionary
350
125
  0
DICTIONARY
  5
DB
330
1E
100
AcDbDictionary
280
     1
281
     1
  3
ACAD_LAYOUTSELFREF
360
10F
  0
DICTIONARY
  5
DD
330
1A
100
AcDbDictionary
280
     1
281
     1
  3
ACAD_LAYOUTSELFREF
360
10E
  0
DICTIONARY
  5
11A
102
{ACAD_REACTORS
330
C
102
}
330
C
100
AcDbDictionary
281
     1
  0
DICTIONARY
  5
D
102
{ACAD_REACTORS
330
C
102
}
330
C
100
AcDbDictionary
281
     1
  0
DICTIONARY
  5
19
102
{ACAD_REACTORS
330
C
102
}
330
C
100
AcDbDictionary
281
     1
  3
Layout1
350
1D
  3
Model
350
21
  0
DICTIONARY
  5
119
102
{ACAD_REACTORS
330
C
102
}
330
C
100
AcDbDictionary
281
     1
  0
DICTIONARY
  5
16
102
{ACAD_REACTORS
330
C
102
}
330
C
100
AcDbDictionary
281
     1
  3
Standard
350
17
  0
DICTIONARY
  5
18
102
{ACAD_REACTORS
330
C
102
}
330
C
100
AcDbDictionary
281
     1
  0
ACDBDICTIONARYWDFLT
  5
E
102
{ACAD_REACTORS
330
C
102
}
330
C
100
AcDbDictionary
281
     1
  3
Normal
350
F
100
AcDbDictionaryWithDefault
340
F
  0
DICTIONARY
  5
125
102
{ACAD_REACTORS
330
C
102
}
330
C
100
AcDbDictionary
281
     1
  3
DIMASSOC
350
126
  3
PROJECTNAME
350
127
  0
XRECORD
  5
10F
102
{ACAD_REACTORS
330
DB
102
}
330
DB
100
AcDbXrecord
280
     1
340
1E
  0
XRECORD
  5
10E
102
{ACAD_REACTORS
330
DD
102
}
330
DD
100
AcDbXrecord
280
     1
340
1A
  0
LAYOUT
  5
1D
102
{ACAD_REACTORS
330
19
102
}
330
19
100
AcDbPlotSettings
  1

  2
\\NT_WORK01\HP LaserJet 5000 PCL 6
  4

  6

 40
0.0
 41
0.0
 42
0.0
 43
0.0
 44
0.0
 45
0.0
 46
0.0
 47
0.0
 48
0.0
 49
0.0
140
0.0
141
0.0
142
1.0
143
1.0
 70
   688
 72
     0
 73
     0
 74
     5
  7

 75
    16
147
1.0
 76
     0
 77
     2
 78
   300
148
0.0
149
0.0
100
AcDbLayout
  1
Layout1
 70
     0
 71
     1
 10
0.0
 20
0.0
 11
12.0
 21
9.0
 12
0.0
 22
0.0
 32
0.0
 14
1.000000000000000E+20
 24
1.000000000000000E+20
 34
1.000000000000000E+20
 15
-1.000000000000000E+20
 25
-1.000000000000000E+20
 35
-1.000000000000000E+20
146
0.0
 13
0.0
 23
0.0
 33
0.0
 16
1.0
 26
0.0
 36
0.0
 17
0.0
 27
1.0
 37
0.0
 76
     0
330
1A
  0
LAYOUT
  5
21
102
{ACAD_REACTORS
330
19
102
}
330
19
100
AcDbPlotSettings
  1

  2
none_device
  4
Letter_(8.50_x_11.00_Inches)
  6

 40
6.349999904632568
 41
6.349999904632568
 42
6.350006103515625
 43
6.350006103515625
 44
215.8999938964844
 45
279.3999938964844
 46
0.0
 47
0.0
 48
0.0
 49
0.0
140
0.0
141
0.0
142
1.0
143
1.0
 70
 11952
 72
     0
 73
     1
 74
     0
  7

 75
     0
147
1.0
 76
     0
 77
     2
 78
   300
148
1135.605317765266
149
30.80751345731796
100
AcDbLayout
  1
Model
 70
     1
 71
     0
 10
0.0
 20
0.0
 11
12.0
 21
9.0
 12
0.0
 22
0.0
 32
0.0
 14
0.0
 24
0.0
 34
0.0
 15
0.0
 25
0.0
 35
0.0
146
0.0
 13
0.0
 23
0.0
 33
0.0
 16
1.0
 26
0.0
 36
0.0
 17
0.0
 27
1.0
 37
0.0
 76
     0
330
1E
  0
MLINESTYLE
  5
17
102
{ACAD_REACTORS
330
16
102
}
330
16
100
AcDbMlineStyle
  2
STANDARD
 70
     0
  3

 62
   256
 51
90.0
 52
90.0
 71
     2
 49
0.5
 62
   256
  6
BYLAYER
 49
-0.5
 62
   256
  6
BYLAYER
  0
ACDBPLACEHOLDER
  5
F
102
{ACAD_REACTORS
330
E
102
}
330
E
  0
DICTIONARYVAR
  5
126
102
{ACAD_REACTORS
330
125
102
}
330
125
100
DictionaryVariables
280
     0
  1
1
  0
DICTIONARYVAR
  5
127
102
{ACAD_REACTORS
330
125
102
}
330
125
100
DictionaryVariables
280
     0
  1

  0
ENDSEC
  0
EOF
