  0
SECTION
  2
HEADER
  9
$ACADVER
  1
AC1018
  9
$ACADMAINTVER
 70
     2
  9
$DWGCODEPAGE
  3
ANSI_1252
  9
$INSBASE
 10
0.0
 20
0.0
 30
0.0
  9
$EXTMIN
 10
-0.0362442327386816
 20
-0.0512544705395612
 30
-0.000000000000013
  9
$EXTMAX
 10
594.0362629045896
 20
840.0512808751781
 30
0.0000000000000023
  9
$LIMMIN
 10
0.0
 20
0.0
  9
$LIMMAX
 10
594.0
 20
840.0000000000002
  9
$ORTHOMODE
 70
     1
  9
$REGENMODE
 70
     1
  9
$FILLMODE
 70
     1
  9
$QTEXTMODE
 70
     0
  9
$MIRRTEXT
 70
     1
  9
$LTSCALE
 40
20.0
  9
$ATTMODE
 70
     1
  9
$TEXTSIZE
 40
3.5
  9
$TRACEWID
 40
1.0
  9
$TEXTSTYLE
  7
STANDARD
  9
$CLAYER
  8
VOLL
  9
$CELTYPE
  6
ByLayer
  9
$CECOLOR
 62
   256
  9
$CELTSCALE
 40
1.0
  9
$DISPSILH
 70
     0
  9
$DIMSCALE
 40
2.0
  9
$DIMASZ
 40
3.5
  9
$DIMEXO
 40
1.0
  9
$DIMDLI
 40
7.0
  9
$DIMRND
 40
0.0
  9
$DIMDLE
 40
0.0
  9
$DIMEXE
 40
1.0
  9
$DIMTP
 40
1.0
  9
$DIMTM
 40
1.0
  9
$DIMTXT
 40
3.5
  9
$DIMCEN
 40
1.5
  9
$DIMTSZ
 40
0.0
  9
$DIMTOL
 70
     0
  9
$DIMLIM
 70
     0
  9
$DIMTIH
 70
     0
  9
$DIMTOH
 70
     0
  9
$DIMSE1
 70
     0
  9
$DIMSE2
 70
     0
  9
$DIMTAD
 70
     1
  9
$DIMZIN
 70
     8
  9
$DIMBLK
  1

  9
$DIMASO
 70
     1
  9
$DIMSHO
 70
     0
  9
$DIMPOST
  1

  9
$DIMAPOST
  1

  9
$DIMALT
 70
     0
  9
$DIMALTD
 70
     2
  9
$DIMALTF
 40
25.4
  9
$DIMLFAC
 40
1.0
  9
$DIMTOFL
 70
     1
  9
$DIMTVP
 40
0.2857142857142857
  9
$DIMTIX
 70
     0
  9
$DIMSOXD
 70
     0
  9
$DIMSAH
 70
     0
  9
$DIMBLK1
  1

  9
$DIMBLK2
  1

  9
$DIMSTYLE
  2
Standard
  9
$DIMCLRD
 70
     0
  9
$DIMCLRE
 70
     0
  9
$DIMCLRT
 70
     1
  9
$DIMTFAC
 40
0.5142857142857144
  9
$DIMGAP
 40
1.5
  9
$DIMJUST
 70
     0
  9
$DIMSD1
 70
     0
  9
$DIMSD2
 70
     0
  9
$DIMTOLJ
 70
     1
  9
$DIMTZIN
 70
     8
  9
$DIMALTZ
 70
     8
  9
$DIMALTTZ
 70
     8
  9
$DIMUPT
 70
     0
  9
$DIMDEC
 70
     2
  9
$DIMTDEC
 70
     2
  9
$DIMALTU
 70
     2
  9
$DIMALTTD
 70
     2
  9
$DIMTXSTY
  7
STANDARD
  9
$DIMAUNIT
 70
     0
  9
$DIMADEC
 70
     2
  9
$DIMALTRND
 40
0.0
  9
$DIMAZIN
 70
     2
  9
$DIMDSEP
 70
    46
  9
$DIMATFIT
 70
     3
  9
$DIMFRAC
 70
     0
  9
$DIMLDRBLK
  1

  9
$DIMLUNIT
 70
     2
  9
$DIMLWD
 70
    -2
  9
$DIMLWE
 70
    -2
  9
$DIMTMOVE
 70
     0
  9
$LUNITS
 70
     2
  9
$LUPREC
 70
     2
  9
$SKETCHINC
 40
1.0
  9
$FILLETRAD
 40
12.0
  9
$AUNITS
 70
     0
  9
$AUPREC
 70
     0
  9
$MENU
  1
ACAD
  9
$ELEVATION
 40
0.0
  9
$PELEVATION
 40
0.0
  9
$THICKNESS
 40
0.0
  9
$LIMCHECK
 70
     0
  9
$CHAMFERA
 40
0.0
  9
$CHAMFERB
 40
0.0
  9
$CHAMFERC
 40
0.0
  9
$CHAMFERD
 40
0.0
  9
$SKPOLY
 70
     0
  9
$TDCREATE
 40
2452535.582627778
  9
$TDUCREATE
 40
2452535.499294445
  9
$TDUPDATE
 40
2455461.564006701
  9
$TDUUPDATE
 40
2455461.480673368
  9
$TDINDWG
 40
0.1868428704
  9
$TDUSRTIMER
 40
0.1868428704
  9
$USRTIMER
 70
     1
  9
$ANGBASE
 50
0.0
  9
$ANGDIR
 70
     0
  9
$PDMODE
 70
     0
  9
$PDSIZE
 40
0.0
  9
$PLINEWID
 40
0.0
  9
$SPLFRAME
 70
     0
  9
$SPLINETYPE
 70
     6
  9
$SPLINESEGS
 70
     8
  9
$HANDSEED
  5
920
  9
$SURFTAB1
 70
     6
  9
$SURFTAB2
 70
     6
  9
$SURFTYPE
 70
     6
  9
$SURFU
 70
     6
  9
$SURFV
 70
     6
  9
$UCSBASE
  2

  9
$UCSNAME
  2

  9
$UCSORG
 10
0.0
 20
0.0
 30
0.0
  9
$UCSXDIR
 10
1.0
 20
0.0
 30
0.0
  9
$UCSYDIR
 10
0.0
 20
1.0
 30
0.0
  9
$UCSORTHOREF
  2

  9
$UCSORTHOVIEW
 70
     0
  9
$UCSORGTOP
 10
0.0
 20
0.0
 30
0.0
  9
$UCSORGBOTTOM
 10
0.0
 20
0.0
 30
0.0
  9
$UCSORGLEFT
 10
0.0
 20
0.0
 30
0.0
  9
$UCSORGRIGHT
 10
0.0
 20
0.0
 30
0.0
  9
$UCSORGFRONT
 10
0.0
 20
0.0
 30
0.0
  9
$UCSORGBACK
 10
0.0
 20
0.0
 30
0.0
  9
$PUCSBASE
  2

  9
$PUCSNAME
  2

  9
$PUCSORG
 10
0.0
 20
0.0
 30
0.0
  9
$PUCSXDIR
 10
1.0
 20
0.0
 30
0.0
  9
$PUCSYDIR
 10
0.0
 20
1.0
 30
0.0
  9
$PUCSORTHOREF
  2

  9
$PUCSORTHOVIEW
 70
     0
  9
$PUCSORGTOP
 10
0.0
 20
0.0
 30
0.0
  9
$PUCSORGBOTTOM
 10
0.0
 20
0.0
 30
0.0
  9
$PUCSORGLEFT
 10
0.0
 20
0.0
 30
0.0
  9
$PUCSORGRIGHT
 10
0.0
 20
0.0
 30
0.0
  9
$PUCSORGFRONT
 10
0.0
 20
0.0
 30
0.0
  9
$PUCSORGBACK
 10
0.0
 20
0.0
 30
0.0
  9
$USERI1
 70
     0
  9
$USERI2
 70
     0
  9
$USERI3
 70
     0
  9
$USERI4
 70
     0
  9
$USERI5
 70
     0
  9
$USERR1
 40
0.0
  9
$USERR2
 40
0.0
  9
$USERR3
 40
0.0
  9
$USERR4
 40
0.0
  9
$USERR5
 40
0.0
  9
$WORLDVIEW
 70
     1
  9
$SHADEDGE
 70
     3
  9
$SHADEDIF
 70
    70
  9
$TILEMODE
 70
     1
  9
$MAXACTVP
 70
    16
  9
$PINSBASE
 10
3.174945865668594
 20
50.00000000000001
 30
-1.45999203468817
  9
$PLIMCHECK
 70
     0
  9
$PEXTMIN
 10
1.000000000000000E+20
 20
1.000000000000000E+20
 30
1.000000000000000E+20
  9
$PEXTMAX
 10
-1.000000000000000E+20
 20
-1.000000000000000E+20
 30
-1.000000000000000E+20
  9
$PLIMMIN
 10
0.0
 20
0.0
  9
$PLIMMAX
 10
12.0
 20
9.0
  9
$UNITMODE
 70
     0
  9
$VISRETAIN
 70
     0
  9
$PLINEGEN
 70
     0
  9
$PSLTSCALE
 70
     0
  9
$TREEDEPTH
 70
  3020
  9
$CMLSTYLE
  2
Standard
  9
$CMLJUST
 70
     0
  9
$CMLSCALE
 40
1.0
  9
$PROXYGRAPHICS
 70
     1
  9
$MEASUREMENT
 70
     0
  9
$CELWEIGHT
370
    -1
  9
$ENDCAPS
280
     0
  9
$JOINSTYLE
280
     0
  9
$LWDISPLAY
290
     0
  9
$INSUNITS
 70
     0
  9
$HYPERLINKBASE
  1

  9
$STYLESHEET
  1
monochrome 1.ctb
  9
$XEDIT
290
     1
  9
$CEPSNTYPE
380
     0
  9
$PSTYLEMODE
290
     1
  9
$FINGERPRINTGUID
  2
{2F496D37-B4B8-4BB7-A815-5C50E6A3BE86}
  9
$VERSIONGUID
  2
{F16724D9-3072-4692-8B16-1F12F04966EA}
  9
$EXTNAMES
290
     1
  9
$PSVPSCALE
 40
0.0
  9
$OLESTARTUP
290
     0
  9
$SORTENTS
280
   127
  9
$INDEXCTL
280
     0
  9
$HIDETEXT
280
     1
  9
$XCLIPFRAME
290
     0
  9
$HALOGAP
280
     0
  9
$OBSCOLOR
 70
   257
  9
$OBSLTYPE
280
     0
  9
$INTERSECTIONDISPLAY
280
     0
  9
$INTERSECTIONCOLOR
 70
   257
  9
$DIMASSOC
280
     2
  9
$PROJECTNAME
  1

  0
ENDSEC
  0
SECTION
  2
CLASSES
  0
CLASS
  1
ACDBDICTIONARYWDFLT
  2
AcDbDictionaryWithDefault
  3
ObjectDBX Classes
 90
        0
 91
        1
280
     0
281
     0
  0
CLASS
  1
DICTIONARYVAR
  2
AcDbDictionaryVar
  3
ObjectDBX Classes
 90
        0
 91
        3
280
     0
281
     0
  0
CLASS
  1
DIMASSOC
  2
AcDbDimAssoc
  3
"AcDbDimAssoc|Product Desc:     AcDim ARX App For Dimension|Company:          Autodesk, Inc.|WEB Address:      www.autodesk.com"
 90
        0
 91
        0
280
     0
281
     0
  0
ENDSEC
  0
SECTION
  2
TABLES
  0
TABLE
  2
VPORT
  5
8
330
0
100
AcDbSymbolTable
 70
     3
  0
VPORT
  5
91F
330
8
100
AcDbSymbolTableRecord
100
AcDbViewportTableRecord
  2
*Active
 70
     0
 10
0.0
 20
0.0
 11
1.0
 21
1.0
 12
297.0000093359254
 22
420.0000132023191
 13
0.0
 23
0.0
 14
2.5
 24
2.5
 15
10.0
 25
10.0
 16
0.0
 26
0.0
 36
1.0
 17
0.0
 27
0.0
 37
0.0
 40
846.8866742583342
 41
1.336927223719676
 42
50.0
 43
0.0
 44
0.0
 50
0.0
 51
0.0
 71
     0
 72
   500
 73
     1
 74
     0
 75
     0
 76
     0
 77
     0
 78
     0
281
     0
 65
     1
110
0.0
120
0.0
130
0.0
111
1.0
121
0.0
131
0.0
112
0.0
122
1.0
132
0.0
 79
     0
146
0.0
  0
ENDTAB
  0
TABLE
  2
LTYPE
  5
5
330
0
100
AcDbSymbolTable
 70
     3
  0
LTYPE
  5
13
330
5
100
AcDbSymbolTableRecord
100
AcDbLinetypeTableRecord
  2
ByBlock
 70
     0
  3

 72
    65
 73
     0
 40
0.0
  0
LTYPE
  5
14
330
5
100
AcDbSymbolTableRecord
100
AcDbLinetypeTableRecord
  2
ByLayer
 70
     0
  3

 72
    65
 73
     0
 40
0.0
  0
LTYPE
  5
15
330
5
100
AcDbSymbolTableRecord
100
AcDbLinetypeTableRecord
  2
Continuous
 70
     0
  3
Solid line
 72
    65
 73
     0
 40
0.0
  0
LTYPE
  5
41
330
5
100
AcDbSymbolTableRecord
100
AcDbLinetypeTableRecord
  2
STRICHPUNKT
 70
     0
  3
__ . __ . __ . __ . __ . __ . __ . __ . __ . __
 72
    65
 73
     4
 40
1.0
 49
0.5
 74
     0
 49
-0.25
 74
     0
 49
0.0
 74
     0
 49
-0.25
 74
     0
  0
LTYPE
  5
42
330
5
100
AcDbSymbolTableRecord
100
AcDbLinetypeTableRecord
  2
VERDECKT
 70
     0
  3
_ _ _ _ _ _ _ _ _ _ _ _ _ _ _ _ _ _ _ _ _ _ _
 72
    65
 73
     2
 40
0.375
 49
0.25
 74
     0
 49
-0.125
 74
     0
  0
ENDTAB
  0
TABLE
  2
LAYER
  5
2
330
0
100
AcDbSymbolTable
 70
    10
  0
LAYER
  5
10
330
2
100
AcDbSymbolTableRecord
100
AcDbLayerTableRecord
  2
0
 70
     0
 62
     7
  6
Continuous
370
    -3
390
F
  0
LAYER
  5
45
330
2
100
AcDbSymbolTableRecord
100
AcDbLayerTableRecord
  2
VOLL
 70
     0
 62
     1
  6
Continuous
370
    -3
390
F
  0
LAYER
  5
46
330
2
100
AcDbSymbolTableRecord
100
AcDbLayerTableRecord
  2
MITTEL
 70
     0
 62
     2
  6
STRICHPUNKT
370
    -3
390
F
  0
LAYER
  5
47
330
2
100
AcDbSymbolTableRecord
100
AcDbLayerTableRecord
  2
BEM
 70
     0
 62
     7
  6
Continuous
370
    -3
390
F
  0
LAYER
  5
48
330
2
100
AcDbSymbolTableRecord
100
AcDbLayerTableRecord
  2
HILF
 70
     0
 62
     2
  6
Continuous
370
    -3
390
F
  0
LAYER
  5
49
330
2
100
AcDbSymbolTableRecord
100
AcDbLayerTableRecord
  2
SCHRAFF
 70
     0
 62
     7
  6
Continuous
370
    -3
390
F
  0
LAYER
  5
4A
330
2
100
AcDbSymbolTableRecord
100
AcDbLayerTableRecord
  2
STEMPEL
 70
     0
 62
     3
  6
Continuous
370
    -3
390
F
  0
LAYER
  5
4B
330
2
100
AcDbSymbolTableRecord
100
AcDbLayerTableRecord
  2
VERDECKT
 70
     0
 62
     6
  6
VERDECKT
370
    -3
390
F
  0
LAYER
  5
4C
330
2
100
AcDbSymbolTableRecord
100
AcDbLayerTableRecord
  2
DEFPOINTS
 70
     0
 62
     7
  6
Continuous
290
     0
370
    -3
390
F
  0
LAYER
  5
53D
330
2
100
AcDbSymbolTableRecord
100
AcDbLayerTableRecord
  2
TEXT
 70
     0
 62
     7
  6
Continuous
370
    -3
390
F
  0
ENDTAB
  0
TABLE
  2
STYLE
  5
3
330
0
100
AcDbSymbolTable
 70
     2
  0
STYLE
  5
11
330
3
100
AcDbSymbolTableRecord
100
AcDbTextStyleTableRecord
  2
STANDARD
 70
     0
 40
0.0
 41
0.8
 50
0.0
 71
     0
 42
3.5
  3
simplex.shx
  4

  0
STYLE
  5
40
330
3
100
AcDbSymbolTableRecord
100
AcDbTextStyleTableRecord
  2
GREEKS
 70
     0
 40
0.0
 41
0.8
 50
0.0
 71
     0
 42
1.8
  3
SIMPLEX.shx
  4

  0
ENDTAB
  0
TABLE
  2
VIEW
  5
6
330
0
100
AcDbSymbolTable
 70
     0
  0
ENDTAB
  0
TABLE
  2
UCS
  5
7
330
0
100
AcDbSymbolTable
 70
     0
  0
ENDTAB
  0
TABLE
  2
APPID
  5
9
330
0
100
AcDbSymbolTable
 70
     1
  0
APPID
  5
12
330
9
100
AcDbSymbolTableRecord
100
AcDbRegAppTableRecord
  2
ACAD
 70
     0
  0
ENDTAB
  0
TABLE
  2
DIMSTYLE
  5
A
330
0
100
AcDbSymbolTable
 70
     1
100
AcDbDimStyleTable
 71
     1
340
40A
  0
DIMSTYLE
105
40A
102
{ACAD_REACTORS
330
338
330
337
330
371
330
377
330
367
330
362
102
}
330
A
100
AcDbSymbolTableRecord
100
AcDbDimStyleTableRecord
  2
Standard
 70
     0
340
11
  0
ENDTAB
  0
TABLE
  2
BLOCK_RECORD
  5
1
330
0
100
AcDbSymbolTable
 70
     9
  0
BLOCK_RECORD
  5
20
330
1
100
AcDbSymbolTableRecord
100
AcDbBlockTableRecord
  2
*Model_Space
340
23
  0
BLOCK_RECORD
  5
1C
330
1
100
AcDbSymbolTableRecord
100
AcDbBlockTableRecord
  2
*Paper_Space
340
1F
  0
BLOCK_RECORD
  5
24
330
1
100
AcDbSymbolTableRecord
100
AcDbBlockTableRecord
  2
LOGO
340
0
102
{BLKREFS
331
403
102
}
  0
BLOCK_RECORD
  5
2D
330
1
100
AcDbSymbolTableRecord
100
AcDbBlockTableRecord
  2
*X1
340
0
102
{BLKREFS
331
360
102
}
  0
BLOCK_RECORD
  5
31
330
1
100
AcDbSymbolTableRecord
100
AcDbBlockTableRecord
  2
*X2
340
0
102
{BLKREFS
331
35A
331
913
102
}
  0
BLOCK_RECORD
  5
456
330
1
100
AcDbSymbolTableRecord
100
AcDbBlockTableRecord
  2
*D3
340
0
  0
BLOCK_RECORD
  5
782
330
1
100
AcDbSymbolTableRecord
100
AcDbBlockTableRecord
  2
*D4
340
0
  0
BLOCK_RECORD
  5
81E
330
1
100
AcDbSymbolTableRecord
100
AcDbBlockTableRecord
  2
*D5
340
0
  0
BLOCK_RECORD
  5
8C8
330
1
100
AcDbSymbolTableRecord
100
AcDbBlockTableRecord
  2
*D6
340
0
  0
BLOCK_RECORD
  5
8E1
330
1
100
AcDbSymbolTableRecord
100
AcDbBlockTableRecord
  2
*D7
340
0
  0
BLOCK_RECORD
  5
8ED
330
1
100
AcDbSymbolTableRecord
100
AcDbBlockTableRecord
  2
*D8
340
0
  0
ENDTAB
  0
ENDSEC
  0
SECTION
  2
BLOCKS
  0
BLOCK
  5
50
330
20
100
AcDbEntity
  8
0
100
AcDbBlockBegin
  2
*Model_Space
 70
     0
 10
0.0
 20
0.0
 30
0.0
  3
*Model_Space
  1

  0
ENDBLK
  5
51
330
20
100
AcDbEntity
  8
0
100
AcDbBlockEnd
  0
BLOCK
  5
4E
330
1C
100
AcDbEntity
 67
     1
  8
0
100
AcDbBlockBegin
  2
*Paper_Space
 70
     0
 10
0.0
 20
0.0
 30
0.0
  3
*Paper_Space
  1

  0
ENDBLK
  5
4F
330
1C
100
AcDbEntity
 67
     1
  8
0
100
AcDbBlockEnd
  0
BLOCK
  5
52
330
24
100
AcDbEntity
  8
0
100
AcDbBlockBegin
  2
LOGO
 70
     0
 10
0.0
 20
0.0
 30
0.0
  3
LOGO
  1

  0
ARC
  5
53
330
24
100
AcDbEntity
  8
0
100
AcDbCircle
 10
11.59973089678112
 20
-9.271599258481501
 30
0.0
 40
4.5
100
AcDbArc
 50
270.0
 51
231.0575587310159
  0
LINE
  5
54
330
24
100
AcDbEntity
  8
0
100
AcDbLine
 10
3.599730896781125
 20
-4.771599258481529
 30
0.0
 11
3.599730896781153
 21
-11.77159925848133
 31
0.0
  0
LINE
  5
55
330
24
100
AcDbEntity
  8
0
100
AcDbLine
 10
2.599730896781125
 20
-4.771599258481529
 30
0.0
 11
2.599730896781153
 21
-11.77159925848133
 31
0.0
  0
CIRCLE
  5
56
330
24
100
AcDbEntity
  8
0
100
AcDbCircle
 10
11.59973089678112
 20
-9.271599258481501
 30
0.0
 40
3.5
  0
ARC
  5
57
330
24
100
AcDbEntity
  8
0
100
AcDbCircle
 10
31.59973089678115
 20
-9.271599258481472
 30
0.0
 40
4.5
100
AcDbArc
 50
270.0
 51
231.0575587310182
  0
LINE
  5
58
330
24
100
AcDbEntity
  8
0
100
AcDbLine
 10
17.59973089678112
 20
-4.771599258481472
 30
0.0
 11
17.59973089678115
 21
-13.77159925848147
 31
0.0
  0
ARC
  5
59
330
24
100
AcDbEntity
  8
0
100
AcDbCircle
 10
22.59973089678116
 20
-7.271599258481472
 30
0.0
 40
2.5
100
AcDbArc
 50
293.1161887722295
 51
90.0
  0
CIRCLE
  5
5A
330
24
100
AcDbEntity
  8
0
100
AcDbCircle
 10
31.59973089678115
 20
-9.271599258481472
 30
0.0
 40
3.5
  0
ARC
  5
5B
330
24
100
AcDbEntity
  8
0
100
AcDbCircle
 10
4.599730896781153
 20
-11.77159925848133
 30
0.0
 40
1.0
100
AcDbArc
 50
180.0
 51
270.0
  0
ARC
  5
5C
330
24
100
AcDbEntity
  8
0
100
AcDbCircle
 10
4.599730896781153
 20
-11.77159925848133
 30
0.0
 40
2.0
100
AcDbArc
 50
179.9999999999992
 51
270.0
  0
LINE
  5
5D
330
24
100
AcDbEntity
  8
0
100
AcDbLine
 10
11.59973089678115
 20
-13.77159925848144
 30
0.0
 11
4.599730896781153
 21
-13.77159925848147
 31
0.0
  0
LINE
  5
5E
330
24
100
AcDbEntity
  8
0
100
AcDbLine
 10
8.771303772034769
 20
-12.77159925848136
 30
0.0
 11
4.599730896781153
 21
-12.77159925848133
 31
0.0
  0
LINE
  5
5F
330
24
100
AcDbEntity
  8
0
100
AcDbLine
 10
31.59973089678115
 20
-13.77159925848147
 30
0.0
 11
23.6715276665056
 21
-13.77159925848144
 31
0.0
  0
LINE
  5
60
330
24
100
AcDbEntity
  8
0
100
AcDbLine
 10
23.56565672307022
 20
-9.51278021337896
 30
0.0
 11
24.4388546544846
 21
-12.77159925848144
 31
0.0
  0
LINE
  5
61
330
24
100
AcDbEntity
  8
0
100
AcDbLine
 10
22.59973089678116
 20
-9.771599258481472
 30
0.0
 11
18.59973089678112
 21
-9.771599258481472
 31
0.0
  0
LINE
  5
62
330
24
100
AcDbEntity
  8
0
100
AcDbLine
 10
18.59973089678115
 20
-13.77159925848144
 30
0.0
 11
17.59973089678115
 21
-13.77159925848144
 31
0.0
  0
LINE
  5
63
330
24
100
AcDbEntity
  8
0
100
AcDbLine
 10
18.59973089678115
 20
-9.771599258481472
 30
0.0
 11
18.59973089678115
 21
-13.77159925848144
 31
0.0
  0
LINE
  5
64
330
24
100
AcDbEntity
  8
0
100
AcDbLine
 10
22.59973089678116
 20
-9.771599258481472
 30
0.0
 11
23.67152766650562
 21
-13.77159925848147
 31
0.0
  0
ARC
  5
65
330
24
100
AcDbEntity
  8
0
100
AcDbCircle
 10
22.59973089678116
 20
-7.271599258481472
 30
0.0
 40
2.5
100
AcDbArc
 50
270.0
 51
270.0000000000007
  0
LINE
  5
66
330
24
100
AcDbEntity
  8
0
100
AcDbLine
 10
28.77130377203494
 20
-12.77159925848147
 30
0.0
 11
24.43885465448463
 21
-12.77159925848144
 31
0.0
  0
LINE
  5
67
330
24
100
AcDbEntity
  8
0
100
AcDbLine
 10
3.599730896781125
 20
-4.771599258481472
 30
0.0
 11
2.599730896781125
 21
-4.771599258481472
 31
0.0
  0
LINE
  5
68
330
24
100
AcDbEntity
  8
0
100
AcDbLine
 10
22.59973089678116
 20
-8.771599258481472
 30
0.0
 11
18.59973089678115
 21
-8.771599258481472
 31
0.0
  0
LINE
  5
69
330
24
100
AcDbEntity
  8
0
100
AcDbLine
 10
22.59973089678116
 20
-5.771599258481472
 30
0.0
 11
18.59973089678115
 21
-5.771599258481472
 31
0.0
  0
LINE
  5
6A
330
24
100
AcDbEntity
  8
0
100
AcDbLine
 10
22.59973089678116
 20
-4.771599258481472
 30
0.0
 11
17.59973089678115
 21
-4.771599258481472
 31
0.0
  0
LINE
  5
6B
330
24
100
AcDbEntity
  8
0
100
AcDbLine
 10
18.59973089678115
 20
-5.771599258481472
 30
0.0
 11
18.59973089678115
 21
-8.771599258481472
 31
0.0
  0
ARC
  5
6C
330
24
100
AcDbEntity
  8
0
100
AcDbCircle
 10
22.59973089678116
 20
-7.271599258481472
 30
0.0
 40
1.5
100
AcDbArc
 50
270.0
 51
90.0
  0
ENDBLK
  5
6D
330
24
100
AcDbEntity
  8
0
100
AcDbBlockEnd
  0
BLOCK
  5
10E
330
2D
100
AcDbEntity
  8
0
100
AcDbBlockBegin
  2
*X1
 70
     1
 10
0.0
 20
0.0
 30
0.0
  3
*X1
  1

  0
LINE
  5
10F
330
2D
100
AcDbEntity
  8
0
 62
     0
100
AcDbLine
 10
191.4164939058073
 20
642.9695078943186
 30
0.0
 11
184.7247379758523
 21
649.6612638242736
 31
0.0
  0
LINE
  5
110
330
2D
100
AcDbEntity
  8
0
 62
     0
100
AcDbLine
 10
191.5093550796783
 20
640.0482195957014
 30
0.0
 11
189.5017658524709
 21
642.0558088229088
 31
0.0
  0
LINE
  5
111
330
2D
100
AcDbEntity
  8
0
 62
     0
100
AcDbLine
 10
183.8053163877727
 20
647.7522582876071
 30
0.0
 11
181.5931299454977
 21
649.9644447298821
 31
0.0
  0
LINE
  5
112
330
2D
100
AcDbEntity
  8
0
 62
     0
100
AcDbLine
 10
191.5093550796783
 20
637.2197924709552
 30
0.0
 11
189.5093550796783
 21
639.2197924709551
 31
0.0
  0
LINE
  5
113
330
2D
100
AcDbEntity
  8
0
 62
     0
100
AcDbLine
 10
180.6899946996812
 20
648.0391528509523
 30
0.0
 11
178.4778082574062
 21
650.2513392932273
 31
0.0
  0
LINE
  5
114
330
2D
100
AcDbEntity
  8
0
 62
     0
100
AcDbLine
 10
191.5093550796784
 20
634.391365346209
 30
0.0
 11
189.5093550796783
 21
636.3913653462091
 31
0.0
  0
LINE
  5
115
330
2D
100
AcDbEntity
  8
0
 62
     0
100
AcDbLine
 10
177.5746730115898
 20
648.3260474142976
 30
0.0
 11
175.3624865693148
 21
650.5382338565726
 31
0.0
  0
LINE
  5
116
330
2D
100
AcDbEntity
  8
0
 62
     0
100
AcDbLine
 10
190.8453283391237
 20
632.2269649620174
 30
0.0
 11
189.5093550796783
 21
633.5629382214628
 31
0.0
  0
LINE
  5
117
330
2D
100
AcDbEntity
  8
0
 62
     0
100
AcDbLine
 10
174.4593513234983
 20
648.6129419776428
 30
0.0
 11
172.2471648812233
 21
650.8251284199178
 31
0.0
  0
LINE
  5
118
330
2D
100
AcDbEntity
  8
0
 62
     0
100
AcDbLine
 10
171.3440296354069
 20
648.899836540988
 30
0.0
 11
169.1318431931319
 21
651.1120229832632
 31
0.0
  0
LINE
  5
119
330
2D
100
AcDbEntity
  8
0
 62
     0
100
AcDbLine
 10
168.2287079473154
 20
649.1867311043334
 30
0.0
 11
166.0165215050405
 21
651.3989175466084
 31
0.0
  0
LINE
  5
11A
330
2D
100
AcDbEntity
  8
0
 62
     0
100
AcDbLine
 10
165.113386259224
 20
649.4736256676786
 30
0.0
 11
162.901199816949
 21
651.6858121099536
 31
0.0
  0
LINE
  5
11B
330
2D
100
AcDbEntity
  8
0
 62
     0
100
AcDbLine
 10
161.9980645711325
 20
649.7605202310238
 30
0.0
 11
159.7858781288576
 21
651.9727066732989
 31
0.0
  0
LINE
  5
11C
330
2D
100
AcDbEntity
  8
0
 62
     0
100
AcDbLine
 10
158.8827428830411
 20
650.0474147943691
 30
0.0
 11
156.703324775379
 21
652.2268329020313
 31
0.0
  0
LINE
  5
11D
330
2D
100
AcDbEntity
  8
0
 62
     0
100
AcDbLine
 10
155.9202189281845
 20
650.1815116244795
 30
0.0
 11
154.215366959298
 21
651.8863635933661
 31
0.0
  0
LINE
  5
11E
330
2D
100
AcDbEntity
  8
0
 62
     0
100
AcDbLine
 10
153.5693072053843
 20
649.7039962225336
 30
0.0
 11
151.8834076856998
 21
651.389895742218
 31
0.0
  0
LINE
  5
11F
330
2D
100
AcDbEntity
  8
0
 62
     0
100
AcDbLine
 10
151.2373479317861
 20
649.2075283713855
 30
0.0
 11
149.5514484121017
 21
650.8934278910701
 31
0.0
  0
LINE
  5
120
330
2D
100
AcDbEntity
  8
0
 62
     0
100
AcDbLine
 10
148.9053886581879
 20
648.7110605202376
 30
0.0
 11
147.2194891385035
 21
650.396960039922
 31
0.0
  0
LINE
  5
121
330
2D
100
AcDbEntity
  8
0
 62
     0
100
AcDbLine
 10
146.5734293845897
 20
648.2145926690896
 30
0.0
 11
144.8875298649053
 21
649.900492188774
 31
0.0
  0
LINE
  5
122
330
2D
100
AcDbEntity
  8
0
 62
     0
100
AcDbLine
 10
144.2414701109916
 20
647.7181248179416
 30
0.0
 11
142.5555705913071
 21
649.4040243376261
 31
0.0
  0
LINE
  5
123
330
2D
100
AcDbEntity
  8
0
 62
     0
100
AcDbLine
 10
337.9235388259256
 20
632.2269649620174
 30
0.0
 11
336.5093550796784
 21
633.6411487082648
 31
0.0
  0
LINE
  5
124
330
2D
100
AcDbEntity
  8
0
 62
     0
100
AcDbLine
 10
338.5093550796784
 20
634.4695758330109
 30
0.0
 11
336.5093550796784
 21
636.4695758330109
 31
0.0
  0
LINE
  5
125
330
2D
100
AcDbEntity
  8
0
 62
     0
100
AcDbLine
 10
338.5093550796784
 20
637.2980029577571
 30
0.0
 11
336.5093550796784
 21
639.2980029577572
 31
0.0
  0
LINE
  5
126
330
2D
100
AcDbEntity
  8
0
 62
     0
100
AcDbLine
 10
338.5093550796784
 20
640.1264300825033
 30
0.0
 11
336.517641232361
 21
642.1181439298207
 31
0.0
  0
LINE
  5
127
330
2D
100
AcDbEntity
  8
0
 62
     0
100
AcDbLine
 10
338.6108989298407
 20
642.8533133570872
 30
0.0
 11
336.9870502824618
 21
644.4771620044661
 31
0.0
  0
LINE
  5
128
330
2D
100
AcDbEntity
  8
0
 62
     0
100
AcDbLine
 10
339.3973203028789
 20
644.8953191087952
 30
0.0
 11
337.9535714938909
 21
646.3390679177831
 31
0.0
  0
LINE
  5
129
330
2D
100
AcDbEntity
  8
0
 62
     0
100
AcDbLine
 10
340.7172317774042
 20
646.403834759016
 30
0.0
 11
339.2975688736246
 21
647.8234976627955
 31
0.0
  0
LINE
  5
12A
330
2D
100
AcDbEntity
  8
0
 62
     0
100
AcDbLine
 10
342.5309320387025
 20
647.4185616224639
 30
0.0
 11
341.0041541373644
 21
648.9453395238021
 31
0.0
  0
LINE
  5
12B
330
2D
100
AcDbEntity
  8
0
 62
     0
100
AcDbLine
 10
344.957167298574
 20
647.8207534873387
 30
0.0
 11
343.1415872645266
 21
649.636333521386
 31
0.0
  0
LINE
  5
12C
330
2D
100
AcDbEntity
  8
0
 62
     0
100
AcDbLine
 10
347.5470850797224
 20
648.0592628309365
 30
0.0
 11
345.707987363437
 21
649.8983605472218
 31
0.0
  0
LINE
  5
12D
330
2D
100
AcDbEntity
  8
0
 62
     0
100
AcDbLine
 10
350.1370028608708
 20
648.2977721745343
 30
0.0
 11
348.2979051445854
 21
650.1368698908196
 31
0.0
  0
LINE
  5
12E
330
2D
100
AcDbEntity
  8
0
 62
     0
100
AcDbLine
 10
352.7269206420192
 20
648.536281518132
 30
0.0
 11
350.8878229257338
 21
650.3753792344174
 31
0.0
  0
LINE
  5
12F
330
2D
100
AcDbEntity
  8
0
 62
     0
100
AcDbLine
 10
355.3168384231676
 20
648.7747908617299
 30
0.0
 11
353.4777407068821
 21
650.6138885780152
 31
0.0
  0
LINE
  5
130
330
2D
100
AcDbEntity
  8
0
 62
     0
100
AcDbLine
 10
357.906756204316
 20
649.0133002053276
 30
0.0
 11
356.0676584880305
 21
650.852397921613
 31
0.0
  0
LINE
  5
131
330
2D
100
AcDbEntity
  8
0
 62
     0
100
AcDbLine
 10
360.4966739854643
 20
649.2518095489255
 30
0.0
 11
358.657576269179
 21
651.0909072652108
 31
0.0
  0
LINE
  5
132
330
2D
100
AcDbEntity
  8
0
 62
     0
100
AcDbLine
 10
363.0865917666127
 20
649.4903188925233
 30
0.0
 11
361.2474940503273
 21
651.3294166088086
 31
0.0
  0
LINE
  5
133
330
2D
100
AcDbEntity
  8
0
 62
     0
100
AcDbLine
 10
365.6765095477612
 20
649.7288282361211
 30
0.0
 11
363.8374118314757
 21
651.5679259524064
 31
0.0
  0
LINE
  5
134
330
2D
100
AcDbEntity
  8
0
 62
     0
100
AcDbLine
 10
368.2664273289095
 20
649.9673375797189
 30
0.0
 11
366.4273296126241
 21
651.8064352960042
 31
0.0
  0
LINE
  5
135
330
2D
100
AcDbEntity
  8
0
 62
     0
100
AcDbLine
 10
370.8565040929424
 20
650.2056879404321
 30
0.0
 11
369.0172473937725
 21
652.044944639602
 31
0.0
  0
LINE
  5
136
330
2D
100
AcDbEntity
  8
0
 62
     0
100
AcDbLine
 10
374.1155456047662
 20
649.7750735533545
 30
0.0
 11
371.6695947458693
 21
652.2210244122513
 31
0.0
  0
LINE
  5
137
330
2D
100
AcDbEntity
  8
0
 62
     0
100
AcDbLine
 10
377.709012064252
 20
649.0100342186149
 30
0.0
 11
375.1111007513751
 21
651.6079455314918
 31
0.0
  0
LINE
  5
138
330
2D
100
AcDbEntity
  8
0
 62
     0
100
AcDbLine
 10
381.3024785237378
 20
648.2449948838754
 30
0.0
 11
378.7045672108609
 21
650.8429061967522
 31
0.0
  0
LINE
  5
139
330
2D
100
AcDbEntity
  8
0
 62
     0
100
AcDbLine
 10
384.8959449832235
 20
647.4799555491357
 30
0.0
 11
382.2980336703467
 21
650.0778668620126
 31
0.0
  0
LINE
  5
13A
330
2D
100
AcDbEntity
  8
0
 62
     0
100
AcDbLine
 10
386.4219759914596
 20
648.7823516656459
 30
0.0
 11
385.8915001298324
 21
649.312827527273
 31
0.0
  0
ENDBLK
  5
13B
330
2D
100
AcDbEntity
  8
0
100
AcDbBlockEnd
  0
BLOCK
  5
1E3
330
31
100
AcDbEntity
  8
0
100
AcDbBlockBegin
  2
*X2
 70
     1
 10
0.0
 20
0.0
 30
0.0
  3
*X2
  1

  0
LINE
  5
1E4
330
31
100
AcDbEntity
  8
0
 62
     0
100
AcDbLine
 10
296.5043243892674
 20
181.7827024053134
 30
0.0
 11
294.3691019170504
 21
183.9179248775303
 31
0.0
  0
LINE
  5
1E5
330
31
100
AcDbEntity
  8
0
 62
     0
100
AcDbLine
 10
296.4525605802469
 20
181.6930448580965
 30
0.0
 11
294.3386038216072
 21
183.8070016167361
 31
0.0
  0
LINE
  5
1E6
330
31
100
AcDbEntity
  8
0
 62
     0
100
AcDbLine
 10
296.4007967712263
 20
181.6033873108797
 30
0.0
 11
294.3118200893272
 21
183.6923639927788
 31
0.0
  0
LINE
  5
1E7
330
31
100
AcDbEntity
  8
0
 62
     0
100
AcDbLine
 10
296.3490329622059
 20
181.5137297636629
 30
0.0
 11
294.2890333576011
 21
183.5737293682678
 31
0.0
  0
LINE
  5
1E8
330
31
100
AcDbEntity
  8
0
 62
     0
100
AcDbLine
 10
296.2972691531853
 20
181.4240722164461
 30
0.0
 11
294.2705857643601
 21
183.4507556052714
 31
0.0
  0
LINE
  5
1E9
330
31
100
AcDbEntity
  8
0
 62
     0
100
AcDbLine
 10
296.2455053441648
 20
181.3344146692293
 30
0.0
 11
294.2568965882923
 21
183.3230234251018
 31
0.0
  0
LINE
  5
1EA
330
31
100
AcDbEntity
  8
0
 62
     0
100
AcDbLine
 10
296.1937415351443
 20
181.2447571220125
 30
0.0
 11
294.2484874980472
 21
183.1900111591096
 31
0.0
  0
LINE
  5
1EB
330
31
100
AcDbEntity
  8
0
 62
     0
100
AcDbLine
 10
296.1419777261238
 20
181.1550995747957
 30
0.0
 11
294.2460198493945
 21
183.0510574515251
 31
0.0
  0
LINE
  5
1EC
330
31
100
AcDbEntity
  8
0
 62
     0
100
AcDbLine
 10
296.0902139171033
 20
181.0654420275789
 30
0.0
 11
294.2503519125503
 21
182.9053040321319
 31
0.0
  0
LINE
  5
1ED
330
31
100
AcDbEntity
  8
0
 62
     0
100
AcDbLine
 10
296.0384501080828
 20
180.9757844803621
 30
0.0
 11
294.2626308684406
 21
182.7516037200043
 31
0.0
  0
LINE
  5
1EE
330
31
100
AcDbEntity
  8
0
 62
     0
100
AcDbLine
 10
295.9866862990623
 20
180.8861269331453
 30
0.0
 11
294.2844496060203
 21
182.5883636261874
 31
0.0
  0
LINE
  5
1EF
330
31
100
AcDbEntity
  8
0
 62
     0
100
AcDbLine
 10
295.9349224900418
 20
180.7964693859285
 30
0.0
 11
294.3181349826028
 21
182.4132568933675
 31
0.0
  0
LINE
  5
1F0
330
31
100
AcDbEntity
  8
0
 62
     0
100
AcDbLine
 10
295.8831586810213
 20
180.7068118387116
 30
0.0
 11
294.3673348295403
 21
182.2226356901927
 31
0.0
  0
LINE
  5
1F1
330
31
100
AcDbEntity
  8
0
 62
     0
100
AcDbLine
 10
295.8313948720008
 20
180.6171542914949
 30
0.0
 11
294.4384028223686
 21
182.0101463411271
 31
0.0
  0
LINE
  5
1F2
330
31
100
AcDbEntity
  8
0
 62
     0
100
AcDbLine
 10
295.7796310629803
 20
180.5274967442781
 30
0.0
 11
294.5445327631734
 21
181.762595044085
 31
0.0
  0
LINE
  5
1F3
330
31
100
AcDbEntity
  8
0
 62
     0
100
AcDbLine
 10
295.618806842263
 20
180.5468996087581
 30
0.0
 11
294.7255949440584
 21
181.4401115069627
 31
0.0
  0
LINE
  5
1F4
330
31
100
AcDbEntity
  8
0
 62
     0
100
AcDbLine
 10
296.5560881982879
 20
181.8723599525301
 30
0.0
 11
294.4030785841181
 21
184.0253695666999
 31
0.0
  0
LINE
  5
1F5
330
31
100
AcDbEntity
  8
0
 62
     0
100
AcDbLine
 10
296.6078520073084
 20
181.962017499747
 30
0.0
 11
294.44033559331
 21
184.1295339137453
 31
0.0
  0
LINE
  5
1F6
330
31
100
AcDbEntity
  8
0
 62
     0
100
AcDbLine
 10
296.6596158163289
 20
182.0516750469638
 30
0.0
 11
294.4807053355363
 21
184.2305855277563
 31
0.0
  0
LINE
  5
1F7
330
31
100
AcDbEntity
  8
0
 62
     0
100
AcDbLine
 10
296.7113796253494
 20
182.1413325941806
 30
0.0
 11
294.5240455475233
 21
184.3286666720067
 31
0.0
  0
LINE
  5
1F8
330
31
100
AcDbEntity
  8
0
 62
     0
100
AcDbLine
 10
296.7631434343699
 20
182.2309901413974
 30
0.0
 11
294.5702352495766
 21
184.4238983261907
 31
0.0
  0
LINE
  5
1F9
330
31
100
AcDbEntity
  8
0
 62
     0
100
AcDbLine
 10
296.8149072433904
 20
182.3206476886142
 30
0.0
 11
294.8197502534102
 21
184.3158046785943
 31
0.0
  0
LINE
  5
1FA
330
31
100
AcDbEntity
  8
0
 62
     0
100
AcDbLine
 10
296.8666710524109
 20
182.410305235831
 30
0.0
 11
295.0986558268474
 21
184.1783204613945
 31
0.0
  0
LINE
  5
1FB
330
31
100
AcDbEntity
  8
0
 62
     0
100
AcDbLine
 10
296.9184348614314
 20
182.4999627830478
 30
0.0
 11
295.3806596043378
 21
184.0377380401414
 31
0.0
  0
LINE
  5
1FC
330
31
100
AcDbEntity
  8
0
 62
     0
100
AcDbLine
 10
296.9701986704519
 20
182.5896203302646
 30
0.0
 11
295.6658892085441
 21
183.8939297921724
 31
0.0
  0
LINE
  5
1FD
330
31
100
AcDbEntity
  8
0
 62
     0
100
AcDbLine
 10
297.0219624794724
 20
182.6792778774814
 30
0.0
 11
295.9544814854636
 21
183.7467588714902
 31
0.0
  0
LINE
  5
1FE
330
31
100
AcDbEntity
  8
0
 62
     0
100
AcDbLine
 10
297.0737262884929
 20
182.7689354246982
 30
0.0
 11
296.2465834681951
 21
183.596078244996
 31
0.0
  0
LINE
  5
1FF
330
31
100
AcDbEntity
  8
0
 62
     0
100
AcDbLine
 10
297.1254900975134
 20
182.858592971915
 30
0.0
 11
296.5423534743258
 21
183.4417295951026
 31
0.0
  0
LINE
  5
200
330
31
100
AcDbEntity
  8
0
 62
     0
100
AcDbLine
 10
297.1772539065339
 20
182.9482505191318
 30
0.0
 11
296.841962360311
 21
183.2835420653547
 31
0.0
  0
LINE
  5
201
330
31
100
AcDbEntity
  8
0
 62
     0
100
AcDbLine
 10
297.2290177155544
 20
183.0379080663486
 30
0.0
 11
297.1455949612204
 21
183.1213308206827
 31
0.0
  0
ENDBLK
  5
202
330
31
100
AcDbEntity
  8
0
100
AcDbBlockEnd
  0
BLOCK
  5
460
330
456
100
AcDbEntity
  8
0
100
AcDbBlockBegin
  2
*D3
 70
     1
 10
0.0
 20
0.0
 30
0.0
  3
*D3
  1

  0
LINE
  5
8A4
330
456
100
AcDbEntity
  8
BEM
 62
     0
370
    -2
100
AcDbLine
 10
272.3347314029795
 20
410.2269649620176
 30
0.0
 11
363.9690203673118
 21
410.2269649620176
 31
0.0
  0
LINE
  5
8A5
330
456
100
AcDbEntity
  8
BEM
 62
     0
370
    -2
100
AcDbLine
 10
294.7096180382388
 20
672.2269649620175
 30
0.0
 11
363.9690203673119
 21
672.2269649620175
 31
0.0
  0
LINE
  5
8A6
330
456
100
AcDbEntity
  8
BEM
 62
     0
370
    -2
100
AcDbLine
 10
361.9690203673118
 20
417.2269649620175
 30
0.0
 11
361.9690203673119
 21
665.2269649620174
 31
0.0
  0
SOLID
  5
8A7
330
456
100
AcDbEntity
  8
BEM
 62
     0
100
AcDbTrace
 10
360.8023537006451
 20
417.2269649620175
 30
0.0
 11
363.1356870339785
 21
417.2269649620175
 31
0.0
 12
361.9690203673118
 22
410.2269649620176
 32
0.0
 13
361.9690203673118
 23
410.2269649620176
 33
0.0
  0
SOLID
  5
8A8
330
456
100
AcDbEntity
  8
BEM
 62
     0
100
AcDbTrace
 10
360.8023537006452
 20
665.2269649620174
 30
0.0
 11
363.1356870339786
 21
665.2269649620174
 31
0.0
 12
361.9690203673119
 22
672.2269649620175
 32
0.0
 13
361.9690203673119
 23
672.2269649620175
 33
0.0
  0
MTEXT
  5
8A9
330
456
100
AcDbEntity
  8
BEM
 62
     1
100
AcDbMText
 10
355.4690203673118
 20
541.2269649620176
 30
0.0
 40
7.0
 41
0.0
 71
     5
 72
     1
  1
\A1;262
 11
0.0000000000000001
 21
1.0
 31
0.0
 73
     1
 44
1.0
  0
POINT
  5
8AA
330
456
100
AcDbEntity
  8
DEFPOINTS
 62
     0
100
AcDbPoint
 10
270.3347314029795
 20
410.2269649620176
 30
0.0
  0
POINT
  5
8AB
330
456
100
AcDbEntity
  8
DEFPOINTS
 62
     0
100
AcDbPoint
 10
292.7096180382388
 20
672.2269649620175
 30
0.0
  0
POINT
  5
8AC
330
456
100
AcDbEntity
  8
DEFPOINTS
 62
     0
100
AcDbPoint
 10
361.9690203673119
 20
672.2269649620175
 30
0.0
  0
ENDBLK
  5
461
330
456
100
AcDbEntity
  8
0
100
AcDbBlockEnd
  0
BLOCK
  5
78C
330
782
100
AcDbEntity
  8
0
100
AcDbBlockBegin
  2
*D4
 70
     1
 10
0.0
 20
0.0
 30
0.0
  3
*D4
  1

  0
LINE
  5
783
330
782
100
AcDbEntity
  8
BEM
 62
     0
370
    -2
100
AcDbLine
 10
169.2096180382387
 20
418.2269649620176
 30
0.0
 11
169.2096180382387
 21
388.4297678829692
 31
0.0
  0
LINE
  5
784
330
782
100
AcDbEntity
  8
BEM
 62
     0
370
    -2
100
AcDbLine
 10
271.2096180382388
 20
418.2269649620175
 30
0.0
 11
271.2096180382388
 21
388.4297678829692
 31
0.0
  0
LINE
  5
785
330
782
100
AcDbEntity
  8
BEM
 62
     0
370
    -2
100
AcDbLine
 10
176.2096180382387
 20
390.4297678829692
 30
0.0
 11
264.2096180382388
 21
390.4297678829692
 31
0.0
  0
SOLID
  5
786
330
782
100
AcDbEntity
  8
BEM
 62
     0
100
AcDbTrace
 10
176.2096180382387
 20
391.5964345496359
 30
0.0
 11
176.2096180382387
 21
389.2631012163025
 31
0.0
 12
169.2096180382387
 22
390.4297678829692
 32
0.0
 13
169.2096180382387
 23
390.4297678829692
 33
0.0
  0
SOLID
  5
787
330
782
100
AcDbEntity
  8
BEM
 62
     0
100
AcDbTrace
 10
264.2096180382388
 20
391.5964345496359
 30
0.0
 11
264.2096180382388
 21
389.2631012163025
 31
0.0
 12
271.2096180382388
 22
390.4297678829692
 32
0.0
 13
271.2096180382388
 23
390.4297678829692
 33
0.0
  0
MTEXT
  5
788
330
782
100
AcDbEntity
  8
BEM
 62
     1
100
AcDbMText
 10
220.2096180382388
 20
396.9297678829692
 30
0.0
 40
7.0
 41
0.0
 71
     5
 72
     1
  1
\A1;%%c102
 73
     1
 44
1.0
  0
POINT
  5
789
330
782
100
AcDbEntity
  8
DEFPOINTS
 62
     0
100
AcDbPoint
 10
169.2096180382387
 20
420.2269649620175
 30
0.0
  0
POINT
  5
78A
330
782
100
AcDbEntity
  8
DEFPOINTS
 62
     0
100
AcDbPoint
 10
271.2096180382388
 20
420.2269649620175
 30
0.0
  0
POINT
  5
78B
330
782
100
AcDbEntity
  8
DEFPOINTS
 62
     0
100
AcDbPoint
 10
271.2096180382388
 20
390.4297678829692
 30
0.0
  0
ENDBLK
  5
78D
330
782
100
AcDbEntity
  8
0
100
AcDbBlockEnd
  0
BLOCK
  5
828
330
81E
100
AcDbEntity
  8
0
100
AcDbBlockBegin
  2
*D5
 70
     1
 10
0.0
 20
0.0
 30
0.0
  3
*D5
  1

  0
LINE
  5
8BF
330
81E
100
AcDbEntity
  8
BEM
 62
     0
370
    -2
100
AcDbLine
 10
96.13462948327509
 20
647.2269649620177
 30
0.0
 11
67.1571792980681
 21
647.2269649620177
 31
0.0
  0
LINE
  5
8C0
330
81E
100
AcDbEntity
  8
BEM
 62
     0
370
    -2
100
AcDbLine
 10
145.7096180382388
 20
672.2269649620176
 30
0.0
 11
67.15717929806811
 21
672.2269649620176
 31
0.0
  0
LINE
  5
8C1
330
81E
100
AcDbEntity
  8
BEM
 62
     0
370
    -2
100
AcDbLine
 10
69.1571792980681
 20
654.2269649620177
 30
0.0
 11
69.1571792980681
 21
665.2269649620176
 31
0.0
  0
SOLID
  5
8C2
330
81E
100
AcDbEntity
  8
BEM
 62
     0
100
AcDbTrace
 10
67.99051263140142
 20
654.2269649620177
 30
0.0
 11
70.32384596473477
 21
654.2269649620177
 31
0.0
 12
69.1571792980681
 22
647.2269649620177
 32
0.0
 13
69.1571792980681
 23
647.2269649620177
 33
0.0
  0
SOLID
  5
8C3
330
81E
100
AcDbEntity
  8
BEM
 62
     0
100
AcDbTrace
 10
67.99051263140142
 20
665.2269649620176
 30
0.0
 11
70.32384596473477
 21
665.2269649620176
 31
0.0
 12
69.15717929806811
 22
672.2269649620176
 32
0.0
 13
69.15717929806811
 23
672.2269649620176
 33
0.0
  0
MTEXT
  5
8C4
330
81E
100
AcDbEntity
  8
BEM
 62
     1
100
AcDbMText
 10
62.657179298068
 20
661.1494440309909
 30
0.0
 40
7.0
 41
0.0
 71
     5
 72
     1
  1
\A1;25
 11
0.0000000000000001
 21
1.0
 31
0.0
 73
     1
 44
1.0
  0
POINT
  5
8C5
330
81E
100
AcDbEntity
  8
DEFPOINTS
 62
     0
100
AcDbPoint
 10
98.13462948327508
 20
647.2269649620177
 30
0.0
  0
POINT
  5
8C6
330
81E
100
AcDbEntity
  8
DEFPOINTS
 62
     0
100
AcDbPoint
 10
147.7096180382387
 20
672.2269649620176
 30
0.0
  0
POINT
  5
8C7
330
81E
100
AcDbEntity
  8
DEFPOINTS
 62
     0
100
AcDbPoint
 10
69.15717929806811
 20
672.2269649620176
 30
0.0
  0
ENDBLK
  5
829
330
81E
100
AcDbEntity
  8
0
100
AcDbBlockEnd
  0
BLOCK
  5
8D4
330
8C8
100
AcDbEntity
  8
0
100
AcDbBlockBegin
  2
*D6
 70
     1
 10
0.0
 20
0.0
 30
0.0
  3
*D6
  1

  0
LINE
  5
8D6
330
8C8
100
AcDbEntity
  8
BEM
 62
     0
370
    -2
100
AcDbLine
 10
96.13462948327509
 20
647.2269649620177
 30
0.0
 11
84.49167195693245
 21
647.2269649620177
 31
0.0
  0
LINE
  5
8D7
330
8C8
100
AcDbEntity
  8
BEM
 62
     0
370
    -2
100
AcDbLine
 10
110.8576209811795
 20
652.2269649620177
 30
0.0
 11
84.49167195693245
 21
652.2269649620177
 31
0.0
  0
LINE
  5
8D8
330
8C8
100
AcDbEntity
  8
BEM
 62
     0
370
    -2
100
AcDbLine
 10
86.49167195693244
 20
659.2269649620178
 30
0.0
 11
86.49167195693244
 21
666.2269649620177
 31
0.0
  0
LINE
  5
8D9
330
8C8
100
AcDbEntity
  8
BEM
 62
     0
370
    -2
100
AcDbLine
 10
86.49167195693244
 20
640.2269649620177
 30
0.0
 11
86.49167195693244
 21
623.4936316286844
 31
0.0
  0
LINE
  5
8DA
330
8C8
100
AcDbEntity
  8
BEM
 62
     0
370
    -2
100
AcDbLine
 10
86.49167195693244
 20
652.2269649620177
 30
0.0
 11
86.49167195693244
 21
647.2269649620177
 31
0.0
  0
SOLID
  5
8DB
330
8C8
100
AcDbEntity
  8
BEM
 62
     0
100
AcDbTrace
 10
85.32500529026577
 20
659.2269649620178
 30
0.0
 11
87.65833862359912
 21
659.2269649620178
 31
0.0
 12
86.49167195693244
 22
652.2269649620177
 32
0.0
 13
86.49167195693244
 23
652.2269649620177
 33
0.0
  0
SOLID
  5
8DC
330
8C8
100
AcDbEntity
  8
BEM
 62
     0
100
AcDbTrace
 10
85.32500529026577
 20
640.2269649620177
 30
0.0
 11
87.65833862359912
 21
640.2269649620177
 31
0.0
 12
86.49167195693244
 22
647.2269649620177
 32
0.0
 13
86.49167195693244
 23
647.2269649620177
 33
0.0
  0
MTEXT
  5
8DD
330
8C8
100
AcDbEntity
  8
BEM
 62
     1
100
AcDbMText
 10
79.99167195693235
 20
628.360298295351
 30
0.0
 40
7.0
 41
0.0
 71
     5
 72
     1
  1
\A1;5
 11
0.0000000000000001
 21
1.0
 31
0.0
 73
     1
 44
1.0
  0
POINT
  5
8DE
330
8C8
100
AcDbEntity
  8
DEFPOINTS
 62
     0
100
AcDbPoint
 10
98.13462948327508
 20
647.2269649620177
 30
0.0
  0
POINT
  5
8DF
330
8C8
100
AcDbEntity
  8
DEFPOINTS
 62
     0
100
AcDbPoint
 10
112.8576209811795
 20
652.2269649620177
 30
0.0
  0
POINT
  5
8E0
330
8C8
100
AcDbEntity
  8
DEFPOINTS
 62
     0
100
AcDbPoint
 10
86.49167195693244
 20
652.2269649620177
 30
0.0
  0
ENDBLK
  5
8D5
330
8C8
100
AcDbEntity
  8
0
100
AcDbBlockEnd
  0
BLOCK
  5
8EB
330
8E1
100
AcDbEntity
  8
0
100
AcDbBlockBegin
  2
*D7
 70
     1
 10
0.0
 20
0.0
 30
0.0
  3
*D7
  1

  0
LINE
  5
8E2
330
8E1
100
AcDbEntity
  8
BEM
 62
     0
370
    -2
100
AcDbLine
 10
147.7096180382387
 20
674.2269649620176
 30
0.0
 11
147.7096180382387
 21
688.824966427106
 31
0.0
  0
LINE
  5
8E3
330
8E1
100
AcDbEntity
  8
BEM
 62
     0
370
    -2
100
AcDbLine
 10
292.7096180382388
 20
674.2269649620175
 30
0.0
 11
292.7096180382388
 21
688.824966427106
 31
0.0
  0
LINE
  5
8E4
330
8E1
100
AcDbEntity
  8
BEM
 62
     0
370
    -2
100
AcDbLine
 10
154.7096180382387
 20
686.8249664271059
 30
0.0
 11
285.7096180382388
 21
686.8249664271059
 31
0.0
  0
SOLID
  5
8E5
330
8E1
100
AcDbEntity
  8
BEM
 62
     0
100
AcDbTrace
 10
154.7096180382387
 20
687.9916330937726
 30
0.0
 11
154.7096180382387
 21
685.6582997604394
 31
0.0
 12
147.7096180382387
 22
686.8249664271059
 32
0.0
 13
147.7096180382387
 23
686.8249664271059
 33
0.0
  0
SOLID
  5
8E6
330
8E1
100
AcDbEntity
  8
BEM
 62
     0
100
AcDbTrace
 10
285.7096180382388
 20
687.9916330937726
 30
0.0
 11
285.7096180382388
 21
685.6582997604394
 31
0.0
 12
292.7096180382388
 22
686.8249664271059
 32
0.0
 13
292.7096180382388
 23
686.8249664271059
 33
0.0
  0
MTEXT
  5
8E7
330
8E1
100
AcDbEntity
  8
BEM
 62
     1
100
AcDbMText
 10
220.2096180382388
 20
693.324966427106
 30
0.0
 40
7.0
 41
0.0
 71
     5
 72
     1
  1
\A1;%%C145
 73
     1
 44
1.0
  0
POINT
  5
8E8
330
8E1
100
AcDbEntity
  8
DEFPOINTS
 62
     0
100
AcDbPoint
 10
147.7096180382387
 20
672.2269649620176
 30
0.0
  0
POINT
  5
8E9
330
8E1
100
AcDbEntity
  8
DEFPOINTS
 62
     0
100
AcDbPoint
 10
292.7096180382388
 20
672.2269649620175
 30
0.0
  0
POINT
  5
8EA
330
8E1
100
AcDbEntity
  8
DEFPOINTS
 62
     0
100
AcDbPoint
 10
292.7096180382388
 20
686.8249664271059
 30
0.0
  0
ENDBLK
  5
8EC
330
8E1
100
AcDbEntity
  8
0
100
AcDbBlockEnd
  0
BLOCK
  5
8F7
330
8ED
100
AcDbEntity
  8
0
100
AcDbBlockBegin
  2
*D8
 70
     1
 10
0.0
 20
0.0
 30
0.0
  3
*D8
  1

  0
LINE
  5
8EE
330
8ED
100
AcDbEntity
  8
BEM
 62
     0
370
    -2
100
AcDbLine
 10
97.71036438160138
 20
651.1814467663591
 30
0.0
 11
97.71036438160138
 21
704.3471863986386
 31
0.0
  0
LINE
  5
8EF
330
8ED
100
AcDbEntity
  8
BEM
 62
     0
370
    -2
100
AcDbLine
 10
342.7088716948762
 20
651.1814467663591
 30
0.0
 11
342.7088716948762
 21
704.3471863986386
 31
0.0
  0
LINE
  5
8F0
330
8ED
100
AcDbEntity
  8
BEM
 62
     0
370
    -2
100
AcDbLine
 10
104.7103643816013
 20
702.3471863986387
 30
0.0
 11
335.7088716948762
 21
702.3471863986387
 31
0.0
  0
SOLID
  5
8F1
330
8ED
100
AcDbEntity
  8
BEM
 62
     0
100
AcDbTrace
 10
104.7103643816013
 20
703.5138530653052
 30
0.0
 11
104.7103643816013
 21
701.180519731972
 31
0.0
 12
97.71036438160138
 22
702.3471863986387
 32
0.0
 13
97.71036438160138
 23
702.3471863986387
 33
0.0
  0
SOLID
  5
8F2
330
8ED
100
AcDbEntity
  8
BEM
 62
     0
100
AcDbTrace
 10
335.7088716948762
 20
703.5138530653052
 30
0.0
 11
335.7088716948762
 21
701.180519731972
 31
0.0
 12
342.7088716948762
 22
702.3471863986387
 32
0.0
 13
342.7088716948762
 23
702.3471863986387
 33
0.0
  0
MTEXT
  5
8F3
330
8ED
100
AcDbEntity
  8
BEM
 62
     1
100
AcDbMText
 10
220.2096180382388
 20
708.8471863986386
 30
0.0
 40
7.0
 41
0.0
 71
     5
 72
     1
  1
\A1;%%C245
 73
     1
 44
1.0
  0
POINT
  5
8F4
330
8ED
100
AcDbEntity
  8
DEFPOINTS
 62
     0
100
AcDbPoint
 10
97.71036438160138
 20
649.1814467663592
 30
0.0
  0
POINT
  5
8F5
330
8ED
100
AcDbEntity
  8
DEFPOINTS
 62
     0
100
AcDbPoint
 10
342.7088716948762
 20
649.1814467663592
 30
0.0
  0
POINT
  5
8F6
330
8ED
100
AcDbEntity
  8
DEFPOINTS
 62
     0
100
AcDbPoint
 10
342.7088716948762
 20
702.3471863986387
 30
0.0
  0
ENDBLK
  5
8F8
330
8ED
100
AcDbEntity
  8
0
100
AcDbBlockEnd
  0
ENDSEC
  0
SECTION
  2
ENTITIES
  0
TEXT
  5
324
330
20
100
AcDbEntity
  8
TEXT
100
AcDbText
 10
583.4462193823216
 20
836.4132055378062
 30
0.0
 40
3.6
  1
Diese Zeichnung ist urheberrechtlich geschuetzt und bleibt unser Eigentum. Sie darf weder ganz noch teilweise vervielfaeltigt und nicht an Dritte weitegegeben werden.
 50
180.0
  7
GREEKS
100
AcDbText
  0
TEXT
  5
325
330
20
100
AcDbEntity
  8
TEXT
100
AcDbText
 10
530.594467646405
 20
590.4500884820464
 30
0.0
 40
3.6
  1
29.05.
 50
90.0
 41
0.8
  7
GREEKS
 72
     1
 11
530.594467646405
 21
596.7586599106178
 31
0.0
100
AcDbText
  0
LINE
  5
326
330
20
100
AcDbEntity
  8
STEMPEL
100
AcDbLine
 10
10.0
 20
40.0
 30
0.0
 11
584.0
 21
40.0
 31
0.0
  0
LINE
  5
327
330
20
100
AcDbEntity
  8
STEMPEL
100
AcDbLine
 10
584.0
 20
830.0
 30
0.0
 11
10.0
 21
830.0
 31
0.0
  0
LINE
  5
328
330
20
100
AcDbEntity
  8
HILF
100
AcDbLine
 10
0.0
 20
0.0
 30
0.0
 11
594.0
 21
0.0
 31
0.0
  0
LINE
  5
329
330
20
100
AcDbEntity
  8
HILF
100
AcDbLine
 10
594.0
 20
840.0000000000002
 30
0.0
 11
0.0
 21
840.0000000000002
 31
0.0
  0
TEXT
  5
32A
330
20
100
AcDbEntity
  8
TEXT
100
AcDbText
 10
530.497467412491
 20
625.1121860477743
 30
0.0
 40
3.6
  1
Koeh
 50
90.0
 41
0.8
  7
GREEKS
 72
     1
 11
530.497467412491
 21
629.8436146192028
 31
0.0
100
AcDbText
  0
LINE
  5
32B
330
20
100
AcDbEntity
  8
VOLL
100
AcDbLine
 10
484.0000000000001
 20
610.0000000000001
 30
0.0
 11
554.0
 21
609.9999999999998
 31
0.0
  0
LINE
  5
32C
330
20
100
AcDbEntity
  8
VOLL
100
AcDbLine
 10
514.0
 20
584.0000000000001
 30
0.0
 11
554.0
 21
584.0000000000001
 31
0.0
  0
LINE
  5
32D
330
20
100
AcDbEntity
  8
VOLL
100
AcDbLine
 10
484.0000000000001
 20
544.0000000000001
 30
0.0
 11
584.0000000000001
 21
543.9999999999998
 31
0.0
  0
LINE
  5
32E
330
20
100
AcDbEntity
  8
VOLL
100
AcDbLine
 10
484.0
 20
524.0000000000001
 30
0.0
 11
584.0
 21
523.9999999999999
 31
0.0
  0
LINE
  5
32F
330
20
100
AcDbEntity
  8
VOLL
100
AcDbLine
 10
484.0
 20
484.0
 30
0.0
 11
584.0
 21
483.9999999999998
 31
0.0
  0
LINE
  5
330
330
20
100
AcDbEntity
  8
STEMPEL
100
AcDbLine
 10
484.0000000000003
 20
752.0000000000001
 30
0.0
 11
554.0
 21
752.0000000000001
 31
0.0
  0
LINE
  5
331
330
20
100
AcDbEntity
  8
STEMPEL
100
AcDbLine
 10
484.0
 20
649.9999999999999
 30
0.0
 11
584.0
 21
649.9999999999999
 31
0.0
  0
LINE
  5
332
330
20
100
AcDbEntity
  8
STEMPEL
100
AcDbLine
 10
484.0000000000001
 20
566.0000000000001
 30
0.0
 11
584.0000000000001
 21
565.9999999999999
 31
0.0
  0
LINE
  5
333
330
20
100
AcDbEntity
  8
STEMPEL
100
AcDbLine
 10
484.0
 20
470.0
 30
0.0
 11
584.0
 21
469.9999999999999
 31
0.0
  0
DIMENSION
  5
337
330
20
100
AcDbEntity
  8
BEM
100
AcDbDimension
  2
*D4
 10
271.2096180382388
 20
390.4297678829692
 30
0.0
 11
220.2096180382388
 21
396.9297678829692
 31
0.0
 70
    32
  1
%%c<>
 71
     5
 42
102.0
  3
Standard
100
AcDbAlignedDimension
 13
169.2096180382387
 23
420.2269649620175
 33
0.0
 14
271.2096180382388
 24
420.2269649620175
 34
0.0
100
AcDbRotatedDimension
1001
ACAD
1000
DSTYLE
1002
{
1070
    40
1040
2.0
1070
    41
1040
3.5
1070
    42
1040
1.0
1070
    43
1040
7.0
1070
    44
1040
1.0
1070
    47
1040
1.0
1070
    48
1040
1.0
1070
    73
1070
     0
1070
    74
1070
     0
1070
    77
1070
     1
1070
    78
1070
     8
1070
    79
1070
     2
1070
   140
1040
3.5
1070
   141
1040
1.5
1070
   145
1040
0.2857142857142857
1070
   146
1040
0.5142857142857144
1070
   147
1040
1.5
1070
   172
1070
     1
1070
   178
1070
     1
1070
   179
1070
     2
1070
   271
1070
     2
1070
   272
1070
     2
1070
   284
1070
     8
1070
   285
1070
     8
1070
   286
1070
     8
1002
}
  0
DIMENSION
  5
338
330
20
100
AcDbEntity
  8
BEM
100
AcDbDimension
  2
*D3
 10
361.9690203673119
 20
672.2269649620175
 30
0.0
 11
355.4690203673118
 21
541.2269649620176
 31
0.0
 70
    32
 71
     5
 42
262.0
  3
Standard
100
AcDbAlignedDimension
 13
270.3347314029795
 23
410.2269649620176
 33
0.0
 14
292.7096180382388
 24
672.2269649620175
 34
0.0
 50
90.0
100
AcDbRotatedDimension
1001
ACAD
1000
DSTYLE
1002
{
1070
    40
1040
2.0
1070
    41
1040
3.5
1070
    42
1040
1.0
1070
    43
1040
7.0
1070
    44
1040
1.0
1070
    47
1040
1.0
1070
    48
1040
1.0
1070
    73
1070
     0
1070
    74
1070
     0
1070
    77
1070
     1
1070
    78
1070
     8
1070
    79
1070
     2
1070
   140
1040
3.5
1070
   141
1040
1.5
1070
   145
1040
0.2857142857142857
1070
   146
1040
0.5142857142857144
1070
   147
1040
1.5
1070
   172
1070
     1
1070
   178
1070
     1
1070
   179
1070
     2
1070
   271
1070
     2
1070
   272
1070
     2
1070
   284
1070
     8
1070
   285
1070
     8
1070
   286
1070
     8
1002
}
  0
LINE
  5
33A
330
20
100
AcDbEntity
  8
MITTEL
100
AcDbLine
 10
220.2096180382387
 20
677.2269649620174
 30
0.0
 11
220.2096180382388
 21
405.2269649620176
 31
0.0
  0
LINE
  5
33B
102
{ACAD_REACTORS
330
621
102
}
330
20
100
AcDbEntity
  8
STEMPEL
100
AcDbLine
 10
271.2096180382388
 20
420.2269649620175
 30
0.0
 11
270.3347314029795
 21
410.2269649620176
 31
0.0
  0
LINE
  5
33C
102
{ACAD_REACTORS
330
621
102
}
330
20
100
AcDbEntity
  8
STEMPEL
100
AcDbLine
 10
269.2096180382388
 20
420.2269649620175
 30
0.0
 11
268.3347314029796
 21
410.2269649620176
 31
0.0
  0
LINE
  5
33D
102
{ACAD_REACTORS
330
621
102
}
330
20
100
AcDbEntity
  8
STEMPEL
100
AcDbLine
 10
171.2096180382387
 20
420.2269649620175
 30
0.0
 11
172.084504673498
 21
410.2269649620176
 31
0.0
  0
LINE
  5
33E
102
{ACAD_REACTORS
330
621
102
}
330
20
100
AcDbEntity
  8
STEMPEL
100
AcDbLine
 10
169.2096180382387
 20
420.2269649620175
 30
0.0
 11
170.084504673498
 21
410.2269649620176
 31
0.0
  0
LINE
  5
33F
330
20
100
AcDbEntity
  8
STEMPEL
100
AcDbLine
 10
10.0
 20
830.0
 30
0.0
 11
10.0
 21
40.0
 31
0.0
  0
LINE
  5
340
330
20
100
AcDbEntity
  8
HILF
100
AcDbLine
 10
0.0
 20
840.0000000000002
 30
0.0
 11
0.0
 21
0.0
 31
0.0
  0
LINE
  5
344
330
20
100
AcDbEntity
  8
STEMPEL
100
AcDbLine
 10
202.5161587615702
 20
282.6533034417024
 30
0.0
 11
170.4030773149073
 21
264.1128072239633
 31
0.0
  0
LINE
  5
345
330
20
100
AcDbEntity
  8
VERDECKT
100
AcDbLine
 10
201.5554890765164
 20
284.9854118863824
 30
0.0
 11
168.8637469999612
 21
266.1108257982055
 31
0.0
  0
ARC
  5
347
330
20
100
AcDbEntity
  8
STEMPEL
100
AcDbCircle
 10
220.2096180382388
 20
214.9263405773832
 30
0.0
 40
49.0
100
AcDbArc
 50
62.36190367810073
 51
297.6380963219007
  0
LINE
  5
348
330
20
100
AcDbEntity
  8
MITTEL
100
AcDbLine
 10
92.10991882435305
 20
214.9263405773832
 30
0.0
 11
347.109918824353
 21
214.9263405773832
 31
0.0
  0
LINE
  5
34B
102
{ACAD_REACTORS
330
621
102
}
330
20
100
AcDbEntity
  8
STEMPEL
100
AcDbLine
 10
170.084504673498
 20
410.2269649620176
 30
0.0
 11
270.3347314029795
 21
410.2269649620176
 31
0.0
  0
LINE
  5
34D
330
20
100
AcDbEntity
  8
STEMPEL
100
AcDbLine
 10
152.7096180382387
 20
196.3858443596441
 30
0.0
 11
152.7096180382387
 21
233.4668367951224
 31
0.0
  0
LINE
  5
34E
330
20
100
AcDbEntity
  8
VERDECKT
100
AcDbLine
 10
150.2096180382388
 20
196.0517544892063
 30
0.0
 11
150.2096180382388
 21
233.80092666556
 31
0.0
  0
LINE
  5
34F
330
20
100
AcDbEntity
  8
MITTEL
100
AcDbLine
 10
219.609918824353
 20
342.4263405773832
 30
0.0
 11
219.6099188243531
 21
87.42634057738319
 31
0.0
  0
ARC
  5
350
330
20
100
AcDbEntity
  8
STEMPEL
100
AcDbCircle
 10
220.2096180382388
 20
214.9263405773832
 30
0.0
 40
49.0
100
AcDbArc
 50
301.1467466367941
 51
58.85325336320438
  0
LINE
  5
352
330
20
100
AcDbEntity
  8
STEMPEL
100
AcDbLine
 10
287.7096180382388
 20
196.385844359644
 30
0.0
 11
287.7096180382388
 21
233.4668367951224
 31
0.0
  0
LINE
  5
353
330
20
100
AcDbEntity
  8
VERDECKT
100
AcDbLine
 10
290.2096180382388
 20
196.0517544892062
 30
0.0
 11
290.2096180382388
 21
233.80092666556
 31
0.0
  0
LINE
  5
355
330
20
100
AcDbEntity
  8
STEMPEL
100
AcDbLine
 10
239.9370843337698
 20
253.1340240135547
 30
0.0
 11
242.5532899301765
 21
251.6654250295772
 31
0.0
  0
LINE
  5
356
330
20
100
AcDbEntity
  8
STEMPEL
100
AcDbLine
 10
239.9370843337698
 20
253.1340240135547
 30
0.0
 11
253.4462389422803
 21
276.5325661627981
 31
0.0
  0
POINT
  5
357
330
20
100
AcDbEntity
  8
DEFPOINTS
  6
ByBlock
 62
     0
100
AcDbPoint
 10
239.9370843337698
 20
253.1340240135547
 30
0.0
  0
LINE
  5
358
330
20
100
AcDbEntity
  8
STEMPEL
100
AcDbLine
 10
242.5532899301765
 20
251.6654250295772
 30
0.0
 11
256.0554470467615
 21
275.0518471672802
 31
0.0
  0
LINE
  5
359
330
20
100
AcDbEntity
  8
STEMPEL
100
AcDbLine
 10
242.9399916114467
 20
258.3352119889094
 30
0.0
 11
245.5539747875254
 21
256.8627636600079
 31
0.0
  0
INSERT
  5
35A
330
20
100
AcDbEntity
  8
BEM
100
AcDbBlockReference
  2
*X2
 10
-43.79973704143957
 20
93.46528551437859
 30
0.0
1001
ACAD
1000
HATCH
1002
{
1070
    16
1000
_U,I
1040
0.1
1040
2.356194490192344
1070
     0
1002
}
  0
ARC
  5
35B
330
20
100
AcDbEntity
  8
BEM
100
AcDbCircle
 10
253.4462389422803
 20
276.5325661627981
 30
0.0
 40
3.0
100
AcDbArc
 50
152.8809543773229
 51
240.0
  0
LINE
  5
35C
330
20
100
AcDbEntity
  8
STEMPEL
100
AcDbLine
 10
249.9446196429707
 20
270.4675836276301
 30
0.0
 11
252.5550653709723
 21
268.98900825893
 31
0.0
  0
LINE
  5
35D
330
20
100
AcDbEntity
  8
VERDECKT
100
AcDbLine
 10
252.4447046442712
 20
274.7978578731236
 30
0.0
 11
255.0551503722728
 21
273.3192825044235
 31
0.0
  0
INSERT
  5
360
330
20
100
AcDbEntity
  8
SCHRAFF
100
AcDbBlockReference
  2
*X1
 10
-43.79973704143957
 20
0.0
 30
0.0
1001
ACAD
1000
HATCH
1002
{
1070
    16
1000
_U,I
1040
2.0
1040
2.356194490192344
1070
     0
1002
}
  0
DIMENSION
  5
362
330
20
100
AcDbEntity
  8
BEM
100
AcDbDimension
  2
*D8
 10
342.7088716948762
 20
702.3471863986387
 30
0.0
 11
220.2096180382388
 21
708.8471863986386
 31
0.0
 70
    32
  1
%%C<>
 71
     5
 42
244.9985073132748
  3
Standard
100
AcDbAlignedDimension
 13
97.71036438160138
 23
649.1814467663592
 33
0.0
 14
342.7088716948762
 24
649.1814467663592
 34
0.0
100
AcDbRotatedDimension
  0
LINE
  5
363
330
20
100
AcDbEntity
  8
STEMPEL
100
AcDbLine
 10
202.5161587615701
 20
642.2269649620176
 30
0.0
 11
188.0166159265619
 21
637.4755696326688
 31
0.0
  0
LINE
  5
364
330
20
100
AcDbEntity
  8
STEMPEL
100
AcDbLine
 10
161.5914243342502
 20
600.2269649620176
 30
0.0
 11
278.8278117422272
 21
600.2269649620175
 31
0.0
  0
LINE
  5
366
330
20
100
AcDbEntity
  8
STEMPEL
100
AcDbLine
 10
170.4030773149073
 20
662.2269649620176
 30
0.0
 11
202.5161587615701
 21
662.2269649620176
 31
0.0
  0
DIMENSION
  5
367
330
20
100
AcDbEntity
  8
BEM
100
AcDbDimension
  2
*D7
 10
292.7096180382388
 20
686.8249664271059
 30
0.0
 11
220.2096180382388
 21
693.324966427106
 31
0.0
 70
    32
  1
%%C145
 71
     5
 42
145.0
  3
Standard
100
AcDbAlignedDimension
 13
147.7096180382387
 23
672.2269649620176
 33
0.0
 14
292.7096180382388
 24
672.2269649620175
 34
0.0
100
AcDbRotatedDimension
  0
LINE
  5
368
330
20
100
AcDbEntity
  8
HILF
100
AcDbLine
 10
173.2949998982216
 20
420.2269649620175
 30
0.0
 11
267.9785268689851
 21
420.2269649620175
 31
0.0
  0
LINE
  5
369
330
20
100
AcDbEntity
  8
HILF
100
AcDbLine
 10
173.1620075595632
 20
557.2269649620177
 30
0.0
 11
267.2843183884515
 21
557.2269649620176
 31
0.0
  0
LINE
  5
36B
102
{ACAD_REACTORS
330
5FA
330
621
330
62F
102
}
330
20
100
AcDbEntity
  8
STEMPEL
100
AcDbLine
 10
161.4808291012742
 20
600.2269649620176
 30
0.0
 11
278.9384069752034
 21
600.2269649620177
 31
0.0
  0
LINE
  5
36C
102
{ACAD_REACTORS
330
5FA
102
}
330
20
100
AcDbEntity
  8
STEMPEL
100
AcDbLine
 10
147.7096180382387
 20
672.2269649620176
 30
0.0
 11
292.7096180382388
 21
672.2269649620175
 31
0.0
  0
LINE
  5
36E
330
20
100
AcDbEntity
  8
BEM
100
AcDbLine
 10
10.0
 20
460.0
 30
0.0
 11
0.0
 21
460.0
 31
0.0
  0
LINE
  5
36F
102
{ACAD_REACTORS
330
621
102
}
330
20
100
AcDbEntity
  8
STEMPEL
100
AcDbLine
 10
171.2096180382387
 20
557.2269649620177
 30
0.0
 11
171.2096180382387
 21
420.2269649620175
 31
0.0
  0
LINE
  5
370
102
{ACAD_REACTORS
330
621
102
}
330
20
100
AcDbEntity
  8
STEMPEL
100
AcDbLine
 10
169.2096180382387
 20
556.996723933018
 30
0.0
 11
169.2096180382387
 21
420.2269649620175
 31
0.0
  0
DIMENSION
  5
371
330
20
100
AcDbEntity
  8
BEM
100
AcDbDimension
  2
*D5
 10
69.15717929806811
 20
672.2269649620176
 30
0.0
 11
69.157179298068
 21
661.1494440309909
 31
0.0
 70
   160
 71
     5
 42
24.99999999999989
  3
Standard
100
AcDbAlignedDimension
 13
98.13462948327508
 23
647.2269649620177
 33
0.0
 14
147.7096180382387
 24
672.2269649620176
 34
0.0
 50
90.0
100
AcDbRotatedDimension
1001
ACAD
1000
DSTYLE
1002
{
1070
    40
1040
2.0
1070
    41
1040
3.5
1070
    42
1040
1.0
1070
    43
1040
7.0
1070
    44
1040
1.0
1070
    47
1040
1.0
1070
    48
1040
1.0
1070
    73
1070
     0
1070
    74
1070
     0
1070
    77
1070
     1
1070
    78
1070
     8
1070
    79
1070
     2
1070
   140
1040
3.5
1070
   141
1040
1.5
1070
   145
1040
0.2857142857142857
1070
   146
1040
0.5142857142857144
1070
   147
1040
1.5
1070
   172
1070
     1
1070
   178
1070
     1
1070
   179
1070
     2
1070
   271
1070
     2
1070
   272
1070
     2
1070
   284
1070
     8
1070
   285
1070
     8
1070
   286
1070
     8
1002
}
  0
LINE
  5
373
330
20
100
AcDbEntity
  8
STEMPEL
100
AcDbLine
 10
140.4432455023629
 20
649.7204159006842
 30
0.0
 11
113.5912484453035
 21
652.1932558645572
 31
0.0
  0
LINE
  5
374
330
20
100
AcDbEntity
  8
STEMPEL
100
AcDbLine
 10
140.2598386363318
 20
647.7288431750492
 30
0.0
 11
113.4078415792725
 21
650.2016831389223
 31
0.0
  0
LINE
  5
375
330
20
100
AcDbEntity
  8
STEMPEL
100
AcDbLine
 10
98.13462948327508
 20
647.2269649620177
 30
0.0
 11
142.1688908433246
 21
647.2269649620176
 31
0.0
  0
LINE
  5
376
330
20
100
AcDbEntity
  8
STEMPEL
100
AcDbLine
 10
112.8576209811795
 20
652.2269649620177
 30
0.0
 11
148.8346180382388
 21
652.2269649620176
 31
0.0
  0
DIMENSION
  5
377
330
20
100
AcDbEntity
  8
BEM
100
AcDbDimension
  2
*D6
 10
86.49167195693244
 20
652.2269649620177
 30
0.0
 11
86.49167195693236
 21
628.360298295351
 31
0.0
 70
   160
 71
     5
 42
5.0
  3
Standard
100
AcDbAlignedDimension
 13
98.13462948327508
 23
647.2269649620177
 33
0.0
 14
112.8576209811795
 24
652.2269649620177
 34
0.0
 50
90.0
100
AcDbRotatedDimension
1001
ACAD
1000
DSTYLE
1002
{
1070
    40
1040
2.0
1070
    41
1040
3.5
1070
    42
1040
1.0
1070
    43
1040
7.0
1070
    44
1040
1.0
1070
    47
1040
1.0
1070
    48
1040
1.0
1070
    73
1070
     0
1070
    74
1070
     0
1070
    77
1070
     1
1070
    78
1070
     8
1070
    79
1070
     2
1070
   140
1040
3.5
1070
   141
1040
1.5
1070
   145
1040
0.2857142857142857
1070
   146
1040
0.5142857142857144
1070
   147
1040
1.5
1070
   172
1070
     1
1070
   178
1070
     1
1070
   179
1070
     2
1070
   271
1070
     2
1070
   272
1070
     2
1070
   284
1070
     8
1070
   285
1070
     8
1070
   286
1070
     8
1002
}
  0
LINE
  5
378
330
20
100
AcDbEntity
  8
STEMPEL
100
AcDbLine
 10
98.13463286242743
 20
647.2269493951191
 30
0.0
 11
111.6082376813245
 21
650.095443586844
 31
0.0
  0
LINE
  5
379
330
20
100
AcDbEntity
  8
STEMPEL
100
AcDbLine
 10
97.71036438160138
 20
649.1814467663592
 30
0.0
 11
111.1917765813728
 21
652.0516031284528
 31
0.0
  0
LINE
  5
37A
330
20
100
AcDbEntity
  8
STEMPEL
100
AcDbLine
 10
97.71036438160138
 20
649.1814467663592
 30
0.0
 11
98.13462948327508
 21
647.2269649620177
 31
0.0
  0
ARC
  5
37B
330
20
100
AcDbEntity
  8
STEMPEL
100
AcDbCircle
 10
112.8576209811795
 20
644.2269649620177
 30
0.0
 40
6.0
100
AcDbArc
 50
84.7383880687394
 51
102.0186780781423
  0
ARC
  5
37C
330
20
100
AcDbEntity
  8
STEMPEL
100
AcDbCircle
 10
112.8576209811795
 20
644.2269649620177
 30
0.0
 40
8.0
100
AcDbArc
 50
84.73838806873949
 51
102.0186780781424
  0
LINE
  5
37E
102
{ACAD_REACTORS
330
5FA
102
}
330
20
100
AcDbEntity
  8
STEMPEL
100
AcDbLine
 10
151.2157300194125
 20
629.9272804336209
 30
0.0
 11
164.2096180382387
 21
600.2269649620176
 31
0.0
  0
LINE
  5
37F
102
{ACAD_REACTORS
330
621
330
62F
102
}
330
20
100
AcDbEntity
  8
STEMPEL
100
AcDbLine
 10
162.1558951314723
 20
600.2269649620176
 30
0.0
 11
169.2096180382387
 21
556.996723933018
 31
0.0
  0
LINE
  5
380
102
{ACAD_REACTORS
330
621
102
}
330
20
100
AcDbEntity
  8
STEMPEL
100
AcDbLine
 10
164.2096180382387
 20
600.2269649620177
 30
0.0
 11
171.2096180382387
 21
557.2269649620177
 31
0.0
  0
ARC
  5
381
102
{ACAD_REACTORS
330
62F
102
}
330
20
100
AcDbEntity
  8
BEM
100
AcDbCircle
 10
163.408640659063
 20
600.1910075076088
 30
0.0
 40
2.984610030358279
100
AcDbArc
 50
149.5690467096663
 51
254.9166290865231
  0
ARC
  5
382
330
20
100
AcDbEntity
  8
STEMPEL
100
AcDbCircle
 10
139.7096180382388
 20
641.7541249981447
 30
0.0
 40
8.0
100
AcDbArc
 50
0.0
 51
84.73838806873946
  0
LINE
  5
383
330
20
100
AcDbEntity
  8
STEMPEL
100
AcDbLine
 10
147.7096180382387
 20
643.2269649620176
 30
0.0
 11
150.2096180382388
 21
662.2269649620177
 31
0.0
  0
LINE
  5
384
102
{ACAD_REACTORS
330
5FA
102
}
330
20
100
AcDbEntity
  8
STEMPEL
100
AcDbLine
 10
151.2096180382387
 20
638.2269649620176
 30
0.0
 11
150.2096180382388
 21
662.2269649620177
 31
0.0
  0
LINE
  5
385
102
{ACAD_REACTORS
330
5FA
102
}
330
20
100
AcDbEntity
  8
STEMPEL
100
AcDbLine
 10
153.7096180382387
 20
638.2269649620176
 30
0.0
 11
152.7096180382387
 21
662.2269649620177
 31
0.0
  0
LINE
  5
388
330
20
100
AcDbEntity
  8
STEMPEL
100
AcDbLine
 10
145.7096180382388
 20
641.7541249981447
 30
0.0
 11
145.7096180382388
 21
632.2269649620174
 31
0.0
  0
LINE
  5
389
102
{ACAD_REACTORS
330
5FA
102
}
330
20
100
AcDbEntity
  8
STEMPEL
100
AcDbLine
 10
147.7096180382387
 20
641.7541249981447
 30
0.0
 11
147.7096180382389
 21
632.2269649620176
 31
0.0
  0
ARC
  5
38A
330
20
100
AcDbEntity
  8
BEM
100
AcDbCircle
 10
149.0769264518489
 20
632.7170460535548
 30
0.0
 40
3.402784951866976
100
AcDbArc
 50
188.2807379150035
 51
264.5835331598784
  0
LINE
  5
38B
330
20
100
AcDbEntity
  8
STEMPEL
100
AcDbLine
 10
145.7096180382388
 20
632.2269649620174
 30
0.0
 11
147.7096180382388
 21
632.2269649620176
 31
0.0
  0
ARC
  5
38C
330
20
100
AcDbEntity
  8
STEMPEL
100
AcDbCircle
 10
139.7096180382388
 20
641.7541249981447
 30
0.0
 40
6.0
100
AcDbArc
 50
359.9999999999998
 51
84.73838806873953
  0
LINE
  5
38D
102
{ACAD_REACTORS
330
5FA
102
}
330
20
100
AcDbEntity
  8
STEMPEL
100
AcDbLine
 10
151.2096180382387
 20
638.2269649620176
 30
0.0
 11
153.7096180382387
 21
638.2269649620176
 31
0.0
  0
LINE
  5
38E
330
20
100
AcDbEntity
  8
STEMPEL
100
AcDbLine
 10
151.2096180382387
 20
638.2269649620176
 30
0.0
 11
147.7096180382387
 21
643.2269649620176
 31
0.0
  0
LINE
  5
38F
102
{ACAD_REACTORS
330
5FA
102
}
330
20
100
AcDbEntity
  8
STEMPEL
100
AcDbLine
 10
147.7096180382387
 20
638.2269649620176
 30
0.0
 11
150.2096180382388
 21
638.2269649620176
 31
0.0
  0
LINE
  5
390
102
{ACAD_REACTORS
330
5FA
102
}
330
20
100
AcDbEntity
  8
STEMPEL
100
AcDbLine
 10
150.2096180382388
 20
639.655536390589
 30
0.0
 11
150.2096180382388
 21
634.7371064418573
 31
0.0
  0
LINE
  5
391
102
{ACAD_REACTORS
330
5FA
102
}
330
20
100
AcDbEntity
  8
STEMPEL
100
AcDbLine
 10
150.2096180382388
 20
672.2269649620175
 30
0.0
 11
150.2096180382388
 21
662.2269649620177
 31
0.0
  0
LINE
  5
392
102
{ACAD_REACTORS
330
5FA
102
}
330
20
100
AcDbEntity
  8
STEMPEL
100
AcDbLine
 10
147.7096180382387
 20
672.2269649620175
 30
0.0
 11
147.7096180382387
 21
662.2269649620177
 31
0.0
  0
LINE
  5
393
102
{ACAD_REACTORS
330
5FA
102
}
330
20
100
AcDbEntity
  8
STEMPEL
100
AcDbLine
 10
147.7096180382387
 20
662.2269649620177
 30
0.0
 11
152.7096180382387
 21
662.2269649620177
 31
0.0
  0
POINT
  5
394
330
20
100
AcDbEntity
  8
DEFPOINTS
  6
ByBlock
 62
     0
100
AcDbPoint
 10
150.2096180382388
 20
672.2269649620176
 30
0.0
  0
LINE
  5
395
330
20
100
AcDbEntity
  8
STEMPEL
100
AcDbLine
 10
170.4030773149073
 20
642.2269649620176
 30
0.0
 11
184.9026201499158
 21
637.4755696326688
 31
0.0
  0
ARC
  5
396
330
20
100
AcDbEntity
  8
STEMPEL
100
AcDbCircle
 10
186.4596180382388
 20
642.2269649620176
 30
0.0
 40
5.0
100
AcDbArc
 50
251.8564042069558
 51
288.1435957930441
  0
LINE
  5
397
330
20
100
AcDbEntity
  8
HILF
100
AcDbLine
 10
170.4030773149073
 20
655.2269649620176
 30
0.0
 11
170.4030773149073
 21
662.2269649620176
 31
0.0
  0
TEXT
  5
39C
330
20
100
AcDbEntity
  8
TEXT
100
AcDbText
 10
521.703488726959
 20
654.862987254257
 30
0.0
 40
5.0
  1
Fallrohrlänge 250mm
 50
90.0
 41
0.8
  7
GREEKS
100
AcDbText
  0
TEXT
  5
39D
330
20
100
AcDbEntity
  8
TEXT
100
AcDbText
 10
491.4510671988221
 20
654.8779403809009
 30
0.0
 40
5.0
  1
Benennung
 50
90.0
 41
0.8
  7
GREEKS
100
AcDbText
  0
LINE
  5
39E
330
20
100
AcDbEntity
  8
HILF
100
AcDbLine
 10
524.0
 20
654.7736801096947
 30
0.0
 11
524.0
 21
746.629784251481
 31
0.0
  0
LINE
  5
39F
330
20
100
AcDbEntity
  8
HILF
100
AcDbLine
 10
509.9624175243587
 20
654.7736801096947
 30
0.0
 11
509.9624175243587
 21
746.629784251481
 31
0.0
  0
LINE
  5
3A0
330
20
100
AcDbEntity
  8
STEMPEL
100
AcDbLine
 10
514.0
 20
830.0
 30
0.0
 11
514.0
 21
566.0000000000001
 31
0.0
  0
LINE
  5
3A1
330
20
100
AcDbEntity
  8
STEMPEL
100
AcDbLine
 10
484.0
 20
830.0
 30
0.0
 11
484.0
 21
470.0
 31
0.0
  0
TEXT
  5
3A2
330
20
100
AcDbEntity
  8
TEXT
 62
     1
100
AcDbText
 10
507.0058791601468
 20
654.979117340995
 30
0.0
 40
7.0
  1
Ablaufeinheit
 50
90.0
 41
0.8
  7
GREEKS
100
AcDbText
  0
LINE
  5
3A4
102
{ACAD_REACTORS
330
621
102
}
330
20
100
AcDbEntity
  8
STEMPEL
100
AcDbLine
 10
269.2096180382388
 20
557.2269649620174
 30
0.0
 11
269.2096180382388
 21
420.2269649620175
 31
0.0
  0
LINE
  5
3A5
102
{ACAD_REACTORS
330
621
102
}
330
20
100
AcDbEntity
  8
STEMPEL
100
AcDbLine
 10
271.2096180382388
 20
556.9967239330178
 30
0.0
 11
271.2096180382388
 21
420.2269649620175
 31
0.0
  0
LINE
  5
3A8
102
{ACAD_REACTORS
330
5FA
102
}
330
20
100
AcDbEntity
  8
STEMPEL
100
AcDbLine
 10
289.2035060570651
 20
629.9272804336204
 30
0.0
 11
276.2096180382388
 21
600.2269649620176
 31
0.0
  0
LINE
  5
3AA
102
{ACAD_REACTORS
330
621
330
62F
102
}
330
20
100
AcDbEntity
  8
STEMPEL
100
AcDbLine
 10
278.2633409450054
 20
600.2269649620175
 30
0.0
 11
271.2096180382388
 21
556.9967239330178
 31
0.0
  0
LINE
  5
3AB
102
{ACAD_REACTORS
330
621
102
}
330
20
100
AcDbEntity
  8
STEMPEL
100
AcDbLine
 10
276.2096180382388
 20
600.2269649620176
 30
0.0
 11
269.2096180382388
 21
557.2269649620174
 31
0.0
  0
ARC
  5
3AC
102
{ACAD_REACTORS
330
62F
102
}
330
20
100
AcDbEntity
  8
BEM
100
AcDbCircle
 10
277.0105954174145
 20
600.1910075076088
 30
0.0
 40
2.984610030358279
100
AcDbArc
 50
285.0833709134795
 51
30.43095329033311
  0
LINE
  5
3AD
330
20
100
AcDbEntity
  8
STEMPEL
100
AcDbLine
 10
239.9370843337698
 20
650.2269649620175
 30
0.0
 11
245.5539747875251
 21
650.2269649620176
 31
0.0
  0
LINE
  5
3AE
330
20
100
AcDbEntity
  8
STEMPEL
100
AcDbLine
 10
239.9370843337698
 20
657.2269649620176
 30
0.0
 11
245.5539747875251
 21
657.2269649620176
 31
0.0
  0
LINE
  5
3AF
330
20
100
AcDbEntity
  8
HILF
100
AcDbLine
 10
202.5161587615701
 20
655.2269649620176
 30
0.0
 11
202.5161587615701
 21
662.2269649620176
 31
0.0
  0
LINE
  5
3B0
330
20
100
AcDbEntity
  8
STEMPEL
100
AcDbLine
 10
239.9370843337698
 20
650.2269649620175
 30
0.0
 11
239.9370843337698
 21
657.2269649620176
 31
0.0
  0
LINE
  5
3B1
330
20
100
AcDbEntity
  8
STEMPEL
100
AcDbLine
 10
242.9399916114472
 20
650.2269649620175
 30
0.0
 11
249.9446196429707
 21
645.2269649620176
 31
0.0
  0
LINE
  5
3B2
330
20
100
AcDbEntity
  8
STEMPEL
100
AcDbLine
 10
245.5539747875251
 20
650.2269649620176
 30
0.0
 11
252.5550653709723
 21
645.2269649620176
 31
0.0
  0
LINE
  5
3B3
330
20
100
AcDbEntity
  8
STEMPEL
100
AcDbLine
 10
256.0554470467615
 20
645.2269649620176
 30
0.0
 11
256.0554470467615
 21
648.2269649620175
 31
0.0
  0
LINE
  5
3B4
330
20
100
AcDbEntity
  8
STEMPEL
100
AcDbLine
 10
249.9446196429707
 20
645.2269649620176
 30
0.0
 11
256.0554470467615
 21
645.2269649620176
 31
0.0
  0
LINE
  5
3B5
330
20
100
AcDbEntity
  8
STEMPEL
100
AcDbLine
 10
249.9446196429707
 20
662.2269649620176
 30
0.0
 11
256.0554470467615
 21
662.2269649620176
 31
0.0
  0
LINE
  5
3B6
330
20
100
AcDbEntity
  8
STEMPEL
100
AcDbLine
 10
252.5550653709723
 20
662.2269649620176
 30
0.0
 11
245.5539747875251
 21
657.2269649620176
 31
0.0
  0
LINE
  5
3B7
330
20
100
AcDbEntity
  8
STEMPEL
100
AcDbLine
 10
242.9399916114472
 20
657.2269649620176
 30
0.0
 11
249.9446196429707
 21
662.2269649620176
 31
0.0
  0
LINE
  5
3B8
330
20
100
AcDbEntity
  8
STEMPEL
100
AcDbLine
 10
242.5532899301765
 20
650.2269649620175
 30
0.0
 11
242.5532899301765
 21
657.2269649620176
 31
0.0
  0
LINE
  5
3B9
330
20
100
AcDbEntity
  8
STEMPEL
100
AcDbLine
 10
256.0554470467615
 20
659.2269649620176
 30
0.0
 11
256.0554470467615
 21
662.2269649620176
 31
0.0
  0
LINE
  5
3BA
330
20
100
AcDbEntity
  8
STEMPEL
100
AcDbLine
 10
255.0551503722728
 20
648.2269649620176
 30
0.0
 11
256.0554470467615
 21
648.2269649620175
 31
0.0
  0
LINE
  5
3BB
330
20
100
AcDbEntity
  8
STEMPEL
100
AcDbLine
 10
255.0551503722728
 20
659.2269649620176
 30
0.0
 11
256.0554470467615
 21
659.2269649620176
 31
0.0
  0
LINE
  5
3BC
330
20
100
AcDbEntity
  8
STEMPEL
100
AcDbLine
 10
255.0551503722728
 20
648.2269649620176
 30
0.0
 11
255.0551503722728
 21
659.2269649620176
 31
0.0
  0
LINE
  5
3BD
330
20
100
AcDbEntity
  8
STEMPEL
100
AcDbLine
 10
327.5616150952981
 20
652.2269649620177
 30
0.0
 11
291.5846180382388
 21
652.2269649620176
 31
0.0
  0
LINE
  5
3BE
330
20
100
AcDbEntity
  8
STEMPEL
100
AcDbLine
 10
300.1593974401457
 20
647.7288431750492
 30
0.0
 11
327.011394497205
 21
650.2016831389223
 31
0.0
  0
LINE
  5
3BF
330
20
100
AcDbEntity
  8
STEMPEL
100
AcDbLine
 10
299.9759905741147
 20
649.7204159006842
 30
0.0
 11
326.827987631174
 21
652.1932558645572
 31
0.0
  0
LINE
  5
3C0
330
20
100
AcDbEntity
  8
STEMPEL
100
AcDbLine
 10
342.2846065932025
 20
647.2269649620177
 30
0.0
 11
298.2503452331529
 21
647.2269649620176
 31
0.0
  0
ARC
  5
3C1
330
20
100
AcDbEntity
  8
STEMPEL
100
AcDbCircle
 10
300.7096180382388
 20
641.7541249981447
 30
0.0
 40
8.0
100
AcDbArc
 50
95.26161193126053
 51
180.0
  0
LINE
  5
3C2
102
{ACAD_REACTORS
330
5FA
102
}
330
20
100
AcDbEntity
  8
STEMPEL
100
AcDbLine
 10
286.7096180382388
 20
638.2269649620176
 30
0.0
 11
287.7096180382388
 21
662.2269649620176
 31
0.0
  0
LINE
  5
3C3
102
{ACAD_REACTORS
330
5FA
102
}
330
20
100
AcDbEntity
  8
STEMPEL
100
AcDbLine
 10
289.2096180382388
 20
638.2269649620176
 30
0.0
 11
290.2096180382388
 21
662.2269649620176
 31
0.0
  0
LINE
  5
3C4
330
20
100
AcDbEntity
  8
STEMPEL
100
AcDbLine
 10
292.7096180382388
 20
643.2269649620176
 30
0.0
 11
290.2096180382388
 21
662.2269649620176
 31
0.0
  0
LINE
  5
3C7
330
20
100
AcDbEntity
  8
STEMPEL
100
AcDbLine
 10
294.7096180382388
 20
641.7541249981447
 30
0.0
 11
294.7096180382388
 21
632.2269649620174
 31
0.0
  0
LINE
  5
3C8
102
{ACAD_REACTORS
330
5FA
102
}
330
20
100
AcDbEntity
  8
STEMPEL
100
AcDbLine
 10
292.7096180382388
 20
641.7541249981447
 30
0.0
 11
292.7096180382388
 21
632.2269649620176
 31
0.0
  0
ARC
  5
3C9
330
20
100
AcDbEntity
  8
BEM
100
AcDbCircle
 10
291.3423096246287
 20
632.7170460535548
 30
0.0
 40
3.402784951866976
100
AcDbArc
 50
275.4164668401239
 51
351.7192620849964
  0
LINE
  5
3CA
330
20
100
AcDbEntity
  8
STEMPEL
100
AcDbLine
 10
294.7096180382388
 20
632.2269649620174
 30
0.0
 11
292.7096180382388
 21
632.2269649620176
 31
0.0
  0
LINE
  5
3CB
330
20
100
AcDbEntity
  8
STEMPEL
100
AcDbLine
 10
289.2096180382388
 20
638.2269649620176
 30
0.0
 11
292.7096180382388
 21
643.2269649620176
 31
0.0
  0
LINE
  5
3CC
102
{ACAD_REACTORS
330
5FA
102
}
330
20
100
AcDbEntity
  8
STEMPEL
100
AcDbLine
 10
292.7096180382388
 20
638.2269649620176
 30
0.0
 11
290.2096180382388
 21
638.2269649620176
 31
0.0
  0
LINE
  5
3CD
102
{ACAD_REACTORS
330
5FA
102
}
330
20
100
AcDbEntity
  8
STEMPEL
100
AcDbLine
 10
289.2096180382388
 20
638.2269649620176
 30
0.0
 11
286.7096180382388
 21
638.2269649620176
 31
0.0
  0
LINE
  5
3CE
102
{ACAD_REACTORS
330
5FA
102
}
330
20
100
AcDbEntity
  8
STEMPEL
100
AcDbLine
 10
290.2096180382388
 20
639.655536390589
 30
0.0
 11
290.2096180382388
 21
634.7371064418569
 31
0.0
  0
ARC
  5
3CF
330
20
100
AcDbEntity
  8
STEMPEL
100
AcDbCircle
 10
300.7096180382388
 20
641.7541249981447
 30
0.0
 40
6.0
100
AcDbArc
 50
95.26161193126048
 51
180.0000000000002
  0
LINE
  5
3D0
102
{ACAD_REACTORS
330
5FA
102
}
330
20
100
AcDbEntity
  8
STEMPEL
100
AcDbLine
 10
290.2096180382388
 20
672.2269649620175
 30
0.0
 11
290.2096180382388
 21
662.2269649620176
 31
0.0
  0
LINE
  5
3D1
102
{ACAD_REACTORS
330
5FA
102
}
330
20
100
AcDbEntity
  8
STEMPEL
100
AcDbLine
 10
292.7096180382388
 20
672.2269649620175
 30
0.0
 11
292.7096180382388
 21
662.2269649620176
 31
0.0
  0
LINE
  5
3D2
102
{ACAD_REACTORS
330
5FA
102
}
330
20
100
AcDbEntity
  8
STEMPEL
100
AcDbLine
 10
292.7096180382388
 20
662.2269649620176
 30
0.0
 11
287.7096180382388
 21
662.2269649620176
 31
0.0
  0
POINT
  5
3D3
330
20
100
AcDbEntity
  8
DEFPOINTS
  6
ByBlock
 62
     0
100
AcDbPoint
 10
290.2096180382388
 20
672.2269649620176
 30
0.0
  0
LINE
  5
3D5
330
20
100
AcDbEntity
  8
STEMPEL
100
AcDbLine
 10
342.7088716948762
 20
649.1814467663592
 30
0.0
 11
329.2274594951048
 21
652.0516031284528
 31
0.0
  0
LINE
  5
3D6
330
20
100
AcDbEntity
  8
STEMPEL
100
AcDbLine
 10
342.2846032140501
 20
647.2269493951191
 30
0.0
 11
328.8109983951531
 21
650.095443586844
 31
0.0
  0
LINE
  5
3D7
330
20
100
AcDbEntity
  8
STEMPEL
100
AcDbLine
 10
342.7088716948762
 20
649.1814467663592
 30
0.0
 11
342.2846065932025
 21
647.2269649620177
 31
0.0
  0
ARC
  5
3D8
330
20
100
AcDbEntity
  8
STEMPEL
100
AcDbCircle
 10
327.5616150952981
 20
644.2269649620177
 30
0.0
 40
8.0
100
AcDbArc
 50
77.98132192185753
 51
95.26161193126052
  0
ARC
  5
3D9
330
20
100
AcDbEntity
  8
STEMPEL
100
AcDbCircle
 10
327.5616150952981
 20
644.2269649620177
 30
0.0
 40
6.0
100
AcDbArc
 50
77.98132192185772
 51
95.26161193126062
  0
TEXT
  5
3DA
330
20
100
AcDbEntity
  8
TEXT
100
AcDbText
 10
480.4045780774092
 20
470.2031266103855
 30
0.0
 40
5.0
  1
Erstellt mit AUTOCAD 2004
 50
90.0
 41
0.8
  7
GREEKS
100
AcDbText
  0
LINE
  5
3DB
330
20
100
AcDbEntity
  8
HILF
100
AcDbLine
 10
524.0
 20
470.0
 30
0.0
 11
524.0
 21
566.0000000000001
 31
0.0
  0
LINE
  5
3DC
330
20
100
AcDbEntity
  8
HILF
100
AcDbLine
 10
514.0
 20
470.0
 30
0.0
 11
514.0
 21
566.0000000000001
 31
0.0
  0
LINE
  5
3DD
330
20
100
AcDbEntity
  8
HILF
100
AcDbLine
 10
504.0
 20
470.0
 30
0.0
 11
504.0
 21
566.0000000000001
 31
0.0
  0
LINE
  5
3DE
330
20
100
AcDbEntity
  8
HILF
100
AcDbLine
 10
494.0
 20
470.0
 30
0.0
 11
494.0
 21
566.0000000000001
 31
0.0
  0
LINE
  5
3DF
330
20
100
AcDbEntity
  8
HILF
100
AcDbLine
 10
524.0
 20
566.0000000000001
 30
0.0
 11
524.0
 21
649.9999999999999
 31
0.0
  0
TEXT
  5
3E0
330
20
100
AcDbEntity
  8
TEXT
100
AcDbText
 10
491.5379104912911
 20
573.5163572150375
 30
0.0
 40
5.0
  1
Maßstab
 50
90.0
 41
0.8
  7
GREEKS
100
AcDbText
  0
TEXT
  5
3E1
330
20
100
AcDbEntity
  8
TEXT
 62
     1
100
AcDbText
 10
507.7758949562678
 20
578.8064310364449
 30
0.0
 40
7.0
  1
1:2
 50
90.0
 41
0.8
  7
GREEKS
100
AcDbText
  0
TEXT
  5
3E2
330
20
100
AcDbEntity
  8
TEXT
100
AcDbText
 10
520.8541631609584
 20
568.5426010951829
 30
0.0
 40
3.6
  1
2008
 50
90.0
 41
0.8
  7
GREEKS
100
AcDbText
  0
TEXT
  5
3E3
330
20
100
AcDbEntity
  8
TEXT
100
AcDbText
 10
530.3700963038204
 20
567.5836127167614
 30
0.0
 40
3.6
  1
Gez.
 50
90.0
 41
0.8
  7
GREEKS
100
AcDbText
  0
TEXT
  5
3E4
330
20
100
AcDbEntity
  8
TEXT
100
AcDbText
 10
520.6811949877008
 20
592.3311673153649
 30
0.0
 40
3.6
  1
Tag
 50
90.0
 41
0.8
  7
GREEKS
100
AcDbText
  0
TEXT
  5
3E5
330
20
100
AcDbEntity
  8
TEXT
100
AcDbText
 10
491.5815831565181
 20
617.9646614905597
 30
0.0
 40
5.0
  1
zul.Abw
 50
90.0
 41
0.8
  7
GREEKS
100
AcDbText
  0
TEXT
  5
3E6
330
20
100
AcDbEntity
  8
TEXT
100
AcDbText
 10
520.6903890808478
 20
622.4626584226294
 30
0.0
 40
3.6
  1
Name
 50
90.0
 41
0.8
  7
GREEKS
100
AcDbText
  0
TEXT
  5
3E8
330
20
100
AcDbEntity
  8
TEXT
 62
     1
100
AcDbText
 10
506.9813625823642
 20
769.0377728175697
 30
0.0
 40
7.0
  1
16111100W
 50
90.0
 41
0.8
  7
GREEKS
 72
     1
 11
506.9813625823642
 21
790.3711061509031
 31
0.0
100
AcDbText
  0
LINE
  5
3E9
330
20
100
AcDbEntity
  8
HILF
100
AcDbLine
 10
510.2201636304418
 20
756.7238616296994
 30
0.0
 11
510.2201636304418
 21
824.8588839326728
 31
0.0
  0
TEXT
  5
3EB
330
20
100
AcDbEntity
  8
TEXT
100
AcDbText
 10
491.6867965462863
 20
756.1787549576341
 30
0.0
 40
5.0
  1
Zeichnungs Nr.
 50
90.0
 41
0.8
  7
GREEKS
100
AcDbText
  0
TEXT
  5
3EC
330
20
100
AcDbEntity
  8
TEXT
100
AcDbText
 10
520.8188176290003
 20
756.7238616296994
 30
0.0
 40
5.0
  1
Ersatz für:
 50
90.0
 41
0.8
  7
GREEKS
100
AcDbText
  0
LINE
  5
3ED
330
20
100
AcDbEntity
  8
STEMPEL
100
AcDbLine
 10
584.0
 20
40.0
 30
0.0
 11
584.0
 21
830.0
 31
0.0
  0
LINE
  5
3EE
330
20
100
AcDbEntity
  8
HILF
100
AcDbLine
 10
594.0
 20
0.0
 30
0.0
 11
594.0
 21
840.0000000000002
 31
0.0
  0
TEXT
  5
3EF
330
20
100
AcDbEntity
  8
TEXT
100
AcDbText
 10
551.8049542698645
 20
654.9713400534564
 30
0.0
 40
3.6
  1
16111100W.DWG
 50
90.0
 41
0.8
  7
GREEKS
100
AcDbText
  0
TEXT
  5
3F0
330
20
100
AcDbEntity
  8
TEXT
100
AcDbText
 10
541.2486885465454
 20
655.162303158329
 30
0.0
 40
5.0
  1
EDV-Art.Nr. 16111.100X
 50
90.0
 41
0.8
  7
GREEKS
100
AcDbText
  0
TEXT
  5
3F1
330
20
100
AcDbEntity
  8
TEXT
100
AcDbText
 10
563.1543942980694
 20
654.7422383911358
 30
0.0
 40
5.0
  1
Bauvorhaben
 50
90.0
 41
0.8
  7
GREEKS
100
AcDbText
  0
LINE
  5
3F2
330
20
100
AcDbEntity
  8
HILF
100
AcDbLine
 10
579.1060174197169
 20
654.7736801096947
 30
0.0
 11
579.1060174197169
 21
824.8588839326728
 31
0.0
  0
LINE
  5
3F3
330
20
100
AcDbEntity
  8
HILF
100
AcDbLine
 10
544.0
 20
654.7736801096947
 30
0.0
 11
544.0
 21
746.629784251481
 31
0.0
  0
LINE
  5
3F4
330
20
100
AcDbEntity
  8
HILF
100
AcDbLine
 10
534.0
 20
654.7736801096947
 30
0.0
 11
534.0
 21
746.629784251481
 31
0.0
  0
LINE
  5
3F5
330
20
100
AcDbEntity
  8
STEMPEL
100
AcDbLine
 10
554.0
 20
830.0
 30
0.0
 11
554.0
 21
565.9999999999999
 31
0.0
  0
LINE
  5
3F8
330
20
100
AcDbEntity
  8
HILF
100
AcDbLine
 10
554.0
 20
470.0
 30
0.0
 11
554.0
 21
566.0000000000001
 31
0.0
  0
LINE
  5
3F9
330
20
100
AcDbEntity
  8
HILF
100
AcDbLine
 10
544.0
 20
470.0
 30
0.0
 11
544.0
 21
566.0000000000001
 31
0.0
  0
LINE
  5
3FA
330
20
100
AcDbEntity
  8
HILF
100
AcDbLine
 10
534.0
 20
470.0
 30
0.0
 11
534.0
 21
566.0000000000001
 31
0.0
  0
LINE
  5
3FB
330
20
100
AcDbEntity
  8
STEMPEL
100
AcDbLine
 10
564.0
 20
565.9999999999999
 30
0.0
 11
564.0
 21
469.9999999999999
 31
0.0
  0
TEXT
  5
3FC
330
20
100
AcDbEntity
  8
TEXT
100
AcDbText
 10
580.3453415397281
 20
478.2664110704574
 30
0.0
 40
3.6
  1
Index
 50
180.0
 41
0.8
  7
GREEKS
100
AcDbText
  0
LINE
  5
3FE
330
20
100
AcDbEntity
  8
BEM
100
AcDbLine
 10
594.0
 20
460.0
 30
0.0
 11
584.0
 21
460.0
 31
0.0
  0
TEXT
  5
400
330
20
100
AcDbEntity
  8
TEXT
100
AcDbText
 10
575.7344248114842
 20
492.8541541453389
 30
0.0
 40
4.0
  1
Änderung
 50
90.0
 41
0.8
  7
GREEKS
 72
     4
 11
574.0201390971986
 21
503.5970112881961
 31
0.0
100
AcDbText
  0
INSERT
  5
403
330
20
100
AcDbEntity
  8
STEMPEL
100
AcDbBlockReference
  2
LOGO
 10
549.6760802813285
 20
568.9705276546529
 30
0.0
 41
2.0
 42
2.0
 43
2.0
 50
90.0
  0
LINE
  5
404
330
20
100
AcDbEntity
  8
HILF
100
AcDbLine
 10
544.0
 20
566.0000000000001
 30
0.0
 11
544.0
 21
649.9999999999999
 31
0.0
  0
LINE
  5
405
330
20
100
AcDbEntity
  8
HILF
100
AcDbLine
 10
534.0
 20
566.0000000000001
 30
0.0
 11
534.0
 21
649.9999999999999
 31
0.0
  0
TEXT
  5
406
330
20
100
AcDbEntity
  8
TEXT
100
AcDbText
 10
540.3107370857163
 20
567.5515086571671
 30
0.0
 40
3.6
  1
Gepr.
 50
90.0
 41
0.8
  7
GREEKS
100
AcDbText
  0
TEXT
  5
407
330
20
100
AcDbEntity
  8
TEXT
100
AcDbText
 10
550.470536103502
 20
567.6006777387303
 30
0.0
 40
3.6
  1
Norm.
 50
90.0
 41
0.8
  7
GREEKS
100
AcDbText
  0
LINE
  5
408
330
20
100
AcDbEntity
  8
VOLL
100
AcDbLine
 10
534.0
 20
752.0000000000001
 30
0.0
 11
534.0
 21
830.0
 31
0.0
  0
TEXT
  5
409
330
20
100
AcDbEntity
  8
TEXT
100
AcDbText
 10
541.925838221214
 20
757.2400861497007
 30
0.0
 40
5.0
  1
ersetzt durch:
 50
90.0
 41
0.8
  7
GREEKS
100
AcDbText
  0
TEXT
  5
54A
330
20
100
AcDbEntity
  8
TEXT
100
AcDbText
 10
576.0201390971985
 20
548.6060590681177
 30
0.0
 40
4.0
  1
Name
 50
90.0
 41
0.8
  7
GREEKS
 72
     4
 11
574.0201390971986
 21
554.9298685919271
 31
0.0
100
AcDbText
  0
TEXT
  5
54B
330
20
100
AcDbEntity
  8
TEXT
100
AcDbText
 10
575.3534724305319
 20
530.3153726668427
 30
0.0
 40
4.0
  1
Tag
 50
90.0
 41
0.8
  7
GREEKS
 72
     4
 11
574.0201390971986
 21
534.0487060001761
 31
0.0
100
AcDbText
  0
LINE
  5
5AD
102
{ACAD_REACTORS
330
5FA
330
62F
102
}
330
20
100
AcDbEntity
  8
STEMPEL
100
AcDbLine
 10
148.9253366821569
 20
628.9252333485716
 30
0.0
 11
161.4808291012742
 21
600.2269649620176
 31
0.0
  0
LINE
  5
5AE
102
{ACAD_REACTORS
330
5FA
330
62F
102
}
330
20
100
AcDbEntity
  8
STEMPEL
100
AcDbLine
 10
291.4938993943206
 20
628.9252333485713
 30
0.0
 11
278.9384069752034
 21
600.2269649620177
 31
0.0
  0
ARC
  5
5C2
102
{ACAD_REACTORS
330
5FA
102
}
330
20
100
AcDbEntity
  8
STEMPEL
100
AcDbCircle
 10
162.2096180382387
 20
634.7371064418573
 30
0.0
 40
12.0
100
AcDbArc
 50
180.0
 51
203.6293777306567
  0
ARC
  5
5C4
102
{ACAD_REACTORS
330
5FA
102
}
330
20
100
AcDbEntity
  8
STEMPEL
100
AcDbCircle
 10
162.2096180382387
 20
634.7371064418573
 30
0.0
 40
14.5
100
AcDbArc
 50
180.0
 51
203.6293777306567
  0
ARC
  5
5C5
102
{ACAD_REACTORS
330
5FA
102
}
330
20
100
AcDbEntity
  8
STEMPEL
100
AcDbCircle
 10
278.2096180382388
 20
634.7371064418569
 30
0.0
 40
12.0
100
AcDbArc
 50
336.3706222693432
 51
0.0
  0
ARC
  5
5C7
102
{ACAD_REACTORS
330
5FA
102
}
330
20
100
AcDbEntity
  8
STEMPEL
100
AcDbCircle
 10
278.2096180382388
 20
634.7371064418569
 30
0.0
 40
14.5
100
AcDbArc
 50
336.3706222693432
 51
0.0
  0
HATCH
  5
5FA
330
20
100
AcDbEntity
  8
SCHRAFF
100
AcDbHatch
 10
0.0
 20
0.0
 30
0.0
210
0.0
220
0.0
230
1.0
  2
_USER
 70
     0
 71
     1
 91
        6
 92
        7
 72
     0
 73
     1
 93
        4
 10
290.2096180382388
 20
662.2269649620176
 10
292.7096180382387
 20
662.2269649620176
 10
292.7096180382387
 20
672.2269649620174
 10
290.2096180382388
 20
672.2269649620174
 97
        4
330
36C
330
3D0
330
3D2
330
3D1
 92
        7
 72
     0
 73
     1
 93
        4
 10
286.7096180382388
 20
638.2269649620176
 10
289.2096180382388
 20
638.2269649620176
 10
290.2096180382388
 20
662.2269649620176
 10
287.7096180382388
 20
662.2269649620176
 97
        4
330
3D2
330
3C2
330
3CD
330
3C3
 92
        7
 72
     1
 73
     1
 93
        8
 10
289.203506057065
 20
629.9272804336204
 42
0.0
 10
276.2096180382388
 20
600.2269649620177
 42
0.0
 10
278.9384069752033
 20
600.2269649620176
 42
0.0
 10
291.4938993943206
 20
628.9252333485713
 42
0.1034695025373801
 10
292.7096180382388
 20
634.7371064418569
 42
0.0
 10
292.7096180382388
 20
638.2269649620176
 42
0.0
 10
290.2096180382389
 20
638.2269649620176
 42
0.0
 10
290.2096180382388
 20
634.7371064418569
 42
-0.103469502537383
 97
        8
330
3C8
330
3CC
330
3CE
330
5C5
330
3A8
330
36B
330
5AE
330
5C7
 92
        7
 72
     0
 73
     1
 93
        4
 10
147.7096180382387
 20
662.2269649620177
 10
150.2096180382388
 20
662.2269649620177
 10
150.2096180382388
 20
672.2269649620176
 10
147.7096180382387
 20
672.2269649620176
 97
        4
330
36C
330
392
330
393
330
391
 92
        7
 72
     0
 73
     1
 93
        4
 10
152.7096180382387
 20
662.2269649620177
 10
150.2096180382387
 20
662.2269649620176
 10
151.2096180382387
 20
638.2269649620176
 10
153.7096180382387
 20
638.2269649620176
 97
        4
330
393
330
384
330
38D
330
385
 92
        7
 72
     1
 73
     1
 93
        8
 10
150.2096180382387
 20
638.2269649620176
 42
0.0
 10
147.7096180382388
 20
638.2269649620175
 42
0.0
 10
147.7096180382388
 20
634.7371064418572
 42
0.1034695025373814
 10
148.925336682157
 20
628.9252333485713
 42
0.0
 10
161.4808291012742
 20
600.2269649620177
 42
0.0
 10
164.2096180382386
 20
600.2269649620176
 42
0.0
 10
151.2157300194125
 20
629.9272804336209
 42
-0.1034695025373797
 10
150.2096180382388
 20
634.7371064418573
 42
0.0
 97
        8
330
38F
330
389
330
5C4
330
5AD
330
36B
330
37E
330
5C2
330
390
 75
     0
 76
     0
 52
45.0
 41
2.0
 77
     0
 78
     1
 53
45.0
 43
0.0
 44
0.0
 45
-1.414213562373094
 46
1.414213562373095
 79
     0
 47
0.4282532414348583
 98
        6
 10
291.4069813450874
 20
667.4258059723586
 10
288.4069794114425
 20
655.4347160804788
 10
290.9784090938619
 20
634.0220531560846
 10
148.2640942314983
 20
669.1388185313287
 10
152.1212368426613
 20
657.147728639449
 10
149.1212387339492
 20
635.7350657150548
  0
HATCH
  5
621
330
20
100
AcDbEntity
  8
SCHRAFF
100
AcDbHatch
 10
0.0
 20
0.0
 30
0.0
210
0.0
220
0.0
230
1.0
  2
_USER
 70
     0
 71
     1
 91
        2
 92
        7
 72
     0
 73
     1
 93
        8
 10
271.2096180382387
 20
556.9967239330177
 10
278.2633409450054
 20
600.2269649620179
 10
276.2096180382388
 20
600.2269649620179
 10
269.2096180382388
 20
557.2269649620174
 10
269.2096180382388
 20
420.226964962018
 10
268.3347314029796
 20
410.2269649620176
 10
270.3347314029795
 20
410.2269649620175
 10
271.2096180382388
 20
420.2269649620172
 97
        8
330
3AA
330
36B
330
3AB
330
3A4
330
33C
330
34B
330
33B
330
3A5
 92
        7
 72
     0
 73
     1
 93
        8
 10
171.2096180382387
 20
557.2269649620174
 10
164.2096180382387
 20
600.2269649620177
 10
162.1558951314723
 20
600.2269649620175
 10
169.2096180382387
 20
556.996723933018
 10
169.2096180382387
 20
420.2269649620176
 10
170.084504673498
 20
410.2269649620176
 10
172.084504673498
 20
410.2269649620176
 10
171.2096180382387
 20
420.2269649620175
 97
        8
330
380
330
36B
330
37F
330
370
330
33E
330
34B
330
33D
330
36F
 75
     0
 76
     0
 52
135.0
 41
2.0
 77
     0
 78
     1
 53
135.0
 43
0.0
 44
0.0
 45
-1.414213562373095
 46
-1.414213562373094
 79
     0
 47
0.6844640737748891
 98
        2
 10
270.098659097067
 20
527.4276085221579
 10
170.777610746803
 20
533.5877849953756
  0
HATCH
  5
62F
330
20
100
AcDbEntity
  8
SCHRAFF
100
AcDbHatch
 10
0.0
 20
0.0
 30
0.0
210
0.0
220
0.0
230
1.0
  2
_USER
 70
     0
 71
     1
 91
        2
 92
        7
 72
     1
 73
     1
 93
        4
 10
279.5840460632834
 20
601.7027114490579
 42
0.0
 10
278.9384069752034
 20
600.2269649620179
 42
0.0
 10
278.2633409450055
 20
600.2269649620179
 42
0.0
 10
277.7872634325127
 20
597.309222673927
 42
0.4950322819736291
 97
        4
330
5AE
330
36B
330
3AA
330
3AC
 92
        7
 72
     1
 73
     1
 93
        4
 10
162.1558951314722
 20
600.2269649620177
 42
0.0
 10
161.4808291012742
 20
600.2269649620176
 42
0.0
 10
160.8351900131942
 20
601.7027114490578
 42
0.4950322819736338
 10
162.631972643965
 20
597.309222673927
 42
0.0
 97
        4
330
36B
330
5AD
330
381
330
37F
 75
     0
 76
     0
 52
0.0
 41
0.1
 77
     0
 78
     1
 53
0.0
 43
0.0
 44
0.0
 45
0.0
 46
0.1
 79
     0
 47
0.1740735806194899
 98
        2
 10
279.2493902019533
 20
600.203884991976
 10
161.8366007101708
 20
598.9853696475095
  0
TEXT
  5
630
330
20
100
AcDbEntity
  8
TEXT
100
AcDbText
 10
506.3722848492374
 20
613.3300756808027
 30
0.0
 40
4.0
  1
DIN EN1123-2
 50
90.0
 41
0.8
  7
GREEKS
100
AcDbText
  0
LINE
  5
67E
330
20
100
AcDbEntity
  8
HILF
100
AcDbLine
 10
153.0472389939521
 20
632.2269649620177
 30
0.0
 11
287.3719970825258
 21
632.2269649620174
 31
0.0
  0
TEXT
  5
700
330
20
100
AcDbEntity
  8
TEXT
 62
     1
100
AcDbText
 10
456.7390342146671
 20
665.5421703459327
 30
0.0
 40
7.0
  1
innen und außen beschichtet
 50
90.0
 41
0.8
  7
GREEKS
100
AcDbText
  0
TEXT
  5
701
330
20
100
AcDbEntity
  8
TEXT
 62
     1
100
AcDbText
 10
445.9473217175687
 20
617.5924529085349
 30
0.0
 40
7.0
  1
Werkstoff: E195 EN10305, St37 feuerverzinkt
 50
90.0
 41
0.8
  7
GREEKS
100
AcDbText
  0
TEXT
  5
702
330
20
100
AcDbEntity
  8
TEXT
 62
     1
100
AcDbText
 10
203.6623631759697
 20
468.5800621314373
 30
0.0
 40
7.0
  1
DN100
 50
90.0
 41
0.8
  7
GREEKS
100
AcDbText
  0
LINE
  5
910
330
20
100
AcDbEntity
  8
VERDECKT
100
AcDbLine
 10
252.4447046442712
 20
155.0548232816428
 30
0.0
 11
255.0551503722728
 21
156.5333986503428
 31
0.0
  0
LINE
  5
911
330
20
100
AcDbEntity
  8
STEMPEL
100
AcDbLine
 10
249.9446196429707
 20
159.3850975271363
 30
0.0
 11
252.5550653709723
 21
160.8636728958364
 31
0.0
  0
ARC
  5
912
330
20
100
AcDbEntity
  8
BEM
100
AcDbCircle
 10
253.4462389422803
 20
153.3201149919682
 30
0.0
 40
3.0
100
AcDbArc
 50
119.9999999999999
 51
207.1190456226771
  0
INSERT
  5
913
330
20
100
AcDbEntity
  8
BEM
100
AcDbBlockReference
  2
*X2
 10
-43.79973704143957
 20
336.3873956403879
 30
0.0
 41
-1.0
 50
180.0
1001
ACAD
1000
HATCH
1002
{
1070
    16
1000
_U,I
1040
0.1
1040
2.356194490192344
1070
     0
1002
}
  0
LINE
  5
914
330
20
100
AcDbEntity
  8
STEMPEL
100
AcDbLine
 10
242.9399916114467
 20
171.517469165857
 30
0.0
 11
245.5539747875254
 21
172.9899174947585
 31
0.0
  0
LINE
  5
915
330
20
100
AcDbEntity
  8
STEMPEL
100
AcDbLine
 10
242.5532899301765
 20
178.1872561251892
 30
0.0
 11
256.0554470467615
 21
154.8008339874862
 31
0.0
  0
POINT
  5
916
330
20
100
AcDbEntity
  8
DEFPOINTS
  6
ByBlock
 62
     0
100
AcDbPoint
 10
239.9370843337698
 20
176.7186571412117
 30
0.0
  0
LINE
  5
917
330
20
100
AcDbEntity
  8
STEMPEL
100
AcDbLine
 10
239.9370843337698
 20
176.7186571412117
 30
0.0
 11
253.4462389422803
 21
153.3201149919682
 31
0.0
  0
LINE
  5
918
330
20
100
AcDbEntity
  8
STEMPEL
100
AcDbLine
 10
239.9370843337698
 20
176.7186571412117
 30
0.0
 11
242.5532899301765
 21
178.1872561251892
 31
0.0
  0
LINE
  5
919
330
20
100
AcDbEntity
  8
VERDECKT
100
AcDbLine
 10
201.5554890765164
 20
144.867269268384
 30
0.0
 11
168.8637469999612
 21
163.7418553565609
 31
0.0
  0
LINE
  5
91A
330
20
100
AcDbEntity
  8
STEMPEL
100
AcDbLine
 10
202.5161587615702
 20
147.199377713064
 30
0.0
 11
170.4030773149073
 21
165.7398739308031
 31
0.0
  0
CIRCLE
  5
91B
330
20
100
AcDbEntity
  8
STEMPEL
100
AcDbCircle
 10
219.609918824353
 20
214.9263405773832
 30
0.0
 40
122.5
  0
CIRCLE
  5
91D
330
20
100
AcDbEntity
  8
STEMPEL
100
AcDbCircle
 10
220.2096180382388
 20
214.9263405773832
 30
0.0
 40
72.5
  0
CIRCLE
  5
91E
330
20
100
AcDbEntity
  8
STEMPEL
100
AcDbCircle
 10
220.2096180382388
 20
214.9263405773832
 30
0.0
 40
70.0
  0
ENDSEC
  0
SECTION
  2
OBJECTS
  0
DICTIONARY
  5
C
330
0
100
AcDbDictionary
281
     1
  3
ACAD_COLOR
350
1B
  3
ACAD_GROUP
350
D
  3
ACAD_LAYOUT
350
19
  3
ACAD_MATERIAL
350
1A
  3
ACAD_MLINESTYLE
350
16
  3
ACAD_PLOTSETTINGS
350
18
  3
ACAD_PLOTSTYLENAME
350
E
  3
AcDbVariableDictionary
350
574
  0
DICTIONARY
  5
1B
102
{ACAD_REACTORS
330
C
102
}
330
C
100
AcDbDictionary
281
     1
  0
DICTIONARY
  5
D
102
{ACAD_REACTORS
330
C
102
}
330
C
100
AcDbDictionary
281
     1
  0
DICTIONARY
  5
19
102
{ACAD_REACTORS
330
C
102
}
330
C
100
AcDbDictionary
281
     1
  3
Layout1
350
1F
  3
Model
350
23
  0
DICTIONARY
  5
1A
102
{ACAD_REACTORS
330
C
102
}
330
C
100
AcDbDictionary
281
     1
  0
DICTIONARY
  5
16
102
{ACAD_REACTORS
330
C
102
}
330
C
100
AcDbDictionary
281
     1
  3
Standard
350
17
  0
DICTIONARY
  5
18
102
{ACAD_REACTORS
330
C
102
}
330
C
100
AcDbDictionary
281
     1
  0
ACDBDICTIONARYWDFLT
  5
E
102
{ACAD_REACTORS
330
C
102
}
330
C
100
AcDbDictionary
281
     1
  3
Normal
350
F
100
AcDbDictionaryWithDefault
340
F
  0
DICTIONARY
  5
574
102
{ACAD_REACTORS
330
C
102
}
330
C
100
AcDbDictionary
281
     1
  3
DIMASSOC
350
576
  3
HIDETEXT
350
575
  3
PROJECTNAME
350
577
  0
LAYOUT
  5
1F
102
{ACAD_REACTORS
330
19
102
}
330
19
100
AcDbPlotSettings
  1

  2
RICOH Aficio 2027 PCL 6
  4

  6

 40
0.0
 41
0.0
 42
0.0
 43
0.0
 44
0.0
 45
0.0
 46
0.0
 47
0.0
 48
0.0
 49
0.0
140
0.0
141
0.0
142
1.0
143
1.0
 70
   688
 72
     0
 73
     0
 74
     5
  7
monochrome1.ctb
 75
    16
147
1.0
 76
     0
 77
     2
 78
   300
148
0.0
149
0.0
100
AcDbLayout
  1
Layout1
 70
     0
 71
     1
 10
0.0
 20
0.0
 11
12.0
 21
9.0
 12
3.174945865668594
 22
50.00000000000001
 32
-1.45999203468817
 14
1.000000000000000E+20
 24
1.000000000000000E+20
 34
1.000000000000000E+20
 15
-1.000000000000000E+20
 25
-1.000000000000000E+20
 35
-1.000000000000000E+20
146
0.0
 13
0.0
 23
0.0
 33
0.0
 16
1.0
 26
0.0
 36
0.0
 17
0.0
 27
1.0
 37
0.0
 76
     0
330
1C
  0
LAYOUT
  5
23
102
{ACAD_REACTORS
330
19
102
}
330
19
100
AcDbPlotSettings
  1

  2
RICOH Aficio 2027 PCL 6
  4
A4
  6

 40
5.027083396911621
 41
5.027085304260253
 42
5.027084350585937
 43
5.027069091796875
 44
209.9733276367187
 45
296.9259948730469
 46
0.0
 47
0.0
 48
0.0
 49
0.0
140
0.0
141
0.0
142
1.0
143
1.0
 70
 11952
 72
     0
 73
     1
 74
     0
  7

 75
     0
147
1.0
 76
     0
 77
     2
 78
   300
148
3251.356832461147
149
127.1568179129461
100
AcDbLayout
  1
Model
 70
     1
 71
     0
 10
0.0
 20
0.0
 11
12.0
 21
9.0
 12
0.0
 22
0.0
 32
0.0
 14
0.0
 24
0.0
 34
0.0
 15
0.0
 25
0.0
 35
0.0
146
0.0
 13
0.0
 23
0.0
 33
0.0
 16
1.0
 26
0.0
 36
0.0
 17
0.0
 27
1.0
 37
0.0
 76
     0
330
20
  0
MLINESTYLE
  5
17
102
{ACAD_REACTORS
330
16
102
}
330
16
100
AcDbMlineStyle
  2
STANDARD
 70
     0
  3

 62
   256
 51
90.0
 52
90.0
 71
     2
 49
0.5
 62
   256
  6
BYLAYER
 49
-0.5
 62
   256
  6
BYLAYER
  0
ACDBPLACEHOLDER
  5
F
102
{ACAD_REACTORS
330
E
102
}
330
E
  0
DICTIONARYVAR
  5
576
102
{ACAD_REACTORS
330
574
102
}
330
574
100
DictionaryVariables
280
     0
  1
2
  0
DICTIONARYVAR
  5
575
102
{ACAD_REACTORS
330
574
102
}
330
574
100
DictionaryVariables
280
     0
  1
1
  0
DICTIONARYVAR
  5
577
102
{ACAD_REACTORS
330
574
102
}
330
574
100
DictionaryVariables
280
     0
  1

  0
ENDSEC
  0
EOF
