  0
SECTION
  2
HEADER
  9
$ACADVER
  1
AC1018
  9
$ACADMAINTVER
 70
     2
  9
$DWGCODEPAGE
  3
ANSI_1252
  9
$INSBASE
 10
0.0
 20
0.0
 30
0.0
  9
$EXTMIN
 10
-0.0271749795954293
 20
-0.0384292640749209
 30
-0.000000000000013
  9
$EXTMAX
 10
594.0271991839242
 20
840.038463492419
 30
0.0000000000000023
  9
$LIMMIN
 10
0.0
 20
0.0
  9
$LIMMAX
 10
594.0
 20
840.0000000000002
  9
$ORTHOMODE
 70
     1
  9
$REGENMODE
 70
     1
  9
$FILLMODE
 70
     1
  9
$QTEXTMODE
 70
     0
  9
$MIRRTEXT
 70
     1
  9
$LTSCALE
 40
20.0
  9
$ATTMODE
 70
     1
  9
$TEXTSIZE
 40
3.5
  9
$TRACEWID
 40
1.0
  9
$TEXTSTYLE
  7
STANDARD
  9
$CLAYER
  8
BEM
  9
$CELTYPE
  6
ByLayer
  9
$CECOLOR
 62
   256
  9
$CELTSCALE
 40
1.0
  9
$DISPSILH
 70
     0
  9
$DIMSCALE
 40
2.0
  9
$DIMASZ
 40
3.5
  9
$DIMEXO
 40
1.0
  9
$DIMDLI
 40
7.0
  9
$DIMRND
 40
0.0
  9
$DIMDLE
 40
0.0
  9
$DIMEXE
 40
1.0
  9
$DIMTP
 40
1.0
  9
$DIMTM
 40
1.0
  9
$DIMTXT
 40
3.5
  9
$DIMCEN
 40
1.5
  9
$DIMTSZ
 40
0.0
  9
$DIMTOL
 70
     0
  9
$DIMLIM
 70
     0
  9
$DIMTIH
 70
     0
  9
$DIMTOH
 70
     0
  9
$DIMSE1
 70
     0
  9
$DIMSE2
 70
     0
  9
$DIMTAD
 70
     1
  9
$DIMZIN
 70
     8
  9
$DIMBLK
  1

  9
$DIMASO
 70
     1
  9
$DIMSHO
 70
     0
  9
$DIMPOST
  1

  9
$DIMAPOST
  1

  9
$DIMALT
 70
     0
  9
$DIMALTD
 70
     2
  9
$DIMALTF
 40
25.4
  9
$DIMLFAC
 40
1.0
  9
$DIMTOFL
 70
     1
  9
$DIMTVP
 40
0.2857142857142857
  9
$DIMTIX
 70
     0
  9
$DIMSOXD
 70
     0
  9
$DIMSAH
 70
     0
  9
$DIMBLK1
  1

  9
$DIMBLK2
  1

  9
$DIMSTYLE
  2
Standard
  9
$DIMCLRD
 70
     0
  9
$DIMCLRE
 70
     0
  9
$DIMCLRT
 70
     1
  9
$DIMTFAC
 40
0.5142857142857144
  9
$DIMGAP
 40
1.5
  9
$DIMJUST
 70
     0
  9
$DIMSD1
 70
     0
  9
$DIMSD2
 70
     0
  9
$DIMTOLJ
 70
     1
  9
$DIMTZIN
 70
     8
  9
$DIMALTZ
 70
     8
  9
$DIMALTTZ
 70
     8
  9
$DIMUPT
 70
     0
  9
$DIMDEC
 70
     2
  9
$DIMTDEC
 70
     2
  9
$DIMALTU
 70
     2
  9
$DIMALTTD
 70
     2
  9
$DIMTXSTY
  7
STANDARD
  9
$DIMAUNIT
 70
     0
  9
$DIMADEC
 70
     2
  9
$DIMALTRND
 40
0.0
  9
$DIMAZIN
 70
     2
  9
$DIMDSEP
 70
    46
  9
$DIMATFIT
 70
     3
  9
$DIMFRAC
 70
     0
  9
$DIMLDRBLK
  1

  9
$DIMLUNIT
 70
     2
  9
$DIMLWD
 70
    -2
  9
$DIMLWE
 70
    -2
  9
$DIMTMOVE
 70
     0
  9
$LUNITS
 70
     2
  9
$LUPREC
 70
     2
  9
$SKETCHINC
 40
1.0
  9
$FILLETRAD
 40
7.599999999999999
  9
$AUNITS
 70
     0
  9
$AUPREC
 70
     0
  9
$MENU
  1
ACAD
  9
$ELEVATION
 40
0.0
  9
$PELEVATION
 40
0.0
  9
$THICKNESS
 40
0.0
  9
$LIMCHECK
 70
     0
  9
$CHAMFERA
 40
0.5
  9
$CHAMFERB
 40
0.5
  9
$CHAMFERC
 40
0.0
  9
$CHAMFERD
 40
0.0
  9
$SKPOLY
 70
     0
  9
$TDCREATE
 40
2452535.584913889
  9
$TDUCREATE
 40
2452535.501580555
  9
$TDUPDATE
 40
2455461.560338114
  9
$TDUUPDATE
 40
2455461.477004780
  9
$TDINDWG
 40
0.1397426968
  9
$TDUSRTIMER
 40
0.1397426968
  9
$USRTIMER
 70
     1
  9
$ANGBASE
 50
0.0
  9
$ANGDIR
 70
     0
  9
$PDMODE
 70
     0
  9
$PDSIZE
 40
0.0
  9
$PLINEWID
 40
0.0
  9
$SPLFRAME
 70
     0
  9
$SPLINETYPE
 70
     6
  9
$SPLINESEGS
 70
     8
  9
$HANDSEED
  5
7ED
  9
$SURFTAB1
 70
     6
  9
$SURFTAB2
 70
     6
  9
$SURFTYPE
 70
     6
  9
$SURFU
 70
     6
  9
$SURFV
 70
     6
  9
$UCSBASE
  2

  9
$UCSNAME
  2

  9
$UCSORG
 10
0.0
 20
0.0
 30
0.0
  9
$UCSXDIR
 10
1.0
 20
0.0
 30
0.0
  9
$UCSYDIR
 10
0.0
 20
1.0
 30
0.0
  9
$UCSORTHOREF
  2

  9
$UCSORTHOVIEW
 70
     0
  9
$UCSORGTOP
 10
0.0
 20
0.0
 30
0.0
  9
$UCSORGBOTTOM
 10
0.0
 20
0.0
 30
0.0
  9
$UCSORGLEFT
 10
0.0
 20
0.0
 30
0.0
  9
$UCSORGRIGHT
 10
0.0
 20
0.0
 30
0.0
  9
$UCSORGFRONT
 10
0.0
 20
0.0
 30
0.0
  9
$UCSORGBACK
 10
0.0
 20
0.0
 30
0.0
  9
$PUCSBASE
  2

  9
$PUCSNAME
  2

  9
$PUCSORG
 10
0.0
 20
0.0
 30
0.0
  9
$PUCSXDIR
 10
1.0
 20
0.0
 30
0.0
  9
$PUCSYDIR
 10
0.0
 20
1.0
 30
0.0
  9
$PUCSORTHOREF
  2

  9
$PUCSORTHOVIEW
 70
     0
  9
$PUCSORGTOP
 10
0.0
 20
0.0
 30
0.0
  9
$PUCSORGBOTTOM
 10
0.0
 20
0.0
 30
0.0
  9
$PUCSORGLEFT
 10
0.0
 20
0.0
 30
0.0
  9
$PUCSORGRIGHT
 10
0.0
 20
0.0
 30
0.0
  9
$PUCSORGFRONT
 10
0.0
 20
0.0
 30
0.0
  9
$PUCSORGBACK
 10
0.0
 20
0.0
 30
0.0
  9
$USERI1
 70
     0
  9
$USERI2
 70
     0
  9
$USERI3
 70
     0
  9
$USERI4
 70
     0
  9
$USERI5
 70
     0
  9
$USERR1
 40
0.0
  9
$USERR2
 40
0.0
  9
$USERR3
 40
0.0
  9
$USERR4
 40
0.0
  9
$USERR5
 40
0.0
  9
$WORLDVIEW
 70
     1
  9
$SHADEDGE
 70
     3
  9
$SHADEDIF
 70
    70
  9
$TILEMODE
 70
     1
  9
$MAXACTVP
 70
    16
  9
$PINSBASE
 10
0.0
 20
0.0
 30
0.0
  9
$PLIMCHECK
 70
     0
  9
$PEXTMIN
 10
1.000000000000000E+20
 20
1.000000000000000E+20
 30
1.000000000000000E+20
  9
$PEXTMAX
 10
-1.000000000000000E+20
 20
-1.000000000000000E+20
 30
-1.000000000000000E+20
  9
$PLIMMIN
 10
0.0
 20
0.0
  9
$PLIMMAX
 10
12.0
 20
9.0
  9
$UNITMODE
 70
     0
  9
$VISRETAIN
 70
     0
  9
$PLINEGEN
 70
     0
  9
$PSLTSCALE
 70
     0
  9
$TREEDEPTH
 70
  3020
  9
$CMLSTYLE
  2
Standard
  9
$CMLJUST
 70
     0
  9
$CMLSCALE
 40
1.0
  9
$PROXYGRAPHICS
 70
     1
  9
$MEASUREMENT
 70
     0
  9
$CELWEIGHT
370
    -1
  9
$ENDCAPS
280
     0
  9
$JOINSTYLE
280
     0
  9
$LWDISPLAY
290
     0
  9
$INSUNITS
 70
     0
  9
$HYPERLINKBASE
  1

  9
$STYLESHEET
  1
monochrome 1.ctb
  9
$XEDIT
290
     1
  9
$CEPSNTYPE
380
     0
  9
$PSTYLEMODE
290
     1
  9
$FINGERPRINTGUID
  2
{B8365634-EB43-47A0-870F-7FD4119D2799}
  9
$VERSIONGUID
  2
{1EB89524-CF6A-41A1-A634-65D86ED8DE43}
  9
$EXTNAMES
290
     1
  9
$PSVPSCALE
 40
0.0
  9
$OLESTARTUP
290
     0
  9
$SORTENTS
280
   127
  9
$INDEXCTL
280
     0
  9
$HIDETEXT
280
     1
  9
$XCLIPFRAME
290
     0
  9
$HALOGAP
280
     0
  9
$OBSCOLOR
 70
   257
  9
$OBSLTYPE
280
     0
  9
$INTERSECTIONDISPLAY
280
     0
  9
$INTERSECTIONCOLOR
 70
   257
  9
$DIMASSOC
280
     2
  9
$PROJECTNAME
  1

  0
ENDSEC
  0
SECTION
  2
CLASSES
  0
CLASS
  1
ACDBDICTIONARYWDFLT
  2
AcDbDictionaryWithDefault
  3
ObjectDBX Classes
 90
        0
 91
        1
280
     0
281
     0
  0
CLASS
  1
DIMASSOC
  2
AcDbDimAssoc
  3
"AcDbDimAssoc|Product Desc:     AcDim ARX App For Dimension|Company:          Autodesk, Inc.|WEB Address:      www.autodesk.com"
 90
        0
 91
        0
280
     0
281
     0
  0
CLASS
  1
DICTIONARYVAR
  2
AcDbDictionaryVar
  3
ObjectDBX Classes
 90
        0
 91
        3
280
     0
281
     0
  0
ENDSEC
  0
SECTION
  2
TABLES
  0
TABLE
  2
VPORT
  5
8
330
0
100
AcDbSymbolTable
 70
     3
  0
VPORT
  5
7EC
330
8
100
AcDbSymbolTableRecord
100
AcDbViewportTableRecord
  2
*Active
 70
     0
 10
0.0
 20
0.0
 11
1.0
 21
1.0
 12
297.0000121021644
 22
420.000017114172
 13
0.0
 23
0.0
 14
2.5
 24
2.5
 15
10.0
 25
10.0
 16
0.0
 26
0.0
 36
1.0
 17
0.0
 27
0.0
 37
0.0
 40
846.8608245957119
 41
1.336927223719676
 42
50.0
 43
0.0
 44
0.0
 50
0.0
 51
0.0
 71
     0
 72
   500
 73
     1
 74
     0
 75
     0
 76
     0
 77
     0
 78
     0
281
     0
 65
     1
110
0.0
120
0.0
130
0.0
111
1.0
121
0.0
131
0.0
112
0.0
122
1.0
132
0.0
 79
     0
146
0.0
  0
ENDTAB
  0
TABLE
  2
LTYPE
  5
5
330
0
100
AcDbSymbolTable
 70
     3
  0
LTYPE
  5
13
330
5
100
AcDbSymbolTableRecord
100
AcDbLinetypeTableRecord
  2
ByBlock
 70
     0
  3

 72
    65
 73
     0
 40
0.0
  0
LTYPE
  5
14
330
5
100
AcDbSymbolTableRecord
100
AcDbLinetypeTableRecord
  2
ByLayer
 70
     0
  3

 72
    65
 73
     0
 40
0.0
  0
LTYPE
  5
15
330
5
100
AcDbSymbolTableRecord
100
AcDbLinetypeTableRecord
  2
Continuous
 70
     0
  3
Solid line
 72
    65
 73
     0
 40
0.0
  0
LTYPE
  5
43
330
5
100
AcDbSymbolTableRecord
100
AcDbLinetypeTableRecord
  2
STRICHPUNKT
 70
     0
  3
__ . __ . __ . __ . __ . __ . __ . __ . __ . __
 72
    65
 73
     4
 40
1.0
 49
0.5
 74
     0
 49
-0.25
 74
     0
 49
0.0
 74
     0
 49
-0.25
 74
     0
  0
LTYPE
  5
44
330
5
100
AcDbSymbolTableRecord
100
AcDbLinetypeTableRecord
  2
VERDECKT
 70
     0
  3
_ _ _ _ _ _ _ _ _ _ _ _ _ _ _ _ _ _ _ _ _ _ _
 72
    65
 73
     2
 40
0.375
 49
0.25
 74
     0
 49
-0.125
 74
     0
  0
ENDTAB
  0
TABLE
  2
LAYER
  5
2
330
0
100
AcDbSymbolTable
 70
    10
  0
LAYER
  5
10
330
2
100
AcDbSymbolTableRecord
100
AcDbLayerTableRecord
  2
0
 70
     0
 62
     7
  6
Continuous
370
    -3
390
F
  0
LAYER
  5
47
330
2
100
AcDbSymbolTableRecord
100
AcDbLayerTableRecord
  2
VOLL
 70
     0
 62
     1
  6
Continuous
370
    -3
390
F
  0
LAYER
  5
48
330
2
100
AcDbSymbolTableRecord
100
AcDbLayerTableRecord
  2
MITTEL
 70
     0
 62
     2
  6
STRICHPUNKT
370
    -3
390
F
  0
LAYER
  5
49
330
2
100
AcDbSymbolTableRecord
100
AcDbLayerTableRecord
  2
BEM
 70
     0
 62
     7
  6
Continuous
370
    -3
390
F
  0
LAYER
  5
4A
330
2
100
AcDbSymbolTableRecord
100
AcDbLayerTableRecord
  2
HILF
 70
     0
 62
     2
  6
Continuous
370
    -3
390
F
  0
LAYER
  5
4B
330
2
100
AcDbSymbolTableRecord
100
AcDbLayerTableRecord
  2
SCHRAFF
 70
     0
 62
     7
  6
Continuous
370
    -3
390
F
  0
LAYER
  5
4C
330
2
100
AcDbSymbolTableRecord
100
AcDbLayerTableRecord
  2
STEMPEL
 70
     0
 62
     3
  6
Continuous
370
    -3
390
F
  0
LAYER
  5
4D
330
2
100
AcDbSymbolTableRecord
100
AcDbLayerTableRecord
  2
VERDECKT
 70
     0
 62
     6
  6
VERDECKT
370
    -3
390
F
  0
LAYER
  5
4E
330
2
100
AcDbSymbolTableRecord
100
AcDbLayerTableRecord
  2
DEFPOINTS
 70
     0
 62
     7
  6
Continuous
290
     0
370
    -3
390
F
  0
LAYER
  5
504
330
2
100
AcDbSymbolTableRecord
100
AcDbLayerTableRecord
  2
TEXT
 70
     0
 62
     7
  6
Continuous
370
    -3
390
F
  0
ENDTAB
  0
TABLE
  2
STYLE
  5
3
330
0
100
AcDbSymbolTable
 70
     2
  0
STYLE
  5
11
330
3
100
AcDbSymbolTableRecord
100
AcDbTextStyleTableRecord
  2
STANDARD
 70
     0
 40
0.0
 41
0.8
 50
0.0
 71
     0
 42
3.5
  3
simplex.shx
  4

  0
STYLE
  5
42
330
3
100
AcDbSymbolTableRecord
100
AcDbTextStyleTableRecord
  2
GREEKS
 70
     0
 40
0.0
 41
0.8
 50
0.0
 71
     0
 42
1.8
  3
SIMPLEX.shx
  4

  0
ENDTAB
  0
TABLE
  2
VIEW
  5
6
330
0
100
AcDbSymbolTable
 70
     0
  0
ENDTAB
  0
TABLE
  2
UCS
  5
7
330
0
100
AcDbSymbolTable
 70
     0
  0
ENDTAB
  0
TABLE
  2
APPID
  5
9
330
0
100
AcDbSymbolTable
 70
     1
  0
APPID
  5
12
330
9
100
AcDbSymbolTableRecord
100
AcDbRegAppTableRecord
  2
ACAD
 70
     0
  0
ENDTAB
  0
TABLE
  2
DIMSTYLE
  5
A
330
0
100
AcDbSymbolTable
 70
     1
100
AcDbDimStyleTable
 71
     1
340
459
  0
DIMSTYLE
105
459
102
{ACAD_REACTORS
330
359
330
377
330
3A6
330
363
330
398
102
}
330
A
100
AcDbSymbolTableRecord
100
AcDbDimStyleTableRecord
  2
Standard
 70
     0
340
11
  0
ENDTAB
  0
TABLE
  2
BLOCK_RECORD
  5
1
330
0
100
AcDbSymbolTable
 70
    14
  0
BLOCK_RECORD
  5
20
330
1
100
AcDbSymbolTableRecord
100
AcDbBlockTableRecord
  2
*Model_Space
340
23
  0
BLOCK_RECORD
  5
1C
330
1
100
AcDbSymbolTableRecord
100
AcDbBlockTableRecord
  2
*Paper_Space
340
1F
  0
BLOCK_RECORD
  5
24
330
1
100
AcDbSymbolTableRecord
100
AcDbBlockTableRecord
  2
LOGO
340
0
102
{BLKREFS
331
429
102
}
  0
BLOCK_RECORD
  5
25
330
1
100
AcDbSymbolTableRecord
100
AcDbBlockTableRecord
  2
*X1
340
0
102
{BLKREFS
331
38F
331
7D2
102
}
  0
BLOCK_RECORD
  5
28
330
1
100
AcDbSymbolTableRecord
100
AcDbBlockTableRecord
  2
*D2
340
0
  0
BLOCK_RECORD
  5
2D
330
1
100
AcDbSymbolTableRecord
100
AcDbBlockTableRecord
  2
*X3
340
0
102
{BLKREFS
331
3AB
102
}
  0
BLOCK_RECORD
  5
2E
330
1
100
AcDbSymbolTableRecord
100
AcDbBlockTableRecord
  2
*X4
340
0
102
{BLKREFS
331
3C3
102
}
  0
BLOCK_RECORD
  5
2F
330
1
100
AcDbSymbolTableRecord
100
AcDbBlockTableRecord
  2
*X5
340
0
102
{BLKREFS
331
399
102
}
  0
BLOCK_RECORD
  5
30
330
1
100
AcDbSymbolTableRecord
100
AcDbBlockTableRecord
  2
*X6
340
0
102
{BLKREFS
331
35E
102
}
  0
BLOCK_RECORD
  5
31
330
1
100
AcDbSymbolTableRecord
100
AcDbBlockTableRecord
  2
*X7
340
0
102
{BLKREFS
331
3AA
102
}
  0
BLOCK_RECORD
  5
3B
330
1
100
AcDbSymbolTableRecord
100
AcDbBlockTableRecord
  2
*X8
340
0
102
{BLKREFS
331
36E
102
}
  0
BLOCK_RECORD
  5
49C
330
1
100
AcDbSymbolTableRecord
100
AcDbBlockTableRecord
  2
*D9
340
0
  0
BLOCK_RECORD
  5
665
330
1
100
AcDbSymbolTableRecord
100
AcDbBlockTableRecord
  2
*D10
340
0
  0
BLOCK_RECORD
  5
6EC
330
1
100
AcDbSymbolTableRecord
100
AcDbBlockTableRecord
  2
*D11
340
0
  0
BLOCK_RECORD
  5
774
330
1
100
AcDbSymbolTableRecord
100
AcDbBlockTableRecord
  2
*D12
340
0
  0
BLOCK_RECORD
  5
780
330
1
100
AcDbSymbolTableRecord
100
AcDbBlockTableRecord
  2
*D13
340
0
  0
ENDTAB
  0
ENDSEC
  0
SECTION
  2
BLOCKS
  0
BLOCK
  5
52
330
20
100
AcDbEntity
  8
0
100
AcDbBlockBegin
  2
*Model_Space
 70
     0
 10
0.0
 20
0.0
 30
0.0
  3
*Model_Space
  1

  0
ENDBLK
  5
53
330
20
100
AcDbEntity
  8
0
100
AcDbBlockEnd
  0
BLOCK
  5
50
330
1C
100
AcDbEntity
 67
     1
  8
0
100
AcDbBlockBegin
  2
*Paper_Space
 70
     0
 10
0.0
 20
0.0
 30
0.0
  3
*Paper_Space
  1

  0
ENDBLK
  5
51
330
1C
100
AcDbEntity
 67
     1
  8
0
100
AcDbBlockEnd
  0
BLOCK
  5
54
330
24
100
AcDbEntity
  8
0
100
AcDbBlockBegin
  2
LOGO
 70
     0
 10
0.0
 20
0.0
 30
0.0
  3
LOGO
  1

  0
ARC
  5
55
330
24
100
AcDbEntity
  8
0
100
AcDbCircle
 10
11.59973089678112
 20
-9.271599258481501
 30
0.0
 40
4.5
100
AcDbArc
 50
270.0
 51
231.0575587310159
  0
LINE
  5
56
330
24
100
AcDbEntity
  8
0
100
AcDbLine
 10
3.599730896781125
 20
-4.771599258481529
 30
0.0
 11
3.599730896781153
 21
-11.77159925848133
 31
0.0
  0
LINE
  5
57
330
24
100
AcDbEntity
  8
0
100
AcDbLine
 10
2.599730896781125
 20
-4.771599258481529
 30
0.0
 11
2.599730896781153
 21
-11.77159925848133
 31
0.0
  0
CIRCLE
  5
58
330
24
100
AcDbEntity
  8
0
100
AcDbCircle
 10
11.59973089678112
 20
-9.271599258481501
 30
0.0
 40
3.5
  0
ARC
  5
59
330
24
100
AcDbEntity
  8
0
100
AcDbCircle
 10
31.59973089678115
 20
-9.271599258481472
 30
0.0
 40
4.5
100
AcDbArc
 50
270.0
 51
231.0575587310182
  0
LINE
  5
5A
330
24
100
AcDbEntity
  8
0
100
AcDbLine
 10
17.59973089678112
 20
-4.771599258481472
 30
0.0
 11
17.59973089678115
 21
-13.77159925848147
 31
0.0
  0
ARC
  5
5B
330
24
100
AcDbEntity
  8
0
100
AcDbCircle
 10
22.59973089678116
 20
-7.271599258481472
 30
0.0
 40
2.5
100
AcDbArc
 50
293.1161887722295
 51
90.0
  0
CIRCLE
  5
5C
330
24
100
AcDbEntity
  8
0
100
AcDbCircle
 10
31.59973089678115
 20
-9.271599258481472
 30
0.0
 40
3.5
  0
ARC
  5
5D
330
24
100
AcDbEntity
  8
0
100
AcDbCircle
 10
4.599730896781153
 20
-11.77159925848133
 30
0.0
 40
1.0
100
AcDbArc
 50
180.0
 51
270.0
  0
ARC
  5
5E
330
24
100
AcDbEntity
  8
0
100
AcDbCircle
 10
4.599730896781153
 20
-11.77159925848133
 30
0.0
 40
2.0
100
AcDbArc
 50
179.9999999999992
 51
270.0
  0
LINE
  5
5F
330
24
100
AcDbEntity
  8
0
100
AcDbLine
 10
11.59973089678115
 20
-13.77159925848144
 30
0.0
 11
4.599730896781153
 21
-13.77159925848147
 31
0.0
  0
LINE
  5
60
330
24
100
AcDbEntity
  8
0
100
AcDbLine
 10
8.771303772034769
 20
-12.77159925848136
 30
0.0
 11
4.599730896781153
 21
-12.77159925848133
 31
0.0
  0
LINE
  5
61
330
24
100
AcDbEntity
  8
0
100
AcDbLine
 10
31.59973089678115
 20
-13.77159925848147
 30
0.0
 11
23.6715276665056
 21
-13.77159925848144
 31
0.0
  0
LINE
  5
62
330
24
100
AcDbEntity
  8
0
100
AcDbLine
 10
23.56565672307022
 20
-9.51278021337896
 30
0.0
 11
24.4388546544846
 21
-12.77159925848144
 31
0.0
  0
LINE
  5
63
330
24
100
AcDbEntity
  8
0
100
AcDbLine
 10
22.59973089678116
 20
-9.771599258481472
 30
0.0
 11
18.59973089678112
 21
-9.771599258481472
 31
0.0
  0
LINE
  5
64
330
24
100
AcDbEntity
  8
0
100
AcDbLine
 10
18.59973089678115
 20
-13.77159925848144
 30
0.0
 11
17.59973089678115
 21
-13.77159925848144
 31
0.0
  0
LINE
  5
65
330
24
100
AcDbEntity
  8
0
100
AcDbLine
 10
18.59973089678115
 20
-9.771599258481472
 30
0.0
 11
18.59973089678115
 21
-13.77159925848144
 31
0.0
  0
LINE
  5
66
330
24
100
AcDbEntity
  8
0
100
AcDbLine
 10
22.59973089678116
 20
-9.771599258481472
 30
0.0
 11
23.67152766650562
 21
-13.77159925848147
 31
0.0
  0
ARC
  5
67
330
24
100
AcDbEntity
  8
0
100
AcDbCircle
 10
22.59973089678116
 20
-7.271599258481472
 30
0.0
 40
2.5
100
AcDbArc
 50
270.0
 51
270.0000000000007
  0
LINE
  5
68
330
24
100
AcDbEntity
  8
0
100
AcDbLine
 10
28.77130377203494
 20
-12.77159925848147
 30
0.0
 11
24.43885465448463
 21
-12.77159925848144
 31
0.0
  0
LINE
  5
69
330
24
100
AcDbEntity
  8
0
100
AcDbLine
 10
3.599730896781125
 20
-4.771599258481472
 30
0.0
 11
2.599730896781125
 21
-4.771599258481472
 31
0.0
  0
LINE
  5
6A
330
24
100
AcDbEntity
  8
0
100
AcDbLine
 10
22.59973089678116
 20
-8.771599258481472
 30
0.0
 11
18.59973089678115
 21
-8.771599258481472
 31
0.0
  0
LINE
  5
6B
330
24
100
AcDbEntity
  8
0
100
AcDbLine
 10
22.59973089678116
 20
-5.771599258481472
 30
0.0
 11
18.59973089678115
 21
-5.771599258481472
 31
0.0
  0
LINE
  5
6C
330
24
100
AcDbEntity
  8
0
100
AcDbLine
 10
22.59973089678116
 20
-4.771599258481472
 30
0.0
 11
17.59973089678115
 21
-4.771599258481472
 31
0.0
  0
LINE
  5
6D
330
24
100
AcDbEntity
  8
0
100
AcDbLine
 10
18.59973089678115
 20
-5.771599258481472
 30
0.0
 11
18.59973089678115
 21
-8.771599258481472
 31
0.0
  0
ARC
  5
6E
330
24
100
AcDbEntity
  8
0
100
AcDbCircle
 10
22.59973089678116
 20
-7.271599258481472
 30
0.0
 40
1.5
100
AcDbArc
 50
270.0
 51
90.0
  0
ENDBLK
  5
6F
330
24
100
AcDbEntity
  8
0
100
AcDbBlockEnd
  0
BLOCK
  5
70
330
25
100
AcDbEntity
  8
0
100
AcDbBlockBegin
  2
*X1
 70
     1
 10
0.0
 20
0.0
 30
0.0
  3
*X1
  1

  0
LINE
  5
71
330
25
100
AcDbEntity
  8
0
 62
     0
100
AcDbLine
 10
206.361127543592
 20
124.423424695475
 30
0.0
 11
204.1919696189955
 21
126.5925826200714
 31
0.0
  0
LINE
  5
72
330
25
100
AcDbEntity
  8
0
 62
     0
100
AcDbLine
 10
206.3093637345715
 20
124.3337671482581
 30
0.0
 11
204.1755709205511
 21
126.4675599622785
 31
0.0
  0
LINE
  5
73
330
25
100
AcDbEntity
  8
0
 62
     0
100
AcDbLine
 10
206.257599925551
 20
124.2441096010414
 30
0.0
 11
204.162777300281
 21
126.3389322263113
 31
0.0
  0
LINE
  5
74
330
25
100
AcDbEntity
  8
0
 62
     0
100
AcDbLine
 10
206.2058361165304
 20
124.1544520538245
 30
0.0
 11
204.1538812306975
 21
126.2064069396575
 31
0.0
  0
LINE
  5
75
330
25
100
AcDbEntity
  8
0
 62
     0
100
AcDbLine
 10
206.15407230751
 20
124.0647945066077
 30
0.0
 11
204.1492309269521
 21
126.0696358871655
 31
0.0
  0
LINE
  5
76
330
25
100
AcDbEntity
  8
0
 62
     0
100
AcDbLine
 10
206.1023084984894
 20
123.9751369593909
 30
0.0
 11
204.1492460612284
 21
125.928199396652
 31
0.0
  0
LINE
  5
77
330
25
100
AcDbEntity
  8
0
 62
     0
100
AcDbLine
 10
206.050544689469
 20
123.8854794121741
 30
0.0
 11
204.1544397711193
 21
125.7815843305237
 31
0.0
  0
LINE
  5
78
330
25
100
AcDbEntity
  8
0
 62
     0
100
AcDbLine
 10
205.9987808804484
 20
123.7958218649573
 30
0.0
 11
204.1654503562987
 21
125.629152389107
 31
0.0
  0
LINE
  5
79
330
25
100
AcDbEntity
  8
0
 62
     0
100
AcDbLine
 10
205.9470170714279
 20
123.7061643177405
 30
0.0
 11
204.1830884656249
 21
125.4700929235435
 31
0.0
  0
LINE
  5
7A
330
25
100
AcDbEntity
  8
0
 62
     0
100
AcDbLine
 10
205.8952532624074
 20
123.6165067705237
 30
0.0
 11
204.2084102041783
 21
125.3033498287528
 31
0.0
  0
LINE
  5
7B
330
25
100
AcDbEntity
  8
0
 62
     0
100
AcDbLine
 10
205.8434894533869
 20
123.5268492233069
 30
0.0
 11
204.2428360894343
 21
125.1275025872595
 31
0.0
  0
LINE
  5
7C
330
25
100
AcDbEntity
  8
0
 62
     0
100
AcDbLine
 10
205.7917256443664
 20
123.4371916760901
 30
0.0
 11
204.2883569507582
 21
124.9405603696983
 31
0.0
  0
LINE
  5
7D
330
25
100
AcDbEntity
  8
0
 62
     0
100
AcDbLine
 10
205.7399618353459
 20
123.3475341288733
 30
0.0
 11
204.3479202201067
 21
124.7395757441125
 31
0.0
  0
LINE
  5
7E
330
25
100
AcDbEntity
  8
0
 62
     0
100
AcDbLine
 10
205.6881980263254
 20
123.2578765816565
 30
0.0
 11
204.426238962805
 21
124.5198356451769
 31
0.0
  0
LINE
  5
7F
330
25
100
AcDbEntity
  8
0
 62
     0
100
AcDbLine
 10
205.6364342173049
 20
123.1682190344397
 30
0.0
 11
204.5317826890526
 21
124.272870562692
 31
0.0
  0
LINE
  5
80
330
25
100
AcDbEntity
  8
0
 62
     0
100
AcDbLine
 10
205.5846704082844
 20
123.0785614872229
 30
0.0
 11
204.6831734663053
 21
123.980058429202
 31
0.0
  0
LINE
  5
81
330
25
100
AcDbEntity
  8
0
 62
     0
100
AcDbLine
 10
205.5329065992639
 20
122.9889039400061
 30
0.0
 11
204.9464222253075
 21
123.5753883139625
 31
0.0
  0
LINE
  5
82
330
25
100
AcDbEntity
  8
0
 62
     0
100
AcDbLine
 10
206.4128913526125
 20
124.5130822426917
 30
0.0
 11
204.2117251741453
 21
126.7142484211589
 31
0.0
  0
LINE
  5
83
330
25
100
AcDbEntity
  8
0
 62
     0
100
AcDbLine
 10
206.464655161633
 20
124.6027397899086
 30
0.0
 11
204.2346250367801
 21
126.8327699147614
 31
0.0
  0
LINE
  5
84
330
25
100
AcDbEntity
  8
0
 62
     0
100
AcDbLine
 10
206.5164189706535
 20
124.6923973371254
 30
0.0
 11
204.260485809356
 21
126.9483304984229
 31
0.0
  0
LINE
  5
85
330
25
100
AcDbEntity
  8
0
 62
     0
100
AcDbLine
 10
206.568182779674
 20
124.7820548843422
 30
0.0
 11
204.2891482109407
 21
127.0610894530754
 31
0.0
  0
LINE
  5
86
330
25
100
AcDbEntity
  8
0
 62
     0
100
AcDbLine
 10
206.6199465886945
 20
124.871712431559
 30
0.0
 11
204.3204731346402
 21
127.1711858856133
 31
0.0
  0
LINE
  5
87
330
25
100
AcDbEntity
  8
0
 62
     0
100
AcDbLine
 10
206.671710397715
 20
124.9613699787758
 30
0.0
 11
204.3543385220878
 21
127.278741854403
 31
0.0
  0
LINE
  5
88
330
25
100
AcDbEntity
  8
0
 62
     0
100
AcDbLine
 10
206.7234742067355
 20
125.0510275259926
 30
0.0
 11
204.5303535365744
 21
127.2441481961537
 31
0.0
  0
LINE
  5
89
330
25
100
AcDbEntity
  8
0
 62
     0
100
AcDbLine
 10
206.775238015756
 20
125.1406850732094
 30
0.0
 11
204.8038582746441
 21
127.1120648143213
 31
0.0
  0
LINE
  5
8A
330
25
100
AcDbEntity
  8
0
 62
     0
100
AcDbLine
 10
206.8270018247765
 20
125.2303426204262
 30
0.0
 11
205.0807975766669
 21
126.9765468685357
 31
0.0
  0
LINE
  5
8B
330
25
100
AcDbEntity
  8
0
 62
     0
100
AcDbLine
 10
206.878765633797
 20
125.320000167643
 30
0.0
 11
205.3613321980706
 21
126.8374336033694
 31
0.0
  0
LINE
  5
8C
330
25
100
AcDbEntity
  8
0
 62
     0
100
AcDbLine
 10
206.9305294428175
 20
125.4096577148598
 30
0.0
 11
205.6456361641685
 21
126.6945509935088
 31
0.0
  0
LINE
  5
8D
330
25
100
AcDbEntity
  8
0
 62
     0
100
AcDbLine
 10
206.982293251838
 20
125.4993152620766
 30
0.0
 11
205.9338983609392
 21
126.5477101529755
 31
0.0
  0
LINE
  5
8E
330
25
100
AcDbEntity
  8
0
 62
     0
100
AcDbLine
 10
207.0340570608585
 20
125.5889728092934
 30
0.0
 11
206.2263243800068
 21
126.3967054901451
 31
0.0
  0
LINE
  5
8F
330
25
100
AcDbEntity
  8
0
 62
     0
100
AcDbLine
 10
207.085820869879
 20
125.6786303565103
 30
0.0
 11
206.5231386693345
 21
126.2413125570548
 31
0.0
  0
LINE
  5
90
330
25
100
AcDbEntity
  8
0
 62
     0
100
AcDbLine
 10
207.1375846788995
 20
125.768287903727
 30
0.0
 11
206.8245870539551
 21
126.0812855286714
 31
0.0
  0
LINE
  5
91
330
25
100
AcDbEntity
  8
0
 62
     0
100
AcDbLine
 10
207.18934848792
 20
125.8579454509438
 30
0.0
 11
207.1309397077029
 21
125.916354231161
 31
0.0
  0
ENDBLK
  5
92
330
25
100
AcDbEntity
  8
0
100
AcDbBlockEnd
  0
BLOCK
  5
AE
330
28
100
AcDbEntity
  8
0
100
AcDbBlockBegin
  2
*D2
 70
     1
 10
0.0
 20
0.0
 30
0.0
  3
*D2
  1

  0
LINE
  5
AF
330
28
100
AcDbEntity
  8
0
  6
ByBlock
 62
     0
100
AcDbLine
 10
123.8399535719374
 20
638.4322537221737
 30
0.0
 11
114.6856667916052
 21
638.4322537221737
 31
0.0
  0
LINE
  5
B0
330
28
100
AcDbEntity
  8
0
  6
ByBlock
 62
     0
100
AcDbLine
 10
132.7876937531351
 20
643.4322537221736
 30
0.0
 11
114.6856667916052
 21
643.4322537221736
 31
0.0
  0
LINE
  5
B1
330
28
100
AcDbEntity
  8
0
  6
ByBlock
 62
     0
100
AcDbLine
 10
115.6856667916052
 20
631.4322537221737
 30
0.0
 11
115.6856667916052
 21
624.4322537221737
 31
0.0
  0
LINE
  5
B2
330
28
100
AcDbEntity
  8
0
  6
ByBlock
 62
     0
100
AcDbLine
 10
115.6856667916052
 20
650.4322537221736
 30
0.0
 11
115.6856667916052
 21
657.4322537221736
 31
0.0
  0
LINE
  5
B3
330
28
100
AcDbEntity
  8
0
  6
ByBlock
 62
     0
100
AcDbLine
 10
115.6856667916052
 20
657.4322537221736
 30
0.0
 11
115.6856667916052
 21
661.255587055507
 31
0.0
  0
SOLID
  5
B4
330
28
100
AcDbEntity
  8
0
  6
ByBlock
 62
     0
100
AcDbTrace
 10
114.5190001249385
 20
631.4322537221737
 30
0.0
 11
116.8523334582718
 21
631.4322537221737
 31
0.0
 12
115.6856667916052
 22
638.4322537221737
 32
0.0
 13
115.6856667916052
 23
638.4322537221737
 33
0.0
  0
SOLID
  5
B5
330
28
100
AcDbEntity
  8
0
  6
ByBlock
 62
     0
100
AcDbTrace
 10
114.5190001249385
 20
650.4322537221736
 30
0.0
 11
116.8523334582718
 21
650.4322537221736
 31
0.0
 12
115.6856667916052
 22
643.4322537221736
 32
0.0
 13
115.6856667916052
 23
643.4322537221736
 33
0.0
  0
LINE
  5
B6
330
28
100
AcDbEntity
  8
0
  6
ByBlock
 62
     0
100
AcDbLine
 10
115.6856667916052
 20
638.4322537221737
 30
0.0
 11
115.6856667916052
 21
643.4322537221736
 31
0.0
  0
TEXT
  5
B7
330
28
100
AcDbEntity
  8
0
  6
ByBlock
 62
     1
100
AcDbText
 10
112.1856667916052
 20
657.5222537221736
 30
0.0
 40
7.0
  1
5
 50
90.0
 41
0.8
  7
GREEKS
 72
     1
 11
108.6856667916052
 21
659.3889203888403
 31
0.0
100
AcDbText
 73
     2
  0
POINT
  5
B8
330
28
100
AcDbEntity
  8
DEFPOINTS
  6
ByBlock
 62
     0
100
AcDbPoint
 10
124.8399535719374
 20
638.4322537221737
 30
0.0
  0
POINT
  5
B9
330
28
100
AcDbEntity
  8
DEFPOINTS
  6
ByBlock
 62
     0
100
AcDbPoint
 10
133.7876937531351
 20
643.4322537221736
 30
0.0
  0
POINT
  5
BA
330
28
100
AcDbEntity
  8
DEFPOINTS
  6
ByBlock
 62
     0
100
AcDbPoint
 10
115.6856667916052
 20
643.4322537221736
 30
0.0
  0
ENDBLK
  5
BB
330
28
100
AcDbEntity
  8
0
100
AcDbBlockEnd
  0
BLOCK
  5
F0
330
2D
100
AcDbEntity
  8
0
100
AcDbBlockBegin
  2
*X3
 70
     1
 10
0.0
 20
0.0
 30
0.0
  3
*X3
  1

  0
LINE
  5
F1
330
2D
100
AcDbEntity
  8
0
 62
     0
100
AcDbLine
 10
201.594591881438
 20
583.4322537221736
 30
0.0
 11
202.0070153050089
 21
583.8446771457443
 31
0.0
  0
LINE
  5
F2
330
2D
100
AcDbEntity
  8
0
 62
     0
100
AcDbLine
 10
199.666857722638
 20
584.3329466881198
 30
0.0
 11
201.2567373299507
 21
585.9228262954324
 31
0.0
  0
LINE
  5
F3
330
2D
100
AcDbEntity
  8
0
 62
     0
100
AcDbLine
 10
198.9182133583981
 20
586.4127294486261
 30
0.0
 11
200.5064593548925
 21
588.0009754451206
 31
0.0
  0
LINE
  5
F4
330
2D
100
AcDbEntity
  8
0
 62
     0
100
AcDbLine
 10
198.1695689941583
 20
588.4925122091325
 30
0.0
 11
199.7561813798344
 21
590.0791245948085
 31
0.0
  0
LINE
  5
F5
330
2D
100
AcDbEntity
  8
0
 62
     0
100
AcDbLine
 10
197.4209246299184
 20
590.5722949696389
 30
0.0
 11
199.0059034047763
 21
592.1572737444967
 31
0.0
  0
LINE
  5
F6
330
2D
100
AcDbEntity
  8
0
 62
     0
100
AcDbLine
 10
196.6722802656786
 20
592.6520777301451
 30
0.0
 11
198.2556254297182
 21
594.2354228941848
 31
0.0
  0
LINE
  5
F7
330
2D
100
AcDbEntity
  8
0
 62
     0
100
AcDbLine
 10
195.9236359014387
 20
594.7318604906514
 30
0.0
 11
197.50534745466
 21
596.3135720438727
 31
0.0
  0
LINE
  5
F8
330
2D
100
AcDbEntity
  8
0
 62
     0
100
AcDbLine
 10
195.1749915371989
 20
596.8116432511578
 30
0.0
 11
196.7550694796019
 21
598.3917211935609
 31
0.0
  0
LINE
  5
F9
330
2D
100
AcDbEntity
  8
0
 62
     0
100
AcDbLine
 10
194.426347172959
 20
598.8914260116642
 30
0.0
 11
196.0047915045438
 21
600.4698703432488
 31
0.0
  0
LINE
  5
FA
330
2D
100
AcDbEntity
  8
0
 62
     0
100
AcDbLine
 10
193.6777028087191
 20
600.9712087721704
 30
0.0
 11
195.2545135294857
 21
602.548019492937
 31
0.0
  0
LINE
  5
FB
330
2D
100
AcDbEntity
  8
0
 62
     0
100
AcDbLine
 10
192.9290584444793
 20
603.0509915326767
 30
0.0
 11
194.5042355544275
 21
604.6261686426251
 31
0.0
  0
LINE
  5
FC
330
2D
100
AcDbEntity
  8
0
 62
     0
100
AcDbLine
 10
192.1804140802394
 20
605.1307742931831
 30
0.0
 11
193.7539575793694
 21
606.7043177923131
 31
0.0
  0
LINE
  5
FD
330
2D
100
AcDbEntity
  8
0
 62
     0
100
AcDbLine
 10
191.4317697159996
 20
607.2105570536895
 30
0.0
 11
193.0036796043113
 21
608.7824669420012
 31
0.0
  0
LINE
  5
FE
330
2D
100
AcDbEntity
  8
0
 62
     0
100
AcDbLine
 10
190.6831253517597
 20
609.2903398141958
 30
0.0
 11
192.2534016292531
 21
610.8606160916893
 31
0.0
  0
LINE
  5
FF
330
2D
100
AcDbEntity
  8
0
 62
     0
100
AcDbLine
 10
189.9344809875198
 20
611.3701225747021
 30
0.0
 11
191.503123654195
 21
612.9387652413773
 31
0.0
  0
LINE
  5
100
330
2D
100
AcDbEntity
  8
0
 62
     0
100
AcDbLine
 10
189.18583662328
 20
613.4499053352084
 30
0.0
 11
190.7528456791369
 21
615.0169143910654
 31
0.0
  0
LINE
  5
101
330
2D
100
AcDbEntity
  8
0
 62
     0
100
AcDbLine
 10
188.4371922590401
 20
615.5296880957148
 30
0.0
 11
190.0025677040787
 21
617.0950635407534
 31
0.0
  0
LINE
  5
102
330
2D
100
AcDbEntity
  8
0
 62
     0
100
AcDbLine
 10
187.6885478948002
 20
617.6094708562211
 30
0.0
 11
189.2522897290206
 21
619.1732126904414
 31
0.0
  0
LINE
  5
103
330
2D
100
AcDbEntity
  8
0
 62
     0
100
AcDbLine
 10
186.9399035305604
 20
619.6892536167275
 30
0.0
 11
188.5020117539625
 21
621.2513618401295
 31
0.0
  0
LINE
  5
104
330
2D
100
AcDbEntity
  8
0
 62
     0
100
AcDbLine
 10
186.1855870190323
 20
621.7633642299455
 30
0.0
 11
187.7894288768825
 21
623.3672060877958
 31
0.0
  0
LINE
  5
105
330
2D
100
AcDbEntity
  8
0
 62
     0
100
AcDbLine
 10
185.6745127916836
 20
624.0807171273431
 30
0.0
 11
187.6559132852859
 21
626.0621176209452
 31
0.0
  0
LINE
  5
106
330
2D
100
AcDbEntity
  8
0
 62
     0
100
AcDbLine
 10
185.6559132852859
 20
626.8905447456915
 30
0.0
 11
187.6559132852859
 21
628.8905447456914
 31
0.0
  0
LINE
  5
107
330
2D
100
AcDbEntity
  8
0
 62
     0
100
AcDbLine
 10
185.6559132852859
 20
629.7189718704377
 30
0.0
 11
187.6559132852859
 21
631.7189718704376
 31
0.0
  0
LINE
  5
108
330
2D
100
AcDbEntity
  8
0
 62
     0
100
AcDbLine
 10
185.6559132852859
 20
632.5473989951839
 30
0.0
 11
187.6559132852859
 21
634.5473989951839
 31
0.0
  0
LINE
  5
109
330
2D
100
AcDbEntity
  8
0
 62
     0
100
AcDbLine
 10
185.6559132852859
 20
635.3758261199301
 30
0.0
 11
185.7123408875296
 21
635.4322537221738
 31
0.0
  0
LINE
  5
10A
330
2D
100
AcDbEntity
  8
0
 62
     0
100
AcDbLine
 10
305.6559132852862
 20
662.0377310033061
 30
0.0
 11
307.0504360041538
 21
663.4322537221737
 31
0.0
  0
LINE
  5
10B
330
2D
100
AcDbEntity
  8
0
 62
     0
100
AcDbLine
 10
305.6559132852862
 20
659.2093038785598
 30
0.0
 11
307.6559132852861
 21
661.2093038785598
 31
0.0
  0
LINE
  5
10C
330
2D
100
AcDbEntity
  8
0
 62
     0
100
AcDbLine
 10
303.539093622135
 20
654.2640570906625
 30
0.0
 11
304.7072902536462
 21
655.4322537221737
 31
0.0
  0
LINE
  5
10D
330
2D
100
AcDbEntity
  8
0
 62
     0
100
AcDbLine
 10
305.6559132852862
 20
656.3808767538136
 30
0.0
 11
307.6559132852861
 21
658.3808767538136
 31
0.0
  0
LINE
  5
10E
330
2D
100
AcDbEntity
  8
0
 62
     0
100
AcDbLine
 10
303.2248239416076
 20
651.121360285389
 30
0.0
 11
305.4581296351901
 21
653.3546659789713
 31
0.0
  0
LINE
  5
10F
330
2D
100
AcDbEntity
  8
0
 62
     0
100
AcDbLine
 10
307.5357173783924
 20
655.4322537221737
 30
0.0
 11
307.6559132852861
 21
655.5524496290675
 31
0.0
  0
LINE
  5
110
330
2D
100
AcDbEntity
  8
0
 62
     0
100
AcDbLine
 10
302.9105542610803
 20
647.9786634801154
 30
0.0
 11
305.1438599546627
 21
650.2119691736979
 31
0.0
  0
LINE
  5
111
330
2D
100
AcDbEntity
  8
0
 62
     0
100
AcDbLine
 10
302.5962845805529
 20
644.8359666748419
 30
0.0
 11
304.8295902741354
 21
647.0692723684243
 31
0.0
  0
LINE
  5
112
330
2D
100
AcDbEntity
  8
0
 62
     0
100
AcDbLine
 10
302.2820149000255
 20
641.6932698695683
 30
0.0
 11
304.515320593608
 21
643.9265755631508
 31
0.0
  0
LINE
  5
113
330
2D
100
AcDbEntity
  8
0
 62
     0
100
AcDbLine
 10
301.9677452194982
 20
638.5505730642948
 30
0.0
 11
304.2010509130806
 21
640.7838787578772
 31
0.0
  0
LINE
  5
114
330
2D
100
AcDbEntity
  8
0
 62
     0
100
AcDbLine
 10
301.6778530021233
 20
635.4322537221738
 30
0.0
 11
303.8867812325533
 21
637.6411819526037
 31
0.0
  0
LINE
  5
115
330
2D
100
AcDbEntity
  8
0
 62
     0
100
AcDbLine
 10
305.6559132852862
 20
633.7534597558441
 30
0.0
 11
307.3347072516157
 21
635.4322537221738
 31
0.0
  0
LINE
  5
116
330
2D
100
AcDbEntity
  8
0
 62
     0
100
AcDbLine
 10
305.6559132852862
 20
630.9250326310979
 30
0.0
 11
307.6559132852862
 21
632.925032631098
 31
0.0
  0
LINE
  5
117
330
2D
100
AcDbEntity
  8
0
 62
     0
100
AcDbLine
 10
305.6559132852861
 20
628.0966055063518
 30
0.0
 11
307.6559132852862
 21
630.0966055063518
 31
0.0
  0
LINE
  5
118
330
2D
100
AcDbEntity
  8
0
 62
     0
100
AcDbLine
 10
305.6559132852861
 20
625.2681783816056
 30
0.0
 11
307.6559132852862
 21
627.2681783816056
 31
0.0
  0
LINE
  5
119
330
2D
100
AcDbEntity
  8
0
 62
     0
100
AcDbLine
 10
305.0032171317535
 20
621.7870551033268
 30
0.0
 11
307.6536948703679
 21
624.4375328419412
 31
0.0
  0
LINE
  5
11A
330
2D
100
AcDbEntity
  8
0
 62
     0
100
AcDbLine
 10
303.4050902830812
 20
617.3605011299082
 30
0.0
 11
306.7307851985155
 21
620.6861960453426
 31
0.0
  0
LINE
  5
11B
330
2D
100
AcDbEntity
  8
0
 62
     0
100
AcDbLine
 10
301.8069634344089
 20
612.9339471564898
 30
0.0
 11
305.1400520091315
 21
616.2670357312124
 31
0.0
  0
LINE
  5
11C
330
2D
100
AcDbEntity
  8
0
 62
     0
100
AcDbLine
 10
300.2088365857367
 20
608.5073931830713
 30
0.0
 11
303.5493188197476
 21
611.8478754170823
 31
0.0
  0
LINE
  5
11D
330
2D
100
AcDbEntity
  8
0
 62
     0
100
AcDbLine
 10
298.6107097370644
 20
604.0808392096529
 30
0.0
 11
301.9585856303637
 21
607.4287151029522
 31
0.0
  0
LINE
  5
11E
330
2D
100
AcDbEntity
  8
0
 62
     0
100
AcDbLine
 10
297.0125828883922
 20
599.6542852362344
 30
0.0
 11
300.3678524409797
 21
603.009554788822
 31
0.0
  0
LINE
  5
11F
330
2D
100
AcDbEntity
  8
0
 62
     0
100
AcDbLine
 10
295.4144560397199
 20
595.2277312628161
 30
0.0
 11
298.7771192515958
 21
598.5903944746918
 31
0.0
  0
LINE
  5
120
330
2D
100
AcDbEntity
  8
0
 62
     0
100
AcDbLine
 10
293.8163291910476
 20
590.8011772893976
 30
0.0
 11
297.1863860622118
 21
594.1712341605617
 31
0.0
  0
LINE
  5
121
330
2D
100
AcDbEntity
  8
0
 62
     0
100
AcDbLine
 10
292.2182023423754
 20
586.374623315979
 30
0.0
 11
295.5956528728279
 21
589.7520738464315
 31
0.0
  0
LINE
  5
122
330
2D
100
AcDbEntity
  8
0
 62
     0
100
AcDbLine
 10
292.1042598733161
 20
583.4322537221736
 30
0.0
 11
294.0049196834439
 21
585.3329135323015
 31
0.0
  0
ENDBLK
  5
123
330
2D
100
AcDbEntity
  8
0
100
AcDbBlockEnd
  0
BLOCK
  5
124
330
2E
100
AcDbEntity
  8
0
100
AcDbBlockBegin
  2
*X4
 70
     1
 10
0.0
 20
0.0
 30
0.0
  3
*X4
  1

  0
LINE
  5
125
330
2E
100
AcDbEntity
  8
0
 62
     0
100
AcDbLine
 10
188.5169491930826
 20
646.7221434019655
 30
0.0
 11
190.3441993060136
 21
648.5493935148964
 31
0.0
  0
LINE
  5
126
330
2E
100
AcDbEntity
  8
0
 62
     0
100
AcDbLine
 10
188.2598194544693
 20
649.2934407880983
 30
0.0
 11
190.0870695674004
 21
651.1206909010293
 31
0.0
  0
LINE
  5
127
330
2E
100
AcDbEntity
  8
0
 62
     0
100
AcDbLine
 10
188.002689715856
 20
651.8647381742312
 30
0.0
 11
189.8299398287871
 21
653.6919882871623
 31
0.0
  0
LINE
  5
128
330
2E
100
AcDbEntity
  8
0
 62
     0
100
AcDbLine
 10
187.7455599772428
 20
654.4360355603641
 30
0.0
 11
188.7417781390524
 21
655.4322537221737
 31
0.0
  0
LINE
  5
129
330
2E
100
AcDbEntity
  8
0
 62
     0
100
AcDbLine
 10
185.9133510143062
 20
655.4322537221737
 30
0.0
 11
187.6559132852859
 21
657.1748159931535
 31
0.0
  0
LINE
  5
12A
330
2E
100
AcDbEntity
  8
0
 62
     0
100
AcDbLine
 10
185.655913285286
 20
658.0032431178997
 30
0.0
 11
187.6559132852859
 21
660.0032431178997
 31
0.0
  0
LINE
  5
12B
330
2E
100
AcDbEntity
  8
0
 62
     0
100
AcDbLine
 10
185.655913285286
 20
660.8316702426459
 30
0.0
 11
187.6559132852859
 21
662.8316702426458
 31
0.0
  0
LINE
  5
12C
330
2E
100
AcDbEntity
  8
0
 62
     0
100
AcDbLine
 10
188.7740789316959
 20
644.1508460158324
 30
0.0
 11
190.6013290446269
 21
645.9780961287635
 31
0.0
  0
LINE
  5
12D
330
2E
100
AcDbEntity
  8
0
 62
     0
100
AcDbLine
 10
189.0312086703092
 20
641.5795486296996
 30
0.0
 11
190.8584587832402
 21
643.4067987426307
 31
0.0
  0
LINE
  5
12E
330
2E
100
AcDbEntity
  8
0
 62
     0
100
AcDbLine
 10
189.2883384089225
 20
639.0082512435667
 30
0.0
 11
191.1155885218535
 21
640.8355013564977
 31
0.0
  0
LINE
  5
12F
330
2E
100
AcDbEntity
  8
0
 62
     0
100
AcDbLine
 10
189.5454681475358
 20
636.4369538574338
 30
0.0
 11
191.3727182604668
 21
638.2642039703648
 31
0.0
  0
LINE
  5
130
330
2E
100
AcDbEntity
  8
0
 62
     0
100
AcDbLine
 10
191.3691951370219
 20
635.4322537221738
 30
0.0
 11
191.6298479990801
 21
635.692906584232
 31
0.0
  0
ENDBLK
  5
131
330
2E
100
AcDbEntity
  8
0
100
AcDbBlockEnd
  0
BLOCK
  5
132
330
2F
100
AcDbEntity
  8
0
100
AcDbBlockBegin
  2
*X5
 70
     1
 10
0.0
 20
0.0
 30
0.0
  3
*X5
  1

  0
LINE
  5
133
330
2F
100
AcDbEntity
  8
0
 62
     0
100
AcDbLine
 10
145.5739839841565
 20
640.7287566952842
 30
0.0
 11
143.4417690103618
 21
642.8609716690789
 31
0.0
  0
LINE
  5
134
330
2F
100
AcDbEntity
  8
0
 62
     0
100
AcDbLine
 10
142.5640446638683
 20
640.9102688908262
 30
0.0
 11
140.4318296900736
 21
643.0424838646209
 31
0.0
  0
LINE
  5
135
330
2F
100
AcDbEntity
  8
0
 62
     0
100
AcDbLine
 10
139.5541053435801
 20
641.0917810863683
 30
0.0
 11
137.4218903697854
 21
643.2239960601629
 31
0.0
  0
LINE
  5
136
330
2F
100
AcDbEntity
  8
0
 62
     0
100
AcDbLine
 10
136.5441660232918
 20
641.2732932819103
 30
0.0
 11
134.4119510494972
 21
643.4055082557049
 31
0.0
  0
LINE
  5
137
330
2F
100
AcDbEntity
  8
0
 62
     0
100
AcDbLine
 10
133.5630893300284
 20
641.4259428504276
 30
0.0
 11
131.8711178332326
 21
643.1179143472233
 31
0.0
  0
LINE
  5
138
330
2F
100
AcDbEntity
  8
0
 62
     0
100
AcDbLine
 10
131.3565164252174
 20
640.8040886304924
 30
0.0
 11
129.7961044077975
 21
642.3645006479122
 31
0.0
  0
LINE
  5
139
330
2F
100
AcDbEntity
  8
0
 62
     0
100
AcDbLine
 10
129.2828442484431
 20
640.0493336825205
 30
0.0
 11
127.7224322310232
 21
641.6097456999404
 31
0.0
  0
LINE
  5
13A
330
2F
100
AcDbEntity
  8
0
 62
     0
100
AcDbLine
 10
127.2091720716687
 20
639.2945787345486
 30
0.0
 11
125.6487600542489
 21
640.8549907519685
 31
0.0
  0
LINE
  5
13B
330
2F
100
AcDbEntity
  8
0
 62
     0
100
AcDbLine
 10
125.1354998948944
 20
638.5398237865768
 30
0.0
 11
124.6092688243852
 21
639.0660548570861
 31
0.0
  0
LINE
  5
13C
330
2F
100
AcDbEntity
  8
0
 62
     0
100
AcDbLine
 10
148.5839233044447
 20
640.5472444997421
 30
0.0
 11
146.4517083306501
 21
642.6794594735369
 31
0.0
  0
LINE
  5
13D
330
2F
100
AcDbEntity
  8
0
 62
     0
100
AcDbLine
 10
151.5938626247329
 20
640.3657323042001
 30
0.0
 11
149.4616476509383
 21
642.4979472779948
 31
0.0
  0
LINE
  5
13E
330
2F
100
AcDbEntity
  8
0
 62
     0
100
AcDbLine
 10
154.6038019450212
 20
640.1842201086581
 30
0.0
 11
152.4715869712265
 21
642.3164350824528
 31
0.0
  0
LINE
  5
13F
330
2F
100
AcDbEntity
  8
0
 62
     0
100
AcDbLine
 10
157.6137412653094
 20
640.002707913116
 30
0.0
 11
155.4815262915147
 21
642.1349228869107
 31
0.0
  0
LINE
  5
140
330
2F
100
AcDbEntity
  8
0
 62
     0
100
AcDbLine
 10
160.6236805855976
 20
639.8211957175741
 30
0.0
 11
158.4914656118029
 21
641.9534106913687
 31
0.0
  0
LINE
  5
141
330
2F
100
AcDbEntity
  8
0
 62
     0
100
AcDbLine
 10
163.6336199058859
 20
639.6396835220321
 30
0.0
 11
161.5014049320912
 21
641.7718984958268
 31
0.0
  0
LINE
  5
142
330
2F
100
AcDbEntity
  8
0
 62
     0
100
AcDbLine
 10
166.6435592261741
 20
639.45817132649
 30
0.0
 11
164.5113442523794
 21
641.5903863002847
 31
0.0
  0
LINE
  5
143
330
2F
100
AcDbEntity
  8
0
 62
     0
100
AcDbLine
 10
185.4979039552365
 20
623.4322537221737
 30
0.0
 11
183.6559132852859
 21
625.2742443921242
 31
0.0
  0
LINE
  5
144
330
2F
100
AcDbEntity
  8
0
 62
     0
100
AcDbLine
 10
169.6534985464623
 20
639.276659130948
 30
0.0
 11
167.5212835726676
 21
641.4088741047427
 31
0.0
  0
LINE
  5
145
330
2F
100
AcDbEntity
  8
0
 62
     0
100
AcDbLine
 10
185.6559132852859
 20
626.1026715168704
 30
0.0
 11
183.6559132852859
 21
628.1026715168705
 31
0.0
  0
LINE
  5
146
330
2F
100
AcDbEntity
  8
0
 62
     0
100
AcDbLine
 10
172.6634378667505
 20
639.0951469354059
 30
0.0
 11
170.5312228929558
 21
641.2273619092006
 31
0.0
  0
LINE
  5
147
330
2F
100
AcDbEntity
  8
0
 62
     0
100
AcDbLine
 10
185.6559132852859
 20
628.9310986416166
 30
0.0
 11
183.6559132852859
 21
630.9310986416167
 31
0.0
  0
LINE
  5
148
330
2F
100
AcDbEntity
  8
0
 62
     0
100
AcDbLine
 10
175.6733771870387
 20
638.9136347398639
 30
0.0
 11
173.541162213244
 21
641.0458497136586
 31
0.0
  0
LINE
  5
149
330
2F
100
AcDbEntity
  8
0
 62
     0
100
AcDbLine
 10
185.6559132852859
 20
631.7595257663628
 30
0.0
 11
183.5591740193172
 21
633.8562650323316
 31
0.0
  0
LINE
  5
14A
330
2F
100
AcDbEntity
  8
0
 62
     0
100
AcDbLine
 10
178.7289988857957
 20
638.6864401658531
 30
0.0
 11
176.5511015335322
 21
640.8643375181165
 31
0.0
  0
LINE
  5
14B
330
2F
100
AcDbEntity
  8
0
 62
     0
100
AcDbLine
 10
185.3808173936203
 20
634.8630487827747
 30
0.0
 11
179.7357826362387
 21
640.5080835401562
 31
0.0
  0
ENDBLK
  5
14C
330
2F
100
AcDbEntity
  8
0
100
AcDbBlockEnd
  0
BLOCK
  5
14D
330
30
100
AcDbEntity
  8
0
100
AcDbBlockBegin
  2
*X6
 70
     1
 10
0.0
 20
0.0
 30
0.0
  3
*X6
  1

  0
LINE
  5
14E
330
30
100
AcDbEntity
  8
0
 62
     0
100
AcDbLine
 10
330.4634657872211
 20
639.6870380007221
 30
0.0
 11
328.5737881161812
 21
641.576715671762
 31
0.0
  0
LINE
  5
14F
330
30
100
AcDbEntity
  8
0
 62
     0
100
AcDbLine
 10
327.7959040288441
 20
639.5261726343529
 30
0.0
 11
325.9062263578041
 21
641.4158503053929
 31
0.0
  0
LINE
  5
150
330
30
100
AcDbEntity
  8
0
 62
     0
100
AcDbLine
 10
325.128342270467
 20
639.3653072679839
 30
0.0
 11
323.238664599427
 21
641.2549849390237
 31
0.0
  0
LINE
  5
151
330
30
100
AcDbEntity
  8
0
 62
     0
100
AcDbLine
 10
322.4607805120899
 20
639.2044419016147
 30
0.0
 11
320.5711028410499
 21
641.0941195726547
 31
0.0
  0
LINE
  5
152
330
30
100
AcDbEntity
  8
0
 62
     0
100
AcDbLine
 10
319.7932187537128
 20
639.0435765352456
 30
0.0
 11
317.9035410826728
 21
640.9332542062855
 31
0.0
  0
LINE
  5
153
330
30
100
AcDbEntity
  8
0
 62
     0
100
AcDbLine
 10
317.1256569953358
 20
638.8827111688764
 30
0.0
 11
315.2359793242958
 21
640.7723888399163
 31
0.0
  0
LINE
  5
154
330
30
100
AcDbEntity
  8
0
 62
     0
100
AcDbLine
 10
314.5076602381819
 20
638.672280801284
 30
0.0
 11
312.8900849900426
 21
640.2898560494234
 31
0.0
  0
LINE
  5
155
330
30
100
AcDbEntity
  8
0
 62
     0
100
AcDbLine
 10
312.4786433542329
 20
637.8728705604868
 30
0.0
 11
311.0366722171203
 21
639.3148416975996
 31
0.0
  0
LINE
  5
156
330
30
100
AcDbEntity
  8
0
 62
     0
100
AcDbLine
 10
310.9800633252814
 20
636.5430234646922
 30
0.0
 11
309.559627490451
 21
637.9634592995225
 31
0.0
  0
LINE
  5
157
330
30
100
AcDbEntity
  8
0
 62
     0
100
AcDbLine
 10
309.9764923676709
 20
634.7181672975565
 30
0.0
 11
308.4456441856067
 21
636.2490154796208
 31
0.0
  0
LINE
  5
158
330
30
100
AcDbEntity
  8
0
 62
     0
100
AcDbLine
 10
309.6559132852861
 20
632.210319255195
 30
0.0
 11
307.7652050478341
 21
634.1010274926471
 31
0.0
  0
LINE
  5
159
330
30
100
AcDbEntity
  8
0
 62
     0
100
AcDbLine
 10
309.6559132852861
 20
629.3818921304489
 30
0.0
 11
307.6559132852862
 21
631.3818921304489
 31
0.0
  0
LINE
  5
15A
330
30
100
AcDbEntity
  8
0
 62
     0
100
AcDbLine
 10
309.6559132852861
 20
626.5534650057027
 30
0.0
 11
307.6559132852862
 21
628.5534650057027
 31
0.0
  0
LINE
  5
15B
330
30
100
AcDbEntity
  8
0
 62
     0
100
AcDbLine
 10
309.6559132852861
 20
623.7250378809565
 30
0.0
 11
307.6559132852862
 21
625.7250378809565
 31
0.0
  0
LINE
  5
15C
330
30
100
AcDbEntity
  8
0
 62
     0
100
AcDbLine
 10
333.1310275455982
 20
639.8479033670912
 30
0.0
 11
331.2413498745582
 21
641.7375810381311
 31
0.0
  0
LINE
  5
15D
330
30
100
AcDbEntity
  8
0
 62
     0
100
AcDbLine
 10
335.7985893039753
 20
640.0087687334603
 30
0.0
 11
333.9089116329353
 21
641.8984464045002
 31
0.0
  0
LINE
  5
15E
330
30
100
AcDbEntity
  8
0
 62
     0
100
AcDbLine
 10
338.4661510623524
 20
640.1696340998293
 30
0.0
 11
336.5764733913124
 21
642.0593117708693
 31
0.0
  0
LINE
  5
15F
330
30
100
AcDbEntity
  8
0
 62
     0
100
AcDbLine
 10
341.1337128207295
 20
640.3304994661985
 30
0.0
 11
339.2440351496895
 21
642.2201771372384
 31
0.0
  0
LINE
  5
160
330
30
100
AcDbEntity
  8
0
 62
     0
100
AcDbLine
 10
343.8012745791064
 20
640.4913648325677
 30
0.0
 11
341.9115969080666
 21
642.3810425036075
 31
0.0
  0
LINE
  5
161
330
30
100
AcDbEntity
  8
0
 62
     0
100
AcDbLine
 10
346.4688363374835
 20
640.6522301989367
 30
0.0
 11
344.5791586664436
 21
642.5419078699767
 31
0.0
  0
LINE
  5
162
330
30
100
AcDbEntity
  8
0
 62
     0
100
AcDbLine
 10
349.1363980958606
 20
640.8130955653059
 30
0.0
 11
347.2467204248207
 21
642.7027732363458
 31
0.0
  0
LINE
  5
163
330
30
100
AcDbEntity
  8
0
 62
     0
100
AcDbLine
 10
351.8039598542377
 20
640.973960931675
 30
0.0
 11
349.9142821831978
 21
642.8636386027148
 31
0.0
  0
LINE
  5
164
330
30
100
AcDbEntity
  8
0
 62
     0
100
AcDbLine
 10
354.4715216126148
 20
641.1348262980442
 30
0.0
 11
352.5818439415748
 21
643.024503969084
 31
0.0
  0
LINE
  5
165
330
30
100
AcDbEntity
  8
0
 62
     0
100
AcDbLine
 10
357.1390833709918
 20
641.2956916644133
 30
0.0
 11
355.2494056999519
 21
643.1853693354532
 31
0.0
  0
LINE
  5
166
330
30
100
AcDbEntity
  8
0
 62
     0
100
AcDbLine
 10
359.8437372569243
 20
641.4194649032269
 30
0.0
 11
357.916967458329
 21
643.3462347018222
 31
0.0
  0
LINE
  5
167
330
30
100
AcDbEntity
  8
0
 62
     0
100
AcDbLine
 10
364.0499141730661
 20
640.0417151118313
 30
0.0
 11
360.7956536388345
 21
643.2959756460628
 31
0.0
  0
LINE
  5
168
330
30
100
AcDbEntity
  8
0
 62
     0
100
AcDbLine
 10
368.4761237751043
 20
638.4439326345393
 30
0.0
 11
365.1506041368238
 21
641.7694522728198
 31
0.0
  0
ENDBLK
  5
169
330
30
100
AcDbEntity
  8
0
100
AcDbBlockEnd
  0
BLOCK
  5
16A
330
31
100
AcDbEntity
  8
0
100
AcDbBlockBegin
  2
*X7
 70
     1
 10
0.0
 20
0.0
 30
0.0
  3
*X7
  1

  0
LINE
  5
16B
330
31
100
AcDbEntity
  8
0
 62
     0
100
AcDbLine
 10
186.2501764215393
 20
621.0
 30
0.0
 11
186.468083631185
 21
621.0
 31
0.0
  0
LINE
  5
16C
330
31
100
AcDbEntity
  8
0
 62
     0
100
AcDbLine
 10
306.843742939387
 20
621.0
 30
0.0
 11
307.06165014902
 21
621.0
 31
0.0
  0
LINE
  5
16D
330
31
100
AcDbEntity
  8
0
 62
     0
100
AcDbLine
 10
185.9111604048343
 20
621.1
 30
0.0
 11
186.432087354148
 21
621.1
 31
0.0
  0
LINE
  5
16E
330
31
100
AcDbEntity
  8
0
 62
     0
100
AcDbLine
 10
306.8797392164241
 20
621.1
 30
0.0
 11
307.4006661657286
 21
621.1
 31
0.0
  0
LINE
  5
16F
330
31
100
AcDbEntity
  8
0
 62
     0
100
AcDbLine
 10
185.6562177018048
 20
621.2
 30
0.0
 11
186.396091077111
 21
621.2
 31
0.0
  0
LINE
  5
170
330
31
100
AcDbEntity
  8
0
 62
     0
100
AcDbLine
 10
306.9157354934611
 20
621.2
 30
0.0
 11
307.6556088687596
 21
621.2
 31
0.0
  0
LINE
  5
171
330
31
100
AcDbEntity
  8
0
 62
     0
100
AcDbLine
 10
185.4460078267005
 20
621.3
 30
0.0
 11
186.3600948000739
 21
621.3
 31
0.0
  0
LINE
  5
172
330
31
100
AcDbEntity
  8
0
 62
     0
100
AcDbLine
 10
306.9517317704981
 20
621.3
 30
0.0
 11
307.865818743865
 21
621.3
 31
0.0
  0
LINE
  5
173
330
31
100
AcDbEntity
  8
0
 62
     0
100
AcDbLine
 10
185.2650932596418
 20
621.4000000000001
 30
0.0
 11
186.3240985230369
 21
621.4000000000001
 31
0.0
  0
LINE
  5
174
330
31
100
AcDbEntity
  8
0
 62
     0
100
AcDbLine
 10
306.9877280475351
 20
621.4000000000001
 30
0.0
 11
308.0467333109243
 21
621.4000000000001
 31
0.0
  0
LINE
  5
175
330
31
100
AcDbEntity
  8
0
 62
     0
100
AcDbLine
 10
185.1054868894834
 20
621.4999999999999
 30
0.0
 11
186.2881022459999
 21
621.4999999999999
 31
0.0
  0
LINE
  5
176
330
31
100
AcDbEntity
  8
0
 62
     0
100
AcDbLine
 10
307.0237243245721
 20
621.4999999999999
 30
0.0
 11
308.2063396810832
 21
621.4999999999999
 31
0.0
  0
LINE
  5
177
330
31
100
AcDbEntity
  8
0
 62
     0
100
AcDbLine
 10
184.9624107248637
 20
621.6
 30
0.0
 11
186.2502527328418
 21
621.6
 31
0.0
  0
LINE
  5
178
330
31
100
AcDbEntity
  8
0
 62
     0
100
AcDbLine
 10
307.0615738377299
 20
621.6
 30
0.0
 11
308.3494158457033
 21
621.6
 31
0.0
  0
LINE
  5
179
330
31
100
AcDbEntity
  8
0
 62
     0
100
AcDbLine
 10
184.8327334130644
 20
621.7
 30
0.0
 11
186.2101767726299
 21
621.7
 31
0.0
  0
LINE
  5
17A
330
31
100
AcDbEntity
  8
0
 62
     0
100
AcDbLine
 10
307.1016497979418
 20
621.7
 30
0.0
 11
308.4790931575029
 21
621.7
 31
0.0
  0
LINE
  5
17B
330
31
100
AcDbEntity
  8
0
 62
     0
100
AcDbLine
 10
184.7142692075282
 20
621.8
 30
0.0
 11
186.1716513835503
 21
621.8
 31
0.0
  0
LINE
  5
17C
330
31
100
AcDbEntity
  8
0
 62
     0
100
AcDbLine
 10
307.1401751870213
 20
621.8
 30
0.0
 11
308.5975573630393
 21
621.8
 31
0.0
  0
LINE
  5
17D
330
31
100
AcDbEntity
  8
0
 62
     0
100
AcDbLine
 10
184.6054202186414
 20
621.9000000000001
 30
0.0
 11
186.1346527385662
 21
621.9000000000001
 31
0.0
  0
LINE
  5
17E
330
31
100
AcDbEntity
  8
0
 62
     0
100
AcDbLine
 10
307.1771738320054
 20
621.9000000000001
 30
0.0
 11
308.7064063519263
 21
621.9000000000001
 31
0.0
  0
LINE
  5
17F
330
31
100
AcDbEntity
  8
0
 62
     0
100
AcDbLine
 10
184.5049763038614
 20
622.0
 30
0.0
 11
186.0991584123584
 21
622.0
 31
0.0
  0
LINE
  5
180
330
31
100
AcDbEntity
  8
0
 62
     0
100
AcDbLine
 10
307.2126681582133
 20
622.0
 30
0.0
 11
308.8068502667066
 21
622.0
 31
0.0
  0
LINE
  5
181
330
31
100
AcDbEntity
  8
0
 62
     0
100
AcDbLine
 10
184.4119951281435
 20
622.1
 30
0.0
 11
186.0651473023705
 21
622.1
 31
0.0
  0
LINE
  5
182
330
31
100
AcDbEntity
  8
0
 62
     0
100
AcDbLine
 10
307.2466792682011
 20
622.1
 30
0.0
 11
308.8998314424245
 21
622.1
 31
0.0
  0
LINE
  5
183
330
31
100
AcDbEntity
  8
0
 62
     0
100
AcDbLine
 10
184.3257262831475
 20
622.2
 30
0.0
 11
186.0325995566468
 21
622.2
 31
0.0
  0
LINE
  5
184
330
31
100
AcDbEntity
  8
0
 62
     0
100
AcDbLine
 10
307.2792270139248
 20
622.2
 30
0.0
 11
308.9861002874206
 21
622.2
 31
0.0
  0
LINE
  5
185
330
31
100
AcDbEntity
  8
0
 62
     0
100
AcDbLine
 10
184.2455611455965
 20
622.3
 30
0.0
 11
186.0014965078215
 21
622.3
 31
0.0
  0
LINE
  5
186
330
31
100
AcDbEntity
  8
0
 62
     0
100
AcDbLine
 10
307.3103300627502
 20
622.3
 30
0.0
 11
309.0662654249718
 21
622.3
 31
0.0
  0
LINE
  5
187
330
31
100
AcDbEntity
  8
0
 62
     0
100
AcDbLine
 10
184.1709985361709
 20
622.4000000000001
 30
0.0
 11
185.9718206126927
 21
622.4000000000001
 31
0.0
  0
LINE
  5
188
330
31
100
AcDbEntity
  8
0
 62
     0
100
AcDbLine
 10
307.3400059578789
 20
622.4000000000001
 30
0.0
 11
309.1408280343975
 21
622.4000000000001
 31
0.0
  0
LINE
  5
189
330
31
100
AcDbEntity
  8
0
 62
     0
100
AcDbLine
 10
184.1016204842928
 20
622.5
 30
0.0
 11
185.943555396879
 21
622.5
 31
0.0
  0
LINE
  5
18A
330
31
100
AcDbEntity
  8
0
 62
     0
100
AcDbLine
 10
307.3682711736926
 20
622.5
 30
0.0
 11
309.2102060862757
 21
622.5
 31
0.0
  0
LINE
  5
18B
330
31
100
AcDbEntity
  8
0
 62
     0
100
AcDbLine
 10
184.0370746841702
 20
622.5999999999999
 30
0.0
 11
185.9166854041117
 21
622.5999999999999
 31
0.0
  0
LINE
  5
18C
330
31
100
AcDbEntity
  8
0
 62
     0
100
AcDbLine
 10
307.3951411664599
 20
622.5999999999999
 30
0.0
 11
309.2747518863983
 21
622.5999999999999
 31
0.0
  0
LINE
  5
18D
330
31
100
AcDbEntity
  8
0
 62
     0
100
AcDbLine
 10
183.9770615144118
 20
622.7
 30
0.0
 11
185.8911961497673
 21
622.7
 31
0.0
  0
LINE
  5
18E
330
31
100
AcDbEntity
  8
0
 62
     0
100
AcDbLine
 10
307.4206304208043
 20
622.7
 30
0.0
 11
309.3347650561568
 21
622.7
 31
0.0
  0
LINE
  5
18F
330
31
100
AcDbEntity
  8
0
 62
     0
100
AcDbLine
 10
183.9213242510237
 20
622.8
 30
0.0
 11
185.8670740782867
 21
622.8
 31
0.0
  0
LINE
  5
190
330
31
100
AcDbEntity
  8
0
 62
     0
100
AcDbLine
 10
307.4447524922849
 20
622.8
 30
0.0
 11
309.3905023195449
 21
622.8
 31
0.0
  0
LINE
  5
191
330
31
100
AcDbEntity
  8
0
 62
     0
100
AcDbLine
 10
183.8696415658621
 20
622.9
 30
0.0
 11
185.844306524167
 21
622.9
 31
0.0
  0
LINE
  5
192
330
31
100
AcDbEntity
  8
0
 62
     0
100
AcDbLine
 10
307.4675200464046
 20
622.9
 30
0.0
 11
309.4421850047066
 21
622.9
 31
0.0
  0
LINE
  5
193
330
31
100
AcDbEntity
  8
0
 62
     0
100
AcDbLine
 10
183.8218216936981
 20
623.0
 30
0.0
 11
185.8228816762452
 21
623.0
 31
0.0
  0
LINE
  5
194
330
31
100
AcDbEntity
  8
0
 62
     0
100
AcDbLine
 10
307.4889448943264
 20
623.0
 30
0.0
 11
309.4900048768705
 21
623.0
 31
0.0
  0
LINE
  5
195
330
31
100
AcDbEntity
  8
0
 62
     0
100
AcDbLine
 10
183.7776978394878
 20
623.1
 30
0.0
 11
185.8027885450247
 21
623.1
 31
0.0
  0
LINE
  5
196
330
31
100
AcDbEntity
  8
0
 62
     0
100
AcDbLine
 10
307.5090380255469
 20
623.1
 30
0.0
 11
309.534128731081
 21
623.1
 31
0.0
  0
LINE
  5
197
330
31
100
AcDbEntity
  8
0
 62
     0
100
AcDbLine
 10
183.7371245224376
 20
623.2
 30
0.0
 11
185.7840169328195
 21
623.2
 31
0.0
  0
LINE
  5
198
330
31
100
AcDbEntity
  8
0
 62
     0
100
AcDbLine
 10
307.5278096377521
 20
623.2
 30
0.0
 11
309.5747020481312
 21
623.2
 31
0.0
  0
LINE
  5
199
330
31
100
AcDbEntity
  8
0
 62
     0
100
AcDbLine
 10
183.6999746382263
 20
623.3
 30
0.0
 11
185.7665574065183
 21
623.3
 31
0.0
  0
LINE
  5
19A
330
31
100
AcDbEntity
  8
0
 62
     0
100
AcDbLine
 10
307.5452691640534
 20
623.3
 30
0.0
 11
309.6118519323425
 21
623.3
 31
0.0
  0
LINE
  5
19B
330
31
100
AcDbEntity
  8
0
 62
     0
100
AcDbLine
 10
183.6661370793639
 20
623.4
 30
0.0
 11
185.75040127279
 21
623.4
 31
0.0
  0
LINE
  5
19C
330
31
100
AcDbEntity
  8
0
 62
     0
100
AcDbLine
 10
307.5614252977816
 20
623.4
 30
0.0
 11
309.645689491205
 21
623.4
 31
0.0
  0
LINE
  5
19D
330
31
100
AcDbEntity
  8
0
 62
     0
100
AcDbLine
 10
199.4368105890108
 20
584.9
 30
0.0
 11
199.4627396415461
 21
584.9
 31
0.0
  0
LINE
  5
19E
330
31
100
AcDbEntity
  8
0
 62
     0
100
AcDbLine
 10
293.8490869290259
 20
584.9
 30
0.0
 11
293.8750159815592
 21
584.9
 31
0.0
  0
LINE
  5
19F
330
31
100
AcDbEntity
  8
0
 62
     0
100
AcDbLine
 10
199.3773029915141
 20
584.8
 30
0.0
 11
199.4987359185831
 21
584.8
 31
0.0
  0
LINE
  5
1A0
330
31
100
AcDbEntity
  8
0
 62
     0
100
AcDbLine
 10
293.8130906519889
 20
584.8
 30
0.0
 11
293.9345235790559
 21
584.8
 31
0.0
  0
LINE
  5
1A1
330
31
100
AcDbEntity
  8
0
 62
     0
100
AcDbLine
 10
199.3232982049702
 20
584.7
 30
0.0
 11
199.5347321956201
 21
584.7
 31
0.0
  0
LINE
  5
1A2
330
31
100
AcDbEntity
  8
0
 62
     0
100
AcDbLine
 10
293.7770943749519
 20
584.7
 30
0.0
 11
293.9885283655999
 21
584.7
 31
0.0
  0
LINE
  5
1A3
330
31
100
AcDbEntity
  8
0
 62
     0
100
AcDbLine
 10
199.2744405686183
 20
584.6
 30
0.0
 11
199.5707284726571
 21
584.6
 31
0.0
  0
LINE
  5
1A4
330
31
100
AcDbEntity
  8
0
 62
     0
100
AcDbLine
 10
293.7410980979149
 20
584.6
 30
0.0
 11
294.0373860019518
 21
584.6
 31
0.0
  0
LINE
  5
1A5
330
31
100
AcDbEntity
  8
0
 62
     0
100
AcDbLine
 10
199.2304343117162
 20
584.4999999999999
 30
0.0
 11
199.6067247496941
 21
584.4999999999999
 31
0.0
  0
LINE
  5
1A6
330
31
100
AcDbEntity
  8
0
 62
     0
100
AcDbLine
 10
293.7051018208779
 20
584.4999999999999
 30
0.0
 11
294.081392258854
 21
584.4999999999999
 31
0.0
  0
LINE
  5
1A7
330
31
100
AcDbEntity
  8
0
 62
     0
100
AcDbLine
 10
199.1910321627395
 20
584.4
 30
0.0
 11
199.6427210267312
 21
584.4
 31
0.0
  0
LINE
  5
1A8
330
31
100
AcDbEntity
  8
0
 62
     0
100
AcDbLine
 10
293.6691055438409
 20
584.4
 30
0.0
 11
294.1207944078307
 21
584.4
 31
0.0
  0
LINE
  5
1A9
330
31
100
AcDbEntity
  8
0
 62
     0
100
AcDbLine
 10
199.1560268087235
 20
584.3
 30
0.0
 11
199.6787173037681
 21
584.3
 31
0.0
  0
LINE
  5
1AA
330
31
100
AcDbEntity
  8
0
 62
     0
100
AcDbLine
 10
293.6331092668039
 20
584.3
 30
0.0
 11
294.1557997618467
 21
584.3
 31
0.0
  0
LINE
  5
1AB
330
31
100
AcDbEntity
  8
0
 62
     0
100
AcDbLine
 10
199.1252444030745
 20
584.2
 30
0.0
 11
199.7147135808052
 21
584.2
 31
0.0
  0
LINE
  5
1AC
330
31
100
AcDbEntity
  8
0
 62
     0
100
AcDbLine
 10
293.5971129897668
 20
584.2
 30
0.0
 11
294.1865821674957
 21
584.2
 31
0.0
  0
LINE
  5
1AD
330
31
100
AcDbEntity
  8
0
 62
     0
100
AcDbLine
 10
199.0985395785075
 20
584.1
 30
0.0
 11
199.7507098578422
 21
584.1
 31
0.0
  0
LINE
  5
1AE
330
31
100
AcDbEntity
  8
0
 62
     0
100
AcDbLine
 10
293.5611167127299
 20
584.1
 30
0.0
 11
294.2132869920627
 21
584.1
 31
0.0
  0
LINE
  5
1AF
330
31
100
AcDbEntity
  8
0
 62
     0
100
AcDbLine
 10
199.075791589333
 20
584.0
 30
0.0
 11
199.7867061348792
 21
584.0
 31
0.0
  0
LINE
  5
1B0
330
31
100
AcDbEntity
  8
0
 62
     0
100
AcDbLine
 10
293.5251204356928
 20
584.0
 30
0.0
 11
294.2360349812373
 21
584.0
 31
0.0
  0
LINE
  5
1B1
330
31
100
AcDbEntity
  8
0
 62
     0
100
AcDbLine
 10
199.0569013188696
 20
583.8999999999999
 30
0.0
 11
199.8227024119162
 21
583.8999999999999
 31
0.0
  0
LINE
  5
1B2
330
31
100
AcDbEntity
  8
0
 62
     0
100
AcDbLine
 10
293.4891241586558
 20
583.8999999999999
 30
0.0
 11
294.2549252517007
 21
583.8999999999999
 31
0.0
  0
LINE
  5
1B3
330
31
100
AcDbEntity
  8
0
 62
     0
100
AcDbLine
 10
199.0417889638749
 20
583.8
 30
0.0
 11
199.8586986889532
 21
583.8
 31
0.0
  0
LINE
  5
1B4
330
31
100
AcDbEntity
  8
0
 62
     0
100
AcDbLine
 10
293.4531278816189
 20
583.8
 30
0.0
 11
294.2700376066954
 21
583.8
 31
0.0
  0
LINE
  5
1B5
330
31
100
AcDbEntity
  8
0
 62
     0
100
AcDbLine
 10
199.0303922610946
 20
583.7
 30
0.0
 11
199.8946949659902
 21
583.7
 31
0.0
  0
LINE
  5
1B6
330
31
100
AcDbEntity
  8
0
 62
     0
100
AcDbLine
 10
293.4171316045818
 20
583.7
 30
0.0
 11
294.2814343094757
 21
583.7
 31
0.0
  0
LINE
  5
1B7
330
31
100
AcDbEntity
  8
0
 62
     0
100
AcDbLine
 10
199.022665159192
 20
583.6
 30
0.0
 11
199.9306912430272
 21
583.6
 31
0.0
  0
LINE
  5
1B8
330
31
100
AcDbEntity
  8
0
 62
     0
100
AcDbLine
 10
293.3811353275448
 20
583.6
 30
0.0
 11
294.2891614113783
 21
583.6
 31
0.0
  0
LINE
  5
1B9
330
31
100
AcDbEntity
  8
0
 62
     0
100
AcDbLine
 10
199.0185768675014
 20
583.4999999999999
 30
0.0
 11
199.9666875200642
 21
583.4999999999999
 31
0.0
  0
LINE
  5
1BA
330
31
100
AcDbEntity
  8
0
 62
     0
100
AcDbLine
 10
293.3451390505078
 20
583.4999999999999
 30
0.0
 11
294.2932497030689
 21
583.4999999999999
 31
0.0
  0
LINE
  5
1BB
330
31
100
AcDbEntity
  8
0
 62
     0
100
AcDbLine
 10
199.0181112346086
 20
583.3999999999999
 30
0.0
 11
202.088718030758
 21
583.3999999999999
 31
0.0
  0
LINE
  5
1BC
330
31
100
AcDbEntity
  8
0
 62
     0
100
AcDbLine
 10
291.2231085398146
 20
583.3999999999999
 30
0.0
 11
294.2937153359617
 21
583.3999999999999
 31
0.0
  0
LINE
  5
1BD
330
31
100
AcDbEntity
  8
0
 62
     0
100
AcDbLine
 10
199.021266427037
 20
583.3000000000001
 30
0.0
 11
201.8803846974249
 21
583.3000000000001
 31
0.0
  0
LINE
  5
1BE
330
31
100
AcDbEntity
  8
0
 62
     0
100
AcDbLine
 10
291.4314418731477
 20
583.3000000000001
 30
0.0
 11
294.2905601435334
 21
583.3000000000001
 31
0.0
  0
LINE
  5
1BF
330
31
100
AcDbEntity
  8
0
 62
     0
100
AcDbLine
 10
199.0280548929737
 20
583.2
 30
0.0
 11
201.6720513640915
 21
583.2
 31
0.0
  0
LINE
  5
1C0
330
31
100
AcDbEntity
  8
0
 62
     0
100
AcDbLine
 10
291.6397752064811
 20
583.2
 30
0.0
 11
294.2837716775967
 21
583.2
 31
0.0
  0
LINE
  5
1C1
330
31
100
AcDbEntity
  8
0
 62
     0
100
AcDbLine
 10
199.0385036093513
 20
583.1
 30
0.0
 11
201.4637180307581
 21
583.1
 31
0.0
  0
LINE
  5
1C2
330
31
100
AcDbEntity
  8
0
 62
     0
100
AcDbLine
 10
291.8481085398145
 20
583.1
 30
0.0
 11
294.2733229612191
 21
583.1
 31
0.0
  0
LINE
  5
1C3
330
31
100
AcDbEntity
  8
0
 62
     0
100
AcDbLine
 10
199.0526546238287
 20
583.0
 30
0.0
 11
201.2553846974248
 21
583.0
 31
0.0
  0
LINE
  5
1C4
330
31
100
AcDbEntity
  8
0
 62
     0
100
AcDbLine
 10
292.0564418731478
 20
583.0
 30
0.0
 11
294.2591719467415
 21
583.0
 31
0.0
  0
LINE
  5
1C5
330
31
100
AcDbEntity
  8
0
 62
     0
100
AcDbLine
 10
199.0705659174328
 20
582.8999999999999
 30
0.0
 11
201.0470513640914
 21
582.8999999999999
 31
0.0
  0
LINE
  5
1C6
330
31
100
AcDbEntity
  8
0
 62
     0
100
AcDbLine
 10
292.2647752064812
 20
582.8999999999999
 30
0.0
 11
294.2412606531375
 21
582.8999999999999
 31
0.0
  0
LINE
  5
1C7
330
31
100
AcDbEntity
  8
0
 62
     0
100
AcDbLine
 10
199.0923126300765
 20
582.8000000000001
 30
0.0
 11
200.8387180307583
 21
582.8000000000001
 31
0.0
  0
LINE
  5
1C8
330
31
100
AcDbEntity
  8
0
 62
     0
100
AcDbLine
 10
292.4731085398143
 20
582.8000000000001
 30
0.0
 11
294.2195139404938
 21
582.8000000000001
 31
0.0
  0
LINE
  5
1C9
330
31
100
AcDbEntity
  8
0
 62
     0
100
AcDbLine
 10
199.1179887114389
 20
582.7
 30
0.0
 11
200.7326207200751
 21
582.7
 31
0.0
  0
LINE
  5
1CA
330
31
100
AcDbEntity
  8
0
 62
     0
100
AcDbLine
 10
292.579205850497
 20
582.7
 30
0.0
 11
294.1938378591313
 21
582.7
 31
0.0
  0
LINE
  5
1CB
330
31
100
AcDbEntity
  8
0
 62
     0
100
AcDbLine
 10
199.147709085897
 20
582.6
 30
0.0
 11
200.7806207200751
 21
582.6
 31
0.0
  0
LINE
  5
1CC
330
31
100
AcDbEntity
  8
0
 62
     0
100
AcDbLine
 10
292.531205850497
 20
582.6
 30
0.0
 11
294.1641174846732
 21
582.6
 31
0.0
  0
LINE
  5
1CD
330
31
100
AcDbEntity
  8
0
 62
     0
100
AcDbLine
 10
199.1816124553943
 20
582.5
 30
0.0
 11
200.8286207200751
 21
582.5
 31
0.0
  0
LINE
  5
1CE
330
31
100
AcDbEntity
  8
0
 62
     0
100
AcDbLine
 10
292.483205850497
 20
582.5
 30
0.0
 11
294.1302141151759
 21
582.5
 31
0.0
  0
LINE
  5
1CF
330
31
100
AcDbEntity
  8
0
 62
     0
100
AcDbLine
 10
199.219864912851
 20
582.3999999999999
 30
0.0
 11
200.8766207200751
 21
582.3999999999999
 31
0.0
  0
LINE
  5
1D0
330
31
100
AcDbEntity
  8
0
 62
     0
100
AcDbLine
 10
292.435205850497
 20
582.3999999999999
 30
0.0
 11
294.0919616577192
 21
582.3999999999999
 31
0.0
  0
LINE
  5
1D1
330
31
100
AcDbEntity
  8
0
 62
     0
100
AcDbLine
 10
199.2626646079769
 20
582.3
 30
0.0
 11
200.924620720075
 21
582.3
 31
0.0
  0
LINE
  5
1D2
330
31
100
AcDbEntity
  8
0
 62
     0
100
AcDbLine
 10
292.387205850497
 20
582.3
 30
0.0
 11
294.0491619625932
 21
582.3
 31
0.0
  0
LINE
  5
1D3
330
31
100
AcDbEntity
  8
0
 62
     0
100
AcDbLine
 10
199.3102478082178
 20
582.2
 30
0.0
 11
200.9726207200751
 21
582.2
 31
0.0
  0
LINE
  5
1D4
330
31
100
AcDbEntity
  8
0
 62
     0
100
AcDbLine
 10
292.3392058504969
 20
582.2
 30
0.0
 11
294.0015787623523
 21
582.2
 31
0.0
  0
LINE
  5
1D5
330
31
100
AcDbEntity
  8
0
 62
     0
100
AcDbLine
 10
199.3628968481131
 20
582.1
 30
0.0
 11
201.0206207200751
 21
582.1
 31
0.0
  0
LINE
  5
1D6
330
31
100
AcDbEntity
  8
0
 62
     0
100
AcDbLine
 10
292.2912058504969
 20
582.1
 30
0.0
 11
293.948929722457
 21
582.1
 31
0.0
  0
LINE
  5
1D7
330
31
100
AcDbEntity
  8
0
 62
     0
100
AcDbLine
 10
199.4209506908453
 20
582.0
 30
0.0
 11
201.0686207200751
 21
582.0
 31
0.0
  0
LINE
  5
1D8
330
31
100
AcDbEntity
  8
0
 62
     0
100
AcDbLine
 10
292.243205850497
 20
582.0
 30
0.0
 11
293.8908758797248
 21
582.0
 31
0.0
  0
LINE
  5
1D9
330
31
100
AcDbEntity
  8
0
 62
     0
100
AcDbLine
 10
199.4848191886061
 20
581.8999999999999
 30
0.0
 11
201.1166207200751
 21
581.8999999999999
 31
0.0
  0
LINE
  5
1DA
330
31
100
AcDbEntity
  8
0
 62
     0
100
AcDbLine
 10
292.195205850497
 20
581.8999999999999
 30
0.0
 11
293.8270073819638
 21
581.8999999999999
 31
0.0
  0
LINE
  5
1DB
330
31
100
AcDbEntity
  8
0
 62
     0
100
AcDbLine
 10
199.5550027175463
 20
581.8
 30
0.0
 11
201.1646207200751
 21
581.8
 31
0.0
  0
LINE
  5
1DC
330
31
100
AcDbEntity
  8
0
 62
     0
100
AcDbLine
 10
292.147205850497
 20
581.8
 30
0.0
 11
293.7568238530236
 21
581.8
 31
0.0
  0
LINE
  5
1DD
330
31
100
AcDbEntity
  8
0
 62
     0
100
AcDbLine
 10
199.6321198538157
 20
581.7
 30
0.0
 11
201.2126207200751
 21
581.7
 31
0.0
  0
LINE
  5
1DE
330
31
100
AcDbEntity
  8
0
 62
     0
100
AcDbLine
 10
292.099205850497
 20
581.7
 30
0.0
 11
293.6797067167541
 21
581.7
 31
0.0
  0
LINE
  5
1DF
330
31
100
AcDbEntity
  8
0
 62
     0
100
AcDbLine
 10
199.7169474922002
 20
581.6
 30
0.0
 11
201.2606207200751
 21
581.6
 31
0.0
  0
LINE
  5
1E0
330
31
100
AcDbEntity
  8
0
 62
     0
100
AcDbLine
 10
292.051205850497
 20
581.6
 30
0.0
 11
293.5948790783694
 21
581.6
 31
0.0
  0
LINE
  5
1E1
330
31
100
AcDbEntity
  8
0
 62
     0
100
AcDbLine
 10
199.8104809948235
 20
581.5
 30
0.0
 11
201.3086207200751
 21
581.5
 31
0.0
  0
LINE
  5
1E2
330
31
100
AcDbEntity
  8
0
 62
     0
100
AcDbLine
 10
292.003205850497
 20
581.5
 30
0.0
 11
293.5013455757461
 21
581.5
 31
0.0
  0
LINE
  5
1E3
330
31
100
AcDbEntity
  8
0
 62
     0
100
AcDbLine
 10
199.9140281478623
 20
581.4
 30
0.0
 11
201.3566207200751
 21
581.4
 31
0.0
  0
LINE
  5
1E4
330
31
100
AcDbEntity
  8
0
 62
     0
100
AcDbLine
 10
291.955205850497
 20
581.4
 30
0.0
 11
293.3977984227071
 21
581.4
 31
0.0
  0
LINE
  5
1E5
330
31
100
AcDbEntity
  8
0
 62
     0
100
AcDbLine
 10
200.0293635875492
 20
581.3
 30
0.0
 11
201.4046207200751
 21
581.3
 31
0.0
  0
LINE
  5
1E6
330
31
100
AcDbEntity
  8
0
 62
     0
100
AcDbLine
 10
291.907205850497
 20
581.3
 30
0.0
 11
293.2824629830201
 21
581.3
 31
0.0
  0
LINE
  5
1E7
330
31
100
AcDbEntity
  8
0
 62
     0
100
AcDbLine
 10
200.1589995629963
 20
581.2
 30
0.0
 11
201.4526207200751
 21
581.2
 31
0.0
  0
LINE
  5
1E8
330
31
100
AcDbEntity
  8
0
 62
     0
100
AcDbLine
 10
291.859205850497
 20
581.2
 30
0.0
 11
293.1528270075727
 21
581.2
 31
0.0
  0
LINE
  5
1E9
330
31
100
AcDbEntity
  8
0
 62
     0
100
AcDbLine
 10
200.3067028200734
 20
581.0999999999999
 30
0.0
 11
201.5006207200751
 21
581.0999999999999
 31
0.0
  0
LINE
  5
1EA
330
31
100
AcDbEntity
  8
0
 62
     0
100
AcDbLine
 10
291.811205850497
 20
581.0999999999999
 30
0.0
 11
293.0051237504953
 21
581.0999999999999
 31
0.0
  0
LINE
  5
1EB
330
31
100
AcDbEntity
  8
0
 62
     0
100
AcDbLine
 10
200.4786044065191
 20
581.0
 30
0.0
 11
201.5486207200751
 21
581.0
 31
0.0
  0
LINE
  5
1EC
330
31
100
AcDbEntity
  8
0
 62
     0
100
AcDbLine
 10
291.7632058504969
 20
581.0
 30
0.0
 11
292.8332221640492
 21
581.0
 31
0.0
  0
LINE
  5
1ED
330
31
100
AcDbEntity
  8
0
 62
     0
100
AcDbLine
 10
200.6860393023213
 20
580.9
 30
0.0
 11
201.5966207200751
 21
580.9
 31
0.0
  0
LINE
  5
1EE
330
31
100
AcDbEntity
  8
0
 62
     0
100
AcDbLine
 10
291.7152058504969
 20
580.9
 30
0.0
 11
292.6257872682462
 21
580.9
 31
0.0
  0
LINE
  5
1EF
330
31
100
AcDbEntity
  8
0
 62
     0
100
AcDbLine
 10
200.955359137771
 20
580.8
 30
0.0
 11
201.644620720075
 21
580.8
 31
0.0
  0
LINE
  5
1F0
330
31
100
AcDbEntity
  8
0
 62
     0
100
AcDbLine
 10
291.6672058504969
 20
580.8
 30
0.0
 11
292.356467432795
 21
580.8
 31
0.0
  0
LINE
  5
1F1
330
31
100
AcDbEntity
  8
0
 62
     0
100
AcDbLine
 10
201.4008178462267
 20
580.7
 30
0.0
 11
201.692620720075
 21
580.7
 31
0.0
  0
LINE
  5
1F2
330
31
100
AcDbEntity
  8
0
 62
     0
100
AcDbLine
 10
291.6192058504969
 20
580.7
 30
0.0
 11
291.9110087243322
 21
580.7
 31
0.0
  0
ENDBLK
  5
1F3
330
31
100
AcDbEntity
  8
0
100
AcDbBlockEnd
  0
BLOCK
  5
268
330
3B
100
AcDbEntity
  8
0
100
AcDbBlockBegin
  2
*X8
 70
     1
 10
0.0
 20
0.0
 30
0.0
  3
*X8
  1

  0
LINE
  5
269
330
3B
100
AcDbEntity
  8
0
 62
     0
100
AcDbLine
 10
210.1559132852861
 20
510.1996445183008
 30
0.0
 11
211.755913285286
 21
509.3844037991097
 31
0.0
  0
LINE
  5
26A
330
3B
100
AcDbEntity
  8
0
 62
     0
100
AcDbLine
 10
281.5559132852862
 20
473.8195274243985
 30
0.0
 11
283.1559132852862
 21
473.0042867052075
 31
0.0
  0
LINE
  5
26B
330
3B
100
AcDbEntity
  8
0
 62
     0
100
AcDbLine
 10
210.1559132852861
 20
507.9549920430321
 30
0.0
 11
211.755913285286
 21
507.139751323841
 31
0.0
  0
LINE
  5
26C
330
3B
100
AcDbEntity
  8
0
 62
     0
100
AcDbLine
 10
281.5559132852863
 20
471.5748749491298
 30
0.0
 11
283.1559132852862
 21
470.7596342299387
 31
0.0
  0
LINE
  5
26D
330
3B
100
AcDbEntity
  8
0
 62
     0
100
AcDbLine
 10
210.1559132852861
 20
505.7103395677634
 30
0.0
 11
211.755913285286
 21
504.8950988485723
 31
0.0
  0
LINE
  5
26E
330
3B
100
AcDbEntity
  8
0
 62
     0
100
AcDbLine
 10
281.5559132852863
 20
469.330222473861
 30
0.0
 11
283.1559132852863
 21
468.51498175467
 31
0.0
  0
LINE
  5
26F
330
3B
100
AcDbEntity
  8
0
 62
     0
100
AcDbLine
 10
210.1559132852861
 20
503.4656870924946
 30
0.0
 11
211.755913285286
 21
502.6504463733036
 31
0.0
  0
LINE
  5
270
330
3B
100
AcDbEntity
  8
0
 62
     0
100
AcDbLine
 10
281.5559132852863
 20
467.0855699985923
 30
0.0
 11
283.1559132852863
 21
466.2703292794013
 31
0.0
  0
LINE
  5
271
330
3B
100
AcDbEntity
  8
0
 62
     0
100
AcDbLine
 10
210.1559132852861
 20
501.2210346172259
 30
0.0
 11
211.7559132852861
 21
500.4057938980349
 31
0.0
  0
LINE
  5
272
330
3B
100
AcDbEntity
  8
0
 62
     0
100
AcDbLine
 10
281.5559132852863
 20
464.8409175233236
 30
0.0
 11
283.1559132852863
 21
464.0256768041326
 31
0.0
  0
LINE
  5
273
330
3B
100
AcDbEntity
  8
0
 62
     0
100
AcDbLine
 10
210.1559132852862
 20
498.9763821419572
 30
0.0
 11
211.7559132852861
 21
498.1611414227661
 31
0.0
  0
LINE
  5
274
330
3B
100
AcDbEntity
  8
0
 62
     0
100
AcDbLine
 10
281.5559132852863
 20
462.5962650480549
 30
0.0
 11
283.1559132852863
 21
461.7810243288638
 31
0.0
  0
LINE
  5
275
330
3B
100
AcDbEntity
  8
0
 62
     0
100
AcDbLine
 10
210.1559132852862
 20
496.7317296666885
 30
0.0
 11
211.7559132852861
 21
495.9164889474974
 31
0.0
  0
LINE
  5
276
330
3B
100
AcDbEntity
  8
0
 62
     0
100
AcDbLine
 10
281.5559132852863
 20
460.3516125727862
 30
0.0
 11
283.1559132852863
 21
459.5363718535951
 31
0.0
  0
LINE
  5
277
330
3B
100
AcDbEntity
  8
0
 62
     0
100
AcDbLine
 10
210.1559132852862
 20
494.4870771914197
 30
0.0
 11
211.7559132852861
 21
493.6718364722287
 31
0.0
  0
LINE
  5
278
330
3B
100
AcDbEntity
  8
0
 62
     0
100
AcDbLine
 10
281.5559132852863
 20
458.1069600975175
 30
0.0
 11
283.1559132852863
 21
457.2917193783264
 31
0.0
  0
LINE
  5
279
330
3B
100
AcDbEntity
  8
0
 62
     0
100
AcDbLine
 10
210.1559132852862
 20
492.242424716151
 30
0.0
 11
211.7559132852861
 21
491.4271839969599
 31
0.0
  0
LINE
  5
27A
330
3B
100
AcDbEntity
  8
0
 62
     0
100
AcDbLine
 10
281.5559132852863
 20
455.8623076222487
 30
0.0
 11
283.1559132852863
 21
455.0470669030576
 31
0.0
  0
LINE
  5
27B
330
3B
100
AcDbEntity
  8
0
 62
     0
100
AcDbLine
 10
210.1559132852862
 20
489.9977722408823
 30
0.0
 11
211.7559132852861
 21
489.1825315216912
 31
0.0
  0
LINE
  5
27C
330
3B
100
AcDbEntity
  8
0
 62
     0
100
AcDbLine
 10
281.5559132852863
 20
453.61765514698
 30
0.0
 11
283.1559132852863
 21
452.8024144277889
 31
0.0
  0
LINE
  5
27D
330
3B
100
AcDbEntity
  8
0
 62
     0
100
AcDbLine
 10
210.1559132852862
 20
487.7531197656136
 30
0.0
 11
211.7559132852861
 21
486.9378790464225
 31
0.0
  0
LINE
  5
27E
330
3B
100
AcDbEntity
  8
0
 62
     0
100
AcDbLine
 10
281.5559132852864
 20
451.3730026717113
 30
0.0
 11
283.1559132852863
 21
450.5577619525202
 31
0.0
  0
LINE
  5
27F
330
3B
100
AcDbEntity
  8
0
 62
     0
100
AcDbLine
 10
210.1559132852862
 20
485.5084672903449
 30
0.0
 11
211.7559132852861
 21
484.6932265711537
 31
0.0
  0
LINE
  5
280
330
3B
100
AcDbEntity
  8
0
 62
     0
100
AcDbLine
 10
281.5559132852864
 20
449.1283501964426
 30
0.0
 11
283.1559132852863
 21
448.3131094772515
 31
0.0
  0
LINE
  5
281
330
3B
100
AcDbEntity
  8
0
 62
     0
100
AcDbLine
 10
210.1559132852862
 20
483.2638148150762
 30
0.0
 11
211.7559132852861
 21
482.448574095885
 31
0.0
  0
LINE
  5
282
330
3B
100
AcDbEntity
  8
0
 62
     0
100
AcDbLine
 10
281.5559132852864
 20
446.8836977211738
 30
0.0
 11
283.1559132852863
 21
446.0684570019828
 31
0.0
  0
LINE
  5
283
330
3B
100
AcDbEntity
  8
0
 62
     0
100
AcDbLine
 10
210.1559132852862
 20
481.0191623398075
 30
0.0
 11
211.7559132852861
 21
480.2039216206163
 31
0.0
  0
LINE
  5
284
330
3B
100
AcDbEntity
  8
0
 62
     0
100
AcDbLine
 10
281.5559132852864
 20
444.6390452459051
 30
0.0
 11
283.1559132852863
 21
443.823804526714
 31
0.0
  0
LINE
  5
285
330
3B
100
AcDbEntity
  8
0
 62
     0
100
AcDbLine
 10
210.1559132852862
 20
478.7745098645387
 30
0.0
 11
211.7559132852861
 21
477.9592691453476
 31
0.0
  0
LINE
  5
286
330
3B
100
AcDbEntity
  8
0
 62
     0
100
AcDbLine
 10
281.5559132852864
 20
442.3943927706364
 30
0.0
 11
283.1559132852863
 21
441.5791520514453
 31
0.0
  0
LINE
  5
287
330
3B
100
AcDbEntity
  8
0
 62
     0
100
AcDbLine
 10
210.1559132852862
 20
476.52985738927
 30
0.0
 11
211.7559132852861
 21
475.7146166700788
 31
0.0
  0
LINE
  5
288
330
3B
100
AcDbEntity
  8
0
 62
     0
100
AcDbLine
 10
281.5559132852864
 20
440.1497402953676
 30
0.0
 11
283.1559132852863
 21
439.3344995761766
 31
0.0
  0
LINE
  5
289
330
3B
100
AcDbEntity
  8
0
 62
     0
100
AcDbLine
 10
210.1559132852862
 20
474.2852049140013
 30
0.0
 11
211.7559132852861
 21
473.4699641948101
 31
0.0
  0
LINE
  5
28A
330
3B
100
AcDbEntity
  8
0
 62
     0
100
AcDbLine
 10
281.5559132852864
 20
437.9050878200989
 30
0.0
 11
283.1559132852863
 21
437.0898471009079
 31
0.0
  0
LINE
  5
28B
330
3B
100
AcDbEntity
  8
0
 62
     0
100
AcDbLine
 10
210.1559132852862
 20
472.0405524387325
 30
0.0
 11
211.7559132852861
 21
471.2253117195414
 31
0.0
  0
LINE
  5
28C
330
3B
100
AcDbEntity
  8
0
 62
     0
100
AcDbLine
 10
281.5559132852864
 20
435.6604353448302
 30
0.0
 11
283.1559132852863
 21
434.8451946256392
 31
0.0
  0
LINE
  5
28D
330
3B
100
AcDbEntity
  8
0
 62
     0
100
AcDbLine
 10
210.1559132852862
 20
469.7958999634638
 30
0.0
 11
211.7559132852861
 21
468.9806592442727
 31
0.0
  0
LINE
  5
28E
330
3B
100
AcDbEntity
  8
0
 62
     0
100
AcDbLine
 10
281.5559132852864
 20
433.4157828695615
 30
0.0
 11
283.1559132852863
 21
432.6005421503705
 31
0.0
  0
LINE
  5
28F
330
3B
100
AcDbEntity
  8
0
 62
     0
100
AcDbLine
 10
210.1559132852862
 20
467.551247488195
 30
0.0
 11
211.7559132852861
 21
466.7360067690039
 31
0.0
  0
LINE
  5
290
330
3B
100
AcDbEntity
  8
0
 62
     0
100
AcDbLine
 10
281.5559132852864
 20
431.1711303942927
 30
0.0
 11
283.1559132852863
 21
430.3558896751017
 31
0.0
  0
LINE
  5
291
330
3B
100
AcDbEntity
  8
0
 62
     0
100
AcDbLine
 10
210.1559132852862
 20
465.3065950129263
 30
0.0
 11
211.7559132852861
 21
464.4913542937352
 31
0.0
  0
LINE
  5
292
330
3B
100
AcDbEntity
  8
0
 62
     0
100
AcDbLine
 10
281.5559132852864
 20
428.926477919024
 30
0.0
 11
283.1559132852863
 21
428.111237199833
 31
0.0
  0
LINE
  5
293
330
3B
100
AcDbEntity
  8
0
 62
     0
100
AcDbLine
 10
210.1559132852862
 20
463.0619425376576
 30
0.0
 11
211.7559132852861
 21
462.2467018184665
 31
0.0
  0
LINE
  5
294
330
3B
100
AcDbEntity
  8
0
 62
     0
100
AcDbLine
 10
281.5559132852864
 20
426.6818254437553
 30
0.0
 11
283.1559132852863
 21
425.8665847245643
 31
0.0
  0
LINE
  5
295
330
3B
100
AcDbEntity
  8
0
 62
     0
100
AcDbLine
 10
210.1559132852862
 20
460.8172900623888
 30
0.0
 11
211.7559132852861
 21
460.0020493431978
 31
0.0
  0
LINE
  5
296
330
3B
100
AcDbEntity
  8
0
 62
     0
100
AcDbLine
 10
281.5559132852864
 20
424.4371729684866
 30
0.0
 11
283.1559132852863
 21
423.6219322492956
 31
0.0
  0
LINE
  5
297
330
3B
100
AcDbEntity
  8
0
 62
     0
100
AcDbLine
 10
210.1559132852862
 20
458.5726375871201
 30
0.0
 11
211.7559132852862
 21
457.7573968679291
 31
0.0
  0
LINE
  5
298
330
3B
100
AcDbEntity
  8
0
 62
     0
100
AcDbLine
 10
281.5559132852864
 20
422.1925204932179
 30
0.0
 11
283.1559132852863
 21
421.3772797740268
 31
0.0
  0
LINE
  5
299
330
3B
100
AcDbEntity
  8
0
 62
     0
100
AcDbLine
 10
210.1559132852862
 20
456.3279851118514
 30
0.0
 11
211.7559132852862
 21
455.5127443926604
 31
0.0
  0
LINE
  5
29A
330
3B
100
AcDbEntity
  8
0
 62
     0
100
AcDbLine
 10
281.5559132852864
 20
419.9478680179492
 30
0.0
 11
283.1559132852863
 21
419.1326272987581
 31
0.0
  0
LINE
  5
29B
330
3B
100
AcDbEntity
  8
0
 62
     0
100
AcDbLine
 10
210.1559132852862
 20
454.0833326365826
 30
0.0
 11
211.7559132852862
 21
453.2680919173917
 31
0.0
  0
LINE
  5
29C
330
3B
100
AcDbEntity
  8
0
 62
     0
100
AcDbLine
 10
281.5559132852864
 20
417.7032155426805
 30
0.0
 11
283.1559132852863
 21
416.8879748234894
 31
0.0
  0
LINE
  5
29D
330
3B
100
AcDbEntity
  8
0
 62
     0
100
AcDbLine
 10
210.1559132852862
 20
451.8386801613139
 30
0.0
 11
211.7559132852862
 21
451.0234394421229
 31
0.0
  0
LINE
  5
29E
330
3B
100
AcDbEntity
  8
0
 62
     0
100
AcDbLine
 10
281.5559132852864
 20
415.4585630674117
 30
0.0
 11
283.1559132852863
 21
414.6433223482206
 31
0.0
  0
LINE
  5
29F
330
3B
100
AcDbEntity
  8
0
 62
     0
100
AcDbLine
 10
210.1559132852862
 20
449.5940276860452
 30
0.0
 11
211.7559132852862
 21
448.7787869668542
 31
0.0
  0
LINE
  5
2A0
330
3B
100
AcDbEntity
  8
0
 62
     0
100
AcDbLine
 10
281.5559132852864
 20
413.213910592143
 30
0.0
 11
283.1559132852863
 21
412.3986698729519
 31
0.0
  0
LINE
  5
2A1
330
3B
100
AcDbEntity
  8
0
 62
     0
100
AcDbLine
 10
210.1559132852862
 20
447.3493752107765
 30
0.0
 11
211.7559132852862
 21
446.5341344915855
 31
0.0
  0
LINE
  5
2A2
330
3B
100
AcDbEntity
  8
0
 62
     0
100
AcDbLine
 10
281.5559132852864
 20
410.9692581168743
 30
0.0
 11
283.1559132852863
 21
410.1540173976832
 31
0.0
  0
LINE
  5
2A3
330
3B
100
AcDbEntity
  8
0
 62
     0
100
AcDbLine
 10
210.1559132852862
 20
445.1047227355078
 30
0.0
 11
211.7559132852862
 21
444.2894820163168
 31
0.0
  0
LINE
  5
2A4
330
3B
100
AcDbEntity
  8
0
 62
     0
100
AcDbLine
 10
281.5559132852864
 20
408.7246056416055
 30
0.0
 11
283.1087968117503
 21
407.9333719647715
 31
0.0
  0
LINE
  5
2A5
330
3B
100
AcDbEntity
  8
0
 62
     0
100
AcDbLine
 10
210.1559132852862
 20
442.8600702602391
 30
0.0
 11
211.7559132852862
 21
442.044829541048
 31
0.0
  0
LINE
  5
2A6
330
3B
100
AcDbEntity
  8
0
 62
     0
100
AcDbLine
 10
281.4255225125908
 20
406.5463905834044
 30
0.0
 11
282.9780284303235
 21
405.7553493078288
 31
0.0
  0
LINE
  5
2A7
330
3B
100
AcDbEntity
  8
0
 62
     0
100
AcDbLine
 10
210.1559132852862
 20
440.6154177849704
 30
0.0
 11
211.7559132852862
 21
439.8001770657793
 31
0.0
  0
LINE
  5
2A8
330
3B
100
AcDbEntity
  8
0
 62
     0
100
AcDbLine
 10
281.294754131164
 20
404.3683679264618
 30
0.0
 11
282.8472600488967
 21
403.5773266508863
 31
0.0
  0
LINE
  5
2A9
330
3B
100
AcDbEntity
  8
0
 62
     0
100
AcDbLine
 10
210.1559132852862
 20
438.3707653097017
 30
0.0
 11
211.7559132852862
 21
437.5555245905106
 31
0.0
  0
LINE
  5
2AA
330
3B
100
AcDbEntity
  8
0
 62
     0
100
AcDbLine
 10
281.1639857497372
 20
402.1903452695193
 30
0.0
 11
282.6518241846924
 21
401.4322537221737
 31
0.0
  0
LINE
  5
2AB
330
3B
100
AcDbEntity
  8
0
 62
     0
100
AcDbLine
 10
210.1559132852863
 20
436.1261128344329
 30
0.0
 11
211.7559132852862
 21
435.3108721152418
 31
0.0
  0
LINE
  5
2AC
330
3B
100
AcDbEntity
  8
0
 62
     0
100
AcDbLine
 10
210.1559132852863
 20
433.8814603591642
 30
0.0
 11
211.7559132852862
 21
433.0662196399731
 31
0.0
  0
LINE
  5
2AD
330
3B
100
AcDbEntity
  8
0
 62
     0
100
AcDbLine
 10
210.1559132852863
 20
431.6368078838955
 30
0.0
 11
211.7559132852862
 21
430.8215671647044
 31
0.0
  0
LINE
  5
2AE
330
3B
100
AcDbEntity
  8
0
 62
     0
100
AcDbLine
 10
210.1559132852863
 20
429.3921554086267
 30
0.0
 11
211.7559132852862
 21
428.5769146894357
 31
0.0
  0
LINE
  5
2AF
330
3B
100
AcDbEntity
  8
0
 62
     0
100
AcDbLine
 10
210.1559132852863
 20
427.147502933358
 30
0.0
 11
211.7559132852862
 21
426.332262214167
 31
0.0
  0
LINE
  5
2B0
330
3B
100
AcDbEntity
  8
0
 62
     0
100
AcDbLine
 10
210.1559132852863
 20
424.9028504580893
 30
0.0
 11
211.7559132852862
 21
424.0876097388982
 31
0.0
  0
LINE
  5
2B1
330
3B
100
AcDbEntity
  8
0
 62
     0
100
AcDbLine
 10
210.1559132852863
 20
422.6581979828206
 30
0.0
 11
211.7559132852862
 21
421.8429572636295
 31
0.0
  0
LINE
  5
2B2
330
3B
100
AcDbEntity
  8
0
 62
     0
100
AcDbLine
 10
210.1559132852863
 20
420.4135455075518
 30
0.0
 11
211.7559132852862
 21
419.5983047883608
 31
0.0
  0
LINE
  5
2B3
330
3B
100
AcDbEntity
  8
0
 62
     0
100
AcDbLine
 10
210.1559132852863
 20
418.1688930322831
 30
0.0
 11
211.7559132852862
 21
417.3536523130921
 31
0.0
  0
LINE
  5
2B4
330
3B
100
AcDbEntity
  8
0
 62
     0
100
AcDbLine
 10
210.1559132852863
 20
415.9242405570144
 30
0.0
 11
211.7559132852862
 21
415.1089998378234
 31
0.0
  0
LINE
  5
2B5
330
3B
100
AcDbEntity
  8
0
 62
     0
100
AcDbLine
 10
210.1559132852863
 20
413.6795880817457
 30
0.0
 11
211.7559132852862
 21
412.8643473625547
 31
0.0
  0
LINE
  5
2B6
330
3B
100
AcDbEntity
  8
0
 62
     0
100
AcDbLine
 10
210.1559132852863
 20
411.4349356064769
 30
0.0
 11
211.7559132852862
 21
410.6196948872859
 31
0.0
  0
LINE
  5
2B7
330
3B
100
AcDbEntity
  8
0
 62
     0
100
AcDbLine
 10
210.1559132852863
 20
409.1902831312082
 30
0.0
 11
211.7771619210426
 21
408.3642156913322
 31
0.0
  0
LINE
  5
2B8
330
3B
100
AcDbEntity
  8
0
 62
     0
100
AcDbLine
 10
210.2656920412155
 20
406.8896955859798
 30
0.0
 11
211.9161836917373
 21
406.0487280858608
 31
0.0
  0
LINE
  5
2B9
330
3B
100
AcDbEntity
  8
0
 62
     0
100
AcDbLine
 10
210.4047138119101
 20
404.5742079805083
 30
0.0
 11
212.055205462432
 21
403.7332404803893
 31
0.0
  0
LINE
  5
2BA
330
3B
100
AcDbEntity
  8
0
 62
     0
100
AcDbLine
 10
210.5437355826048
 20
402.2587203750369
 30
0.0
 11
212.1657677179638
 21
401.4322537221737
 31
0.0
  0
LINE
  5
2BB
330
3B
100
AcDbEntity
  8
0
 62
     0
100
AcDbLine
 10
210.1559132852861
 20
512.4442969935695
 30
0.0
 11
211.755913285286
 21
511.6290562743785
 31
0.0
  0
LINE
  5
2BC
330
3B
100
AcDbEntity
  8
0
 62
     0
100
AcDbLine
 10
281.5559132852862
 20
476.0641798996672
 30
0.0
 11
283.1559132852862
 21
475.2489391804762
 31
0.0
  0
LINE
  5
2BD
330
3B
100
AcDbEntity
  8
0
 62
     0
100
AcDbLine
 10
210.1559132852861
 20
514.6889494688382
 30
0.0
 11
211.755913285286
 21
513.8737087496472
 31
0.0
  0
LINE
  5
2BE
330
3B
100
AcDbEntity
  8
0
 62
     0
100
AcDbLine
 10
281.5559132852862
 20
478.3088323749359
 30
0.0
 11
283.1559132852862
 21
477.4935916557449
 31
0.0
  0
LINE
  5
2BF
330
3B
100
AcDbEntity
  8
0
 62
     0
100
AcDbLine
 10
210.1559132852861
 20
516.933601944107
 30
0.0
 11
211.755913285286
 21
516.1183612249159
 31
0.0
  0
LINE
  5
2C0
330
3B
100
AcDbEntity
  8
0
 62
     0
100
AcDbLine
 10
281.5559132852862
 20
480.5534848502047
 30
0.0
 11
283.1559132852862
 21
479.7382441310136
 31
0.0
  0
LINE
  5
2C1
330
3B
100
AcDbEntity
  8
0
 62
     0
100
AcDbLine
 10
210.1559132852861
 20
519.1782544193757
 30
0.0
 11
211.755913285286
 21
518.3630137001846
 31
0.0
  0
LINE
  5
2C2
330
3B
100
AcDbEntity
  8
0
 62
     0
100
AcDbLine
 10
281.5559132852862
 20
482.7981373254734
 30
0.0
 11
283.1559132852862
 21
481.9828966062823
 31
0.0
  0
LINE
  5
2C3
330
3B
100
AcDbEntity
  8
0
 62
     0
100
AcDbLine
 10
210.1559132852861
 20
521.4229068946444
 30
0.0
 11
211.755913285286
 21
520.6076661754533
 31
0.0
  0
LINE
  5
2C4
330
3B
100
AcDbEntity
  8
0
 62
     0
100
AcDbLine
 10
281.5559132852862
 20
485.0427898007422
 30
0.0
 11
283.1559132852862
 21
484.227549081551
 31
0.0
  0
LINE
  5
2C5
330
3B
100
AcDbEntity
  8
0
 62
     0
100
AcDbLine
 10
210.1559132852861
 20
523.6675593699131
 30
0.0
 11
211.755913285286
 21
522.8523186507222
 31
0.0
  0
LINE
  5
2C6
330
3B
100
AcDbEntity
  8
0
 62
     0
100
AcDbLine
 10
281.5559132852862
 20
487.2874422760109
 30
0.0
 11
283.1559132852862
 21
486.4722015568197
 31
0.0
  0
LINE
  5
2C7
330
3B
100
AcDbEntity
  8
0
 62
     0
100
AcDbLine
 10
210.1559132852861
 20
525.9122118451819
 30
0.0
 11
211.755913285286
 21
525.0969711259909
 31
0.0
  0
LINE
  5
2C8
330
3B
100
AcDbEntity
  8
0
 62
     0
100
AcDbLine
 10
281.5559132852862
 20
489.5320947512797
 30
0.0
 11
283.1559132852862
 21
488.7168540320885
 31
0.0
  0
LINE
  5
2C9
330
3B
100
AcDbEntity
  8
0
 62
     0
100
AcDbLine
 10
210.1559132852861
 20
528.1568643204506
 30
0.0
 11
211.755913285286
 21
527.3416236012596
 31
0.0
  0
LINE
  5
2CA
330
3B
100
AcDbEntity
  8
0
 62
     0
100
AcDbLine
 10
281.5559132852862
 20
491.7767472265484
 30
0.0
 11
283.1559132852862
 21
490.9615065073572
 31
0.0
  0
LINE
  5
2CB
330
3B
100
AcDbEntity
  8
0
 62
     0
100
AcDbLine
 10
210.1559132852861
 20
530.4015167957193
 30
0.0
 11
211.755913285286
 21
529.5862760765283
 31
0.0
  0
LINE
  5
2CC
330
3B
100
AcDbEntity
  8
0
 62
     0
100
AcDbLine
 10
281.5559132852862
 20
494.0213997018171
 30
0.0
 11
283.1559132852862
 21
493.2061589826259
 31
0.0
  0
LINE
  5
2CD
330
3B
100
AcDbEntity
  8
0
 62
     0
100
AcDbLine
 10
210.1559132852861
 20
532.646169270988
 30
0.0
 11
211.755913285286
 21
531.830928551797
 31
0.0
  0
LINE
  5
2CE
330
3B
100
AcDbEntity
  8
0
 62
     0
100
AcDbLine
 10
281.5559132852862
 20
496.2660521770858
 30
0.0
 11
283.1559132852862
 21
495.4508114578946
 31
0.0
  0
LINE
  5
2CF
330
3B
100
AcDbEntity
  8
0
 62
     0
100
AcDbLine
 10
210.1559132852861
 20
534.8908217462568
 30
0.0
 11
211.755913285286
 21
534.0755810270657
 31
0.0
  0
LINE
  5
2D0
330
3B
100
AcDbEntity
  8
0
 62
     0
100
AcDbLine
 10
281.5559132852862
 20
498.5107046523545
 30
0.0
 11
283.1559132852862
 21
497.6954639331634
 31
0.0
  0
LINE
  5
2D1
330
3B
100
AcDbEntity
  8
0
 62
     0
100
AcDbLine
 10
210.1559132852861
 20
537.1354742215255
 30
0.0
 11
211.755913285286
 21
536.3202335023344
 31
0.0
  0
LINE
  5
2D2
330
3B
100
AcDbEntity
  8
0
 62
     0
100
AcDbLine
 10
281.5559132852862
 20
500.7553571276232
 30
0.0
 11
283.1559132852862
 21
499.9401164084321
 31
0.0
  0
LINE
  5
2D3
330
3B
100
AcDbEntity
  8
0
 62
     0
100
AcDbLine
 10
210.1559132852861
 20
539.3801266967942
 30
0.0
 11
211.755913285286
 21
538.5648859776032
 31
0.0
  0
LINE
  5
2D4
330
3B
100
AcDbEntity
  8
0
 62
     0
100
AcDbLine
 10
281.5559132852862
 20
503.000009602892
 30
0.0
 11
283.1559132852861
 21
502.1847688837008
 31
0.0
  0
LINE
  5
2D5
330
3B
100
AcDbEntity
  8
0
 62
     0
100
AcDbLine
 10
210.1559132852861
 20
541.6247791720629
 30
0.0
 11
211.755913285286
 21
540.8095384528719
 31
0.0
  0
LINE
  5
2D6
330
3B
100
AcDbEntity
  8
0
 62
     0
100
AcDbLine
 10
281.5559132852862
 20
505.2446620781607
 30
0.0
 11
283.1559132852861
 21
504.4294213589695
 31
0.0
  0
LINE
  5
2D7
330
3B
100
AcDbEntity
  8
0
 62
     0
100
AcDbLine
 10
210.1559132852861
 20
543.8694316473316
 30
0.0
 11
211.7559132852859
 21
543.0541909281406
 31
0.0
  0
LINE
  5
2D8
330
3B
100
AcDbEntity
  8
0
 62
     0
100
AcDbLine
 10
281.5559132852862
 20
507.4893145534294
 30
0.0
 11
283.1559132852861
 21
506.6740738342383
 31
0.0
  0
LINE
  5
2D9
330
3B
100
AcDbEntity
  8
0
 62
     0
100
AcDbLine
 10
210.1559132852861
 20
546.1140841226003
 30
0.0
 11
211.7559132852859
 21
545.2988434034093
 31
0.0
  0
LINE
  5
2DA
330
3B
100
AcDbEntity
  8
0
 62
     0
100
AcDbLine
 10
281.5559132852862
 20
509.7339670286981
 30
0.0
 11
283.1559132852861
 21
508.918726309507
 31
0.0
  0
LINE
  5
2DB
330
3B
100
AcDbEntity
  8
0
 62
     0
100
AcDbLine
 10
210.1559132852861
 20
548.358736597869
 30
0.0
 11
211.7559132852859
 21
547.543495878678
 31
0.0
  0
LINE
  5
2DC
330
3B
100
AcDbEntity
  8
0
 62
     0
100
AcDbLine
 10
281.5559132852862
 20
511.9786195039669
 30
0.0
 11
283.1559132852861
 21
511.1633787847758
 31
0.0
  0
LINE
  5
2DD
330
3B
100
AcDbEntity
  8
0
 62
     0
100
AcDbLine
 10
210.1559132852861
 20
550.6033890731379
 30
0.0
 11
211.7559132852859
 21
549.7881483539467
 31
0.0
  0
LINE
  5
2DE
330
3B
100
AcDbEntity
  8
0
 62
     0
100
AcDbLine
 10
281.5559132852862
 20
514.2232719792356
 30
0.0
 11
283.1559132852861
 21
513.4080312600445
 31
0.0
  0
LINE
  5
2DF
330
3B
100
AcDbEntity
  8
0
 62
     0
100
AcDbLine
 10
210.1559132852861
 20
552.8480415484066
 30
0.0
 11
211.7559132852859
 21
552.0328008292154
 31
0.0
  0
LINE
  5
2E0
330
3B
100
AcDbEntity
  8
0
 62
     0
100
AcDbLine
 10
281.5559132852862
 20
516.4679244545043
 30
0.0
 11
283.1559132852861
 21
515.6526837353132
 31
0.0
  0
LINE
  5
2E1
330
3B
100
AcDbEntity
  8
0
 62
     0
100
AcDbLine
 10
210.1559132852861
 20
555.0926940236753
 30
0.0
 11
211.7559132852859
 21
554.2774533044841
 31
0.0
  0
LINE
  5
2E2
330
3B
100
AcDbEntity
  8
0
 62
     0
100
AcDbLine
 10
281.5559132852861
 20
518.712576929773
 30
0.0
 11
283.1559132852861
 21
517.897336210582
 31
0.0
  0
LINE
  5
2E3
330
3B
100
AcDbEntity
  8
0
 62
     0
100
AcDbLine
 10
210.1559132852861
 20
557.337346498944
 30
0.0
 11
211.7559132852859
 21
556.522105779753
 31
0.0
  0
LINE
  5
2E4
330
3B
100
AcDbEntity
  8
0
 62
     0
100
AcDbLine
 10
281.5559132852861
 20
520.9572294050417
 30
0.0
 11
283.1559132852861
 21
520.1419886858507
 31
0.0
  0
LINE
  5
2E5
330
3B
100
AcDbEntity
  8
0
 62
     0
100
AcDbLine
 10
210.1559132852861
 20
559.5819989742127
 30
0.0
 11
211.7559132852859
 21
558.7667582550217
 31
0.0
  0
LINE
  5
2E6
330
3B
100
AcDbEntity
  8
0
 62
     0
100
AcDbLine
 10
281.5559132852861
 20
523.2018818803105
 30
0.0
 11
283.1559132852861
 21
522.3866411611194
 31
0.0
  0
LINE
  5
2E7
330
3B
100
AcDbEntity
  8
0
 62
     0
100
AcDbLine
 10
210.1546194903299
 20
561.827310670938
 30
0.0
 11
211.7559132852859
 21
561.0114107302904
 31
0.0
  0
LINE
  5
2E8
330
3B
100
AcDbEntity
  8
0
 62
     0
100
AcDbLine
 10
281.5559132852861
 20
525.4465343555792
 30
0.0
 11
283.1559132852861
 21
524.6312936363881
 31
0.0
  0
LINE
  5
2E9
330
3B
100
AcDbEntity
  8
0
 62
     0
100
AcDbLine
 10
209.5185016635073
 20
564.39608136785
 30
0.0
 11
211.5757135849658
 21
563.3478795388636
 31
0.0
  0
LINE
  5
2EA
330
3B
100
AcDbEntity
  8
0
 62
     0
100
AcDbLine
 10
281.5559132852861
 20
527.691186830848
 30
0.0
 11
283.1559132852861
 21
526.8759461116568
 31
0.0
  0
LINE
  5
2EB
330
3B
100
AcDbEntity
  8
0
 62
     0
100
AcDbLine
 10
208.0922459570016
 20
567.36744742307
 30
0.0
 11
210.4416093096264
 21
566.170387004798
 31
0.0
  0
LINE
  5
2EC
330
3B
100
AcDbEntity
  8
0
 62
     0
100
AcDbLine
 10
281.5559132852861
 20
529.9358393061167
 30
0.0
 11
283.1559132852861
 21
529.1205985869255
 31
0.0
  0
LINE
  5
2ED
330
3B
100
AcDbEntity
  8
0
 62
     0
100
AcDbLine
 10
206.665990250496
 20
570.3388134782898
 30
0.0
 11
209.0153536031208
 21
569.1417530600181
 31
0.0
  0
LINE
  5
2EE
330
3B
100
AcDbEntity
  8
0
 62
     0
100
AcDbLine
 10
281.5559132852861
 20
532.1804917813854
 30
0.0
 11
283.1559132852861
 21
531.3652510621942
 31
0.0
  0
LINE
  5
2EF
330
3B
100
AcDbEntity
  8
0
 62
     0
100
AcDbLine
 10
205.2397345439904
 20
573.3101795335098
 30
0.0
 11
207.5890978966151
 21
572.113119115238
 31
0.0
  0
LINE
  5
2F0
330
3B
100
AcDbEntity
  8
0
 62
     0
100
AcDbLine
 10
281.5559132852861
 20
534.4251442566541
 30
0.0
 11
283.1559132852861
 21
533.6099035374629
 31
0.0
  0
LINE
  5
2F1
330
3B
100
AcDbEntity
  8
0
 62
     0
100
AcDbLine
 10
203.8134788374848
 20
576.2815455887299
 30
0.0
 11
206.1628421901095
 21
575.0844851704581
 31
0.0
  0
LINE
  5
2F2
330
3B
100
AcDbEntity
  8
0
 62
     0
100
AcDbLine
 10
281.5559132852861
 20
536.6697967319228
 30
0.0
 11
283.1559132852861
 21
535.8545560127318
 31
0.0
  0
LINE
  5
2F3
330
3B
100
AcDbEntity
  8
0
 62
     0
100
AcDbLine
 10
202.3872231309792
 20
579.2529116439498
 30
0.0
 11
204.7365864836038
 21
578.0558512256781
 31
0.0
  0
LINE
  5
2F4
330
3B
100
AcDbEntity
  8
0
 62
     0
100
AcDbLine
 10
281.5559132852861
 20
538.9144492071916
 30
0.0
 11
283.1559132852861
 21
538.0992084880005
 31
0.0
  0
LINE
  5
2F5
330
3B
100
AcDbEntity
  8
0
 62
     0
100
AcDbLine
 10
200.9609674244735
 20
582.2242776991698
 30
0.0
 11
203.3103307770982
 21
581.027217280898
 31
0.0
  0
LINE
  5
2F6
330
3B
100
AcDbEntity
  8
0
 62
     0
100
AcDbLine
 10
281.5559132852861
 20
541.1591016824603
 30
0.0
 11
283.1559132852861
 21
540.3438609632692
 31
0.0
  0
LINE
  5
2F7
330
3B
100
AcDbEntity
  8
0
 62
     0
100
AcDbLine
 10
281.5559132852861
 20
543.403754157729
 30
0.0
 11
283.1559132852861
 21
542.5885134385379
 31
0.0
  0
LINE
  5
2F8
330
3B
100
AcDbEntity
  8
0
 62
     0
100
AcDbLine
 10
281.5559132852861
 20
545.6484066329977
 30
0.0
 11
283.1559132852861
 21
544.8331659138066
 31
0.0
  0
LINE
  5
2F9
330
3B
100
AcDbEntity
  8
0
 62
     0
100
AcDbLine
 10
281.5559132852861
 20
547.8930591082664
 30
0.0
 11
283.1559132852861
 21
547.0778183890753
 31
0.0
  0
LINE
  5
2FA
330
3B
100
AcDbEntity
  8
0
 62
     0
100
AcDbLine
 10
281.5559132852861
 20
550.1377115835351
 30
0.0
 11
283.1559132852861
 21
549.322470864344
 31
0.0
  0
LINE
  5
2FB
330
3B
100
AcDbEntity
  8
0
 62
     0
100
AcDbLine
 10
281.5559132852861
 20
552.3823640588038
 30
0.0
 11
283.1559132852861
 21
551.5671233396128
 31
0.0
  0
LINE
  5
2FC
330
3B
100
AcDbEntity
  8
0
 62
     0
100
AcDbLine
 10
281.5559132852861
 20
554.6270165340727
 30
0.0
 11
283.1559132852861
 21
553.8117758148815
 31
0.0
  0
LINE
  5
2FD
330
3B
100
AcDbEntity
  8
0
 62
     0
100
AcDbLine
 10
281.5559132852861
 20
556.8716690093414
 30
0.0
 11
283.1559132852861
 21
556.0564282901502
 31
0.0
  0
LINE
  5
2FE
330
3B
100
AcDbEntity
  8
0
 62
     0
100
AcDbLine
 10
281.5559132852861
 20
559.1163214846101
 30
0.0
 11
283.1559132852861
 21
558.3010807654189
 31
0.0
  0
LINE
  5
2FF
330
3B
100
AcDbEntity
  8
0
 62
     0
100
AcDbLine
 10
281.555913285286
 20
561.3609739598788
 30
0.0
 11
283.1559132852861
 21
560.5457332406877
 31
0.0
  0
LINE
  5
300
330
3B
100
AcDbEntity
  8
0
 62
     0
100
AcDbLine
 10
281.7705743524838
 20
563.4962511583945
 30
0.0
 11
281.8961763931363
 21
563.4322537221737
 31
0.0
  0
LINE
  5
301
330
3B
100
AcDbEntity
  8
0
 62
     0
100
AcDbLine
 10
281.8961763931363
 20
563.4322537221737
 30
0.0
 11
283.2469593297293
 21
562.7439954392367
 31
0.0
  0
LINE
  5
302
330
3B
100
AcDbEntity
  8
0
 62
     0
100
AcDbLine
 10
282.4884843933837
 20
565.3751101973772
 30
0.0
 11
283.9144959412747
 21
564.6485210224538
 31
0.0
  0
LINE
  5
303
330
3B
100
AcDbEntity
  8
0
 62
     0
100
AcDbLine
 10
283.3541900346376
 20
567.1786636166562
 30
0.0
 11
284.7802015825287
 21
566.4520744417327
 31
0.0
  0
LINE
  5
304
330
3B
100
AcDbEntity
  8
0
 62
     0
100
AcDbLine
 10
284.2198956758915
 20
568.9822170359351
 30
0.0
 11
285.6459072237825
 21
568.2556278610117
 31
0.0
  0
LINE
  5
305
330
3B
100
AcDbEntity
  8
0
 62
     0
100
AcDbLine
 10
285.0856013171454
 20
570.785770455214
 30
0.0
 11
286.5116128650365
 21
570.0591812802906
 31
0.0
  0
LINE
  5
306
330
3B
100
AcDbEntity
  8
0
 62
     0
100
AcDbLine
 10
285.9513069583993
 20
572.589323874493
 30
0.0
 11
287.3773185062903
 21
571.8627346995695
 31
0.0
  0
LINE
  5
307
330
3B
100
AcDbEntity
  8
0
 62
     0
100
AcDbLine
 10
286.8170125996532
 20
574.392877293772
 30
0.0
 11
288.2430241475443
 21
573.6662881188485
 31
0.0
  0
LINE
  5
308
330
3B
100
AcDbEntity
  8
0
 62
     0
100
AcDbLine
 10
287.6827182409071
 20
576.1964307130511
 30
0.0
 11
289.1087297887982
 21
575.4698415381275
 31
0.0
  0
LINE
  5
309
330
3B
100
AcDbEntity
  8
0
 62
     0
100
AcDbLine
 10
288.548423882161
 20
577.99998413233
 30
0.0
 11
289.9744354300521
 21
577.2733949574065
 31
0.0
  0
LINE
  5
30A
330
3B
100
AcDbEntity
  8
0
 62
     0
100
AcDbLine
 10
289.4141295234149
 20
579.8035375516089
 30
0.0
 11
290.840141071306
 21
579.0769483766855
 31
0.0
  0
LINE
  5
30B
330
3B
100
AcDbEntity
  8
0
 62
     0
100
AcDbLine
 10
290.2798351646688
 20
581.6070909708879
 30
0.0
 11
291.7058467125599
 21
580.8805017959644
 31
0.0
  0
LINE
  5
30C
330
3B
100
AcDbEntity
  8
0
 62
     0
100
AcDbLine
 10
291.1455408059227
 20
583.4106443901669
 30
0.0
 11
292.5715523538138
 21
582.6840552152434
 31
0.0
  0
ENDBLK
  5
30D
330
3B
100
AcDbEntity
  8
0
100
AcDbBlockEnd
  0
BLOCK
  5
4A6
330
49C
100
AcDbEntity
  8
0
100
AcDbBlockBegin
  2
*D9
 70
     1
 10
0.0
 20
0.0
 30
0.0
  3
*D9
  1

  0
LINE
  5
7E3
330
49C
100
AcDbEntity
  8
BEM
 62
     0
370
    -2
100
AcDbLine
 10
264.2785928897108
 20
401.4322537221737
 30
0.0
 11
372.7308794500258
 21
401.4322537221737
 31
0.0
  0
LINE
  5
7E4
330
49C
100
AcDbEntity
  8
BEM
 62
     0
370
    -2
100
AcDbLine
 10
289.2160362073401
 20
663.4322537221737
 30
0.0
 11
372.7308794500259
 21
663.4322537221737
 31
0.0
  0
LINE
  5
7E5
330
49C
100
AcDbEntity
  8
BEM
 62
     0
370
    -2
100
AcDbLine
 10
370.7308794500258
 20
408.4322537221736
 30
0.0
 11
370.7308794500259
 21
656.4322537221737
 31
0.0
  0
SOLID
  5
7E6
330
49C
100
AcDbEntity
  8
BEM
 62
     0
100
AcDbTrace
 10
369.5642127833592
 20
408.4322537221736
 30
0.0
 11
371.8975461166925
 21
408.4322537221736
 31
0.0
 12
370.7308794500258
 22
401.4322537221737
 32
0.0
 13
370.7308794500258
 23
401.4322537221737
 33
0.0
  0
SOLID
  5
7E7
330
49C
100
AcDbEntity
  8
BEM
 62
     0
100
AcDbTrace
 10
369.5642127833592
 20
656.4322537221737
 30
0.0
 11
371.8975461166926
 21
656.4322537221737
 31
0.0
 12
370.7308794500259
 22
663.4322537221737
 32
0.0
 13
370.7308794500259
 23
663.4322537221737
 33
0.0
  0
MTEXT
  5
7E8
330
49C
100
AcDbEntity
  8
BEM
 62
     1
100
AcDbMText
 10
364.2308794500258
 20
532.4322537221737
 30
0.0
 40
7.0
 41
0.0
 71
     5
 72
     1
  1
\A1;262
 11
0.0000000000000001
 21
1.0
 31
0.0
 73
     1
 44
1.0
  0
POINT
  5
7E9
330
49C
100
AcDbEntity
  8
DEFPOINTS
 62
     0
100
AcDbPoint
 10
262.2785928897108
 20
401.4322537221737
 30
0.0
  0
POINT
  5
7EA
330
49C
100
AcDbEntity
  8
DEFPOINTS
 62
     0
100
AcDbPoint
 10
287.2160362073401
 20
663.4322537221737
 30
0.0
  0
POINT
  5
7EB
330
49C
100
AcDbEntity
  8
DEFPOINTS
 62
     0
100
AcDbPoint
 10
370.7308794500259
 20
663.4322537221737
 30
0.0
  0
ENDBLK
  5
4A7
330
49C
100
AcDbEntity
  8
0
100
AcDbBlockEnd
  0
BLOCK
  5
66F
330
665
100
AcDbEntity
  8
0
100
AcDbBlockBegin
  2
*D10
 70
     1
 10
0.0
 20
0.0
 30
0.0
  3
*D10
  1

  0
LINE
  5
666
330
665
100
AcDbEntity
  8
BEM
 62
     0
370
    -2
100
AcDbLine
 10
189.7160362073404
 20
406.7181239495941
 30
0.0
 11
189.7160362073404
 21
374.5659962665865
 31
0.0
  0
LINE
  5
667
330
665
100
AcDbEntity
  8
BEM
 62
     0
370
    -2
100
AcDbLine
 10
262.7160362073404
 20
406.7181239495941
 30
0.0
 11
262.7160362073404
 21
374.5659962665865
 31
0.0
  0
LINE
  5
668
330
665
100
AcDbEntity
  8
BEM
 62
     0
370
    -2
100
AcDbLine
 10
196.7160362073404
 20
376.5659962665865
 30
0.0
 11
255.7160362073404
 21
376.5659962665865
 31
0.0
  0
SOLID
  5
669
330
665
100
AcDbEntity
  8
BEM
 62
     0
100
AcDbTrace
 10
196.7160362073404
 20
377.7326629332531
 30
0.0
 11
196.7160362073404
 21
375.3993295999198
 31
0.0
 12
189.7160362073404
 22
376.5659962665865
 32
0.0
 13
189.7160362073404
 23
376.5659962665865
 33
0.0
  0
SOLID
  5
66A
330
665
100
AcDbEntity
  8
BEM
 62
     0
100
AcDbTrace
 10
255.7160362073404
 20
377.7326629332531
 30
0.0
 11
255.7160362073404
 21
375.3993295999198
 31
0.0
 12
262.7160362073404
 22
376.5659962665865
 32
0.0
 13
262.7160362073404
 23
376.5659962665865
 33
0.0
  0
MTEXT
  5
66B
330
665
100
AcDbEntity
  8
BEM
 62
     1
100
AcDbMText
 10
226.2160362073404
 20
383.0659962665865
 30
0.0
 40
7.0
 41
0.0
 71
     5
 72
     1
  1
\A1;%%c73
 73
     1
 44
1.0
  0
POINT
  5
66C
330
665
100
AcDbEntity
  8
DEFPOINTS
 62
     0
100
AcDbPoint
 10
189.7160362073404
 20
408.718123949594
 30
0.0
  0
POINT
  5
66D
330
665
100
AcDbEntity
  8
DEFPOINTS
 62
     0
100
AcDbPoint
 10
262.7160362073404
 20
408.718123949594
 30
0.0
  0
POINT
  5
66E
330
665
100
AcDbEntity
  8
DEFPOINTS
 62
     0
100
AcDbPoint
 10
262.7160362073404
 20
376.5659962665865
 30
0.0
  0
ENDBLK
  5
670
330
665
100
AcDbEntity
  8
0
100
AcDbBlockEnd
  0
BLOCK
  5
6F6
330
6EC
100
AcDbEntity
  8
0
100
AcDbBlockBegin
  2
*D11
 70
     1
 10
0.0
 20
0.0
 30
0.0
  3
*D11
  1

  0
LINE
  5
7B5
330
6EC
100
AcDbEntity
  8
BEM
 62
     0
370
    -2
100
AcDbLine
 10
102.4000764939915
 20
638.4322537221737
 30
0.0
 11
78.53940745067302
 21
638.4322537221737
 31
0.0
  0
LINE
  5
7B6
330
6EC
100
AcDbEntity
  8
BEM
 62
     0
370
    -2
100
AcDbLine
 10
163.2160362073401
 20
663.4322537221736
 30
0.0
 11
78.53940745067302
 21
663.4322537221736
 31
0.0
  0
LINE
  5
7B7
330
6EC
100
AcDbEntity
  8
BEM
 62
     0
370
    -2
100
AcDbLine
 10
80.53940745067302
 20
645.4322537221737
 30
0.0
 11
80.53940745067302
 21
656.4322537221736
 31
0.0
  0
SOLID
  5
7B8
330
6EC
100
AcDbEntity
  8
BEM
 62
     0
100
AcDbTrace
 10
79.37274078400635
 20
645.4322537221737
 30
0.0
 11
81.70607411733969
 21
645.4322537221737
 31
0.0
 12
80.53940745067302
 22
638.4322537221737
 32
0.0
 13
80.53940745067302
 23
638.4322537221737
 33
0.0
  0
SOLID
  5
7B9
330
6EC
100
AcDbEntity
  8
BEM
 62
     0
100
AcDbTrace
 10
79.37274078400635
 20
656.4322537221736
 30
0.0
 11
81.70607411733969
 21
656.4322537221736
 31
0.0
 12
80.53940745067302
 22
663.4322537221736
 32
0.0
 13
80.53940745067302
 23
663.4322537221736
 33
0.0
  0
MTEXT
  5
7BA
330
6EC
100
AcDbEntity
  8
BEM
 62
     1
100
AcDbMText
 10
74.03940745067292
 20
650.4803396845654
 30
0.0
 40
7.0
 41
0.0
 71
     5
 72
     1
  1
\A1;25
 11
0.0000000000000001
 21
1.0
 31
0.0
 73
     1
 44
1.0
  0
POINT
  5
7BB
330
6EC
100
AcDbEntity
  8
DEFPOINTS
 62
     0
100
AcDbPoint
 10
104.4000764939915
 20
638.4322537221737
 30
0.0
  0
POINT
  5
7BC
330
6EC
100
AcDbEntity
  8
DEFPOINTS
 62
     0
100
AcDbPoint
 10
165.2160362073401
 20
663.4322537221736
 30
0.0
  0
POINT
  5
7BD
330
6EC
100
AcDbEntity
  8
DEFPOINTS
 62
     0
100
AcDbPoint
 10
80.53940745067302
 20
663.4322537221736
 30
0.0
  0
ENDBLK
  5
6F7
330
6EC
100
AcDbEntity
  8
0
100
AcDbBlockEnd
  0
BLOCK
  5
77E
330
774
100
AcDbEntity
  8
0
100
AcDbBlockBegin
  2
*D12
 70
     1
 10
0.0
 20
0.0
 30
0.0
  3
*D12
  1

  0
LINE
  5
775
330
774
100
AcDbEntity
  8
BEM
 62
     0
370
    -2
100
AcDbLine
 10
165.2160362073401
 20
665.4322537221736
 30
0.0
 11
165.2160362073401
 21
681.8161355922303
 31
0.0
  0
LINE
  5
776
330
774
100
AcDbEntity
  8
BEM
 62
     0
370
    -2
100
AcDbLine
 10
287.2160362073401
 20
665.4322537221737
 30
0.0
 11
287.2160362073401
 21
681.8161355922303
 31
0.0
  0
LINE
  5
777
330
774
100
AcDbEntity
  8
BEM
 62
     0
370
    -2
100
AcDbLine
 10
172.2160362073401
 20
679.8161355922303
 30
0.0
 11
280.2160362073402
 21
679.8161355922303
 31
0.0
  0
SOLID
  5
778
330
774
100
AcDbEntity
  8
BEM
 62
     0
100
AcDbTrace
 10
172.2160362073401
 20
680.982802258897
 30
0.0
 11
172.2160362073401
 21
678.6494689255637
 31
0.0
 12
165.2160362073401
 22
679.8161355922303
 32
0.0
 13
165.2160362073401
 23
679.8161355922303
 33
0.0
  0
SOLID
  5
779
330
774
100
AcDbEntity
  8
BEM
 62
     0
100
AcDbTrace
 10
280.2160362073402
 20
680.982802258897
 30
0.0
 11
280.2160362073402
 21
678.6494689255637
 31
0.0
 12
287.2160362073401
 22
679.8161355922303
 32
0.0
 13
287.2160362073401
 23
679.8161355922303
 33
0.0
  0
MTEXT
  5
77A
330
774
100
AcDbEntity
  8
BEM
 62
     1
100
AcDbMText
 10
226.2160362073402
 20
686.3161355922303
 30
0.0
 40
7.0
 41
0.0
 71
     5
 72
     1
  1
\A1;%%C122
 73
     1
 44
1.0
  0
POINT
  5
77B
330
774
100
AcDbEntity
  8
DEFPOINTS
 62
     0
100
AcDbPoint
 10
165.2160362073401
 20
663.4322537221736
 30
0.0
  0
POINT
  5
77C
330
774
100
AcDbEntity
  8
DEFPOINTS
 62
     0
100
AcDbPoint
 10
287.2160362073401
 20
663.4322537221737
 30
0.0
  0
POINT
  5
77D
330
774
100
AcDbEntity
  8
DEFPOINTS
 62
     0
100
AcDbPoint
 10
287.2160362073401
 20
679.8161355922303
 30
0.0
  0
ENDBLK
  5
77F
330
774
100
AcDbEntity
  8
0
100
AcDbBlockEnd
  0
BLOCK
  5
78A
330
780
100
AcDbEntity
  8
0
100
AcDbBlockBegin
  2
*D13
 70
     1
 10
0.0
 20
0.0
 30
0.0
  3
*D13
  1

  0
LINE
  5
781
330
780
100
AcDbEntity
  8
BEM
 62
     0
370
    -2
100
AcDbLine
 10
103.7160362073402
 20
642.3116389637455
 30
0.0
 11
103.7160362073402
 21
696.3923911817987
 31
0.0
  0
LINE
  5
782
330
780
100
AcDbEntity
  8
BEM
 62
     0
370
    -2
100
AcDbLine
 10
348.7160362073402
 20
642.3116389637455
 30
0.0
 11
348.7160362073402
 21
696.3923911817987
 31
0.0
  0
LINE
  5
783
330
780
100
AcDbEntity
  8
BEM
 62
     0
370
    -2
100
AcDbLine
 10
110.7160362073402
 20
694.3923911817988
 30
0.0
 11
341.7160362073401
 21
694.3923911817988
 31
0.0
  0
SOLID
  5
784
330
780
100
AcDbEntity
  8
BEM
 62
     0
100
AcDbTrace
 10
110.7160362073402
 20
695.5590578484653
 30
0.0
 11
110.7160362073402
 21
693.2257245151321
 31
0.0
 12
103.7160362073402
 22
694.3923911817988
 32
0.0
 13
103.7160362073402
 23
694.3923911817988
 33
0.0
  0
SOLID
  5
785
330
780
100
AcDbEntity
  8
BEM
 62
     0
100
AcDbTrace
 10
341.7160362073401
 20
695.5590578484653
 30
0.0
 11
341.7160362073401
 21
693.2257245151321
 31
0.0
 12
348.7160362073402
 22
694.3923911817988
 32
0.0
 13
348.7160362073402
 23
694.3923911817988
 33
0.0
  0
MTEXT
  5
786
330
780
100
AcDbEntity
  8
BEM
 62
     1
100
AcDbMText
 10
226.2160362073402
 20
700.8923911817987
 30
0.0
 40
7.0
 41
0.0
 71
     5
 72
     1
  1
\A1;%%C245
 73
     1
 44
1.0
  0
POINT
  5
787
330
780
100
AcDbEntity
  8
DEFPOINTS
 62
     0
100
AcDbPoint
 10
103.7160362073402
 20
640.3116389637455
 30
0.0
  0
POINT
  5
788
330
780
100
AcDbEntity
  8
DEFPOINTS
 62
     0
100
AcDbPoint
 10
348.7160362073402
 20
640.3116389637455
 30
0.0
  0
POINT
  5
789
330
780
100
AcDbEntity
  8
DEFPOINTS
 62
     0
100
AcDbPoint
 10
348.7160362073402
 20
694.3923911817988
 30
0.0
  0
ENDBLK
  5
78B
330
780
100
AcDbEntity
  8
0
100
AcDbBlockEnd
  0
ENDSEC
  0
SECTION
  2
ENTITIES
  0
DIMENSION
  5
359
330
20
100
AcDbEntity
  8
BEM
100
AcDbDimension
  2
*D9
 10
370.7308794500259
 20
663.4322537221737
 30
0.0
 11
364.2308794500258
 21
532.4322537221737
 31
0.0
 70
    32
 71
     5
 42
262.0000000000001
  3
Standard
100
AcDbAlignedDimension
 13
262.2785928897108
 23
401.4322537221737
 33
0.0
 14
287.2160362073401
 24
663.4322537221737
 34
0.0
 50
90.0
100
AcDbRotatedDimension
1001
ACAD
1000
DSTYLE
1002
{
1070
    40
1040
2.0
1070
    41
1040
3.5
1070
    42
1040
1.0
1070
    43
1040
7.0
1070
    44
1040
1.0
1070
    47
1040
1.0
1070
    48
1040
1.0
1070
    73
1070
     0
1070
    74
1070
     0
1070
    77
1070
     1
1070
    78
1070
     8
1070
    79
1070
     2
1070
   140
1040
3.5
1070
   141
1040
1.5
1070
   145
1040
0.2857142857142857
1070
   146
1040
0.5142857142857144
1070
   147
1040
1.5
1070
   172
1070
     1
1070
   178
1070
     1
1070
   179
1070
     2
1070
   271
1070
     2
1070
   272
1070
     2
1070
   284
1070
     8
1070
   285
1070
     8
1070
   286
1070
     8
1002
}
  0
INSERT
  5
35E
330
20
100
AcDbEntity
  8
SCHRAFF
100
AcDbBlockReference
  2
*X6
 10
-20.43987707794588
 20
0.0
 30
0.0
1001
ACAD
1000
HATCH
1002
{
1070
    16
1000
_U,I
1040
2.0
1040
2.356194490192344
1070
     0
1002
}
  0
DIMENSION
  5
363
330
20
100
AcDbEntity
  8
BEM
100
AcDbDimension
  2
*D13
 10
348.7160362073402
 20
694.3923911817988
 30
0.0
 11
226.2160362073402
 21
700.8923911817987
 31
0.0
 70
    32
  1
%%C<>
 71
     5
 42
245.0
  3
Standard
100
AcDbAlignedDimension
 13
103.7160362073402
 23
640.3116389637455
 33
0.0
 14
348.7160362073402
 24
640.3116389637455
 34
0.0
100
AcDbRotatedDimension
  0
LINE
  5
364
330
20
100
AcDbEntity
  8
STEMPEL
100
AcDbLine
 10
293.1941658697356
 20
638.4322537221736
 30
0.0
 11
348.0319959206888
 21
638.4322537221737
 31
0.0
  0
LINE
  5
365
330
20
100
AcDbEntity
  8
STEMPEL
100
AcDbLine
 10
294.8548667026329
 20
638.7722992827572
 30
0.0
 11
338.8434760696861
 21
641.4250002894639
 31
0.0
  0
LINE
  5
366
330
20
100
AcDbEntity
  8
STEMPEL
100
AcDbLine
 10
294.7344768677305
 20
640.7686725664025
 30
0.0
 11
338.7230862347836
 21
643.4213735731091
 31
0.0
  0
LINE
  5
367
330
20
100
AcDbEntity
  8
STEMPEL
100
AcDbLine
 10
286.8180312321852
 20
643.4322537221736
 30
0.0
 11
339.084255739491
 21
643.4322537221736
 31
0.0
  0
LINE
  5
368
330
20
100
AcDbEntity
  8
MITTEL
100
AcDbLine
 10
353.7160362073402
 20
211.5285000875985
 30
0.0
 11
98.71603620734015
 21
211.5285000875985
 31
0.0
  0
TEXT
  5
369
330
20
100
AcDbEntity
  8
BEM
100
AcDbText
 10
583.4462193823216
 20
836.4132055378062
 30
0.0
 40
3.6
  1
Diese Zeichnung ist urheberrechtlich geschuetzt und bleibt unser Eigentum. Sie darf weder ganz noch teilweise vervielfaeltigt und nicht an Dritte weitegegeben werden.
 50
180.0
  7
GREEKS
100
AcDbText
  0
LINE
  5
36A
330
20
100
AcDbEntity
  8
STEMPEL
100
AcDbLine
 10
10.0
 20
40.0
 30
0.0
 11
584.0
 21
40.0
 31
0.0
  0
LINE
  5
36B
330
20
100
AcDbEntity
  8
STEMPEL
100
AcDbLine
 10
584.0
 20
830.0
 30
0.0
 11
10.0
 21
830.0
 31
0.0
  0
LINE
  5
36C
330
20
100
AcDbEntity
  8
HILF
100
AcDbLine
 10
0.0
 20
0.0
 30
0.0
 11
594.0
 21
0.0
 31
0.0
  0
LINE
  5
36D
330
20
100
AcDbEntity
  8
HILF
100
AcDbLine
 10
594.0
 20
840.0000000000002
 30
0.0
 11
0.0
 21
840.0000000000002
 31
0.0
  0
INSERT
  5
36E
330
20
100
AcDbEntity
  8
SCHRAFF
100
AcDbBlockReference
  2
*X8
 10
-20.43987707794588
 20
0.0
 30
0.0
1001
ACAD
1000
HATCH
1002
{
1070
    16
1000
_U,I
1040
2.0
1040
2.670353755551324
1070
     0
1002
}
  0
LINE
  5
36F
330
20
100
AcDbEntity
  8
MITTEL
100
AcDbLine
 10
226.21603620734
 20
667.9322537221737
 30
0.0
 11
226.2160362073404
 21
393.8429315139158
 31
0.0
  0
LINE
  5
370
330
20
100
AcDbEntity
  8
STEMPEL
100
AcDbLine
 10
191.31603620734
 20
561.7027158652823
 30
0.0
 11
191.3160362073403
 21
408.718123949594
 31
0.0
  0
LINE
  5
371
330
20
100
AcDbEntity
  8
STEMPEL
100
AcDbLine
 10
261.1160362073401
 20
561.7027158652818
 30
0.0
 11
261.1160362073405
 21
408.718123949594
 31
0.0
  0
LINE
  5
372
330
20
100
AcDbEntity
  8
STEMPEL
100
AcDbLine
 10
262.7160362073401
 20
561.7027158652819
 30
0.0
 11
262.7160362073404
 21
408.718123949594
 31
0.0
  0
LINE
  5
373
330
20
100
AcDbEntity
  8
STEMPEL
100
AcDbLine
 10
189.7160362073401
 20
561.7027158652821
 30
0.0
 11
189.7160362073404
 21
408.718123949594
 31
0.0
  0
LINE
  5
374
330
20
100
AcDbEntity
  8
STEMPEL
100
AcDbLine
 10
10.0
 20
830.0
 30
0.0
 11
10.0
 21
40.0
 31
0.0
  0
LINE
  5
375
330
20
100
AcDbEntity
  8
HILF
100
AcDbLine
 10
0.0
 20
840.0000000000002
 30
0.0
 11
0.0
 21
0.0
 31
0.0
  0
LINE
  5
376
330
20
100
AcDbEntity
  8
MITTEL
100
AcDbLine
 10
226.2160362073402
 20
339.0285000875985
 30
0.0
 11
226.2160362073402
 21
84.02850008759845
 31
0.0
  0
DIMENSION
  5
377
330
20
100
AcDbEntity
  8
BEM
100
AcDbDimension
  2
*D10
 10
262.7160362073404
 20
376.5659962665865
 30
0.0
 11
226.2160362073404
 21
383.0659962665865
 31
0.0
 70
    32
  1
%%c<>
 71
     5
 42
73.0
  3
Standard
100
AcDbAlignedDimension
 13
189.7160362073404
 23
408.718123949594
 33
0.0
 14
262.7160362073404
 24
408.718123949594
 34
0.0
100
AcDbRotatedDimension
1001
ACAD
1000
DSTYLE
1002
{
1070
    40
1040
2.0
1070
    41
1040
3.5
1070
    42
1040
1.0
1070
    43
1040
7.0
1070
    44
1040
1.0
1070
    47
1040
1.0
1070
    48
1040
1.0
1070
    73
1070
     0
1070
    74
1070
     0
1070
    77
1070
     1
1070
    78
1070
     8
1070
    79
1070
     2
1070
   140
1040
3.5
1070
   141
1040
1.5
1070
   145
1040
0.2857142857142857
1070
   146
1040
0.5142857142857144
1070
   147
1040
1.5
1070
   172
1070
     1
1070
   178
1070
     1
1070
   179
1070
     2
1070
   271
1070
     2
1070
   272
1070
     2
1070
   284
1070
     8
1070
   285
1070
     8
1070
   286
1070
     8
1002
}
  0
ARC
  5
378
330
20
100
AcDbEntity
  8
STEMPEL
100
AcDbCircle
 10
226.2160362073402
 20
211.5285000875985
 30
0.0
 40
35.2
100
AcDbArc
 50
62.44232107144114
 51
297.5576789285589
  0
LINE
  5
379
330
20
100
AcDbEntity
  8
STEMPEL
100
AcDbLine
 10
184.5251302490672
 20
253.2761749974475
 30
0.0
 11
210.9069421656131
 21
268.5077212091753
 31
0.0
  0
LINE
  5
37A
330
20
100
AcDbEntity
  8
VERDECKT
100
AcDbLine
 10
183.2996283423414
 20
254.8780322184654
 30
0.0
 11
210.132444072339
 21
270.3699656032951
 31
0.0
  0
LINE
  5
37D
330
20
100
AcDbEntity
  8
HILF
100
AcDbLine
 10
259.7575268867883
 20
408.718123949594
 30
0.0
 11
192.7983034641792
 21
408.718123949594
 31
0.0
  0
LINE
  5
37E
330
20
100
AcDbEntity
  8
STEMPEL
100
AcDbLine
 10
262.2785928897108
 20
401.4322537221737
 30
0.0
 11
190.15347952497
 21
401.4322537221737
 31
0.0
  0
POINT
  5
37F
330
20
100
AcDbEntity
  8
DEFPOINTS
  6
ByBlock
 62
     0
100
AcDbPoint
 10
120.0696085495996
 20
211.5285000875985
 30
0.0
  0
LINE
  5
380
330
20
100
AcDbEntity
  8
STEMPEL
100
AcDbLine
 10
169.2160362073401
 20
196.2969538758706
 30
0.0
 11
169.2160362073401
 21
226.7600462993262
 31
0.0
  0
LINE
  5
381
330
20
100
AcDbEntity
  8
VERDECKT
100
AcDbLine
 10
167.2160362073401
 20
196.0365667027687
 30
0.0
 11
167.2160362073401
 21
227.0204334724281
 31
0.0
  0
LINE
  5
382
330
20
100
AcDbEntity
  8
STEMPEL
100
AcDbLine
 10
191.3160362073403
 20
408.718123949594
 30
0.0
 11
191.75347952497
 21
401.4322537221735
 31
0.0
  0
LINE
  5
383
330
20
100
AcDbEntity
  8
STEMPEL
100
AcDbLine
 10
189.7160362073404
 20
408.718123949594
 30
0.0
 11
190.15347952497
 21
401.4322537221737
 31
0.0
  0
LINE
  5
384
330
20
100
AcDbEntity
  8
STEMPEL
100
AcDbLine
 10
243.5055388736167
 20
238.474797143187
 30
0.0
 11
257.0055388736167
 21
261.8574830453669
 31
0.0
  0
LINE
  5
385
330
20
100
AcDbEntity
  8
STEMPEL
100
AcDbLine
 10
240.9074626622635
 20
239.9747971431871
 30
0.0
 11
254.4074626622635
 21
263.3574830453669
 31
0.0
  0
ARC
  5
386
330
20
100
AcDbEntity
  8
STEMPEL
100
AcDbCircle
 10
226.2160362073402
 20
211.5285000875985
 30
0.0
 40
35.2
100
AcDbArc
 50
302.4423210714411
 51
57.5576789285588
  0
LINE
  5
387
330
20
100
AcDbEntity
  8
STEMPEL
100
AcDbLine
 10
243.9074626622633
 20
245.1709495658938
 30
0.0
 11
246.5055388736166
 21
243.6709495658937
 31
0.0
  0
POINT
  5
388
330
20
100
AcDbEntity
  8
DEFPOINTS
  6
ByBlock
 62
     0
100
AcDbPoint
 10
240.9074626622635
 20
239.9747971431871
 30
0.0
  0
LINE
  5
389
330
20
100
AcDbEntity
  8
STEMPEL
100
AcDbLine
 10
240.9074626622632
 20
239.9747971431872
 30
0.0
 11
243.5055388736165
 21
238.4747971431871
 31
0.0
  0
POINT
  5
38A
330
20
100
AcDbEntity
  8
DEFPOINTS
  6
ByBlock
 62
     0
100
AcDbPoint
 10
242.4078641259099
 20
285.8775749988407
 30
0.0
  0
ARC
  5
38B
330
20
100
AcDbEntity
  8
BEM
100
AcDbCircle
 10
255.4363067334708
 20
263.4785729704425
 30
0.0
 40
4.081297947193405
100
AcDbArc
 50
161.0992488315166
 51
228.2594997851085
  0
LINE
  5
38C
330
20
100
AcDbEntity
  8
VERDECKT
100
AcDbLine
 10
253.4074626622634
 20
261.6254322377981
 30
0.0
 11
256.0055388736167
 21
260.1254322377979
 31
0.0
  0
LINE
  5
38D
330
20
100
AcDbEntity
  8
STEMPEL
100
AcDbLine
 10
250.9074626622634
 20
257.2953052188759
 30
0.0
 11
253.5055388736167
 21
255.7953052188759
 31
0.0
  0
LINE
  5
38E
330
20
100
AcDbEntity
  8
STEMPEL
100
AcDbLine
 10
254.4074626622635
 20
263.3574830453669
 30
0.0
 11
257.0055388736167
 21
261.8574830453669
 31
0.0
  0
INSERT
  5
38F
330
20
100
AcDbEntity
  8
BEM
100
AcDbBlockReference
  2
*X1
 10
47.20638304289332
 20
137.4792186787211
 30
0.0
1001
ACAD
1000
HATCH
1002
{
1070
    16
1000
_U,I
1040
0.1
1040
2.356194490192344
1070
     0
1002
}
  0
POINT
  5
390
330
20
100
AcDbEntity
  8
DEFPOINTS
  6
ByBlock
 62
     0
100
AcDbPoint
 10
254.4074626622635
 20
263.3574830453669
 30
0.0
  0
POINT
  5
391
330
20
100
AcDbEntity
  8
DEFPOINTS
  6
ByBlock
 62
     0
100
AcDbPoint
 10
285.2160362073401
 20
211.5285000875985
 30
0.0
  0
LINE
  5
392
330
20
100
AcDbEntity
  8
STEMPEL
100
AcDbLine
 10
283.2160362073402
 20
196.2969538758706
 30
0.0
 11
283.2160362073402
 21
226.7600462993261
 31
0.0
  0
LINE
  5
393
330
20
100
AcDbEntity
  8
VERDECKT
100
AcDbLine
 10
285.2160362073401
 20
196.0365667027687
 30
0.0
 11
285.2160362073401
 21
227.0204334724281
 31
0.0
  0
POINT
  5
394
330
20
100
AcDbEntity
  8
DEFPOINTS
  6
ByBlock
 62
     0
100
AcDbPoint
 10
287.2160362073401
 20
211.5285000875985
 30
0.0
  0
LINE
  5
395
330
20
100
AcDbEntity
  8
STEMPEL
100
AcDbLine
 10
261.1160362073405
 20
408.718123949594
 30
0.0
 11
260.6785928897108
 21
401.4322537221737
 31
0.0
  0
LINE
  5
396
330
20
100
AcDbEntity
  8
STEMPEL
100
AcDbLine
 10
262.7160362073404
 20
408.718123949594
 30
0.0
 11
262.2785928897108
 21
401.4322537221737
 31
0.0
  0
POINT
  5
397
330
20
100
AcDbEntity
  8
DEFPOINTS
  6
ByBlock
 62
     0
100
AcDbPoint
 10
262.2785928897108
 20
401.4322537221737
 30
0.0
  0
DIMENSION
  5
398
330
20
100
AcDbEntity
  8
BEM
100
AcDbDimension
  2
*D11
 10
80.53940745067302
 20
663.4322537221736
 30
0.0
 11
80.53940745067292
 21
650.4803396845654
 31
0.0
 70
   160
 71
     5
 42
24.99999999999989
  3
Standard
100
AcDbAlignedDimension
 13
104.4000764939915
 23
638.4322537221737
 33
0.0
 14
165.2160362073401
 24
663.4322537221736
 34
0.0
 50
90.0
100
AcDbRotatedDimension
1001
ACAD
1000
DSTYLE
1002
{
1070
    40
1040
2.0
1070
    41
1040
3.5
1070
    42
1040
1.0
1070
    43
1040
7.0
1070
    44
1040
1.0
1070
    47
1040
1.0
1070
    48
1040
1.0
1070
    73
1070
     0
1070
    74
1070
     0
1070
    77
1070
     1
1070
    78
1070
     8
1070
    79
1070
     2
1070
   140
1040
3.5
1070
   141
1040
1.5
1070
   145
1040
0.2857142857142857
1070
   146
1040
0.5142857142857144
1070
   147
1040
1.5
1070
   172
1070
     1
1070
   178
1070
     1
1070
   179
1070
     2
1070
   271
1070
     2
1070
   272
1070
     2
1070
   284
1070
     8
1070
   285
1070
     8
1070
   286
1070
     8
1002
}
  0
INSERT
  5
399
330
20
100
AcDbEntity
  8
SCHRAFF
100
AcDbBlockReference
  2
*X5
 10
-20.43987707794588
 20
0.0
 30
0.0
1001
ACAD
1000
HATCH
1002
{
1070
    16
1000
_U,I
1040
2.0
1040
2.356194490192344
1070
     0
1002
}
  0
DIMENSION
  5
39B
330
20
100
AcDbEntity
  8
BEM
100
AcDbDimension
  2
*D2
 10
95.24578971365929
 20
643.4322537221736
 30
0.0
 11
88.24578971365928
 21
659.3889203888403
 31
0.0
 12
-20.43987707794588
 22
0.0
 32
0.0
 71
     5
 42
-1.0
100
AcDbAlignedDimension
 13
104.4000764939915
 23
638.4322537221737
 33
0.0
 14
113.3478166751892
 24
643.4322537221736
 34
0.0
 50
90.0
100
AcDbRotatedDimension
  0
LINE
  5
39C
330
20
100
AcDbEntity
  8
STEMPEL
100
AcDbLine
 10
104.4000764939915
 20
638.4322537221736
 30
0.0
 11
111.9797361018866
 21
641.1910242053172
 31
0.0
  0
ARC
  5
39D
330
20
100
AcDbEntity
  8
STEMPEL
100
AcDbCircle
 10
113.3478166751892
 20
637.4322537221736
 30
0.0
 40
6.0
100
AcDbArc
 50
86.54899906270065
 51
109.9999999999999
  0
LINE
  5
39E
330
20
100
AcDbEntity
  8
STEMPEL
100
AcDbLine
 10
159.2379065449447
 20
638.4322537221736
 30
0.0
 11
104.4000764939915
 21
638.4322537221737
 31
0.0
  0
LINE
  5
39F
330
20
100
AcDbEntity
  8
BEM
100
AcDbLine
 10
10.0
 20
460.0
 30
0.0
 11
0.0
 21
460.0
 31
0.0
  0
LINE
  5
3A0
330
20
100
AcDbEntity
  8
0
  6
ByBlock
 62
     0
100
AcDbLine
 10
103.4000764939915
 20
638.4322537221737
 30
0.0
 11
71.46566497298562
 21
638.4322537221737
 31
0.0
  0
LINE
  5
3A1
330
20
100
AcDbEntity
  8
STEMPEL
100
AcDbLine
 10
103.7160362073402
 20
640.3116389637455
 30
0.0
 11
111.2956958152352
 21
643.0704094468891
 31
0.0
  0
POINT
  5
3A2
330
20
100
AcDbEntity
  8
DEFPOINTS
  6
ByBlock
 62
     0
100
AcDbPoint
 10
104.4000764939915
 20
638.4322537221737
 30
0.0
  0
POINT
  5
3A3
330
20
100
AcDbEntity
  8
DEFPOINTS
  6
ByBlock
 62
     0
100
AcDbPoint
 10
104.4000764939915
 20
638.4322537221737
 30
0.0
  0
LINE
  5
3A4
330
20
100
AcDbEntity
  8
STEMPEL
100
AcDbLine
 10
104.4000764939915
 20
638.4322537221737
 30
0.0
 11
103.7160362073402
 21
640.3116389637455
 31
0.0
  0
DIMENSION
  5
3A6
330
20
100
AcDbEntity
  8
BEM
100
AcDbDimension
  2
*D12
 10
287.2160362073401
 20
679.8161355922303
 30
0.0
 11
226.2160362073402
 21
686.3161355922303
 31
0.0
 70
    32
  1
%%C<>
 71
     5
 42
122.0
  3
Standard
100
AcDbAlignedDimension
 13
165.2160362073401
 23
663.4322537221736
 33
0.0
 14
287.2160362073401
 24
663.4322537221737
 34
0.0
100
AcDbRotatedDimension
  0
LINE
  5
3A8
330
20
100
AcDbEntity
  8
0
  6
ByBlock
 62
     0
100
AcDbLine
 10
287.2160362073401
 20
664.4322537221738
 30
0.0
 11
287.2160362073401
 21
684.360803622269
 31
0.0
  0
LINE
  5
3A9
330
20
100
AcDbEntity
  8
0
  6
ByBlock
 62
     0
100
AcDbLine
 10
165.2160362073401
 20
664.4322537221736
 30
0.0
 11
165.2160362073401
 21
684.360803622269
 31
0.0
  0
INSERT
  5
3AA
330
20
100
AcDbEntity
  8
SCHRAFF
100
AcDbBlockReference
  2
*X7
 10
-20.43987707794588
 20
0.0
 30
0.0
1001
ACAD
1000
HATCH
1002
{
1070
    16
1000
_U,I
1040
0.1
1040
0.0
1070
     0
1002
}
  0
INSERT
  5
3AB
330
20
100
AcDbEntity
  8
SCHRAFF
100
AcDbBlockReference
  2
*X3
 10
-20.43987707794588
 20
0.0
 30
0.0
1001
ACAD
1000
HATCH
1002
{
1070
    16
1000
_U,I
1040
2.0
1040
0.7853981633974483
1070
     0
1002
}
  0
LINE
  5
3AC
330
20
100
AcDbEntity
  8
STEMPEL
100
AcDbLine
 10
210.9069421656133
 20
640.4322537221737
 30
0.0
 11
199.6112813162874
 21
635.8053707566113
 31
0.0
  0
LINE
  5
3AE
330
20
100
AcDbEntity
  8
STEMPEL
100
AcDbLine
 10
210.9069421656133
 20
655.4322537221737
 30
0.0
 11
184.5251302490671
 21
655.4322537221737
 31
0.0
  0
LINE
  5
3B0
330
20
100
AcDbEntity
  8
HILF
100
AcDbLine
 10
259.5160362073401
 20
563.4322537221737
 30
0.0
 11
192.91603620734
 21
563.4322537221736
 31
0.0
  0
LINE
  5
3B1
330
20
100
AcDbEntity
  8
STEMPEL
100
AcDbLine
 10
272.8414941707606
 20
583.4322537221736
 30
0.0
 11
179.551196579967
 21
583.4322537221736
 31
0.0
  0
LINE
  5
3B2
330
20
100
AcDbEntity
  8
STEMPEL
100
AcDbLine
 10
287.2160362073401
 20
663.4322537221737
 30
0.0
 11
165.2160362073401
 21
663.4322537221736
 31
0.0
  0
ARC
  5
3B3
330
20
100
AcDbEntity
  8
STEMPEL
100
AcDbCircle
 10
157.21603620734
 20
632.7831794318217
 30
0.0
 40
8.0
100
AcDbArc
 50
0.0
 51
86.54899906270049
  0
ARC
  5
3B4
330
20
100
AcDbEntity
  8
STEMPEL
100
AcDbCircle
 10
157.21603620734
 20
632.7831794318217
 30
0.0
 40
6.0
100
AcDbArc
 50
0.0
 51
86.54899906270049
  0
LINE
  5
3B5
330
20
100
AcDbEntity
  8
STEMPEL
100
AcDbLine
 10
165.6140411824952
 20
643.4322537221736
 30
0.0
 11
113.3478166751892
 21
643.4322537221736
 31
0.0
  0
LINE
  5
3B6
330
20
100
AcDbEntity
  8
STEMPEL
100
AcDbLine
 10
157.6975955469498
 20
640.7686725664025
 30
0.0
 11
113.7089861798966
 21
643.4213735731091
 31
0.0
  0
LINE
  5
3B7
330
20
100
AcDbEntity
  8
STEMPEL
100
AcDbLine
 10
157.5772057120474
 20
638.7722992827572
 30
0.0
 11
113.5885963449942
 21
641.4250002894639
 31
0.0
  0
ARC
  5
3B8
330
20
100
AcDbEntity
  8
STEMPEL
100
AcDbCircle
 10
113.3478166751892
 20
637.4322537221736
 30
0.0
 40
4.0
100
AcDbArc
 50
86.54899906270035
 51
109.9999999999995
  0
LINE
  5
3B9
330
20
100
AcDbEntity
  8
STEMPEL
100
AcDbLine
 10
179.551196579967
 20
583.4322537221736
 30
0.0
 11
165.8251884984892
 21
621.56399736712
 31
0.0
  0
LINE
  5
3BA
330
20
100
AcDbEntity
  8
STEMPEL
100
AcDbLine
 10
181.7160362073401
 20
583.4322537221736
 30
0.0
 11
167.6729004257019
 21
622.3294780226795
 31
0.0
  0
ARC
  5
3BB
330
20
100
AcDbEntity
  8
SCHRAFF
100
AcDbCircle
 10
181.3414400943601
 20
583.4371346883294
 30
0.0
 40
2.763455452726039
100
AcDbArc
 50
147.3965095583767
 51
268.4122044994636
  0
LINE
  5
3BC
330
20
100
AcDbEntity
  8
STEMPEL
100
AcDbLine
 10
181.7160362073401
 20
583.4322537221733
 30
0.0
 11
180.273599315391
 21
582.7398840140378
 31
0.0
  0
LINE
  5
3BD
330
20
100
AcDbEntity
  8
STEMPEL
100
AcDbLine
 10
180.273599315391
 20
582.7398840140378
 30
0.0
 11
189.1251745521498
 21
564.2991022707907
 31
0.0
  0
LINE
  5
3BE
330
20
100
AcDbEntity
  8
STEMPEL
100
AcDbLine
 10
181.7160362073402
 20
583.4322537221733
 30
0.0
 11
190.5676114440989
 21
564.9914719789267
 31
0.0
  0
POINT
  5
3BF
330
20
100
AcDbEntity
  8
DEFPOINTS
  6
ByBlock
 62
     0
100
AcDbPoint
 10
189.2887194185261
 20
563.4322537221736
 30
0.0
  0
ARC
  5
3C0
330
20
100
AcDbEntity
  8
STEMPEL
100
AcDbCircle
 10
183.71603620734
 20
561.7027158652823
 30
0.0
 40
7.599999999999999
100
AcDbArc
 50
0.0000000000001018
 51
25.6410058243059
  0
ARC
  5
3C1
330
20
100
AcDbEntity
  8
STEMPEL
100
AcDbCircle
 10
183.7160362073401
 20
561.7027158652821
 30
0.0
 40
6.0
100
AcDbArc
 50
0.0000000000001018
 51
25.64100582430559
  0
POINT
  5
3C2
330
20
100
AcDbEntity
  8
DEFPOINTS
  6
ByBlock
 62
     0
100
AcDbPoint
 10
181.7160362073401
 20
583.4322537221736
 30
0.0
  0
INSERT
  5
3C3
330
20
100
AcDbEntity
  8
SCHRAFF
100
AcDbBlockReference
  2
*X4
 10
-20.43987707794588
 20
0.0
 30
0.0
1001
ACAD
1000
HATCH
1002
{
1070
    16
1000
_U,I
1040
2.0
1040
0.7853981633974483
1070
     0
1002
}
  0
LINE
  5
3C4
330
20
100
AcDbEntity
  8
STEMPEL
100
AcDbLine
 10
169.21603620734
 20
655.4322537221737
 30
0.0
 11
171.21603620734
 21
635.4322537221738
 31
0.0
  0
LINE
  5
3C5
330
20
100
AcDbEntity
  8
STEMPEL
100
AcDbLine
 10
167.2060610831159
 20
655.4322537221737
 30
0.0
 11
169.2060610831159
 21
635.4322537221738
 31
0.0
  0
LINE
  5
3C6
330
20
100
AcDbEntity
  8
STEMPEL
100
AcDbLine
 10
167.2060610831159
 20
655.4322537221737
 30
0.0
 11
165.21603620734
 21
640.4322537221737
 31
0.0
  0
LINE
  5
3C7
330
20
100
AcDbEntity
  8
STEMPEL
100
AcDbLine
 10
169.2060610831159
 20
635.4322537221738
 30
0.0
 11
171.21603620734
 21
635.4322537221738
 31
0.0
  0
LINE
  5
3C8
330
20
100
AcDbEntity
  8
STEMPEL
100
AcDbLine
 10
165.21603620734
 20
640.4322537221738
 30
0.0
 11
165.21603620734
 21
623.4322537221737
 31
0.0
  0
LINE
  5
3C9
330
20
100
AcDbEntity
  8
STEMPEL
100
AcDbLine
 10
167.21603620734
 20
637.9260036833051
 30
0.0
 11
167.21603620734
 21
624.6259199893581
 31
0.0
  0
ARC
  5
3CA
330
20
100
AcDbEntity
  8
SCHRAFF
100
AcDbCircle
 10
166.6602910670964
 20
624.5062673812542
 30
0.0
 40
3.607824396897254
100
AcDbArc
 50
197.3189187648876
 51
260.1932583868874
  0
LINE
  5
3CB
330
20
100
AcDbEntity
  8
STEMPEL
100
AcDbLine
 10
165.3055898961269
 20
623.4322537221737
 30
0.0
 11
163.21603620734
 21
623.4322537221737
 31
0.0
  0
LINE
  5
3CC
330
20
100
AcDbEntity
  8
STEMPEL
100
AcDbLine
 10
163.21603620734
 20
632.7831794318217
 30
0.0
 11
163.21603620734
 21
623.4322537221737
 31
0.0
  0
ARC
  5
3CD
330
20
100
AcDbEntity
  8
STEMPEL
100
AcDbCircle
 10
173.21603620734
 20
624.6259199893581
 30
0.0
 40
8.0
100
AcDbArc
 50
180.0
 51
202.5035284997675
  0
ARC
  5
3CE
330
20
100
AcDbEntity
  8
STEMPEL
100
AcDbCircle
 10
173.21603620734
 20
624.6259199893581
 30
0.0
 40
6.0
100
AcDbArc
 50
180.0000000000001
 51
202.5035284997675
  0
LINE
  5
3CF
330
20
100
AcDbEntity
  8
STEMPEL
100
AcDbLine
 10
165.21603620734
 20
635.4322537221738
 30
0.0
 11
167.21603620734
 21
635.4322537221738
 31
0.0
  0
LINE
  5
3D0
330
20
100
AcDbEntity
  8
STEMPEL
100
AcDbLine
 10
165.21603620734
 20
640.4322537221738
 30
0.0
 11
169.2060610831159
 21
635.4322537221738
 31
0.0
  0
LINE
  5
3D1
330
20
100
AcDbEntity
  8
0
  6
ByBlock
 62
     0
100
AcDbLine
 10
167.2160362073401
 20
664.4322537221736
 30
0.0
 11
167.2160362073401
 21
676.3687653499705
 31
0.0
  0
POINT
  5
3D2
330
20
100
AcDbEntity
  8
DEFPOINTS
  6
ByBlock
 62
     0
100
AcDbPoint
 10
165.2160362073401
 20
663.4322537221736
 30
0.0
  0
LINE
  5
3D3
330
20
100
AcDbEntity
  8
STEMPEL
100
AcDbLine
 10
165.2160362073401
 20
663.4322537221737
 30
0.0
 11
165.2160362073401
 21
655.4322537221737
 31
0.0
  0
LINE
  5
3D4
330
20
100
AcDbEntity
  8
STEMPEL
100
AcDbLine
 10
165.2160362073401
 20
655.4322537221737
 30
0.0
 11
169.21603620734
 21
655.4322537221737
 31
0.0
  0
LINE
  5
3D5
330
20
100
AcDbEntity
  8
STEMPEL
100
AcDbLine
 10
167.21603620734
 20
663.4322537221737
 30
0.0
 11
167.21603620734
 21
655.4322537221737
 31
0.0
  0
LINE
  5
3D6
330
20
100
AcDbEntity
  8
HILF
100
AcDbLine
 10
184.5251302490671
 20
648.4322537221738
 30
0.0
 11
184.5251302490671
 21
655.4322537221737
 31
0.0
  0
LINE
  5
3D7
330
20
100
AcDbEntity
  8
STEMPEL
100
AcDbLine
 10
184.5251302490671
 20
640.4322537221737
 30
0.0
 11
195.8207910983929
 21
635.8053707566113
 31
0.0
  0
ARC
  5
3D8
330
20
100
AcDbEntity
  8
STEMPEL
100
AcDbCircle
 10
197.7160362073402
 20
640.4322537221737
 30
0.0
 40
5.0
100
AcDbArc
 50
247.7252106844578
 51
292.2747893155419
  0
LINE
  5
3D9
330
20
100
AcDbEntity
  8
STEMPEL
100
AcDbLine
 10
243.9074626622635
 20
643.4322537221736
 30
0.0
 11
250.9074626622635
 21
638.4322537221737
 31
0.0
  0
LINE
  5
3DA
330
20
100
AcDbEntity
  8
STEMPEL
100
AcDbLine
 10
250.9074626622635
 20
655.4322537221736
 30
0.0
 11
243.9074626622635
 21
650.4322537221737
 31
0.0
  0
LINE
  5
3DB
330
20
100
AcDbEntity
  8
STEMPEL
100
AcDbLine
 10
246.5055388736167
 20
643.4322537221736
 30
0.0
 11
253.5055388736167
 21
638.4322537221737
 31
0.0
  0
LINE
  5
3DC
330
20
100
AcDbEntity
  8
STEMPEL
100
AcDbLine
 10
253.5055388736167
 20
655.4322537221737
 30
0.0
 11
246.5055388736167
 21
650.4322537221736
 31
0.0
  0
LINE
  5
3DF
330
20
100
AcDbEntity
  8
HILF
100
AcDbLine
 10
210.9069421656132
 20
648.4322537221737
 30
0.0
 11
210.9069421656133
 21
655.4322537221737
 31
0.0
  0
LINE
  5
3E0
330
20
100
AcDbEntity
  8
STEMPEL
100
AcDbLine
 10
240.9074626622635
 20
643.4322537221735
 30
0.0
 11
240.9074626622635
 21
650.4322537221739
 31
0.0
  0
LINE
  5
3E1
330
20
100
AcDbEntity
  8
STEMPEL
100
AcDbLine
 10
243.5055388736166
 20
643.4322537221736
 30
0.0
 11
243.5055388736167
 21
650.4322537221737
 31
0.0
  0
LINE
  5
3E2
330
20
100
AcDbEntity
  8
STEMPEL
100
AcDbLine
 10
246.5055388736167
 20
643.4322537221736
 30
0.0
 11
240.9074626622635
 21
643.4322537221735
 31
0.0
  0
LINE
  5
3E3
330
20
100
AcDbEntity
  8
STEMPEL
100
AcDbLine
 10
246.5055388736167
 20
650.4322537221736
 30
0.0
 11
240.9074626622635
 21
650.4322537221739
 31
0.0
  0
LINE
  5
3E4
330
20
100
AcDbEntity
  8
STEMPEL
100
AcDbLine
 10
270.7160362073402
 20
583.4322537221736
 30
0.0
 11
284.7591719889784
 21
622.3294780226795
 31
0.0
  0
LINE
  5
3E5
330
20
100
AcDbEntity
  8
STEMPEL
100
AcDbLine
 10
272.8808758347132
 20
583.4322537221736
 30
0.0
 11
286.6068839161911
 21
621.56399736712
 31
0.0
  0
ARC
  5
3E6
330
20
100
AcDbEntity
  8
SCHRAFF
100
AcDbCircle
 10
271.0906323203203
 20
583.4371346883294
 30
0.0
 40
2.763455452726039
100
AcDbArc
 50
271.5877955005364
 51
32.6034904416233
  0
LINE
  5
3E7
330
20
100
AcDbEntity
  8
STEMPEL
100
AcDbLine
 10
270.7160362073401
 20
583.4322537221736
 30
0.0
 11
261.8644609705813
 21
564.991471978926
 31
0.0
  0
ARC
  5
3E8
330
20
100
AcDbEntity
  8
STEMPEL
100
AcDbCircle
 10
268.7160362073401
 20
561.7027158652818
 30
0.0
 40
7.599999999999999
100
AcDbArc
 50
154.3589941756946
 51
180.0000000000001
  0
LINE
  5
3E9
330
20
100
AcDbEntity
  8
STEMPEL
100
AcDbLine
 10
272.1584730992893
 20
582.739884014038
 30
0.0
 11
263.3068978625305
 21
564.2991022707905
 31
0.0
  0
ARC
  5
3EA
330
20
100
AcDbEntity
  8
STEMPEL
100
AcDbCircle
 10
268.7160362073401
 20
561.7027158652819
 30
0.0
 40
6.0
100
AcDbArc
 50
154.3589941756946
 51
180.0000000000001
  0
LINE
  5
3EB
330
20
100
AcDbEntity
  8
STEMPEL
100
AcDbLine
 10
270.7160362073402
 20
583.4322537221736
 30
0.0
 11
272.1584730992893
 21
582.739884014038
 31
0.0
  0
POINT
  5
3EC
330
20
100
AcDbEntity
  8
STEMPEL
  6
ByBlock
 62
     0
100
AcDbPoint
 10
270.7160362073401
 20
583.4322537221736
 30
0.0
  0
POINT
  5
3ED
330
20
100
AcDbEntity
  8
STEMPEL
  6
ByBlock
 62
     0
100
AcDbPoint
 10
272.8172997895628
 20
583.4322537221736
 30
0.0
  0
LINE
  5
3EE
330
20
100
AcDbEntity
  8
STEMPEL
100
AcDbLine
 10
256.0055388736167
 20
641.4322537221737
 30
0.0
 11
256.0055388736167
 21
652.4322537221737
 31
0.0
  0
LINE
  5
3EF
330
20
100
AcDbEntity
  8
STEMPEL
100
AcDbLine
 10
257.0055388736167
 20
641.4322537221737
 30
0.0
 11
256.0055388736167
 21
641.4322537221737
 31
0.0
  0
LINE
  5
3F0
330
20
100
AcDbEntity
  8
STEMPEL
100
AcDbLine
 10
257.0055388736167
 20
638.4322537221737
 30
0.0
 11
250.9074626622635
 21
638.4322537221737
 31
0.0
  0
LINE
  5
3F1
330
20
100
AcDbEntity
  8
STEMPEL
100
AcDbLine
 10
257.0055388736167
 20
638.4322537221737
 30
0.0
 11
257.0055388736167
 21
641.4322537221737
 31
0.0
  0
LINE
  5
3F2
330
20
100
AcDbEntity
  8
STEMPEL
100
AcDbLine
 10
257.0055388736167
 20
652.4322537221737
 30
0.0
 11
256.0055388736167
 21
652.4322537221737
 31
0.0
  0
LINE
  5
3F3
330
20
100
AcDbEntity
  8
STEMPEL
100
AcDbLine
 10
257.0055388736167
 20
655.4322537221737
 30
0.0
 11
250.9074626622635
 21
655.4322537221736
 31
0.0
  0
LINE
  5
3F4
330
20
100
AcDbEntity
  8
STEMPEL
100
AcDbLine
 10
257.0055388736167
 20
652.4322537221737
 30
0.0
 11
257.0055388736167
 21
655.4322537221737
 31
0.0
  0
LINE
  5
3F5
330
20
100
AcDbEntity
  8
STEMPEL
100
AcDbLine
 10
285.2260113315644
 20
655.4322537221737
 30
0.0
 11
287.2160362073403
 21
640.4322537221737
 31
0.0
  0
LINE
  5
3F6
330
20
100
AcDbEntity
  8
STEMPEL
100
AcDbLine
 10
285.2260113315644
 20
655.4322537221737
 30
0.0
 11
283.2260113315644
 21
635.4322537221738
 31
0.0
  0
LINE
  5
3F7
330
20
100
AcDbEntity
  8
STEMPEL
100
AcDbLine
 10
283.2160362073403
 20
655.4322537221737
 30
0.0
 11
281.2160362073403
 21
635.4322537221738
 31
0.0
  0
LINE
  5
3F8
330
20
100
AcDbEntity
  8
STEMPEL
100
AcDbLine
 10
287.2160362073403
 20
640.4322537221737
 30
0.0
 11
283.2260113315644
 21
635.4322537221738
 31
0.0
  0
LINE
  5
3F9
330
20
100
AcDbEntity
  8
STEMPEL
100
AcDbLine
 10
287.2160362073403
 20
635.4322537221738
 30
0.0
 11
285.2160362073403
 21
635.4322537221738
 31
0.0
  0
LINE
  5
3FA
330
20
100
AcDbEntity
  8
STEMPEL
100
AcDbLine
 10
285.2160362073403
 20
637.9260036833051
 30
0.0
 11
285.2160362073402
 21
624.6259199893581
 31
0.0
  0
ARC
  5
3FB
330
20
100
AcDbEntity
  8
STEMPEL
100
AcDbCircle
 10
279.2160362073403
 20
624.6259199893581
 30
0.0
 40
6.0
100
AcDbArc
 50
337.4964715002328
 51
0.0
  0
LINE
  5
3FC
330
20
100
AcDbEntity
  8
STEMPEL
100
AcDbLine
 10
283.2260113315644
 20
635.4322537221738
 30
0.0
 11
281.2160362073403
 21
635.4322537221738
 31
0.0
  0
LINE
  5
3FD
330
20
100
AcDbEntity
  8
STEMPEL
100
AcDbLine
 10
287.2160362073403
 20
640.4322537221738
 30
0.0
 11
287.2160362073403
 21
623.4322537221737
 31
0.0
  0
ARC
  5
3FE
330
20
100
AcDbEntity
  8
STEMPEL
100
AcDbCircle
 10
295.2160362073403
 20
632.7831794318217
 30
0.0
 40
8.0
100
AcDbArc
 50
93.45100093729952
 51
180.0
  0
ARC
  5
3FF
330
20
100
AcDbEntity
  8
STEMPEL
100
AcDbCircle
 10
295.2160362073403
 20
632.7831794318217
 30
0.0
 40
6.0
100
AcDbArc
 50
93.45100093729952
 51
180.0
  0
ARC
  5
400
330
20
100
AcDbEntity
  8
SCHRAFF
100
AcDbCircle
 10
285.7717813475839
 20
624.5062673812542
 30
0.0
 40
3.607824396897254
100
AcDbArc
 50
279.8067416131126
 51
342.6810812351123
  0
LINE
  5
401
330
20
100
AcDbEntity
  8
STEMPEL
100
AcDbLine
 10
287.1264825185534
 20
623.4322537221737
 30
0.0
 11
289.2160362073403
 21
623.4322537221737
 31
0.0
  0
LINE
  5
402
330
20
100
AcDbEntity
  8
STEMPEL
100
AcDbLine
 10
289.2160362073403
 20
632.7831794318217
 30
0.0
 11
289.2160362073403
 21
623.4322537221737
 31
0.0
  0
ARC
  5
403
330
20
100
AcDbEntity
  8
STEMPEL
100
AcDbCircle
 10
279.2160362073403
 20
624.6259199893581
 30
0.0
 40
8.0
100
AcDbArc
 50
337.4964715002328
 51
0.0
  0
LINE
  5
404
330
20
100
AcDbEntity
  8
STEMPEL
100
AcDbLine
 10
287.2160362073402
 20
655.4322537221737
 30
0.0
 11
283.2160362073403
 21
655.4322537221737
 31
0.0
  0
LINE
  5
405
330
20
100
AcDbEntity
  8
0
  6
ByBlock
 62
     0
100
AcDbLine
 10
285.2160362073401
 20
664.4322537221738
 30
0.0
 11
285.2160362073401
 21
676.3687653499705
 31
0.0
  0
POINT
  5
406
330
20
100
AcDbEntity
  8
DEFPOINTS
  6
ByBlock
 62
     0
100
AcDbPoint
 10
285.2160362073401
 20
663.4322537221737
 30
0.0
  0
LINE
  5
407
330
20
100
AcDbEntity
  8
STEMPEL
100
AcDbLine
 10
285.2160362073403
 20
663.4322537221737
 30
0.0
 11
285.2160362073403
 21
655.4322537221737
 31
0.0
  0
POINT
  5
408
330
20
100
AcDbEntity
  8
DEFPOINTS
  6
ByBlock
 62
     0
100
AcDbPoint
 10
287.2160362073401
 20
663.4322537221737
 30
0.0
  0
POINT
  5
409
330
20
100
AcDbEntity
  8
DEFPOINTS
  6
ByBlock
 62
     0
100
AcDbPoint
 10
287.2160362073401
 20
663.4322537221737
 30
0.0
  0
POINT
  5
40A
330
20
100
AcDbEntity
  8
DEFPOINTS
  6
ByBlock
 62
     0
100
AcDbPoint
 10
287.2160362073401
 20
663.4322537221737
 30
0.0
  0
POINT
  5
40B
330
20
100
AcDbEntity
  8
DEFPOINTS
  6
ByBlock
 62
     0
100
AcDbPoint
 10
287.2160362073401
 20
663.4322537221737
 30
0.0
  0
LINE
  5
40C
330
20
100
AcDbEntity
  8
STEMPEL
100
AcDbLine
 10
287.2160362073401
 20
663.4322537221737
 30
0.0
 11
287.2160362073402
 21
655.4322537221737
 31
0.0
  0
LINE
  5
40D
330
20
100
AcDbEntity
  8
STEMPEL
100
AcDbLine
 10
584.0
 20
40.0
 30
0.0
 11
584.0
 21
830.0
 31
0.0
  0
LINE
  5
40E
330
20
100
AcDbEntity
  8
HILF
100
AcDbLine
 10
594.0
 20
0.0
 30
0.0
 11
594.0
 21
840.0000000000002
 31
0.0
  0
POINT
  5
40F
330
20
100
AcDbEntity
  8
DEFPOINTS
  6
ByBlock
 62
     0
100
AcDbPoint
 10
331.1630692336616
 20
211.5285000875985
 30
0.0
  0
LINE
  5
413
330
20
100
AcDbEntity
  8
STEMPEL
100
AcDbLine
 10
348.7160362073402
 20
640.3116389637455
 30
0.0
 11
341.1363765994451
 21
643.0704094468891
 31
0.0
  0
LINE
  5
414
330
20
100
AcDbEntity
  8
STEMPEL
100
AcDbLine
 10
348.0319959206888
 20
638.4322537221736
 30
0.0
 11
340.4523363127937
 21
641.1910242053172
 31
0.0
  0
ARC
  5
415
330
20
100
AcDbEntity
  8
STEMPEL
100
AcDbCircle
 10
339.084255739491
 20
637.4322537221736
 30
0.0
 40
4.0
100
AcDbArc
 50
70.00000000000048
 51
93.45100093729966
  0
ARC
  5
416
330
20
100
AcDbEntity
  8
STEMPEL
100
AcDbCircle
 10
339.084255739491
 20
637.4322537221736
 30
0.0
 40
6.0
100
AcDbArc
 50
70.00000000000007
 51
93.45100093729936
  0
LINE
  5
417
330
20
100
AcDbEntity
  8
STEMPEL
100
AcDbLine
 10
348.0319959206888
 20
638.4322537221737
 30
0.0
 11
348.7160362073402
 21
640.3116389637455
 31
0.0
  0
TEXT
  5
418
330
20
100
AcDbEntity
  8
BEM
100
AcDbText
 10
480.4045780774092
 20
470.2031266103855
 30
0.0
 40
5.0
  1
Erstellt mit AUTOCAD 2004
 50
90.0
 41
0.8
  7
GREEKS
100
AcDbText
  0
TEXT
  5
41B
330
20
100
AcDbEntity
  8
BEM
100
AcDbText
 10
551.8049542698645
 20
654.9713400534564
 30
0.0
 40
3.6
  1
16111070W.DWG
 50
90.0
 41
0.8
  7
GREEKS
100
AcDbText
  0
TEXT
  5
41C
330
20
100
AcDbEntity
  8
BEM
100
AcDbText
 10
541.2486885465454
 20
655.162303158329
 30
0.0
 40
5.0
  1
EDV-Art.Nr. 16111.070X
 50
90.0
 41
0.8
  7
GREEKS
100
AcDbText
  0
TEXT
  5
41D
330
20
100
AcDbEntity
  8
BEM
100
AcDbText
 10
521.703488726959
 20
654.862987254257
 30
0.0
 40
5.0
  1
Fallrohrlänge 250mm
 50
90.0
 41
0.8
  7
GREEKS
100
AcDbText
  0
TEXT
  5
41E
330
20
100
AcDbEntity
  8
BEM
100
AcDbText
 10
563.1543942980694
 20
654.7422383911358
 30
0.0
 40
5.0
  1
Bauvorhaben
 50
90.0
 41
0.8
  7
GREEKS
100
AcDbText
  0
TEXT
  5
41F
330
20
100
AcDbEntity
  8
BEM
100
AcDbText
 10
491.4510671988221
 20
654.8779403809009
 30
0.0
 40
5.0
  1
Benennung
 50
90.0
 41
0.8
  7
GREEKS
100
AcDbText
  0
LINE
  5
420
330
20
100
AcDbEntity
  8
HILF
100
AcDbLine
 10
579.1060174197169
 20
654.7736801096947
 30
0.0
 11
579.1060174197169
 21
824.8588839326728
 31
0.0
  0
LINE
  5
421
330
20
100
AcDbEntity
  8
HILF
100
AcDbLine
 10
544.0
 20
654.7736801096947
 30
0.0
 11
544.0
 21
746.629784251481
 31
0.0
  0
LINE
  5
422
330
20
100
AcDbEntity
  8
HILF
100
AcDbLine
 10
534.0
 20
654.7736801096947
 30
0.0
 11
534.0
 21
746.629784251481
 31
0.0
  0
LINE
  5
423
330
20
100
AcDbEntity
  8
HILF
100
AcDbLine
 10
524.0
 20
654.7736801096947
 30
0.0
 11
524.0
 21
746.629784251481
 31
0.0
  0
LINE
  5
424
330
20
100
AcDbEntity
  8
HILF
100
AcDbLine
 10
509.9624175243587
 20
654.7736801096947
 30
0.0
 11
509.9624175243587
 21
746.629784251481
 31
0.0
  0
LINE
  5
425
330
20
100
AcDbEntity
  8
STEMPEL
100
AcDbLine
 10
514.0
 20
830.0
 30
0.0
 11
514.0
 21
566.0000000000001
 31
0.0
  0
LINE
  5
426
330
20
100
AcDbEntity
  8
STEMPEL
100
AcDbLine
 10
554.0
 20
830.0
 30
0.0
 11
554.0
 21
565.9999999999999
 31
0.0
  0
LINE
  5
427
330
20
100
AcDbEntity
  8
STEMPEL
100
AcDbLine
 10
484.0
 20
830.0
 30
0.0
 11
484.0
 21
470.0
 31
0.0
  0
TEXT
  5
428
330
20
100
AcDbEntity
  8
TEXT
 62
     1
100
AcDbText
 10
507.0058791601468
 20
654.979117340995
 30
0.0
 40
7.0
  1
Ablaufeinheit DN70
 50
90.0
 41
0.8
  7
GREEKS
100
AcDbText
  0
INSERT
  5
429
330
20
100
AcDbEntity
  8
STEMPEL
100
AcDbBlockReference
  2
LOGO
 10
549.6760802813285
 20
568.9705276546529
 30
0.0
 41
2.0
 42
2.0
 43
2.0
 50
90.0
  0
TEXT
  5
42B
330
20
100
AcDbEntity
  8
BEM
100
AcDbText
 10
580.3453415397281
 20
478.2664110704574
 30
0.0
 40
3.6
  1
Index
 50
180.0
 41
0.8
  7
GREEKS
100
AcDbText
  0
TEXT
  5
42C
330
20
100
AcDbEntity
  8
BEM
100
AcDbText
 10
574.9320163987127
 20
492.4096827138948
 30
0.0
 40
4.0
  1
Änderung
 50
90.0
 41
0.8
  7
GREEKS
 72
     4
 11
573.217730684427
 21
503.152539856752
 31
0.0
100
AcDbText
  0
LINE
  5
42D
330
20
100
AcDbEntity
  8
VOLL
100
AcDbLine
 10
484.0000000000001
 20
544.0000000000001
 30
0.0
 11
584.0000000000001
 21
543.9999999999998
 31
0.0
  0
LINE
  5
42E
330
20
100
AcDbEntity
  8
VOLL
100
AcDbLine
 10
484.0
 20
524.0000000000001
 30
0.0
 11
584.0
 21
523.9999999999999
 31
0.0
  0
LINE
  5
42F
330
20
100
AcDbEntity
  8
VOLL
100
AcDbLine
 10
484.0
 20
484.0
 30
0.0
 11
584.0
 21
483.9999999999998
 31
0.0
  0
LINE
  5
430
330
20
100
AcDbEntity
  8
STEMPEL
100
AcDbLine
 10
484.0
 20
649.9999999999999
 30
0.0
 11
584.0
 21
649.9999999999999
 31
0.0
  0
LINE
  5
431
330
20
100
AcDbEntity
  8
STEMPEL
100
AcDbLine
 10
484.0000000000001
 20
566.0000000000001
 30
0.0
 11
584.0000000000001
 21
565.9999999999999
 31
0.0
  0
LINE
  5
432
330
20
100
AcDbEntity
  8
STEMPEL
100
AcDbLine
 10
484.0
 20
470.0
 30
0.0
 11
584.0
 21
469.9999999999999
 31
0.0
  0
LINE
  5
435
330
20
100
AcDbEntity
  8
HILF
100
AcDbLine
 10
554.0
 20
470.0
 30
0.0
 11
554.0
 21
566.0000000000001
 31
0.0
  0
LINE
  5
436
330
20
100
AcDbEntity
  8
HILF
100
AcDbLine
 10
544.0
 20
470.0
 30
0.0
 11
544.0
 21
566.0000000000001
 31
0.0
  0
LINE
  5
437
330
20
100
AcDbEntity
  8
HILF
100
AcDbLine
 10
534.0
 20
470.0
 30
0.0
 11
534.0
 21
566.0000000000001
 31
0.0
  0
LINE
  5
438
330
20
100
AcDbEntity
  8
HILF
100
AcDbLine
 10
524.0
 20
470.0
 30
0.0
 11
524.0
 21
566.0000000000001
 31
0.0
  0
LINE
  5
439
330
20
100
AcDbEntity
  8
HILF
100
AcDbLine
 10
514.0
 20
470.0
 30
0.0
 11
514.0
 21
566.0000000000001
 31
0.0
  0
LINE
  5
43A
330
20
100
AcDbEntity
  8
HILF
100
AcDbLine
 10
504.0
 20
470.0
 30
0.0
 11
504.0
 21
566.0000000000001
 31
0.0
  0
LINE
  5
43B
330
20
100
AcDbEntity
  8
HILF
100
AcDbLine
 10
494.0
 20
470.0
 30
0.0
 11
494.0
 21
566.0000000000001
 31
0.0
  0
LINE
  5
43C
330
20
100
AcDbEntity
  8
STEMPEL
100
AcDbLine
 10
564.0
 20
565.9999999999999
 30
0.0
 11
564.0
 21
469.9999999999999
 31
0.0
  0
TEXT
  5
440
330
20
100
AcDbEntity
  8
BEM
100
AcDbText
 10
530.594467646405
 20
590.4500884820464
 30
0.0
 40
3.6
  1
29.05.
 50
90.0
 41
0.8
  7
GREEKS
 72
     1
 11
530.594467646405
 21
596.7586599106178
 31
0.0
100
AcDbText
  0
TEXT
  5
441
330
20
100
AcDbEntity
  8
BEM
100
AcDbText
 10
530.497467412491
 20
625.1121860477743
 30
0.0
 40
3.6
  1
Koeh
 50
90.0
 41
0.8
  7
GREEKS
 72
     1
 11
530.497467412491
 21
629.8436146192028
 31
0.0
100
AcDbText
  0
TEXT
  5
442
330
20
100
AcDbEntity
  8
BEM
100
AcDbText
 10
530.3700963038204
 20
567.5836127167614
 30
0.0
 40
3.6
  1
Gez.
 50
90.0
 41
0.8
  7
GREEKS
100
AcDbText
  0
LINE
  5
443
330
20
100
AcDbEntity
  8
VOLL
100
AcDbLine
 10
484.0000000000001
 20
610.0000000000001
 30
0.0
 11
554.0
 21
609.9999999999998
 31
0.0
  0
LINE
  5
444
330
20
100
AcDbEntity
  8
VOLL
100
AcDbLine
 10
514.0
 20
584.0000000000001
 30
0.0
 11
554.0
 21
584.0000000000001
 31
0.0
  0
LINE
  5
445
330
20
100
AcDbEntity
  8
HILF
100
AcDbLine
 10
524.0
 20
566.0000000000001
 30
0.0
 11
524.0
 21
649.9999999999999
 31
0.0
  0
TEXT
  5
446
330
20
100
AcDbEntity
  8
TEXT
 62
     1
100
AcDbText
 10
507.7758949562678
 20
578.8064310364449
 30
0.0
 40
7.0
  1
1:2
 50
90.0
 41
0.8
  7
GREEKS
100
AcDbText
  0
TEXT
  5
447
330
20
100
AcDbEntity
  8
BEM
100
AcDbText
 10
491.5379104912911
 20
573.5163572150375
 30
0.0
 40
5.0
  1
Maßstab
 50
90.0
 41
0.8
  7
GREEKS
100
AcDbText
  0
TEXT
  5
448
330
20
100
AcDbEntity
  8
BEM
100
AcDbText
 10
520.8541631609584
 20
568.5426010951829
 30
0.0
 40
3.6
  1
2008
 50
90.0
 41
0.8
  7
GREEKS
100
AcDbText
  0
TEXT
  5
449
330
20
100
AcDbEntity
  8
BEM
100
AcDbText
 10
520.6811949877008
 20
592.3311673153649
 30
0.0
 40
3.6
  1
Tag
 50
90.0
 41
0.8
  7
GREEKS
100
AcDbText
  0
TEXT
  5
44A
330
20
100
AcDbEntity
  8
BEM
100
AcDbText
 10
491.5815831565181
 20
617.9646614905597
 30
0.0
 40
5.0
  1
zul.Abw
 50
90.0
 41
0.8
  7
GREEKS
100
AcDbText
  0
TEXT
  5
44B
330
20
100
AcDbEntity
  8
BEM
100
AcDbText
 10
520.6903890808478
 20
622.4626584226294
 30
0.0
 40
3.6
  1
Name
 50
90.0
 41
0.8
  7
GREEKS
100
AcDbText
  0
LINE
  5
44C
330
20
100
AcDbEntity
  8
HILF
100
AcDbLine
 10
544.0
 20
566.0000000000001
 30
0.0
 11
544.0
 21
649.9999999999999
 31
0.0
  0
LINE
  5
44D
330
20
100
AcDbEntity
  8
HILF
100
AcDbLine
 10
534.0
 20
566.0000000000001
 30
0.0
 11
534.0
 21
649.9999999999999
 31
0.0
  0
TEXT
  5
44E
330
20
100
AcDbEntity
  8
BEM
100
AcDbText
 10
540.3107370857163
 20
567.5515086571671
 30
0.0
 40
3.6
  1
Gepr.
 50
90.0
 41
0.8
  7
GREEKS
100
AcDbText
  0
TEXT
  5
44F
330
20
100
AcDbEntity
  8
BEM
100
AcDbText
 10
550.470536103502
 20
567.6006777387303
 30
0.0
 40
3.6
  1
Norm.
 50
90.0
 41
0.8
  7
GREEKS
100
AcDbText
  0
LINE
  5
450
330
20
100
AcDbEntity
  8
BEM
100
AcDbLine
 10
594.0
 20
460.0
 30
0.0
 11
584.0
 21
460.0
 31
0.0
  0
TEXT
  5
451
330
20
100
AcDbEntity
  8
TEXT
 62
     1
100
AcDbText
 10
506.9813625823642
 20
768.5044394842364
 30
0.0
 40
7.0
  1
16111070W
 50
90.0
 41
0.8
  7
GREEKS
 72
     1
 11
506.9813625823642
 21
790.3711061509031
 31
0.0
100
AcDbText
  0
LINE
  5
452
330
20
100
AcDbEntity
  8
HILF
100
AcDbLine
 10
510.2201636304418
 20
756.7238616296994
 30
0.0
 11
510.2201636304418
 21
824.8588839326728
 31
0.0
  0
LINE
  5
453
330
20
100
AcDbEntity
  8
VOLL
100
AcDbLine
 10
534.0
 20
752.0000000000001
 30
0.0
 11
534.0
 21
830.0
 31
0.0
  0
LINE
  5
455
330
20
100
AcDbEntity
  8
STEMPEL
100
AcDbLine
 10
484.0000000000003
 20
752.0000000000001
 30
0.0
 11
554.0
 21
752.0000000000001
 31
0.0
  0
TEXT
  5
456
330
20
100
AcDbEntity
  8
BEM
100
AcDbText
 10
491.6867965462863
 20
756.1787549576341
 30
0.0
 40
5.0
  1
Zeichnungs Nr.
 50
90.0
 41
0.8
  7
GREEKS
100
AcDbText
  0
TEXT
  5
457
330
20
100
AcDbEntity
  8
BEM
100
AcDbText
 10
520.8188176290003
 20
756.7238616296994
 30
0.0
 40
5.0
  1
Ersatz für:
 50
90.0
 41
0.8
  7
GREEKS
100
AcDbText
  0
TEXT
  5
458
330
20
100
AcDbEntity
  8
BEM
100
AcDbText
 10
541.925838221214
 20
757.2400861497007
 30
0.0
 40
5.0
  1
ersetzt durch:
 50
90.0
 41
0.8
  7
GREEKS
100
AcDbText
  0
LINE
  5
483
330
20
100
AcDbEntity
  8
HILF
100
AcDbLine
 10
283.1299022507218
 20
623.4322537221737
 30
0.0
 11
168.6308746699527
 21
623.4322537221737
 31
0.0
  0
TEXT
  5
505
330
20
100
AcDbEntity
  8
BEM
100
AcDbText
 10
575.2177306844271
 20
549.0326851378212
 30
0.0
 40
4.0
  1
Name
 50
90.0
 41
0.8
  7
GREEKS
 72
     4
 11
573.217730684427
 21
555.3564946616307
 31
0.0
100
AcDbText
  0
TEXT
  5
506
330
20
100
AcDbEntity
  8
BEM
100
AcDbText
 10
574.5510640177605
 20
530.5543008113499
 30
0.0
 40
4.0
  1
Tag
 50
90.0
 41
0.8
  7
GREEKS
 72
     4
 11
573.217730684427
 21
534.2876341446832
 31
0.0
100
AcDbText
  0
TEXT
  5
51D
330
20
100
AcDbEntity
  8
BEM
100
AcDbText
 10
506.666025137118
 20
613.2876982981648
 30
0.0
 40
4.0
  1
DIN EN1123-2
 50
90.0
 41
0.8
  7
GREEKS
100
AcDbText
  0
TEXT
  5
5CF
330
20
100
AcDbEntity
  8
TEXT
 62
     1
100
AcDbText
 10
458.3799333560508
 20
665.5421703459327
 30
0.0
 40
7.0
  1
innen und außen beschichtet
 50
90.0
 41
0.8
  7
GREEKS
100
AcDbText
  0
TEXT
  5
5D0
330
20
100
AcDbEntity
  8
TEXT
 62
     1
100
AcDbText
 10
445.9473217175687
 20
617.5924529085349
 30
0.0
 40
7.0
  1
Werkstoff: E195 EN10305, St37 feuerverzinkt
 50
90.0
 41
0.8
  7
GREEKS
100
AcDbText
  0
TEXT
  5
697
330
20
100
AcDbEntity
  8
TEXT
 62
     1
100
AcDbText
 10
215.8197582947935
 20
468.610056452854
 30
0.0
 40
7.0
  1
DN70
 50
90.0
 41
0.8
  7
GREEKS
100
AcDbText
  0
LINE
  5
78D
330
20
100
AcDbEntity
  8
BEM
100
AcDbLine
 10
226.7160362073401
 20
668.4322537221738
 30
0.0
 11
226.21603620734
 21
667.9322537221737
 31
0.0
  0
POINT
  5
7D1
330
20
100
AcDbEntity
  8
DEFPOINTS
  6
ByBlock
 62
     0
100
AcDbPoint
 10
254.4074626622635
 20
159.69951712983
 30
0.0
  0
INSERT
  5
7D2
330
20
100
AcDbEntity
  8
BEM
100
AcDbBlockReference
  2
*X1
 10
47.20638304289332
 20
285.5777814964758
 30
0.0
 41
-1.0
 50
180.0
1001
ACAD
1000
HATCH
1002
{
1070
    16
1000
_U,I
1040
0.1
1040
2.356194490192344
1070
     0
1002
}
  0
LINE
  5
7D3
330
20
100
AcDbEntity
  8
STEMPEL
100
AcDbLine
 10
254.4074626622635
 20
159.69951712983
 30
0.0
 11
257.0055388736167
 21
161.19951712983
 31
0.0
  0
LINE
  5
7D4
330
20
100
AcDbEntity
  8
STEMPEL
100
AcDbLine
 10
250.9074626622634
 20
165.761694956321
 30
0.0
 11
253.5055388736167
 21
167.261694956321
 31
0.0
  0
LINE
  5
7D5
330
20
100
AcDbEntity
  8
VERDECKT
100
AcDbLine
 10
253.4074626622634
 20
161.4315679373988
 30
0.0
 11
256.0055388736167
 21
162.9315679373989
 31
0.0
  0
ARC
  5
7D6
330
20
100
AcDbEntity
  8
BEM
100
AcDbCircle
 10
255.4363067334708
 20
159.5784272047544
 30
0.0
 40
4.081297947193405
100
AcDbArc
 50
131.7405002148914
 51
198.9007511684834
  0
LINE
  5
7D7
330
20
100
AcDbEntity
  8
STEMPEL
100
AcDbLine
 10
240.9074626622632
 20
183.0822030320097
 30
0.0
 11
243.5055388736165
 21
184.5822030320098
 31
0.0
  0
POINT
  5
7D8
330
20
100
AcDbEntity
  8
DEFPOINTS
  6
ByBlock
 62
     0
100
AcDbPoint
 10
240.9074626622635
 20
183.0822030320098
 30
0.0
  0
LINE
  5
7D9
330
20
100
AcDbEntity
  8
STEMPEL
100
AcDbLine
 10
243.9074626622633
 20
177.8860506093031
 30
0.0
 11
246.5055388736166
 21
179.3860506093031
 31
0.0
  0
LINE
  5
7DA
330
20
100
AcDbEntity
  8
STEMPEL
100
AcDbLine
 10
240.9074626622635
 20
183.0822030320098
 30
0.0
 11
254.4074626622635
 21
159.69951712983
 31
0.0
  0
LINE
  5
7DB
330
20
100
AcDbEntity
  8
STEMPEL
100
AcDbLine
 10
243.5055388736167
 20
184.5822030320099
 30
0.0
 11
257.0055388736167
 21
161.19951712983
 31
0.0
  0
LINE
  5
7DC
330
20
100
AcDbEntity
  8
VERDECKT
100
AcDbLine
 10
183.2996283423414
 20
168.1789679567315
 30
0.0
 11
210.132444072339
 21
152.6870345719018
 31
0.0
  0
LINE
  5
7DD
330
20
100
AcDbEntity
  8
STEMPEL
100
AcDbLine
 10
184.5251302490672
 20
169.7808251777494
 30
0.0
 11
210.9069421656131
 21
154.5492789660215
 31
0.0
  0
CIRCLE
  5
7DE
330
20
100
AcDbEntity
  8
STEMPEL
100
AcDbCircle
 10
226.2160362073402
 20
211.5285000875985
 30
0.0
 40
122.5
  0
CIRCLE
  5
7E0
330
20
100
AcDbEntity
  8
STEMPEL
100
AcDbCircle
 10
226.2160362073402
 20
211.5285000875985
 30
0.0
 40
61.0
  0
CIRCLE
  5
7E1
330
20
100
AcDbEntity
  8
STEMPEL
100
AcDbCircle
 10
226.2160362073402
 20
211.5285000875985
 30
0.0
 40
59.0
  0
ENDSEC
  0
SECTION
  2
OBJECTS
  0
DICTIONARY
  5
C
330
0
100
AcDbDictionary
281
     1
  3
ACAD_COLOR
350
1B
  3
ACAD_GROUP
350
D
  3
ACAD_LAYOUT
350
19
  3
ACAD_MATERIAL
350
1A
  3
ACAD_MLINESTYLE
350
16
  3
ACAD_PLOTSETTINGS
350
18
  3
ACAD_PLOTSTYLENAME
350
E
  3
AcDbVariableDictionary
350
517
  0
DICTIONARY
  5
1B
102
{ACAD_REACTORS
330
C
102
}
330
C
100
AcDbDictionary
281
     1
  0
DICTIONARY
  5
D
102
{ACAD_REACTORS
330
C
102
}
330
C
100
AcDbDictionary
281
     1
  0
DICTIONARY
  5
19
102
{ACAD_REACTORS
330
C
102
}
330
C
100
AcDbDictionary
281
     1
  3
Layout1
350
1F
  3
Model
350
23
  0
DICTIONARY
  5
1A
102
{ACAD_REACTORS
330
C
102
}
330
C
100
AcDbDictionary
281
     1
  0
DICTIONARY
  5
16
102
{ACAD_REACTORS
330
C
102
}
330
C
100
AcDbDictionary
281
     1
  3
Standard
350
17
  0
DICTIONARY
  5
18
102
{ACAD_REACTORS
330
C
102
}
330
C
100
AcDbDictionary
281
     1
  0
ACDBDICTIONARYWDFLT
  5
E
102
{ACAD_REACTORS
330
C
102
}
330
C
100
AcDbDictionary
281
     1
  3
Normal
350
F
100
AcDbDictionaryWithDefault
340
F
  0
DICTIONARY
  5
517
102
{ACAD_REACTORS
330
C
102
}
330
C
100
AcDbDictionary
281
     1
  3
DIMASSOC
350
519
  3
HIDETEXT
350
518
  3
PROJECTNAME
350
51A
  0
LAYOUT
  5
1F
102
{ACAD_REACTORS
330
19
102
}
330
19
100
AcDbPlotSettings
  1

  2
RICOH Aficio 2027 PCL 6
  4

  6

 40
0.0
 41
0.0
 42
0.0
 43
0.0
 44
0.0
 45
0.0
 46
0.0
 47
0.0
 48
0.0
 49
0.0
140
0.0
141
0.0
142
1.0
143
1.0
 70
   688
 72
     0
 73
     0
 74
     5
  7

 75
    16
147
1.0
 76
     0
 77
     2
 78
   300
148
0.0
149
0.0
100
AcDbLayout
  1
Layout1
 70
     0
 71
     1
 10
0.0
 20
0.0
 11
12.0
 21
9.0
 12
0.0
 22
0.0
 32
0.0
 14
1.000000000000000E+20
 24
1.000000000000000E+20
 34
1.000000000000000E+20
 15
-1.000000000000000E+20
 25
-1.000000000000000E+20
 35
-1.000000000000000E+20
146
0.0
 13
0.0
 23
0.0
 33
0.0
 16
1.0
 26
0.0
 36
0.0
 17
0.0
 27
1.0
 37
0.0
 76
     0
330
1C
  0
LAYOUT
  5
23
102
{ACAD_REACTORS
330
19
102
}
330
19
100
AcDbPlotSettings
  1

  2
RICOH Aficio 2027 PCL 6
  4
A4
  6

 40
5.027083396911621
 41
5.027085304260253
 42
5.027084350585937
 43
5.027069091796875
 44
209.9733276367187
 45
296.9259948730469
 46
0.0
 47
0.0
 48
0.0
 49
0.0
140
0.0
141
0.0
142
1.0
143
1.0
 70
 11952
 72
     0
 73
     1
 74
     0
  7

 75
     0
147
1.0
 76
     0
 77
     2
 78
   300
148
3264.767304145853
149
140.5672750485765
100
AcDbLayout
  1
Model
 70
     1
 71
     0
 10
0.0
 20
0.0
 11
12.0
 21
9.0
 12
0.0
 22
0.0
 32
0.0
 14
0.0
 24
0.0
 34
0.0
 15
0.0
 25
0.0
 35
0.0
146
0.0
 13
0.0
 23
0.0
 33
0.0
 16
1.0
 26
0.0
 36
0.0
 17
0.0
 27
1.0
 37
0.0
 76
     0
330
20
  0
MLINESTYLE
  5
17
102
{ACAD_REACTORS
330
16
102
}
330
16
100
AcDbMlineStyle
  2
STANDARD
 70
     0
  3

 62
   256
 51
90.0
 52
90.0
 71
     2
 49
0.5
 62
   256
  6
BYLAYER
 49
-0.5
 62
   256
  6
BYLAYER
  0
ACDBPLACEHOLDER
  5
F
102
{ACAD_REACTORS
330
E
102
}
330
E
  0
DICTIONARYVAR
  5
519
102
{ACAD_REACTORS
330
517
102
}
330
517
100
DictionaryVariables
280
     0
  1
2
  0
DICTIONARYVAR
  5
518
102
{ACAD_REACTORS
330
517
102
}
330
517
100
DictionaryVariables
280
     0
  1
1
  0
DICTIONARYVAR
  5
51A
102
{ACAD_REACTORS
330
517
102
}
330
517
100
DictionaryVariables
280
     0
  1

  0
ENDSEC
  0
EOF
