  0
SECTION
  2
HEADER
  9
$ACADVER
  1
AC1018
  9
$ACADMAINTVER
 70
     2
  9
$DWGCODEPAGE
  3
ANSI_1252
  9
$INSBASE
 10
0.0
 20
0.0
 30
0.0
  9
$EXTMIN
 10
-0.0271749795954293
 20
-0.0384292640749209
 30
-0.000000000000013
  9
$EXTMAX
 10
594.0271991839242
 20
840.038463492419
 30
0.0000000000000023
  9
$LIMMIN
 10
0.0
 20
0.0
  9
$LIMMAX
 10
594.0
 20
840.0000000000002
  9
$ORTHOMODE
 70
     1
  9
$REGENMODE
 70
     1
  9
$FILLMODE
 70
     1
  9
$QTEXTMODE
 70
     0
  9
$MIRRTEXT
 70
     1
  9
$LTSCALE
 40
20.0
  9
$ATTMODE
 70
     1
  9
$TEXTSIZE
 40
3.5
  9
$TRACEWID
 40
1.0
  9
$TEXTSTYLE
  7
STANDARD
  9
$CLAYER
  8
VOLL
  9
$CELTYPE
  6
ByLayer
  9
$CECOLOR
 62
   256
  9
$CELTSCALE
 40
1.0
  9
$DISPSILH
 70
     0
  9
$DIMSCALE
 40
2.0
  9
$DIMASZ
 40
3.5
  9
$DIMEXO
 40
1.0
  9
$DIMDLI
 40
7.0
  9
$DIMRND
 40
0.0
  9
$DIMDLE
 40
0.0
  9
$DIMEXE
 40
1.0
  9
$DIMTP
 40
1.0
  9
$DIMTM
 40
1.0
  9
$DIMTXT
 40
3.5
  9
$DIMCEN
 40
1.5
  9
$DIMTSZ
 40
0.0
  9
$DIMTOL
 70
     0
  9
$DIMLIM
 70
     0
  9
$DIMTIH
 70
     0
  9
$DIMTOH
 70
     0
  9
$DIMSE1
 70
     0
  9
$DIMSE2
 70
     0
  9
$DIMTAD
 70
     1
  9
$DIMZIN
 70
     8
  9
$DIMBLK
  1

  9
$DIMASO
 70
     1
  9
$DIMSHO
 70
     0
  9
$DIMPOST
  1

  9
$DIMAPOST
  1

  9
$DIMALT
 70
     0
  9
$DIMALTD
 70
     2
  9
$DIMALTF
 40
25.4
  9
$DIMLFAC
 40
1.0
  9
$DIMTOFL
 70
     1
  9
$DIMTVP
 40
0.2857142857142857
  9
$DIMTIX
 70
     0
  9
$DIMSOXD
 70
     0
  9
$DIMSAH
 70
     0
  9
$DIMBLK1
  1

  9
$DIMBLK2
  1

  9
$DIMSTYLE
  2
Standard
  9
$DIMCLRD
 70
     0
  9
$DIMCLRE
 70
     0
  9
$DIMCLRT
 70
     1
  9
$DIMTFAC
 40
0.5142857142857139
  9
$DIMGAP
 40
1.5
  9
$DIMJUST
 70
     0
  9
$DIMSD1
 70
     0
  9
$DIMSD2
 70
     0
  9
$DIMTOLJ
 70
     1
  9
$DIMTZIN
 70
     8
  9
$DIMALTZ
 70
     8
  9
$DIMALTTZ
 70
     8
  9
$DIMUPT
 70
     0
  9
$DIMDEC
 70
     2
  9
$DIMTDEC
 70
     2
  9
$DIMALTU
 70
     2
  9
$DIMALTTD
 70
     2
  9
$DIMTXSTY
  7
STANDARD
  9
$DIMAUNIT
 70
     0
  9
$DIMADEC
 70
     2
  9
$DIMALTRND
 40
0.0
  9
$DIMAZIN
 70
     2
  9
$DIMDSEP
 70
    46
  9
$DIMATFIT
 70
     3
  9
$DIMFRAC
 70
     0
  9
$DIMLDRBLK
  1

  9
$DIMLUNIT
 70
     2
  9
$DIMLWD
 70
    -2
  9
$DIMLWE
 70
    -2
  9
$DIMTMOVE
 70
     0
  9
$LUNITS
 70
     2
  9
$LUPREC
 70
     2
  9
$SKETCHINC
 40
1.0
  9
$FILLETRAD
 40
14.0
  9
$AUNITS
 70
     0
  9
$AUPREC
 70
     0
  9
$MENU
  1
ACAD
  9
$ELEVATION
 40
0.0
  9
$PELEVATION
 40
0.0
  9
$THICKNESS
 40
0.0
  9
$LIMCHECK
 70
     0
  9
$CHAMFERA
 40
0.0
  9
$CHAMFERB
 40
0.0
  9
$CHAMFERC
 40
0.0
  9
$CHAMFERD
 40
0.0
  9
$SKPOLY
 70
     0
  9
$TDCREATE
 40
2452535.583407176
  9
$TDUCREATE
 40
2452535.500073843
  9
$TDUPDATE
 40
2455461.557459468
  9
$TDUUPDATE
 40
2455461.474126134
  9
$TDINDWG
 40
0.1327297222
  9
$TDUSRTIMER
 40
0.1327297222
  9
$USRTIMER
 70
     1
  9
$ANGBASE
 50
0.0
  9
$ANGDIR
 70
     0
  9
$PDMODE
 70
     0
  9
$PDSIZE
 40
0.0
  9
$PLINEWID
 40
0.0
  9
$SPLFRAME
 70
     0
  9
$SPLINETYPE
 70
     6
  9
$SPLINESEGS
 70
     8
  9
$HANDSEED
  5
AF6
  9
$SURFTAB1
 70
     6
  9
$SURFTAB2
 70
     6
  9
$SURFTYPE
 70
     6
  9
$SURFU
 70
     6
  9
$SURFV
 70
     6
  9
$UCSBASE
  2

  9
$UCSNAME
  2

  9
$UCSORG
 10
0.0
 20
0.0
 30
0.0
  9
$UCSXDIR
 10
1.0
 20
0.0
 30
0.0
  9
$UCSYDIR
 10
0.0
 20
1.0
 30
0.0
  9
$UCSORTHOREF
  2

  9
$UCSORTHOVIEW
 70
     0
  9
$UCSORGTOP
 10
0.0
 20
0.0
 30
0.0
  9
$UCSORGBOTTOM
 10
0.0
 20
0.0
 30
0.0
  9
$UCSORGLEFT
 10
0.0
 20
0.0
 30
0.0
  9
$UCSORGRIGHT
 10
0.0
 20
0.0
 30
0.0
  9
$UCSORGFRONT
 10
0.0
 20
0.0
 30
0.0
  9
$UCSORGBACK
 10
0.0
 20
0.0
 30
0.0
  9
$PUCSBASE
  2

  9
$PUCSNAME
  2

  9
$PUCSORG
 10
0.0
 20
0.0
 30
0.0
  9
$PUCSXDIR
 10
1.0
 20
0.0
 30
0.0
  9
$PUCSYDIR
 10
0.0
 20
1.0
 30
0.0
  9
$PUCSORTHOREF
  2

  9
$PUCSORTHOVIEW
 70
     0
  9
$PUCSORGTOP
 10
0.0
 20
0.0
 30
0.0
  9
$PUCSORGBOTTOM
 10
0.0
 20
0.0
 30
0.0
  9
$PUCSORGLEFT
 10
0.0
 20
0.0
 30
0.0
  9
$PUCSORGRIGHT
 10
0.0
 20
0.0
 30
0.0
  9
$PUCSORGFRONT
 10
0.0
 20
0.0
 30
0.0
  9
$PUCSORGBACK
 10
0.0
 20
0.0
 30
0.0
  9
$USERI1
 70
     0
  9
$USERI2
 70
     0
  9
$USERI3
 70
     0
  9
$USERI4
 70
     0
  9
$USERI5
 70
     0
  9
$USERR1
 40
0.0
  9
$USERR2
 40
0.0
  9
$USERR3
 40
0.0
  9
$USERR4
 40
0.0
  9
$USERR5
 40
0.0
  9
$WORLDVIEW
 70
     1
  9
$SHADEDGE
 70
     3
  9
$SHADEDIF
 70
    70
  9
$TILEMODE
 70
     1
  9
$MAXACTVP
 70
    16
  9
$PINSBASE
 10
233.5853132872718
 20
50.00000000000001
 30
505.6436260759157
  9
$PLIMCHECK
 70
     0
  9
$PEXTMIN
 10
1.000000000000000E+20
 20
1.000000000000000E+20
 30
1.000000000000000E+20
  9
$PEXTMAX
 10
-1.000000000000000E+20
 20
-1.000000000000000E+20
 30
-1.000000000000000E+20
  9
$PLIMMIN
 10
0.0
 20
0.0
  9
$PLIMMAX
 10
12.0
 20
9.0
  9
$UNITMODE
 70
     0
  9
$VISRETAIN
 70
     0
  9
$PLINEGEN
 70
     0
  9
$PSLTSCALE
 70
     0
  9
$TREEDEPTH
 70
  3020
  9
$CMLSTYLE
  2
Standard
  9
$CMLJUST
 70
     0
  9
$CMLSCALE
 40
1.0
  9
$PROXYGRAPHICS
 70
     1
  9
$MEASUREMENT
 70
     0
  9
$CELWEIGHT
370
    -1
  9
$ENDCAPS
280
     0
  9
$JOINSTYLE
280
     0
  9
$LWDISPLAY
290
     0
  9
$INSUNITS
 70
     0
  9
$HYPERLINKBASE
  1

  9
$STYLESHEET
  1
monochrome 1.ctb
  9
$XEDIT
290
     1
  9
$CEPSNTYPE
380
     0
  9
$PSTYLEMODE
290
     1
  9
$FINGERPRINTGUID
  2
{9042A169-4AB0-4E73-A91D-502918473A00}
  9
$VERSIONGUID
  2
{84316B93-712B-4871-A361-DAC111574D6B}
  9
$EXTNAMES
290
     1
  9
$PSVPSCALE
 40
0.0
  9
$OLESTARTUP
290
     0
  9
$SORTENTS
280
   127
  9
$INDEXCTL
280
     0
  9
$HIDETEXT
280
     1
  9
$XCLIPFRAME
290
     0
  9
$HALOGAP
280
     0
  9
$OBSCOLOR
 70
   257
  9
$OBSLTYPE
280
     0
  9
$INTERSECTIONDISPLAY
280
     0
  9
$INTERSECTIONCOLOR
 70
   257
  9
$DIMASSOC
280
     2
  9
$PROJECTNAME
  1

  0
ENDSEC
  0
SECTION
  2
CLASSES
  0
CLASS
  1
ACDBDICTIONARYWDFLT
  2
AcDbDictionaryWithDefault
  3
ObjectDBX Classes
 90
        0
 91
        1
280
     0
281
     0
  0
CLASS
  1
DIMASSOC
  2
AcDbDimAssoc
  3
"AcDbDimAssoc|Product Desc:     AcDim ARX App For Dimension|Company:          Autodesk, Inc.|WEB Address:      www.autodesk.com"
 90
        0
 91
        0
280
     0
281
     0
  0
CLASS
  1
DICTIONARYVAR
  2
AcDbDictionaryVar
  3
ObjectDBX Classes
 90
        0
 91
        3
280
     0
281
     0
  0
ENDSEC
  0
SECTION
  2
TABLES
  0
TABLE
  2
VPORT
  5
8
330
0
100
AcDbSymbolTable
 70
     2
  0
VPORT
  5
AF5
330
8
100
AcDbSymbolTableRecord
100
AcDbViewportTableRecord
  2
*Active
 70
     0
 10
0.0
 20
0.0
 11
1.0
 21
1.0
 12
297.0000121021644
 22
420.000017114172
 13
0.0
 23
0.0
 14
2.5
 24
2.5
 15
10.0
 25
10.0
 16
0.0
 26
0.0
 36
1.0
 17
0.0
 27
0.0
 37
0.0
 40
846.8608245957119
 41
1.336927223719676
 42
50.0
 43
0.0
 44
0.0
 50
0.0
 51
0.0
 71
     0
 72
   500
 73
     1
 74
     0
 75
     0
 76
     0
 77
     0
 78
     0
281
     0
 65
     1
110
0.0
120
0.0
130
0.0
111
1.0
121
0.0
131
0.0
112
0.0
122
1.0
132
0.0
 79
     0
146
0.0
  0
ENDTAB
  0
TABLE
  2
LTYPE
  5
5
330
0
100
AcDbSymbolTable
 70
     3
  0
LTYPE
  5
13
330
5
100
AcDbSymbolTableRecord
100
AcDbLinetypeTableRecord
  2
ByBlock
 70
     0
  3

 72
    65
 73
     0
 40
0.0
  0
LTYPE
  5
14
330
5
100
AcDbSymbolTableRecord
100
AcDbLinetypeTableRecord
  2
ByLayer
 70
     0
  3

 72
    65
 73
     0
 40
0.0
  0
LTYPE
  5
15
330
5
100
AcDbSymbolTableRecord
100
AcDbLinetypeTableRecord
  2
Continuous
 70
     0
  3
Solid line
 72
    65
 73
     0
 40
0.0
  0
LTYPE
  5
43
330
5
100
AcDbSymbolTableRecord
100
AcDbLinetypeTableRecord
  2
STRICHPUNKT
 70
     0
  3
__ . __ . __ . __ . __ . __ . __ . __ . __ . __
 72
    65
 73
     4
 40
1.0
 49
0.5
 74
     0
 49
-0.25
 74
     0
 49
0.0
 74
     0
 49
-0.25
 74
     0
  0
LTYPE
  5
44
330
5
100
AcDbSymbolTableRecord
100
AcDbLinetypeTableRecord
  2
VERDECKT
 70
     0
  3
_ _ _ _ _ _ _ _ _ _ _ _ _ _ _ _ _ _ _ _ _ _ _
 72
    65
 73
     2
 40
0.375
 49
0.25
 74
     0
 49
-0.125
 74
     0
  0
ENDTAB
  0
TABLE
  2
LAYER
  5
2
330
0
100
AcDbSymbolTable
 70
    10
  0
LAYER
  5
10
330
2
100
AcDbSymbolTableRecord
100
AcDbLayerTableRecord
  2
0
 70
     0
 62
     7
  6
Continuous
370
    -3
390
F
  0
LAYER
  5
47
330
2
100
AcDbSymbolTableRecord
100
AcDbLayerTableRecord
  2
VOLL
 70
     0
 62
     1
  6
Continuous
370
    -3
390
F
  0
LAYER
  5
48
330
2
100
AcDbSymbolTableRecord
100
AcDbLayerTableRecord
  2
MITTEL
 70
     0
 62
     2
  6
STRICHPUNKT
370
    -3
390
F
  0
LAYER
  5
49
330
2
100
AcDbSymbolTableRecord
100
AcDbLayerTableRecord
  2
BEM
 70
     0
 62
     7
  6
Continuous
370
    -3
390
F
  0
LAYER
  5
4A
330
2
100
AcDbSymbolTableRecord
100
AcDbLayerTableRecord
  2
HILF
 70
     0
 62
     2
  6
Continuous
370
    -3
390
F
  0
LAYER
  5
4B
330
2
100
AcDbSymbolTableRecord
100
AcDbLayerTableRecord
  2
SCHRAFF
 70
     0
 62
     7
  6
Continuous
370
    -3
390
F
  0
LAYER
  5
4C
330
2
100
AcDbSymbolTableRecord
100
AcDbLayerTableRecord
  2
STEMPEL
 70
     0
 62
     3
  6
Continuous
370
    -3
390
F
  0
LAYER
  5
4D
330
2
100
AcDbSymbolTableRecord
100
AcDbLayerTableRecord
  2
VERDECKT
 70
     0
 62
     6
  6
VERDECKT
370
    -3
390
F
  0
LAYER
  5
4E
330
2
100
AcDbSymbolTableRecord
100
AcDbLayerTableRecord
  2
DEFPOINTS
 70
     0
 62
     7
  6
Continuous
290
     0
370
    -3
390
F
  0
LAYER
  5
5C4
330
2
100
AcDbSymbolTableRecord
100
AcDbLayerTableRecord
  2
TEXT
 70
     0
 62
     7
  6
Continuous
370
    -3
390
F
  0
ENDTAB
  0
TABLE
  2
STYLE
  5
3
330
0
100
AcDbSymbolTable
 70
     2
  0
STYLE
  5
11
330
3
100
AcDbSymbolTableRecord
100
AcDbTextStyleTableRecord
  2
STANDARD
 70
     0
 40
0.0
 41
0.8
 50
0.0
 71
     0
 42
3.5
  3
simplex.shx
  4

  0
STYLE
  5
42
330
3
100
AcDbSymbolTableRecord
100
AcDbTextStyleTableRecord
  2
GREEKS
 70
     0
 40
0.0
 41
0.8
 50
0.0
 71
     0
 42
1.8
  3
SIMPLEX.shx
  4

  0
ENDTAB
  0
TABLE
  2
VIEW
  5
6
330
0
100
AcDbSymbolTable
 70
     0
  0
ENDTAB
  0
TABLE
  2
UCS
  5
7
330
0
100
AcDbSymbolTable
 70
     0
  0
ENDTAB
  0
TABLE
  2
APPID
  5
9
330
0
100
AcDbSymbolTable
 70
     1
  0
APPID
  5
12
330
9
100
AcDbSymbolTableRecord
100
AcDbRegAppTableRecord
  2
ACAD
 70
     0
  0
ENDTAB
  0
TABLE
  2
DIMSTYLE
  5
A
330
0
100
AcDbSymbolTable
 70
     1
100
AcDbDimStyleTable
 71
     1
340
48B
  0
DIMSTYLE
105
48B
102
{ACAD_REACTORS
330
3A3
330
3C5
330
395
330
3C2
330
435
102
}
330
A
100
AcDbSymbolTableRecord
100
AcDbDimStyleTableRecord
  2
Standard
 70
     0
340
11
  0
ENDTAB
  0
TABLE
  2
BLOCK_RECORD
  5
1
330
0
100
AcDbSymbolTable
 70
    10
  0
BLOCK_RECORD
  5
20
330
1
100
AcDbSymbolTableRecord
100
AcDbBlockTableRecord
  2
*Model_Space
340
23
  0
BLOCK_RECORD
  5
1C
330
1
100
AcDbSymbolTableRecord
100
AcDbBlockTableRecord
  2
*Paper_Space
340
1F
  0
BLOCK_RECORD
  5
24
330
1
100
AcDbSymbolTableRecord
100
AcDbBlockTableRecord
  2
LOGO
340
0
102
{BLKREFS
331
45B
102
}
  0
BLOCK_RECORD
  5
25
330
1
100
AcDbSymbolTableRecord
100
AcDbBlockTableRecord
  2
*X1
340
0
102
{BLKREFS
331
3BB
331
AE2
102
}
  0
BLOCK_RECORD
  5
29
330
1
100
AcDbSymbolTableRecord
100
AcDbBlockTableRecord
  2
*D2
340
0
  0
BLOCK_RECORD
  5
38
330
1
100
AcDbSymbolTableRecord
100
AcDbBlockTableRecord
  2
*X3
340
0
102
{BLKREFS
331
3C3
102
}
  0
BLOCK_RECORD
  5
39
330
1
100
AcDbSymbolTableRecord
100
AcDbBlockTableRecord
  2
*X4
340
0
102
{BLKREFS
331
40E
102
}
  0
BLOCK_RECORD
  5
548
330
1
100
AcDbSymbolTableRecord
100
AcDbBlockTableRecord
  2
*D5
340
0
  0
BLOCK_RECORD
  5
936
330
1
100
AcDbSymbolTableRecord
100
AcDbBlockTableRecord
  2
*D6
340
0
  0
BLOCK_RECORD
  5
A0D
330
1
100
AcDbSymbolTableRecord
100
AcDbBlockTableRecord
  2
*D7
340
0
  0
BLOCK_RECORD
  5
A7A
330
1
100
AcDbSymbolTableRecord
100
AcDbBlockTableRecord
  2
*D8
340
0
  0
BLOCK_RECORD
  5
AAA
330
1
100
AcDbSymbolTableRecord
100
AcDbBlockTableRecord
  2
*D9
340
0
  0
ENDTAB
  0
ENDSEC
  0
SECTION
  2
BLOCKS
  0
BLOCK
  5
52
330
20
100
AcDbEntity
  8
0
100
AcDbBlockBegin
  2
*Model_Space
 70
     0
 10
0.0
 20
0.0
 30
0.0
  3
*Model_Space
  1

  0
ENDBLK
  5
53
330
20
100
AcDbEntity
  8
0
100
AcDbBlockEnd
  0
BLOCK
  5
50
330
1C
100
AcDbEntity
 67
     1
  8
0
100
AcDbBlockBegin
  2
*Paper_Space
 70
     0
 10
0.0
 20
0.0
 30
0.0
  3
*Paper_Space
  1

  0
ENDBLK
  5
51
330
1C
100
AcDbEntity
 67
     1
  8
0
100
AcDbBlockEnd
  0
BLOCK
  5
54
330
24
100
AcDbEntity
  8
0
100
AcDbBlockBegin
  2
LOGO
 70
     0
 10
0.0
 20
0.0
 30
0.0
  3
LOGO
  1

  0
ARC
  5
55
330
24
100
AcDbEntity
  8
0
100
AcDbCircle
 10
11.59973089678112
 20
-9.271599258481501
 30
0.0
 40
4.5
100
AcDbArc
 50
270.0
 51
231.0575587310159
  0
LINE
  5
56
330
24
100
AcDbEntity
  8
0
100
AcDbLine
 10
3.599730896781125
 20
-4.771599258481529
 30
0.0
 11
3.599730896781153
 21
-11.77159925848133
 31
0.0
  0
LINE
  5
57
330
24
100
AcDbEntity
  8
0
100
AcDbLine
 10
2.599730896781125
 20
-4.771599258481529
 30
0.0
 11
2.599730896781153
 21
-11.77159925848133
 31
0.0
  0
CIRCLE
  5
58
330
24
100
AcDbEntity
  8
0
100
AcDbCircle
 10
11.59973089678112
 20
-9.271599258481501
 30
0.0
 40
3.5
  0
ARC
  5
59
330
24
100
AcDbEntity
  8
0
100
AcDbCircle
 10
31.59973089678115
 20
-9.271599258481472
 30
0.0
 40
4.5
100
AcDbArc
 50
270.0
 51
231.0575587310182
  0
LINE
  5
5A
330
24
100
AcDbEntity
  8
0
100
AcDbLine
 10
17.59973089678112
 20
-4.771599258481472
 30
0.0
 11
17.59973089678115
 21
-13.77159925848147
 31
0.0
  0
ARC
  5
5B
330
24
100
AcDbEntity
  8
0
100
AcDbCircle
 10
22.59973089678116
 20
-7.271599258481472
 30
0.0
 40
2.5
100
AcDbArc
 50
293.1161887722295
 51
90.0
  0
CIRCLE
  5
5C
330
24
100
AcDbEntity
  8
0
100
AcDbCircle
 10
31.59973089678115
 20
-9.271599258481472
 30
0.0
 40
3.5
  0
ARC
  5
5D
330
24
100
AcDbEntity
  8
0
100
AcDbCircle
 10
4.599730896781153
 20
-11.77159925848133
 30
0.0
 40
1.0
100
AcDbArc
 50
180.0
 51
270.0
  0
ARC
  5
5E
330
24
100
AcDbEntity
  8
0
100
AcDbCircle
 10
4.599730896781153
 20
-11.77159925848133
 30
0.0
 40
2.0
100
AcDbArc
 50
179.9999999999992
 51
270.0
  0
LINE
  5
5F
330
24
100
AcDbEntity
  8
0
100
AcDbLine
 10
11.59973089678115
 20
-13.77159925848144
 30
0.0
 11
4.599730896781153
 21
-13.77159925848147
 31
0.0
  0
LINE
  5
60
330
24
100
AcDbEntity
  8
0
100
AcDbLine
 10
8.771303772034769
 20
-12.77159925848136
 30
0.0
 11
4.599730896781153
 21
-12.77159925848133
 31
0.0
  0
LINE
  5
61
330
24
100
AcDbEntity
  8
0
100
AcDbLine
 10
31.59973089678115
 20
-13.77159925848147
 30
0.0
 11
23.6715276665056
 21
-13.77159925848144
 31
0.0
  0
LINE
  5
62
330
24
100
AcDbEntity
  8
0
100
AcDbLine
 10
23.56565672307022
 20
-9.51278021337896
 30
0.0
 11
24.4388546544846
 21
-12.77159925848144
 31
0.0
  0
LINE
  5
63
330
24
100
AcDbEntity
  8
0
100
AcDbLine
 10
22.59973089678116
 20
-9.771599258481472
 30
0.0
 11
18.59973089678112
 21
-9.771599258481472
 31
0.0
  0
LINE
  5
64
330
24
100
AcDbEntity
  8
0
100
AcDbLine
 10
18.59973089678115
 20
-13.77159925848144
 30
0.0
 11
17.59973089678115
 21
-13.77159925848144
 31
0.0
  0
LINE
  5
65
330
24
100
AcDbEntity
  8
0
100
AcDbLine
 10
18.59973089678115
 20
-9.771599258481472
 30
0.0
 11
18.59973089678115
 21
-13.77159925848144
 31
0.0
  0
LINE
  5
66
330
24
100
AcDbEntity
  8
0
100
AcDbLine
 10
22.59973089678116
 20
-9.771599258481472
 30
0.0
 11
23.67152766650562
 21
-13.77159925848147
 31
0.0
  0
ARC
  5
67
330
24
100
AcDbEntity
  8
0
100
AcDbCircle
 10
22.59973089678116
 20
-7.271599258481472
 30
0.0
 40
2.5
100
AcDbArc
 50
270.0
 51
270.0000000000007
  0
LINE
  5
68
330
24
100
AcDbEntity
  8
0
100
AcDbLine
 10
28.77130377203494
 20
-12.77159925848147
 30
0.0
 11
24.43885465448463
 21
-12.77159925848144
 31
0.0
  0
LINE
  5
69
330
24
100
AcDbEntity
  8
0
100
AcDbLine
 10
3.599730896781125
 20
-4.771599258481472
 30
0.0
 11
2.599730896781125
 21
-4.771599258481472
 31
0.0
  0
LINE
  5
6A
330
24
100
AcDbEntity
  8
0
100
AcDbLine
 10
22.59973089678116
 20
-8.771599258481472
 30
0.0
 11
18.59973089678115
 21
-8.771599258481472
 31
0.0
  0
LINE
  5
6B
330
24
100
AcDbEntity
  8
0
100
AcDbLine
 10
22.59973089678116
 20
-5.771599258481472
 30
0.0
 11
18.59973089678115
 21
-5.771599258481472
 31
0.0
  0
LINE
  5
6C
330
24
100
AcDbEntity
  8
0
100
AcDbLine
 10
22.59973089678116
 20
-4.771599258481472
 30
0.0
 11
17.59973089678115
 21
-4.771599258481472
 31
0.0
  0
LINE
  5
6D
330
24
100
AcDbEntity
  8
0
100
AcDbLine
 10
18.59973089678115
 20
-5.771599258481472
 30
0.0
 11
18.59973089678115
 21
-8.771599258481472
 31
0.0
  0
ARC
  5
6E
330
24
100
AcDbEntity
  8
0
100
AcDbCircle
 10
22.59973089678116
 20
-7.271599258481472
 30
0.0
 40
1.5
100
AcDbArc
 50
270.0
 51
90.0
  0
ENDBLK
  5
6F
330
24
100
AcDbEntity
  8
0
100
AcDbBlockEnd
  0
BLOCK
  5
70
330
25
100
AcDbEntity
  8
0
100
AcDbBlockBegin
  2
*X1
 70
     1
 10
0.0
 20
0.0
 30
0.0
  3
*X1
  1

  0
LINE
  5
71
330
25
100
AcDbEntity
  8
0
 62
     0
100
AcDbLine
 10
204.709826086458
 20
97.0
 30
0.0
 11
207.0030190911871
 21
97.0
 31
0.0
  0
LINE
  5
72
330
25
100
AcDbEntity
  8
0
 62
     0
100
AcDbLine
 10
204.6989117346353
 20
97.1
 30
0.0
 11
207.0607541181061
 21
97.1
 31
0.0
  0
LINE
  5
73
330
25
100
AcDbEntity
  8
0
 62
     0
100
AcDbLine
 10
204.6907698973204
 20
97.2
 30
0.0
 11
207.1184891450251
 21
97.2
 31
0.0
  0
LINE
  5
74
330
25
100
AcDbEntity
  8
0
 62
     0
100
AcDbLine
 10
204.6853820403213
 20
97.30000000000002
 30
0.0
 11
207.176224171944
 21
97.30000000000002
 31
0.0
  0
LINE
  5
75
330
25
100
AcDbEntity
  8
0
 62
     0
100
AcDbLine
 10
204.6827359894634
 20
97.40000000000001
 30
0.0
 11
207.233959198863
 21
97.40000000000001
 31
0.0
  0
LINE
  5
76
330
25
100
AcDbEntity
  8
0
 62
     0
100
AcDbLine
 10
204.6828257921307
 20
97.5
 30
0.0
 11
207.2916942257819
 21
97.5
 31
0.0
  0
LINE
  5
77
330
25
100
AcDbEntity
  8
0
 62
     0
100
AcDbLine
 10
204.6856516500625
 20
97.60000000000001
 30
0.0
 11
207.3494292527009
 21
97.60000000000001
 31
0.0
  0
LINE
  5
78
330
25
100
AcDbEntity
  8
0
 62
     0
100
AcDbLine
 10
204.6912199216255
 20
97.70000000000001
 30
0.0
 11
207.4071642796198
 21
97.70000000000001
 31
0.0
  0
LINE
  5
79
330
25
100
AcDbEntity
  8
0
 62
     0
100
AcDbLine
 10
204.6995431936219
 20
97.80000000000001
 30
0.0
 11
207.4648993065388
 21
97.80000000000001
 31
0.0
  0
LINE
  5
7A
330
25
100
AcDbEntity
  8
0
 62
     0
100
AcDbLine
 10
204.710640424535
 20
97.9
 30
0.0
 11
207.5226343334578
 21
97.9
 31
0.0
  0
LINE
  5
7B
330
25
100
AcDbEntity
  8
0
 62
     0
100
AcDbLine
 10
204.7245371630502
 20
98.0
 30
0.0
 11
207.5803693603767
 21
98.0
 31
0.0
  0
LINE
  5
7C
330
25
100
AcDbEntity
  8
0
 62
     0
100
AcDbLine
 10
204.7412658478056
 20
98.10000000000002
 30
0.0
 11
207.4614705731017
 21
98.10000000000002
 31
0.0
  0
LINE
  5
7D
330
25
100
AcDbEntity
  8
0
 62
     0
100
AcDbLine
 10
204.7608661967487
 20
98.2
 30
0.0
 11
207.2729380953282
 21
98.2
 31
0.0
  0
LINE
  5
7E
330
25
100
AcDbEntity
  8
0
 62
     0
100
AcDbLine
 10
204.783385697319
 20
98.30000000000001
 30
0.0
 11
207.0823971705138
 21
98.30000000000001
 31
0.0
  0
LINE
  5
7F
330
25
100
AcDbEntity
  8
0
 62
     0
100
AcDbLine
 10
204.8088802121247
 20
98.40000000000001
 30
0.0
 11
206.8897967343217
 21
98.40000000000001
 31
0.0
  0
LINE
  5
80
330
25
100
AcDbEntity
  8
0
 62
     0
100
AcDbLine
 10
204.8374147190488
 20
98.50000000000001
 30
0.0
 11
206.6950833957492
 21
98.50000000000001
 31
0.0
  0
LINE
  5
81
330
25
100
AcDbEntity
  8
0
 62
     0
100
AcDbLine
 10
204.8690642100999
 20
98.60000000000001
 30
0.0
 11
206.4982012852559
 21
98.60000000000001
 31
0.0
  0
LINE
  5
82
330
25
100
AcDbEntity
  8
0
 62
     0
100
AcDbLine
 10
204.9039147802257
 20
98.7
 30
0.0
 11
206.2990918898734
 21
98.7
 31
0.0
  0
LINE
  5
83
330
25
100
AcDbEntity
  8
0
 62
     0
100
AcDbLine
 10
204.942064946282
 20
98.80000000000002
 30
0.0
 11
206.0976938739077
 21
98.80000000000002
 31
0.0
  0
LINE
  5
84
330
25
100
AcDbEntity
  8
0
 62
     0
100
AcDbLine
 10
204.9836272481987
 20
98.9
 30
0.0
 11
205.8939428836598
 21
98.9
 31
0.0
  0
LINE
  5
85
330
25
100
AcDbEntity
  8
0
 62
     0
100
AcDbLine
 10
205.0287302002199
 20
99.0
 30
0.0
 11
205.68777133439
 21
99.0
 31
0.0
  0
LINE
  5
86
330
25
100
AcDbEntity
  8
0
 62
     0
100
AcDbLine
 10
205.077520681577
 20
99.10000000000001
 30
0.0
 11
205.479108177507
 21
99.10000000000001
 31
0.0
  0
LINE
  5
87
330
25
100
AcDbEntity
  8
0
 62
     0
100
AcDbLine
 10
205.1301668854935
 20
99.20000000000001
 30
0.0
 11
205.2678786456914
 21
99.20000000000001
 31
0.0
  0
LINE
  5
88
330
25
100
AcDbEntity
  8
0
 62
     0
100
AcDbLine
 10
204.7235380604166
 20
96.90000000000001
 30
0.0
 11
206.9452840642682
 21
96.90000000000001
 31
0.0
  0
LINE
  5
89
330
25
100
AcDbEntity
  8
0
 62
     0
100
AcDbLine
 10
204.7400796317634
 20
96.80000000000001
 30
0.0
 11
206.8875490373492
 21
96.80000000000001
 31
0.0
  0
LINE
  5
8A
330
25
100
AcDbEntity
  8
0
 62
     0
100
AcDbLine
 10
204.7594900265363
 20
96.70000000000001
 30
0.0
 11
206.8298140104302
 21
96.70000000000001
 31
0.0
  0
LINE
  5
8B
330
25
100
AcDbEntity
  8
0
 62
     0
100
AcDbLine
 10
204.7818162047112
 20
96.60000000000001
 30
0.0
 11
206.7720789835113
 21
96.60000000000001
 31
0.0
  0
LINE
  5
8C
330
25
100
AcDbEntity
  8
0
 62
     0
100
AcDbLine
 10
204.8071134577654
 20
96.5
 30
0.0
 11
206.7143439565923
 21
96.5
 31
0.0
  0
LINE
  5
8D
330
25
100
AcDbEntity
  8
0
 62
     0
100
AcDbLine
 10
204.835446139275
 20
96.4
 30
0.0
 11
206.6566089296733
 21
96.4
 31
0.0
  0
LINE
  5
8E
330
25
100
AcDbEntity
  8
0
 62
     0
100
AcDbLine
 10
204.8668885524674
 20
96.30000000000002
 30
0.0
 11
206.5988739027544
 21
96.30000000000002
 31
0.0
  0
LINE
  5
8F
330
25
100
AcDbEntity
  8
0
 62
     0
100
AcDbLine
 10
204.9015260254381
 20
96.2
 30
0.0
 11
206.5411388758354
 21
96.2
 31
0.0
  0
LINE
  5
90
330
25
100
AcDbEntity
  8
0
 62
     0
100
AcDbLine
 10
204.9394562135557
 20
96.10000000000001
 30
0.0
 11
206.4834038489165
 21
96.10000000000001
 31
0.0
  0
LINE
  5
91
330
25
100
AcDbEntity
  8
0
 62
     0
100
AcDbLine
 10
204.9807906802111
 20
96.0
 30
0.0
 11
206.4256688219975
 21
96.0
 31
0.0
  0
LINE
  5
92
330
25
100
AcDbEntity
  8
0
 62
     0
100
AcDbLine
 10
205.0256568225972
 20
95.90000000000001
 30
0.0
 11
206.3679337950785
 21
95.90000000000001
 31
0.0
  0
LINE
  5
93
330
25
100
AcDbEntity
  8
0
 62
     0
100
AcDbLine
 10
205.0742002302502
 20
95.80000000000001
 30
0.0
 11
206.3101987681596
 21
95.80000000000001
 31
0.0
  0
LINE
  5
94
330
25
100
AcDbEntity
  8
0
 62
     0
100
AcDbLine
 10
205.1265875930007
 20
95.7
 30
0.0
 11
206.2524637412406
 21
95.7
 31
0.0
  0
LINE
  5
95
330
25
100
AcDbEntity
  8
0
 62
     0
100
AcDbLine
 10
205.1830103153298
 20
95.6
 30
0.0
 11
206.1947287143217
 21
95.6
 31
0.0
  0
LINE
  5
96
330
25
100
AcDbEntity
  8
0
 62
     0
100
AcDbLine
 10
205.2436890513481
 20
95.5
 30
0.0
 11
206.1369936874027
 21
95.5
 31
0.0
  0
LINE
  5
97
330
25
100
AcDbEntity
  8
0
 62
     0
100
AcDbLine
 10
205.3088794572211
 20
95.4
 30
0.0
 11
206.0792586604837
 21
95.4
 31
0.0
  0
LINE
  5
98
330
25
100
AcDbEntity
  8
0
 62
     0
100
AcDbLine
 10
205.3788795794919
 20
95.30000000000001
 30
0.0
 11
206.0215236335647
 21
95.30000000000001
 31
0.0
  0
LINE
  5
99
330
25
100
AcDbEntity
  8
0
 62
     0
100
AcDbLine
 10
205.4540394807317
 20
95.20000000000001
 30
0.0
 11
205.9637886066458
 21
95.20000000000001
 31
0.0
  0
LINE
  5
9A
330
25
100
AcDbEntity
  8
0
 62
     0
100
AcDbLine
 10
205.5347739860171
 20
95.10000000000001
 30
0.0
 11
205.9060535797268
 21
95.10000000000001
 31
0.0
  0
LINE
  5
9B
330
25
100
AcDbEntity
  8
0
 62
     0
100
AcDbLine
 10
205.6215798805635
 20
95.0
 30
0.0
 11
205.8483185528079
 21
95.0
 31
0.0
  0
LINE
  5
9C
330
25
100
AcDbEntity
  8
0
 62
     0
100
AcDbLine
 10
205.7150596190264
 20
94.9
 30
0.0
 11
205.7905835258889
 21
94.9
 31
0.0
  0
ENDBLK
  5
9D
330
25
100
AcDbEntity
  8
0
100
AcDbBlockEnd
  0
BLOCK
  5
C6
330
29
100
AcDbEntity
  8
0
100
AcDbBlockBegin
  2
*D2
 70
     1
 10
0.0
 20
0.0
 30
0.0
  3
*D2
  1

  0
LINE
  5
C7
330
29
100
AcDbEntity
  8
0
  6
ByBlock
 62
     0
100
AcDbLine
 10
156.3450799573985
 20
604.1048025047317
 30
0.0
 11
147.2138904804666
 21
604.1048025047317
 31
0.0
  0
LINE
  5
C8
330
29
100
AcDbEntity
  8
0
  6
ByBlock
 62
     0
100
AcDbLine
 10
164.5521580200708
 20
609.1048025047316
 30
0.0
 11
147.2138904804666
 21
609.1048025047316
 31
0.0
  0
LINE
  5
C9
330
29
100
AcDbEntity
  8
0
  6
ByBlock
 62
     0
100
AcDbLine
 10
148.2138904804666
 20
597.1048025047317
 30
0.0
 11
148.2138904804666
 21
590.1048025047317
 31
0.0
  0
LINE
  5
CA
330
29
100
AcDbEntity
  8
0
  6
ByBlock
 62
     0
100
AcDbLine
 10
148.2138904804666
 20
616.1048025047316
 30
0.0
 11
148.2138904804666
 21
623.1048025047316
 31
0.0
  0
LINE
  5
CB
330
29
100
AcDbEntity
  8
0
  6
ByBlock
 62
     0
100
AcDbLine
 10
148.2138904804666
 20
623.1048025047316
 30
0.0
 11
148.2138904804666
 21
626.928135838065
 31
0.0
  0
SOLID
  5
CC
330
29
100
AcDbEntity
  8
0
  6
ByBlock
 62
     0
100
AcDbTrace
 10
147.0472238138
 20
597.1048025047317
 30
0.0
 11
149.3805571471333
 21
597.1048025047317
 31
0.0
 12
148.2138904804666
 22
604.1048025047317
 32
0.0
 13
148.2138904804666
 23
604.1048025047317
 33
0.0
  0
SOLID
  5
CD
330
29
100
AcDbEntity
  8
0
  6
ByBlock
 62
     0
100
AcDbTrace
 10
147.0472238138
 20
616.1048025047316
 30
0.0
 11
149.3805571471333
 21
616.1048025047316
 31
0.0
 12
148.2138904804666
 22
609.1048025047316
 32
0.0
 13
148.2138904804666
 23
609.1048025047316
 33
0.0
  0
LINE
  5
CE
330
29
100
AcDbEntity
  8
0
  6
ByBlock
 62
     0
100
AcDbLine
 10
148.2138904804666
 20
604.1048025047317
 30
0.0
 11
148.2138904804666
 21
609.1048025047316
 31
0.0
  0
TEXT
  5
CF
330
29
100
AcDbEntity
  8
0
  6
ByBlock
 62
     1
100
AcDbText
 10
144.7138904804666
 20
623.1948025047317
 30
0.0
 40
7.0
  1
5
 50
90.0
 41
0.8
  7
GREEKS
 72
     1
 11
141.2138904804666
 21
625.0614691713983
 31
0.0
100
AcDbText
 73
     2
  0
POINT
  5
D0
330
29
100
AcDbEntity
  8
DEFPOINTS
  6
ByBlock
 62
     0
100
AcDbPoint
 10
157.3450799573985
 20
604.1048025047317
 30
0.0
  0
POINT
  5
D1
330
29
100
AcDbEntity
  8
DEFPOINTS
  6
ByBlock
 62
     0
100
AcDbPoint
 10
165.5521580200708
 20
609.1048025047316
 30
0.0
  0
POINT
  5
D2
330
29
100
AcDbEntity
  8
DEFPOINTS
  6
ByBlock
 62
     0
100
AcDbPoint
 10
148.2138904804666
 20
609.1048025047316
 30
0.0
  0
ENDBLK
  5
D3
330
29
100
AcDbEntity
  8
0
100
AcDbBlockEnd
  0
BLOCK
  5
28C
330
38
100
AcDbEntity
  8
0
100
AcDbBlockBegin
  2
*X3
 70
     1
 10
0.0
 20
0.0
 30
0.0
  3
*X3
  1

  0
LINE
  5
28D
330
38
100
AcDbEntity
  8
0
 62
     0
100
AcDbLine
 10
172.2634367685803
 20
619.6961581603528
 30
0.0
 11
170.0685896389508
 21
621.8910052899823
 31
0.0
  0
LINE
  5
28E
330
38
100
AcDbEntity
  8
0
 62
     0
100
AcDbLine
 10
169.1707256868632
 20
619.9604421173238
 30
0.0
 11
166.9758785572336
 21
622.1552892469532
 31
0.0
  0
LINE
  5
28F
330
38
100
AcDbEntity
  8
0
 62
     0
100
AcDbLine
 10
166.0796259014986
 20
620.223114777942
 30
0.0
 11
164.1596470274498
 21
622.1430936519908
 31
0.0
  0
LINE
  5
290
330
38
100
AcDbEntity
  8
0
 62
     0
100
AcDbLine
 10
163.5011688986608
 20
619.9731446560337
 30
0.0
 11
161.9176550402674
 21
621.5566585144271
 31
0.0
  0
LINE
  5
291
330
38
100
AcDbEntity
  8
0
 62
     0
100
AcDbLine
 10
161.4781033536004
 20
619.1677830763479
 30
0.0
 11
159.973128714989
 21
620.6727577149593
 31
0.0
  0
LINE
  5
292
330
38
100
AcDbEntity
  8
0
 62
     0
100
AcDbLine
 10
159.549158149628
 20
618.2683011555742
 30
0.0
 11
158.0441835110165
 21
619.7732757941857
 31
0.0
  0
LINE
  5
293
330
38
100
AcDbEntity
  8
0
 62
     0
100
AcDbLine
 10
157.6202129456556
 20
617.3688192348004
 30
0.0
 11
156.9925878925078
 21
617.9964442879481
 31
0.0
  0
LINE
  5
294
330
38
100
AcDbEntity
  8
0
 62
     0
100
AcDbLine
 10
175.3561478502974
 20
619.431874203382
 30
0.0
 11
173.1613007206679
 21
621.6267213330114
 31
0.0
  0
LINE
  5
295
330
38
100
AcDbEntity
  8
0
 62
     0
100
AcDbLine
 10
178.4488589320145
 20
619.167590246411
 30
0.0
 11
176.254011802385
 21
621.3624373760405
 31
0.0
  0
LINE
  5
296
330
38
100
AcDbEntity
  8
0
 62
     0
100
AcDbLine
 10
181.5415700137317
 20
618.90330628944
 30
0.0
 11
179.3467228841021
 21
621.0981534190696
 31
0.0
  0
LINE
  5
297
330
38
100
AcDbEntity
  8
0
 62
     0
100
AcDbLine
 10
201.0327808125528
 20
602.2405226153651
 30
0.0
 11
200.9998434339172
 21
602.2734599940006
 31
0.0
  0
LINE
  5
298
330
38
100
AcDbEntity
  8
0
 62
     0
100
AcDbLine
 10
184.6342810954488
 20
618.6390223324691
 30
0.0
 11
182.4394339658192
 21
620.8338694620987
 31
0.0
  0
LINE
  5
299
330
38
100
AcDbEntity
  8
0
 62
     0
100
AcDbLine
 10
202.9998434339172
 20
603.1018871187468
 30
0.0
 11
200.9998434339172
 21
605.1018871187468
 31
0.0
  0
LINE
  5
29A
330
38
100
AcDbEntity
  8
0
 62
     0
100
AcDbLine
 10
187.726992177166
 20
618.3747383754981
 30
0.0
 11
185.5321450475363
 21
620.5695855051277
 31
0.0
  0
LINE
  5
29B
330
38
100
AcDbEntity
  8
0
 62
     0
100
AcDbLine
 10
202.9998434339172
 20
605.930314243493
 30
0.0
 11
200.9998434339172
 21
607.930314243493
 31
0.0
  0
LINE
  5
29C
330
38
100
AcDbEntity
  8
0
 62
     0
100
AcDbLine
 10
190.8197032588831
 20
618.1104544185272
 30
0.0
 11
188.6248561292534
 21
620.3053015481568
 31
0.0
  0
LINE
  5
29D
330
38
100
AcDbEntity
  8
0
 62
     0
100
AcDbLine
 10
202.9998434339172
 20
608.7587413682392
 30
0.0
 11
200.9998434339172
 21
610.7587413682392
 31
0.0
  0
LINE
  5
29E
330
38
100
AcDbEntity
  8
0
 62
     0
100
AcDbLine
 10
193.9124143406002
 20
617.8461704615561
 30
0.0
 11
191.7175672109705
 21
620.0410175911859
 31
0.0
  0
LINE
  5
29F
330
38
100
AcDbEntity
  8
0
 62
     0
100
AcDbLine
 10
202.9998434339172
 20
611.5871684929855
 30
0.0
 11
200.5313719274705
 21
614.0556399994322
 31
0.0
  0
LINE
  5
2A0
330
38
100
AcDbEntity
  8
0
 62
     0
100
AcDbLine
 10
197.3241051500383
 20
617.2629067768643
 30
0.0
 11
194.8102782926876
 21
619.776733634215
 31
0.0
  0
LINE
  5
2A1
330
38
100
AcDbEntity
  8
0
 62
     0
100
AcDbLine
 10
202.2025635564614
 20
615.2128754951874
 30
0.0
 11
198.4813406457935
 21
618.9340984058553
 31
0.0
  0
ENDBLK
  5
2A2
330
38
100
AcDbEntity
  8
0
100
AcDbBlockEnd
  0
BLOCK
  5
2A3
330
39
100
AcDbEntity
  8
0
100
AcDbBlockBegin
  2
*X4
 70
     1
 10
0.0
 20
0.0
 30
0.0
  3
*X4
  1

  0
LINE
  5
2A4
330
39
100
AcDbEntity
  8
0
 62
     0
100
AcDbLine
 10
320.889096426195
 20
640.7761259875096
 30
0.0
 11
319.03983389093
 21
642.6253885227746
 31
0.0
  0
LINE
  5
2A5
330
39
100
AcDbEntity
  8
0
 62
     0
100
AcDbLine
 10
318.2833410373069
 20
640.5534542516514
 30
0.0
 11
316.4340785020419
 21
642.4027167869164
 31
0.0
  0
LINE
  5
2A6
330
39
100
AcDbEntity
  8
0
 62
     0
100
AcDbLine
 10
315.6775856484189
 20
640.3307825157932
 30
0.0
 11
313.8283231131538
 21
642.1800450510582
 31
0.0
  0
LINE
  5
2A7
330
39
100
AcDbEntity
  8
0
 62
     0
100
AcDbLine
 10
313.0718302595308
 20
640.1081107799353
 30
0.0
 11
311.2856586848121
 21
641.8942823546538
 31
0.0
  0
LINE
  5
2A8
330
39
100
AcDbEntity
  8
0
 62
     0
100
AcDbLine
 10
310.7210198389577
 20
639.6304940757621
 30
0.0
 11
309.220450897586
 21
641.1310630171337
 31
0.0
  0
LINE
  5
2A9
330
39
100
AcDbEntity
  8
0
 62
     0
100
AcDbLine
 10
308.9845683603818
 20
638.5385184295918
 30
0.0
 11
307.5689060147527
 21
639.9541807752209
 31
0.0
  0
LINE
  5
2AA
330
39
100
AcDbEntity
  8
0
 62
     0
100
AcDbLine
 10
307.7356438193033
 20
636.959015845924
 30
0.0
 11
306.2775025786172
 21
638.4171570866101
 31
0.0
  0
LINE
  5
2AB
330
39
100
AcDbEntity
  8
0
 62
     0
100
AcDbLine
 10
307.0457056913001
 20
634.8205268491811
 30
0.0
 11
305.3726010090194
 21
636.4936315314618
 31
0.0
  0
LINE
  5
2AC
330
39
100
AcDbEntity
  8
0
 62
     0
100
AcDbLine
 10
306.9998434339173
 20
632.0379619818177
 30
0.0
 11
304.9998434339172
 21
634.0379619818178
 31
0.0
  0
LINE
  5
2AD
330
39
100
AcDbEntity
  8
0
 62
     0
100
AcDbLine
 10
306.9998434339173
 20
629.2095348570715
 30
0.0
 11
304.9998434339172
 21
631.2095348570716
 31
0.0
  0
LINE
  5
2AE
330
39
100
AcDbEntity
  8
0
 62
     0
100
AcDbLine
 10
306.9998434339173
 20
626.3811077323253
 30
0.0
 11
304.9998434339173
 21
628.3811077323254
 31
0.0
  0
LINE
  5
2AF
330
39
100
AcDbEntity
  8
0
 62
     0
100
AcDbLine
 10
305.9632876932648
 20
624.5892363482316
 30
0.0
 11
304.9998434339173
 21
625.5526806075792
 31
0.0
  0
LINE
  5
2B0
330
39
100
AcDbEntity
  8
0
 62
     0
100
AcDbLine
 10
323.494851815083
 20
640.9987977233678
 30
0.0
 11
321.645589279818
 21
642.8480602586327
 31
0.0
  0
LINE
  5
2B1
330
39
100
AcDbEntity
  8
0
 62
     0
100
AcDbLine
 10
326.100607203971
 20
641.2214694592259
 30
0.0
 11
324.251344668706
 21
643.0707319944908
 31
0.0
  0
LINE
  5
2B2
330
39
100
AcDbEntity
  8
0
 62
     0
100
AcDbLine
 10
328.7063625928591
 20
641.444141195084
 30
0.0
 11
326.8571000575941
 21
643.293403730349
 31
0.0
  0
LINE
  5
2B3
330
39
100
AcDbEntity
  8
0
 62
     0
100
AcDbLine
 10
331.3121179817471
 20
641.6668129309422
 30
0.0
 11
329.4628554464822
 21
643.5160754662071
 31
0.0
  0
LINE
  5
2B4
330
39
100
AcDbEntity
  8
0
 62
     0
100
AcDbLine
 10
333.9178733706352
 20
641.8894846668004
 30
0.0
 11
332.0686108353702
 21
643.7387472020652
 31
0.0
  0
LINE
  5
2B5
330
39
100
AcDbEntity
  8
0
 62
     0
100
AcDbLine
 10
336.5236287595233
 20
642.1121564026585
 30
0.0
 11
334.6743662242583
 21
643.9614189379234
 31
0.0
  0
LINE
  5
2B6
330
39
100
AcDbEntity
  8
0
 62
     0
100
AcDbLine
 10
339.1293841484113
 20
642.3348281385166
 30
0.0
 11
337.2801216131463
 21
644.1840906737815
 31
0.0
  0
LINE
  5
2B7
330
39
100
AcDbEntity
  8
0
 62
     0
100
AcDbLine
 10
341.7351395372993
 20
642.5574998743748
 30
0.0
 11
339.8858770020344
 21
644.4067624096397
 31
0.0
  0
LINE
  5
2B8
330
39
100
AcDbEntity
  8
0
 62
     0
100
AcDbLine
 10
344.9251685277741
 20
642.1958980086461
 30
0.0
 11
342.5321885579355
 21
644.5888779784848
 31
0.0
  0
LINE
  5
2B9
330
39
100
AcDbEntity
  8
0
 62
     0
100
AcDbLine
 10
350.1030726754053
 20
639.8464209857611
 30
0.0
 11
346.0202563320402
 21
643.9292373291262
 31
0.0
  0
LINE
  5
2BA
330
39
100
AcDbEntity
  8
0
 62
     0
100
AcDbLine
 10
351.4604812784384
 20
641.3174395074743
 30
0.0
 11
351.267922230248
 21
641.5099985556646
 31
0.0
  0
ENDBLK
  5
2BB
330
39
100
AcDbEntity
  8
0
100
AcDbBlockEnd
  0
BLOCK
  5
552
330
548
100
AcDbEntity
  8
0
100
AcDbBlockBegin
  2
*D5
 70
     1
 10
0.0
 20
0.0
 30
0.0
  3
*D5
  1

  0
LINE
  5
AA1
330
548
100
AcDbEntity
  8
BEM
 62
     0
370
    -2
100
AcDbLine
 10
224.4668288151755
 20
433.3251048412138
 30
0.0
 11
313.1566878515372
 21
433.3251048412138
 31
0.0
  0
LINE
  5
AA2
330
548
100
AcDbEntity
  8
BEM
 62
     0
370
    -2
100
AcDbLine
 10
249.5735197035419
 20
695.3251048412137
 30
0.0
 11
313.1566878515373
 21
695.3251048412136
 31
0.0
  0
LINE
  5
AA3
330
548
100
AcDbEntity
  8
BEM
 62
     0
370
    -2
100
AcDbLine
 10
311.1566878515372
 20
440.3251048412139
 30
0.0
 11
311.1566878515373
 21
688.3251048412136
 31
0.0
  0
SOLID
  5
AA4
330
548
100
AcDbEntity
  8
BEM
 62
     0
100
AcDbTrace
 10
309.9900211848706
 20
440.3251048412139
 30
0.0
 11
312.3233545182039
 21
440.3251048412139
 31
0.0
 12
311.1566878515372
 22
433.3251048412138
 32
0.0
 13
311.1566878515372
 23
433.3251048412138
 33
0.0
  0
SOLID
  5
AA5
330
548
100
AcDbEntity
  8
BEM
 62
     0
100
AcDbTrace
 10
309.9900211848706
 20
688.3251048412136
 30
0.0
 11
312.323354518204
 21
688.3251048412136
 31
0.0
 12
311.1566878515373
 22
695.3251048412136
 32
0.0
 13
311.1566878515373
 23
695.3251048412136
 33
0.0
  0
MTEXT
  5
AA6
330
548
100
AcDbEntity
  8
BEM
 62
     1
100
AcDbMText
 10
304.6566878515372
 20
564.3251048412138
 30
0.0
 40
7.0
 41
0.0
 71
     5
 72
     1
  1
\A1;262
 11
0.0000000000000001
 21
1.0
 31
0.0
 73
     1
 44
1.0
  0
POINT
  5
AA7
330
548
100
AcDbEntity
  8
DEFPOINTS
 62
     0
100
AcDbPoint
 10
222.4668288151755
 20
433.3251048412138
 30
0.0
  0
POINT
  5
AA8
330
548
100
AcDbEntity
  8
DEFPOINTS
 62
     0
100
AcDbPoint
 10
247.5735197035419
 20
695.3251048412137
 30
0.0
  0
POINT
  5
AA9
330
548
100
AcDbEntity
  8
DEFPOINTS
 62
     0
100
AcDbPoint
 10
311.1566878515373
 20
695.3251048412136
 30
0.0
  0
ENDBLK
  5
553
330
548
100
AcDbEntity
  8
0
100
AcDbBlockEnd
  0
BLOCK
  5
940
330
936
100
AcDbEntity
  8
0
100
AcDbBlockBegin
  2
*D6
 70
     1
 10
0.0
 20
0.0
 30
0.0
  3
*D6
  1

  0
LINE
  5
937
330
936
100
AcDbEntity
  8
BEM
 62
     0
370
    -2
100
AcDbLine
 10
170.0735197035419
 20
438.2596134268514
 30
0.0
 11
170.0735197035419
 21
410.6888288398284
 31
0.0
  0
LINE
  5
938
330
936
100
AcDbEntity
  8
BEM
 62
     0
370
    -2
100
AcDbLine
 10
223.0735197035418
 20
438.2596134268514
 30
0.0
 11
223.0735197035418
 21
410.6888288398284
 31
0.0
  0
LINE
  5
939
330
936
100
AcDbEntity
  8
BEM
 62
     0
370
    -2
100
AcDbLine
 10
177.0735197035419
 20
412.6888288398284
 30
0.0
 11
216.0735197035418
 21
412.6888288398284
 31
0.0
  0
SOLID
  5
93A
330
936
100
AcDbEntity
  8
BEM
 62
     0
100
AcDbTrace
 10
177.0735197035419
 20
413.8554955064951
 30
0.0
 11
177.0735197035419
 21
411.5221621731617
 31
0.0
 12
170.0735197035419
 22
412.6888288398284
 32
0.0
 13
170.0735197035419
 23
412.6888288398284
 33
0.0
  0
SOLID
  5
93B
330
936
100
AcDbEntity
  8
BEM
 62
     0
100
AcDbTrace
 10
216.0735197035418
 20
413.8554955064951
 30
0.0
 11
216.0735197035418
 21
411.5221621731617
 31
0.0
 12
223.0735197035418
 22
412.6888288398284
 32
0.0
 13
223.0735197035418
 23
412.6888288398284
 33
0.0
  0
MTEXT
  5
93C
330
936
100
AcDbEntity
  8
BEM
 62
     1
100
AcDbMText
 10
196.5735197035419
 20
419.1888288398284
 30
0.0
 40
7.0
 41
0.0
 71
     5
 72
     1
  1
\A1;%%c53
 73
     1
 44
1.0
  0
POINT
  5
93D
330
936
100
AcDbEntity
  8
DEFPOINTS
 62
     0
100
AcDbPoint
 10
170.0735197035419
 20
440.2596134268514
 30
0.0
  0
POINT
  5
93E
330
936
100
AcDbEntity
  8
DEFPOINTS
 62
     0
100
AcDbPoint
 10
223.0735197035418
 20
440.2596134268514
 30
0.0
  0
POINT
  5
93F
330
936
100
AcDbEntity
  8
DEFPOINTS
 62
     0
100
AcDbPoint
 10
223.0735197035418
 20
412.6888288398284
 30
0.0
  0
ENDBLK
  5
941
330
936
100
AcDbEntity
  8
0
100
AcDbBlockEnd
  0
BLOCK
  5
A17
330
A0D
100
AcDbEntity
  8
0
100
AcDbBlockBegin
  2
*D7
 70
     1
 10
0.0
 20
0.0
 30
0.0
  3
*D7
  1

  0
LINE
  5
ACA
330
A0D
100
AcDbEntity
  8
BEM
 62
     0
370
    -2
100
AcDbLine
 10
143.5735197035419
 20
695.3251048412137
 30
0.0
 11
67.23537893926968
 21
695.3251048412137
 31
0.0
  0
LINE
  5
ACB
330
A0D
100
AcDbEntity
  8
BEM
 62
     0
370
    -2
100
AcDbLine
 10
97.91875622702319
 20
670.3251048412139
 30
0.0
 11
67.23537893926966
 21
670.3251048412139
 31
0.0
  0
LINE
  5
ACC
330
A0D
100
AcDbEntity
  8
BEM
 62
     0
370
    -2
100
AcDbLine
 10
69.23537893926968
 20
688.3251048412136
 30
0.0
 11
69.23537893926968
 21
677.3251048412139
 31
0.0
  0
SOLID
  5
ACD
330
A0D
100
AcDbEntity
  8
BEM
 62
     0
100
AcDbTrace
 10
68.06871227260301
 20
688.3251048412136
 30
0.0
 11
70.40204560593635
 21
688.3251048412136
 31
0.0
 12
69.23537893926968
 22
695.3251048412137
 32
0.0
 13
69.23537893926968
 23
695.3251048412137
 33
0.0
  0
SOLID
  5
ACE
330
A0D
100
AcDbEntity
  8
BEM
 62
     0
100
AcDbTrace
 10
68.06871227260301
 20
677.3251048412139
 30
0.0
 11
70.40204560593635
 21
677.3251048412139
 31
0.0
 12
69.23537893926966
 22
670.3251048412139
 32
0.0
 13
69.23537893926966
 23
670.3251048412139
 33
0.0
  0
MTEXT
  5
ACF
330
A0D
100
AcDbEntity
  8
BEM
 62
     1
100
AcDbMText
 10
62.73537893926956
 20
682.8251048412138
 30
0.0
 40
7.0
 41
0.0
 71
     5
 72
     1
  1
\A1;25
 11
0.0000000000000001
 21
1.0
 31
0.0
 73
     1
 44
1.0
  0
POINT
  5
AD0
330
A0D
100
AcDbEntity
  8
DEFPOINTS
 62
     0
100
AcDbPoint
 10
145.5735197035419
 20
695.3251048412137
 30
0.0
  0
POINT
  5
AD1
330
A0D
100
AcDbEntity
  8
DEFPOINTS
 62
     0
100
AcDbPoint
 10
99.91875622702318
 20
670.3251048412139
 30
0.0
  0
POINT
  5
AD2
330
A0D
100
AcDbEntity
  8
DEFPOINTS
 62
     0
100
AcDbPoint
 10
69.23537893926966
 20
670.3251048412139
 30
0.0
  0
ENDBLK
  5
A18
330
A0D
100
AcDbEntity
  8
0
100
AcDbBlockEnd
  0
BLOCK
  5
A84
330
A7A
100
AcDbEntity
  8
0
100
AcDbBlockBegin
  2
*D8
 70
     1
 10
0.0
 20
0.0
 30
0.0
  3
*D8
  1

  0
LINE
  5
AB6
330
A7A
100
AcDbEntity
  8
BEM
 62
     0
370
    -2
100
AcDbLine
 10
99.07351970354191
 20
674.1377204152873
 30
0.0
 11
99.07351970354191
 21
721.2163137687103
 31
0.0
  0
LINE
  5
AB7
330
A7A
100
AcDbEntity
  8
BEM
 62
     0
370
    -2
100
AcDbLine
 10
294.0735197035419
 20
674.137720415287
 30
0.0
 11
294.0735197035419
 21
721.2163137687103
 31
0.0
  0
LINE
  5
AB8
330
A7A
100
AcDbEntity
  8
BEM
 62
     0
370
    -2
100
AcDbLine
 10
106.0735197035419
 20
719.2163137687104
 30
0.0
 11
287.0735197035419
 21
719.2163137687104
 31
0.0
  0
SOLID
  5
AB9
330
A7A
100
AcDbEntity
  8
BEM
 62
     0
100
AcDbTrace
 10
106.0735197035419
 20
720.382980435377
 30
0.0
 11
106.0735197035419
 21
718.0496471020437
 31
0.0
 12
99.07351970354191
 22
719.2163137687104
 32
0.0
 13
99.07351970354191
 23
719.2163137687104
 33
0.0
  0
SOLID
  5
ABA
330
A7A
100
AcDbEntity
  8
BEM
 62
     0
100
AcDbTrace
 10
287.0735197035419
 20
720.382980435377
 30
0.0
 11
287.0735197035419
 21
718.0496471020437
 31
0.0
 12
294.0735197035419
 22
719.2163137687104
 32
0.0
 13
294.0735197035419
 23
719.2163137687104
 33
0.0
  0
MTEXT
  5
ABB
330
A7A
100
AcDbEntity
  8
BEM
 62
     1
100
AcDbMText
 10
196.5735197035419
 20
725.7163137687103
 30
0.0
 40
7.0
 41
0.0
 71
     5
 72
     1
  1
\A1;%%C195
 73
     1
 44
1.0
  0
POINT
  5
ABC
330
A7A
100
AcDbEntity
  8
DEFPOINTS
 62
     0
100
AcDbPoint
 10
99.07351970354191
 20
672.1377204152872
 30
0.0
  0
POINT
  5
ABD
330
A7A
100
AcDbEntity
  8
DEFPOINTS
 62
     0
100
AcDbPoint
 10
294.0735197035419
 20
672.137720415287
 30
0.0
  0
POINT
  5
ABE
330
A7A
100
AcDbEntity
  8
DEFPOINTS
 62
     0
100
AcDbPoint
 10
294.0735197035419
 20
719.2163137687104
 30
0.0
  0
ENDBLK
  5
A85
330
A7A
100
AcDbEntity
  8
0
100
AcDbBlockEnd
  0
BLOCK
  5
AB4
330
AAA
100
AcDbEntity
  8
0
100
AcDbBlockBegin
  2
*D9
 70
     1
 10
0.0
 20
0.0
 30
0.0
  3
*D9
  1

  0
LINE
  5
AAB
330
AAA
100
AcDbEntity
  8
BEM
 62
     0
370
    -2
100
AcDbLine
 10
145.5735197035419
 20
697.3251048412137
 30
0.0
 11
145.5735197035419
 21
707.1334830957491
 31
0.0
  0
LINE
  5
AAC
330
AAA
100
AcDbEntity
  8
BEM
 62
     0
370
    -2
100
AcDbLine
 10
247.5735197035419
 20
697.3251048412137
 30
0.0
 11
247.5735197035419
 21
707.1334830957491
 31
0.0
  0
LINE
  5
AAD
330
AAA
100
AcDbEntity
  8
BEM
 62
     0
370
    -2
100
AcDbLine
 10
152.5735197035419
 20
705.1334830957491
 30
0.0
 11
240.5735197035419
 21
705.1334830957491
 31
0.0
  0
SOLID
  5
AAE
330
AAA
100
AcDbEntity
  8
BEM
 62
     0
100
AcDbTrace
 10
152.5735197035419
 20
706.3001497624157
 30
0.0
 11
152.5735197035419
 21
703.9668164290825
 31
0.0
 12
145.5735197035419
 22
705.1334830957491
 32
0.0
 13
145.5735197035419
 23
705.1334830957491
 33
0.0
  0
SOLID
  5
AAF
330
AAA
100
AcDbEntity
  8
BEM
 62
     0
100
AcDbTrace
 10
240.5735197035419
 20
706.3001497624157
 30
0.0
 11
240.5735197035419
 21
703.9668164290825
 31
0.0
 12
247.5735197035419
 22
705.1334830957491
 32
0.0
 13
247.5735197035419
 23
705.1334830957491
 33
0.0
  0
MTEXT
  5
AB0
330
AAA
100
AcDbEntity
  8
BEM
 62
     1
100
AcDbMText
 10
196.5735197035419
 20
711.6334830957491
 30
0.0
 40
7.0
 41
0.0
 71
     5
 72
     1
  1
\A1;%%C102
 73
     1
 44
1.0
  0
POINT
  5
AB1
330
AAA
100
AcDbEntity
  8
DEFPOINTS
 62
     0
100
AcDbPoint
 10
145.5735197035419
 20
695.3251048412137
 30
0.0
  0
POINT
  5
AB2
330
AAA
100
AcDbEntity
  8
DEFPOINTS
 62
     0
100
AcDbPoint
 10
247.5735197035419
 20
695.3251048412137
 30
0.0
  0
POINT
  5
AB3
330
AAA
100
AcDbEntity
  8
DEFPOINTS
 62
     0
100
AcDbPoint
 10
247.5735197035419
 20
705.1334830957491
 30
0.0
  0
ENDBLK
  5
AB5
330
AAA
100
AcDbEntity
  8
0
100
AcDbBlockEnd
  0
ENDSEC
  0
SECTION
  2
ENTITIES
  0
DIMENSION
  5
395
330
20
100
AcDbEntity
  8
BEM
100
AcDbDimension
  2
*D5
 10
311.1566878515373
 20
695.3251048412136
 30
0.0
 11
304.6566878515372
 21
564.3251048412138
 31
0.0
 70
    32
 71
     5
 42
261.9999999999998
  3
Standard
100
AcDbAlignedDimension
 13
222.4668288151755
 23
433.3251048412138
 33
0.0
 14
247.5735197035419
 24
695.3251048412137
 34
0.0
 50
90.0
100
AcDbRotatedDimension
1001
ACAD
1000
DSTYLE
1002
{
1070
    40
1040
2.0
1070
    41
1040
3.5
1070
    42
1040
1.0
1070
    43
1040
7.0
1070
    44
1040
1.0
1070
    47
1040
1.0
1070
    48
1040
1.0
1070
    73
1070
     0
1070
    74
1070
     0
1070
    77
1070
     1
1070
    78
1070
     8
1070
    79
1070
     2
1070
   140
1040
3.5
1070
   141
1040
1.5
1070
   145
1040
0.2857142857142857
1070
   146
1040
0.5142857142857139
1070
   147
1040
1.5
1070
   172
1070
     1
1070
   178
1070
     1
1070
   179
1070
     2
1070
   271
1070
     2
1070
   272
1070
     2
1070
   284
1070
     8
1070
   285
1070
     8
1070
   286
1070
     8
1002
}
  0
LINE
  5
39D
330
20
100
AcDbEntity
  8
MITTEL
100
AcDbLine
 10
94.0735197035419
 20
212.9259032999956
 30
0.0
 11
299.0735197035419
 21
212.9259032999956
 31
0.0
  0
TEXT
  5
39E
330
20
100
AcDbEntity
  8
TEXT
100
AcDbText
 10
583.4462193823216
 20
836.4132055378062
 30
0.0
 40
3.6
  1
Diese Zeichnung ist urheberrechtlich geschützt und bleibt unser Eigentum. Sie darf weder ganz noch teilweise vervielfältigt und nicht an Dritte weitegegeben werden.
 50
180.0
  7
GREEKS
100
AcDbText
  0
LINE
  5
39F
330
20
100
AcDbEntity
  8
STEMPEL
100
AcDbLine
 10
10.0
 20
40.0
 30
0.0
 11
584.0
 21
40.0
 31
0.0
  0
LINE
  5
3A0
330
20
100
AcDbEntity
  8
STEMPEL
100
AcDbLine
 10
584.0
 20
830.0
 30
0.0
 11
10.0
 21
830.0
 31
0.0
  0
LINE
  5
3A1
330
20
100
AcDbEntity
  8
HILF
100
AcDbLine
 10
0.0
 20
0.0
 30
0.0
 11
594.0
 21
0.0
 31
0.0
  0
LINE
  5
3A2
330
20
100
AcDbEntity
  8
HILF
100
AcDbLine
 10
594.0
 20
840.0000000000002
 30
0.0
 11
0.0
 21
840.0000000000002
 31
0.0
  0
DIMENSION
  5
3A3
330
20
100
AcDbEntity
  8
BEM
100
AcDbDimension
  2
*D6
 10
223.0735197035418
 20
412.6888288398284
 30
0.0
 11
196.5735197035419
 21
419.1888288398284
 31
0.0
 70
    32
  1
%%c<>
 71
     5
 42
52.99999999999994
  3
Standard
100
AcDbAlignedDimension
 13
170.0735197035419
 23
440.2596134268514
 33
0.0
 14
223.0735197035418
 24
440.2596134268514
 34
0.0
100
AcDbRotatedDimension
1001
ACAD
1000
DSTYLE
1002
{
1070
    40
1040
2.0
1070
    41
1040
3.5
1070
    42
1040
1.0
1070
    43
1040
7.0
1070
    44
1040
1.0
1070
    47
1040
1.0
1070
    48
1040
1.0
1070
    73
1070
     0
1070
    74
1070
     0
1070
    77
1070
     1
1070
    78
1070
     8
1070
    79
1070
     2
1070
   140
1040
3.5
1070
   141
1040
1.5
1070
   145
1040
0.2857142857142857
1070
   146
1040
0.5142857142857139
1070
   147
1040
1.5
1070
   172
1070
     1
1070
   178
1070
     1
1070
   179
1070
     2
1070
   271
1070
     2
1070
   272
1070
     2
1070
   284
1070
     8
1070
   285
1070
     8
1070
   286
1070
     8
1002
}
  0
LINE
  5
3A4
330
20
100
AcDbEntity
  8
STEMPEL
100
AcDbLine
 10
10.0
 20
830.0
 30
0.0
 11
10.0
 21
40.0
 31
0.0
  0
LINE
  5
3A5
330
20
100
AcDbEntity
  8
HILF
100
AcDbLine
 10
0.0
 20
840.0000000000002
 30
0.0
 11
0.0
 21
0.0
 31
0.0
  0
ARC
  5
3A9
330
20
100
AcDbEntity
  8
STEMPEL
100
AcDbCircle
 10
196.5735197035419
 20
212.9259032999956
 30
0.0
 40
31.5
100
AcDbArc
 50
62.72940263677874
 51
297.2705973632213
  0
LINE
  5
3AC
330
20
100
AcDbEntity
  8
STEMPEL
100
AcDbLine
 10
149.5735197035419
 20
226.7823097605466
 30
0.0
 11
151.573519703542
 21
212.9259032999956
 31
0.0
  0
LINE
  5
3AD
330
20
100
AcDbEntity
  8
STEMPEL
100
AcDbLine
 10
149.5735197035419
 20
199.0694968394446
 30
0.0
 11
149.5735197035419
 21
226.7823097605466
 31
0.0
  0
LINE
  5
3AE
330
20
100
AcDbEntity
  8
VERDECKT
100
AcDbLine
 10
147.5735197035419
 20
198.7837676762647
 30
0.0
 11
147.5735197035419
 21
227.0680389237266
 31
0.0
  0
LINE
  5
3AF
330
20
100
AcDbEntity
  8
MITTEL
100
AcDbLine
 10
196.5735197035419
 20
315.4259032999956
 30
0.0
 11
196.5735197035419
 21
110.4259032999956
 31
0.0
  0
LINE
  5
3B0
330
20
100
AcDbEntity
  8
STEMPEL
100
AcDbLine
 10
161.0735197035419
 20
246.7008940475888
 30
0.0
 11
185.0735197035419
 21
260.5573005081398
 31
0.0
  0
LINE
  5
3B1
330
20
100
AcDbEntity
  8
VERDECKT
100
AcDbLine
 10
159.8260709896261
 20
248.2900802735677
 30
0.0
 11
184.3209684174579
 21
262.4322158972987
 31
0.0
  0
POINT
  5
3B2
330
20
100
AcDbEntity
  8
DEFPOINTS
  6
ByBlock
 62
     0
100
AcDbPoint
 10
195.3903739318923
 20
273.2361611159644
 30
0.0
  0
ARC
  5
3B3
330
20
100
AcDbEntity
  8
STEMPEL
100
AcDbCircle
 10
196.5735197035419
 20
212.9259032999956
 30
0.0
 40
31.5
100
AcDbArc
 50
302.7294026367788
 51
57.27059736322135
  0
LINE
  5
3B4
330
20
100
AcDbEntity
  8
STEMPEL
100
AcDbLine
 10
208.3610755267123
 20
230.342548882781
 30
0.0
 11
222.3610755267122
 21
254.5912601887453
 31
0.0
  0
LINE
  5
3B5
330
20
100
AcDbEntity
  8
STEMPEL
100
AcDbLine
 10
205.7629993153589
 20
231.842548882781
 30
0.0
 11
219.7629993153589
 21
256.0912601887452
 31
0.0
  0
POINT
  5
3B6
330
20
100
AcDbEntity
  8
DEFPOINTS
  6
ByBlock
 62
     0
100
AcDbPoint
 10
205.7629993153589
 20
231.842548882781
 30
0.0
  0
LINE
  5
3B7
330
20
100
AcDbEntity
  8
STEMPEL
100
AcDbLine
 10
205.7629993153589
 20
231.842548882781
 30
0.0
 11
208.3610755267123
 21
230.342548882781
 31
0.0
  0
LINE
  5
3B8
330
20
100
AcDbEntity
  8
STEMPEL
100
AcDbLine
 10
208.7629993153589
 20
237.0387013054876
 30
0.0
 11
211.3610755267123
 21
235.5387013054876
 31
0.0
  0
LINE
  5
3B9
330
20
100
AcDbEntity
  8
STEMPEL
100
AcDbLine
 10
216.2629993153589
 20
250.0290823622542
 30
0.0
 11
218.8610755267123
 21
248.5290823622542
 31
0.0
  0
LINE
  5
3BA
330
20
100
AcDbEntity
  8
STEMPEL
100
AcDbLine
 10
219.7629993153589
 20
256.0912601887452
 30
0.0
 11
222.3610755267122
 21
254.5912601887453
 31
0.0
  0
INSERT
  5
3BB
330
20
100
AcDbEntity
  8
BEM
100
AcDbBlockReference
  2
*X1
 10
12.16659135026825
 20
158.0634805104981
 30
0.0
1001
ACAD
1000
HATCH
1002
{
1070
    16
1000
_U,I
1040
0.1
1040
0.0
1070
     0
1002
}
  0
ARC
  5
3BC
330
20
100
AcDbEntity
  8
BEM
100
AcDbCircle
 10
220.5057748551176
 20
255.5101969634232
 30
0.0
 40
3.656745938638493
100
AcDbArc
 50
150.431053911042
 51
225.2049612788834
  0
POINT
  5
3BD
330
20
100
AcDbEntity
  8
DEFPOINTS
  6
ByBlock
 62
     0
100
AcDbPoint
 10
219.7629993153589
 20
256.0912601887452
 30
0.0
  0
LINE
  5
3BE
330
20
100
AcDbEntity
  8
VERDECKT
100
AcDbLine
 10
218.7629993153589
 20
254.3592093811763
 30
0.0
 11
221.3610755267123
 21
252.8592093811763
 31
0.0
  0
LINE
  5
3BF
330
20
100
AcDbEntity
  8
STEMPEL
100
AcDbLine
 10
243.5735197035419
 20
226.7823097605466
 30
0.0
 11
241.5735197035418
 21
212.9259032999956
 31
0.0
  0
LINE
  5
3C0
330
20
100
AcDbEntity
  8
STEMPEL
100
AcDbLine
 10
243.5735197035419
 20
199.0694968394447
 30
0.0
 11
243.5735197035419
 21
226.7823097605467
 31
0.0
  0
LINE
  5
3C1
330
20
100
AcDbEntity
  8
VERDECKT
100
AcDbLine
 10
245.5735197035419
 20
198.7837676762646
 30
0.0
 11
245.5735197035419
 21
227.0680389237266
 31
0.0
  0
DIMENSION
  5
3C2
330
20
100
AcDbEntity
  8
BEM
100
AcDbDimension
  2
*D7
 10
69.23537893926966
 20
670.3251048412139
 30
0.0
 11
69.23537893926956
 21
682.8251048412138
 31
0.0
 70
   160
 71
     5
 42
24.99999999999977
  3
Standard
100
AcDbAlignedDimension
 13
145.5735197035419
 23
695.3251048412137
 33
0.0
 14
99.91875622702318
 24
670.3251048412139
 34
0.0
 50
90.0
100
AcDbRotatedDimension
1001
ACAD
1000
DSTYLE
1002
{
1070
    40
1040
2.0
1070
    41
1040
3.5
1070
    42
1040
1.0
1070
    43
1040
7.0
1070
    44
1040
1.0
1070
    47
1040
1.0
1070
    48
1040
1.0
1070
    73
1070
     0
1070
    74
1070
     0
1070
    77
1070
     1
1070
    78
1070
     8
1070
    79
1070
     2
1070
   140
1040
3.5
1070
   141
1040
1.5
1070
   145
1040
0.2857142857142857
1070
   146
1040
0.5142857142857139
1070
   147
1040
1.5
1070
   172
1070
     1
1070
   178
1070
     1
1070
   179
1070
     2
1070
   271
1070
     2
1070
   272
1070
     2
1070
   284
1070
     8
1070
   285
1070
     8
1070
   286
1070
     8
1002
}
  0
INSERT
  5
3C3
330
20
100
AcDbEntity
  8
SCHRAFF
100
AcDbBlockReference
  2
*X3
 10
-57.42632373037534
 20
53.08458222584864
 30
0.0
1001
ACAD
1000
HATCH
1002
{
1070
    16
1000
_U,I
1040
2.0
1040
2.356194490192344
1070
     0
1002
}
  0
DIMENSION
  5
3C5
330
20
100
AcDbEntity
  8
BEM
100
AcDbDimension
  2
*D8
 10
294.0735197035419
 20
719.2163137687104
 30
0.0
 11
196.5735197035419
 21
725.7163137687103
 31
0.0
 70
    32
  1
%%C<>
 71
     5
 42
195.0
  3
Standard
100
AcDbAlignedDimension
 13
99.07351970354191
 23
672.1377204152872
 33
0.0
 14
294.0735197035419
 24
672.137720415287
 34
0.0
100
AcDbRotatedDimension
1001
ACAD
1000
DSTYLE
1002
{
1070
    40
1040
2.0
1070
    41
1040
3.5
1070
    42
1040
1.0
1070
    43
1040
7.0
1070
    44
1040
1.0
1070
    47
1040
1.0
1070
    48
1040
1.0
1070
    73
1070
     0
1070
    74
1070
     0
1070
    77
1070
     1
1070
    78
1070
     8
1070
    79
1070
     2
1070
   140
1040
3.5
1070
   141
1040
1.5
1070
   145
1040
0.2857142857142857
1070
   146
1040
0.5142857142857139
1070
   147
1040
1.5
1070
   172
1070
     1
1070
   178
1070
     1
1070
   179
1070
     2
1070
   271
1070
     2
1070
   272
1070
     2
1070
   284
1070
     8
1070
   285
1070
     8
1070
   286
1070
     8
1002
}
  0
LINE
  5
3C7
330
20
100
AcDbEntity
  8
STEMPEL
100
AcDbLine
 10
138.2546677456453
 20
672.7869100978059
 30
0.0
 11
108.9952675074038
 21
675.2872374382004
 31
0.0
  0
LINE
  5
3C8
330
20
100
AcDbEntity
  8
STEMPEL
100
AcDbLine
 10
138.0843807351195
 20
670.7941727006443
 30
0.0
 11
108.8230802317272
 21
673.2946624259434
 31
0.0
  0
LINE
  5
3C9
330
20
100
AcDbEntity
  8
STEMPEL
100
AcDbLine
 10
146.3518045613411
 20
675.3251048412137
 30
0.0
 11
108.1258342896954
 21
675.3251048412137
 31
0.0
  0
LINE
  5
3CA
330
20
100
AcDbEntity
  8
STEMPEL
100
AcDbLine
 10
139.9503513611474
 20
670.3251048412137
 30
0.0
 11
99.91875622702318
 21
670.3251048412139
 31
0.0
  0
DIMENSION
  5
3CB
330
20
100
AcDbEntity
  8
BEM
100
AcDbDimension
  2
*D2
 10
90.78756675009131
 20
675.3251048412137
 30
0.0
 11
83.78756675009132
 21
691.2817715078804
 31
0.0
 12
-57.42632373037534
 22
66.22030233648217
 32
0.0
 71
     5
 42
-1.0
100
AcDbAlignedDimension
 13
99.91875622702318
 23
670.3251048412139
 33
0.0
 14
108.1258342896954
 24
675.3251048412137
 34
0.0
 50
90.0
100
AcDbRotatedDimension
  0
LINE
  5
3CC
330
20
100
AcDbEntity
  8
BEM
100
AcDbLine
 10
10.0
 20
460.0
 30
0.0
 11
0.0
 21
460.0
 31
0.0
  0
LINE
  5
3CD
330
20
100
AcDbEntity
  8
STEMPEL
100
AcDbLine
 10
99.07351970354191
 20
672.1377204152872
 30
0.0
 11
99.91875622702323
 21
670.3251048412137
 31
0.0
  0
LINE
  5
3CE
330
20
100
AcDbEntity
  8
STEMPEL
100
AcDbLine
 10
99.07351970354191
 20
672.1377204152872
 30
0.0
 11
103.8996516722884
 21
674.3881827115804
 31
0.0
  0
ARC
  5
3CF
330
20
100
AcDbEntity
  8
STEMPEL
100
AcDbCircle
 10
108.1258342896954
 20
665.3251048412137
 30
0.0
 40
8.0
100
AcDbArc
 50
84.99999999963687
 51
115.0000000000004
  0
ARC
  5
3D0
330
20
100
AcDbEntity
  8
STEMPEL
100
AcDbCircle
 10
108.1258342896954
 20
665.3251048412137
 30
0.0
 40
10.0
100
AcDbArc
 50
85.01221720216333
 51
114.9999999999996
  0
POINT
  5
3D1
330
20
100
AcDbEntity
  8
DEFPOINTS
  6
ByBlock
 62
     0
100
AcDbPoint
 10
99.91875622702318
 20
670.3251048412139
 30
0.0
  0
POINT
  5
3D2
330
20
100
AcDbEntity
  8
DEFPOINTS
  6
ByBlock
 62
     0
100
AcDbPoint
 10
99.91875622702318
 20
670.3251048412139
 30
0.0
  0
LINE
  5
3D3
330
20
100
AcDbEntity
  8
STEMPEL
100
AcDbLine
 10
99.91875622702323
 20
670.3251048412137
 30
0.0
 11
104.7448881957698
 21
672.575567137507
 31
0.0
  0
LINE
  5
3D6
330
20
100
AcDbEntity
  8
HILF
100
AcDbLine
 10
161.0735197035419
 20
680.3251048412136
 30
0.0
 11
161.073519703542
 21
687.3251048412137
 31
0.0
  0
LINE
  5
3D7
330
20
100
AcDbEntity
  8
HILF
100
AcDbLine
 10
185.0735197035419
 20
680.3251048412139
 30
0.0
 11
185.0735197035419
 21
687.3251048412137
 31
0.0
  0
LINE
  5
3D8
330
20
100
AcDbEntity
  8
STEMPEL
100
AcDbLine
 10
147.5624698956953
 20
687.3251048412137
 30
0.0
 11
149.5624698956953
 21
661.3251048412139
 31
0.0
  0
LINE
  5
3D9
330
20
100
AcDbEntity
  8
STEMPEL
100
AcDbLine
 10
149.5735197035419
 20
687.3251048412137
 30
0.0
 11
151.5735197035419
 21
661.3251048412137
 31
0.0
  0
LINE
  5
3DA
330
20
100
AcDbEntity
  8
STEMPEL
100
AcDbLine
 10
147.5624698956953
 20
687.3251048412137
 30
0.0
 11
145.5735197035419
 21
666.3251048412137
 31
0.0
  0
LINE
  5
3DB
330
20
100
AcDbEntity
  8
STEMPEL
100
AcDbLine
 10
245.5845695113885
 20
687.3251048412137
 30
0.0
 11
247.5735197035418
 21
666.3251048412137
 31
0.0
  0
LINE
  5
3DC
330
20
100
AcDbEntity
  8
STEMPEL
100
AcDbLine
 10
245.5845695113885
 20
687.3251048412137
 30
0.0
 11
243.5845695113884
 21
661.3251048412139
 31
0.0
  0
LINE
  5
3DD
330
20
100
AcDbEntity
  8
STEMPEL
100
AcDbLine
 10
243.5735197035419
 20
687.3251048412137
 30
0.0
 11
241.5735197035418
 21
661.3251048412137
 31
0.0
  0
LINE
  5
3DE
330
20
100
AcDbEntity
  8
STEMPEL
100
AcDbLine
 10
205.7629993153589
 20
675.3251048412135
 30
0.0
 11
205.7629993153589
 21
682.3251048412134
 31
0.0
  0
LINE
  5
3DF
330
20
100
AcDbEntity
  8
STEMPEL
100
AcDbLine
 10
221.3610755267123
 20
673.3251048412137
 30
0.0
 11
221.3610755267123
 21
684.3251048412139
 31
0.0
  0
LINE
  5
3E0
330
20
100
AcDbEntity
  8
STEMPEL
100
AcDbLine
 10
208.3610755267123
 20
675.3251048412135
 30
0.0
 11
208.3610755267123
 21
682.3251048412137
 31
0.0
  0
LINE
  5
3E4
330
20
100
AcDbEntity
  8
HILF
100
AcDbLine
 10
220.0677899472269
 20
440.3251048412139
 30
0.0
 11
173.0792494598569
 21
440.3251048412138
 31
0.0
  0
LINE
  5
3E7
330
20
100
AcDbEntity
  8
HILF
100
AcDbLine
 10
220.3370259012576
 20
605.3251048412136
 30
0.0
 11
172.8100135058262
 21
605.3251048412136
 31
0.0
  0
LINE
  5
3E9
102
{ACAD_REACTORS
330
6B6
102
}
330
20
100
AcDbEntity
  8
STEMPEL
100
AcDbLine
 10
230.3095876810417
 20
623.3251048412137
 30
0.0
 11
162.8374517260421
 21
623.3251048412137
 31
0.0
  0
LINE
  5
3EA
102
{ACAD_REACTORS
330
684
102
}
330
20
100
AcDbEntity
  8
STEMPEL
100
AcDbLine
 10
222.4668288151755
 20
433.3251048412138
 30
0.0
 11
170.6802105919083
 21
433.3251048412138
 31
0.0
  0
LINE
  5
3EB
330
20
100
AcDbEntity
  8
MITTEL
100
AcDbLine
 10
196.5735197035419
 20
700.3251048412137
 30
0.0
 11
196.5735197035419
 21
428.3251048412139
 31
0.0
  0
LINE
  5
3EC
102
{ACAD_REACTORS
330
684
102
}
330
20
100
AcDbEntity
  8
STEMPEL
100
AcDbLine
 10
171.5735197035419
 20
602.5258637984954
 30
0.0
 11
171.5735197035419
 21
440.3251048412139
 31
0.0
  0
LINE
  5
3ED
102
{ACAD_REACTORS
330
684
102
}
330
20
100
AcDbEntity
  8
STEMPEL
100
AcDbLine
 10
170.073519703542
 20
602.5258637984952
 30
0.0
 11
170.0735197035419
 21
440.2596134268514
 31
0.0
  0
LINE
  5
3EE
102
{ACAD_REACTORS
330
684
102
}
330
20
100
AcDbEntity
  8
STEMPEL
100
AcDbLine
 10
170.0735197035419
 20
440.2596134268514
 30
0.0
 11
170.6802105919083
 21
433.3251048412138
 31
0.0
  0
LINE
  5
3EF
102
{ACAD_REACTORS
330
684
102
}
330
20
100
AcDbEntity
  8
STEMPEL
100
AcDbLine
 10
171.5735197035419
 20
440.3251048412139
 30
0.0
 11
172.1859403482233
 21
433.3251048412138
 31
0.0
  0
LINE
  5
3F0
330
20
100
AcDbEntity
  8
STEMPEL
100
AcDbLine
 10
165.0735197035419
 20
623.3251048412137
 30
0.0
 11
149.0450660289132
 21
652.6342772748208
 31
0.0
  0
LINE
  5
3F1
102
{ACAD_REACTORS
330
6B6
330
A0C
102
}
330
20
100
AcDbEntity
  8
STEMPEL
100
AcDbLine
 10
162.8374517260421
 20
623.3251048412137
 30
0.0
 11
146.9467996978267
 21
652.3450474637306
 31
0.0
  0
ARC
  5
3F2
102
{ACAD_REACTORS
330
A0C
102
}
330
20
100
AcDbEntity
  8
SCHRAFF
100
AcDbCircle
 10
146.3740804742863
 20
655.1432616373731
 30
0.0
 40
3.15000570007632
100
AcDbArc
 50
152.7560272204944
 51
283.2078251083806
  0
LINE
  5
3F3
330
20
100
AcDbEntity
  8
STEMPEL
100
AcDbLine
 10
147.5735197035419
 20
661.3251048412137
 30
0.0
 11
145.5735197035419
 21
661.3251048412137
 31
0.0
  0
ARC
  5
3F4
330
20
100
AcDbEntity
  8
STEMPEL
100
AcDbCircle
 10
137.5735197035419
 20
664.8159605091596
 30
0.0
 40
8.0
100
AcDbArc
 50
360.0
 51
85.11572296896739
  0
LINE
  5
3F6
102
{ACAD_REACTORS
330
A0C
102
}
330
20
100
AcDbEntity
  8
STEMPEL
100
AcDbLine
 10
145.5735197035419
 20
666.3251048412137
 30
0.0
 11
145.5735197035418
 21
655.3251048412136
 31
0.0
  0
ARC
  5
3F7
330
20
100
AcDbEntity
  8
STEMPEL
100
AcDbCircle
 10
137.5735197035419
 20
664.8159605091596
 30
0.0
 40
6.0
100
AcDbArc
 50
0.0
 51
85.11572296896723
  0
LINE
  5
3F8
102
{ACAD_REACTORS
330
A0C
102
}
330
20
100
AcDbEntity
  8
STEMPEL
100
AcDbLine
 10
145.9135783266464
 20
655.3251048412136
 30
0.0
 11
143.5735197035419
 21
655.3251048412136
 31
0.0
  0
LINE
  5
3F9
102
{ACAD_REACTORS
330
A0C
102
}
330
20
100
AcDbEntity
  8
STEMPEL
100
AcDbLine
 10
143.5735197035419
 20
664.8159605091596
 30
0.0
 11
143.5735197035419
 21
655.3251048412136
 31
0.0
  0
LINE
  5
3FA
330
20
100
AcDbEntity
  8
STEMPEL
100
AcDbLine
 10
147.5735197035419
 20
666.3251048412139
 30
0.0
 11
147.5735197035419
 21
658.3920253781331
 31
0.0
  0
LINE
  5
3FB
330
20
100
AcDbEntity
  8
STEMPEL
100
AcDbLine
 10
149.5624698956953
 20
661.3251048412137
 30
0.0
 11
147.5735197035419
 21
666.3251048412137
 31
0.0
  0
LINE
  5
3FC
330
20
100
AcDbEntity
  8
STEMPEL
100
AcDbLine
 10
151.5735197035419
 20
661.3251048412137
 30
0.0
 11
149.5624698956953
 21
661.3251048412137
 31
0.0
  0
LINE
  5
3FF
102
{ACAD_REACTORS
330
684
330
6B6
102
}
330
20
100
AcDbEntity
  8
STEMPEL
100
AcDbLine
 10
163.697186265577
 20
622.7286936847622
 30
0.0
 11
169.0841872072611
 21
607.2971530501067
 31
0.0
  0
LINE
  5
400
102
{ACAD_REACTORS
330
684
102
}
330
20
100
AcDbEntity
  8
STEMPEL
100
AcDbLine
 10
165.0735197035419
 20
623.3251048412137
 30
0.0
 11
170.4605206452259
 21
607.8935642065585
 31
0.0
  0
ARC
  5
401
102
{ACAD_REACTORS
330
684
102
}
330
20
100
AcDbEntity
  8
STEMPEL
100
AcDbCircle
 10
158.073519703542
 20
602.5258637984952
 30
0.0
 40
12.0
100
AcDbArc
 50
360.0
 51
23.42869280874525
  0
POINT
  5
402
330
20
100
AcDbEntity
  8
DEFPOINTS
  6
ByBlock
 62
     0
100
AcDbPoint
 10
169.7424635111348
 20
605.3251048412136
 30
0.0
  0
ARC
  5
403
102
{ACAD_REACTORS
330
684
102
}
330
20
100
AcDbEntity
  8
STEMPEL
100
AcDbCircle
 10
158.0735197035419
 20
602.5258637984954
 30
0.0
 40
13.5
100
AcDbArc
 50
0.0
 51
23.42869280874525
  0
LINE
  5
404
330
20
100
AcDbEntity
  8
HILF
100
AcDbLine
 10
185.0735197035419
 20
664.3251048412139
 30
0.0
 11
174.7109767157241
 21
659.6756206950288
 31
0.0
  0
POINT
  5
405
330
20
100
AcDbEntity
  8
DEFPOINTS
  6
ByBlock
 62
     0
100
AcDbPoint
 10
162.8716255303041
 20
623.3251048412137
 30
0.0
  0
LINE
  5
406
102
{ACAD_REACTORS
330
684
330
6B6
102
}
330
20
100
AcDbEntity
  8
STEMPEL
100
AcDbLine
 10
165.073519703542
 20
623.3251048412138
 30
0.0
 11
163.697186265577
 21
622.7286936847622
 31
0.0
  0
LINE
  5
407
330
20
100
AcDbEntity
  8
HILF
100
AcDbLine
 10
161.0735197035419
 20
664.3251048412139
 30
0.0
 11
171.4360626913598
 21
659.6756206950288
 31
0.0
  0
ARC
  5
408
330
20
100
AcDbEntity
  8
HILF
100
AcDbCircle
 10
173.0735197035419
 20
663.3251048412136
 30
0.0
 40
4.0
100
AcDbArc
 50
245.8350955719762
 51
294.1649044280238
  0
LINE
  5
409
102
{ACAD_REACTORS
330
684
102
}
330
20
100
AcDbEntity
  8
STEMPEL
100
AcDbLine
 10
221.573519703542
 20
602.5258637984954
 30
0.0
 11
221.5735197035419
 21
440.3251048412141
 31
0.0
  0
LINE
  5
40A
102
{ACAD_REACTORS
330
684
102
}
330
20
100
AcDbEntity
  8
STEMPEL
100
AcDbLine
 10
223.073519703542
 20
602.5258637984952
 30
0.0
 11
223.0735197035418
 21
440.2596134268514
 31
0.0
  0
LINE
  5
40C
102
{ACAD_REACTORS
330
684
102
}
330
20
100
AcDbEntity
  8
STEMPEL
100
AcDbLine
 10
221.5735197035419
 20
440.3251048412141
 30
0.0
 11
220.9610990588604
 21
433.3251048412138
 31
0.0
  0
LINE
  5
40D
102
{ACAD_REACTORS
330
684
102
}
330
20
100
AcDbEntity
  8
STEMPEL
100
AcDbLine
 10
223.0735197035418
 20
440.2596134268514
 30
0.0
 11
222.4668288151755
 21
433.3251048412138
 31
0.0
  0
INSERT
  5
40E
330
20
100
AcDbEntity
  8
SCHRAFF
100
AcDbBlockReference
  2
*X4
 10
-57.4263237303754
 20
30.73586849298192
 30
0.0
1001
ACAD
1000
HATCH
1002
{
1070
    16
1000
_U,I
1040
2.0
1040
2.356194490192344
1070
     0
1002
}
  0
ARC
  5
40F
102
{ACAD_REACTORS
330
A02
102
}
330
20
100
AcDbEntity
  8
SCHRAFF
100
AcDbCircle
 10
246.7729589327976
 20
655.1432616373731
 30
0.0
 40
3.15000570007632
100
AcDbArc
 50
256.6760665001043
 51
27.24397277950556
  0
ARC
  5
410
330
20
100
AcDbEntity
  8
STEMPEL
100
AcDbCircle
 10
255.573519703542
 20
664.8159605091596
 30
0.0
 40
6.0
100
AcDbArc
 50
94.8842770310325
 51
180.0
  0
ARC
  5
411
330
20
100
AcDbEntity
  8
STEMPEL
100
AcDbCircle
 10
255.573519703542
 20
664.8159605091596
 30
0.0
 40
8.0
100
AcDbArc
 50
94.88427703103278
 51
180.0
  0
LINE
  5
412
330
20
100
AcDbEntity
  8
STEMPEL
100
AcDbLine
 10
246.7952348457427
 20
675.3251048412137
 30
0.0
 11
285.0212051173884
 21
675.3251048412137
 31
0.0
  0
LINE
  5
414
102
{ACAD_REACTORS
330
684
102
}
330
20
100
AcDbEntity
  8
STEMPEL
100
AcDbLine
 10
228.0735197035419
 20
623.3251048412137
 30
0.0
 11
222.6865187618578
 21
607.8935642065585
 31
0.0
  0
LINE
  5
415
102
{ACAD_REACTORS
330
684
102
}
330
20
100
AcDbEntity
  8
STEMPEL
100
AcDbLine
 10
229.4498531415067
 20
622.7286936847622
 30
0.0
 11
224.0628521998227
 21
607.2971530501067
 31
0.0
  0
ARC
  5
416
102
{ACAD_REACTORS
330
684
102
}
330
20
100
AcDbEntity
  8
STEMPEL
100
AcDbCircle
 10
235.0735197035418
 20
602.5258637984954
 30
0.0
 40
13.5
100
AcDbArc
 50
156.5713071912555
 51
180.0
  0
ARC
  5
417
102
{ACAD_REACTORS
330
684
102
}
330
20
100
AcDbEntity
  8
STEMPEL
100
AcDbCircle
 10
235.0735197035418
 20
602.5258637984952
 30
0.0
 40
12.0
100
AcDbArc
 50
156.5713071912555
 51
180.0
  0
LINE
  5
418
330
20
100
AcDbEntity
  8
STEMPEL
100
AcDbLine
 10
216.2629993153589
 20
670.3251048412137
 30
0.0
 11
208.7629993153589
 21
675.3251048412135
 31
0.0
  0
LINE
  5
419
330
20
100
AcDbEntity
  8
STEMPEL
100
AcDbLine
 10
211.3610755267123
 20
675.3251048412137
 30
0.0
 11
218.8610755267123
 21
670.3251048412137
 31
0.0
  0
LINE
  5
41A
330
20
100
AcDbEntity
  8
STEMPEL
100
AcDbLine
 10
211.3610755267123
 20
675.3251048412137
 30
0.0
 11
205.762999315359
 21
675.3251048412135
 31
0.0
  0
LINE
  5
41B
330
20
100
AcDbEntity
  8
STEMPEL
100
AcDbLine
 10
222.3610755267125
 20
673.3251048412137
 30
0.0
 11
221.3610755267123
 21
673.3251048412137
 31
0.0
  0
LINE
  5
41C
330
20
100
AcDbEntity
  8
STEMPEL
100
AcDbLine
 10
222.3610755267125
 20
670.3251048412137
 30
0.0
 11
216.262999315359
 21
670.3251048412137
 31
0.0
  0
LINE
  5
41D
330
20
100
AcDbEntity
  8
STEMPEL
100
AcDbLine
 10
222.3610755267122
 20
670.3251048412139
 30
0.0
 11
222.3610755267122
 21
673.3251048412137
 31
0.0
  0
LINE
  5
41E
330
20
100
AcDbEntity
  8
STEMPEL
100
AcDbLine
 10
230.3095876810417
 20
623.3251048412137
 30
0.0
 11
245.8530851609031
 21
651.7110643485952
 31
0.0
  0
LINE
  5
41F
330
20
100
AcDbEntity
  8
STEMPEL
100
AcDbLine
 10
228.0735197035419
 20
623.3251048412137
 30
0.0
 11
244.1019733781704
 21
652.6342772748202
 31
0.0
  0
POINT
  5
420
330
20
100
AcDbEntity
  8
DEFPOINTS
  6
ByBlock
 62
     0
100
AcDbPoint
 10
230.2754138767797
 20
623.3251048412137
 30
0.0
  0
LINE
  5
421
102
{ACAD_REACTORS
330
684
102
}
330
20
100
AcDbEntity
  8
STEMPEL
100
AcDbLine
 10
228.0735197035419
 20
623.3251048412137
 30
0.0
 11
229.4498531415067
 21
622.7286936847622
 31
0.0
  0
POINT
  5
422
330
20
100
AcDbEntity
  8
DEFPOINTS
  6
ByBlock
 62
     0
100
AcDbPoint
 10
230.2754138767798
 20
623.3251048412137
 30
0.0
  0
LINE
  5
423
330
20
100
AcDbEntity
  8
STEMPEL
100
AcDbLine
 10
243.5845695113884
 20
661.3251048412137
 30
0.0
 11
245.5735197035418
 21
666.3251048412137
 31
0.0
  0
LINE
  5
424
102
{ACAD_REACTORS
330
A02
102
}
330
20
100
AcDbEntity
  8
STEMPEL
100
AcDbLine
 10
247.5735197035418
 20
666.3251048412137
 30
0.0
 11
247.5735197035419
 21
655.3251048412136
 31
0.0
  0
LINE
  5
425
330
20
100
AcDbEntity
  8
STEMPEL
100
AcDbLine
 10
245.5735197035418
 20
666.3251048412137
 30
0.0
 11
245.5735197035417
 21
658.3920253781329
 31
0.0
  0
LINE
  5
427
330
20
100
AcDbEntity
  8
STEMPEL
100
AcDbLine
 10
241.5735197035418
 20
661.3251048412137
 30
0.0
 11
243.5845695113884
 21
661.3251048412137
 31
0.0
  0
LINE
  5
428
102
{ACAD_REACTORS
330
A02
102
}
330
20
100
AcDbEntity
  8
STEMPEL
100
AcDbLine
 10
249.573519703542
 20
664.8159605091596
 30
0.0
 11
249.573519703542
 21
655.3251048412136
 31
0.0
  0
LINE
  5
429
102
{ACAD_REACTORS
330
A02
102
}
330
20
100
AcDbEntity
  8
STEMPEL
100
AcDbLine
 10
247.223725100471
 20
655.3251048412136
 30
0.0
 11
249.573519703542
 21
655.3251048412136
 31
0.0
  0
LINE
  5
42A
330
20
100
AcDbEntity
  8
STEMPEL
100
AcDbLine
 10
245.5735197035418
 20
661.3251048412137
 30
0.0
 11
247.5735197035418
 21
661.3251048412137
 31
0.0
  0
LINE
  5
42C
330
20
100
AcDbEntity
  8
STEMPEL
100
AcDbLine
 10
255.0626586719644
 20
670.7941727006443
 30
0.0
 11
284.3239591757191
 21
673.2946624259743
 31
0.0
  0
LINE
  5
42D
330
20
100
AcDbEntity
  8
STEMPEL
100
AcDbLine
 10
254.8923716614385
 20
672.7869100978059
 30
0.0
 11
284.1517719000152
 21
675.2872374382291
 31
0.0
  0
LINE
  5
42E
330
20
100
AcDbEntity
  8
STEMPEL
100
AcDbLine
 10
253.1966880459364
 20
670.3251048412137
 30
0.0
 11
293.2282831800606
 21
670.3251048412139
 31
0.0
  0
ARC
  5
42F
330
20
100
AcDbEntity
  8
STEMPEL
100
AcDbCircle
 10
285.0212051173884
 20
665.3251048412137
 30
0.0
 40
8.0
100
AcDbArc
 50
64.99999999999994
 51
94.99999999775706
  0
ARC
  5
430
330
20
100
AcDbEntity
  8
STEMPEL
100
AcDbCircle
 10
285.0212051173884
 20
665.3251048412137
 30
0.0
 40
10.0
100
AcDbArc
 50
64.9999999999995
 51
94.98778279590911
  0
LINE
  5
431
330
20
100
AcDbEntity
  8
STEMPEL
100
AcDbLine
 10
294.0735197035419
 20
672.137720415287
 30
0.0
 11
289.2473877347955
 21
674.3881827115801
 31
0.0
  0
LINE
  5
432
330
20
100
AcDbEntity
  8
STEMPEL
100
AcDbLine
 10
293.2282831800606
 20
670.3251048412137
 30
0.0
 11
288.402151211314
 21
672.575567137507
 31
0.0
  0
LINE
  5
433
330
20
100
AcDbEntity
  8
STEMPEL
100
AcDbLine
 10
294.0735197035419
 20
672.137720415287
 30
0.0
 11
293.2282831800606
 21
670.3251048412137
 31
0.0
  0
DIMENSION
  5
435
330
20
100
AcDbEntity
  8
BEM
100
AcDbDimension
  2
*D9
 10
247.5735197035419
 20
705.1334830957491
 30
0.0
 11
196.5735197035419
 21
711.6334830957491
 31
0.0
 70
    32
  1
%%C102
 71
     5
 42
102.0
  3
Standard
100
AcDbAlignedDimension
 13
145.5735197035419
 23
695.3251048412137
 33
0.0
 14
247.5735197035419
 24
695.3251048412137
 34
0.0
100
AcDbRotatedDimension
  0
LINE
  5
436
102
{ACAD_REACTORS
330
665
102
}
330
20
100
AcDbEntity
  8
STEMPEL
100
AcDbLine
 10
247.5735197035419
 20
695.3251048412137
 30
0.0
 11
145.5735197035419
 21
695.3251048412137
 31
0.0
  0
LINE
  5
437
102
{ACAD_REACTORS
330
665
102
}
330
20
100
AcDbEntity
  8
STEMPEL
100
AcDbLine
 10
145.5735197035419
 20
687.3251048412137
 30
0.0
 11
149.5735197035419
 21
687.3251048412137
 31
0.0
  0
POINT
  5
438
330
20
100
AcDbEntity
  8
DEFPOINTS
  6
ByBlock
 62
     0
100
AcDbPoint
 10
145.5735197035419
 20
695.3251048412137
 30
0.0
  0
LINE
  5
439
102
{ACAD_REACTORS
330
665
102
}
330
20
100
AcDbEntity
  8
STEMPEL
100
AcDbLine
 10
145.5735197035419
 20
695.3251048412137
 30
0.0
 11
145.5735197035419
 21
687.3251048412137
 31
0.0
  0
LINE
  5
43A
102
{ACAD_REACTORS
330
665
102
}
330
20
100
AcDbEntity
  8
STEMPEL
100
AcDbLine
 10
147.5735197035419
 20
695.3251048412139
 30
0.0
 11
147.5735197035419
 21
687.3251048412137
 31
0.0
  0
LINE
  5
43B
330
20
100
AcDbEntity
  8
STEMPEL
100
AcDbLine
 10
185.0735197035419
 20
687.3251048412137
 30
0.0
 11
161.073519703542
 21
687.3251048412137
 31
0.0
  0
LINE
  5
43C
330
20
100
AcDbEntity
  8
STEMPEL
100
AcDbLine
 10
216.2629993153589
 20
687.3251048412137
 30
0.0
 11
208.7629993153589
 21
682.3251048412134
 31
0.0
  0
LINE
  5
43D
330
20
100
AcDbEntity
  8
STEMPEL
100
AcDbLine
 10
218.8610755267123
 20
687.3251048412137
 30
0.0
 11
211.3610755267123
 21
682.3251048412137
 31
0.0
  0
LINE
  5
43E
330
20
100
AcDbEntity
  8
STEMPEL
100
AcDbLine
 10
211.3610755267123
 20
682.3251048412137
 30
0.0
 11
205.762999315359
 21
682.3251048412134
 31
0.0
  0
LINE
  5
43F
330
20
100
AcDbEntity
  8
STEMPEL
100
AcDbLine
 10
222.3610755267122
 20
684.3251048412136
 30
0.0
 11
221.3610755267123
 21
684.3251048412136
 31
0.0
  0
LINE
  5
440
330
20
100
AcDbEntity
  8
STEMPEL
100
AcDbLine
 10
222.3610755267122
 20
687.3251048412137
 30
0.0
 11
216.262999315359
 21
687.3251048412137
 31
0.0
  0
LINE
  5
441
330
20
100
AcDbEntity
  8
STEMPEL
100
AcDbLine
 10
222.3610755267122
 20
684.3251048412136
 30
0.0
 11
222.3610755267122
 21
687.3251048412137
 31
0.0
  0
LINE
  5
442
330
20
100
AcDbEntity
  8
STEMPEL
100
AcDbLine
 10
247.5735197035419
 20
687.3251048412137
 30
0.0
 11
243.5735197035419
 21
687.3251048412137
 31
0.0
  0
LINE
  5
443
330
20
100
AcDbEntity
  8
STEMPEL
100
AcDbLine
 10
245.5735197035419
 20
695.3251048412137
 30
0.0
 11
245.5735197035419
 21
687.3251048412137
 31
0.0
  0
LINE
  5
444
330
20
100
AcDbEntity
  8
STEMPEL
100
AcDbLine
 10
247.5735197035419
 20
695.3251048412137
 30
0.0
 11
247.5735197035419
 21
687.3251048412137
 31
0.0
  0
LINE
  5
445
330
20
100
AcDbEntity
  8
STEMPEL
100
AcDbLine
 10
584.0
 20
40.0
 30
0.0
 11
584.0
 21
830.0
 31
0.0
  0
LINE
  5
446
330
20
100
AcDbEntity
  8
HILF
100
AcDbLine
 10
594.0
 20
0.0
 30
0.0
 11
594.0
 21
840.0000000000002
 31
0.0
  0
TEXT
  5
44A
330
20
100
AcDbEntity
  8
TEXT
100
AcDbText
 10
480.4045780774092
 20
470.2031266103855
 30
0.0
 40
5.0
  1
Erstellt mit AUTOCAD 2004
 50
90.0
  7
GREEKS
100
AcDbText
  0
TEXT
  5
44D
330
20
100
AcDbEntity
  8
TEXT
100
AcDbText
 10
551.8049542698645
 20
654.9713400534564
 30
0.0
 40
3.6
  1
16111050W.DWG
 50
90.0
 41
0.8
  7
GREEKS
100
AcDbText
  0
TEXT
  5
44E
330
20
100
AcDbEntity
  8
TEXT
100
AcDbText
 10
541.2486885465454
 20
655.162303158329
 30
0.0
 40
5.0
  1
EDV-Art.Nr. 16111.050X
 50
90.0
 41
0.8
  7
GREEKS
100
AcDbText
  0
TEXT
  5
44F
330
20
100
AcDbEntity
  8
TEXT
100
AcDbText
 10
521.703488726959
 20
654.862987254257
 30
0.0
 40
5.0
  1
Fallrohrlänge 250mm
 50
90.0
 41
0.8
  7
GREEKS
100
AcDbText
  0
TEXT
  5
450
330
20
100
AcDbEntity
  8
TEXT
100
AcDbText
 10
563.1543942980694
 20
654.7422383911358
 30
0.0
 40
5.0
  1
Bauvorhaben
 50
90.0
 41
0.8
  7
GREEKS
100
AcDbText
  0
TEXT
  5
451
330
20
100
AcDbEntity
  8
TEXT
100
AcDbText
 10
491.4510671988221
 20
654.8779403809009
 30
0.0
 40
5.0
  1
Benennung
 50
90.0
 41
0.8
  7
GREEKS
100
AcDbText
  0
LINE
  5
452
330
20
100
AcDbEntity
  8
HILF
100
AcDbLine
 10
579.1060174197169
 20
654.7736801096947
 30
0.0
 11
579.1060174197169
 21
824.8588839326728
 31
0.0
  0
LINE
  5
453
330
20
100
AcDbEntity
  8
HILF
100
AcDbLine
 10
544.0
 20
654.7736801096947
 30
0.0
 11
544.0
 21
746.629784251481
 31
0.0
  0
LINE
  5
454
330
20
100
AcDbEntity
  8
HILF
100
AcDbLine
 10
534.0
 20
654.7736801096947
 30
0.0
 11
534.0
 21
746.629784251481
 31
0.0
  0
LINE
  5
455
330
20
100
AcDbEntity
  8
HILF
100
AcDbLine
 10
524.0
 20
654.7736801096947
 30
0.0
 11
524.0
 21
746.629784251481
 31
0.0
  0
LINE
  5
456
330
20
100
AcDbEntity
  8
HILF
100
AcDbLine
 10
509.9624175243587
 20
654.7736801096947
 30
0.0
 11
509.9624175243587
 21
746.629784251481
 31
0.0
  0
LINE
  5
457
330
20
100
AcDbEntity
  8
STEMPEL
100
AcDbLine
 10
514.0
 20
830.0
 30
0.0
 11
514.0
 21
566.0000000000001
 31
0.0
  0
LINE
  5
458
330
20
100
AcDbEntity
  8
STEMPEL
100
AcDbLine
 10
554.0
 20
830.0
 30
0.0
 11
554.0
 21
565.9999999999999
 31
0.0
  0
LINE
  5
459
330
20
100
AcDbEntity
  8
STEMPEL
100
AcDbLine
 10
484.0
 20
830.0
 30
0.0
 11
484.0
 21
470.0
 31
0.0
  0
TEXT
  5
45A
330
20
100
AcDbEntity
  8
TEXT
 62
     1
100
AcDbText
 10
507.0058791601468
 20
654.979117340995
 30
0.0
 40
7.0
  1
Ablaufeinheit DN50
 50
90.0
 41
0.8
  7
GREEKS
100
AcDbText
  0
INSERT
  5
45B
330
20
100
AcDbEntity
  8
STEMPEL
100
AcDbBlockReference
  2
LOGO
 10
549.6760802813285
 20
568.9705276546529
 30
0.0
 41
2.0
 42
2.0
 43
2.0
 50
90.0
  0
TEXT
  5
45D
330
20
100
AcDbEntity
  8
TEXT
100
AcDbText
 10
580.3453415397281
 20
478.2664110704574
 30
0.0
 40
3.6
  1
Index
 50
180.0
 41
0.8
  7
GREEKS
100
AcDbText
  0
TEXT
  5
45E
330
20
100
AcDbEntity
  8
TEXT
100
AcDbText
 10
575.7959605971624
 20
492.862419758859
 30
0.0
 40
4.0
  1
Änderung
 50
90.0
 41
0.8
  7
GREEKS
 72
     4
 11
574.0816748828767
 21
503.6052769017161
 31
0.0
100
AcDbText
  0
LINE
  5
45F
330
20
100
AcDbEntity
  8
VOLL
100
AcDbLine
 10
484.0000000000001
 20
544.0000000000001
 30
0.0
 11
584.0000000000001
 21
543.9999999999998
 31
0.0
  0
LINE
  5
460
330
20
100
AcDbEntity
  8
VOLL
100
AcDbLine
 10
484.0
 20
524.0000000000001
 30
0.0
 11
584.0
 21
523.9999999999999
 31
0.0
  0
LINE
  5
461
330
20
100
AcDbEntity
  8
VOLL
100
AcDbLine
 10
484.0
 20
484.0
 30
0.0
 11
584.0
 21
483.9999999999998
 31
0.0
  0
LINE
  5
462
330
20
100
AcDbEntity
  8
STEMPEL
100
AcDbLine
 10
484.0
 20
649.9999999999999
 30
0.0
 11
584.0
 21
649.9999999999999
 31
0.0
  0
LINE
  5
463
330
20
100
AcDbEntity
  8
STEMPEL
100
AcDbLine
 10
484.0000000000001
 20
566.0000000000001
 30
0.0
 11
584.0000000000001
 21
565.9999999999999
 31
0.0
  0
LINE
  5
464
330
20
100
AcDbEntity
  8
STEMPEL
100
AcDbLine
 10
484.0
 20
470.0
 30
0.0
 11
584.0
 21
469.9999999999999
 31
0.0
  0
LINE
  5
467
330
20
100
AcDbEntity
  8
HILF
100
AcDbLine
 10
554.0
 20
470.0
 30
0.0
 11
554.0
 21
566.0000000000001
 31
0.0
  0
LINE
  5
468
330
20
100
AcDbEntity
  8
HILF
100
AcDbLine
 10
544.0
 20
470.0
 30
0.0
 11
544.0
 21
566.0000000000001
 31
0.0
  0
LINE
  5
469
330
20
100
AcDbEntity
  8
HILF
100
AcDbLine
 10
534.0
 20
470.0
 30
0.0
 11
534.0
 21
566.0000000000001
 31
0.0
  0
LINE
  5
46A
330
20
100
AcDbEntity
  8
HILF
100
AcDbLine
 10
524.0
 20
470.0
 30
0.0
 11
524.0
 21
566.0000000000001
 31
0.0
  0
LINE
  5
46B
330
20
100
AcDbEntity
  8
HILF
100
AcDbLine
 10
514.0
 20
470.0
 30
0.0
 11
514.0
 21
566.0000000000001
 31
0.0
  0
LINE
  5
46C
330
20
100
AcDbEntity
  8
HILF
100
AcDbLine
 10
504.0
 20
470.0
 30
0.0
 11
504.0
 21
566.0000000000001
 31
0.0
  0
LINE
  5
46D
330
20
100
AcDbEntity
  8
HILF
100
AcDbLine
 10
494.0
 20
470.0
 30
0.0
 11
494.0
 21
566.0000000000001
 31
0.0
  0
LINE
  5
46E
330
20
100
AcDbEntity
  8
STEMPEL
100
AcDbLine
 10
564.0
 20
565.9999999999999
 30
0.0
 11
564.0
 21
469.9999999999999
 31
0.0
  0
TEXT
  5
472
330
20
100
AcDbEntity
  8
TEXT
100
AcDbText
 10
530.594467646405
 20
590.4500884820464
 30
0.0
 40
3.6
  1
29.05.
 50
90.0
 41
0.8
  7
GREEKS
 72
     1
 11
530.594467646405
 21
596.7586599106178
 31
0.0
100
AcDbText
  0
TEXT
  5
473
330
20
100
AcDbEntity
  8
TEXT
100
AcDbText
 10
530.497467412491
 20
625.1121860477743
 30
0.0
 40
3.6
  1
Koeh
 50
90.0
 41
0.8
  7
GREEKS
 72
     1
 11
530.497467412491
 21
629.8436146192028
 31
0.0
100
AcDbText
  0
TEXT
  5
474
330
20
100
AcDbEntity
  8
TEXT
100
AcDbText
 10
530.3700963038204
 20
567.5836127167614
 30
0.0
 40
3.6
  1
Gez.
 50
90.0
 41
0.8
  7
GREEKS
100
AcDbText
  0
LINE
  5
475
330
20
100
AcDbEntity
  8
VOLL
100
AcDbLine
 10
484.0000000000001
 20
610.0000000000001
 30
0.0
 11
554.0
 21
609.9999999999998
 31
0.0
  0
LINE
  5
476
330
20
100
AcDbEntity
  8
VOLL
100
AcDbLine
 10
514.0
 20
584.0000000000001
 30
0.0
 11
554.0
 21
584.0000000000001
 31
0.0
  0
LINE
  5
477
330
20
100
AcDbEntity
  8
HILF
100
AcDbLine
 10
524.0
 20
566.0000000000001
 30
0.0
 11
524.0
 21
649.9999999999999
 31
0.0
  0
TEXT
  5
478
330
20
100
AcDbEntity
  8
TEXT
 62
     1
100
AcDbText
 10
507.7758949562678
 20
578.8064310364449
 30
0.0
 40
7.0
  1
1:2
 50
90.0
 41
0.8
  7
GREEKS
100
AcDbText
  0
TEXT
  5
479
330
20
100
AcDbEntity
  8
TEXT
100
AcDbText
 10
491.5379104912911
 20
573.5163572150375
 30
0.0
 40
5.0
  1
Maßstab
 50
90.0
 41
0.8
  7
GREEKS
100
AcDbText
  0
TEXT
  5
47A
330
20
100
AcDbEntity
  8
TEXT
100
AcDbText
 10
520.8541631609584
 20
568.5426010951829
 30
0.0
 40
3.6
  1
2008
 50
90.0
 41
0.8
  7
GREEKS
100
AcDbText
  0
TEXT
  5
47B
330
20
100
AcDbEntity
  8
TEXT
100
AcDbText
 10
520.6811949877008
 20
592.3311673153649
 30
0.0
 40
3.6
  1
Tag
 50
90.0
 41
0.8
  7
GREEKS
100
AcDbText
  0
TEXT
  5
47C
330
20
100
AcDbEntity
  8
TEXT
100
AcDbText
 10
491.5815831565181
 20
617.9646614905597
 30
0.0
 40
5.0
  1
zul.Abw
 50
90.0
 41
0.8
  7
GREEKS
100
AcDbText
  0
TEXT
  5
47D
330
20
100
AcDbEntity
  8
TEXT
100
AcDbText
 10
520.6903890808478
 20
622.4626584226294
 30
0.0
 40
3.6
  1
Name
 50
90.0
 41
0.8
  7
GREEKS
100
AcDbText
  0
LINE
  5
47E
330
20
100
AcDbEntity
  8
HILF
100
AcDbLine
 10
544.0
 20
566.0000000000001
 30
0.0
 11
544.0
 21
649.9999999999999
 31
0.0
  0
LINE
  5
47F
330
20
100
AcDbEntity
  8
HILF
100
AcDbLine
 10
534.0
 20
566.0000000000001
 30
0.0
 11
534.0
 21
649.9999999999999
 31
0.0
  0
TEXT
  5
480
330
20
100
AcDbEntity
  8
TEXT
100
AcDbText
 10
540.3107370857163
 20
567.5515086571671
 30
0.0
 40
3.6
  1
Gepr.
 50
90.0
 41
0.8
  7
GREEKS
100
AcDbText
  0
TEXT
  5
481
330
20
100
AcDbEntity
  8
TEXT
100
AcDbText
 10
550.470536103502
 20
567.6006777387303
 30
0.0
 40
3.6
  1
Norm.
 50
90.0
 41
0.8
  7
GREEKS
100
AcDbText
  0
LINE
  5
482
330
20
100
AcDbEntity
  8
BEM
100
AcDbLine
 10
594.0
 20
460.0
 30
0.0
 11
584.0
 21
460.0
 31
0.0
  0
TEXT
  5
483
330
20
100
AcDbEntity
  8
TEXT
 62
     1
100
AcDbText
 10
506.9813625823642
 20
768.5044394842364
 30
0.0
 40
7.0
  1
16111050W
 50
90.0
 41
0.8
  7
GREEKS
 72
     1
 11
506.9813625823642
 21
790.3711061509031
 31
0.0
100
AcDbText
  0
LINE
  5
484
330
20
100
AcDbEntity
  8
HILF
100
AcDbLine
 10
510.2201636304418
 20
756.7238616296994
 30
0.0
 11
510.2201636304418
 21
824.8588839326728
 31
0.0
  0
LINE
  5
485
330
20
100
AcDbEntity
  8
VOLL
100
AcDbLine
 10
534.0
 20
752.0000000000001
 30
0.0
 11
534.0
 21
830.0
 31
0.0
  0
LINE
  5
487
330
20
100
AcDbEntity
  8
STEMPEL
100
AcDbLine
 10
484.0000000000003
 20
752.0000000000001
 30
0.0
 11
554.0
 21
752.0000000000001
 31
0.0
  0
TEXT
  5
488
330
20
100
AcDbEntity
  8
TEXT
100
AcDbText
 10
491.6867965462863
 20
756.1787549576341
 30
0.0
 40
5.0
  1
Zeichnungs Nr.
 50
90.0
 41
0.8
  7
GREEKS
100
AcDbText
  0
TEXT
  5
489
330
20
100
AcDbEntity
  8
TEXT
100
AcDbText
 10
520.8188176290003
 20
756.7238616296994
 30
0.0
 40
5.0
  1
Ersatz für:
 50
90.0
 41
0.8
  7
GREEKS
100
AcDbText
  0
TEXT
  5
48A
330
20
100
AcDbEntity
  8
TEXT
100
AcDbText
 10
541.925838221214
 20
757.2400861497007
 30
0.0
 40
5.0
  1
ersetzt durch:
 50
90.0
 41
0.8
  7
GREEKS
100
AcDbText
  0
LINE
  5
4FF
330
20
100
AcDbEntity
  8
HILF
100
AcDbLine
 10
243.0916076638531
 20
655.3251048412138
 30
0.0
 11
150.0554317432307
 21
655.3251048412136
 31
0.0
  0
TEXT
  5
58C
330
20
100
AcDbEntity
  8
TEXT
100
AcDbText
 10
575.4150082162101
 20
530.4640710206075
 30
0.0
 40
4.0
  1
Tag
 50
90.0
 41
0.8
  7
GREEKS
 72
     4
 11
574.0816748828767
 21
534.1974043539408
 31
0.0
100
AcDbText
  0
TEXT
  5
58D
330
20
100
AcDbEntity
  8
TEXT
100
AcDbText
 10
576.0816748828768
 20
549.0144964079213
 30
0.0
 40
4.0
  1
Name
 50
90.0
 41
0.8
  7
GREEKS
 72
     4
 11
574.0816748828767
 21
555.3383059317308
 31
0.0
100
AcDbText
  0
ARC
  5
61D
330
20
100
AcDbEntity
  8
STEMPEL
100
AcDbCircle
 10
159.5735197035419
 20
658.3920253781331
 30
0.0
 40
12.0
100
AcDbArc
 50
180.0000000000001
 51
208.6731464894348
  0
ARC
  5
61E
102
{ACAD_REACTORS
330
A0C
102
}
330
20
100
AcDbEntity
  8
STEMPEL
100
AcDbCircle
 10
159.5735197035419
 20
658.3920253781331
 30
0.0
 40
14.0
100
AcDbArc
 50
180.0000000000001
 51
205.5899143101412
  0
ARC
  5
628
330
20
100
AcDbEntity
  8
STEMPEL
100
AcDbCircle
 10
233.5735197035418
 20
658.3920253781329
 30
0.0
 40
12.0
100
AcDbArc
 50
331.3268535105651
 51
0.0
  0
ARC
  5
629
102
{ACAD_REACTORS
330
A02
102
}
330
20
100
AcDbEntity
  8
STEMPEL
100
AcDbCircle
 10
233.5735197035418
 20
658.4350715004639
 30
0.0
 40
14.0
100
AcDbArc
 50
331.2959025047089
 51
0.0000000000002799
  0
HATCH
  5
659
330
20
100
AcDbEntity
  8
SCHRAFF
100
AcDbHatch
 10
0.0
 20
0.0
 30
0.0
210
0.0
220
0.0
230
1.0
  2
_USER
 70
     0
 71
     0
 91
        5
 92
        7
 72
     0
 73
     1
 93
        5
 10
247.5735197035419
 20
695.3251048412136
 10
245.5735197035419
 20
695.3251048412136
 10
245.5735197035419
 20
687.4417724006591
 10
245.5845695113884
 20
687.3251048412137
 10
247.5735197035419
 20
687.3251048412137
 97
        0
 92
        7
 72
     0
 73
     1
 93
        4
 10
245.5845695113885
 20
687.3251048412136
 10
243.5735197035419
 20
687.3251048412139
 10
241.5735197035418
 20
661.3251048412137
 10
243.5845695113884
 20
661.3251048412137
 97
        0
 92
        7
 72
     1
 73
     1
 93
        8
 10
247.5735197035418
 20
661.3251048412136
 42
0.0
 10
245.5735197035418
 20
661.3251048412137
 42
0.0
 10
245.5735197035417
 20
658.3920253781329
 42
-0.1257670814357833
 10
244.1019733781704
 20
652.6342772748202
 42
0.0
 10
228.073519703542
 20
623.3251048412137
 42
0.0
 10
230.3095876810417
 20
623.3251048412137
 42
0.0
 10
245.8530851609031
 20
651.7110643485952
 42
0.1259042691287427
 10
247.5735197035418
 20
658.435071500464
 42
0.0
 97
        0
 92
        7
 72
     1
 73
     1
 93
        8
 10
149.0450660289132
 20
652.6342772748208
 42
-0.1257670814357819
 10
147.5735197035419
 20
658.3920253781331
 42
0.0
 10
147.5735197035419
 20
661.3251048412136
 42
0.0
 10
145.5735197035419
 20
661.3251048412137
 42
0.0
 10
145.5735197035419
 20
658.3920253781333
 42
0.1121234114896096
 10
146.9467996978267
 20
652.3450474637306
 42
0.0
 10
162.8374517260421
 20
623.3251048412137
 42
0.0
 10
165.073519703542
 20
623.3251048412137
 42
0.0
 97
        0
 92
        7
 72
     0
 73
     1
 93
        4
 10
149.5735197035419
 20
687.3251048412138
 10
147.5624698956953
 20
687.3251048412139
 10
149.5624698956953
 20
661.3251048412136
 10
151.573519703542
 20
661.3251048412137
 97
        0
 75
     0
 76
     0
 52
45.0
 41
2.0
 77
     0
 78
     1
 53
45.0
 43
0.0
 44
0.0
 45
-1.414213562373094
 46
1.414213562373095
 79
     0
 47
0.267550594404406
 98
        5
 10
247.1207771003628
 20
690.3972120021151
 10
243.9077846104565
 20
680.2302879538504
 10
246.8530274651353
 20
658.5586913762051
 10
158.4957136293887
 20
633.1413841889323
 10
150.1954812029862
 20
664.4448038579219
  0
HATCH
  5
665
330
20
100
AcDbEntity
  8
SCHRAFF
100
AcDbHatch
 10
0.0
 20
0.0
 30
0.0
210
0.0
220
0.0
230
1.0
  2
_USER
 70
     0
 71
     1
 91
        1
 92
        7
 72
     0
 73
     1
 93
        4
 10
145.5735197035419
 20
687.3251048412137
 10
147.5735197035419
 20
687.3251048412137
 10
147.5735197035419
 20
695.3251048412137
 10
145.5735197035419
 20
695.3251048412137
 97
        4
330
436
330
439
330
437
330
43A
 75
     0
 76
     0
 52
45.0
 41
2.0
 77
     0
 78
     1
 53
45.0
 43
0.0
 44
0.0
 45
-1.414213562373094
 46
1.414213562373095
 79
     0
 47
0.0470592970682051
 98
        1
 10
146.3117894419488
 20
692.4263132819276
  0
HATCH
  5
684
330
20
100
AcDbEntity
  8
SCHRAFF
100
AcDbHatch
 10
0.0
 20
0.0
 30
0.0
210
0.0
220
0.0
230
1.0
  2
_USER
 70
     0
 71
     1
 91
        2
 92
        7
 72
     1
 73
     1
 93
       10
 10
223.073519703542
 20
602.5258637984952
 42
-0.1025845546404462
 10
224.0628521998227
 20
607.2971530501067
 42
0.0
 10
229.4498531415067
 20
622.7286936847622
 42
0.0
 10
228.0735197035419
 20
623.3251048412138
 42
0.0
 10
222.6865187618578
 20
607.8935642065585
 42
0.102584554640446
 10
221.573519703542
 20
602.5258637984954
 42
0.0
 10
221.5735197035419
 20
440.3251048412137
 42
0.0
 10
220.9610990588604
 20
433.3251048412139
 42
0.0
 10
222.4668288151755
 20
433.3251048412138
 42
0.0
 10
223.0735197035419
 20
440.2596134268518
 42
0.0
 97
       10
330
417
330
415
330
421
330
414
330
416
330
409
330
40C
330
3EA
330
40D
330
40A
 92
        7
 72
     1
 73
     1
 93
       10
 10
171.5735197035419
 20
602.5258637984954
 42
0.1025845546404478
 10
170.4605206452259
 20
607.8935642065585
 42
0.0
 10
165.073519703542
 20
623.3251048412138
 42
0.0
 10
163.6971862655771
 20
622.7286936847623
 42
0.0
 10
169.0841872072611
 20
607.2971530501067
 42
-0.1025845546404455
 10
170.073519703542
 20
602.5258637984952
 42
0.0
 10
170.0735197035419
 20
440.2596134268515
 42
0.0
 10
170.6802105919083
 20
433.3251048412138
 42
0.0
 10
172.1859403482233
 20
433.3251048412138
 42
0.0
 10
171.5735197035419
 20
440.3251048412141
 42
0.0
 97
       10
330
403
330
400
330
406
330
3FF
330
401
330
3ED
330
3EE
330
3EA
330
3EF
330
3EC
 75
     0
 76
     0
 52
135.0
 41
2.0
 77
     0
 78
     1
 53
135.0
 43
0.0
 44
0.0
 45
-1.414213562373095
 46
-1.414213562373094
 79
     0
 47
0.4382527421167614
 98
        2
 10
222.4416673465957
 20
554.8722845948523
 10
171.1279882871431
 20
558.8165602014568
  0
TEXT
  5
697
330
20
100
AcDbEntity
  8
TEXT
100
AcDbText
 10
506.4221841572538
 20
613.3433854820861
 30
0.0
 40
4.0
  1
DIN EN1123-2
 50
90.0
 41
0.8
  7
GREEKS
100
AcDbText
  0
ARC
  5
6AC
102
{ACAD_REACTORS
330
6B6
102
}
330
20
100
AcDbEntity
  8
SCHRAFF
100
AcDbCircle
 10
164.8471959616772
 20
624.4287624018036
 30
0.0
 40
4.115420898145577
100
AcDbArc
 50
152.5619404472308
 51
265.6668943086133
  0
HATCH
  5
6B6
330
20
100
AcDbEntity
  8
SCHRAFF
100
AcDbHatch
 10
0.0
 20
0.0
 30
0.0
210
0.0
220
0.0
230
1.0
  2
_USER
 70
     0
 71
     1
 91
        1
 92
        7
 72
     1
 73
     1
 93
        5
 10
163.697186265577
 20
622.7286936847622
 42
0.0
 10
165.0735197035419
 20
623.3251048412135
 42
0.0
 10
162.837451726042
 20
623.3251048412137
 42
0.0
 10
161.1947208390535
 20
626.3251048412136
 42
0.537909690070098
 10
164.5362557836613
 20
620.3251048412134
 42
0.0
 97
        5
330
406
330
3E9
330
3F1
330
6AC
330
3FF
 75
     0
 76
     0
 52
0.0
 41
0.1
 77
     0
 78
     1
 53
0.0
 43
0.0
 44
0.0
 45
0.0
 46
0.1
 79
     0
 47
0.0269927837272024
 98
        1
 10
162.8071363089279
 20
622.0595048009792
  0
HATCH
  5
6B7
330
20
100
AcDbEntity
  8
SCHRAFF
100
AcDbHatch
 10
0.0
 20
0.0
 30
0.0
210
0.0
220
0.0
230
1.0
  2
_USER
 70
     0
 71
     0
 91
        1
 92
        7
 72
     1
 73
     1
 93
        5
 10
229.4498531415068
 20
622.7286936847622
 42
0.0
 10
228.0735197035419
 20
623.3251048412135
 42
0.0
 10
230.3095876810417
 20
623.3251048412137
 42
0.0
 10
231.9523185680303
 20
626.3251048412136
 42
-0.537909690070098
 10
228.6107836234225
 20
620.3251048412134
 42
0.0
 97
        0
 75
     0
 76
     0
 52
0.0
 41
0.1
 77
     0
 78
     1
 53
180.0
 43
393.1470394070838
 44
0.0
 45
0.0
 46
0.1
 79
     0
 47
0.0269927837272024
 98
        1
 10
230.3399030981558
 20
622.0595048009792
  0
ARC
  5
6B8
330
20
100
AcDbEntity
  8
SCHRAFF
100
AcDbCircle
 10
228.2998434454066
 20
624.4287624018036
 30
0.0
 40
4.115420898145577
100
AcDbArc
 50
274.3331056913866
 51
27.43805955276915
  0
TEXT
  5
8A7
330
20
100
AcDbEntity
  8
TEXT
 62
     1
100
AcDbText
 10
457.7980504733848
 20
665.5421703459327
 30
0.0
 40
7.0
  1
innen und außen beschichtet
 50
90.0
 41
0.8
  7
GREEKS
100
AcDbText
  0
TEXT
  5
8A8
330
20
100
AcDbEntity
  8
TEXT
 62
     1
100
AcDbText
 10
445.9473217175687
 20
617.5924529085349
 30
0.0
 40
7.0
  1
Werkstoff: E195 EN10305, St37 feuerverzinkt
 50
90.0
 41
0.8
  7
GREEKS
100
AcDbText
  0
TEXT
  5
8A9
330
20
100
AcDbEntity
  8
TEXT
 62
     1
100
AcDbText
 10
188.5944330344394
 20
500.2208121130751
 30
0.0
 40
7.0
  1
DN50
 50
90.0
 41
0.8
  7
GREEKS
100
AcDbText
  0
HATCH
  5
A02
330
20
100
AcDbEntity
  8
SCHRAFF
100
AcDbHatch
 10
0.0
 20
0.0
 30
0.0
210
0.0
220
0.0
230
1.0
  2
_USER
 70
     0
 71
     1
 91
        2
 92
        7
 72
     1
 73
     1
 93
        3
 10
247.5735197035419
 20
658.435071500464
 42
-0.0560609319922224
 10
247.223725100471
 20
655.3251048412136
 42
0.0
 10
247.5735197035419
 20
655.3251048412136
 42
0.0
 97
        3
330
629
330
429
330
424
 92
        7
 72
     1
 73
     1
 93
        4
 10
249.573519703542
 20
656.5852724833381
 42
0.0
 10
249.573519703542
 20
655.3251048412136
 42
0.0
 10
247.223725100471
 20
655.3251048412136
 42
-0.0619095526180989
 10
246.0470204890007
 20
652.0780456113268
 42
0.6405594352870568
 97
        4
330
428
330
429
330
629
330
40F
 75
     0
 76
     0
 52
0.0
 41
0.1
 77
     0
 78
     1
 53
0.0
 43
0.0
 44
0.0
 45
0.0
 46
0.1
 79
     0
 47
0.0351797086702364
 98
        2
 10
247.4874784408807
 20
655.5194184516296
 10
247.4874784408807
 20
653.7604331554123
  0
HATCH
  5
A0C
330
20
100
AcDbEntity
  8
SCHRAFF
100
AcDbHatch
 10
0.0
 20
0.0
 30
0.0
210
0.0
220
0.0
230
1.0
  2
_USER
 70
     0
 71
     1
 91
        2
 92
        7
 72
     1
 73
     1
 93
        3
 10
145.5735197035418
 20
658.3920253781331
 42
0.0
 10
145.5735197035418
 20
655.3251048412136
 42
0.0
 10
145.9135783266464
 20
655.3251048412136
 42
-0.0552703929537648
 97
        3
330
3F6
330
3F8
330
61E
 92
        7
 72
     1
 73
     1
 93
        5
 10
145.9135783266464
 20
655.3251048412136
 42
0.0
 10
143.5735197035419
 20
655.3251048412136
 42
0.0
 10
143.5735197035419
 20
656.5852724833381
 42
0.6398451747414842
 10
147.0938058520412
 20
652.0765808109537
 42
0.0
 10
146.9467996978267
 20
652.3450474637306
 42
-0.0565028643519553
 97
        5
330
3F8
330
3F9
330
3F2
330
3F1
330
61E
 75
     0
 76
     0
 52
0.0
 41
0.1
 77
     0
 78
     1
 53
0.0
 43
0.0
 44
0.0
 45
0.0
 46
0.1
 79
     0
 47
0.0386976775759082
 98
        2
 10
145.7503730736985
 20
655.550203057828
 10
145.4792846245468
 20
653.8088078673706
  0
CIRCLE
  5
ADE
330
20
100
AcDbEntity
  8
STEMPEL
100
AcDbCircle
 10
196.5735197035419
 20
212.9259032999956
 30
0.0
 40
97.5
  0
LINE
  5
ADF
330
20
100
AcDbEntity
  8
VERDECKT
100
AcDbLine
 10
218.7629993153589
 20
171.4925972188149
 30
0.0
 11
221.3610755267123
 21
172.9925972188149
 31
0.0
  0
POINT
  5
AE0
330
20
100
AcDbEntity
  8
DEFPOINTS
  6
ByBlock
 62
     0
100
AcDbPoint
 10
219.7629993153589
 20
169.760546411246
 30
0.0
  0
ARC
  5
AE1
330
20
100
AcDbEntity
  8
BEM
100
AcDbCircle
 10
220.5057748551176
 20
170.341609636568
 30
0.0
 40
3.656745938638493
100
AcDbArc
 50
134.7950387211165
 51
209.5689460889579
  0
INSERT
  5
AE2
330
20
100
AcDbEntity
  8
BEM
100
AcDbBlockReference
  2
*X1
 10
12.16659135026825
 20
267.7883260894931
 30
0.0
 41
-1.0
 50
180.0
1001
ACAD
1000
HATCH
1002
{
1070
    16
1000
_U,I
1040
0.1
1040
0.0
1070
     0
1002
}
  0
LINE
  5
AE3
330
20
100
AcDbEntity
  8
STEMPEL
100
AcDbLine
 10
219.7629993153589
 20
169.760546411246
 30
0.0
 11
222.3610755267122
 21
171.260546411246
 31
0.0
  0
LINE
  5
AE4
330
20
100
AcDbEntity
  8
STEMPEL
100
AcDbLine
 10
216.2629993153589
 20
175.8227242377371
 30
0.0
 11
218.8610755267123
 21
177.322724237737
 31
0.0
  0
LINE
  5
AE5
330
20
100
AcDbEntity
  8
STEMPEL
100
AcDbLine
 10
208.7629993153589
 20
188.8131052945036
 30
0.0
 11
211.3610755267123
 21
190.3131052945036
 31
0.0
  0
LINE
  5
AE6
330
20
100
AcDbEntity
  8
STEMPEL
100
AcDbLine
 10
205.7629993153589
 20
194.0092577172103
 30
0.0
 11
208.3610755267123
 21
195.5092577172102
 31
0.0
  0
POINT
  5
AE7
330
20
100
AcDbEntity
  8
DEFPOINTS
  6
ByBlock
 62
     0
100
AcDbPoint
 10
205.7629993153589
 20
194.0092577172103
 30
0.0
  0
LINE
  5
AE8
330
20
100
AcDbEntity
  8
STEMPEL
100
AcDbLine
 10
205.7629993153589
 20
194.0092577172103
 30
0.0
 11
219.7629993153589
 21
169.760546411246
 31
0.0
  0
LINE
  5
AE9
330
20
100
AcDbEntity
  8
STEMPEL
100
AcDbLine
 10
208.3610755267123
 20
195.5092577172102
 30
0.0
 11
222.3610755267122
 21
171.260546411246
 31
0.0
  0
LINE
  5
AEC
330
20
100
AcDbEntity
  8
STEMPEL
100
AcDbLine
 10
243.5735197035419
 20
199.0694968394447
 30
0.0
 11
241.5735197035418
 21
212.9259032999956
 31
0.0
  0
LINE
  5
AEF
330
20
100
AcDbEntity
  8
STEMPEL
100
AcDbLine
 10
149.5735197035419
 20
199.0694968394447
 30
0.0
 11
151.573519703542
 21
212.9259032999956
 31
0.0
  0
LINE
  5
AF0
330
20
100
AcDbEntity
  8
VERDECKT
100
AcDbLine
 10
159.8260709896261
 20
177.5617263264235
 30
0.0
 11
184.3209684174579
 21
163.4195907026926
 31
0.0
  0
LINE
  5
AF1
330
20
100
AcDbEntity
  8
STEMPEL
100
AcDbLine
 10
161.0735197035419
 20
179.1509125524024
 30
0.0
 11
185.0735197035419
 21
165.2945060918515
 31
0.0
  0
CIRCLE
  5
AF2
330
20
100
AcDbEntity
  8
STEMPEL
100
AcDbCircle
 10
196.5735197035419
 20
212.9259032999956
 30
0.0
 40
51.0
  0
CIRCLE
  5
AF3
330
20
100
AcDbEntity
  8
STEMPEL
100
AcDbCircle
 10
196.5735197035419
 20
212.9259032999956
 30
0.0
 40
49.0
  0
ENDSEC
  0
SECTION
  2
OBJECTS
  0
DICTIONARY
  5
C
330
0
100
AcDbDictionary
281
     1
  3
ACAD_COLOR
350
1B
  3
ACAD_GROUP
350
D
  3
ACAD_LAYOUT
350
19
  3
ACAD_MATERIAL
350
1A
  3
ACAD_MLINESTYLE
350
16
  3
ACAD_PLOTSETTINGS
350
18
  3
ACAD_PLOTSTYLENAME
350
E
  3
AcDbVariableDictionary
350
5AA
  0
DICTIONARY
  5
1B
102
{ACAD_REACTORS
330
C
102
}
330
C
100
AcDbDictionary
281
     1
  0
DICTIONARY
  5
D
102
{ACAD_REACTORS
330
C
102
}
330
C
100
AcDbDictionary
281
     1
  0
DICTIONARY
  5
19
102
{ACAD_REACTORS
330
C
102
}
330
C
100
AcDbDictionary
281
     1
  3
Layout1
350
1F
  3
Model
350
23
  0
DICTIONARY
  5
1A
102
{ACAD_REACTORS
330
C
102
}
330
C
100
AcDbDictionary
281
     1
  0
DICTIONARY
  5
16
102
{ACAD_REACTORS
330
C
102
}
330
C
100
AcDbDictionary
281
     1
  3
Standard
350
17
  0
DICTIONARY
  5
18
102
{ACAD_REACTORS
330
C
102
}
330
C
100
AcDbDictionary
281
     1
  0
ACDBDICTIONARYWDFLT
  5
E
102
{ACAD_REACTORS
330
C
102
}
330
C
100
AcDbDictionary
281
     1
  3
Normal
350
F
100
AcDbDictionaryWithDefault
340
F
  0
DICTIONARY
  5
5AA
102
{ACAD_REACTORS
330
C
102
}
330
C
100
AcDbDictionary
281
     1
  3
DIMASSOC
350
5AC
  3
HIDETEXT
350
5AB
  3
PROJECTNAME
350
5AD
  0
LAYOUT
  5
1F
102
{ACAD_REACTORS
330
19
102
}
330
19
100
AcDbPlotSettings
  1

  2
RICOH Aficio 2027 PCL 6
  4

  6

 40
0.0
 41
0.0
 42
0.0
 43
0.0
 44
0.0
 45
0.0
 46
0.0
 47
0.0
 48
0.0
 49
0.0
140
0.0
141
0.0
142
1.0
143
1.0
 70
   688
 72
     0
 73
     0
 74
     5
  7

 75
    16
147
1.0
 76
     0
 77
     2
 78
   300
148
0.0
149
0.0
100
AcDbLayout
  1
Layout1
 70
     0
 71
     1
 10
0.0
 20
0.0
 11
12.0
 21
9.0
 12
233.5853132872718
 22
50.00000000000001
 32
505.6436260759157
 14
1.000000000000000E+20
 24
1.000000000000000E+20
 34
1.000000000000000E+20
 15
-1.000000000000000E+20
 25
-1.000000000000000E+20
 35
-1.000000000000000E+20
146
0.0
 13
0.0
 23
0.0
 33
0.0
 16
1.0
 26
0.0
 36
0.0
 17
0.0
 27
1.0
 37
0.0
 76
     0
330
1C
  0
LAYOUT
  5
23
102
{ACAD_REACTORS
330
19
102
}
330
19
100
AcDbPlotSettings
  1

  2
RICOH Aficio 2027 PCL 6
  4
A4
  6

 40
5.027083396911621
 41
5.027085304260253
 42
5.027084350585937
 43
5.027069091796875
 44
209.9733276367187
 45
296.9259948730469
 46
0.0
 47
0.0
 48
0.0
 49
0.0
140
0.0
141
0.0
142
1.0
143
1.0
 70
 11952
 72
     0
 73
     1
 74
     0
  7

 75
     0
147
1.0
 76
     0
 77
     2
 78
   300
148
3251.356832461147
149
127.1568179129461
100
AcDbLayout
  1
Model
 70
     1
 71
     0
 10
0.0
 20
0.0
 11
12.0
 21
9.0
 12
0.0
 22
0.0
 32
0.0
 14
0.0
 24
0.0
 34
0.0
 15
0.0
 25
0.0
 35
0.0
146
0.0
 13
0.0
 23
0.0
 33
0.0
 16
1.0
 26
0.0
 36
0.0
 17
0.0
 27
1.0
 37
0.0
 76
     0
330
20
  0
MLINESTYLE
  5
17
102
{ACAD_REACTORS
330
16
102
}
330
16
100
AcDbMlineStyle
  2
STANDARD
 70
     0
  3

 62
   256
 51
90.0
 52
90.0
 71
     2
 49
0.5
 62
   256
  6
BYLAYER
 49
-0.5
 62
   256
  6
BYLAYER
  0
ACDBPLACEHOLDER
  5
F
102
{ACAD_REACTORS
330
E
102
}
330
E
  0
DICTIONARYVAR
  5
5AC
102
{ACAD_REACTORS
330
5AA
102
}
330
5AA
100
DictionaryVariables
280
     0
  1
2
  0
DICTIONARYVAR
  5
5AB
102
{ACAD_REACTORS
330
5AA
102
}
330
5AA
100
DictionaryVariables
280
     0
  1
1
  0
DICTIONARYVAR
  5
5AD
102
{ACAD_REACTORS
330
5AA
102
}
330
5AA
100
DictionaryVariables
280
     0
  1

  0
ENDSEC
  0
EOF
