  0
SECTION
  2
HEADER
  9
$ACADVER
  1
AC1018
  9
$ACADMAINTVER
 70
     2
  9
$DWGCODEPAGE
  3
ANSI_1252
  9
$INSBASE
 10
214.18963059078
 20
83.98788932831553
 30
0.0
  9
$EXTMIN
 10
-0.0362532231533805
 20
-0.0512671842570853
 30
-0.0000000349181948
  9
$EXTMAX
 10
594.0362587553784
 20
840.0512750076064
 30
0.0000000814935746
  9
$LIMMIN
 10
0.0
 20
0.0
  9
$LIMMAX
 10
594.0
 20
840.0000000000002
  9
$ORTHOMODE
 70
     1
  9
$REGENMODE
 70
     1
  9
$FILLMODE
 70
     1
  9
$QTEXTMODE
 70
     0
  9
$MIRRTEXT
 70
     1
  9
$LTSCALE
 40
20.0
  9
$ATTMODE
 70
     1
  9
$TEXTSIZE
 40
3.5
  9
$TRACEWID
 40
1.0
  9
$TEXTSTYLE
  7
STANDARD
  9
$CLAYER
  8
VOLL
  9
$CELTYPE
  6
ByLayer
  9
$CECOLOR
 62
   256
  9
$CELTSCALE
 40
1.0
  9
$DISPSILH
 70
     0
  9
$DIMSCALE
 40
2.0
  9
$DIMASZ
 40
3.5
  9
$DIMEXO
 40
1.0
  9
$DIMDLI
 40
7.0
  9
$DIMRND
 40
0.0
  9
$DIMDLE
 40
0.0
  9
$DIMEXE
 40
1.0
  9
$DIMTP
 40
2.0
  9
$DIMTM
 40
0.0
  9
$DIMTXT
 40
3.5
  9
$DIMCEN
 40
1.5
  9
$DIMTSZ
 40
0.0
  9
$DIMTOL
 70
     0
  9
$DIMLIM
 70
     0
  9
$DIMTIH
 70
     0
  9
$DIMTOH
 70
     0
  9
$DIMSE1
 70
     0
  9
$DIMSE2
 70
     0
  9
$DIMTAD
 70
     1
  9
$DIMZIN
 70
     8
  9
$DIMBLK
  1

  9
$DIMASO
 70
     1
  9
$DIMSHO
 70
     0
  9
$DIMPOST
  1

  9
$DIMAPOST
  1

  9
$DIMALT
 70
     0
  9
$DIMALTD
 70
     2
  9
$DIMALTF
 40
25.4
  9
$DIMLFAC
 40
1.0
  9
$DIMTOFL
 70
     1
  9
$DIMTVP
 40
0.2857142857142857
  9
$DIMTIX
 70
     0
  9
$DIMSOXD
 70
     0
  9
$DIMSAH
 70
     0
  9
$DIMBLK1
  1

  9
$DIMBLK2
  1

  9
$DIMSTYLE
  2
Standard
  9
$DIMCLRD
 70
     0
  9
$DIMCLRE
 70
     0
  9
$DIMCLRT
 70
     1
  9
$DIMTFAC
 40
0.5
  9
$DIMGAP
 40
1.5
  9
$DIMJUST
 70
     0
  9
$DIMSD1
 70
     0
  9
$DIMSD2
 70
     0
  9
$DIMTOLJ
 70
     1
  9
$DIMTZIN
 70
     8
  9
$DIMALTZ
 70
     8
  9
$DIMALTTZ
 70
     8
  9
$DIMUPT
 70
     0
  9
$DIMDEC
 70
     2
  9
$DIMTDEC
 70
     2
  9
$DIMALTU
 70
     2
  9
$DIMALTTD
 70
     2
  9
$DIMTXSTY
  7
STANDARD
  9
$DIMAUNIT
 70
     0
  9
$DIMADEC
 70
     2
  9
$DIMALTRND
 40
0.0
  9
$DIMAZIN
 70
     2
  9
$DIMDSEP
 70
    46
  9
$DIMATFIT
 70
     3
  9
$DIMFRAC
 70
     0
  9
$DIMLDRBLK
  1

  9
$DIMLUNIT
 70
     2
  9
$DIMLWD
 70
    -2
  9
$DIMLWE
 70
    -2
  9
$DIMTMOVE
 70
     0
  9
$LUNITS
 70
     2
  9
$LUPREC
 70
     2
  9
$SKETCHINC
 40
1.0
  9
$FILLETRAD
 40
12.0
  9
$AUNITS
 70
     0
  9
$AUPREC
 70
     0
  9
$MENU
  1
ACAD
  9
$ELEVATION
 40
0.0
  9
$PELEVATION
 40
0.0
  9
$THICKNESS
 40
0.0
  9
$LIMCHECK
 70
     0
  9
$CHAMFERA
 40
0.0
  9
$CHAMFERB
 40
0.0
  9
$CHAMFERC
 40
0.0
  9
$CHAMFERD
 40
0.0
  9
$SKPOLY
 70
     0
  9
$TDCREATE
 40
2450567.492325000
  9
$TDUCREATE
 40
2450567.408991667
  9
$TDUPDATE
 40
2455461.550261111
  9
$TDUUPDATE
 40
2455461.466927778
  9
$TDINDWG
 40
0.5200541319
  9
$TDUSRTIMER
 40
0.5200541319
  9
$USRTIMER
 70
     1
  9
$ANGBASE
 50
0.0
  9
$ANGDIR
 70
     0
  9
$PDMODE
 70
     0
  9
$PDSIZE
 40
0.0
  9
$PLINEWID
 40
0.0
  9
$SPLFRAME
 70
     0
  9
$SPLINETYPE
 70
     6
  9
$SPLINESEGS
 70
     8
  9
$HANDSEED
  5
107D
  9
$SURFTAB1
 70
     6
  9
$SURFTAB2
 70
     6
  9
$SURFTYPE
 70
     6
  9
$SURFU
 70
     6
  9
$SURFV
 70
     6
  9
$UCSBASE
  2

  9
$UCSNAME
  2

  9
$UCSORG
 10
0.0
 20
0.0
 30
0.0
  9
$UCSXDIR
 10
1.0
 20
0.0
 30
0.0
  9
$UCSYDIR
 10
0.0
 20
1.0
 30
0.0
  9
$UCSORTHOREF
  2

  9
$UCSORTHOVIEW
 70
     0
  9
$UCSORGTOP
 10
0.0
 20
0.0
 30
0.0
  9
$UCSORGBOTTOM
 10
0.0
 20
0.0
 30
0.0
  9
$UCSORGLEFT
 10
0.0
 20
0.0
 30
0.0
  9
$UCSORGRIGHT
 10
0.0
 20
0.0
 30
0.0
  9
$UCSORGFRONT
 10
0.0
 20
0.0
 30
0.0
  9
$UCSORGBACK
 10
0.0
 20
0.0
 30
0.0
  9
$PUCSBASE
  2

  9
$PUCSNAME
  2

  9
$PUCSORG
 10
0.0
 20
0.0
 30
0.0
  9
$PUCSXDIR
 10
1.0
 20
0.0
 30
0.0
  9
$PUCSYDIR
 10
0.0
 20
1.0
 30
0.0
  9
$PUCSORTHOREF
  2

  9
$PUCSORTHOVIEW
 70
     0
  9
$PUCSORGTOP
 10
0.0
 20
0.0
 30
0.0
  9
$PUCSORGBOTTOM
 10
0.0
 20
0.0
 30
0.0
  9
$PUCSORGLEFT
 10
0.0
 20
0.0
 30
0.0
  9
$PUCSORGRIGHT
 10
0.0
 20
0.0
 30
0.0
  9
$PUCSORGFRONT
 10
0.0
 20
0.0
 30
0.0
  9
$PUCSORGBACK
 10
0.0
 20
0.0
 30
0.0
  9
$USERI1
 70
     0
  9
$USERI2
 70
     0
  9
$USERI3
 70
     0
  9
$USERI4
 70
     0
  9
$USERI5
 70
     0
  9
$USERR1
 40
0.0
  9
$USERR2
 40
0.0
  9
$USERR3
 40
0.0
  9
$USERR4
 40
0.0
  9
$USERR5
 40
0.0
  9
$WORLDVIEW
 70
     1
  9
$SHADEDGE
 70
     3
  9
$SHADEDIF
 70
    70
  9
$TILEMODE
 70
     1
  9
$MAXACTVP
 70
    16
  9
$PINSBASE
 10
0.0
 20
0.0
 30
0.0
  9
$PLIMCHECK
 70
     0
  9
$PEXTMIN
 10
1.000000000000000E+20
 20
1.000000000000000E+20
 30
1.000000000000000E+20
  9
$PEXTMAX
 10
-1.000000000000000E+20
 20
-1.000000000000000E+20
 30
-1.000000000000000E+20
  9
$PLIMMIN
 10
0.0
 20
0.0
  9
$PLIMMAX
 10
12.0
 20
9.0
  9
$UNITMODE
 70
     0
  9
$VISRETAIN
 70
     0
  9
$PLINEGEN
 70
     0
  9
$PSLTSCALE
 70
     0
  9
$TREEDEPTH
 70
  3020
  9
$CMLSTYLE
  2
Standard
  9
$CMLJUST
 70
     0
  9
$CMLSCALE
 40
1.0
  9
$PROXYGRAPHICS
 70
     1
  9
$MEASUREMENT
 70
     0
  9
$CELWEIGHT
370
    -1
  9
$ENDCAPS
280
     0
  9
$JOINSTYLE
280
     0
  9
$LWDISPLAY
290
     0
  9
$INSUNITS
 70
     0
  9
$HYPERLINKBASE
  1

  9
$STYLESHEET
  1
monochrome 1.ctb
  9
$XEDIT
290
     1
  9
$CEPSNTYPE
380
     0
  9
$PSTYLEMODE
290
     1
  9
$FINGERPRINTGUID
  2
{7A62BD3C-4400-45CA-83C1-8A520B65897A}
  9
$VERSIONGUID
  2
{AB482BED-34FC-4491-9D3C-B9131903C963}
  9
$EXTNAMES
290
     1
  9
$PSVPSCALE
 40
0.0
  9
$OLESTARTUP
290
     0
  9
$SORTENTS
280
   127
  9
$INDEXCTL
280
     1
  9
$HIDETEXT
280
     1
  9
$XCLIPFRAME
290
     0
  9
$HALOGAP
280
     0
  9
$OBSCOLOR
 70
   257
  9
$OBSLTYPE
280
     0
  9
$INTERSECTIONDISPLAY
280
     0
  9
$INTERSECTIONCOLOR
 70
   257
  9
$DIMASSOC
280
     2
  9
$PROJECTNAME
  1

  0
ENDSEC
  0
SECTION
  2
CLASSES
  0
CLASS
  1
ACDBDICTIONARYWDFLT
  2
AcDbDictionaryWithDefault
  3
ObjectDBX Classes
 90
        0
 91
        1
280
     0
281
     0
  0
CLASS
  1
ACME_DOCUMENT
  2
AcMeDbDoc
  3
AcMeServices
 90
        0
 91
        0
280
     0
281
     0
  0
CLASS
  1
AMGSETTINGSOBJ
  2
AmgSettingsObj
  3
"AcadM|Product Description: AutoCAD Mechanical 2000|Company: Autodesk"
 90
        0
 91
        0
280
     0
281
     0
  0
CLASS
  1
ACMESCOPE
  2
AcMeScope
  3
AcMeServices
 90
        0
 91
        0
280
     0
281
     0
  0
CLASS
  1
ACMECOMMANDHISTORY
  2
AcMeCommandHistory
  3
AcMeServices
 90
        0
 91
        0
280
     0
281
     0
  0
CLASS
  1
ACIMSYSVARMAN
  2
AcImSysVarManager
  3
AcMeServices
 90
        0
 91
        0
280
     0
281
     0
  0
CLASS
  1
ACIMINTSYSVAR
  2
AcImIntSysVar
  3
AcMeServices
 90
        0
 91
        0
280
     0
281
     0
  0
CLASS
  1
ACMEDRAWINGMAN
  2
AcMeDrawingMan
  3
AcMeServices
 90
        0
 91
        0
280
     0
281
     0
  0
CLASS
  1
ACMEVIEW
  2
AcMeView
  3
AcMeServices
 90
        0
 91
        0
280
     0
281
     0
  0
CLASS
  1
ACDBENTITYCACHE
  2
AcMeEntityCache
  3
AcMeServices
 90
        0
 91
        0
280
     0
281
     0
  0
CLASS
  1
GSMANAGER
  2
AcMeGSManager
  3
AcMeServices
 90
        0
 91
        0
280
     0
281
     0
  0
CLASS
  1
AMDTINTERNALREACTOR
  2
AmdtInternalReactor
  3
AcMeServices
 90
        0
 91
        0
280
     0
281
     0
  0
CLASS
  1
ACMESTATEMGR
  2
AcMeStateMgr
  3
AcMeServices
 90
        0
 91
        0
280
     0
281
     0
  0
CLASS
  1
ACGREFMASTER
  2
AcGrefMaster
  3
AcAttribServices
 90
        0
 91
        0
280
     0
281
     0
  0
CLASS
  1
AM_DRAWING_MGR
  2
AcDmDwgMgr
  3
AcMechDwgViewMgmt
 90
        0
 91
        0
280
     0
281
     0
  0
CLASS
  1
AM_DWG_DOCUMENT
  2
AcDmDwgDocument
  3
AcMechDwgViewMgmt
 90
        0
 91
        0
280
     0
281
     0
  0
CLASS
  1
AM_DWG_SHEET
  2
AcDmSheet
  3
AcMechDwgViewMgmt
 90
        0
 91
        0
280
     0
281
     0
  0
CLASS
  1
AM_VIEWDIMPARMAP
  2
AcDmViewDimParMap
  3
AcMechDwgViewMgmt
 90
        0
 91
        0
280
     0
281
     0
  0
CLASS
  1
ACIMREALSYSVAR
  2
AcImRealSysVar
  3
AcMeServices
 90
        0
 91
        0
280
     0
281
     0
  0
CLASS
  1
AM_DWGMGR_NAME
  2
AcDmDwgMgrName
  3
AcMechDwgViewMgmt
 90
        0
 91
        0
280
     0
281
     0
  0
CLASS
  1
ACME_DATABASE
  2
AcMeDbDatabase
  3
AcMeServices
 90
        0
 91
        0
280
     0
281
     0
  0
CLASS
  1
ACRFINSADJUSTERMGR
  2
AcRfInsAdjusterMgr
  3
AcMeServices
 90
        0
 91
        0
280
     0
281
     0
  0
CLASS
  1
ACGREFACADMASTER
  2
AcGrefacadMaster
  3
AcGrefServices
 90
        0
 91
        0
280
     0
281
     0
  0
CLASS
  1
AMDTMENUSTATEMGR
  2
AmdtMenuStateMgr
  3
McadcomServices
 90
        0
 91
        0
280
     0
281
     0
  0
CLASS
  1
AMDTMCOMMENUSTATE
  2
AmdtMcomMenuState
  3
McadcomServices
 90
        0
 91
        0
280
     0
281
     0
  0
CLASS
  1
AMIMASTER
  2
AmiMaster
  3
AmiServices
 90
        0
 91
        0
280
     0
281
     0
  0
CLASS
  1
MAPIAMMOUDLE
  2
MApiAmModule
  3
MApiAmServices
 90
        0
 91
        0
280
     0
281
     0
  0
CLASS
  1
AMDTADMENUSTATE
  2
AmdtAdMenuState
  3
DesignerServices
 90
        0
 91
        0
280
     0
281
     0
  0
CLASS
  1
ADAPPL
  2
AcAdAppl
  3
DesignerServices
 90
        0
 91
        0
280
     0
281
     0
  0
CLASS
  1
DEPMGR
  2
AcAdDepMgr
  3
DesignerServices
 90
        0
 91
        0
280
     0
281
     0
  0
CLASS
  1
PARAMMGR
  2
AcAdParamMgr
  3
DesignerServices
 90
        0
 91
        0
280
     0
281
     0
  0
CLASS
  1
PARAMSCOPE
  2
AcAdParamScope
  3
DesignerServices
 90
        0
 91
        0
280
     0
281
     0
  0
CLASS
  1
NAMEDAPPL
  2
AcAdNamedAppl
  3
DesignerServices
 90
        0
 91
        0
280
     0
281
     0
  0
CLASS
  1
AMDTDMMENUSTATE
  2
AmdtDmMenuState
  3
AcMechDwgViewMgmt
 90
        0
 91
        0
280
     0
281
     0
  0
CLASS
  1
AMDTAMMENUSTATE
  2
AmdtAmMenuState
  3
DesignerAssemblies
 90
        0
 91
        0
280
     0
281
     0
  0
CLASS
  1
ACIMSTRSYSVAR
  2
AcImStrSysVar
  3
AcMeServices
 90
        0
 91
        0
280
     0
281
     0
  0
CLASS
  1
ACAMPROJECT
  2
AcAmProject
  3
DesignerAssemblies
 90
        0
 91
        0
280
     0
281
     0
  0
CLASS
  1
ACAMGRCOMPDEF
  2
AcAmGrCompDef
  3
DesignerAssemblies
 90
        0
 91
        0
280
     0
281
     0
  0
CLASS
  1
ACCMCONTEXT
  2
AcCmContext
  3
DesignerAssemblies
 90
        0
 91
        0
280
     0
281
     0
  0
CLASS
  1
ACAMCOMPDEF
  2
AcAmCompDef
  3
DesignerAssemblies
 90
        0
 91
        0
280
     0
281
     0
  0
CLASS
  1
ACAMCOMPDEFMGR
  2
AcAmCompDefMgr
  3
DesignerAssemblies
 90
        0
 91
        0
280
     0
281
     0
  0
CLASS
  1
AMCONTEXTMGR
  2
AcAmContextMgr
  3
DesignerAssemblies
 90
        0
 91
        0
280
     0
281
     0
  0
CLASS
  1
ACAMCONTEXTMODELER
  2
AcAmContextModeler
  3
DesignerAssemblies
 90
        0
 91
        0
280
     0
281
     0
  0
CLASS
  1
ACMDATADICTIONARY
  2
AcmDataDictionary
  3
"AcmSymBB|Product Description: AutoCAD Mechanical 2004 DX|Company: Autodesk"
 90
        0
 91
        0
280
     0
281
     0
  0
CLASS
  1
CATALOGSTATE
  2
AcAmCatalogState
  3
DesignerAssemblies
 90
        0
 91
        0
280
     0
281
     0
  0
CLASS
  1
ACAMGRCOMPDEFSET
  2
AcAmGrCompDefSet
  3
DesignerAssemblies
 90
        0
 91
        0
280
     0
281
     0
  0
CLASS
  1
AMDTBROWSERDBTAB
  2
AmdtBrowserDbTab
  3
McadcomServices
 90
        0
 91
        0
280
     0
281
     0
  0
CLASS
  1
CBROWSERAPPOBJECT
  2
CBrowserAppObject
  3
McadcomServices
 90
        0
 91
        0
280
     0
281
     0
  0
CLASS
  1
DM_PLACEHOLDER
  2
AcDmSelsetPlaceholder
  3
AcMechDwgViewMgmt
 90
        0
 91
        0
280
     0
281
     0
  0
CLASS
  1
ACMSTANDARDANSI
  2
AcmStandardANSI
  3
"Amdt_StdImp|Product Description: AutoCAD Mechanical 2004 DX|Company: Autodesk"
 90
        0
 91
        0
280
     0
281
     0
  0
CLASS
  1
AMGOBJPROPCFG
  2
AmgObjPropCfg
  3
"AmgLay|Product Description: AutoCAD Mechanical 2000|Company: Autodesk"
 90
        1
 91
        0
280
     0
281
     0
  0
CLASS
  1
ACMSURFSTANDARDANSI
  2
AcmSurfTextStdANSI
  3
"Amdt_StdImp|Product Description: AutoCAD Mechanical 2004 DX|Company: Autodesk"
 90
        0
 91
        0
280
     0
281
     0
  0
CLASS
  1
ACMFCFSTANDARDANSI
  2
AcmFCFStdANSI
  3
"Amdt_StdImp|Product Description: AutoCAD Mechanical 2004 DX|Company: Autodesk"
 90
        0
 91
        0
280
     0
281
     0
  0
CLASS
  1
ACMWELDSTANDARDANSI
  2
AcmWeldingStdANSI
  3
"Amdt_StdImp|Product Description: AutoCAD Mechanical 2004 DX|Company: Autodesk"
 90
        0
 91
        0
280
     0
281
     0
  0
CLASS
  1
ACMIDSTANDARDANSI
  2
AcmIdStdANSI
  3
"Amdt_StdImp|Product Description: AutoCAD Mechanical 2004 DX|Company: Autodesk"
 90
        0
 91
        0
280
     0
281
     0
  0
CLASS
  1
ACMDATUMSTANDARDANSI
  2
AcmDatumStdANSI
  3
"Amdt_StdImp|Product Description: AutoCAD Mechanical 2004 DX|Company: Autodesk"
 90
        0
 91
        0
280
     0
281
     0
  0
CLASS
  1
ACMBOMSTANDARDANSI
  2
AcmBOMStdANSI
  3
"Amdt_StdImp|Product Description: AutoCAD Mechanical 2004 DX|Company: Autodesk"
 90
        0
 91
        0
280
     0
281
     0
  0
CLASS
  1
ACMDETAILSTANDARDANSI
  2
AmdtDetailSymStdANSI
  3
"Amdt_StdImp|Product Description: AutoCAD Mechanical 2004 DX|Company: Autodesk"
 90
        0
 91
        0
280
     0
281
     0
  0
CLASS
  1
ACMSECTIONSTANDARDANSI
  2
AmdtSectionSymStdANSI
  3
"Amdt_StdImp|Product Description: AutoCAD Mechanical 2004 DX|Company: Autodesk"
 90
        0
 91
        0
280
     0
281
     0
  0
CLASS
  1
ACMCENTERLINESTANDARDANSI
  2
AmdtCenterLineStdANSI
  3
"Amdt_StdImp|Product Description: AutoCAD Mechanical 2004 DX|Company: Autodesk"
 90
        0
 91
        0
280
     0
281
     0
  0
CLASS
  1
ACMTHREADLINESTANDARDANSI
  2
AmdtThreadLineStdANSI
  3
"Amdt_StdImp|Product Description: AutoCAD Mechanical 2004 DX|Company: Autodesk"
 90
        0
 91
        0
280
     0
281
     0
  0
CLASS
  1
ACMNOTESTANDARDANSI
  2
AmdtNoteStdANSI
  3
"Amdt_StdImp|Product Description: AutoCAD Mechanical 2004 DX|Company: Autodesk"
 90
        0
 91
        0
280
     0
281
     0
  0
CLASS
  1
AMDTNOTETEMPLATEDB
  2
AmdtNoteTemplateDB
  3
AMDT_STDIMP_MODULE_NAME
 90
        0
 91
        0
280
     0
281
     0
  0
CLASS
  1
ACAMGLAYSTD
  2
AcAmgLayStd
  3
"AcAmgLayStd|Product Description: AutoCAD Mechanical 2000|Company: Autodesk"
 90
        0
 91
        0
280
     0
281
     0
  0
CLASS
  1
ACAMGDIMSTD
  2
AcAmgDimStd
  3
"AcAmgDimStd|Product Description: AutoCAD Mechanical 2000|Company: Autodesk"
 90
        0
 91
        0
280
     0
281
     0
  0
CLASS
  1
ACAMGHOLECHARTSTDANSI
  2
AcAmgHoleChartStdANSI
  3
ACMSYMBB_MODULE_NAME
 90
        0
 91
        0
280
     0
281
     0
  0
CLASS
  1
ACAMGTITLESTD
  2
AcAmgTitleStd
  3
"TITLEAPP"
 90
        0
 91
        0
280
     0
281
     0
  0
CLASS
  1
ACAMGFILTERDAT
  2
AcAmgFilterDat
  3
"AcadM|Product Description: AutoCAD Mechanical 2000|Company: Autodesk"
 90
        0
 91
        0
280
     0
281
     0
  0
CLASS
  1
LAYER_INDEX
  2
AcDbLayerIndex
  3
ObjectDBX Classes
 90
        0
 91
        1
280
     0
281
     0
  0
CLASS
  1
IDBUFFER
  2
AcDbIdBuffer
  3
ObjectDBX Classes
 90
        0
 91
       10
280
     0
281
     0
  0
CLASS
  1
ACRFATTGENMGR
  2
AcRfAttGeneralMgr
  3
AcAttribServices
 90
        0
 91
        0
280
     0
281
     0
  0
CLASS
  1
DICTIONARYVAR
  2
AcDbDictionaryVar
  3
ObjectDBX Classes
 90
        0
 91
        4
280
     0
281
     0
  0
CLASS
  1
DIMASSOC
  2
AcDbDimAssoc
  3
"AcDbDimAssoc|Product Desc:     AcDim ARX App For Dimension|Company:          Autodesk, Inc.|WEB Address:      www.autodesk.com"
 90
        0
 91
        0
280
     0
281
     0
  0
ENDSEC
  0
SECTION
  2
TABLES
  0
TABLE
  2
VPORT
  5
8
330
0
100
AcDbSymbolTable
 70
     2
  0
VPORT
  5
107C
330
8
100
AcDbSymbolTableRecord
100
AcDbViewportTableRecord
  2
*Active
 70
     0
 10
0.0
 20
0.0
 11
1.0
 21
1.0
 12
297.0000027661125
 22
420.0000039116746
 13
0.0
 23
0.0
 14
2.5
 24
2.5
 15
10.0
 25
10.0
 16
0.0
 26
0.0
 36
1.0
 17
0.0
 27
0.0
 37
0.0
 40
846.8866811597655
 41
1.336927223719676
 42
50.0
 43
0.0
 44
0.0
 50
0.0
 51
0.0
 71
     0
 72
   500
 73
     1
 74
     0
 75
     0
 76
     0
 77
     0
 78
     0
281
     0
 65
     1
110
0.0
120
0.0
130
0.0
111
1.0
121
0.0
131
0.0
112
0.0
122
1.0
132
0.0
 79
     0
146
0.0
  0
ENDTAB
  0
TABLE
  2
LTYPE
  5
5
330
0
100
AcDbSymbolTable
 70
     3
  0
LTYPE
  5
13
330
5
100
AcDbSymbolTableRecord
100
AcDbLinetypeTableRecord
  2
ByBlock
 70
     0
  3

 72
    65
 73
     0
 40
0.0
  0
LTYPE
  5
14
330
5
100
AcDbSymbolTableRecord
100
AcDbLinetypeTableRecord
  2
ByLayer
 70
     0
  3

 72
    65
 73
     0
 40
0.0
  0
LTYPE
  5
15
330
5
100
AcDbSymbolTableRecord
100
AcDbLinetypeTableRecord
  2
Continuous
 70
     0
  3
Solid line
 72
    65
 73
     0
 40
0.0
  0
LTYPE
  5
3E
330
5
100
AcDbSymbolTableRecord
100
AcDbLinetypeTableRecord
  2
STRICHPUNKT
 70
     0
  3
__ . __ . __ . __ . __ . __ . __ . __ . __ . __
 72
    65
 73
     4
 40
1.0
 49
0.5
 74
     0
 49
-0.25
 74
     0
 49
0.0
 74
     0
 49
-0.25
 74
     0
  0
LTYPE
  5
3F
330
5
100
AcDbSymbolTableRecord
100
AcDbLinetypeTableRecord
  2
VERDECKT
 70
     0
  3
_ _ _ _ _ _ _ _ _ _ _ _ _ _ _ _ _ _ _ _ _ _ _
 72
    65
 73
     2
 40
0.375
 49
0.25
 74
     0
 49
-0.125
 74
     0
  0
ENDTAB
  0
TABLE
  2
LAYER
  5
2
330
0
100
AcDbSymbolTable
 70
    10
  0
LAYER
  5
10
330
2
100
AcDbSymbolTableRecord
100
AcDbLayerTableRecord
  2
0
 70
     0
 62
     7
  6
Continuous
370
    -3
390
F
  0
LAYER
  5
42
330
2
100
AcDbSymbolTableRecord
100
AcDbLayerTableRecord
  2
VOLL
 70
     0
 62
     1
  6
Continuous
370
    -3
390
F
  0
LAYER
  5
43
330
2
100
AcDbSymbolTableRecord
100
AcDbLayerTableRecord
  2
MITTEL
 70
     0
 62
     2
  6
STRICHPUNKT
370
    -3
390
F
  0
LAYER
  5
44
330
2
100
AcDbSymbolTableRecord
100
AcDbLayerTableRecord
  2
BEM
 70
     0
 62
     7
  6
Continuous
370
    -3
390
F
  0
LAYER
  5
45
330
2
100
AcDbSymbolTableRecord
100
AcDbLayerTableRecord
  2
HILF
 70
     0
 62
     2
  6
Continuous
370
    -3
390
F
  0
LAYER
  5
46
330
2
100
AcDbSymbolTableRecord
100
AcDbLayerTableRecord
  2
STEMPEL
 70
     0
 62
     3
  6
Continuous
370
    -3
390
F
  0
LAYER
  5
47
330
2
100
AcDbSymbolTableRecord
100
AcDbLayerTableRecord
  2
VERDECKT
 70
     0
 62
     6
  6
VERDECKT
370
    -3
390
F
  0
LAYER
  5
48
330
2
100
AcDbSymbolTableRecord
100
AcDbLayerTableRecord
  2
DEFPOINTS
 70
     0
 62
     7
  6
Continuous
290
     0
370
    -3
390
F
  0
LAYER
  5
49
330
2
100
AcDbSymbolTableRecord
100
AcDbLayerTableRecord
  2
SCHRAFF
 70
     0
 62
     7
  6
Continuous
370
    -3
390
F
  0
LAYER
  5
45B
330
2
100
AcDbSymbolTableRecord
100
AcDbLayerTableRecord
  2
TEXT
 70
     0
 62
     7
  6
Continuous
370
    -3
390
F
  0
ENDTAB
  0
TABLE
  2
STYLE
  5
3
330
0
100
AcDbSymbolTable
 70
     2
  0
STYLE
  5
11
330
3
100
AcDbSymbolTableRecord
100
AcDbTextStyleTableRecord
  2
STANDARD
 70
     0
 40
0.0
 41
0.8
 50
0.0
 71
     0
 42
3.5
  3
simplex.shx
  4

  0
STYLE
  5
3D
330
3
100
AcDbSymbolTableRecord
100
AcDbTextStyleTableRecord
  2
GREEKS
 70
     0
 40
0.0
 41
0.8
 50
0.0
 71
     0
 42
1.8
  3
SIMPLEX.shx
  4

  0
ENDTAB
  0
TABLE
  2
VIEW
  5
6
330
0
100
AcDbSymbolTable
 70
     0
  0
ENDTAB
  0
TABLE
  2
UCS
  5
7
330
0
100
AcDbSymbolTable
 70
     0
  0
ENDTAB
  0
TABLE
  2
APPID
  5
9
330
0
100
AcDbSymbolTable
 70
     8
  0
APPID
  5
12
330
9
100
AcDbSymbolTableRecord
100
AcDbRegAppTableRecord
  2
ACAD
 70
     0
  0
APPID
  5
3C1
330
9
100
AcDbSymbolTableRecord
100
AcDbRegAppTableRecord
  2
MCAD_NO_VIS
 70
     0
  0
APPID
  5
3C2
330
9
100
AcDbSymbolTableRecord
100
AcDbRegAppTableRecord
  2
ACAD_TEMP_GRAPHIC
 70
     0
  0
APPID
  5
3F2
330
9
100
AcDbSymbolTableRecord
100
AcDbRegAppTableRecord
  2
AD_DRAW
 70
     0
  0
APPID
  5
3F5
330
9
100
AcDbSymbolTableRecord
100
AcDbRegAppTableRecord
  2
ACATTRIBSERVICES
 70
     0
  0
APPID
  5
413
330
9
100
AcDbSymbolTableRecord
100
AcDbRegAppTableRecord
  2
DESIGNERASSEMBLIES
 70
     0
  0
APPID
  5
419
330
9
100
AcDbSymbolTableRecord
100
AcDbRegAppTableRecord
  2
ACADM_DIM_EDIT
 70
     0
  0
APPID
  5
41A
330
9
100
AcDbSymbolTableRecord
100
AcDbRegAppTableRecord
  2
AMDT_DM_ADJ
 70
     0
  0
ENDTAB
  0
TABLE
  2
DIMSTYLE
  5
A
330
0
100
AcDbSymbolTable
 70
     1
100
AcDbDimStyleTable
 71
     1
340
3B9
  0
DIMSTYLE
105
3B9
102
{ACAD_REACTORS
330
3AE
330
3A5
330
3A3
330
39D
330
3B6
330
3A0
102
}
330
A
100
AcDbSymbolTableRecord
100
AcDbDimStyleTableRecord
  2
Standard
 70
     0
340
11
  0
ENDTAB
  0
TABLE
  2
BLOCK_RECORD
  5
1
330
0
100
AcDbSymbolTable
 70
     8
  0
BLOCK_RECORD
  5
20
102
{ACAD_XDICTIONARY
360
50C
102
}
330
1
100
AcDbSymbolTableRecord
100
AcDbBlockTableRecord
  2
*Model_Space
340
23
  0
BLOCK_RECORD
  5
1C
330
1
100
AcDbSymbolTableRecord
100
AcDbBlockTableRecord
  2
*Paper_Space
340
1F
  0
BLOCK_RECORD
  5
24
330
1
100
AcDbSymbolTableRecord
100
AcDbBlockTableRecord
  2
LOGO
340
0
102
{BLKREFS
331
32E
102
}
  0
BLOCK_RECORD
  5
27
330
1
100
AcDbSymbolTableRecord
100
AcDbBlockTableRecord
  2
*X1
340
0
102
{BLKREFS
331
39C
331
1004
102
}
  0
BLOCK_RECORD
  5
8A5
330
1
100
AcDbSymbolTableRecord
100
AcDbBlockTableRecord
  2
*D2
340
0
  0
BLOCK_RECORD
  5
C6C
330
1
100
AcDbSymbolTableRecord
100
AcDbBlockTableRecord
  2
*D3
340
0
  0
BLOCK_RECORD
  5
D3E
330
1
100
AcDbSymbolTableRecord
100
AcDbBlockTableRecord
  2
*D4
340
0
  0
BLOCK_RECORD
  5
DB2
330
1
100
AcDbSymbolTableRecord
100
AcDbBlockTableRecord
  2
*D5
340
0
  0
BLOCK_RECORD
  5
DE4
330
1
100
AcDbSymbolTableRecord
100
AcDbBlockTableRecord
  2
*D6
340
0
  0
BLOCK_RECORD
  5
E39
330
1
100
AcDbSymbolTableRecord
100
AcDbBlockTableRecord
  2
*D7
340
0
  0
ENDTAB
  0
ENDSEC
  0
SECTION
  2
BLOCKS
  0
BLOCK
  5
4D
330
20
100
AcDbEntity
  8
0
100
AcDbBlockBegin
  2
*Model_Space
 70
     0
 10
0.0
 20
0.0
 30
0.0
  3
*Model_Space
  1

  0
ENDBLK
  5
4E
330
20
100
AcDbEntity
  8
0
100
AcDbBlockEnd
  0
BLOCK
  5
4B
330
1C
100
AcDbEntity
 67
     1
  8
0
100
AcDbBlockBegin
  2
*Paper_Space
 70
     0
 10
0.0
 20
0.0
 30
0.0
  3
*Paper_Space
  1

  0
ENDBLK
  5
4C
330
1C
100
AcDbEntity
 67
     1
  8
0
100
AcDbBlockEnd
  0
BLOCK
  5
4F
330
24
100
AcDbEntity
  8
0
100
AcDbBlockBegin
  2
LOGO
 70
     0
 10
0.0
 20
0.0
 30
0.0
  3
LOGO
  1

  0
ARC
  5
50
330
24
100
AcDbEntity
  8
0
100
AcDbCircle
 10
11.59973089678112
 20
-9.271599258481501
 30
0.0
 40
4.5
100
AcDbArc
 50
270.0
 51
231.0575587310159
  0
LINE
  5
51
330
24
100
AcDbEntity
  8
0
100
AcDbLine
 10
3.599730896781125
 20
-4.771599258481529
 30
0.0
 11
3.599730896781153
 21
-11.77159925848133
 31
0.0
  0
LINE
  5
52
330
24
100
AcDbEntity
  8
0
100
AcDbLine
 10
2.599730896781125
 20
-4.771599258481529
 30
0.0
 11
2.599730896781153
 21
-11.77159925848133
 31
0.0
  0
CIRCLE
  5
53
330
24
100
AcDbEntity
  8
0
100
AcDbCircle
 10
11.59973089678112
 20
-9.271599258481501
 30
0.0
 40
3.5
  0
ARC
  5
54
330
24
100
AcDbEntity
  8
0
100
AcDbCircle
 10
31.59973089678115
 20
-9.271599258481472
 30
0.0
 40
4.5
100
AcDbArc
 50
270.0
 51
231.0575587310182
  0
LINE
  5
55
330
24
100
AcDbEntity
  8
0
100
AcDbLine
 10
17.59973089678112
 20
-4.771599258481472
 30
0.0
 11
17.59973089678115
 21
-13.77159925848147
 31
0.0
  0
ARC
  5
56
330
24
100
AcDbEntity
  8
0
100
AcDbCircle
 10
22.59973089678116
 20
-7.271599258481472
 30
0.0
 40
2.5
100
AcDbArc
 50
293.1161887722295
 51
90.0
  0
CIRCLE
  5
57
330
24
100
AcDbEntity
  8
0
100
AcDbCircle
 10
31.59973089678115
 20
-9.271599258481472
 30
0.0
 40
3.5
  0
ARC
  5
58
330
24
100
AcDbEntity
  8
0
100
AcDbCircle
 10
4.599730896781153
 20
-11.77159925848133
 30
0.0
 40
1.0
100
AcDbArc
 50
180.0
 51
270.0
  0
ARC
  5
59
330
24
100
AcDbEntity
  8
0
100
AcDbCircle
 10
4.599730896781153
 20
-11.77159925848133
 30
0.0
 40
2.0
100
AcDbArc
 50
179.9999999999992
 51
270.0
  0
LINE
  5
5A
330
24
100
AcDbEntity
  8
0
100
AcDbLine
 10
11.59973089678115
 20
-13.77159925848144
 30
0.0
 11
4.599730896781153
 21
-13.77159925848147
 31
0.0
  0
LINE
  5
5B
330
24
100
AcDbEntity
  8
0
100
AcDbLine
 10
8.771303772034769
 20
-12.77159925848136
 30
0.0
 11
4.599730896781153
 21
-12.77159925848133
 31
0.0
  0
LINE
  5
5C
330
24
100
AcDbEntity
  8
0
100
AcDbLine
 10
31.59973089678115
 20
-13.77159925848147
 30
0.0
 11
23.6715276665056
 21
-13.77159925848144
 31
0.0
  0
LINE
  5
5D
330
24
100
AcDbEntity
  8
0
100
AcDbLine
 10
23.56565672307022
 20
-9.51278021337896
 30
0.0
 11
24.4388546544846
 21
-12.77159925848144
 31
0.0
  0
LINE
  5
5E
330
24
100
AcDbEntity
  8
0
100
AcDbLine
 10
22.59973089678116
 20
-9.771599258481472
 30
0.0
 11
18.59973089678112
 21
-9.771599258481472
 31
0.0
  0
LINE
  5
5F
330
24
100
AcDbEntity
  8
0
100
AcDbLine
 10
18.59973089678115
 20
-13.77159925848144
 30
0.0
 11
17.59973089678115
 21
-13.77159925848144
 31
0.0
  0
LINE
  5
60
330
24
100
AcDbEntity
  8
0
100
AcDbLine
 10
18.59973089678115
 20
-9.771599258481472
 30
0.0
 11
18.59973089678115
 21
-13.77159925848144
 31
0.0
  0
LINE
  5
61
330
24
100
AcDbEntity
  8
0
100
AcDbLine
 10
22.59973089678116
 20
-9.771599258481472
 30
0.0
 11
23.67152766650562
 21
-13.77159925848147
 31
0.0
  0
ARC
  5
62
330
24
100
AcDbEntity
  8
0
100
AcDbCircle
 10
22.59973089678116
 20
-7.271599258481472
 30
0.0
 40
2.5
100
AcDbArc
 50
270.0
 51
270.0000000000007
  0
LINE
  5
63
330
24
100
AcDbEntity
  8
0
100
AcDbLine
 10
28.77130377203494
 20
-12.77159925848147
 30
0.0
 11
24.43885465448463
 21
-12.77159925848144
 31
0.0
  0
LINE
  5
64
330
24
100
AcDbEntity
  8
0
100
AcDbLine
 10
3.599730896781125
 20
-4.771599258481472
 30
0.0
 11
2.599730896781125
 21
-4.771599258481472
 31
0.0
  0
LINE
  5
65
330
24
100
AcDbEntity
  8
0
100
AcDbLine
 10
22.59973089678116
 20
-8.771599258481472
 30
0.0
 11
18.59973089678115
 21
-8.771599258481472
 31
0.0
  0
LINE
  5
66
330
24
100
AcDbEntity
  8
0
100
AcDbLine
 10
22.59973089678116
 20
-5.771599258481472
 30
0.0
 11
18.59973089678115
 21
-5.771599258481472
 31
0.0
  0
LINE
  5
67
330
24
100
AcDbEntity
  8
0
100
AcDbLine
 10
22.59973089678116
 20
-4.771599258481472
 30
0.0
 11
17.59973089678115
 21
-4.771599258481472
 31
0.0
  0
LINE
  5
68
330
24
100
AcDbEntity
  8
0
100
AcDbLine
 10
18.59973089678115
 20
-5.771599258481472
 30
0.0
 11
18.59973089678115
 21
-8.771599258481472
 31
0.0
  0
ARC
  5
69
330
24
100
AcDbEntity
  8
0
100
AcDbCircle
 10
22.59973089678116
 20
-7.271599258481472
 30
0.0
 40
1.5
100
AcDbArc
 50
270.0
 51
90.0
  0
ENDBLK
  5
6A
330
24
100
AcDbEntity
  8
0
100
AcDbBlockEnd
  0
BLOCK
  5
B5
330
27
100
AcDbEntity
  8
0
100
AcDbBlockBegin
  2
*X1
 70
     1
 10
0.0
 20
0.0
 30
0.0
  3
*X1
  1

  0
LINE
  5
B6
330
27
100
AcDbEntity
  8
0
 62
     0
100
AcDbLine
 10
204.709826086458
 20
97.0
 30
0.0
 11
207.0030190911871
 21
97.0
 31
0.0
  0
LINE
  5
B7
330
27
100
AcDbEntity
  8
0
 62
     0
100
AcDbLine
 10
204.6989117346353
 20
97.1
 30
0.0
 11
207.0607541181061
 21
97.1
 31
0.0
  0
LINE
  5
B8
330
27
100
AcDbEntity
  8
0
 62
     0
100
AcDbLine
 10
204.6907698973204
 20
97.2
 30
0.0
 11
207.1184891450251
 21
97.2
 31
0.0
  0
LINE
  5
B9
330
27
100
AcDbEntity
  8
0
 62
     0
100
AcDbLine
 10
204.6853820403213
 20
97.30000000000002
 30
0.0
 11
207.176224171944
 21
97.30000000000002
 31
0.0
  0
LINE
  5
BA
330
27
100
AcDbEntity
  8
0
 62
     0
100
AcDbLine
 10
204.6827359894634
 20
97.40000000000001
 30
0.0
 11
207.233959198863
 21
97.40000000000001
 31
0.0
  0
LINE
  5
BB
330
27
100
AcDbEntity
  8
0
 62
     0
100
AcDbLine
 10
204.6828257921307
 20
97.5
 30
0.0
 11
207.2916942257819
 21
97.5
 31
0.0
  0
LINE
  5
BC
330
27
100
AcDbEntity
  8
0
 62
     0
100
AcDbLine
 10
204.6856516500625
 20
97.60000000000001
 30
0.0
 11
207.3494292527009
 21
97.60000000000001
 31
0.0
  0
LINE
  5
BD
330
27
100
AcDbEntity
  8
0
 62
     0
100
AcDbLine
 10
204.6912199216255
 20
97.70000000000001
 30
0.0
 11
207.4071642796198
 21
97.70000000000001
 31
0.0
  0
LINE
  5
BE
330
27
100
AcDbEntity
  8
0
 62
     0
100
AcDbLine
 10
204.6995431936219
 20
97.80000000000001
 30
0.0
 11
207.4648993065388
 21
97.80000000000001
 31
0.0
  0
LINE
  5
BF
330
27
100
AcDbEntity
  8
0
 62
     0
100
AcDbLine
 10
204.710640424535
 20
97.9
 30
0.0
 11
207.5226343334578
 21
97.9
 31
0.0
  0
LINE
  5
C0
330
27
100
AcDbEntity
  8
0
 62
     0
100
AcDbLine
 10
204.7245371630502
 20
98.0
 30
0.0
 11
207.5803693603767
 21
98.0
 31
0.0
  0
LINE
  5
C1
330
27
100
AcDbEntity
  8
0
 62
     0
100
AcDbLine
 10
204.7412658478056
 20
98.10000000000002
 30
0.0
 11
207.4614705731017
 21
98.10000000000002
 31
0.0
  0
LINE
  5
C2
330
27
100
AcDbEntity
  8
0
 62
     0
100
AcDbLine
 10
204.7608661967487
 20
98.2
 30
0.0
 11
207.2729380953282
 21
98.2
 31
0.0
  0
LINE
  5
C3
330
27
100
AcDbEntity
  8
0
 62
     0
100
AcDbLine
 10
204.783385697319
 20
98.30000000000001
 30
0.0
 11
207.0823971705138
 21
98.30000000000001
 31
0.0
  0
LINE
  5
C4
330
27
100
AcDbEntity
  8
0
 62
     0
100
AcDbLine
 10
204.8088802121247
 20
98.40000000000001
 30
0.0
 11
206.8897967343217
 21
98.40000000000001
 31
0.0
  0
LINE
  5
C5
330
27
100
AcDbEntity
  8
0
 62
     0
100
AcDbLine
 10
204.8374147190488
 20
98.50000000000001
 30
0.0
 11
206.6950833957492
 21
98.50000000000001
 31
0.0
  0
LINE
  5
C6
330
27
100
AcDbEntity
  8
0
 62
     0
100
AcDbLine
 10
204.8690642100999
 20
98.60000000000001
 30
0.0
 11
206.4982012852559
 21
98.60000000000001
 31
0.0
  0
LINE
  5
C7
330
27
100
AcDbEntity
  8
0
 62
     0
100
AcDbLine
 10
204.9039147802257
 20
98.7
 30
0.0
 11
206.2990918898734
 21
98.7
 31
0.0
  0
LINE
  5
C8
330
27
100
AcDbEntity
  8
0
 62
     0
100
AcDbLine
 10
204.942064946282
 20
98.80000000000002
 30
0.0
 11
206.0976938739077
 21
98.80000000000002
 31
0.0
  0
LINE
  5
C9
330
27
100
AcDbEntity
  8
0
 62
     0
100
AcDbLine
 10
204.9836272481987
 20
98.9
 30
0.0
 11
205.8939428836598
 21
98.9
 31
0.0
  0
LINE
  5
CA
330
27
100
AcDbEntity
  8
0
 62
     0
100
AcDbLine
 10
205.0287302002199
 20
99.0
 30
0.0
 11
205.68777133439
 21
99.0
 31
0.0
  0
LINE
  5
CB
330
27
100
AcDbEntity
  8
0
 62
     0
100
AcDbLine
 10
205.077520681577
 20
99.10000000000001
 30
0.0
 11
205.479108177507
 21
99.10000000000001
 31
0.0
  0
LINE
  5
CC
330
27
100
AcDbEntity
  8
0
 62
     0
100
AcDbLine
 10
205.1301668854935
 20
99.20000000000001
 30
0.0
 11
205.2678786456914
 21
99.20000000000001
 31
0.0
  0
LINE
  5
CD
330
27
100
AcDbEntity
  8
0
 62
     0
100
AcDbLine
 10
204.7235380604166
 20
96.90000000000001
 30
0.0
 11
206.9452840642682
 21
96.90000000000001
 31
0.0
  0
LINE
  5
CE
330
27
100
AcDbEntity
  8
0
 62
     0
100
AcDbLine
 10
204.7400796317634
 20
96.80000000000001
 30
0.0
 11
206.8875490373492
 21
96.80000000000001
 31
0.0
  0
LINE
  5
CF
330
27
100
AcDbEntity
  8
0
 62
     0
100
AcDbLine
 10
204.7594900265363
 20
96.70000000000001
 30
0.0
 11
206.8298140104302
 21
96.70000000000001
 31
0.0
  0
LINE
  5
D0
330
27
100
AcDbEntity
  8
0
 62
     0
100
AcDbLine
 10
204.7818162047112
 20
96.60000000000001
 30
0.0
 11
206.7720789835113
 21
96.60000000000001
 31
0.0
  0
LINE
  5
D1
330
27
100
AcDbEntity
  8
0
 62
     0
100
AcDbLine
 10
204.8071134577654
 20
96.5
 30
0.0
 11
206.7143439565923
 21
96.5
 31
0.0
  0
LINE
  5
D2
330
27
100
AcDbEntity
  8
0
 62
     0
100
AcDbLine
 10
204.835446139275
 20
96.4
 30
0.0
 11
206.6566089296733
 21
96.4
 31
0.0
  0
LINE
  5
D3
330
27
100
AcDbEntity
  8
0
 62
     0
100
AcDbLine
 10
204.8668885524674
 20
96.30000000000002
 30
0.0
 11
206.5988739027544
 21
96.30000000000002
 31
0.0
  0
LINE
  5
D4
330
27
100
AcDbEntity
  8
0
 62
     0
100
AcDbLine
 10
204.9015260254381
 20
96.2
 30
0.0
 11
206.5411388758354
 21
96.2
 31
0.0
  0
LINE
  5
D5
330
27
100
AcDbEntity
  8
0
 62
     0
100
AcDbLine
 10
204.9394562135557
 20
96.10000000000001
 30
0.0
 11
206.4834038489165
 21
96.10000000000001
 31
0.0
  0
LINE
  5
D6
330
27
100
AcDbEntity
  8
0
 62
     0
100
AcDbLine
 10
204.9807906802111
 20
96.0
 30
0.0
 11
206.4256688219975
 21
96.0
 31
0.0
  0
LINE
  5
D7
330
27
100
AcDbEntity
  8
0
 62
     0
100
AcDbLine
 10
205.0256568225972
 20
95.90000000000001
 30
0.0
 11
206.3679337950785
 21
95.90000000000001
 31
0.0
  0
LINE
  5
D8
330
27
100
AcDbEntity
  8
0
 62
     0
100
AcDbLine
 10
205.0742002302502
 20
95.80000000000001
 30
0.0
 11
206.3101987681596
 21
95.80000000000001
 31
0.0
  0
LINE
  5
D9
330
27
100
AcDbEntity
  8
0
 62
     0
100
AcDbLine
 10
205.1265875930007
 20
95.7
 30
0.0
 11
206.2524637412406
 21
95.7
 31
0.0
  0
LINE
  5
DA
330
27
100
AcDbEntity
  8
0
 62
     0
100
AcDbLine
 10
205.1830103153298
 20
95.6
 30
0.0
 11
206.1947287143217
 21
95.6
 31
0.0
  0
LINE
  5
DB
330
27
100
AcDbEntity
  8
0
 62
     0
100
AcDbLine
 10
205.2436890513481
 20
95.5
 30
0.0
 11
206.1369936874027
 21
95.5
 31
0.0
  0
LINE
  5
DC
330
27
100
AcDbEntity
  8
0
 62
     0
100
AcDbLine
 10
205.3088794572211
 20
95.4
 30
0.0
 11
206.0792586604837
 21
95.4
 31
0.0
  0
LINE
  5
DD
330
27
100
AcDbEntity
  8
0
 62
     0
100
AcDbLine
 10
205.3788795794919
 20
95.30000000000001
 30
0.0
 11
206.0215236335647
 21
95.30000000000001
 31
0.0
  0
LINE
  5
DE
330
27
100
AcDbEntity
  8
0
 62
     0
100
AcDbLine
 10
205.4540394807317
 20
95.20000000000001
 30
0.0
 11
205.9637886066458
 21
95.20000000000001
 31
0.0
  0
LINE
  5
DF
330
27
100
AcDbEntity
  8
0
 62
     0
100
AcDbLine
 10
205.5347739860171
 20
95.10000000000001
 30
0.0
 11
205.9060535797268
 21
95.10000000000001
 31
0.0
  0
LINE
  5
E0
330
27
100
AcDbEntity
  8
0
 62
     0
100
AcDbLine
 10
205.6215798805635
 20
95.0
 30
0.0
 11
205.8483185528079
 21
95.0
 31
0.0
  0
LINE
  5
E1
330
27
100
AcDbEntity
  8
0
 62
     0
100
AcDbLine
 10
205.7150596190264
 20
94.9
 30
0.0
 11
205.7905835258889
 21
94.9
 31
0.0
  0
ENDBLK
  5
E2
330
27
100
AcDbEntity
  8
0
100
AcDbBlockEnd
  0
BLOCK
  5
8AF
330
8A5
100
AcDbEntity
  8
0
100
AcDbBlockBegin
  2
*D2
 70
     1
 10
0.0
 20
0.0
 30
0.0
  3
*D2
  1

  0
LINE
  5
106F
330
8A5
100
AcDbEntity
  8
BEM
 62
     0
370
    -2
100
AcDbLine
 10
260.7919689528726
 20
658.1328802412717
 30
0.0
 11
352.4167167926825
 21
658.1328802412717
 31
0.0
  0
LINE
  5
1070
330
8A5
100
AcDbEntity
  8
BEM
 62
     0
370
    -2
100
AcDbLine
 10
235.854525635243
 20
408.1328802412719
 30
0.0
 11
352.4167167926824
 21
408.1328802412719
 31
0.0
  0
LINE
  5
1071
330
8A5
100
AcDbEntity
  8
BEM
 62
     0
370
    -2
100
AcDbLine
 10
350.4167167926825
 20
651.1328802412718
 30
0.0
 11
350.4167167926824
 21
415.1328802412719
 31
0.0
  0
SOLID
  5
1072
330
8A5
100
AcDbEntity
  8
BEM
 62
     0
100
AcDbTrace
 10
349.2500501260157
 20
651.1328802412718
 30
0.0
 11
351.5833834593491
 21
651.1328802412718
 31
0.0
 12
350.4167167926825
 22
658.1328802412717
 32
0.0
 13
350.4167167926825
 23
658.1328802412717
 33
0.0
  0
SOLID
  5
1073
330
8A5
100
AcDbEntity
  8
BEM
 62
     0
100
AcDbTrace
 10
349.2500501260157
 20
415.1328802412719
 30
0.0
 11
351.5833834593491
 21
415.1328802412719
 31
0.0
 12
350.4167167926824
 22
408.1328802412719
 32
0.0
 13
350.4167167926824
 23
408.1328802412719
 33
0.0
  0
MTEXT
  5
1074
330
8A5
100
AcDbEntity
  8
BEM
 62
     1
100
AcDbMText
 10
343.9167167926823
 20
533.132880241272
 30
0.0
 40
7.0
 41
0.0
 71
     5
 72
     1
  1
\A1;250
 11
0.0000000000000001
 21
1.0
 31
0.0
 73
     1
 44
1.0
  0
POINT
  5
1075
330
8A5
100
AcDbEntity
  8
DEFPOINTS
 62
     0
100
AcDbPoint
 10
258.7919689528726
 20
658.1328802412717
 30
0.0
  0
POINT
  5
1076
330
8A5
100
AcDbEntity
  8
DEFPOINTS
 62
     0
100
AcDbPoint
 10
233.854525635243
 20
408.1328802412719
 30
0.0
  0
POINT
  5
1077
330
8A5
100
AcDbEntity
  8
DEFPOINTS
 62
     0
100
AcDbPoint
 10
350.4167167926824
 20
408.1328802412719
 30
0.0
  0
ENDBLK
  5
8B0
330
8A5
100
AcDbEntity
  8
0
100
AcDbBlockEnd
  0
BLOCK
  5
C76
330
C6C
100
AcDbEntity
  8
0
100
AcDbBlockBegin
  2
*D3
 70
     1
 10
0.0
 20
0.0
 30
0.0
  3
*D3
  1

  0
LINE
  5
DD0
330
C6C
100
AcDbEntity
  8
BEM
 62
     0
370
    -2
100
AcDbLine
 10
181.2919689528726
 20
411.1328802412719
 30
0.0
 11
181.2919689528726
 21
385.0378539384013
 31
0.0
  0
LINE
  5
DD1
330
C6C
100
AcDbEntity
  8
BEM
 62
     0
370
    -2
100
AcDbLine
 10
234.2919689528726
 20
411.1328802412719
 30
0.0
 11
234.2919689528726
 21
385.0378539384013
 31
0.0
  0
LINE
  5
DD2
330
C6C
100
AcDbEntity
  8
BEM
 62
     0
370
    -2
100
AcDbLine
 10
188.2919689528726
 20
387.0378539384013
 30
0.0
 11
227.2919689528726
 21
387.0378539384013
 31
0.0
  0
SOLID
  5
DD3
330
C6C
100
AcDbEntity
  8
BEM
 62
     0
100
AcDbTrace
 10
188.2919689528726
 20
388.204520605068
 30
0.0
 11
188.2919689528726
 21
385.8711872717346
 31
0.0
 12
181.2919689528726
 22
387.0378539384013
 32
0.0
 13
181.2919689528726
 23
387.0378539384013
 33
0.0
  0
SOLID
  5
DD4
330
C6C
100
AcDbEntity
  8
BEM
 62
     0
100
AcDbTrace
 10
227.2919689528726
 20
388.204520605068
 30
0.0
 11
227.2919689528726
 21
385.8711872717346
 31
0.0
 12
234.2919689528726
 22
387.0378539384013
 32
0.0
 13
234.2919689528726
 23
387.0378539384013
 33
0.0
  0
MTEXT
  5
DD5
330
C6C
100
AcDbEntity
  8
BEM
 62
     1
100
AcDbMText
 10
207.7919689528726
 20
393.5378539384013
 30
0.0
 40
7.0
 41
0.0
 71
     5
 72
     1
  1
\A1;%%c53
 73
     1
 44
1.0
  0
POINT
  5
DD6
330
C6C
100
AcDbEntity
  8
DEFPOINTS
 62
     0
100
AcDbPoint
 10
181.2919689528726
 20
413.1328802412719
 30
0.0
  0
POINT
  5
DD7
330
C6C
100
AcDbEntity
  8
DEFPOINTS
 62
     0
100
AcDbPoint
 10
234.2919689528726
 20
413.1328802412719
 30
0.0
  0
POINT
  5
DD8
330
C6C
100
AcDbEntity
  8
DEFPOINTS
 62
     0
100
AcDbPoint
 10
234.2919689528726
 20
387.0378539384013
 30
0.0
  0
ENDBLK
  5
C77
330
C6C
100
AcDbEntity
  8
0
100
AcDbBlockEnd
  0
BLOCK
  5
D4A
330
D3E
100
AcDbEntity
  8
0
100
AcDbBlockBegin
  2
*D4
 70
     1
 10
0.0
 20
0.0
 30
0.0
  3
*D4
  1

  0
LINE
  5
1052
330
D3E
100
AcDbEntity
  8
BEM
 62
     0
370
    -2
100
AcDbLine
 10
320.2919689528726
 20
656.1328802412718
 30
0.0
 11
337.3445217203236
 21
656.1328802412718
 31
0.0
  0
LINE
  5
1053
330
D3E
100
AcDbEntity
  8
BEM
 62
     0
370
    -2
100
AcDbLine
 10
260.7919689528726
 20
658.1328802412717
 30
0.0
 11
337.3445217203236
 21
658.1328802412717
 31
0.0
  0
LINE
  5
1054
330
D3E
100
AcDbEntity
  8
BEM
 62
     0
370
    -2
100
AcDbLine
 10
335.3445217203236
 20
649.1328802412717
 30
0.0
 11
335.3445217203236
 21
642.1328802412717
 31
0.0
  0
LINE
  5
1055
330
D3E
100
AcDbEntity
  8
BEM
 62
     0
370
    -2
100
AcDbLine
 10
335.3445217203236
 20
665.1328802412717
 30
0.0
 11
335.3445217203236
 21
681.8662135746051
 31
0.0
  0
LINE
  5
1056
330
D3E
100
AcDbEntity
  8
BEM
 62
     0
370
    -2
100
AcDbLine
 10
335.3445217203236
 20
656.1328802412718
 30
0.0
 11
335.3445217203236
 21
658.1328802412717
 31
0.0
  0
SOLID
  5
1057
330
D3E
100
AcDbEntity
  8
BEM
 62
     0
100
AcDbTrace
 10
334.1778550536569
 20
649.1328802412717
 30
0.0
 11
336.5111883869903
 21
649.1328802412717
 31
0.0
 12
335.3445217203236
 22
656.1328802412718
 32
0.0
 13
335.3445217203236
 23
656.1328802412718
 33
0.0
  0
SOLID
  5
1058
330
D3E
100
AcDbEntity
  8
BEM
 62
     0
100
AcDbTrace
 10
334.1778550536569
 20
665.1328802412717
 30
0.0
 11
336.5111883869903
 21
665.1328802412717
 31
0.0
 12
335.3445217203236
 22
658.1328802412717
 32
0.0
 13
335.3445217203236
 23
658.1328802412717
 33
0.0
  0
MTEXT
  5
1059
330
D3E
100
AcDbEntity
  8
BEM
 62
     1
100
AcDbMText
 10
328.8445217203235
 20
676.9995469079385
 30
0.0
 40
7.0
 41
0.0
 71
     5
 72
     1
  1
\A1;2
 11
0.0000000000000001
 21
1.0
 31
0.0
 73
     1
 44
1.0
  0
POINT
  5
105A
330
D3E
100
AcDbEntity
  8
DEFPOINTS
 62
     0
100
AcDbPoint
 10
318.2919689528726
 20
656.1328802412718
 30
0.0
  0
POINT
  5
105B
330
D3E
100
AcDbEntity
  8
DEFPOINTS
 62
     0
100
AcDbPoint
 10
258.7919689528726
 20
658.1328802412717
 30
0.0
  0
POINT
  5
105C
330
D3E
100
AcDbEntity
  8
DEFPOINTS
 62
     0
100
AcDbPoint
 10
335.3445217203236
 20
658.1328802412717
 30
0.0
  0
ENDBLK
  5
D4B
330
D3E
100
AcDbEntity
  8
0
100
AcDbBlockEnd
  0
BLOCK
  5
DBC
330
DB2
100
AcDbEntity
  8
0
100
AcDbBlockBegin
  2
*D5
 70
     1
 10
0.0
 20
0.0
 30
0.0
  3
*D5
  1

  0
LINE
  5
105D
330
DB2
100
AcDbEntity
  8
BEM
 62
     0
370
    -2
100
AcDbLine
 10
97.29196895287259
 20
658.132880241272
 30
0.0
 11
97.29196895287259
 21
693.976332815811
 31
0.0
  0
LINE
  5
105E
330
DB2
100
AcDbEntity
  8
BEM
 62
     0
370
    -2
100
AcDbLine
 10
318.2919689528726
 20
658.1328802412717
 30
0.0
 11
318.2919689528726
 21
693.976332815811
 31
0.0
  0
LINE
  5
105F
330
DB2
100
AcDbEntity
  8
BEM
 62
     0
370
    -2
100
AcDbLine
 10
104.2919689528726
 20
691.976332815811
 30
0.0
 11
311.2919689528726
 21
691.976332815811
 31
0.0
  0
SOLID
  5
1060
330
DB2
100
AcDbEntity
  8
BEM
 62
     0
100
AcDbTrace
 10
104.2919689528726
 20
693.1429994824776
 30
0.0
 11
104.2919689528726
 21
690.8096661491444
 31
0.0
 12
97.29196895287259
 22
691.976332815811
 32
0.0
 13
97.29196895287259
 23
691.976332815811
 33
0.0
  0
SOLID
  5
1061
330
DB2
100
AcDbEntity
  8
BEM
 62
     0
100
AcDbTrace
 10
311.2919689528726
 20
693.1429994824776
 30
0.0
 11
311.2919689528726
 21
690.8096661491444
 31
0.0
 12
318.2919689528726
 22
691.976332815811
 32
0.0
 13
318.2919689528726
 23
691.976332815811
 33
0.0
  0
MTEXT
  5
1062
330
DB2
100
AcDbEntity
  8
BEM
 62
     1
100
AcDbMText
 10
207.7919689528726
 20
698.476332815811
 30
0.0
 40
7.0
 41
0.0
 71
     5
 72
     1
  1
\A1;%%c221
 73
     1
 44
1.0
  0
POINT
  5
1063
330
DB2
100
AcDbEntity
  8
DEFPOINTS
 62
     0
100
AcDbPoint
 10
97.29196895287259
 20
656.1328802412719
 30
0.0
  0
POINT
  5
1064
330
DB2
100
AcDbEntity
  8
DEFPOINTS
 62
     0
100
AcDbPoint
 10
318.2919689528726
 20
656.1328802412718
 30
0.0
  0
POINT
  5
1065
330
DB2
100
AcDbEntity
  8
DEFPOINTS
 62
     0
100
AcDbPoint
 10
318.2919689528726
 20
691.976332815811
 30
0.0
  0
ENDBLK
  5
DBD
330
DB2
100
AcDbEntity
  8
0
100
AcDbBlockEnd
  0
BLOCK
  5
DF0
330
DE4
100
AcDbEntity
  8
0
100
AcDbBlockBegin
  2
*D6
 70
     1
 10
0.0
 20
0.0
 30
0.0
  3
*D6
  1

  0
LINE
  5
F9F
330
DE4
100
AcDbEntity
  8
BEM
 62
     0
370
    -2
100
AcDbLine
 10
95.2919689528726
 20
654.132880241272
 30
0.0
 11
85.74039943645615
 21
654.132880241272
 31
0.0
  0
LINE
  5
FA0
330
DE4
100
AcDbEntity
  8
BEM
 62
     0
370
    -2
100
AcDbLine
 10
95.2919689528726
 20
656.1328802412719
 30
0.0
 11
85.74039943645615
 21
656.1328802412719
 31
0.0
  0
LINE
  5
FA1
330
DE4
100
AcDbEntity
  8
BEM
 62
     0
370
    -2
100
AcDbLine
 10
87.74039943645616
 20
647.132880241272
 30
0.0
 11
87.74039943645616
 21
640.132880241272
 31
0.0
  0
LINE
  5
FA2
330
DE4
100
AcDbEntity
  8
BEM
 62
     0
370
    -2
100
AcDbLine
 10
87.74039943645616
 20
663.132880241272
 30
0.0
 11
87.74039943645616
 21
679.8662135746053
 31
0.0
  0
LINE
  5
FA3
330
DE4
100
AcDbEntity
  8
BEM
 62
     0
370
    -2
100
AcDbLine
 10
87.74039943645616
 20
654.132880241272
 30
0.0
 11
87.74039943645616
 21
656.1328802412719
 31
0.0
  0
SOLID
  5
FA4
330
DE4
100
AcDbEntity
  8
BEM
 62
     0
100
AcDbTrace
 10
86.57373276978949
 20
647.132880241272
 30
0.0
 11
88.90706610312284
 21
647.132880241272
 31
0.0
 12
87.74039943645616
 22
654.132880241272
 32
0.0
 13
87.74039943645616
 23
654.132880241272
 33
0.0
  0
SOLID
  5
FA5
330
DE4
100
AcDbEntity
  8
BEM
 62
     0
100
AcDbTrace
 10
86.57373276978949
 20
663.132880241272
 30
0.0
 11
88.90706610312284
 21
663.132880241272
 31
0.0
 12
87.74039943645616
 22
656.1328802412719
 32
0.0
 13
87.74039943645616
 23
656.1328802412719
 33
0.0
  0
MTEXT
  5
FA6
330
DE4
100
AcDbEntity
  8
BEM
 62
     1
100
AcDbMText
 10
81.24039943645605
 20
674.9995469079387
 30
0.0
 40
7.0
 41
0.0
 71
     5
 72
     1
  1
\A1;2
 11
0.0000000000000001
 21
1.0
 31
0.0
 73
     1
 44
1.0
  0
POINT
  5
FA7
330
DE4
100
AcDbEntity
  8
DEFPOINTS
 62
     0
100
AcDbPoint
 10
97.29196895287259
 20
654.132880241272
 30
0.0
  0
POINT
  5
FA8
330
DE4
100
AcDbEntity
  8
DEFPOINTS
 62
     0
100
AcDbPoint
 10
97.29196895287259
 20
656.1328802412719
 30
0.0
  0
POINT
  5
FA9
330
DE4
100
AcDbEntity
  8
DEFPOINTS
 62
     0
100
AcDbPoint
 10
87.74039943645616
 20
656.1328802412719
 30
0.0
  0
ENDBLK
  5
DF1
330
DE4
100
AcDbEntity
  8
0
100
AcDbBlockEnd
  0
BLOCK
  5
E43
330
E39
100
AcDbEntity
  8
0
100
AcDbBlockBegin
  2
*D7
 70
     1
 10
0.0
 20
0.0
 30
0.0
  3
*D7
  1

  0
LINE
  5
1066
330
E39
100
AcDbEntity
  8
BEM
 62
     0
370
    -2
100
AcDbLine
 10
156.7919689528726
 20
660.1328802412718
 30
0.0
 11
156.7919689528726
 21
677.976332815811
 31
0.0
  0
LINE
  5
1067
330
E39
100
AcDbEntity
  8
BEM
 62
     0
370
    -2
100
AcDbLine
 10
258.7919689528726
 20
660.1328802412718
 30
0.0
 11
258.7919689528726
 21
677.976332815811
 31
0.0
  0
LINE
  5
1068
330
E39
100
AcDbEntity
  8
BEM
 62
     0
370
    -2
100
AcDbLine
 10
163.7919689528726
 20
675.9763328158109
 30
0.0
 11
251.7919689528726
 21
675.9763328158109
 31
0.0
  0
SOLID
  5
1069
330
E39
100
AcDbEntity
  8
BEM
 62
     0
100
AcDbTrace
 10
163.7919689528726
 20
677.1429994824776
 30
0.0
 11
163.7919689528726
 21
674.8096661491444
 31
0.0
 12
156.7919689528726
 22
675.9763328158109
 32
0.0
 13
156.7919689528726
 23
675.9763328158109
 33
0.0
  0
SOLID
  5
106A
330
E39
100
AcDbEntity
  8
BEM
 62
     0
100
AcDbTrace
 10
251.7919689528726
 20
677.1429994824776
 30
0.0
 11
251.7919689528726
 21
674.8096661491444
 31
0.0
 12
258.7919689528726
 22
675.9763328158109
 32
0.0
 13
258.7919689528726
 23
675.9763328158109
 33
0.0
  0
MTEXT
  5
106B
330
E39
100
AcDbEntity
  8
BEM
 62
     1
100
AcDbMText
 10
207.7919689528726
 20
682.476332815811
 30
0.0
 40
7.0
 41
0.0
 71
     5
 72
     1
  1
\A1;%%C102
 73
     1
 44
1.0
  0
POINT
  5
106C
330
E39
100
AcDbEntity
  8
DEFPOINTS
 62
     0
100
AcDbPoint
 10
156.7919689528726
 20
658.1328802412717
 30
0.0
  0
POINT
  5
106D
330
E39
100
AcDbEntity
  8
DEFPOINTS
 62
     0
100
AcDbPoint
 10
258.7919689528726
 20
658.1328802412717
 30
0.0
  0
POINT
  5
106E
330
E39
100
AcDbEntity
  8
DEFPOINTS
 62
     0
100
AcDbPoint
 10
258.7919689528726
 20
675.9763328158109
 30
0.0
  0
ENDBLK
  5
E44
330
E39
100
AcDbEntity
  8
0
100
AcDbBlockEnd
  0
ENDSEC
  0
SECTION
  2
ENTITIES
  0
TEXT
  5
2ED
330
20
100
AcDbEntity
  8
TEXT
 62
     1
100
AcDbText
 10
507.0058791601468
 20
654.979117340995
 30
0.0
 40
7.0
  1
Direktablauf DN50
 50
90.0
 41
0.8
  7
GREEKS
100
AcDbText
  0
LINE
  5
2EE
330
20
100
AcDbEntity
  8
STEMPEL
100
AcDbLine
 10
484.0
 20
830.0
 30
0.0
 11
484.0
 21
470.0
 31
0.0
  0
LINE
  5
2EF
330
20
100
AcDbEntity
  8
STEMPEL
100
AcDbLine
 10
484.0
 20
470.0
 30
0.0
 11
584.0
 21
469.9999999999999
 31
0.0
  0
LINE
  5
2F0
330
20
100
AcDbEntity
  8
STEMPEL
100
AcDbLine
 10
484.0000000000001
 20
566.0000000000001
 30
0.0
 11
584.0000000000001
 21
565.9999999999999
 31
0.0
  0
LINE
  5
2F1
330
20
100
AcDbEntity
  8
STEMPEL
100
AcDbLine
 10
484.0
 20
649.9999999999999
 30
0.0
 11
584.0
 21
649.9999999999999
 31
0.0
  0
LINE
  5
2F2
330
20
100
AcDbEntity
  8
STEMPEL
100
AcDbLine
 10
484.0000000000003
 20
752.0000000000001
 30
0.0
 11
554.0
 21
752.0000000000001
 31
0.0
  0
LINE
  5
2F3
330
20
100
AcDbEntity
  8
STEMPEL
100
AcDbLine
 10
564.0
 20
565.9999999999999
 30
0.0
 11
564.0
 21
469.9999999999999
 31
0.0
  0
LINE
  5
2F4
330
20
100
AcDbEntity
  8
STEMPEL
100
AcDbLine
 10
554.0
 20
830.0
 30
0.0
 11
554.0
 21
565.9999999999999
 31
0.0
  0
LINE
  5
2F5
330
20
100
AcDbEntity
  8
STEMPEL
100
AcDbLine
 10
514.0
 20
830.0
 30
0.0
 11
514.0
 21
566.0000000000001
 31
0.0
  0
LINE
  5
2F6
330
20
100
AcDbEntity
  8
VOLL
100
AcDbLine
 10
484.0
 20
484.0
 30
0.0
 11
584.0
 21
483.9999999999998
 31
0.0
  0
LINE
  5
2F7
330
20
100
AcDbEntity
  8
VOLL
100
AcDbLine
 10
484.0
 20
524.0000000000001
 30
0.0
 11
584.0
 21
523.9999999999999
 31
0.0
  0
LINE
  5
2F8
330
20
100
AcDbEntity
  8
VOLL
100
AcDbLine
 10
484.0000000000001
 20
544.0000000000001
 30
0.0
 11
584.0000000000001
 21
543.9999999999998
 31
0.0
  0
LINE
  5
2F9
330
20
100
AcDbEntity
  8
VOLL
100
AcDbLine
 10
514.0
 20
584.0000000000001
 30
0.0
 11
554.0
 21
584.0000000000001
 31
0.0
  0
LINE
  5
2FA
330
20
100
AcDbEntity
  8
VOLL
100
AcDbLine
 10
484.0000000000001
 20
610.0000000000001
 30
0.0
 11
554.0
 21
609.9999999999998
 31
0.0
  0
LINE
  5
2FB
330
20
100
AcDbEntity
  8
HILF
100
AcDbLine
 10
494.0
 20
470.0
 30
0.0
 11
494.0
 21
566.0000000000001
 31
0.0
  0
LINE
  5
2FC
330
20
100
AcDbEntity
  8
HILF
100
AcDbLine
 10
504.0
 20
470.0
 30
0.0
 11
504.0
 21
566.0000000000001
 31
0.0
  0
LINE
  5
2FD
330
20
100
AcDbEntity
  8
HILF
100
AcDbLine
 10
514.0
 20
470.0
 30
0.0
 11
514.0
 21
566.0000000000001
 31
0.0
  0
LINE
  5
2FE
330
20
100
AcDbEntity
  8
HILF
100
AcDbLine
 10
524.0
 20
470.0
 30
0.0
 11
524.0
 21
566.0000000000001
 31
0.0
  0
LINE
  5
2FF
330
20
100
AcDbEntity
  8
HILF
100
AcDbLine
 10
534.0
 20
470.0
 30
0.0
 11
534.0
 21
566.0000000000001
 31
0.0
  0
LINE
  5
300
330
20
100
AcDbEntity
  8
HILF
100
AcDbLine
 10
544.0
 20
470.0
 30
0.0
 11
544.0
 21
566.0000000000001
 31
0.0
  0
LINE
  5
301
330
20
100
AcDbEntity
  8
HILF
100
AcDbLine
 10
554.0
 20
470.0
 30
0.0
 11
554.0
 21
566.0000000000001
 31
0.0
  0
LINE
  5
302
330
20
100
AcDbEntity
  8
HILF
100
AcDbLine
 10
524.0
 20
566.0000000000001
 30
0.0
 11
524.0
 21
649.9999999999999
 31
0.0
  0
LINE
  5
303
330
20
100
AcDbEntity
  8
HILF
100
AcDbLine
 10
534.0
 20
566.0000000000001
 30
0.0
 11
534.0
 21
649.9999999999999
 31
0.0
  0
LINE
  5
304
330
20
100
AcDbEntity
  8
HILF
100
AcDbLine
 10
544.0
 20
566.0000000000001
 30
0.0
 11
544.0
 21
649.9999999999999
 31
0.0
  0
LINE
  5
305
330
20
100
AcDbEntity
  8
HILF
100
AcDbLine
 10
509.9624175243587
 20
654.7736801096947
 30
0.0
 11
509.9624175243587
 21
746.629784251481
 31
0.0
  0
LINE
  5
306
330
20
100
AcDbEntity
  8
HILF
100
AcDbLine
 10
524.0
 20
654.7736801096947
 30
0.0
 11
524.0
 21
746.629784251481
 31
0.0
  0
LINE
  5
307
330
20
100
AcDbEntity
  8
HILF
100
AcDbLine
 10
534.0
 20
654.7736801096947
 30
0.0
 11
534.0
 21
746.629784251481
 31
0.0
  0
LINE
  5
308
330
20
100
AcDbEntity
  8
HILF
100
AcDbLine
 10
544.0
 20
654.7736801096947
 30
0.0
 11
544.0
 21
746.629784251481
 31
0.0
  0
LINE
  5
309
330
20
100
AcDbEntity
  8
VOLL
100
AcDbLine
 10
534.0
 20
752.0000000000001
 30
0.0
 11
534.0
 21
830.0
 31
0.0
  0
LINE
  5
30A
330
20
100
AcDbEntity
  8
HILF
100
AcDbLine
 10
510.2201636304418
 20
756.7238616296994
 30
0.0
 11
510.2201636304418
 21
824.8588839326728
 31
0.0
  0
LINE
  5
30B
330
20
100
AcDbEntity
  8
HILF
100
AcDbLine
 10
579.1060174197169
 20
654.7736801096947
 30
0.0
 11
579.1060174197169
 21
824.8588839326728
 31
0.0
  0
TEXT
  5
30C
330
20
100
AcDbEntity
  8
TEXT
100
AcDbText
 10
575.100699513102
 20
493.3458801111339
 30
0.0
 40
4.0
  1
Änderung
 50
90.0
 41
0.8
  7
GREEKS
 72
     4
 11
573.3864137988164
 21
504.0887372539911
 31
0.0
100
AcDbText
  0
TEXT
  5
30D
330
20
100
AcDbEntity
  8
TEXT
100
AcDbText
 10
491.5379104912911
 20
573.5163572150375
 30
0.0
 40
5.0
  1
Maßstab
 50
90.0
 41
0.8
  7
GREEKS
100
AcDbText
  0
TEXT
  5
30E
330
20
100
AcDbEntity
  8
TEXT
100
AcDbText
 10
491.5815831565181
 20
617.9646614905597
 30
0.0
 40
5.0
  1
zul.Abw
 50
90.0
 41
0.8
  7
GREEKS
100
AcDbText
  0
TEXT
  5
30F
330
20
100
AcDbEntity
  8
TEXT
100
AcDbText
 10
491.4510671988221
 20
654.8779403809009
 30
0.0
 40
5.0
  1
Benennung
 50
90.0
 41
0.8
  7
GREEKS
100
AcDbText
  0
TEXT
  5
310
330
20
100
AcDbEntity
  8
TEXT
100
AcDbText
 10
491.6867965462863
 20
756.1787549576341
 30
0.0
 40
5.0
  1
Zeichnungs Nr.
 50
90.0
 41
0.8
  7
GREEKS
100
AcDbText
  0
TEXT
  5
311
330
20
100
AcDbEntity
  8
TEXT
100
AcDbText
 10
563.1543942980694
 20
654.7422383911358
 30
0.0
 40
5.0
  1
Bauvorhaben
 50
90.0
 41
0.8
  7
GREEKS
100
AcDbText
  0
TEXT
  5
312
330
20
100
AcDbEntity
  8
TEXT
100
AcDbText
 10
520.8188176290003
 20
756.7238616296994
 30
0.0
 40
5.0
  1
Ersatz für:
 50
90.0
 41
0.8
  7
GREEKS
100
AcDbText
  0
TEXT
  5
313
330
20
100
AcDbEntity
  8
BEM
100
AcDbText
 10
580.3453415397281
 20
478.2664110704574
 30
0.0
 40
3.6
  1
Index
 50
180.0
 41
0.8
  7
GREEKS
100
AcDbText
  0
TEXT
  5
316
330
20
100
AcDbEntity
  8
TEXT
100
AcDbText
 10
520.6811949877008
 20
592.3311673153649
 30
0.0
 40
3.6
  1
Tag
 50
90.0
 41
0.8
  7
GREEKS
100
AcDbText
  0
TEXT
  5
317
330
20
100
AcDbEntity
  8
TEXT
100
AcDbText
 10
520.6903890808478
 20
622.4626584226294
 30
0.0
 40
3.6
  1
Name
 50
90.0
 41
0.8
  7
GREEKS
100
AcDbText
  0
TEXT
  5
318
330
20
100
AcDbEntity
  8
TEXT
100
AcDbText
 10
530.3700963038204
 20
567.5836127167614
 30
0.0
 40
3.6
  1
Gez.
 50
90.0
 41
0.8
  7
GREEKS
100
AcDbText
  0
TEXT
  5
319
330
20
100
AcDbEntity
  8
TEXT
100
AcDbText
 10
540.3107370857163
 20
567.5515086571671
 30
0.0
 40
3.6
  1
Gepr.
 50
90.0
 41
0.8
  7
GREEKS
100
AcDbText
  0
TEXT
  5
31A
330
20
100
AcDbEntity
  8
TEXT
100
AcDbText
 10
550.470536103502
 20
567.6006777387303
 30
0.0
 40
3.6
  1
Norm.
 50
90.0
 41
0.8
  7
GREEKS
100
AcDbText
  0
TEXT
  5
31B
330
20
100
AcDbEntity
  8
TEXT
100
AcDbText
 10
530.497467412491
 20
625.1121860477743
 30
0.0
 40
3.6
  1
Koeh
 50
90.0
 41
0.8
  7
GREEKS
 72
     1
 11
530.497467412491
 21
629.8436146192028
 31
0.0
100
AcDbText
  0
TEXT
  5
31C
330
20
100
AcDbEntity
  8
TEXT
100
AcDbText
 10
541.925838221214
 20
757.2400861497007
 30
0.0
 40
5.0
  1
ersetzt durch:
 50
90.0
 41
0.8
  7
GREEKS
100
AcDbText
  0
LINE
  5
31D
330
20
100
AcDbEntity
  8
HILF
100
AcDbLine
 10
594.0
 20
0.0
 30
0.0
 11
594.0
 21
840.0000000000002
 31
0.0
  0
LINE
  5
31E
330
20
100
AcDbEntity
  8
HILF
100
AcDbLine
 10
594.0
 20
840.0000000000002
 30
0.0
 11
0.0
 21
840.0000000000002
 31
0.0
  0
LINE
  5
31F
330
20
100
AcDbEntity
  8
HILF
100
AcDbLine
 10
0.0
 20
840.0000000000002
 30
0.0
 11
0.0
 21
0.0
 31
0.0
  0
LINE
  5
320
330
20
100
AcDbEntity
  8
HILF
100
AcDbLine
 10
0.0
 20
0.0
 30
0.0
 11
594.0
 21
0.0
 31
0.0
  0
LINE
  5
321
330
20
100
AcDbEntity
  8
STEMPEL
100
AcDbLine
 10
10.0
 20
830.0
 30
0.0
 11
10.0
 21
40.0
 31
0.0
  0
LINE
  5
322
330
20
100
AcDbEntity
  8
STEMPEL
100
AcDbLine
 10
584.0
 20
40.0
 30
0.0
 11
584.0
 21
830.0
 31
0.0
  0
LINE
  5
323
330
20
100
AcDbEntity
  8
STEMPEL
100
AcDbLine
 10
584.0
 20
830.0
 30
0.0
 11
10.0
 21
830.0
 31
0.0
  0
LINE
  5
324
330
20
100
AcDbEntity
  8
STEMPEL
100
AcDbLine
 10
10.0
 20
40.0
 30
0.0
 11
584.0
 21
40.0
 31
0.0
  0
TEXT
  5
325
330
20
100
AcDbEntity
  8
TEXT
100
AcDbText
 10
520.8541631609584
 20
568.5426010951829
 30
0.0
 40
3.6
  1
2010
 50
90.0
 41
0.8
  7
GREEKS
100
AcDbText
  0
TEXT
  5
326
330
20
100
AcDbEntity
  8
TEXT
100
AcDbText
 10
530.594467646405
 20
590.4500884820464
 30
0.0
 40
3.6
  1
23.04.
 50
90.0
 41
0.8
  7
GREEKS
 72
     1
 11
530.594467646405
 21
596.7586599106178
 31
0.0
100
AcDbText
  0
TEXT
  5
327
330
20
100
AcDbEntity
  8
TEXT
 62
     1
100
AcDbText
 10
507.7758949562678
 20
578.8064310364449
 30
0.0
 40
7.0
  1
1:2
 50
90.0
 41
0.8
  7
GREEKS
100
AcDbText
  0
TEXT
  5
328
330
20
100
AcDbEntity
  8
TEXT
100
AcDbText
 10
521.703488726959
 20
654.862987254257
 30
0.0
 40
5.0
  1
senkrecht mit Stützflansch
 50
90.0
 41
0.8
  7
GREEKS
100
AcDbText
  0
TEXT
  5
329
330
20
100
AcDbEntity
  8
TEXT
100
AcDbText
 10
541.2486885465454
 20
655.162303158329
 30
0.0
 40
5.0
  1
EDV-Art.Nr. 16110.050X
 50
90.0
 41
0.8
  7
GREEKS
100
AcDbText
  0
TEXT
  5
32A
330
20
100
AcDbEntity
  8
BEM
100
AcDbText
 10
583.4462193823216
 20
836.4132055378062
 30
0.0
 40
3.6
  1
Diese Zeichnung ist urheberrechtlich geschuetzt und bleibt unser Eigentum. Sie darf weder ganz noch teilweise vervielfaeltigt und nicht an Dritte weitegegeben werden.
 50
180.0
  7
GREEKS
100
AcDbText
  0
TEXT
  5
32B
330
20
100
AcDbEntity
  8
TEXT
 62
     1
100
AcDbText
 10
506.9813625823642
 20
767.971106150903
 30
0.0
 40
7.0
  1
16110050W
 50
90.0
 41
0.8
  7
GREEKS
 72
     1
 11
506.9813625823642
 21
790.3711061509031
 31
0.0
100
AcDbText
  0
TEXT
  5
32C
330
20
100
AcDbEntity
  8
TEXT
100
AcDbText
 10
551.8049542698645
 20
654.9713400534564
 30
0.0
 40
3.6
  1
16110050W.DWG
 50
90.0
 41
0.8
  7
GREEKS
100
AcDbText
  0
TEXT
  5
32D
330
20
100
AcDbEntity
  8
TEXT
100
AcDbText
 10
480.4045780774092
 20
470.2031266103855
 30
0.0
 40
5.0
  1
Erstellt mit AUTOCAD 2004
 50
90.0
 41
0.8
  7
GREEKS
100
AcDbText
  0
INSERT
  5
32E
330
20
100
AcDbEntity
  8
STEMPEL
100
AcDbBlockReference
  2
LOGO
 10
549.6760802813285
 20
568.9705276546529
 30
0.0
 41
2.0
 42
2.0
 43
2.0
 50
90.0
  0
LINE
  5
32F
330
20
100
AcDbEntity
  8
BEM
100
AcDbLine
 10
594.0
 20
460.0
 30
0.0
 11
584.0
 21
460.0
 31
0.0
  0
LINE
  5
330
330
20
100
AcDbEntity
  8
BEM
100
AcDbLine
 10
10.0
 20
460.0
 30
0.0
 11
0.0
 21
460.0
 31
0.0
  0
LINE
  5
333
330
20
100
AcDbEntity
  8
STEMPEL
100
AcDbLine
 10
233.854525635243
 20
408.1328802412719
 30
0.0
 11
181.7294122705023
 21
408.1328802412719
 31
0.0
  0
LINE
  5
334
102
{ACAD_REACTORS
330
A32
102
}
330
20
100
AcDbEntity
  8
STEMPEL
100
AcDbLine
 10
258.7919689528726
 20
658.1328802412717
 30
0.0
 11
156.7919689528726
 21
658.1328802412717
 31
0.0
  0
LINE
  5
335
102
{ACAD_REACTORS
330
A32
102
}
330
20
100
AcDbEntity
  8
STEMPEL
100
AcDbLine
 10
156.7919689528726
 20
658.1328802412717
 30
0.0
 11
156.7919689528726
 21
650.1328802412717
 31
0.0
  0
LINE
  5
336
102
{ACAD_REACTORS
330
A32
102
}
330
20
100
AcDbEntity
  8
STEMPEL
100
AcDbLine
 10
258.7919689528726
 20
658.1328802412717
 30
0.0
 11
258.7919689528726
 21
650.1328802412717
 31
0.0
  0
LINE
  5
337
102
{ACAD_REACTORS
330
A32
330
AB1
102
}
330
20
100
AcDbEntity
  8
STEMPEL
100
AcDbLine
 10
241.4938631261104
 20
586.1328802412717
 30
0.0
 11
174.0900747796349
 21
586.1328802412717
 31
0.0
  0
LINE
  5
338
330
20
100
AcDbEntity
  8
STEMPEL
100
AcDbLine
 10
181.2919689528727
 20
562.1540941529192
 30
0.0
 11
181.2919689528726
 21
413.1328802412719
 31
0.0
  0
LINE
  5
339
330
20
100
AcDbEntity
  8
STEMPEL
100
AcDbLine
 10
234.2919689528727
 20
562.1540941529199
 30
0.0
 11
234.2919689528726
 21
413.1328802412719
 31
0.0
  0
LINE
  5
33A
102
{ACAD_REACTORS
330
9A9
330
A32
102
}
330
20
100
AcDbEntity
  8
STEMPEL
100
AcDbLine
 10
256.7919689528726
 20
658.132880241272
 30
0.0
 11
256.7919689528726
 21
623.0398820309849
 31
0.0
  0
LINE
  5
33B
102
{ACAD_REACTORS
330
9A9
330
A32
102
}
330
20
100
AcDbEntity
  8
STEMPEL
100
AcDbLine
 10
158.7919689528726
 20
658.132880241272
 30
0.0
 11
158.7919689528726
 21
623.0398820309845
 31
0.0
  0
LINE
  5
33C
102
{ACAD_REACTORS
330
A32
102
}
330
20
100
AcDbEntity
  8
STEMPEL
100
AcDbLine
 10
255.4615986775293
 20
617.5481608491764
 30
0.0
 11
239.2919689528726
 21
586.1328802412717
 31
0.0
  0
LINE
  5
33D
102
{ACAD_REACTORS
330
A32
102
}
330
20
100
AcDbEntity
  8
STEMPEL
100
AcDbLine
 10
160.122339228216
 20
617.5481608491759
 30
0.0
 11
176.2919689528726
 21
586.1328802412717
 31
0.0
  0
LINE
  5
33E
102
{ACAD_REACTORS
330
A32
330
AB1
102
}
330
20
100
AcDbEntity
  8
STEMPEL
100
AcDbLine
 10
158.0004493711178
 20
617.3498005913578
 30
0.0
 11
174.0900747796349
 21
586.1328802412717
 31
0.0
  0
LINE
  5
33F
102
{ACAD_REACTORS
330
A32
330
AB1
102
}
330
20
100
AcDbEntity
  8
STEMPEL
100
AcDbLine
 10
257.5834885346261
 20
617.3498005913552
 30
0.0
 11
241.4938631261104
 21
586.1328802412717
 31
0.0
  0
LINE
  5
340
330
20
100
AcDbEntity
  8
HILF
100
AcDbLine
 10
254.3601109143302
 20
620.132880241272
 30
0.0
 11
161.2238269914147
 21
620.1328802412718
 31
0.0
  0
LINE
  5
341
330
20
100
AcDbEntity
  8
STEMPEL
100
AcDbLine
 10
239.2919689528726
 20
586.1328802412717
 30
0.0
 11
232.7919689528727
 21
562.3947217888065
 31
0.0
  0
LINE
  5
342
330
20
100
AcDbEntity
  8
STEMPEL
100
AcDbLine
 10
182.7919689528727
 20
562.3947217888058
 30
0.0
 11
182.7919689528726
 21
413.1328802412719
 31
0.0
  0
LINE
  5
343
330
20
100
AcDbEntity
  8
STEMPEL
100
AcDbLine
 10
232.7919689528727
 20
562.3947217888065
 30
0.0
 11
232.7919689528726
 21
413.1328802412719
 31
0.0
  0
LINE
  5
345
330
20
100
AcDbEntity
  8
HILF
100
AcDbLine
 10
230.6360704005302
 20
562.132880241272
 30
0.0
 11
184.6914339025505
 21
562.132880241272
 31
0.0
  0
LINE
  5
346
330
20
100
AcDbEntity
  8
STEMPEL
100
AcDbLine
 10
182.7919689528726
 20
413.1328802412719
 30
0.0
 11
183.2294122705023
 21
408.1328802412719
 31
0.0
  0
LINE
  5
347
330
20
100
AcDbEntity
  8
STEMPEL
100
AcDbLine
 10
232.7919689528726
 20
413.1328802412719
 30
0.0
 11
232.354525635243
 21
408.1328802412719
 31
0.0
  0
LINE
  5
348
330
20
100
AcDbEntity
  8
STEMPEL
100
AcDbLine
 10
181.2919689528726
 20
413.1328802412719
 30
0.0
 11
181.7294122705023
 21
408.1328802412719
 31
0.0
  0
LINE
  5
349
330
20
100
AcDbEntity
  8
STEMPEL
100
AcDbLine
 10
234.2919689528726
 20
413.1328802412719
 30
0.0
 11
233.854525635243
 21
408.1328802412719
 31
0.0
  0
LINE
  5
34A
330
20
100
AcDbEntity
  8
HILF
100
AcDbLine
 10
231.9380381873959
 20
413.1328802412719
 30
0.0
 11
183.8667874095232
 21
413.1328802412719
 31
0.0
  0
LINE
  5
34B
102
{ACAD_REACTORS
330
FDB
102
}
330
20
100
AcDbEntity
  8
STEMPEL
100
AcDbLine
 10
97.29196895287259
 20
656.1328802412719
 30
0.0
 11
97.29196895287259
 21
654.132880241272
 31
0.0
  0
LINE
  5
34C
102
{ACAD_REACTORS
330
FDB
102
}
330
20
100
AcDbEntity
  8
STEMPEL
100
AcDbLine
 10
318.2919689528726
 20
656.1328802412718
 30
0.0
 11
318.2919689528726
 21
654.1328802412717
 31
0.0
  0
LINE
  5
34D
330
20
100
AcDbEntity
  8
STEMPEL
100
AcDbLine
 10
318.2919689528726
 20
656.1328802412718
 30
0.0
 11
258.7919689528726
 21
656.1328802412718
 31
0.0
  0
LINE
  5
34E
102
{ACAD_REACTORS
330
FDB
102
}
330
20
100
AcDbEntity
  8
STEMPEL
100
AcDbLine
 10
156.7919689528727
 20
656.1328802412719
 30
0.0
 11
97.29196895287259
 21
656.1328802412719
 31
0.0
  0
LINE
  5
34F
102
{ACAD_REACTORS
330
9A9
330
FDB
102
}
330
20
100
AcDbEntity
  8
STEMPEL
100
AcDbLine
 10
158.7919689528726
 20
646.132880241272
 30
0.0
 11
154.7919689528726
 21
646.1328802412717
 31
0.0
  0
LINE
  5
350
102
{ACAD_REACTORS
330
9A9
330
FDB
102
}
330
20
100
AcDbEntity
  8
STEMPEL
100
AcDbLine
 10
260.7919689528726
 20
646.1328802412717
 30
0.0
 11
256.7919689528726
 21
646.1328802412717
 31
0.0
  0
LINE
  5
351
102
{ACAD_REACTORS
330
FDB
102
}
330
20
100
AcDbEntity
  8
STEMPEL
100
AcDbLine
 10
318.2919689528726
 20
654.1328802412717
 30
0.0
 11
266.7919689528726
 21
654.1328802412717
 31
0.0
  0
LINE
  5
352
102
{ACAD_REACTORS
330
FDB
102
}
330
20
100
AcDbEntity
  8
STEMPEL
100
AcDbLine
 10
148.7919689528726
 20
654.1328802412717
 30
0.0
 11
97.29196895287259
 21
654.132880241272
 31
0.0
  0
LINE
  5
353
102
{ACAD_REACTORS
330
FDB
102
}
330
20
100
AcDbEntity
  8
STEMPEL
100
AcDbLine
 10
154.7919689528726
 20
648.1328802412718
 30
0.0
 11
154.7919689528726
 21
646.1328802412717
 31
0.0
  0
LINE
  5
354
102
{ACAD_REACTORS
330
FDB
102
}
330
20
100
AcDbEntity
  8
STEMPEL
100
AcDbLine
 10
260.7919689528726
 20
648.1328802412718
 30
0.0
 11
260.7919689528726
 21
646.1328802412717
 31
0.0
  0
ARC
  5
355
102
{ACAD_REACTORS
330
FDB
102
}
330
20
100
AcDbEntity
  8
STEMPEL
100
AcDbCircle
 10
148.7919689528726
 20
648.1328802412718
 30
0.0
 40
6.0
100
AcDbArc
 50
0.0
 51
89.99999999999984
  0
ARC
  5
356
102
{ACAD_REACTORS
330
FDB
102
}
330
20
100
AcDbEntity
  8
STEMPEL
100
AcDbCircle
 10
266.7919689528726
 20
648.1328802412718
 30
0.0
 40
6.0
100
AcDbArc
 50
90.0
 51
180.0
  0
ARC
  5
357
102
{ACAD_REACTORS
330
FDB
102
}
330
20
100
AcDbEntity
  8
STEMPEL
100
AcDbCircle
 10
266.7919689528726
 20
648.1328802412718
 30
0.0
 40
8.0
100
AcDbArc
 50
90.0
 51
180.0
  0
ARC
  5
358
102
{ACAD_REACTORS
330
FDB
102
}
330
20
100
AcDbEntity
  8
STEMPEL
100
AcDbCircle
 10
148.7919689528726
 20
648.1328802412718
 30
0.0
 40
8.0
100
AcDbArc
 50
0.0
 51
89.99999999999984
  0
LINE
  5
35A
330
20
100
AcDbEntity
  8
MITTEL
100
AcDbLine
 10
207.7919689528726
 20
314.1421205777319
 30
0.0
 11
207.7919689528726
 21
83.14212057773188
 31
0.0
  0
ARC
  5
35D
330
20
100
AcDbEntity
  8
STEMPEL
100
AcDbCircle
 10
207.7919689528726
 20
198.6421205777318
 30
0.0
 40
31.5
100
AcDbArc
 50
302.7294026367788
 51
57.27059736322135
  0
LINE
  5
35E
330
20
100
AcDbEntity
  8
VERDECKT
100
AcDbLine
 10
193.6498333291417
 20
247.6421205777319
 30
0.0
 11
221.9341045766037
 21
247.6421205777319
 31
0.0
  0
LINE
  5
35F
330
20
100
AcDbEntity
  8
STEMPEL
100
AcDbLine
 10
193.9355624923216
 20
245.6421205777319
 30
0.0
 11
221.6483754134237
 21
245.6421205777319
 31
0.0
  0
LINE
  5
360
330
20
100
AcDbEntity
  8
VERDECKT
100
AcDbLine
 10
158.7919689528726
 20
184.4999849540008
 30
0.0
 11
158.7919689528726
 21
212.7842562014629
 31
0.0
  0
LINE
  5
361
330
20
100
AcDbEntity
  8
STEMPEL
100
AcDbLine
 10
160.7919689528725
 20
184.7857141171809
 30
0.0
 11
160.7919689528726
 21
212.4985270382829
 31
0.0
  0
LINE
  5
362
330
20
100
AcDbEntity
  8
VERDECKT
100
AcDbLine
 10
256.7919689528726
 20
184.4999849540009
 30
0.0
 11
256.7919689528726
 21
212.7842562014629
 31
0.0
  0
LINE
  5
363
330
20
100
AcDbEntity
  8
STEMPEL
100
AcDbLine
 10
254.7919689528726
 20
184.7857141171808
 30
0.0
 11
254.7919689528726
 21
212.498527038283
 31
0.0
  0
LINE
  5
364
330
20
100
AcDbEntity
  8
STEMPEL
100
AcDbLine
 10
216.9814485646896
 20
217.5587661605172
 30
0.0
 11
230.9814485646896
 21
241.8074774664815
 31
0.0
  0
LINE
  5
365
330
20
100
AcDbEntity
  8
STEMPEL
100
AcDbLine
 10
219.5795247760429
 20
216.0587661605172
 30
0.0
 11
233.579524776043
 21
240.3074774664815
 31
0.0
  0
LINE
  5
366
330
20
100
AcDbEntity
  8
STEMPEL
100
AcDbLine
 10
230.9814485646896
 20
241.8074774664815
 30
0.0
 11
233.579524776043
 21
240.3074774664815
 31
0.0
  0
LINE
  5
367
330
20
100
AcDbEntity
  8
STEMPEL
100
AcDbLine
 10
216.9814485646896
 20
217.5587661605172
 30
0.0
 11
219.5795247760429
 21
216.0587661605172
 31
0.0
  0
ARC
  5
368
330
20
100
AcDbEntity
  8
STEMPEL
100
AcDbCircle
 10
207.7919689528726
 20
198.6421205777318
 30
0.0
 40
31.5
100
AcDbArc
 50
62.72940263677874
 51
297.2705973632213
  0
LINE
  5
369
330
20
100
AcDbEntity
  8
STEMPEL
100
AcDbLine
 10
219.9814485646896
 20
222.7549185832239
 30
0.0
 11
222.579524776043
 21
221.2549185832239
 31
0.0
  0
LINE
  5
36A
330
20
100
AcDbEntity
  8
STEMPEL
100
AcDbLine
 10
227.4814485646896
 20
235.7452996399904
 30
0.0
 11
230.0795247760429
 21
234.2452996399905
 31
0.0
  0
LINE
  5
36B
330
20
100
AcDbEntity
  8
VERDECKT
100
AcDbLine
 10
229.9814485646896
 20
240.0754266589126
 30
0.0
 11
232.5795247760429
 21
238.5754266589127
 31
0.0
  0
LINE
  5
36C
330
20
100
AcDbEntity
  8
MITTEL
100
AcDbLine
 10
92.29196895287259
 20
198.6421205777318
 30
0.0
 11
323.2919689528726
 21
198.6421205777318
 31
0.0
  0
LINE
  5
36D
330
20
100
AcDbEntity
  8
HILF
100
AcDbLine
 10
221.6483754134237
 20
646.2441648070944
 30
0.0
 11
221.6483754134235
 21
650.1328802412717
 31
0.0
  0
LINE
  5
36E
330
20
100
AcDbEntity
  8
HILF
100
AcDbLine
 10
193.9355624923216
 20
643.1328802412719
 30
0.0
 11
193.9355624923216
 21
650.132880241272
 31
0.0
  0
LINE
  5
36F
102
{ACAD_REACTORS
330
A32
102
}
330
20
100
AcDbEntity
  8
STEMPEL
100
AcDbLine
 10
258.7919689528726
 20
650.1328802412717
 30
0.0
 11
254.7919689528726
 21
650.1328802412717
 31
0.0
  0
LINE
  5
370
102
{ACAD_REACTORS
330
9A9
330
A32
102
}
330
20
100
AcDbEntity
  8
STEMPEL
100
AcDbLine
 10
258.7919689528726
 20
643.1328802412718
 30
0.0
 11
254.7919689528726
 21
643.1328802412718
 31
0.0
  0
LINE
  5
371
102
{ACAD_REACTORS
330
A32
102
}
330
20
100
AcDbEntity
  8
STEMPEL
100
AcDbLine
 10
254.7919689528726
 20
650.1328802412717
 30
0.0
 11
254.7919689528726
 21
643.1328802412718
 31
0.0
  0
LINE
  5
372
330
20
100
AcDbEntity
  8
STEMPEL
100
AcDbLine
 10
233.579524776043
 20
650.1328802412717
 30
0.0
 11
227.4814485646897
 21
650.1328802412717
 31
0.0
  0
LINE
  5
373
330
20
100
AcDbEntity
  8
STEMPEL
100
AcDbLine
 10
216.9814485646896
 20
643.1328802412719
 30
0.0
 11
193.9355624923216
 21
643.1328802412718
 31
0.0
  0
LINE
  5
374
102
{ACAD_REACTORS
330
A32
102
}
330
20
100
AcDbEntity
  8
STEMPEL
100
AcDbLine
 10
160.7919689528726
 20
650.1328802412717
 30
0.0
 11
160.7919689528726
 21
643.1328802412718
 31
0.0
  0
LINE
  5
375
102
{ACAD_REACTORS
330
A32
102
}
330
20
100
AcDbEntity
  8
STEMPEL
100
AcDbLine
 10
160.7919689528726
 20
650.1328802412717
 30
0.0
 11
156.7919689528726
 21
650.1328802412717
 31
0.0
  0
LINE
  5
376
102
{ACAD_REACTORS
330
9A9
330
A32
102
}
330
20
100
AcDbEntity
  8
STEMPEL
100
AcDbLine
 10
160.7919689528726
 20
643.1328802412718
 30
0.0
 11
156.7919689528726
 21
643.1328802412718
 31
0.0
  0
LINE
  5
377
102
{ACAD_REACTORS
330
FDB
102
}
330
20
100
AcDbEntity
  8
STEMPEL
100
AcDbLine
 10
258.7919689528726
 20
648.1328802412718
 30
0.0
 11
258.7919689528726
 21
646.1328802412717
 31
0.0
  0
LINE
  5
378
102
{ACAD_REACTORS
330
A32
102
}
330
20
100
AcDbEntity
  8
STEMPEL
100
AcDbLine
 10
258.7919689528726
 20
643.1328802412718
 30
0.0
 11
258.7919689528726
 21
623.0398820309849
 31
0.0
  0
LINE
  5
379
102
{ACAD_REACTORS
330
A32
102
}
330
20
100
AcDbEntity
  8
STEMPEL
100
AcDbLine
 10
156.7919689528726
 20
643.1328802412718
 30
0.0
 11
156.7919689528726
 21
623.0398820309845
 31
0.0
  0
LINE
  5
37A
102
{ACAD_REACTORS
330
FDB
102
}
330
20
100
AcDbEntity
  8
STEMPEL
100
AcDbLine
 10
156.7919689528726
 20
648.1328802412718
 30
0.0
 11
156.7919689528726
 21
646.132880241272
 31
0.0
  0
LINE
  5
37B
330
20
100
AcDbEntity
  8
STEMPEL
100
AcDbLine
 10
233.579524776043
 20
633.132880241272
 30
0.0
 11
233.579524776043
 21
636.1328802412717
 31
0.0
  0
LINE
  5
37C
330
20
100
AcDbEntity
  8
STEMPEL
100
AcDbLine
 10
219.5795247760429
 20
638.1328802412715
 30
0.0
 11
219.5795247760429
 21
645.1328802412717
 31
0.0
  0
LINE
  5
37D
330
20
100
AcDbEntity
  8
STEMPEL
100
AcDbLine
 10
221.6483754134235
 20
650.1328802412717
 30
0.0
 11
193.9355624923216
 21
650.1328802412717
 31
0.0
  0
LINE
  5
37E
330
20
100
AcDbEntity
  8
STEMPEL
100
AcDbLine
 10
233.5795247760432
 20
633.1328802412717
 30
0.0
 11
227.4814485646897
 21
633.1328802412717
 31
0.0
  0
LINE
  5
37F
330
20
100
AcDbEntity
  8
STEMPEL
100
AcDbLine
 10
222.579524776043
 20
645.1328802412717
 30
0.0
 11
216.9814485646897
 21
645.1328802412716
 31
0.0
  0
LINE
  5
380
330
20
100
AcDbEntity
  8
STEMPEL
100
AcDbLine
 10
222.579524776043
 20
638.1328802412717
 30
0.0
 11
216.9814485646897
 21
638.1328802412715
 31
0.0
  0
LINE
  5
381
330
20
100
AcDbEntity
  8
STEMPEL
100
AcDbLine
 10
230.0795247760429
 20
650.1328802412717
 30
0.0
 11
222.579524776043
 21
645.1328802412717
 31
0.0
  0
LINE
  5
382
330
20
100
AcDbEntity
  8
STEMPEL
100
AcDbLine
 10
222.579524776043
 20
638.1328802412717
 30
0.0
 11
230.0795247760429
 21
633.1328802412717
 31
0.0
  0
LINE
  5
383
330
20
100
AcDbEntity
  8
STEMPEL
100
AcDbLine
 10
232.5795247760429
 20
636.1328802412717
 30
0.0
 11
232.5795247760429
 21
647.132880241272
 31
0.0
  0
LINE
  5
384
330
20
100
AcDbEntity
  8
STEMPEL
100
AcDbLine
 10
233.579524776043
 20
647.1328802412718
 30
0.0
 11
232.5795247760429
 21
647.1328802412718
 31
0.0
  0
LINE
  5
385
330
20
100
AcDbEntity
  8
STEMPEL
100
AcDbLine
 10
233.5795247760432
 20
636.1328802412717
 30
0.0
 11
232.5795247760429
 21
636.1328802412717
 31
0.0
  0
LINE
  5
386
330
20
100
AcDbEntity
  8
STEMPEL
100
AcDbLine
 10
233.579524776043
 20
647.1328802412718
 30
0.0
 11
233.579524776043
 21
650.1328802412717
 31
0.0
  0
LINE
  5
387
330
20
100
AcDbEntity
  8
STEMPEL
100
AcDbLine
 10
216.9814485646896
 20
638.1328802412715
 30
0.0
 11
216.9814485646896
 21
645.1328802412716
 31
0.0
  0
LINE
  5
388
330
20
100
AcDbEntity
  8
STEMPEL
100
AcDbLine
 10
227.4814485646896
 20
650.1328802412717
 30
0.0
 11
219.9814485646896
 21
645.1328802412716
 31
0.0
  0
LINE
  5
389
330
20
100
AcDbEntity
  8
STEMPEL
100
AcDbLine
 10
227.4814485646896
 20
633.1328802412717
 30
0.0
 11
219.9814485646896
 21
638.1328802412715
 31
0.0
  0
POINT
  5
38A
330
20
100
AcDbEntity
  8
DEFPOINTS
  6
ByBlock
 62
     0
100
AcDbPoint
 10
206.608823181223
 20
258.9523783937007
 30
0.0
  0
POINT
  5
38C
330
20
100
AcDbEntity
  8
DEFPOINTS
  6
ByBlock
 62
     0
100
AcDbPoint
 10
216.9814485646896
 20
217.5587661605172
 30
0.0
  0
POINT
  5
38D
330
20
100
AcDbEntity
  8
DEFPOINTS
  6
ByBlock
 62
     0
100
AcDbPoint
 10
230.9814485646896
 20
241.8074774664815
 30
0.0
  0
POINT
  5
38F
330
20
100
AcDbEntity
  8
DEFPOINTS
  6
ByBlock
 62
     0
100
AcDbPoint
 10
318.2919689528726
 20
656.1328802412718
 30
0.0
  0
POINT
  5
390
330
20
100
AcDbEntity
  8
DEFPOINTS
  6
ByBlock
 62
     0
100
AcDbPoint
 10
318.2919689528726
 20
654.1328802412717
 30
0.0
  0
LINE
  5
391
330
20
100
AcDbEntity
  8
MITTEL
100
AcDbLine
 10
207.7919689528726
 20
665.7222024495303
 30
0.0
 11
207.7919689528726
 21
402.1369870208387
 31
0.0
  0
ARC
  5
39B
330
20
100
AcDbEntity
  8
BEM
100
AcDbCircle
 10
231.7242241044482
 20
241.2264142411595
 30
0.0
 40
3.656745938638493
100
AcDbArc
 50
150.431053911042
 51
225.2049612788834
  0
INSERT
  5
39C
330
20
100
AcDbEntity
  8
BEM
100
AcDbBlockReference
  2
*X1
 10
23.38504059959894
 20
143.7796977882344
 30
0.0
1001
ACAD
1000
HATCH
1002
{
1070
    16
1000
_U,I
1040
0.1
1040
0.0
1070
     0
1002
}
  0
DIMENSION
  5
39D
330
20
100
AcDbEntity
  8
BEM
100
AcDbDimension
  2
*D7
 10
258.7919689528726
 20
675.9763328158109
 30
0.0
 11
207.7919689528726
 21
682.476332815811
 31
0.0
 70
    32
  1
%%C102
 71
     5
 42
102.0
  3
Standard
100
AcDbAlignedDimension
 13
156.7919689528726
 23
658.1328802412717
 33
0.0
 14
258.7919689528726
 24
658.1328802412717
 34
0.0
100
AcDbRotatedDimension
1001
ACAD
1000
DSTYLE
1002
{
1070
    40
1040
2.0
1070
    41
1040
3.5
1070
    42
1040
1.0
1070
    43
1040
7.0
1070
    44
1040
1.0
1070
    47
1040
2.0
1070
    71
1070
     1
1070
    73
1070
     0
1070
    74
1070
     0
1070
    77
1070
     1
1070
    78
1070
     8
1070
    79
1070
     2
1070
   140
1040
3.5
1070
   141
1040
1.5
1070
   145
1040
0.2857142857142857
1070
   146
1040
0.5
1070
   147
1040
1.5
1070
   172
1070
     1
1070
   178
1070
     1
1070
   179
1070
     2
1070
   271
1070
     2
1070
   272
1070
     2
1070
   284
1070
     8
1070
   285
1070
     8
1070
   286
1070
     8
1002
}
  0
DIMENSION
  5
3A0
330
20
100
AcDbEntity
  8
BEM
100
AcDbDimension
  2
*D4
 10
335.3445217203236
 20
658.1328802412717
 30
0.0
 11
328.8445217203235
 21
676.9995469079385
 31
0.0
 70
    32
 71
     5
 42
2.0
  3
Standard
100
AcDbAlignedDimension
 13
318.2919689528726
 23
656.1328802412718
 33
0.0
 14
258.7919689528726
 24
658.1328802412717
 34
0.0
 50
90.0
100
AcDbRotatedDimension
1001
ACAD
1000
DSTYLE
1002
{
1070
    40
1040
2.0
1070
    41
1040
3.5
1070
    42
1040
1.0
1070
    43
1040
7.0
1070
    44
1040
1.0
1070
    47
1040
2.0
1070
    73
1070
     0
1070
    74
1070
     0
1070
    77
1070
     1
1070
    78
1070
     8
1070
    79
1070
     2
1070
   140
1040
3.5
1070
   141
1040
1.5
1070
   145
1040
0.2857142857142857
1070
   146
1040
0.5
1070
   147
1040
1.5
1070
   172
1070
     1
1070
   178
1070
     1
1070
   179
1070
     2
1070
   271
1070
     2
1070
   272
1070
     2
1070
   284
1070
     8
1070
   285
1070
     8
1070
   286
1070
     8
1002
}
  0
DIMENSION
  5
3A3
330
20
100
AcDbEntity
  8
BEM
100
AcDbDimension
  2
*D2
 10
350.4167167926824
 20
408.1328802412719
 30
0.0
 11
343.9167167926823
 21
533.132880241272
 31
0.0
 70
    32
 71
     5
 42
249.9999999999999
  3
Standard
100
AcDbAlignedDimension
 13
258.7919689528726
 23
658.1328802412717
 33
0.0
 14
233.854525635243
 24
408.1328802412719
 34
0.0
 50
90.0
100
AcDbRotatedDimension
1001
ACAD
1000
DSTYLE
1002
{
1070
    40
1040
2.0
1070
    41
1040
3.5
1070
    42
1040
1.0
1070
    43
1040
7.0
1070
    44
1040
1.0
1070
    47
1040
3.0
1070
    48
1040
3.0
1070
    73
1070
     0
1070
    74
1070
     0
1070
    77
1070
     1
1070
    78
1070
     8
1070
    79
1070
     2
1070
   140
1040
3.5
1070
   141
1040
1.5
1070
   145
1040
0.2857142857142857
1070
   146
1040
0.5142857142857144
1070
   147
1040
1.5
1070
   172
1070
     1
1070
   178
1070
     1
1070
   179
1070
     2
1070
   271
1070
     2
1070
   272
1070
     2
1070
   284
1070
     8
1070
   285
1070
     8
1070
   286
1070
     8
1002
}
  0
DIMENSION
  5
3A5
330
20
100
AcDbEntity
  8
BEM
100
AcDbDimension
  2
*D6
 10
87.74039943645616
 20
656.1328802412719
 30
0.0
 11
81.24039943645605
 21
674.9995469079387
 31
0.0
 70
    32
 71
     5
 42
2.0
  3
Standard
100
AcDbAlignedDimension
 13
97.29196895287259
 23
654.132880241272
 33
0.0
 14
97.29196895287259
 24
656.1328802412719
 34
0.0
 50
90.0
100
AcDbRotatedDimension
1001
ACAD
1000
DSTYLE
1002
{
1070
    40
1040
2.0
1070
    41
1040
3.5
1070
    42
1040
1.0
1070
    43
1040
7.0
1070
    44
1040
1.0
1070
    47
1040
3.0
1070
    48
1040
3.0
1070
    73
1070
     0
1070
    74
1070
     0
1070
    77
1070
     1
1070
    78
1070
     8
1070
    79
1070
     2
1070
   140
1040
3.5
1070
   141
1040
1.5
1070
   145
1040
0.2857142857142857
1070
   146
1040
0.5142857142857144
1070
   147
1040
1.5
1070
   172
1070
     1
1070
   178
1070
     1
1070
   179
1070
     2
1070
   271
1070
     2
1070
   272
1070
     2
1070
   284
1070
     8
1070
   285
1070
     8
1070
   286
1070
     8
1002
}
  0
LINE
  5
3A6
102
{ACAD_REACTORS
330
AB1
102
}
330
20
100
AcDbEntity
  8
STEMPEL
100
AcDbLine
 10
240.8712103692909
 20
586.1328802412717
 30
0.0
 11
234.2919689528727
 21
562.1540941529199
 31
0.0
  0
LINE
  5
3A7
102
{ACAD_REACTORS
330
AB1
102
}
330
20
100
AcDbEntity
  8
STEMPEL
100
AcDbLine
 10
174.7127275364542
 20
586.1328802412717
 30
0.0
 11
181.2919689528727
 21
562.1540941529192
 31
0.0
  0
LINE
  5
3A8
330
20
100
AcDbEntity
  8
STEMPEL
100
AcDbLine
 10
176.2919689528726
 20
586.1328802412717
 30
0.0
 11
182.7919689528727
 21
562.3947217888058
 31
0.0
  0
DIMENSION
  5
3AE
330
20
100
AcDbEntity
  8
BEM
100
AcDbDimension
  2
*D3
 10
234.2919689528726
 20
387.0378539384013
 30
0.0
 11
207.7919689528726
 21
393.5378539384013
 31
0.0
 70
    32
  1
%%c<>
 71
     5
 42
53.0
  3
Standard
100
AcDbAlignedDimension
 13
181.2919689528726
 23
413.1328802412719
 33
0.0
 14
234.2919689528726
 24
413.1328802412719
 34
0.0
100
AcDbRotatedDimension
1001
ACAD
1000
DSTYLE
1002
{
1070
    40
1040
2.0
1070
    41
1040
3.5
1070
    42
1040
1.0
1070
    43
1040
7.0
1070
    44
1040
1.0
1070
    47
1040
3.0
1070
    48
1040
3.0
1070
    73
1070
     0
1070
    74
1070
     0
1070
    77
1070
     1
1070
    78
1070
     8
1070
    79
1070
     2
1070
   140
1040
3.5
1070
   141
1040
1.5
1070
   145
1040
0.2857142857142857
1070
   146
1040
0.5142857142857144
1070
   147
1040
1.5
1070
   172
1070
     1
1070
   178
1070
     1
1070
   179
1070
     2
1070
   271
1070
     2
1070
   272
1070
     2
1070
   284
1070
     8
1070
   285
1070
     8
1070
   286
1070
     8
1002
}
  0
DIMENSION
  5
3B6
330
20
100
AcDbEntity
  8
BEM
100
AcDbDimension
  2
*D5
 10
318.2919689528726
 20
691.976332815811
 30
0.0
 11
207.7919689528726
 21
698.476332815811
 31
0.0
 70
    32
  1
%%c<>
 71
     5
 42
221.0
  3
Standard
100
AcDbAlignedDimension
 13
97.29196895287259
 23
656.1328802412719
 33
0.0
 14
318.2919689528726
 24
656.1328802412718
 34
0.0
100
AcDbRotatedDimension
1001
ACAD
1000
DSTYLE
1002
{
1070
    40
1040
2.0
1070
    41
1040
3.5
1070
    42
1040
1.0
1070
    43
1040
7.0
1070
    44
1040
1.0
1070
    47
1040
2.0
1070
    73
1070
     0
1070
    74
1070
     0
1070
    77
1070
     1
1070
    78
1070
     8
1070
    79
1070
     2
1070
   140
1040
3.5
1070
   141
1040
1.5
1070
   145
1040
0.2857142857142857
1070
   146
1040
0.5
1070
   147
1040
1.5
1070
   172
1070
     1
1070
   178
1070
     1
1070
   179
1070
     2
1070
   271
1070
     2
1070
   272
1070
     2
1070
   284
1070
     8
1070
   285
1070
     8
1070
   286
1070
     8
1002
}
  0
TEXT
  5
489
330
20
100
AcDbEntity
  8
TEXT
100
AcDbText
 10
575.3864137988164
 20
548.5917688115132
 30
0.0
 40
4.0
  1
Name
 50
90.0
 41
0.8
  7
GREEKS
 72
     4
 11
573.3864137988164
 21
554.9155783353227
 31
0.0
100
AcDbText
  0
TEXT
  5
48A
330
20
100
AcDbEntity
  8
TEXT
100
AcDbText
 10
574.7197471321498
 20
530.2915518954022
 30
0.0
 40
4.0
  1
Tag
 50
90.0
 41
0.8
  7
GREEKS
 72
     4
 11
573.3864137988164
 21
534.0248852287356
 31
0.0
100
AcDbText
  0
LINE
  5
4CD
102
{ACAD_REACTORS
330
FDB
102
}
330
20
100
AcDbEntity
  8
STEMPEL
100
AcDbLine
 10
318.2919689528726
 20
656.1328802412718
 30
0.0
 11
258.7919689528726
 21
656.1328802412718
 31
0.0
  0
ARC
  5
874
102
{ACAD_REACTORS
330
9A9
102
}
330
20
100
AcDbEntity
  8
SCHRAFF
100
AcDbCircle
 10
158.2931596076933
 20
646.3003406778189
 30
0.0
 40
3.505193147204898
100
AcDbArc
 50
182.7383455139321
 51
244.6417895380279
  0
ARC
  5
883
102
{ACAD_REACTORS
330
9A9
102
}
330
20
100
AcDbEntity
  8
SCHRAFF
100
AcDbCircle
 10
257.2907782980519
 20
646.3003406778189
 30
0.0
 40
3.505193147204874
100
AcDbArc
 50
295.3582104619716
 51
357.2616544860679
  0
HATCH
  5
9A9
330
20
100
AcDbEntity
  8
SCHRAFF
100
AcDbHatch
 10
0.0
 20
0.0
 30
0.0
210
0.0
220
0.0
230
1.0
  2
_USER
 70
     0
 71
     1
 91
        2
 92
        7
 72
     1
 73
     1
 93
        4
 10
156.7919689528726
 20
643.1328802412718
 42
0.0
 10
158.7919689528726
 20
643.1328802412718
 42
0.0
 10
158.7919689528725
 20
646.132880241272
 42
0.0
 10
154.7919689528726
 20
646.1328802412717
 42
0.2768708900147719
 97
        4
330
34F
330
874
330
376
330
33B
 92
        7
 72
     1
 73
     1
 93
        4
 10
256.7919689528726
 20
646.1328802412716
 42
0.0
 10
256.7919689528726
 20
643.1328802412718
 42
0.0
 10
258.7919689528726
 20
643.1328802412718
 42
0.2768708900147698
 10
260.7919689528726
 20
646.1328802412717
 42
0.0
 97
        4
330
350
330
33A
330
370
330
883
 75
     0
 76
     0
 52
0.0
 41
0.1
 77
     0
 78
     1
 53
0.0
 43
-14.08806764427254
 44
0.0
 45
0.0
 46
0.1
 79
     0
 47
0.2426621677899319
 98
        2
 10
157.2782950090718
 20
644.4345089280338
 10
258.7864651559685
 20
644.9198329976327
  0
ARC
  5
9FB
102
{ACAD_REACTORS
330
A32
102
}
330
20
100
AcDbEntity
  8
STEMPEL
100
AcDbCircle
 10
170.7919689528726
 20
623.0398820309845
 30
0.0
 40
12.0
100
AcDbArc
 50
180.0
 51
207.2351466993025
  0
ARC
  5
9FC
102
{ACAD_REACTORS
330
A32
102
}
330
20
100
AcDbEntity
  8
STEMPEL
100
AcDbCircle
 10
244.7919689528727
 20
623.0398820309849
 30
0.0
 40
12.0
100
AcDbArc
 50
332.7648533006975
 51
0.0000000000000763
  0
ARC
  5
9FD
102
{ACAD_REACTORS
330
A32
102
}
330
20
100
AcDbEntity
  8
STEMPEL
100
AcDbCircle
 10
170.7919689528726
 20
623.0398820309845
 30
0.0
 40
14.0
100
AcDbArc
 50
180.0
 51
207.2351466993025
  0
ARC
  5
A00
102
{ACAD_REACTORS
330
A32
102
}
330
20
100
AcDbEntity
  8
STEMPEL
100
AcDbCircle
 10
244.7919689528727
 20
623.0398820309849
 30
0.0
 40
14.0
100
AcDbArc
 50
332.7648533006975
 51
0.0000000000000763
  0
HATCH
  5
A32
330
20
100
AcDbEntity
  8
SCHRAFF
100
AcDbHatch
 10
0.0
 20
0.0
 30
0.0
210
0.0
220
0.0
230
1.0
  2
_USER
 70
     0
 71
     1
 91
        6
 92
        7
 72
     0
 73
     1
 93
        4
 10
258.7919689528726
 20
658.1328802412716
 10
256.7919689528726
 20
658.1328802412716
 10
256.7919689528726
 20
650.1328802412717
 10
258.7919689528726
 20
650.1328802412717
 97
        4
330
334
330
33A
330
36F
330
336
 92
        7
 72
     0
 73
     1
 93
        4
 10
254.7919689528726
 20
643.1328802412719
 10
256.7919689528726
 20
643.1328802412719
 10
256.7919689528726
 20
650.1328802412719
 10
254.7919689528726
 20
650.1328802412717
 97
        4
330
36F
330
371
330
370
330
33A
 92
        7
 72
     1
 73
     1
 93
        8
 10
256.7919689528726
 20
623.0398820309849
 42
-0.1193983204823961
 10
255.4615986775293
 20
617.5481608491764
 42
0.0
 10
239.2919689528726
 20
586.1328802412717
 42
0.0
 10
241.4938631261104
 20
586.1328802412717
 42
0.0
 10
257.5834885346259
 20
617.3498005913549
 42
0.1050206137148785
 10
258.7919689528726
 20
623.0398820309849
 42
0.0
 10
258.7919689528726
 20
643.1328802412718
 42
0.0
 10
256.7919689528726
 20
643.1328802412718
 42
0.0
 97
        8
330
370
330
33A
330
9FC
330
33C
330
337
330
33F
330
A00
330
378
 92
        7
 72
     0
 73
     1
 93
        4
 10
158.7919689528726
 20
658.1328802412717
 10
156.7919689528726
 20
658.1328802412717
 10
156.7919689528726
 20
650.1328802412717
 10
158.7919689528726
 20
650.1328802412717
 97
        4
330
334
330
335
330
375
330
33B
 92
        7
 72
     0
 73
     1
 93
        4
 10
160.7919689528726
 20
650.1328802412719
 10
158.7919689528726
 20
650.132880241272
 10
158.7919689528726
 20
643.1328802412718
 10
160.7919689528726
 20
643.1328802412718
 97
        4
330
375
330
33B
330
376
330
374
 92
        7
 72
     1
 73
     1
 93
        8
 10
158.7919689528726
 20
643.1328802412716
 42
0.0
 10
156.7919689528726
 20
643.1328802412718
 42
0.0
 10
156.7919689528726
 20
623.0398820309845
 42
0.1050206137148224
 10
158.0004493711181
 20
617.3498005913573
 42
0.0
 10
174.0900747796348
 20
586.1328802412717
 42
0.0
 10
176.2919689528726
 20
586.1328802412717
 42
0.0
 10
160.122339228216
 20
617.5481608491759
 42
-0.1193983204823958
 10
158.7919689528726
 20
623.0398820309845
 42
0.0
 97
        8
330
376
330
379
330
9FD
330
33E
330
337
330
33D
330
9FB
330
33B
 75
     0
 76
     0
 52
135.0
 41
2.0
 77
     0
 78
     1
 53
135.0
 43
-14.08806764427254
 44
0.0
 45
-1.414213562373095
 46
-1.414213562373094
 79
     0
 47
0.3193917340927016
 98
        6
 10
258.2880453226762
 20
655.451860001807
 10
255.7310104151038
 20
646.8282834627601
 10
257.3291562761324
 20
635.3301814106973
 10
157.9245036091852
 20
653.8549024829255
 10
160.1619101095152
 20
646.5088919589836
 10
157.9245036091852
 20
636.9271389295788
  0
ARC
  5
AA1
102
{ACAD_REACTORS
330
AB1
102
}
330
20
100
AcDbEntity
  8
SCHRAFF
100
AcDbCircle
 10
175.9037852082374
 20
587.0623722066929
 30
0.0
 40
3.946679091446211
100
AcDbArc
 50
148.357313327713
 51
264.6508954532285
  0
ARC
  5
AA2
102
{ACAD_REACTORS
330
AB1
102
}
330
20
100
AcDbEntity
  8
SCHRAFF
100
AcDbCircle
 10
239.6801526975078
 20
587.0623722066929
 30
0.0
 40
3.946679091446211
100
AcDbArc
 50
275.3491045467715
 51
31.64268667228704
  0
HATCH
  5
AB1
330
20
100
AcDbEntity
  8
SCHRAFF
100
AcDbHatch
 10
0.0
 20
0.0
 30
0.0
210
0.0
220
0.0
230
1.0
  2
_USER
 70
     0
 71
     1
 91
        2
 92
        7
 72
     1
 73
     1
 93
        4
 10
243.0401039366783
 20
589.1328802412716
 42
0.0
 10
241.4938631261105
 20
586.1328802412717
 42
0.0
 10
240.8712103692909
 20
586.1328802412717
 42
0.0
 10
240.048077614508
 20
583.1328802412717
 42
0.5559848321914484
 97
        4
330
33F
330
337
330
3A6
330
AA2
 92
        7
 72
     1
 73
     1
 93
        4
 10
175.5358602912371
 20
583.1328802412717
 42
0.0
 10
174.7127275364542
 20
586.1328802412717
 42
0.0
 10
174.0900747796349
 20
586.1328802412717
 42
0.0
 10
172.543833969067
 20
589.1328802412718
 42
0.5559848321914583
 97
        4
330
337
330
33E
330
AA1
330
3A7
 75
     0
 76
     0
 52
0.0
 41
0.1
 77
     0
 78
     1
 53
0.0
 43
-14.08806764427254
 44
0.0
 45
0.0
 46
0.1
 79
     0
 47
0.2788795947763496
 98
        2
 10
242.3778965838046
 20
585.2262082265744
 10
173.1643533260835
 20
585.5050870313037
  0
TEXT
  5
AC4
330
20
100
AcDbEntity
  8
TEXT
100
AcDbText
 10
506.5326656031592
 20
614.1152979528916
 30
0.0
 40
4.0
  1
DIN EN 1123-2
 50
90.0
 41
0.7
  7
GREEKS
100
AcDbText
  0
HATCH
  5
B67
330
20
100
AcDbEntity
  8
SCHRAFF
100
AcDbHatch
 10
0.0
 20
0.0
 30
0.0
210
0.0
220
0.0
230
1.0
  2
_USER
 70
     0
 71
     0
 91
        4
 92
        7
 72
     0
 73
     1
 93
        6
 10
234.2919689528727
 20
562.1540941529198
 10
240.8712103692909
 20
586.1328802412717
 10
239.2919689528726
 20
586.1328802412717
 10
232.7919689528727
 20
562.3947217888065
 10
232.7919689528727
 20
538.132880241272
 10
234.2919689528727
 20
538.132880241272
 97
        0
 92
        7
 72
     0
 73
     1
 93
        6
 10
234.2919689528727
 20
538.132880241272
 10
232.7919689528727
 20
538.132880241272
 10
232.7919689528726
 20
413.1328802412719
 10
232.354525635243
 20
408.1328802412719
 10
233.8545256352431
 20
408.1328802412718
 10
234.2919689528726
 20
413.1328802412722
 97
        0
 92
        7
 72
     0
 73
     1
 93
        6
 10
181.2919689528727
 20
538.1328802412719
 10
182.7919689528726
 20
538.1328802412719
 10
182.7919689528726
 20
562.3947217888058
 10
176.2919689528726
 20
586.1328802412717
 10
174.7127275364543
 20
586.1328802412717
 10
181.2919689528726
 20
562.1540941529192
 97
        0
 92
        7
 72
     0
 73
     1
 93
        6
 10
182.7919689528726
 20
538.1328802412717
 10
181.2919689528726
 20
538.1328802412717
 10
181.2919689528725
 20
413.1328802412719
 10
181.7294122705023
 20
408.1328802412719
 10
183.2294122705023
 20
408.1328802412718
 10
182.7919689528726
 20
413.1328802412721
 97
        0
 75
     0
 76
     0
 52
45.0
 41
2.0
 77
     0
 78
     1
 53
45.0
 43
-14.08806764427254
 44
0.0
 45
-1.414213562373094
 46
1.414213562373095
 79
     0
 47
0.4979688841579764
 98
        4
 10
233.5531248120378
 20
545.7338291539724
 10
233.5531248120378
 20
530.7947619799867
 10
181.725871695995
 20
549.7175805323037
 10
182.2242086867868
 20
523.8231975626638
  0
TEXT
  5
B95
330
20
100
AcDbEntity
  8
TEXT
 62
     1
100
AcDbText
 10
458.2535183780499
 20
665.674283231004
 30
0.0
 40
7.0
  1
und innenbeschichtet
 50
90.0
 41
0.8
  7
GREEKS
100
AcDbText
  0
TEXT
  5
B96
330
20
100
AcDbEntity
  8
TEXT
 62
     1
100
AcDbText
 10
445.9473217175687
 20
617.5924529085349
 30
0.0
 40
7.0
  1
Werkstoff: E195 EN10305, St37 feuerverzinkt
 50
90.0
 41
0.8
  7
GREEKS
100
AcDbText
  0
TEXT
  5
CA7
330
20
100
AcDbEntity
  8
TEXT
 62
     1
100
AcDbText
 10
201.9748113114263
 20
478.8305844103291
 30
0.0
 40
7.0
  1
DN50
 50
90.0
 41
0.8
  7
GREEKS
100
AcDbText
  0
HATCH
  5
FDB
330
20
100
AcDbEntity
  8
SCHRAFF
100
AcDbHatch
 10
0.0
 20
0.0
 30
0.0
210
0.0
220
0.0
230
1.0
  2
_USER
 70
     0
 71
     1
 91
        2
 92
        7
 72
     1
 73
     1
 93
        8
 10
318.2919689528725
 20
656.1328802412717
 42
0.0
 10
266.7919689528726
 20
656.1328802412718
 42
0.4142135623730951
 10
258.7919689528726
 20
648.1328802412718
 42
0.0
 10
258.7919689528726
 20
646.1328802412717
 42
0.0
 10
260.7919689528726
 20
646.1328802412717
 42
0.0
 10
260.7919689528726
 20
648.1328802412718
 42
-0.4142135623730951
 10
266.7919689528726
 20
654.1328802412717
 42
0.0
 10
318.2919689528726
 20
654.1328802412716
 42
0.0
 97
        8
330
4CD
330
357
330
377
330
350
330
354
330
356
330
351
330
34C
 92
        7
 72
     1
 73
     1
 93
        8
 10
148.7919689528726
 20
656.1328802412719
 42
0.0
 10
97.29196895287259
 20
656.1328802412719
 42
0.0
 10
97.29196895287259
 20
654.132880241272
 42
0.0
 10
148.7919689528726
 20
654.1328802412717
 42
-0.4142135623730957
 10
154.7919689528726
 20
648.1328802412718
 42
0.0
 10
154.7919689528726
 20
646.1328802412717
 42
0.0
 10
156.7919689528726
 20
646.1328802412719
 42
0.0
 10
156.7919689528726
 20
648.1328802412718
 42
0.4142135623731036
 97
        8
330
34E
330
34B
330
352
330
355
330
353
330
34F
330
37A
330
358
 75
     0
 76
     0
 52
45.0
 41
2.0
 77
     0
 78
     1
 53
45.0
 43
0.0
 44
0.0
 45
-1.414213562373094
 46
1.414213562373095
 79
     0
 47
0.3486713456953434
 98
        2
 10
274.7361817260794
 20
655.1961658778898
 10
148.0954132512106
 20
654.8474944322399
  0
INSERT
  5
1004
330
20
100
AcDbEntity
  8
BEM
100
AcDbBlockReference
  2
*X1
 10
23.38504059959894
 20
253.5045433672293
 30
0.0
 41
-1.0
 50
180.0
1001
ACAD
1000
HATCH
1002
{
1070
    16
1000
_U,I
1040
0.1
1040
0.0
1070
     0
1002
}
  0
ARC
  5
1005
330
20
100
AcDbEntity
  8
BEM
100
AcDbCircle
 10
231.7242241044482
 20
156.0578269143042
 30
0.0
 40
3.656745938638493
100
AcDbArc
 50
134.7950387211165
 51
209.5689460889579
  0
POINT
  5
1006
330
20
100
AcDbEntity
  8
DEFPOINTS
  6
ByBlock
 62
     0
100
AcDbPoint
 10
230.9814485646896
 20
155.4767636889822
 30
0.0
  0
POINT
  5
1007
330
20
100
AcDbEntity
  8
DEFPOINTS
  6
ByBlock
 62
     0
100
AcDbPoint
 10
216.9814485646896
 20
179.7254749949465
 30
0.0
  0
LINE
  5
1009
330
20
100
AcDbEntity
  8
VERDECKT
100
AcDbLine
 10
229.9814485646896
 20
157.2088144965511
 30
0.0
 11
232.5795247760429
 21
158.7088144965511
 31
0.0
  0
LINE
  5
100A
330
20
100
AcDbEntity
  8
STEMPEL
100
AcDbLine
 10
227.4814485646896
 20
161.5389415154733
 30
0.0
 11
230.0795247760429
 21
163.0389415154733
 31
0.0
  0
LINE
  5
100B
330
20
100
AcDbEntity
  8
STEMPEL
100
AcDbLine
 10
219.9814485646896
 20
174.5293225722399
 30
0.0
 11
222.579524776043
 21
176.0293225722399
 31
0.0
  0
LINE
  5
100C
330
20
100
AcDbEntity
  8
STEMPEL
100
AcDbLine
 10
216.9814485646896
 20
179.7254749949465
 30
0.0
 11
219.5795247760429
 21
181.2254749949465
 31
0.0
  0
LINE
  5
100D
330
20
100
AcDbEntity
  8
STEMPEL
100
AcDbLine
 10
230.9814485646896
 20
155.4767636889822
 30
0.0
 11
233.579524776043
 21
156.9767636889822
 31
0.0
  0
LINE
  5
100E
330
20
100
AcDbEntity
  8
STEMPEL
100
AcDbLine
 10
219.5795247760429
 20
181.2254749949465
 30
0.0
 11
233.579524776043
 21
156.9767636889822
 31
0.0
  0
LINE
  5
100F
330
20
100
AcDbEntity
  8
STEMPEL
100
AcDbLine
 10
216.9814485646896
 20
179.7254749949465
 30
0.0
 11
230.9814485646896
 21
155.4767636889822
 31
0.0
  0
LINE
  5
1010
330
20
100
AcDbEntity
  8
STEMPEL
100
AcDbLine
 10
193.9355624923216
 20
151.6421205777318
 30
0.0
 11
221.6483754134237
 21
151.6421205777318
 31
0.0
  0
LINE
  5
1011
330
20
100
AcDbEntity
  8
VERDECKT
100
AcDbLine
 10
193.6498333291417
 20
149.6421205777318
 30
0.0
 11
221.9341045766037
 21
149.6421205777318
 31
0.0
  0
CIRCLE
  5
1013
330
20
100
AcDbEntity
  8
STEMPEL
100
AcDbCircle
 10
207.7919689528726
 20
198.6421205777318
 30
0.0
 40
110.5
  0
CIRCLE
  5
1016
330
20
100
AcDbEntity
  8
STEMPEL
100
AcDbCircle
 10
207.7919689528726
 20
198.6421205777318
 30
0.0
 40
49.0
  0
CIRCLE
  5
1017
330
20
100
AcDbEntity
  8
STEMPEL
100
AcDbCircle
 10
207.7919689528726
 20
198.6421205777318
 30
0.0
 40
51.0
  0
ENDSEC
  0
SECTION
  2
OBJECTS
  0
DICTIONARY
  5
C
330
0
100
AcDbDictionary
281
     1
  3
ACAD_COLOR
350
1B
  3
ACAD_GROUP
350
D
  3
ACAD_LAYOUT
350
19
  3
ACAD_MATERIAL
350
1A
  3
ACAD_MLINESTYLE
350
16
  3
ACAD_PLOTSETTINGS
350
18
  3
ACAD_PLOTSTYLENAME
350
E
  3
AcDbVariableDictionary
350
522
  3
AcmDictionary
350
414
  3
AMG
350
3BC
  3
AMGSNAPSETTINGS
350
453
  0
DICTIONARY
  5
50C
330
20
100
AcDbDictionary
280
     1
281
     1
  3
ACAD_INDEX
360
50D
  0
DICTIONARY
  5
1B
102
{ACAD_REACTORS
330
C
102
}
330
C
100
AcDbDictionary
281
     1
  0
DICTIONARY
  5
D
102
{ACAD_REACTORS
330
C
102
}
330
C
100
AcDbDictionary
281
     1
  0
DICTIONARY
  5
19
102
{ACAD_REACTORS
330
C
102
}
330
C
100
AcDbDictionary
281
     1
  3
Layout1
350
1F
  3
Model
350
23
  0
DICTIONARY
  5
1A
102
{ACAD_REACTORS
330
C
102
}
330
C
100
AcDbDictionary
281
     1
  0
DICTIONARY
  5
16
102
{ACAD_REACTORS
330
C
102
}
330
C
100
AcDbDictionary
281
     1
  3
Standard
350
17
  0
DICTIONARY
  5
18
102
{ACAD_REACTORS
330
C
102
}
330
C
100
AcDbDictionary
281
     1
  0
ACDBDICTIONARYWDFLT
  5
E
102
{ACAD_REACTORS
330
C
102
}
330
C
100
AcDbDictionary
281
     1
  3
Normal
350
F
100
AcDbDictionaryWithDefault
340
F
  0
DICTIONARY
  5
522
102
{ACAD_REACTORS
330
C
102
}
330
C
100
AcDbDictionary
281
     1
  3
DIMASSOC
350
525
  3
HIDETEXT
350
524
  3
INDEXCTL
350
523
  3
PROJECTNAME
350
526
  0
DICTIONARY
  5
414
102
{ACAD_REACTORS
330
C
102
}
330
C
100
AcDbDictionary
281
     1
  3
AcmStdDictionary
350
421
  0
DICTIONARY
  5
3BC
102
{ACAD_REACTORS
330
C
102
}
330
C
100
AcDbDictionary
281
     1
  0
DICTIONARY
  5
453
102
{ACAD_REACTORS
330
C
102
}
330
C
100
AcDbDictionary
281
     1
  0
DICTIONARY
  5
50D
102
{ACAD_REACTORS
330
50C
102
}
330
50C
100
AcDbDictionary
281
     1
  3
*A1
350
50E
  0
LAYOUT
  5
1F
102
{ACAD_REACTORS
330
19
102
}
330
19
100
AcDbPlotSettings
  1

  2
Microsoft Office Document Image Writer
  4

  6

 40
0.0
 41
0.0
 42
0.0
 43
0.0
 44
0.0
 45
0.0
 46
0.0
 47
0.0
 48
0.0
 49
0.0
140
0.0
141
0.0
142
1.0
143
1.0
 70
   688
 72
     0
 73
     0
 74
     5
  7
monochrome1.ctb
 75
    16
147
1.0
 76
     0
 77
     2
 78
   300
148
0.0
149
0.0
100
AcDbLayout
  1
Layout1
 70
     0
 71
     1
 10
0.0
 20
0.0
 11
12.0
 21
9.0
 12
0.0
 22
0.0
 32
0.0
 14
1.000000000000000E+20
 24
1.000000000000000E+20
 34
1.000000000000000E+20
 15
-1.000000000000000E+20
 25
-1.000000000000000E+20
 35
-1.000000000000000E+20
146
0.0
 13
0.0
 23
0.0
 33
0.0
 16
1.0
 26
0.0
 36
0.0
 17
0.0
 27
1.0
 37
0.0
 76
     0
330
1C
  0
LAYOUT
  5
23
102
{ACAD_REACTORS
330
19
102
}
330
19
100
AcDbPlotSettings
  1

  2
RICOH Aficio 2027 PCL 6
  4
A4
  6

 40
5.027083396911621
 41
5.027085304260253
 42
5.027084350585937
 43
5.027069091796875
 44
209.9733276367187
 45
296.9259948730469
 46
0.0
 47
2.08
 48
0.0
 49
0.0
140
0.0
141
0.0
142
1.0
143
2.971200961074196
 70
 11956
 72
     1
 73
     0
 74
     2
  7
monochrome1.ctb
 75
     0
147
0.3365642422377461
 76
     0
 77
     2
 78
   300
148
0.0
149
0.0
100
AcDbLayout
  1
Model
 70
     1
 71
     0
 10
0.0
 20
0.0
 11
12.0
 21
9.0
 12
0.0
 22
0.0
 32
0.0
 14
0.0
 24
0.0
 34
0.0
 15
0.0
 25
0.0
 35
0.0
146
0.0
 13
0.0
 23
0.0
 33
0.0
 16
1.0
 26
0.0
 36
0.0
 17
0.0
 27
1.0
 37
0.0
 76
     0
330
20
  0
MLINESTYLE
  5
17
102
{ACAD_REACTORS
330
16
102
}
330
16
100
AcDbMlineStyle
  2
STANDARD
 70
     0
  3

 62
   256
 51
90.0
 52
90.0
 71
     2
 49
0.5
 62
   256
  6
BYLAYER
 49
-0.5
 62
   256
  6
BYLAYER
  0
ACDBPLACEHOLDER
  5
F
102
{ACAD_REACTORS
330
E
102
}
330
E
  0
DICTIONARYVAR
  5
525
102
{ACAD_REACTORS
330
522
102
}
330
522
100
DictionaryVariables
280
     0
  1
2
  0
DICTIONARYVAR
  5
524
102
{ACAD_REACTORS
330
522
102
}
330
522
100
DictionaryVariables
280
     0
  1
1
  0
DICTIONARYVAR
  5
523
102
{ACAD_REACTORS
330
522
102
}
330
522
100
DictionaryVariables
280
     0
  1
1
  0
DICTIONARYVAR
  5
526
102
{ACAD_REACTORS
330
522
102
}
330
522
100
DictionaryVariables
280
     0
  1

  0
DICTIONARY
  5
421
102
{ACAD_REACTORS
330
414
102
}
330
414
100
AcDbDictionary
281
     1
  0
LAYER_INDEX
  5
50E
102
{ACAD_REACTORS
330
50D
102
}
330
50D
100
AcDbIndex
 40
2455461.550261111
100
AcDbLayerIndex
  8
0
360
50F
 90
        0
  8
VOLL
360
510
 90
        6
  8
MITTEL
360
511
 90
        3
  8
BEM
360
512
 90
       14
  8
HILF
360
513
 90
       25
  8
STEMPEL
360
514
 90
      103
  8
VERDECKT
360
515
 90
        6
  8
DEFPOINTS
360
516
 90
        7
  8
SCHRAFF
360
517
 90
        9
  8
TEXT
360
518
 90
       29
  0
IDBUFFER
  5
50F
330
0
100
AcDbIdBuffer
  0
IDBUFFER
  5
510
330
0
100
AcDbIdBuffer
330
2F6
330
2F7
330
2F8
330
2F9
330
2FA
330
309
  0
IDBUFFER
  5
511
330
0
100
AcDbIdBuffer
330
35A
330
36C
330
391
  0
IDBUFFER
  5
512
330
0
100
AcDbIdBuffer
330
313
330
32A
330
32F
330
330
330
39B
330
39C
330
39D
330
3A0
330
3A3
330
3A5
330
3AE
330
3B6
330
1004
330
1005
  0
IDBUFFER
  5
513
330
0
100
AcDbIdBuffer
330
2FB
330
2FC
330
2FD
330
2FE
330
2FF
330
300
330
301
330
302
330
303
330
304
330
305
330
306
330
307
330
308
330
30A
330
30B
330
31D
330
31E
330
31F
330
320
330
340
330
345
330
34A
330
36D
330
36E
  0
IDBUFFER
  5
514
330
0
100
AcDbIdBuffer
330
2EE
330
2EF
330
2F0
330
2F1
330
2F2
330
2F3
330
2F4
330
2F5
330
321
330
322
330
323
330
324
330
32E
330
333
330
334
330
335
330
336
330
337
330
338
330
339
330
33A
330
33B
330
33C
330
33D
330
33E
330
33F
330
341
330
342
330
343
330
346
330
347
330
348
330
349
330
34B
330
34C
330
34D
330
34E
330
34F
330
350
330
351
330
352
330
353
330
354
330
355
330
356
330
357
330
358
330
35D
330
35F
330
361
330
363
330
364
330
365
330
366
330
367
330
368
330
369
330
36A
330
36F
330
370
330
371
330
372
330
373
330
374
330
375
330
376
330
377
330
378
330
379
330
37A
330
37B
330
37C
330
37D
330
37E
330
37F
330
380
330
381
330
382
330
383
330
384
330
385
330
386
330
387
330
388
330
389
330
3A6
330
3A7
330
3A8
330
4CD
330
9FB
330
9FC
330
9FD
330
A00
330
100A
330
100B
330
100C
330
100D
330
100E
330
100F
330
1010
330
1013
330
1016
330
1017
  0
IDBUFFER
  5
515
330
0
100
AcDbIdBuffer
330
35E
330
360
330
362
330
36B
330
1009
330
1011
  0
IDBUFFER
  5
516
330
0
100
AcDbIdBuffer
330
38A
330
38C
330
38D
330
38F
330
390
330
1006
330
1007
  0
IDBUFFER
  5
517
330
0
100
AcDbIdBuffer
330
874
330
883
330
9A9
330
A32
330
AA1
330
AA2
330
AB1
330
B67
330
FDB
  0
IDBUFFER
  5
518
330
0
100
AcDbIdBuffer
330
2ED
330
30C
330
30D
330
30E
330
30F
330
310
330
311
330
312
330
316
330
317
330
318
330
319
330
31A
330
31B
330
31C
330
325
330
326
330
327
330
328
330
329
330
32B
330
32C
330
32D
330
489
330
48A
330
AC4
330
B95
330
B96
330
CA7
  0
ENDSEC
  0
EOF
