  0
SECTION
  2
HEADER
  9
$ACADVER
  1
AC1018
  9
$ACADMAINTVER
 70
     2
  9
$DWGCODEPAGE
  3
ANSI_1252
  9
$INSBASE
 10
0.0
 20
0.0
 30
0.0
  9
$EXTMIN
 10
-0.0256328098773793
 20
-0.0181260584133725
 30
-0.0015258207003583
  9
$EXTMAX
 10
840.0256367214323
 20
594.0181288244414
 30
0.0000000349246037
  9
$LIMMIN
 10
0.0
 20
0.0
  9
$LIMMAX
 10
840.0
 20
594.0
  9
$ORTHOMODE
 70
     0
  9
$REGENMODE
 70
     1
  9
$FILLMODE
 70
     1
  9
$QTEXTMODE
 70
     0
  9
$MIRRTEXT
 70
     1
  9
$LTSCALE
 40
20.0
  9
$ATTMODE
 70
     1
  9
$TEXTSIZE
 40
3.5
  9
$TRACEWID
 40
1.0
  9
$TEXTSTYLE
  7
STANDARD
  9
$CLAYER
  8
BEM
  9
$CELTYPE
  6
ByLayer
  9
$CECOLOR
 62
   256
  9
$CELTSCALE
 40
1.0
  9
$DISPSILH
 70
     0
  9
$DIMSCALE
 40
2.0
  9
$DIMASZ
 40
3.5
  9
$DIMEXO
 40
1.0
  9
$DIMDLI
 40
7.0
  9
$DIMRND
 40
0.0
  9
$DIMDLE
 40
0.0
  9
$DIMEXE
 40
1.0
  9
$DIMTP
 40
0.0
  9
$DIMTM
 40
0.0
  9
$DIMTXT
 40
3.5
  9
$DIMCEN
 40
1.5
  9
$DIMTSZ
 40
0.0
  9
$DIMTOL
 70
     0
  9
$DIMLIM
 70
     0
  9
$DIMTIH
 70
     0
  9
$DIMTOH
 70
     0
  9
$DIMSE1
 70
     0
  9
$DIMSE2
 70
     0
  9
$DIMTAD
 70
     1
  9
$DIMZIN
 70
     8
  9
$DIMBLK
  1

  9
$DIMASO
 70
     1
  9
$DIMSHO
 70
     0
  9
$DIMPOST
  1

  9
$DIMAPOST
  1

  9
$DIMALT
 70
     0
  9
$DIMALTD
 70
     2
  9
$DIMALTF
 40
25.4
  9
$DIMLFAC
 40
1.0
  9
$DIMTOFL
 70
     1
  9
$DIMTVP
 40
0.0
  9
$DIMTIX
 70
     0
  9
$DIMSOXD
 70
     0
  9
$DIMSAH
 70
     0
  9
$DIMBLK1
  1

  9
$DIMBLK2
  1

  9
$DIMSTYLE
  2
Standard
  9
$DIMCLRD
 70
     0
  9
$DIMCLRE
 70
     0
  9
$DIMCLRT
 70
     1
  9
$DIMTFAC
 40
0.5
  9
$DIMGAP
 40
1.5
  9
$DIMJUST
 70
     0
  9
$DIMSD1
 70
     0
  9
$DIMSD2
 70
     0
  9
$DIMTOLJ
 70
     1
  9
$DIMTZIN
 70
     8
  9
$DIMALTZ
 70
     8
  9
$DIMALTTZ
 70
     8
  9
$DIMUPT
 70
     0
  9
$DIMDEC
 70
     2
  9
$DIMTDEC
 70
     2
  9
$DIMALTU
 70
     2
  9
$DIMALTTD
 70
     2
  9
$DIMTXSTY
  7
STANDARD
  9
$DIMAUNIT
 70
     0
  9
$DIMADEC
 70
     2
  9
$DIMALTRND
 40
0.0
  9
$DIMAZIN
 70
     2
  9
$DIMDSEP
 70
    46
  9
$DIMATFIT
 70
     3
  9
$DIMFRAC
 70
     0
  9
$DIMLDRBLK
  1

  9
$DIMLUNIT
 70
     2
  9
$DIMLWD
 70
    -2
  9
$DIMLWE
 70
    -2
  9
$DIMTMOVE
 70
     0
  9
$LUNITS
 70
     2
  9
$LUPREC
 70
     2
  9
$SKETCHINC
 40
1.0
  9
$FILLETRAD
 40
0.0
  9
$AUNITS
 70
     0
  9
$AUPREC
 70
     0
  9
$MENU
  1
ACAD
  9
$ELEVATION
 40
0.0
  9
$PELEVATION
 40
0.0
  9
$THICKNESS
 40
0.0
  9
$LIMCHECK
 70
     0
  9
$CHAMFERA
 40
0.0
  9
$CHAMFERB
 40
0.0
  9
$CHAMFERC
 40
0.0
  9
$CHAMFERD
 40
0.0
  9
$SKPOLY
 70
     0
  9
$TDCREATE
 40
2455397.867059838
  9
$TDUCREATE
 40
2455397.783726505
  9
$TDUPDATE
 40
2455461.489339270
  9
$TDUUPDATE
 40
2455461.406005937
  9
$TDINDWG
 40
0.0699167477
  9
$TDUSRTIMER
 40
0.0699167477
  9
$USRTIMER
 70
     1
  9
$ANGBASE
 50
0.0
  9
$ANGDIR
 70
     0
  9
$PDMODE
 70
     0
  9
$PDSIZE
 40
0.0
  9
$PLINEWID
 40
0.0
  9
$SPLFRAME
 70
     0
  9
$SPLINETYPE
 70
     6
  9
$SPLINESEGS
 70
     8
  9
$HANDSEED
  5
AE6
  9
$SURFTAB1
 70
     6
  9
$SURFTAB2
 70
     6
  9
$SURFTYPE
 70
     6
  9
$SURFU
 70
     6
  9
$SURFV
 70
     6
  9
$UCSBASE
  2

  9
$UCSNAME
  2

  9
$UCSORG
 10
0.0
 20
0.0
 30
0.0
  9
$UCSXDIR
 10
1.0
 20
0.0
 30
0.0
  9
$UCSYDIR
 10
0.0
 20
1.0
 30
0.0
  9
$UCSORTHOREF
  2

  9
$UCSORTHOVIEW
 70
     0
  9
$UCSORGTOP
 10
0.0
 20
0.0
 30
0.0
  9
$UCSORGBOTTOM
 10
0.0
 20
0.0
 30
0.0
  9
$UCSORGLEFT
 10
0.0
 20
0.0
 30
0.0
  9
$UCSORGRIGHT
 10
0.0
 20
0.0
 30
0.0
  9
$UCSORGFRONT
 10
0.0
 20
0.0
 30
0.0
  9
$UCSORGBACK
 10
0.0
 20
0.0
 30
0.0
  9
$PUCSBASE
  2

  9
$PUCSNAME
  2

  9
$PUCSORG
 10
0.0
 20
0.0
 30
0.0
  9
$PUCSXDIR
 10
1.0
 20
0.0
 30
0.0
  9
$PUCSYDIR
 10
0.0
 20
1.0
 30
0.0
  9
$PUCSORTHOREF
  2

  9
$PUCSORTHOVIEW
 70
     0
  9
$PUCSORGTOP
 10
0.0
 20
0.0
 30
0.0
  9
$PUCSORGBOTTOM
 10
0.0
 20
0.0
 30
0.0
  9
$PUCSORGLEFT
 10
0.0
 20
0.0
 30
0.0
  9
$PUCSORGRIGHT
 10
0.0
 20
0.0
 30
0.0
  9
$PUCSORGFRONT
 10
0.0
 20
0.0
 30
0.0
  9
$PUCSORGBACK
 10
0.0
 20
0.0
 30
0.0
  9
$USERI1
 70
     0
  9
$USERI2
 70
     0
  9
$USERI3
 70
     0
  9
$USERI4
 70
     0
  9
$USERI5
 70
     0
  9
$USERR1
 40
0.0
  9
$USERR2
 40
0.0
  9
$USERR3
 40
0.0
  9
$USERR4
 40
0.0
  9
$USERR5
 40
0.0
  9
$WORLDVIEW
 70
     1
  9
$SHADEDGE
 70
     3
  9
$SHADEDIF
 70
    70
  9
$TILEMODE
 70
     1
  9
$MAXACTVP
 70
    16
  9
$PINSBASE
 10
0.0
 20
0.0
 30
0.0
  9
$PLIMCHECK
 70
     0
  9
$PEXTMIN
 10
1.000000000000000E+20
 20
1.000000000000000E+20
 30
1.000000000000000E+20
  9
$PEXTMAX
 10
-1.000000000000000E+20
 20
-1.000000000000000E+20
 30
-1.000000000000000E+20
  9
$PLIMMIN
 10
0.0
 20
0.0
  9
$PLIMMAX
 10
12.0
 20
9.0
  9
$UNITMODE
 70
     0
  9
$VISRETAIN
 70
     0
  9
$PLINEGEN
 70
     0
  9
$PSLTSCALE
 70
     0
  9
$TREEDEPTH
 70
  3020
  9
$CMLSTYLE
  2
Standard
  9
$CMLJUST
 70
     0
  9
$CMLSCALE
 40
1.0
  9
$PROXYGRAPHICS
 70
     1
  9
$MEASUREMENT
 70
     0
  9
$CELWEIGHT
370
    -1
  9
$ENDCAPS
280
     0
  9
$JOINSTYLE
280
     0
  9
$LWDISPLAY
290
     0
  9
$INSUNITS
 70
     0
  9
$HYPERLINKBASE
  1

  9
$STYLESHEET
  1
monochrome 1.ctb
  9
$XEDIT
290
     1
  9
$CEPSNTYPE
380
     0
  9
$PSTYLEMODE
290
     1
  9
$FINGERPRINTGUID
  2
{D68B0D0D-A558-11D7-B632-000102183313}
  9
$VERSIONGUID
  2
{A492E210-B97C-4BFF-8D1F-D7297A589B77}
  9
$EXTNAMES
290
     1
  9
$PSVPSCALE
 40
0.0
  9
$OLESTARTUP
290
     0
  9
$SORTENTS
280
   127
  9
$INDEXCTL
280
     0
  9
$HIDETEXT
280
     0
  9
$XCLIPFRAME
290
     0
  9
$HALOGAP
280
     0
  9
$OBSCOLOR
 70
   257
  9
$OBSLTYPE
280
     0
  9
$INTERSECTIONDISPLAY
280
     0
  9
$INTERSECTIONCOLOR
 70
   257
  9
$DIMASSOC
280
     1
  9
$PROJECTNAME
  1

  0
ENDSEC
  0
SECTION
  2
CLASSES
  0
CLASS
  1
ACDBDICTIONARYWDFLT
  2
AcDbDictionaryWithDefault
  3
ObjectDBX Classes
 90
        0
 91
        1
280
     0
281
     0
  0
CLASS
  1
DICTIONARYVAR
  2
AcDbDictionaryVar
  3
ObjectDBX Classes
 90
        0
 91
        2
280
     0
281
     0
  0
ENDSEC
  0
SECTION
  2
TABLES
  0
TABLE
  2
VPORT
  5
8
330
0
100
AcDbSymbolTable
 70
     2
  0
VPORT
  5
AE5
330
8
100
AcDbSymbolTableRecord
100
AcDbViewportTableRecord
  2
*Active
 70
     0
 10
0.0
 20
0.0
 11
1.0
 21
1.0
 12
420.0000019557775
 22
297.000001383014
 13
0.0
 23
0.0
 14
1.0
 24
1.0
 15
10.0
 25
10.0
 16
0.0
 26
0.0
 36
1.0
 17
0.0
 27
0.0
 37
0.0
 40
632.1401579413078
 41
1.336927223719676
 42
50.0
 43
0.0
 44
0.0
 50
0.0
 51
0.0
 71
     0
 72
  1500
 73
     1
 74
     0
 75
     0
 76
     0
 77
     0
 78
     0
281
     0
 65
     1
110
0.0
120
0.0
130
0.0
111
1.0
121
0.0
131
0.0
112
0.0
122
1.0
132
0.0
 79
     0
146
0.0
  0
ENDTAB
  0
TABLE
  2
LTYPE
  5
5
330
0
100
AcDbSymbolTable
 70
     2
  0
LTYPE
  5
13
330
5
100
AcDbSymbolTableRecord
100
AcDbLinetypeTableRecord
  2
ByBlock
 70
     0
  3

 72
    65
 73
     0
 40
0.0
  0
LTYPE
  5
14
330
5
100
AcDbSymbolTableRecord
100
AcDbLinetypeTableRecord
  2
ByLayer
 70
     0
  3

 72
    65
 73
     0
 40
0.0
  0
LTYPE
  5
15
330
5
100
AcDbSymbolTableRecord
100
AcDbLinetypeTableRecord
  2
Continuous
 70
     0
  3
Solid line
 72
    65
 73
     0
 40
0.0
  0
LTYPE
  5
25
330
5
100
AcDbSymbolTableRecord
100
AcDbLinetypeTableRecord
  2
STRICHPUNKT
 70
     0
  3
__ . __ . __ . __ . __ . __ . __ . __ . __ . __
 72
    65
 73
     4
 40
1.0
 49
0.5
 74
     0
 49
-0.25
 74
     0
 49
0.0
 74
     0
 49
-0.25
 74
     0
  0
ENDTAB
  0
TABLE
  2
LAYER
  5
2
330
0
100
AcDbSymbolTable
 70
     9
  0
LAYER
  5
10
330
2
100
AcDbSymbolTableRecord
100
AcDbLayerTableRecord
  2
0
 70
     0
 62
     7
  6
Continuous
370
    -3
390
F
  0
LAYER
  5
2B
330
2
100
AcDbSymbolTableRecord
100
AcDbLayerTableRecord
  2
VOLL
 70
     0
 62
     1
  6
Continuous
370
    -3
390
F
  0
LAYER
  5
2C
330
2
100
AcDbSymbolTableRecord
100
AcDbLayerTableRecord
  2
HILF
 70
     0
 62
     2
  6
Continuous
370
    -3
390
F
  0
LAYER
  5
2D
330
2
100
AcDbSymbolTableRecord
100
AcDbLayerTableRecord
  2
MITTEL
 70
     0
 62
     2
  6
STRICHPUNKT
370
    -3
390
F
  0
LAYER
  5
2F
330
2
100
AcDbSymbolTableRecord
100
AcDbLayerTableRecord
  2
BEM
 70
     0
 62
     7
  6
Continuous
370
    -3
390
F
  0
LAYER
  5
30
330
2
100
AcDbSymbolTableRecord
100
AcDbLayerTableRecord
  2
STEMPEL
 70
     0
 62
     3
  6
Continuous
370
    -3
390
F
  0
LAYER
  5
33
330
2
100
AcDbSymbolTableRecord
100
AcDbLayerTableRecord
  2
TEXT
 70
     0
 62
     7
  6
Continuous
370
    -3
390
F
  0
LAYER
  5
359
330
2
100
AcDbSymbolTableRecord
100
AcDbLayerTableRecord
  2
DEFPOINTS
 70
     0
 62
     7
  6
Continuous
290
     0
370
    -3
390
F
  0
LAYER
  5
35A
330
2
100
AcDbSymbolTableRecord
100
AcDbLayerTableRecord
  2
SCHRAFF
 70
     0
 62
     7
  6
Continuous
370
    -3
390
F
  0
ENDTAB
  0
TABLE
  2
STYLE
  5
3
330
0
100
AcDbSymbolTable
 70
     2
  0
STYLE
  5
11
330
3
100
AcDbSymbolTableRecord
100
AcDbTextStyleTableRecord
  2
STANDARD
 70
     0
 40
0.0
 41
0.8
 50
0.0
 71
     0
 42
3.5
  3
simplex.shx
  4

  0
STYLE
  5
24
330
3
100
AcDbSymbolTableRecord
100
AcDbTextStyleTableRecord
  2
GREEKS
 70
     0
 40
0.0
 41
0.8
 50
0.0
 71
     0
 42
2.5
  3
SIMPLEX.shx
  4

  0
ENDTAB
  0
TABLE
  2
VIEW
  5
6
330
0
100
AcDbSymbolTable
 70
     0
  0
ENDTAB
  0
TABLE
  2
UCS
  5
7
330
0
100
AcDbSymbolTable
 70
     0
  0
ENDTAB
  0
TABLE
  2
APPID
  5
9
330
0
100
AcDbSymbolTable
 70
     1
  0
APPID
  5
12
330
9
100
AcDbSymbolTableRecord
100
AcDbRegAppTableRecord
  2
ACAD
 70
     0
  0
ENDTAB
  0
TABLE
  2
DIMSTYLE
  5
A
330
0
100
AcDbSymbolTable
 70
     1
100
AcDbDimStyleTable
 71
     1
340
A2
  0
DIMSTYLE
105
A2
102
{ACAD_REACTORS
330
4AA
330
4A6
330
44C
330
415
330
698
330
6B7
330
855
330
A54
330
A75
102
}
330
A
100
AcDbSymbolTableRecord
100
AcDbDimStyleTableRecord
  2
Standard
 70
     0
340
11
  0
ENDTAB
  0
TABLE
  2
BLOCK_RECORD
  5
1
330
0
100
AcDbSymbolTable
 70
    11
  0
BLOCK_RECORD
  5
1E
102
{ACAD_XDICTIONARY
360
DB
102
}
330
1
100
AcDbSymbolTableRecord
100
AcDbBlockTableRecord
  2
*Model_Space
340
21
  0
BLOCK_RECORD
  5
1A
102
{ACAD_XDICTIONARY
360
DD
102
}
330
1
100
AcDbSymbolTableRecord
100
AcDbBlockTableRecord
  2
*Paper_Space
340
1D
  0
BLOCK_RECORD
  5
22
330
1
100
AcDbSymbolTableRecord
100
AcDbBlockTableRecord
  2
LOGO
340
0
102
{BLKREFS
331
56
102
}
  0
BLOCK_RECORD
  5
23
330
1
100
AcDbSymbolTableRecord
100
AcDbBlockTableRecord
  2
LORO
340
0
102
{BLKREFS
331
9B
102
}
  0
BLOCK_RECORD
  5
4AD
330
1
100
AcDbSymbolTableRecord
100
AcDbBlockTableRecord
  2
*D2
340
0
  0
BLOCK_RECORD
  5
4E1
330
1
100
AcDbSymbolTableRecord
100
AcDbBlockTableRecord
  2
*D3
340
0
  0
BLOCK_RECORD
  5
51E
330
1
100
AcDbSymbolTableRecord
100
AcDbBlockTableRecord
  2
*D4
340
0
  0
BLOCK_RECORD
  5
538
330
1
100
AcDbSymbolTableRecord
100
AcDbBlockTableRecord
  2
*D5
340
0
  0
BLOCK_RECORD
  5
699
330
1
100
AcDbSymbolTableRecord
100
AcDbBlockTableRecord
  2
*D6
340
0
  0
BLOCK_RECORD
  5
6B8
330
1
100
AcDbSymbolTableRecord
100
AcDbBlockTableRecord
  2
*D7
340
0
  0
BLOCK_RECORD
  5
856
330
1
100
AcDbSymbolTableRecord
100
AcDbBlockTableRecord
  2
*D8
340
0
  0
BLOCK_RECORD
  5
A60
330
1
100
AcDbSymbolTableRecord
100
AcDbBlockTableRecord
  2
*D9
340
0
  0
BLOCK_RECORD
  5
A76
330
1
100
AcDbSymbolTableRecord
100
AcDbBlockTableRecord
  2
*D10
340
0
  0
ENDTAB
  0
ENDSEC
  0
SECTION
  2
BLOCKS
  0
BLOCK
  5
37
330
1E
100
AcDbEntity
  8
0
100
AcDbBlockBegin
  2
*Model_Space
 70
     0
 10
0.0
 20
0.0
 30
0.0
  3
*Model_Space
  1

  0
ENDBLK
  5
38
330
1E
100
AcDbEntity
  8
0
100
AcDbBlockEnd
  0
BLOCK
  5
35
330
1A
100
AcDbEntity
 67
     1
  8
0
100
AcDbBlockBegin
  2
*Paper_Space
 70
     0
 10
0.0
 20
0.0
 30
0.0
  3
*Paper_Space
  1

  0
ENDBLK
  5
36
330
1A
100
AcDbEntity
 67
     1
  8
0
100
AcDbBlockEnd
  0
BLOCK
  5
39
330
22
100
AcDbEntity
  8
0
100
AcDbBlockBegin
  2
LOGO
 70
     0
 10
0.0
 20
0.0
 30
0.0
  3
LOGO
  1

  0
ARC
  5
3A
330
22
100
AcDbEntity
  8
0
100
AcDbCircle
 10
11.59973089678112
 20
-9.271599258481501
 30
0.0
 40
4.5
100
AcDbArc
 50
270.0
 51
231.0575587310159
  0
LINE
  5
3B
330
22
100
AcDbEntity
  8
0
100
AcDbLine
 10
3.599730896781125
 20
-4.771599258481529
 30
0.0
 11
3.599730896781153
 21
-11.77159925848133
 31
0.0
  0
LINE
  5
3C
330
22
100
AcDbEntity
  8
0
100
AcDbLine
 10
2.599730896781125
 20
-4.771599258481529
 30
0.0
 11
2.599730896781153
 21
-11.77159925848133
 31
0.0
  0
CIRCLE
  5
3D
330
22
100
AcDbEntity
  8
0
100
AcDbCircle
 10
11.59973089678112
 20
-9.271599258481501
 30
0.0
 40
3.5
  0
ARC
  5
3E
330
22
100
AcDbEntity
  8
0
100
AcDbCircle
 10
31.59973089678115
 20
-9.271599258481472
 30
0.0
 40
4.5
100
AcDbArc
 50
270.0
 51
231.0575587310182
  0
LINE
  5
3F
330
22
100
AcDbEntity
  8
0
100
AcDbLine
 10
17.59973089678112
 20
-4.771599258481472
 30
0.0
 11
17.59973089678115
 21
-13.77159925848147
 31
0.0
  0
ARC
  5
40
330
22
100
AcDbEntity
  8
0
100
AcDbCircle
 10
22.59973089678116
 20
-7.271599258481472
 30
0.0
 40
2.5
100
AcDbArc
 50
293.1161887722295
 51
90.0
  0
CIRCLE
  5
41
330
22
100
AcDbEntity
  8
0
100
AcDbCircle
 10
31.59973089678115
 20
-9.271599258481472
 30
0.0
 40
3.5
  0
ARC
  5
42
330
22
100
AcDbEntity
  8
0
100
AcDbCircle
 10
4.599730896781153
 20
-11.77159925848133
 30
0.0
 40
1.0
100
AcDbArc
 50
180.0
 51
270.0
  0
ARC
  5
43
330
22
100
AcDbEntity
  8
0
100
AcDbCircle
 10
4.599730896781153
 20
-11.77159925848133
 30
0.0
 40
2.0
100
AcDbArc
 50
179.9999999999992
 51
270.0
  0
LINE
  5
44
330
22
100
AcDbEntity
  8
0
100
AcDbLine
 10
11.59973089678115
 20
-13.77159925848144
 30
0.0
 11
4.599730896781153
 21
-13.77159925848147
 31
0.0
  0
LINE
  5
45
330
22
100
AcDbEntity
  8
0
100
AcDbLine
 10
8.771303772034769
 20
-12.77159925848136
 30
0.0
 11
4.599730896781153
 21
-12.77159925848133
 31
0.0
  0
LINE
  5
46
330
22
100
AcDbEntity
  8
0
100
AcDbLine
 10
31.59973089678115
 20
-13.77159925848147
 30
0.0
 11
23.6715276665056
 21
-13.77159925848144
 31
0.0
  0
LINE
  5
47
330
22
100
AcDbEntity
  8
0
100
AcDbLine
 10
23.56565672307022
 20
-9.51278021337896
 30
0.0
 11
24.4388546544846
 21
-12.77159925848144
 31
0.0
  0
LINE
  5
48
330
22
100
AcDbEntity
  8
0
100
AcDbLine
 10
22.59973089678116
 20
-9.771599258481472
 30
0.0
 11
18.59973089678112
 21
-9.771599258481472
 31
0.0
  0
LINE
  5
49
330
22
100
AcDbEntity
  8
0
100
AcDbLine
 10
18.59973089678115
 20
-13.77159925848144
 30
0.0
 11
17.59973089678115
 21
-13.77159925848144
 31
0.0
  0
LINE
  5
4A
330
22
100
AcDbEntity
  8
0
100
AcDbLine
 10
18.59973089678115
 20
-9.771599258481472
 30
0.0
 11
18.59973089678115
 21
-13.77159925848144
 31
0.0
  0
LINE
  5
4B
330
22
100
AcDbEntity
  8
0
100
AcDbLine
 10
22.59973089678116
 20
-9.771599258481472
 30
0.0
 11
23.67152766650562
 21
-13.77159925848147
 31
0.0
  0
ARC
  5
4C
330
22
100
AcDbEntity
  8
0
100
AcDbCircle
 10
22.59973089678116
 20
-7.271599258481472
 30
0.0
 40
2.5
100
AcDbArc
 50
270.0
 51
270.0000000000007
  0
LINE
  5
4D
330
22
100
AcDbEntity
  8
0
100
AcDbLine
 10
28.77130377203494
 20
-12.77159925848147
 30
0.0
 11
24.43885465448463
 21
-12.77159925848144
 31
0.0
  0
LINE
  5
4E
330
22
100
AcDbEntity
  8
0
100
AcDbLine
 10
3.599730896781125
 20
-4.771599258481472
 30
0.0
 11
2.599730896781125
 21
-4.771599258481472
 31
0.0
  0
LINE
  5
4F
330
22
100
AcDbEntity
  8
0
100
AcDbLine
 10
22.59973089678116
 20
-8.771599258481472
 30
0.0
 11
18.59973089678115
 21
-8.771599258481472
 31
0.0
  0
LINE
  5
50
330
22
100
AcDbEntity
  8
0
100
AcDbLine
 10
22.59973089678116
 20
-5.771599258481472
 30
0.0
 11
18.59973089678115
 21
-5.771599258481472
 31
0.0
  0
LINE
  5
51
330
22
100
AcDbEntity
  8
0
100
AcDbLine
 10
22.59973089678116
 20
-4.771599258481472
 30
0.0
 11
17.59973089678115
 21
-4.771599258481472
 31
0.0
  0
LINE
  5
52
330
22
100
AcDbEntity
  8
0
100
AcDbLine
 10
18.59973089678115
 20
-5.771599258481472
 30
0.0
 11
18.59973089678115
 21
-8.771599258481472
 31
0.0
  0
ARC
  5
53
330
22
100
AcDbEntity
  8
0
100
AcDbCircle
 10
22.59973089678116
 20
-7.271599258481472
 30
0.0
 40
1.5
100
AcDbArc
 50
270.0
 51
90.0
  0
ENDBLK
  5
54
330
22
100
AcDbEntity
  8
0
100
AcDbBlockEnd
  0
BLOCK
  5
55
330
23
100
AcDbEntity
  8
0
100
AcDbBlockBegin
  2
LORO
 70
     0
 10
0.0
 20
0.0
 30
0.0
  3
LORO
  1

  0
INSERT
  5
56
330
23
100
AcDbEntity
  8
STEMPEL
100
AcDbBlockReference
  2
LOGO
 10
-1.748032802467321
 20
3.771489518552062
 30
0.0
  0
ENDBLK
  5
57
330
23
100
AcDbEntity
  8
0
100
AcDbBlockEnd
  0
BLOCK
  5
4B8
330
4AD
100
AcDbEntity
  8
0
100
AcDbBlockBegin
  2
*D2
 70
     1
 10
0.0
 20
0.0
 30
0.0
  3
*D2
  1

  0
LINE
  5
8F6
330
4AD
100
AcDbEntity
  8
BEM
 62
     0
370
    -2
100
AcDbLine
 10
588.0917524435829
 20
289.3413841350916
 30
0.0
 11
617.4037827278207
 21
287.8052057216123
 31
0.0
  0
LINE
  5
8F7
330
4AD
100
AcDbEntity
  8
BEM
 62
     0
370
    -2
100
AcDbLine
 10
590.8655581244683
 20
342.2687494770834
 30
0.0
 11
620.1775884087061
 21
340.732571063604
 31
0.0
  0
LINE
  5
8F8
330
4AD
100
AcDbEntity
  8
BEM
 62
     0
370
    -2
100
AcDbLine
 10
615.7728753520134
 20
294.9002843773804
 30
0.0
 11
617.8139776454951
 21
333.8468362328083
 31
0.0
  0
SOLID
  5
8F9
330
4AD
100
AcDbEntity
  8
BEM
 62
     0
100
AcDbTrace
 10
614.6078075614664
 20
294.9613429929974
 30
0.0
 11
616.9379431425603
 21
294.8392257617635
 31
0.0
 12
615.4065236583115
 22
287.9098776340985
 32
0.0
 13
615.4065236583115
 23
287.9098776340985
 33
0.0
  0
SOLID
  5
8FA
330
4AD
100
AcDbEntity
  8
BEM
 62
     0
100
AcDbTrace
 10
616.648909854948
 20
333.9078948484253
 30
0.0
 11
618.979045436042
 21
333.7857776171913
 31
0.0
 12
618.1803293391969
 22
340.8372429760903
 32
0.0
 13
618.1803293391969
 23
340.8372429760903
 33
0.0
  0
MTEXT
  5
8FB
330
4AD
100
AcDbEntity
  8
BEM
 62
     1
100
AcDbMText
 10
610.3023345228494
 20
314.7137440206748
 30
0.0
 40
7.0
 41
0.0
 71
     5
 72
     1
  1
\A1;%%c53
 11
0.0523359562431209
 21
0.9986295347545645
 31
0.0
 73
     1
 44
1.0
  0
POINT
  5
8FC
330
4AD
100
AcDbEntity
  8
DEFPOINTS
 62
     0
100
AcDbPoint
 10
586.0944933740737
 20
289.4460560475779
 30
0.0
  0
POINT
  5
8FD
330
4AD
100
AcDbEntity
  8
DEFPOINTS
 62
     0
100
AcDbPoint
 10
588.8682990549592
 20
342.3734213895697
 30
0.0
  0
POINT
  5
8FE
330
4AD
100
AcDbEntity
  8
DEFPOINTS
 62
     0
100
AcDbPoint
 10
618.1803293391969
 20
340.8372429760903
 30
0.0
  0
ENDBLK
  5
4B9
330
4AD
100
AcDbEntity
  8
0
100
AcDbBlockEnd
  0
BLOCK
  5
4EC
330
4E1
100
AcDbEntity
  8
0
100
AcDbBlockBegin
  2
*D3
 70
     1
 10
0.0
 20
0.0
 30
0.0
  3
*D3
  1

  0
LINE
  5
A8C
330
4E1
100
AcDbEntity
  8
BEM
 62
     0
370
    -2
100
AcDbLine
 10
394.9731734230429
 20
363.5957229811165
 30
0.0
 11
394.9731734230429
 21
419.9977618234704
 31
0.0
  0
LINE
  5
A8D
330
4E1
100
AcDbEntity
  8
BEM
 62
     0
370
    -2
100
AcDbLine
 10
291.973173423043
 20
363.5957229811165
 30
0.0
 11
291.973173423043
 21
419.9977618234704
 31
0.0
  0
LINE
  5
A8E
330
4E1
100
AcDbEntity
  8
BEM
 62
     0
370
    -2
100
AcDbLine
 10
387.9731734230429
 20
417.9977618234705
 30
0.0
 11
298.973173423043
 21
417.9977618234705
 31
0.0
  0
SOLID
  5
A8F
330
4E1
100
AcDbEntity
  8
BEM
 62
     0
100
AcDbTrace
 10
387.9731734230429
 20
419.1644284901371
 30
0.0
 11
387.9731734230429
 21
416.8310951568038
 31
0.0
 12
394.9731734230429
 22
417.9977618234705
 32
0.0
 13
394.9731734230429
 23
417.9977618234705
 33
0.0
  0
SOLID
  5
A90
330
4E1
100
AcDbEntity
  8
BEM
 62
     0
100
AcDbTrace
 10
298.973173423043
 20
419.1644284901371
 30
0.0
 11
298.973173423043
 21
416.8310951568038
 31
0.0
 12
291.973173423043
 22
417.9977618234705
 32
0.0
 13
291.973173423043
 23
417.9977618234705
 33
0.0
  0
MTEXT
  5
A91
330
4E1
100
AcDbEntity
  8
BEM
 62
     1
100
AcDbMText
 10
343.4731734230429
 20
424.4977618234704
 30
0.0
 40
7.0
 41
0.0
 71
     5
 72
     1
  1
\A1;%%c103
 73
     1
 44
1.0
  0
POINT
  5
A92
330
4E1
100
AcDbEntity
  8
DEFPOINTS
 62
     0
100
AcDbPoint
 10
394.9731734230429
 20
361.5957229811165
 30
0.0
  0
POINT
  5
A93
330
4E1
100
AcDbEntity
  8
DEFPOINTS
 62
     0
100
AcDbPoint
 10
291.973173423043
 20
361.5957229811165
 30
0.0
  0
POINT
  5
A94
330
4E1
100
AcDbEntity
  8
DEFPOINTS
 62
     0
100
AcDbPoint
 10
291.973173423043
 20
417.9977618234705
 30
0.0
  0
ENDBLK
  5
4ED
330
4E1
100
AcDbEntity
  8
0
100
AcDbBlockEnd
  0
BLOCK
  5
529
330
51E
100
AcDbEntity
  8
0
100
AcDbBlockBegin
  2
*D4
 70
     1
 10
0.0
 20
0.0
 30
0.0
  3
*D4
  1

  0
LINE
  5
8FF
330
51E
100
AcDbEntity
  8
BEM
 62
     0
370
    -2
100
AcDbLine
 10
343.4731734230429
 20
295.0254981093207
 30
0.0
 11
343.4731734230429
 21
264.2140404271229
 31
0.0
  0
LINE
  5
900
330
51E
100
AcDbEntity
  8
BEM
 62
     0
370
    -2
100
AcDbLine
 10
593.4731734230429
 20
313.5957229811166
 30
0.0
 11
593.4731734230429
 21
264.2140404271229
 31
0.0
  0
LINE
  5
901
330
51E
100
AcDbEntity
  8
BEM
 62
     0
370
    -2
100
AcDbLine
 10
350.473173423043
 20
266.2140404271229
 30
0.0
 11
586.4731734230429
 21
266.2140404271229
 31
0.0
  0
SOLID
  5
902
330
51E
100
AcDbEntity
  8
BEM
 62
     0
100
AcDbTrace
 10
350.473173423043
 20
267.3807070937896
 30
0.0
 11
350.473173423043
 21
265.0473737604562
 31
0.0
 12
343.4731734230429
 22
266.2140404271229
 32
0.0
 13
343.4731734230429
 23
266.2140404271229
 33
0.0
  0
SOLID
  5
903
330
51E
100
AcDbEntity
  8
BEM
 62
     0
100
AcDbTrace
 10
586.4731734230429
 20
267.3807070937896
 30
0.0
 11
586.4731734230429
 21
265.0473737604562
 31
0.0
 12
593.4731734230429
 22
266.2140404271229
 32
0.0
 13
593.4731734230429
 23
266.2140404271229
 33
0.0
  0
MTEXT
  5
904
330
51E
100
AcDbEntity
  8
BEM
 62
     1
100
AcDbMText
 10
468.4731734230429
 20
272.7140404271229
 30
0.0
 40
7.0
 41
0.0
 71
     5
 72
     1
  1
\A1;250
 73
     1
 44
1.0
  0
POINT
  5
905
330
51E
100
AcDbEntity
  8
DEFPOINTS
 62
     0
100
AcDbPoint
 10
343.4731734230429
 20
297.0254981093207
 30
0.0
  0
POINT
  5
906
330
51E
100
AcDbEntity
  8
DEFPOINTS
 62
     0
100
AcDbPoint
 10
593.4731734230429
 20
315.5957229811166
 30
0.0
  0
POINT
  5
907
330
51E
100
AcDbEntity
  8
DEFPOINTS
 62
     0
100
AcDbPoint
 10
593.4731734230429
 20
266.2140404271229
 30
0.0
  0
ENDBLK
  5
52A
330
51E
100
AcDbEntity
  8
0
100
AcDbBlockEnd
  0
BLOCK
  5
543
330
538
100
AcDbEntity
  8
0
100
AcDbBlockBegin
  2
*D5
 70
     1
 10
0.0
 20
0.0
 30
0.0
  3
*D5
  1

  0
LINE
  5
A83
330
538
100
AcDbEntity
  8
BEM
 62
     0
370
    -2
100
AcDbLine
 10
243.0281545946466
 20
369.9607157109391
 30
0.0
 11
243.0281545946466
 21
433.7935066301742
 31
0.0
  0
LINE
  5
A84
330
538
100
AcDbEntity
  8
BEM
 62
     0
370
    -2
100
AcDbLine
 10
443.9181922514393
 20
369.9607157109391
 30
0.0
 11
443.9181922514393
 21
433.7935066301742
 31
0.0
  0
LINE
  5
A85
330
538
100
AcDbEntity
  8
BEM
 62
     0
370
    -2
100
AcDbLine
 10
250.0281545946466
 20
431.7935066301742
 30
0.0
 11
436.9181922514393
 21
431.7935066301742
 31
0.0
  0
SOLID
  5
A86
330
538
100
AcDbEntity
  8
BEM
 62
     0
100
AcDbTrace
 10
250.0281545946466
 20
432.9601732968409
 30
0.0
 11
250.0281545946466
 21
430.6268399635075
 31
0.0
 12
243.0281545946466
 22
431.7935066301742
 32
0.0
 13
243.0281545946466
 23
431.7935066301742
 33
0.0
  0
SOLID
  5
A87
330
538
100
AcDbEntity
  8
BEM
 62
     0
100
AcDbTrace
 10
436.9181922514393
 20
432.9601732968409
 30
0.0
 11
436.9181922514393
 21
430.6268399635075
 31
0.0
 12
443.9181922514393
 22
431.7935066301742
 32
0.0
 13
443.9181922514393
 23
431.7935066301742
 33
0.0
  0
MTEXT
  5
A88
330
538
100
AcDbEntity
  8
BEM
 62
     1
100
AcDbMText
 10
343.4731734230429
 20
438.2935066301742
 30
0.0
 40
7.0
 41
0.0
 71
     5
 72
     1
  1
\A1;%%C201
 73
     1
 44
1.0
  0
POINT
  5
A89
330
538
100
AcDbEntity
  8
DEFPOINTS
 62
     0
100
AcDbPoint
 10
243.0281545946466
 20
367.9607157109391
 30
0.0
  0
POINT
  5
A8A
330
538
100
AcDbEntity
  8
DEFPOINTS
 62
     0
100
AcDbPoint
 10
443.9181922514393
 20
367.9607157109391
 30
0.0
  0
POINT
  5
A8B
330
538
100
AcDbEntity
  8
DEFPOINTS
 62
     0
100
AcDbPoint
 10
443.9181922514393
 20
431.7935066301742
 30
0.0
  0
ENDBLK
  5
544
330
538
100
AcDbEntity
  8
0
100
AcDbBlockEnd
  0
BLOCK
  5
6A3
330
699
100
AcDbEntity
  8
0
100
AcDbBlockBegin
  2
*D6
 70
     1
 10
0.0
 20
0.0
 30
0.0
  3
*D6
  1

  0
ARC
  5
8D2
330
699
100
AcDbEntity
  8
BEM
 62
     0
370
    -2
100
AcDbCircle
 10
343.473173423043
 20
328.6976678018769
 30
0.0
 40
31.27527112898021
100
AcDbArc
 50
9.850803385162327
 51
77.14919661483772
  0
SOLID
  5
8D3
330
699
100
AcDbEntity
  8
BEM
 62
     0
100
AcDbTrace
 10
375.451922708962
 20
334.118047723436
 30
0.0
 11
373.1227580232229
 21
333.978633552167
 31
0.0
 12
374.7055828798996
 22
327.0608465805844
 32
0.0
 13
374.7055828798996
 23
327.0608465805844
 33
0.0
  0
SOLID
  5
8D4
330
699
100
AcDbEntity
  8
BEM
 62
     0
100
AcDbTrace
 10
350.2986411555664
 20
358.0302342843934
 30
0.0
 11
350.5597633256345
 21
360.3489105569125
 31
0.0
 12
343.4731734230429
 22
359.9729389308572
 32
0.0
 13
343.4731734230429
 23
359.9729389308572
 33
0.0
  0
MTEXT
  5
8D5
330
699
100
AcDbEntity
  8
BEM
 62
     1
100
AcDbMText
 10
371.786317120063
 20
353.7044069507516
 30
0.0
 40
7.0
 41
0.0
 71
     5
 72
     1
  1
\A1;93°
 11
0.6619870195899193
 21
-0.749515300640658
 31
0.0
 73
     1
 44
1.0
  0
POINT
  5
8D6
330
699
100
AcDbEntity
  8
DEFPOINTS
 62
     0
100
AcDbPoint
 10
359.581128857603
 20
355.5058075342316
 30
0.0
  0
POINT
  5
8D7
330
699
100
AcDbEntity
  8
DEFPOINTS
 62
     0
100
AcDbPoint
 10
343.473173423043
 20
384.8457229811166
 30
0.0
  0
POINT
  5
8D8
330
699
100
AcDbEntity
  8
DEFPOINTS
 62
     0
100
AcDbPoint
 10
338.473173423043
 20
328.9597066982921
 30
0.0
  0
POINT
  5
8D9
330
699
100
AcDbEntity
  8
DEFPOINTS
 62
     0
100
AcDbPoint
 10
598.4663210968157
 20
315.3340431999019
 30
0.0
  0
POINT
  5
8DA
330
699
100
AcDbEntity
  8
DEFPOINTS
 62
     0
100
AcDbPoint
 10
343.473173423043
 20
297.0254981093207
 30
0.0
  0
ENDBLK
  5
6A4
330
699
100
AcDbEntity
  8
0
100
AcDbBlockEnd
  0
BLOCK
  5
6C2
330
6B8
100
AcDbEntity
  8
0
100
AcDbBlockBegin
  2
*D7
 70
     1
 10
0.0
 20
0.0
 30
0.0
  3
*D7
  1

  0
LINE
  5
8C9
330
6B8
100
AcDbEntity
  8
BEM
 62
     0
370
    -2
100
AcDbLine
 10
241.650082924546
 20
366.5957229811165
 30
0.0
 11
222.5201651542566
 21
366.5957229811165
 31
0.0
  0
LINE
  5
8CA
330
6B8
100
AcDbEntity
  8
BEM
 62
     0
370
    -2
100
AcDbLine
 10
341.4731734230429
 20
298.5957229811165
 30
0.0
 11
222.5201651542566
 21
298.5957229811165
 31
0.0
  0
LINE
  5
8CB
330
6B8
100
AcDbEntity
  8
BEM
 62
     0
370
    -2
100
AcDbLine
 10
224.5201651542566
 20
359.5957229811165
 30
0.0
 11
224.5201651542566
 21
305.5957229811165
 31
0.0
  0
SOLID
  5
8CC
330
6B8
100
AcDbEntity
  8
BEM
 62
     0
100
AcDbTrace
 10
223.35349848759
 20
359.5957229811165
 30
0.0
 11
225.6868318209233
 21
359.5957229811165
 31
0.0
 12
224.5201651542566
 22
366.5957229811165
 32
0.0
 13
224.5201651542566
 23
366.5957229811165
 33
0.0
  0
SOLID
  5
8CD
330
6B8
100
AcDbEntity
  8
BEM
 62
     0
100
AcDbTrace
 10
223.3534984875899
 20
305.5957229811165
 30
0.0
 11
225.6868318209232
 21
305.5957229811165
 31
0.0
 12
224.5201651542566
 22
298.5957229811165
 32
0.0
 13
224.5201651542566
 23
298.5957229811165
 33
0.0
  0
MTEXT
  5
8CE
330
6B8
100
AcDbEntity
  8
BEM
 62
     1
100
AcDbMText
 10
218.0201651542565
 20
332.5957229811165
 30
0.0
 40
7.0
 41
0.0
 71
     5
 72
     1
  1
\A1;68
 11
0.0000000000000001
 21
1.0
 31
0.0
 73
     1
 44
1.0
  0
POINT
  5
8CF
330
6B8
100
AcDbEntity
  8
DEFPOINTS
 62
     0
100
AcDbPoint
 10
243.650082924546
 20
366.5957229811165
 30
0.0
  0
POINT
  5
8D0
330
6B8
100
AcDbEntity
  8
DEFPOINTS
 62
     0
100
AcDbPoint
 10
343.4731734230429
 20
298.5957229811165
 30
0.0
  0
POINT
  5
8D1
330
6B8
100
AcDbEntity
  8
DEFPOINTS
 62
     0
100
AcDbPoint
 10
224.5201651542566
 20
298.5957229811165
 30
0.0
  0
ENDBLK
  5
6C3
330
6B8
100
AcDbEntity
  8
0
100
AcDbBlockEnd
  0
BLOCK
  5
860
330
856
100
AcDbEntity
  8
0
100
AcDbBlockBegin
  2
*D8
 70
     1
 10
0.0
 20
0.0
 30
0.0
  3
*D8
  1

  0
LINE
  5
8C0
330
856
100
AcDbEntity
  8
BEM
 62
     0
370
    -2
100
AcDbLine
 10
383.473173423043
 20
379.8457229811166
 30
0.0
 11
638.0942712991177
 21
379.8457229811165
 31
0.0
  0
LINE
  5
8C1
330
856
100
AcDbEntity
  8
BEM
 62
     0
370
    -2
100
AcDbLine
 10
620.8574773305274
 20
315.5957229811166
 30
0.0
 11
638.0942712991177
 21
315.5957229811166
 31
0.0
  0
LINE
  5
8C2
330
856
100
AcDbEntity
  8
BEM
 62
     0
370
    -2
100
AcDbLine
 10
636.0942712991177
 20
372.8457229811165
 30
0.0
 11
636.0942712991177
 21
322.5957229811166
 31
0.0
  0
SOLID
  5
8C3
330
856
100
AcDbEntity
  8
BEM
 62
     0
100
AcDbTrace
 10
634.9276046324511
 20
372.8457229811165
 30
0.0
 11
637.2609379657843
 21
372.8457229811165
 31
0.0
 12
636.0942712991177
 22
379.8457229811165
 32
0.0
 13
636.0942712991177
 23
379.8457229811165
 33
0.0
  0
SOLID
  5
8C4
330
856
100
AcDbEntity
  8
BEM
 62
     0
100
AcDbTrace
 10
634.9276046324511
 20
322.5957229811166
 30
0.0
 11
637.2609379657843
 21
322.5957229811166
 31
0.0
 12
636.0942712991177
 22
315.5957229811166
 32
0.0
 13
636.0942712991177
 23
315.5957229811166
 33
0.0
  0
MTEXT
  5
8C5
330
856
100
AcDbEntity
  8
BEM
 62
     1
100
AcDbMText
 10
629.5942712991176
 20
347.7207229811166
 30
0.0
 40
7.0
 41
0.0
 71
     5
 72
     1
  1
\A1;65
 11
0.0000000000000001
 21
1.0
 31
0.0
 73
     1
 44
1.0
  0
POINT
  5
8C6
330
856
100
AcDbEntity
  8
DEFPOINTS
 62
     0
100
AcDbPoint
 10
381.473173423043
 20
379.8457229811166
 30
0.0
  0
POINT
  5
8C7
330
856
100
AcDbEntity
  8
DEFPOINTS
 62
     0
100
AcDbPoint
 10
618.8574773305274
 20
315.5957229811166
 30
0.0
  0
POINT
  5
8C8
330
856
100
AcDbEntity
  8
DEFPOINTS
 62
     0
100
AcDbPoint
 10
636.0942712991177
 20
315.5957229811166
 30
0.0
  0
ENDBLK
  5
861
330
856
100
AcDbEntity
  8
0
100
AcDbBlockEnd
  0
BLOCK
  5
A6A
330
A60
100
AcDbEntity
  8
0
100
AcDbBlockBegin
  2
*D9
 70
     1
 10
0.0
 20
0.0
 30
0.0
  3
*D9
  1

  0
LINE
  5
A6C
330
A60
100
AcDbEntity
  8
BEM
 62
     0
370
    -2
100
AcDbLine
 10
302.473173423043
 20
393.5957229811166
 30
0.0
 11
302.473173423043
 21
405.2897416832688
 31
0.0
  0
LINE
  5
A6D
330
A60
100
AcDbEntity
  8
BEM
 62
     0
370
    -2
100
AcDbLine
 10
384.473173423043
 20
393.5957229811163
 30
0.0
 11
384.473173423043
 21
405.2897416832688
 31
0.0
  0
LINE
  5
A6E
330
A60
100
AcDbEntity
  8
BEM
 62
     0
370
    -2
100
AcDbLine
 10
309.473173423043
 20
403.2897416832687
 30
0.0
 11
377.473173423043
 21
403.2897416832687
 31
0.0
  0
SOLID
  5
A6F
330
A60
100
AcDbEntity
  8
BEM
 62
     0
100
AcDbTrace
 10
309.473173423043
 20
404.4564083499355
 30
0.0
 11
309.473173423043
 21
402.123075016602
 31
0.0
 12
302.473173423043
 22
403.2897416832687
 32
0.0
 13
302.473173423043
 23
403.2897416832687
 33
0.0
  0
SOLID
  5
A70
330
A60
100
AcDbEntity
  8
BEM
 62
     0
100
AcDbTrace
 10
377.473173423043
 20
404.4564083499355
 30
0.0
 11
377.473173423043
 21
402.123075016602
 31
0.0
 12
384.473173423043
 22
403.2897416832687
 32
0.0
 13
384.473173423043
 23
403.2897416832687
 33
0.0
  0
MTEXT
  5
A71
330
A60
100
AcDbEntity
  8
BEM
 62
     1
100
AcDbMText
 10
348.6976887012269
 20
409.7897416832688
 30
0.0
 40
7.0
 41
0.0
 71
     5
 72
     1
  1
\A1;82
 73
     1
 44
1.0
  0
POINT
  5
A72
330
A60
100
AcDbEntity
  8
DEFPOINTS
 62
     0
100
AcDbPoint
 10
302.473173423043
 20
391.5957229811167
 30
0.0
  0
POINT
  5
A73
330
A60
100
AcDbEntity
  8
DEFPOINTS
 62
     0
100
AcDbPoint
 10
384.473173423043
 20
391.5957229811163
 30
0.0
  0
POINT
  5
A74
330
A60
100
AcDbEntity
  8
DEFPOINTS
 62
     0
100
AcDbPoint
 10
384.473173423043
 20
403.2897416832687
 30
0.0
  0
ENDBLK
  5
A6B
330
A60
100
AcDbEntity
  8
0
100
AcDbBlockEnd
  0
BLOCK
  5
A80
330
A76
100
AcDbEntity
  8
0
100
AcDbBlockBegin
  2
*D10
 70
     1
 10
0.0
 20
0.0
 30
0.0
  3
*D10
  1

  0
LINE
  5
A77
330
A76
100
AcDbEntity
  8
BEM
 62
     0
370
    -2
100
AcDbLine
 10
241.6500829245459
 20
366.5957229811165
 30
0.0
 11
222.5201651542566
 21
366.5957229811165
 31
0.0
  0
LINE
  5
A78
330
A76
100
AcDbEntity
  8
BEM
 62
     0
370
    -2
100
AcDbLine
 10
300.473173423043
 20
391.5957229811167
 30
0.0
 11
222.5201651542566
 21
391.5957229811167
 31
0.0
  0
LINE
  5
A79
330
A76
100
AcDbEntity
  8
BEM
 62
     0
370
    -2
100
AcDbLine
 10
224.5201651542566
 20
373.5957229811165
 30
0.0
 11
224.5201651542566
 21
384.5957229811166
 31
0.0
  0
SOLID
  5
A7A
330
A76
100
AcDbEntity
  8
BEM
 62
     0
100
AcDbTrace
 10
223.35349848759
 20
373.5957229811165
 30
0.0
 11
225.6868318209233
 21
373.5957229811165
 31
0.0
 12
224.5201651542566
 22
366.5957229811165
 32
0.0
 13
224.5201651542566
 23
366.5957229811165
 33
0.0
  0
SOLID
  5
A7B
330
A76
100
AcDbEntity
  8
BEM
 62
     0
100
AcDbTrace
 10
223.35349848759
 20
384.5957229811166
 30
0.0
 11
225.6868318209233
 21
384.5957229811166
 31
0.0
 12
224.5201651542566
 22
391.5957229811167
 32
0.0
 13
224.5201651542566
 23
391.5957229811167
 33
0.0
  0
MTEXT
  5
A7C
330
A76
100
AcDbEntity
  8
BEM
 62
     1
100
AcDbMText
 10
218.0201651542565
 20
379.0957229811166
 30
0.0
 40
7.0
 41
0.0
 71
     5
 72
     1
  1
\A1;25
 11
0.0000000000000001
 21
1.0
 31
0.0
 73
     1
 44
1.0
  0
POINT
  5
A7D
330
A76
100
AcDbEntity
  8
DEFPOINTS
 62
     0
100
AcDbPoint
 10
243.6500829245459
 20
366.5957229811165
 30
0.0
  0
POINT
  5
A7E
330
A76
100
AcDbEntity
  8
DEFPOINTS
 62
     0
100
AcDbPoint
 10
302.473173423043
 20
391.5957229811167
 30
0.0
  0
POINT
  5
A7F
330
A76
100
AcDbEntity
  8
DEFPOINTS
 62
     0
100
AcDbPoint
 10
224.5201651542566
 20
391.5957229811167
 30
0.0
  0
ENDBLK
  5
A81
330
A76
100
AcDbEntity
  8
0
100
AcDbBlockEnd
  0
ENDSEC
  0
SECTION
  2
ENTITIES
  0
LINE
  5
58
330
1E
100
AcDbEntity
  8
STEMPEL
100
AcDbLine
 10
830.0000000000002
 20
110.0
 30
0.0
 11
470.0000000000001
 21
110.0
 31
0.0
  0
LINE
  5
59
330
1E
100
AcDbEntity
  8
STEMPEL
100
AcDbLine
 10
470.0000000000001
 20
110.0
 30
0.0
 11
470.0000000000001
 21
10.0
 31
0.0
  0
LINE
  5
5A
330
1E
100
AcDbEntity
  8
STEMPEL
100
AcDbLine
 10
566.0000000000002
 20
109.9999999999999
 30
0.0
 11
566.0000000000001
 21
9.999999999999886
 31
0.0
  0
LINE
  5
5B
330
1E
100
AcDbEntity
  8
STEMPEL
100
AcDbLine
 10
650.0
 20
110.0
 30
0.0
 11
650.0
 21
10.0
 31
0.0
  0
LINE
  5
5C
330
1E
100
AcDbEntity
  8
STEMPEL
100
AcDbLine
 10
752.0000000000002
 20
109.9999999999997
 30
0.0
 11
752.0000000000002
 21
40.0
 31
0.0
  0
LINE
  5
5D
330
1E
100
AcDbEntity
  8
STEMPEL
100
AcDbLine
 10
566.0
 20
30.0
 30
0.0
 11
470.0000000000001
 21
30.0
 31
0.0
  0
LINE
  5
5E
330
1E
100
AcDbEntity
  8
STEMPEL
100
AcDbLine
 10
830.0000000000002
 20
40.0
 30
0.0
 11
566.0000000000001
 21
40.0
 31
0.0
  0
LINE
  5
5F
330
1E
100
AcDbEntity
  8
STEMPEL
100
AcDbLine
 10
830.0000000000002
 20
80.0
 30
0.0
 11
566.0000000000002
 21
80.0
 31
0.0
  0
LINE
  5
60
330
1E
100
AcDbEntity
  8
VOLL
100
AcDbLine
 10
484.0000000000002
 20
110.0
 30
0.0
 11
484.0000000000001
 21
9.999999999999985
 31
0.0
  0
LINE
  5
61
330
1E
100
AcDbEntity
  8
VOLL
100
AcDbLine
 10
524.0000000000001
 20
109.9999999999999
 30
0.0
 11
524.0000000000001
 21
9.999999999999943
 31
0.0
  0
LINE
  5
62
330
1E
100
AcDbEntity
  8
VOLL
100
AcDbLine
 10
544.0000000000002
 20
109.9999999999999
 30
0.0
 11
544.0000000000001
 21
9.999999999999914
 31
0.0
  0
LINE
  5
63
330
1E
100
AcDbEntity
  8
VOLL
100
AcDbLine
 10
584.0000000000002
 20
80.0
 30
0.0
 11
584.0000000000002
 21
40.0
 31
0.0
  0
LINE
  5
64
330
1E
100
AcDbEntity
  8
VOLL
100
AcDbLine
 10
610.0000000000002
 20
109.9999999999998
 30
0.0
 11
610.0000000000001
 21
40.0
 31
0.0
  0
LINE
  5
65
330
1E
100
AcDbEntity
  8
HILF
100
AcDbLine
 10
470.0000000000001
 20
100.0
 30
0.0
 11
566.0000000000002
 21
100.0
 31
0.0
  0
LINE
  5
66
330
1E
100
AcDbEntity
  8
HILF
100
AcDbLine
 10
470.0000000000001
 20
90.0
 30
0.0
 11
566.0000000000002
 21
90.0
 31
0.0
  0
LINE
  5
67
330
1E
100
AcDbEntity
  8
HILF
100
AcDbLine
 10
470.0000000000001
 20
80.0
 30
0.0
 11
566.0000000000002
 21
80.0
 31
0.0
  0
LINE
  5
68
330
1E
100
AcDbEntity
  8
HILF
100
AcDbLine
 10
470.0000000000001
 20
70.0
 30
0.0
 11
566.0000000000002
 21
70.0
 31
0.0
  0
LINE
  5
69
330
1E
100
AcDbEntity
  8
HILF
100
AcDbLine
 10
470.0000000000001
 20
60.0
 30
0.0
 11
566.0000000000002
 21
60.0
 31
0.0
  0
LINE
  5
6A
330
1E
100
AcDbEntity
  8
HILF
100
AcDbLine
 10
470.0000000000001
 20
50.0
 30
0.0
 11
566.0000000000002
 21
50.0
 31
0.0
  0
LINE
  5
6B
330
1E
100
AcDbEntity
  8
HILF
100
AcDbLine
 10
470.0000000000001
 20
40.0
 30
0.0
 11
566.0000000000002
 21
40.0
 31
0.0
  0
LINE
  5
6C
330
1E
100
AcDbEntity
  8
HILF
100
AcDbLine
 10
566.0000000000002
 20
70.0
 30
0.0
 11
650.0
 21
70.0
 31
0.0
  0
LINE
  5
6D
330
1E
100
AcDbEntity
  8
HILF
100
AcDbLine
 10
566.0000000000002
 20
60.0
 30
0.0
 11
650.0
 21
60.0
 31
0.0
  0
LINE
  5
6E
330
1E
100
AcDbEntity
  8
HILF
100
AcDbLine
 10
566.0000000000002
 20
50.0
 30
0.0
 11
650.0
 21
50.0
 31
0.0
  0
LINE
  5
6F
330
1E
100
AcDbEntity
  8
HILF
100
AcDbLine
 10
654.7736801096948
 20
84.03758247564136
 30
0.0
 11
746.6297842514811
 21
84.03758247564136
 31
0.0
  0
LINE
  5
70
330
1E
100
AcDbEntity
  8
HILF
100
AcDbLine
 10
654.7736801096948
 20
70.0
 30
0.0
 11
746.6297842514811
 21
70.0
 31
0.0
  0
LINE
  5
71
330
1E
100
AcDbEntity
  8
HILF
100
AcDbLine
 10
654.7736801096948
 20
60.0
 30
0.0
 11
746.6297842514811
 21
60.0
 31
0.0
  0
LINE
  5
72
330
1E
100
AcDbEntity
  8
HILF
100
AcDbLine
 10
654.7736801096948
 20
50.0
 30
0.0
 11
746.6297842514811
 21
50.0
 31
0.0
  0
LINE
  5
73
330
1E
100
AcDbEntity
  8
VOLL
100
AcDbLine
 10
752.0000000000002
 20
60.0
 30
0.0
 11
830.0000000000002
 21
60.0
 31
0.0
  0
LINE
  5
74
330
1E
100
AcDbEntity
  8
HILF
100
AcDbLine
 10
756.7238616296995
 20
83.77983636955823
 30
0.0
 11
824.858883932673
 21
83.77983636955823
 31
0.0
  0
LINE
  5
75
330
1E
100
AcDbEntity
  8
HILF
100
AcDbLine
 10
654.7736801096948
 20
14.89398258028305
 30
0.0
 11
824.858883932673
 21
14.89398258028305
 31
0.0
  0
TEXT
  5
76
330
1E
100
AcDbEntity
  8
TEXT
100
AcDbText
 10
492.3998239263297
 20
18.67381894984129
 30
0.0
 40
4.0
  1
Änderung
 41
0.8
  7
GREEKS
 72
     1
 11
503.1426810691868
 21
18.67381894984129
 31
0.0
100
AcDbText
  0
TEXT
  5
78
330
1E
100
AcDbEntity
  8
TEXT
100
AcDbText
 10
573.5163572150378
 20
102.4620895087088
 30
0.0
 40
5.0
  1
Maßstab
 41
0.8
  7
GREEKS
100
AcDbText
  0
TEXT
  5
79
330
1E
100
AcDbEntity
  8
TEXT
100
AcDbText
 10
654.8779403809011
 20
102.5489328011779
 30
0.0
 40
5.0
  1
Benennung
 41
0.8
  7
GREEKS
100
AcDbText
  0
TEXT
  5
7A
330
1E
100
AcDbEntity
  8
TEXT
100
AcDbText
 10
756.1787549576343
 20
102.3132034537135
 30
0.0
 40
5.0
  1
Zeichnungs Nr.
 41
0.8
  7
GREEKS
100
AcDbText
  0
TEXT
  5
7B
330
1E
100
AcDbEntity
  8
TEXT
100
AcDbText
 10
654.742238391136
 20
30.84560570193055
 30
0.0
 40
5.0
  1
Bauvorhaben
 41
0.8
  7
GREEKS
100
AcDbText
  0
TEXT
  5
7C
330
1E
100
AcDbEntity
  8
TEXT
100
AcDbText
 10
756.7238616296995
 20
73.18118237099965
 30
0.0
 40
5.0
  1
Ersatz für:
 41
0.8
  7
GREEKS
100
AcDbText
  0
TEXT
  5
7D
330
1E
100
AcDbEntity
  8
TEXT
100
AcDbText
 10
478.2664110704577
 20
13.65465846027187
 30
0.0
 40
4.0
  1
Index
 50
90.0
 41
0.8
  7
GREEKS
100
AcDbText
  0
TEXT
  5
7E
330
1E
100
AcDbEntity
  8
TEXT
100
AcDbText
 10
529.8990113186979
 20
18.67156269339808
 30
0.0
 40
4.0
  1
Tag
 41
0.8
  7
GREEKS
 72
     1
 11
533.6323446520313
 21
18.67156269339808
 31
0.0
100
AcDbText
  0
TEXT
  5
7F
330
1E
100
AcDbEntity
  8
TEXT
100
AcDbText
 10
548.9795678138293
 20
18.59324216966404
 30
0.0
 40
4.0
  1
Name
 41
0.8
  7
GREEKS
 72
     1
 11
555.3033773376388
 21
18.59324216966404
 31
0.0
100
AcDbText
  0
TEXT
  5
80
330
1E
100
AcDbEntity
  8
TEXT
100
AcDbText
 10
592.3311673153651
 20
73.31880501229919
 30
0.0
 40
4.0
  1
Tag
 41
0.8
  7
GREEKS
100
AcDbText
  0
TEXT
  5
81
330
1E
100
AcDbEntity
  8
TEXT
100
AcDbText
 10
622.4626584226296
 20
73.3096109191522
 30
0.0
 40
4.0
  1
Name
 41
0.8
  7
GREEKS
100
AcDbText
  0
TEXT
  5
82
330
1E
100
AcDbEntity
  8
TEXT
100
AcDbText
 10
567.5836127167616
 20
63.62990369617961
 30
0.0
 40
4.0
  1
Gez.
 41
0.8
  7
GREEKS
100
AcDbText
  0
TEXT
  5
83
330
1E
100
AcDbEntity
  8
TEXT
100
AcDbText
 10
567.5515086571673
 20
53.68926291428373
 30
0.0
 40
4.0
  1
Gepr.
 41
0.8
  7
GREEKS
100
AcDbText
  0
TEXT
  5
84
330
1E
100
AcDbEntity
  8
TEXT
100
AcDbText
 10
567.6006777387304
 20
43.52946389649804
 30
0.0
 40
4.0
  1
Norm.
 41
0.8
  7
GREEKS
100
AcDbText
  0
TEXT
  5
85
330
1E
100
AcDbEntity
  8
TEXT
100
AcDbText
 10
757.2400861497007
 20
52.07416177878596
 30
0.0
 40
5.0
  1
ersetzt durch:
 41
0.8
  7
GREEKS
100
AcDbText
  0
TEXT
  5
86
330
1E
100
AcDbEntity
  8
TEXT
100
AcDbText
 10
568.8693027807324
 20
72.96682596523723
 30
0.0
 40
4.0
  1
2008
 41
0.8
  7
GREEKS
100
AcDbText
  0
LINE
  5
87
330
1E
100
AcDbEntity
  8
HILF
100
AcDbLine
 10
0.0
 20
0.0
 30
0.0
 11
840.0
 21
0.0
 31
0.0
  0
LINE
  5
88
330
1E
100
AcDbEntity
  8
HILF
100
AcDbLine
 10
840.0
 20
0.0
 30
0.0
 11
840.0
 21
594.0
 31
0.0
  0
LINE
  5
89
330
1E
100
AcDbEntity
  8
HILF
100
AcDbLine
 10
840.0
 20
594.0
 30
0.0
 11
0.0
 21
594.0
 31
0.0
  0
LINE
  5
8B
330
1E
100
AcDbEntity
  8
STEMPEL
100
AcDbLine
 10
830.0
 20
584.0
 30
0.0
 11
40.0
 21
584.0
 31
0.0
  0
LINE
  5
8D
330
1E
100
AcDbEntity
  8
STEMPEL
100
AcDbLine
 10
40.0
 20
10.0
 30
0.0
 11
830.0
 21
10.0
 31
0.0
  0
LINE
  5
8E
330
1E
100
AcDbEntity
  8
STEMPEL
100
AcDbLine
 10
830.0
 20
10.0
 30
0.0
 11
830.0
 21
584.0
 31
0.0
  0
TEXT
  5
8F
330
1E
100
AcDbEntity
  8
TEXT
 62
     1
100
AcDbText
 10
655.0390572473189
 20
87.37343075652544
 30
0.0
 40
7.0
  1
Ablauftopf DN50
 41
0.8
  7
GREEKS
100
AcDbText
  0
TEXT
  5
90
330
1E
100
AcDbEntity
  8
TEXT
 62
     1
100
AcDbText
 10
767.1961422184136
 20
87.37343075652544
 30
0.0
 40
7.0
  1
15871050W
 41
0.8
  7
GREEKS
 72
     1
 11
790.1294755517469
 21
87.37343075652544
 31
0.0
100
AcDbText
  0
TEXT
  5
91
330
1E
100
AcDbEntity
  8
TEXT
100
AcDbText
 10
618.509022641583
 20
102.83989611379
 30
0.0
 40
5.0
  1
Zul.Abw.
 41
0.8
  7
GREEKS
100
AcDbText
  0
TEXT
  5
93
330
1E
100
AcDbEntity
  8
TEXT
100
AcDbText
 10
590.1565237511869
 20
63.1508587612022
 30
0.0
 40
4.0
  1
28.05.
 41
0.8
  7
GREEKS
 72
     1
 11
597.1660475607107
 21
63.1508587612022
 31
0.0
100
AcDbText
  0
TEXT
  5
94
330
1E
100
AcDbEntity
  8
TEXT
100
AcDbText
 10
624.023175322661
 20
62.94297655165468
 30
0.0
 40
4.0
  1
Koeh
 41
0.8
  7
GREEKS
 72
     1
 11
629.2803181798038
 21
62.94297655165468
 31
0.0
100
AcDbText
  0
TEXT
  5
95
330
1E
100
AcDbEntity
  8
TEXT
100
AcDbText
 10
654.3410940884992
 20
72.10021383107525
 30
0.0
 40
5.0
  1
mit Stützrand 35mm umlaufend
 41
0.75
  7
GREEKS
100
AcDbText
  0
TEXT
  5
97
330
1E
100
AcDbEntity
  8
TEXT
100
AcDbText
 10
654.3410940884992
 20
52.59097337846058
 30
0.0
 40
5.0
  1
EDV-Art.Nr. 15871.050X
 41
0.8
  7
GREEKS
100
AcDbText
  0
TEXT
  5
98
330
1E
100
AcDbEntity
  8
TEXT
100
AcDbText
 10
654.1676050109348
 20
43.31127624791508
 30
0.0
 40
4.0
  1
15871050W.DWG
 41
0.8
  7
GREEKS
100
AcDbText
  0
TEXT
  5
99
330
1E
100
AcDbEntity
  8
TEXT
 62
     1
100
AcDbText
 10
582.7034912034222
 20
87.47077088414977
 30
0.0
 40
7.0
  1
1:2
 41
0.8
  7
GREEKS
100
AcDbText
  0
TEXT
  5
9A
330
1E
100
AcDbEntity
  8
TEXT
100
AcDbText
 10
470.0441139350127
 20
114.1143585051043
 30
0.0
 40
5.0
  1
Erstellt mit AUTOCAD 2004
 41
0.8
  7
GREEKS
100
AcDbText
  0
INSERT
  5
9B
330
1E
100
AcDbEntity
  8
HILF
100
AcDbBlockReference
  2
LORO
 10
573.0624985962354
 20
36.9805930029896
 30
0.0
 41
2.0
 42
2.0
 43
2.0
  0
LINE
  5
9C
330
1E
100
AcDbEntity
  8
BEM
100
AcDbLine
 10
456.0
 20
0.0
 30
0.0
 11
456.0
 21
10.0
 31
0.0
  0
LINE
  5
13E
330
1E
100
AcDbEntity
  8
HILF
100
AcDbLine
 10
0.0
 20
0.0
 30
0.0
 11
0.0
 21
594.0
 31
0.0
  0
LINE
  5
13F
330
1E
100
AcDbEntity
  8
STEMPEL
100
AcDbLine
 10
40.0
 20
10.0
 30
0.0
 11
40.0
 21
584.0
 31
0.0
  0
LINE
  5
14A
330
1E
100
AcDbEntity
  8
HILF
100
AcDbLine
 10
0.0
 20
297.0
 30
0.0
 11
40.0
 21
297.0
 31
0.0
  0
TEXT
  5
15B
330
1E
100
AcDbEntity
  8
BEM
100
AcDbText
 10
837.3022923857165
 20
10.16790107998861
 30
0.0
 40
4.0
  1
Diese Zeichnung ist urheberrechtlich geschützt und bleibt unser Eigentum. Sie darf weder ganz noch teilweise verfielfältigt und nicht an Dritte weitergegeben werden.
 50
90.0
 41
0.8
  7
GREEKS
100
AcDbText
  0
LINE
  5
40E
102
{ACAD_REACTORS
330
76D
102
}
330
1E
100
AcDbEntity
  8
STEMPEL
100
AcDbLine
 10
588.8682990549591
 20
342.3734213895697
 30
0.0
 11
594.8326034462848
 21
341.5351930719936
 31
0.0
  0
LINE
  5
40F
102
{ACAD_REACTORS
330
76D
102
}
330
1E
100
AcDbEntity
  8
STEMPEL
100
AcDbLine
 10
588.7897951205909
 20
340.8754770874383
 30
0.0
 11
594.7540995119202
 21
340.0372487698618
 31
0.0
  0
LINE
  5
411
102
{ACAD_REACTORS
330
76D
102
}
330
1E
100
AcDbEntity
  8
STEMPEL
100
AcDbLine
 10
586.1729973084407
 20
290.9440003497098
 30
0.0
 11
592.1922473341656
 21
291.1541971923714
 31
0.0
  0
LINE
  5
412
102
{ACAD_REACTORS
330
76D
102
}
330
1E
100
AcDbEntity
  8
STEMPEL
100
AcDbLine
 10
586.0944933740738
 20
289.4460560475779
 30
0.0
 11
592.1137433998012
 21
289.6562528902396
 31
0.0
  0
LINE
  5
413
102
{ACAD_REACTORS
330
76D
102
}
330
1E
100
AcDbEntity
  8
STEMPEL
100
AcDbLine
 10
594.8326034462845
 20
341.5351930719936
 30
0.0
 11
592.1137433998012
 21
289.6562528902396
 31
0.0
  0
LINE
  5
414
330
1E
100
AcDbEntity
  8
HILF
100
AcDbLine
 10
588.7693186784249
 20
340.4847632956245
 30
0.0
 11
586.1836616542511
 21
291.1474881897817
 31
0.0
  0
DIMENSION
  5
415
330
1E
100
AcDbEntity
  8
BEM
100
AcDbDimension
  2
*D2
 10
618.1803293391969
 20
340.8372429760903
 30
0.0
 11
610.3023345228494
 21
314.7137440206748
 31
0.0
 70
    33
  1
%%c<>
 71
     5
 42
52.99999999999982
  3
Standard
100
AcDbAlignedDimension
 13
586.0944933740737
 23
289.4460560475778
 33
0.0
 14
588.8682990549591
 24
342.3734213895696
 34
0.0
1001
ACAD
1000
DSTYLE
1002
{
1070
    40
1040
2.0
1070
    41
1040
3.5
1070
    42
1040
1.0
1070
    43
1040
7.0
1070
    44
1040
1.0
1070
    73
1070
     0
1070
    74
1070
     0
1070
    77
1070
     1
1070
    78
1070
     8
1070
    79
1070
     2
1070
   140
1040
3.5
1070
   141
1040
1.5
1070
   146
1040
0.5
1070
   147
1040
1.5
1070
   172
1070
     1
1070
   178
1070
     1
1070
   179
1070
     2
1070
   271
1070
     2
1070
   272
1070
     2
1070
   284
1070
     8
1070
   285
1070
     8
1070
   286
1070
     8
1002
}
  0
ARC
  5
419
102
{ACAD_REACTORS
330
7A5
102
}
330
1E
100
AcDbEntity
  8
STEMPEL
100
AcDbCircle
 10
439.4120722108483
 20
365.0687469827671
 30
0.0
 40
4.5
100
AcDbArc
 50
65.50468174750598
 51
92.36239407091025
  0
LINE
  5
41A
102
{ACAD_REACTORS
330
7A5
102
}
330
1E
100
AcDbEntity
  8
STEMPEL
100
AcDbLine
 10
443.2962639215398
 20
366.5957229811165
 30
0.0
 11
443.9181922514393
 21
367.9607157109391
 31
0.0
  0
LINE
  5
41B
102
{ACAD_REACTORS
330
7A5
102
}
330
1E
100
AcDbEntity
  8
STEMPEL
100
AcDbLine
 10
440.6559288706471
 20
367.7987324424123
 30
0.0
 11
443.2962639215398
 21
366.5957229811165
 31
0.0
  0
ARC
  5
41C
102
{ACAD_REACTORS
330
7A5
102
}
330
1E
100
AcDbEntity
  8
STEMPEL
100
AcDbCircle
 10
439.4120722108483
 20
365.0687469827671
 30
0.0
 40
3.0
100
AcDbArc
 50
65.50468174750635
 51
92.36239407091025
  0
LINE
  5
41D
102
{ACAD_REACTORS
330
7A5
102
}
330
1E
100
AcDbEntity
  8
STEMPEL
100
AcDbLine
 10
441.2778572005464
 20
369.1637251722349
 30
0.0
 11
443.9181922514393
 21
367.9607157109391
 31
0.0
  0
LINE
  5
41F
330
1E
100
AcDbEntity
  8
TEXT
 62
     2
100
AcDbLine
 10
292.9235182077026
 20
244.3538570102762
 30
0.0
 11
324.0884473111241
 21
303.1415577268492
 31
0.0
  0
TEXT
  5
421
330
1E
100
AcDbEntity
  8
TEXT
 62
     1
100
AcDbText
 10
189.0276721997163
 20
246.3648175247149
 30
0.0
 40
7.0
  1
Ablauftopf
 41
0.8
  7
GREEKS
100
AcDbText
  0
TEXT
  5
422
330
1E
100
AcDbEntity
  8
TEXT
 62
     1
100
AcDbText
 10
189.0276721997163
 20
235.8775111177418
 30
0.0
 40
7.0
  1
EDV-Art.Nr. 15879.050X
 41
0.8
  7
GREEKS
100
AcDbText
  0
LINE
  5
423
330
1E
100
AcDbEntity
  8
TEXT
 62
     2
100
AcDbLine
 10
187.0794514751113
 20
244.3538570102762
 30
0.0
 11
292.9235182077026
 21
244.3538570102762
 31
0.0
  0
ARC
  5
426
102
{ACAD_REACTORS
330
7A5
102
}
330
1E
100
AcDbEntity
  8
STEMPEL
100
AcDbCircle
 10
407.9133484458122
 20
363.7692691567116
 30
0.0
 40
3.0
100
AcDbArc
 50
92.36239407091025
 51
134.9999999999994
  0
ARC
  5
427
102
{ACAD_REACTORS
330
7A5
102
}
330
1E
100
AcDbEntity
  8
STEMPEL
100
AcDbCircle
 10
407.9133484458122
 20
363.7692691567116
 30
0.0
 40
4.5
100
AcDbArc
 50
92.36239407091025
 51
134.9999999999997
  0
ARC
  5
428
102
{ACAD_REACTORS
330
7A5
102
}
330
1E
100
AcDbEntity
  8
STEMPEL
100
AcDbCircle
 10
399.6332005524186
 20
366.0957229811164
 30
0.0
 40
3.0
100
AcDbArc
 50
269.9999999999988
 51
314.9999999999997
  0
ARC
  5
429
102
{ACAD_REACTORS
330
7A5
102
}
330
1E
100
AcDbEntity
  8
STEMPEL
100
AcDbCircle
 10
399.6332005524186
 20
366.0957229811164
 30
0.0
 40
4.5
100
AcDbArc
 50
270.0
 51
314.9999999999995
  0
ARC
  5
42A
102
{ACAD_REACTORS
330
7A5
102
}
330
1E
100
AcDbEntity
  8
STEMPEL
100
AcDbCircle
 10
394.6078920471068
 20
366.0957229811165
 30
0.0
 40
3.0
100
AcDbArc
 50
210.0
 51
269.999999999998
  0
ARC
  5
42B
102
{ACAD_REACTORS
330
7A5
102
}
330
1E
100
AcDbEntity
  8
STEMPEL
100
AcDbCircle
 10
394.6078920471068
 20
366.0957229811165
 30
0.0
 40
4.5
100
AcDbArc
 50
210.0000000000001
 51
269.999999999998
  0
LINE
  5
42C
330
1E
100
AcDbEntity
  8
MITTEL
100
AcDbLine
 10
387.3750972116895
 20
363.6232911167812
 30
0.0
 11
393.8702877400729
 21
367.3732911167812
 31
0.0
  0
LINE
  5
42D
102
{ACAD_REACTORS
330
7A5
102
}
330
1E
100
AcDbEntity
  8
STEMPEL
100
AcDbLine
 10
391.7037146231092
 20
362.6583179293455
 30
0.0
 11
393.1328207744958
 21
363.483412750549
 31
0.0
  0
LINE
  5
42E
102
{ACAD_REACTORS
330
7A5
102
}
330
1E
100
AcDbEntity
  8
STEMPEL
100
AcDbLine
 10
399.6332005524185
 20
363.0957229811163
 30
0.0
 11
394.6078920471067
 21
363.0957229811165
 31
0.0
  0
LINE
  5
430
102
{ACAD_REACTORS
330
7A5
102
}
330
1E
100
AcDbEntity
  8
STEMPEL
100
AcDbLine
 10
388.4731734230428
 20
367.7213673281344
 30
0.0
 11
389.7722115287195
 21
368.4713673281344
 31
0.0
  0
LINE
  5
431
330
1E
100
AcDbEntity
  8
HILF
100
AcDbLine
 10
405.9731734230429
 20
368.1930551646214
 30
0.0
 11
389.9328951312426
 21
368.1930551646214
 31
0.0
  0
LINE
  5
432
102
{ACAD_REACTORS
330
7A5
102
}
330
1E
100
AcDbEntity
  8
STEMPEL
100
AcDbLine
 10
402.815181067758
 20
362.9137424657769
 30
0.0
 11
405.7920281022525
 21
365.8905895002713
 31
0.0
  0
LINE
  5
433
102
{ACAD_REACTORS
330
7A5
102
}
330
1E
100
AcDbEntity
  8
STEMPEL
100
AcDbLine
 10
401.7545208959782
 20
363.9744026375567
 30
0.0
 11
404.7313679304727
 21
366.9512496720512
 31
0.0
  0
LINE
  5
438
102
{ACAD_REACTORS
330
7A5
102
}
330
1E
100
AcDbEntity
  8
STEMPEL
100
AcDbLine
 10
381.4731734230429
 20
379.8457229811165
 30
0.0
 11
382.7722115287196
 21
380.5957229811165
 31
0.0
  0
LINE
  5
439
102
{ACAD_REACTORS
330
7A5
102
}
330
1E
100
AcDbEntity
  8
STEMPEL
100
AcDbLine
 10
382.7722115287196
 20
380.5957229811166
 30
0.0
 11
392.0098158357535
 21
364.5957229811165
 31
0.0
  0
LINE
  5
43A
102
{ACAD_REACTORS
330
7A5
102
}
330
1E
100
AcDbEntity
  8
STEMPEL
100
AcDbLine
 10
381.4731734230429
 20
379.8457229811165
 30
0.0
 11
390.710777730077
 21
363.8457229811166
 31
0.0
  0
ARC
  5
43C
102
{ACAD_REACTORS
330
7A5
102
}
330
1E
100
AcDbEntity
  8
STEMPEL
100
AcDbCircle
 10
292.338454798979
 20
366.0957229811165
 30
0.0
 40
3.0
100
AcDbArc
 50
270.0
 51
330.0000000000001
  0
ARC
  5
43D
102
{ACAD_REACTORS
330
7A5
102
}
330
1E
100
AcDbEntity
  8
STEMPEL
100
AcDbCircle
 10
292.338454798979
 20
366.0957229811165
 30
0.0
 40
4.5
100
AcDbArc
 50
270.0
 51
330.0000000000001
  0
LINE
  5
43E
102
{ACAD_REACTORS
330
7A5
102
}
330
1E
100
AcDbEntity
  8
STEMPEL
100
AcDbLine
 10
295.2426322229767
 20
362.6583179293453
 30
0.0
 11
293.8135260715901
 21
363.4834127505489
 31
0.0
  0
LINE
  5
441
330
1E
100
AcDbEntity
  8
MITTEL
100
AcDbLine
 10
299.5712496343963
 20
363.6232911167811
 30
0.0
 11
293.0760591060129
 21
367.3732911167811
 31
0.0
  0
LINE
  5
442
102
{ACAD_REACTORS
330
7A5
102
}
330
1E
100
AcDbEntity
  8
STEMPEL
100
AcDbLine
 10
298.4731734230431
 20
367.7213673281343
 30
0.0
 11
297.1741353173664
 21
368.4713673281343
 31
0.0
  0
LINE
  5
443
102
{ACAD_REACTORS
330
7A5
102
}
330
1E
100
AcDbEntity
  8
STEMPEL
100
AcDbLine
 10
305.473173423043
 20
379.8457229811165
 30
0.0
 11
296.235569116009
 21
363.8457229811165
 31
0.0
  0
LINE
  5
444
102
{ACAD_REACTORS
330
7A5
102
}
330
1E
100
AcDbEntity
  8
STEMPEL
100
AcDbLine
 10
304.1741353173663
 20
380.5957229811165
 30
0.0
 11
294.9365310103323
 21
364.5957229811165
 31
0.0
  0
LINE
  5
445
102
{ACAD_REACTORS
330
7A5
102
}
330
1E
100
AcDbEntity
  8
STEMPEL
100
AcDbLine
 10
305.473173423043
 20
379.8457229811165
 30
0.0
 11
304.1741353173663
 21
380.5957229811165
 31
0.0
  0
DIMENSION
  5
44C
330
1E
100
AcDbEntity
  8
BEM
100
AcDbDimension
  2
*D3
 10
291.973173423043
 20
417.9977618234705
 30
0.0
 11
343.4731734230429
 21
424.4977618234704
 31
0.0
 70
    32
  1
%%c<>
 71
     5
 42
102.9999999999999
  3
Standard
100
AcDbAlignedDimension
 13
394.9731734230429
 23
361.5957229811165
 33
0.0
 14
291.973173423043
 24
361.5957229811165
 34
0.0
100
AcDbRotatedDimension
1001
ACAD
1000
DSTYLE
1002
{
1070
    40
1040
2.0
1070
    41
1040
3.5
1070
    42
1040
1.0
1070
    43
1040
7.0
1070
    44
1040
1.0
1070
    73
1070
     0
1070
    74
1070
     0
1070
    77
1070
     1
1070
    78
1070
     8
1070
    79
1070
     2
1070
   140
1040
3.5
1070
   141
1040
1.5
1070
   146
1040
0.5
1070
   147
1040
1.5
1070
   172
1070
     1
1070
   178
1070
     1
1070
   179
1070
     2
1070
   271
1070
     2
1070
   272
1070
     2
1070
   284
1070
     8
1070
   285
1070
     8
1070
   286
1070
     8
1002
}
  0
LINE
  5
44E
330
1E
100
AcDbEntity
  8
STEMPEL
100
AcDbLine
 10
360.0736896455124
 20
348.3558047046626
 30
0.0
 11
371.0586145278127
 21
347.7801091859901
 31
0.0
  0
LINE
  5
44F
330
1E
100
AcDbEntity
  8
STEMPEL
100
AcDbLine
 10
361.130444148246
 20
347.299050201929
 30
0.0
 11
371.0062785715698
 21
346.7814796512355
 31
0.0
  0
LINE
  5
450
330
1E
100
AcDbEntity
  8
STEMPEL
100
AcDbLine
 10
360.0736896455124
 20
348.3558047046626
 30
0.0
 11
380.4190015835124
 21
328.0104927666625
 31
0.0
  0
ARC
  5
451
330
1E
100
AcDbEntity
  8
STEMPEL
100
AcDbCircle
 10
374.7821381429121
 20
364.3360600047854
 30
0.0
 40
16.96950605134312
100
AcDbArc
 50
257.3247727402913
 51
317.7873176988761
  0
ARC
  5
452
102
{ACAD_REACTORS
330
76D
102
}
330
1E
100
AcDbEntity
  8
STEMPEL
100
AcDbCircle
 10
374.7821381429121
 20
364.3360600047854
 30
0.0
 40
17.96950605134312
100
AcDbArc
 50
257.3247727402913
 51
320.3433073235573
  0
LINE
  5
453
330
1E
100
AcDbEntity
  8
STEMPEL
100
AcDbLine
 10
359.937534265266
 20
301.2984400438763
 30
0.0
 11
355.3905864412304
 21
301.5367354818498
 31
0.0
  0
LINE
  5
454
102
{ACAD_REACTORS
330
76D
102
}
330
1E
100
AcDbEntity
  8
STEMPEL
100
AcDbLine
 10
357.6138997020939
 20
301.4202165711977
 30
0.0
 11
357.8232435270657
 21
305.4147347102157
 31
0.0
  0
LINE
  5
457
330
1E
100
AcDbEntity
  8
STEMPEL
100
AcDbLine
 10
380.4190015835124
 20
328.0104927666625
 30
0.0
 11
357.8232435270657
 21
305.4147347102157
 31
0.0
  0
LINE
  5
45A
330
1E
100
AcDbEntity
  8
STEMPEL
100
AcDbLine
 10
293.473173423043
 20
350.0957229811165
 30
0.0
 11
293.473173423043
 21
361.5957229811165
 31
0.0
  0
LINE
  5
45B
330
1E
100
AcDbEntity
  8
STEMPEL
100
AcDbLine
 10
394.973173423043
 20
352.5350343377452
 30
0.0
 11
394.9731734230429
 21
361.5957229811165
 31
0.0
  0
LINE
  5
45C
330
1E
100
AcDbEntity
  8
STEMPEL
100
AcDbLine
 10
393.473173423043
 20
352.6136460066697
 30
0.0
 11
393.473173423043
 21
360.3480224960827
 31
0.0
  0
LINE
  5
45D
330
1E
100
AcDbEntity
  8
STEMPEL
100
AcDbLine
 10
291.973173423043
 20
350.0957229811165
 30
0.0
 11
291.973173423043
 21
361.5957229811165
 31
0.0
  0
LINE
  5
45E
330
1E
100
AcDbEntity
  8
STEMPEL
100
AcDbLine
 10
393.4731734230431
 20
352.6136460066696
 30
0.0
 11
393.473173423043
 21
361.5957229811165
 31
0.0
  0
LINE
  5
45F
102
{ACAD_REACTORS
330
723
330
A1A
102
}
330
1E
100
AcDbEntity
  8
STEMPEL
100
AcDbLine
 10
394.9731734230431
 20
352.535034337745
 30
0.0
 11
394.9731734230431
 21
361.5957229811165
 31
0.0
  0
LINE
  5
460
330
1E
100
AcDbEntity
  8
MITTEL
100
AcDbLine
 10
343.4731734230429
 20
396.5957229811165
 30
0.0
 11
343.4731734230429
 21
297.0254981093207
 31
0.0
  0
LINE
  5
464
102
{ACAD_REACTORS
330
7A5
102
}
330
1E
100
AcDbEntity
  8
STEMPEL
100
AcDbLine
 10
285.1918259501075
 20
363.9744026375569
 30
0.0
 11
282.2149789156132
 21
366.9512496720512
 31
0.0
  0
LINE
  5
465
102
{ACAD_REACTORS
330
7A5
102
}
330
1E
100
AcDbEntity
  8
STEMPEL
100
AcDbLine
 10
284.1311657783277
 20
362.913742465777
 30
0.0
 11
281.1543187438334
 21
365.8905895002713
 31
0.0
  0
ARC
  5
466
102
{ACAD_REACTORS
330
7A5
102
}
330
1E
100
AcDbEntity
  8
STEMPEL
100
AcDbCircle
 10
287.3131462936671
 20
366.0957229811166
 30
0.0
 40
3.0
100
AcDbArc
 50
225.0000000000003
 51
270.0
  0
ARC
  5
467
102
{ACAD_REACTORS
330
7A5
102
}
330
1E
100
AcDbEntity
  8
STEMPEL
100
AcDbCircle
 10
287.3131462936671
 20
366.0957229811166
 30
0.0
 40
4.5
100
AcDbArc
 50
225.0000000000006
 51
270.0
  0
ARC
  5
468
102
{ACAD_REACTORS
330
7A5
102
}
330
1E
100
AcDbEntity
  8
STEMPEL
100
AcDbCircle
 10
279.0329984002738
 20
363.7692691567116
 30
0.0
 40
3.0
100
AcDbArc
 50
45.00000000000057
 51
87.63760592908976
  0
ARC
  5
469
102
{ACAD_REACTORS
330
7A5
102
}
330
1E
100
AcDbEntity
  8
STEMPEL
100
AcDbCircle
 10
279.0329984002738
 20
363.7692691567116
 30
0.0
 40
4.5
100
AcDbArc
 50
45.00000000000057
 51
87.63760592908976
  0
LINE
  5
46A
330
1E
100
AcDbEntity
  8
STEMPEL
100
AcDbLine
 10
280.0385623109762
 20
366.5957229811165
 30
0.0
 11
243.6500829245459
 21
366.5957229811165
 31
0.0
  0
ARC
  5
46C
102
{ACAD_REACTORS
330
7A5
102
}
330
1E
100
AcDbEntity
  8
STEMPEL
100
AcDbCircle
 10
247.5342746352375
 20
365.0687469827671
 30
0.0
 40
4.5
100
AcDbArc
 50
87.63760592908976
 51
114.4953182524947
  0
LINE
  5
46D
102
{ACAD_REACTORS
330
7A5
102
}
330
1E
100
AcDbEntity
  8
STEMPEL
100
AcDbLine
 10
246.2904179754388
 20
367.7987324424123
 30
0.0
 11
243.650082924546
 21
366.5957229811165
 31
0.0
  0
LINE
  5
46E
102
{ACAD_REACTORS
330
7A5
102
}
330
1E
100
AcDbEntity
  8
STEMPEL
100
AcDbLine
 10
243.650082924546
 20
366.5957229811165
 30
0.0
 11
243.0281545946466
 21
367.9607157109391
 31
0.0
  0
ARC
  5
46F
102
{ACAD_REACTORS
330
7A5
102
}
330
1E
100
AcDbEntity
  8
STEMPEL
100
AcDbCircle
 10
247.5342746352375
 20
365.0687469827671
 30
0.0
 40
3.0
100
AcDbArc
 50
87.63760592908976
 51
114.4953182524933
  0
LINE
  5
470
102
{ACAD_REACTORS
330
7A5
102
}
330
1E
100
AcDbEntity
  8
STEMPEL
100
AcDbLine
 10
245.6684896455394
 20
369.1637251722348
 30
0.0
 11
243.0281545946466
 21
367.9607157109391
 31
0.0
  0
LINE
  5
471
102
{ACAD_REACTORS
330
7A5
102
}
330
1E
100
AcDbEntity
  8
STEMPEL
100
AcDbLine
 10
279.2184878296901
 20
368.265444606088
 30
0.0
 11
247.7197640646539
 21
369.5649224321433
 31
0.0
  0
LINE
  5
472
102
{ACAD_REACTORS
330
7A5
102
}
330
1E
100
AcDbEntity
  8
STEMPEL
100
AcDbLine
 10
279.1566580198847
 20
366.7667194562959
 30
0.0
 11
247.6579342548484
 21
368.0661972823513
 31
0.0
  0
ARC
  5
491
102
{ACAD_REACTORS
330
72F
102
}
330
1E
100
AcDbEntity
  8
STEMPEL
100
AcDbCircle
 10
343.4731734230429
 20
350.0957229811165
 30
0.0
 40
51.5
100
AcDbArc
 50
180.0
 51
288.6445610304392
  0
ARC
  5
492
330
1E
100
AcDbEntity
  8
STEMPEL
100
AcDbCircle
 10
343.4731734230429
 20
350.0957229811165
 30
0.0
 40
50.0
100
AcDbArc
 50
180.0
 51
286.4738452635084
  0
LINE
  5
494
102
{ACAD_REACTORS
330
7A5
102
}
330
1E
100
AcDbEntity
  8
STEMPEL
100
AcDbLine
 10
292.338454798979
 20
363.0957229811165
 30
0.0
 11
287.3131462936671
 21
363.0957229811166
 31
0.0
  0
LINE
  5
495
330
1E
100
AcDbEntity
  8
HILF
100
AcDbLine
 10
280.973173423043
 20
368.1930551646214
 30
0.0
 11
297.0134517148434
 21
368.1930551646214
 31
0.0
  0
LINE
  5
496
330
1E
100
AcDbEntity
  8
STEMPEL
100
AcDbLine
 10
247.5342746352375
 20
369.5687469827671
 30
0.0
 11
297.8077077563717
 21
369.568746982767
 31
0.0
  0
LINE
  5
497
102
{ACAD_REACTORS
330
723
330
7A5
102
}
330
1E
100
AcDbEntity
  8
STEMPEL
100
AcDbLine
 10
399.6332005524186
 20
361.5957229811165
 30
0.0
 11
381.1178102969377
 21
361.5957229811165
 31
0.0
  0
LINE
  5
49E
102
{ACAD_REACTORS
330
76D
102
}
330
1E
100
AcDbEntity
  8
STEMPEL
100
AcDbLine
 10
387.2913479789385
 20
351.4355632311136
 30
0.0
 11
588.7897951205909
 21
340.8754770874383
 31
0.0
  0
LINE
  5
49F
102
{ACAD_REACTORS
330
76D
102
}
330
1E
100
AcDbEntity
  8
STEMPEL
100
AcDbLine
 10
357.6924036364583
 20
302.9181608733293
 30
0.0
 11
586.1729973084407
 21
290.9440003497098
 31
0.0
  0
LINE
  5
4A0
102
{ACAD_REACTORS
330
76D
330
A1A
102
}
330
1E
100
AcDbEntity
  8
STEMPEL
100
AcDbLine
 10
387.3507028213434
 20
352.9345110946303
 30
0.0
 11
588.8682990549591
 21
342.3734213895697
 31
0.0
  0
LINE
  5
4A1
102
{ACAD_REACTORS
330
72F
330
76D
102
}
330
1E
100
AcDbEntity
  8
STEMPEL
100
AcDbLine
 10
357.6138997020939
 20
301.4202165711976
 30
0.0
 11
586.0944933740738
 21
289.4460560475779
 31
0.0
  0
LINE
  5
4A2
330
1E
100
AcDbEntity
  8
STEMPEL
100
AcDbLine
 10
406.9077845351097
 20
366.5957229811165
 30
0.0
 11
443.2962639215398
 21
366.5957229811165
 31
0.0
  0
LINE
  5
4A3
102
{ACAD_REACTORS
330
7A5
102
}
330
1E
100
AcDbEntity
  8
STEMPEL
100
AcDbLine
 10
407.7278590163957
 20
368.265444606088
 30
0.0
 11
439.226582781432
 21
369.5649224321433
 31
0.0
  0
LINE
  5
4A4
102
{ACAD_REACTORS
330
7A5
102
}
330
1E
100
AcDbEntity
  8
STEMPEL
100
AcDbLine
 10
407.7896888262012
 20
366.7667194562959
 30
0.0
 11
439.2884125912374
 21
368.0661972823513
 31
0.0
  0
LINE
  5
4A5
330
1E
100
AcDbEntity
  8
STEMPEL
100
AcDbLine
 10
389.1386390897141
 20
369.568746982767
 30
0.0
 11
439.4120722108483
 21
369.568746982767
 31
0.0
  0
DIMENSION
  5
4A6
330
1E
100
AcDbEntity
  8
BEM
100
AcDbDimension
  2
*D4
 10
593.4731734230429
 20
266.2140404271229
 30
0.0
 11
468.4731734230429
 21
272.7140404271229
 31
0.0
 70
    32
 71
     5
 42
250.0
  3
Standard
100
AcDbAlignedDimension
 13
343.4731734230429
 23
297.0254981093207
 33
0.0
 14
593.4731734230429
 24
315.5957229811166
 34
0.0
100
AcDbRotatedDimension
1001
ACAD
1000
DSTYLE
1002
{
1070
    40
1040
2.0
1070
    41
1040
3.5
1070
    42
1040
1.0
1070
    43
1040
7.0
1070
    44
1040
1.0
1070
    73
1070
     0
1070
    74
1070
     0
1070
    77
1070
     1
1070
    78
1070
     8
1070
    79
1070
     2
1070
   140
1040
3.5
1070
   141
1040
1.5
1070
   146
1040
0.5
1070
   147
1040
1.5
1070
   172
1070
     1
1070
   178
1070
     1
1070
   179
1070
     2
1070
   271
1070
     2
1070
   272
1070
     2
1070
   284
1070
     8
1070
   285
1070
     8
1070
   286
1070
     8
1002
}
  0
LINE
  5
4A9
330
1E
100
AcDbEntity
  8
MITTEL
100
AcDbLine
 10
343.4731734230429
 20
328.6976678018769
 30
0.0
 11
598.4663210968157
 21
315.3340431999019
 31
0.0
  0
DIMENSION
  5
4AA
330
1E
100
AcDbEntity
  8
BEM
100
AcDbDimension
  2
*D5
 10
443.9181922514393
 20
431.7935066301742
 30
0.0
 11
343.4731734230429
 21
438.2935066301742
 31
0.0
 70
    32
  1
%%C201
 71
     5
 42
200.8900376567927
  3
Standard
100
AcDbAlignedDimension
 13
243.0281545946466
 23
367.9607157109391
 33
0.0
 14
443.9181922514393
 24
367.9607157109391
 34
0.0
100
AcDbRotatedDimension
1001
ACAD
1000
DSTYLE
1002
{
1070
    40
1040
2.0
1070
    41
1040
3.5
1070
    42
1040
1.0
1070
    43
1040
7.0
1070
    44
1040
1.0
1070
    73
1070
     0
1070
    74
1070
     0
1070
    77
1070
     1
1070
    78
1070
     8
1070
    79
1070
     2
1070
   140
1040
3.5
1070
   141
1040
1.5
1070
   146
1040
0.5
1070
   147
1040
1.5
1070
   172
1070
     1
1070
   178
1070
     1
1070
   179
1070
     2
1070
   271
1070
     2
1070
   272
1070
     2
1070
   284
1070
     8
1070
   285
1070
     8
1070
   286
1070
     8
1002
}
  0
DIMENSION
  5
698
330
1E
100
AcDbEntity
  8
BEM
100
AcDbDimension
  2
*D6
 10
343.4731734230429
 20
297.0254981093207
 30
0.0
 11
366.9144676658987
 21
349.4014913234171
 31
0.0
 70
   162
 71
     5
 42
1.623156204354727
  3
Standard
100
AcDb2LineAngularDimension
 13
338.473173423043
 23
328.9597066982921
 33
0.0
 14
598.4663210968157
 24
315.3340431999019
 34
0.0
 15
343.4731734230429
 25
384.8457229811165
 35
0.0
 16
359.581128857603
 26
355.5058075342316
 36
0.0
1001
ACAD
1000
DSTYLE
1002
{
1070
    40
1040
2.0
1070
    41
1040
3.5
1070
    42
1040
1.0
1070
    43
1040
7.0
1070
    44
1040
1.0
1070
    73
1070
     0
1070
    74
1070
     0
1070
    77
1070
     1
1070
    78
1070
     8
1070
    79
1070
     2
1070
   140
1040
3.5
1070
   141
1040
1.5
1070
   146
1040
0.5
1070
   147
1040
1.5
1070
   172
1070
     1
1070
   178
1070
     1
1070
   179
1070
     2
1070
   271
1070
     2
1070
   272
1070
     2
1070
   284
1070
     8
1070
   285
1070
     8
1070
   286
1070
     8
1002
}
  0
DIMENSION
  5
6B7
330
1E
100
AcDbEntity
  8
BEM
100
AcDbDimension
  2
*D7
 10
224.5201651542566
 20
298.5957229811165
 30
0.0
 11
218.0201651542565
 21
332.5957229811165
 31
0.0
 70
    32
 71
     5
 42
67.99999999999994
  3
Standard
100
AcDbAlignedDimension
 13
243.650082924546
 23
366.5957229811165
 33
0.0
 14
343.4731734230429
 24
298.5957229811165
 34
0.0
 50
90.0
100
AcDbRotatedDimension
1001
ACAD
1000
DSTYLE
1002
{
1070
    40
1040
2.0
1070
    41
1040
3.5
1070
    42
1040
1.0
1070
    43
1040
7.0
1070
    44
1040
1.0
1070
    73
1070
     0
1070
    74
1070
     0
1070
    77
1070
     1
1070
    78
1070
     8
1070
    79
1070
     2
1070
   140
1040
3.5
1070
   141
1040
1.5
1070
   146
1040
0.5
1070
   147
1040
1.5
1070
   172
1070
     1
1070
   178
1070
     1
1070
   179
1070
     2
1070
   271
1070
     2
1070
   272
1070
     2
1070
   284
1070
     8
1070
   285
1070
     8
1070
   286
1070
     8
1002
}
  0
ARC
  5
71E
102
{ACAD_REACTORS
330
723
102
}
330
1E
100
AcDbEntity
  8
SCHRAFF
100
AcDbCircle
 10
394.9731734230429
 20
361.5957229811165
 30
0.0
 40
4.0
100
AcDbArc
 50
270.0
 51
0.0
  0
HATCH
  5
723
330
1E
100
AcDbEntity
  8
SCHRAFF
100
AcDbHatch
 10
0.0
 20
0.0
 30
0.0
210
0.0
220
0.0
230
1.0
  2
_USER
 70
     0
 71
     1
 91
        1
 92
        7
 72
     1
 73
     1
 93
        3
 10
394.9731734230431
 20
361.5957229811165
 42
0.0
 10
394.9731734230431
 20
357.5957229811165
 42
0.4142135623730784
 10
398.9731734230429
 20
361.5957229811165
 42
0.0
 97
        3
330
497
330
45F
330
71E
 75
     0
 76
     0
 52
0.0
 41
0.1
 77
     0
 78
     1
 53
0.0
 43
0.0
 44
-33.13114837711692
 45
0.0
 46
0.1
 79
     0
 47
0.0217372627556254
 98
        1
 10
396.8039778127359
 20
360.3561858034011
  0
HATCH
  5
724
330
1E
100
AcDbEntity
  8
SCHRAFF
100
AcDbHatch
 10
0.0
 20
0.0
 30
0.0
210
0.0
220
0.0
230
1.0
  2
_USER
 70
     0
 71
     0
 91
        1
 92
        7
 72
     1
 73
     1
 93
        3
 10
287.973173423043
 20
361.5957229811165
 42
0.0
 10
291.9731734230428
 20
361.5957229811165
 42
0.0
 10
291.9731734230428
 20
357.5957229811165
 42
-0.4142135623730784
 97
        0
 75
     0
 76
     0
 52
0.0
 41
0.1
 77
     0
 78
     1
 53
180.0
 43
686.9463468460859
 44
-33.13114837711692
 45
0.0
 46
0.1
 79
     0
 47
0.0217372627556254
 98
        1
 10
290.1423690333501
 20
360.3561858034011
  0
ARC
  5
725
330
1E
100
AcDbEntity
  8
SCHRAFF
100
AcDbCircle
 10
291.973173423043
 20
361.5957229811165
 30
0.0
 40
4.0
100
AcDbArc
 50
180.0
 51
270.0
  0
ARC
  5
727
102
{ACAD_REACTORS
330
72F
102
}
330
1E
100
AcDbEntity
  8
SCHRAFF
100
AcDbCircle
 10
359.4708076511986
 20
305.2658403546128
 30
0.0
 40
6.111292524671582
100
AcDbArc
 50
236.5325118874157
 51
316.8864106536818
  0
HATCH
  5
72F
330
1E
100
AcDbEntity
  8
SCHRAFF
100
AcDbHatch
 10
0.0
 20
0.0
 30
0.0
210
0.0
220
0.0
230
1.0
  2
_USER
 70
     0
 71
     1
 91
        1
 92
        7
 72
     1
 73
     1
 93
        3
 10
359.937534265266
 20
301.2984400438764
 42
-0.0194248023873363
 10
356.1006515614542
 20
300.1678069835111
 42
0.3657199572399405
 10
363.9320524042842
 20
301.0890962189046
 42
0.0
 97
        3
330
4A1
330
491
330
727
 75
     0
 76
     0
 52
0.0
 41
0.1
 77
     0
 78
     1
 53
0.0
 43
0.0
 44
-33.13114837711692
 45
0.0
 46
0.1
 79
     0
 47
0.0411297994276311
 98
        1
 10
360.8029249601868
 20
300.3398015676207
  0
HATCH
  5
76D
330
1E
100
AcDbEntity
  8
SCHRAFF
100
AcDbHatch
 10
0.0
 20
0.0
 30
0.0
210
0.0
220
0.0
230
1.0
  2
_USER
 70
     0
 71
     1
 91
        2
 92
        7
 72
     1
 73
     1
 93
        6
 10
388.616540119712
 20
352.8681713728892
 42
-0.0271707336630883
 10
387.2913479789387
 20
351.4355632311136
 42
0.0
 10
588.7897951205907
 20
340.8754770874383
 42
0.0
 10
594.7540995119202
 20
340.0372487698619
 42
0.0
 10
594.8326034462844
 20
341.5351930719937
 42
0.0
 10
588.8682990549589
 20
342.3734213895696
 42
0.0
 97
        6
330
452
330
49E
330
40F
330
413
330
40E
330
4A0
 92
        7
 72
     0
 73
     1
 93
        6
 10
357.6924036364583
 20
302.9181608733292
 10
357.6138997020938
 20
301.4202165711976
 10
586.0944933740732
 20
289.4460560475778
 10
592.1137433998012
 20
289.6562528902396
 10
592.1922473341656
 20
291.1541971923714
 10
586.1729973084409
 20
290.9440003497097
 97
        6
330
454
330
4A1
330
412
330
413
330
411
330
49F
 75
     0
 76
     0
 52
43.0
 41
2.0
 77
     0
 78
     1
 53
43.0
 43
0.0
 44
-33.13114837711692
 45
-1.363996720124996
 46
1.46270740323834
 79
     0
 47
0.4944868890733337
 98
        2
 10
473.2879560226565
 20
347.9532745400288
 10
452.9996545057201
 20
297.5156113366757
  0
HATCH
  5
7A5
330
1E
100
AcDbEntity
  8
SCHRAFF
100
AcDbHatch
 10
0.0
 20
0.0
 30
0.0
210
0.0
220
0.0
230
1.0
  2
_USER
 70
     0
 71
     1
 91
        4
 92
        7
 72
     1
 73
     1
 93
       18
 10
279.2184878296901
 20
368.265444606088
 42
0.0
 10
247.7197640646539
 20
369.5649224321433
 42
0.1177283015269151
 10
245.6684896455392
 20
369.1637251722347
 42
0.0
 10
243.0281545946467
 20
367.960715710939
 42
0.0
 10
243.650082924546
 20
366.5957229811165
 42
0.0
 10
246.2904179754388
 20
367.7987324424123
 42
-0.1177283015269037
 10
247.6579342548484
 20
368.0661972823513
 42
0.0
 10
279.1566580198847
 20
366.7667194562959
 42
-0.1882181836572945
 10
281.1543187438334
 20
365.8905895002713
 42
0.0
 10
284.1311657783277
 20
362.913742465777
 42
0.1989123673796552
 10
287.3131462936671
 20
361.5957229811165
 42
0.0
 10
292.338454798979
 20
361.5957229811165
 42
0.1771982469998002
 10
295.2426322229767
 20
362.6583179293453
 42
0.0
 10
293.8135260715883
 20
363.4834127505499
 42
-0.1292196001266772
 10
292.338454798979
 20
363.0957229811165
 42
0.0
 10
287.3131462936671
 20
363.0957229811166
 42
-0.1989123673796588
 10
285.1918259501075
 20
363.974402637557
 42
0.0
 10
282.2149789156132
 20
366.9512496720512
 42
0.1882181836572949
 97
       18
330
471
330
46C
330
470
330
46E
330
46D
330
46F
330
472
330
468
330
465
330
467
330
497
330
43D
330
43E
330
43C
330
494
330
466
330
464
330
469
 92
        7
 72
     0
 73
     1
 93
        4
 10
305.473173423043
 20
379.8457229811165
 10
304.1741353173663
 20
380.5957229811166
 10
297.1741353173663
 20
368.4713673281344
 10
298.473173423043
 20
367.7213673281344
 97
        4
330
445
330
444
330
442
330
443
 92
        7
 72
     0
 73
     1
 93
        4
 10
382.7722115287197
 20
380.5957229811165
 10
381.4731734230428
 20
379.8457229811165
 10
388.4731734230429
 20
367.7213673281345
 10
389.7722115287196
 20
368.4713673281344
 97
        4
330
438
330
43A
330
430
330
439
 92
        7
 72
     1
 73
     1
 93
       18
 10
439.2884125912374
 20
368.0661972823513
 42
-0.1177283015269005
 10
440.655928870647
 20
367.7987324424123
 42
0.0
 10
443.2962639215398
 20
366.5957229811164
 42
0.0
 10
443.9181922514393
 20
367.960715710939
 42
0.0
 10
441.2778572005464
 20
369.1637251722349
 42
0.1177283015269019
 10
439.226582781432
 20
369.5649224321433
 42
0.0
 10
407.7278590163957
 20
368.265444606088
 42
0.1882181836572931
 10
404.7313679304727
 20
366.9512496720512
 42
0.0
 10
401.7545208959782
 20
363.9744026375567
 42
-0.1989123673796671
 10
399.6332005524185
 20
363.0957229811163
 42
0.0
 10
394.6078920471067
 20
363.0957229811165
 42
-0.1292196001266739
 10
393.1328207744975
 20
363.48341275055
 42
0.0
 10
391.7037146231091
 20
362.6583179293454
 42
0.1771982469998064
 10
394.6078920471069
 20
361.5957229811165
 42
0.0
 10
399.6332005524186
 20
361.5957229811165
 42
0.1989123673796607
 10
402.8151810677581
 20
362.913742465777
 42
0.0
 10
405.7920281022525
 20
365.8905895002713
 42
-0.1882181836573042
 10
407.7896888262014
 20
366.7667194562959
 42
0.0
 97
       18
330
41C
330
41B
330
41A
330
41D
330
419
330
4A3
330
427
330
433
330
428
330
42E
330
42A
330
42D
330
42B
330
497
330
429
330
432
330
426
330
4A4
 75
     0
 76
     0
 52
45.0
 41
2.0
 77
     0
 78
     1
 53
45.0
 43
0.0
 44
-33.13114837711692
 45
-1.414213562373094
 46
1.414213562373095
 79
     0
 47
0.2784610514205069
 98
        4
 10
269.0660059191191
 20
368.2478403686275
 10
301.3903344126284
 20
374.0955232142494
 10
386.1023665014259
 20
372.9816791958833
 10
410.624271101662
 20
367.4124577046928
  0
HATCH
  5
7C2
330
1E
100
AcDbEntity
  8
SCHRAFF
100
AcDbHatch
 10
0.0
 20
0.0
 30
0.0
210
0.0
220
0.0
230
1.0
  2
_USER
 70
     0
 71
     0
 91
        4
 92
        7
 72
     0
 73
     1
 93
        4
 10
394.9731734230432
 20
361.5957229811166
 10
393.473173423043
 20
361.5957229811166
 10
393.4731734230431
 20
352.6136460066696
 10
394.973173423043
 20
352.535034337745
 97
        0
 92
        7
 72
     1
 73
     1
 93
        6
 10
293.473173423043
 20
361.5957229811165
 42
0.0
 10
291.973173423043
 20
361.5957229811166
 42
0.0
 10
291.973173423043
 20
350.0957229811165
 42
0.1075337041983485
 10
296.6290357477029
 20
328.6976678018768
 42
0.0
 10
298.2833157717268
 20
328.6976678018768
 42
-0.1110115888840364
 10
293.473173423043
 20
350.0957229811165
 42
0.0
 97
        0
 92
        7
 72
     1
 73
     1
 93
        4
 10
298.2833157717268
 20
328.6976678018768
 42
0.0
 10
296.6290357477029
 20
328.6976678018768
 42
0.2936022506009346
 10
343.4731734230429
 20
298.5957229811165
 42
0.0
 10
343.4731734230429
 20
300.0957229811165
 42
-0.2898728915998503
 97
        0
 92
        7
 72
     1
 73
     1
 93
        5
 10
359.9375342652661
 20
301.2984400438764
 42
0.0
 10
357.6138997020939
 20
301.4202165711976
 42
0.0
 10
355.3905864412304
 20
301.5367354818498
 42
-0.0602388900209462
 10
343.4731734230429
 20
300.0957229811165
 42
0.0
 10
343.4731734230429
 20
298.5957229811165
 42
0.0815321889103935
 97
        0
 75
     0
 76
     0
 52
135.0
 41
2.0
 77
     0
 78
     1
 53
135.0
 43
0.0
 44
-33.13114837711692
 45
-1.414213562373095
 46
-1.414213562373094
 79
     0
 47
0.2784610514205069
 98
        4
 10
394.1834480789976
 20
356.2740147223119
 10
292.7519352832355
 20
354.8817107488738
 10
299.997043807909
 20
323.4156112827511
 10
345.6969564303449
 20
299.7464213445512
  0
TEXT
  5
838
330
1E
100
AcDbEntity
  8
TEXT
100
AcDbText
 10
612.6261322080842
 20
90.76363841023018
 30
0.0
 40
4.0
  1
DIN EN1123-2
 41
0.8
  7
GREEKS
 72
     1
 11
629.6166083985603
 21
90.76363841023018
 31
0.0
100
AcDbText
  0
DIMENSION
  5
855
330
1E
100
AcDbEntity
  8
BEM
100
AcDbDimension
  2
*D8
 10
636.0942712991177
 20
315.5957229811166
 30
0.0
 11
629.5942712991176
 21
347.7207229811166
 31
0.0
 70
    32
  1
65
 71
     5
 42
64.24999999999994
  3
Standard
100
AcDbAlignedDimension
 13
381.473173423043
 23
379.8457229811166
 33
0.0
 14
618.8574773305274
 24
315.5957229811166
 34
0.0
 50
90.0
100
AcDbRotatedDimension
1001
ACAD
1000
DSTYLE
1002
{
1070
    40
1040
2.0
1070
    41
1040
3.5
1070
    42
1040
1.0
1070
    43
1040
7.0
1070
    44
1040
1.0
1070
    73
1070
     0
1070
    74
1070
     0
1070
    77
1070
     1
1070
    78
1070
     8
1070
    79
1070
     2
1070
   140
1040
3.5
1070
   141
1040
1.5
1070
   146
1040
0.5
1070
   147
1040
1.5
1070
   172
1070
     1
1070
   178
1070
     1
1070
   179
1070
     2
1070
   271
1070
     2
1070
   272
1070
     2
1070
   284
1070
     8
1070
   285
1070
     8
1070
   286
1070
     8
1002
}
  0
LINE
  5
880
330
1E
100
AcDbEntity
  8
BEM
100
AcDbLine
 10
604.7803027473237
 20
315.5957229811166
 30
0.0
 11
595.4731734230429
 21
315.5957229811166
 31
0.0
  0
LINE
  5
9EE
330
1E
100
AcDbEntity
  8
STEMPEL
100
AcDbLine
 10
306.973173423043
 20
360.4793869908261
 30
0.0
 11
305.9171660705244
 21
360.4793869908261
 31
0.0
  0
ARC
  5
9EF
330
1E
100
AcDbEntity
  8
STEMPEL
100
AcDbCircle
 10
543.6845552555083
 20
379.9181945798626
 30
0.0
 40
238.5606811700688
100
AcDbArc
 50
183.1596334857626
 51
184.6738541015525
  0
HATCH
  5
9F0
330
1E
100
AcDbEntity
  8
SCHRAFF
100
AcDbHatch
 10
0.0
 20
0.0
 30
0.0
210
0.0
220
0.0
230
1.0
  2
NET
 70
     0
 71
     0
 91
        2
 92
        7
 72
     1
 73
     1
 93
       20
 10
383.4731734230429
 20
375.1007681422073
 42
0.0
 10
382.2117792378025
 20
378.5664201831869
 42
0.0
 10
381.4731734230429
 20
379.8457229811165
 42
0.0
 10
381.7014242204162
 20
379.9775036404227
 42
-0.485986168343762
 10
382.187247426414
 20
380.5957229811166
 42
0.0
 10
385.273173423043
 20
380.5957229811166
 42
0.0
 10
382.7413466558203
 20
385.086807877949
 42
0.7040385315424552
 10
380.8854271854587
 20
384.7693711587835
 42
0.0
 10
379.9731734230429
 20
379.5957229811166
 42
0.0
 10
379.973173423043
 20
360.4793869908261
 42
0.0
 10
381.0291807755615
 20
360.4793869908261
 42
0.0065571884227471
 10
381.4571919999043
 20
366.7216107731468
 42
-0.7673041015612464
 10
383.148839227212
 20
367.1231629337154
 42
0.0
 10
383.9731734230429
 20
365.5957229811165
 42
0.0
 10
385.773173423043
 20
365.5957229811166
 42
0.0
 10
383.473173423043
 20
369.5957229811165
 42
0.0
 10
383.473173423043
 20
370.1957229811166
 42
0.0
 10
384.873173423043
 20
371.5957229811166
 42
0.0
 10
384.8731734230431
 20
372.5957229811165
 42
0.0
 10
383.4731734230429
 20
373.9957229811166
 42
0.0
 97
        0
 92
        7
 72
     1
 73
     1
 93
       20
 10
306.973173423043
 20
379.5957229811167
 42
0.0
 10
306.0609196606271
 20
384.7693711587835
 42
0.7040385315423309
 10
304.2050001902657
 20
385.086807877949
 42
0.0
 10
301.6731734230429
 20
380.5957229811166
 42
0.0
 10
304.759099419672
 20
380.5957229811166
 42
-0.4859861683436781
 10
305.2449226256697
 20
379.9775036404227
 42
0.0
 10
305.473173423043
 20
379.8457229811166
 42
0.0
 10
304.7345676082838
 20
378.5664201831878
 42
0.0
 10
303.4731734230429
 20
375.1007681422074
 42
0.0
 10
303.473173423043
 20
373.9957229811167
 42
0.0
 10
302.073173423043
 20
372.5957229811165
 42
0.0
 10
302.073173423043
 20
371.5957229811166
 42
0.0
 10
303.473173423043
 20
370.1957229811166
 42
0.0
 10
303.473173423043
 20
369.5957229811166
 42
0.0
 10
301.1731734230429
 20
365.5957229811165
 42
0.0
 10
302.973173423043
 20
365.5957229811166
 42
0.0
 10
303.7975076188739
 20
367.1231629337154
 42
-0.7673041015639809
 10
305.4891548461819
 20
366.7216107731412
 42
0.0065571884227412
 10
305.9171660705244
 20
360.4793869908261
 42
0.0
 10
306.973173423043
 20
360.4793869908261
 42
0.0
 97
        0
 75
     0
 76
     1
 52
45.0
 41
10.0
 77
     0
 78
     2
 53
45.0
 43
118.473173423043
 44
-76.88160981953098
 45
-0.8838834764831842
 46
0.8838834764831844
 79
     0
 53
135.0
 43
118.473173423043
 44
-76.88160981953098
 45
-0.8838834764831844
 46
-0.8838834764831842
 79
     0
 47
0.1816684602659492
 98
        2
 10
381.4216073903734
 20
374.1383095917108
 10
305.9758720152876
 20
376.1366630871255
  0
LINE
  5
9F1
330
1E
100
AcDbEntity
  8
STEMPEL
100
AcDbLine
 10
302.973173423043
 20
365.5957229811166
 30
0.0
 11
303.7975076188739
 21
367.1231629337154
 31
0.0
  0
LINE
  5
9F2
330
1E
100
AcDbEntity
  8
STEMPEL
100
AcDbLine
 10
301.173173423043
 20
365.5957229811166
 30
0.0
 11
302.973173423043
 21
365.5957229811166
 31
0.0
  0
LINE
  5
9F3
330
1E
100
AcDbEntity
  8
STEMPEL
100
AcDbLine
 10
301.173173423043
 20
365.5957229811166
 30
0.0
 11
303.473173423043
 21
369.5957229811166
 31
0.0
  0
ARC
  5
9F4
330
1E
100
AcDbEntity
  8
STEMPEL
100
AcDbCircle
 10
304.5895272442131
 20
366.6957229811166
 30
0.0
 40
0.9
100
AcDbArc
 50
4.682416862268558
 51
151.6449939715894
  0
LINE
  5
9F5
330
1E
100
AcDbEntity
  8
STEMPEL
100
AcDbLine
 10
302.073173423043
 20
372.5957229811166
 30
0.0
 11
302.073173423043
 21
371.5957229811166
 31
0.0
  0
LINE
  5
9F6
330
1E
100
AcDbEntity
  8
STEMPEL
100
AcDbLine
 10
302.073173423043
 20
371.5957229811166
 30
0.0
 11
303.473173423043
 21
370.1957229811166
 31
0.0
  0
LINE
  5
9F7
330
1E
100
AcDbEntity
  8
STEMPEL
100
AcDbLine
 10
302.073173423043
 20
372.5957229811166
 30
0.0
 11
303.473173423043
 21
373.9957229811166
 31
0.0
  0
LINE
  5
9F8
330
1E
100
AcDbEntity
  8
STEMPEL
100
AcDbLine
 10
304.7345676082838
 20
378.5664201831878
 30
0.0
 11
303.473173423043
 21
375.1007681422074
 31
0.0
  0
LINE
  5
9F9
330
1E
100
AcDbEntity
  8
STEMPEL
100
AcDbLine
 10
303.473173423043
 20
375.1007681422074
 30
0.0
 11
303.473173423043
 21
373.9957229811166
 31
0.0
  0
LINE
  5
9FA
330
1E
100
AcDbEntity
  8
STEMPEL
100
AcDbLine
 10
301.673173423043
 20
380.5957229811166
 30
0.0
 11
304.759099419672
 21
380.5957229811166
 31
0.0
  0
ARC
  5
9FB
330
1E
100
AcDbEntity
  8
STEMPEL
100
AcDbCircle
 10
304.759099419672
 20
380.0957229811166
 30
0.0
 40
0.5
100
AcDbArc
 50
346.3235567027745
 51
90.0
  0
LINE
  5
9FC
330
1E
100
AcDbEntity
  8
STEMPEL
100
AcDbLine
 10
305.473173423043
 20
379.8457229811165
 30
0.0
 11
304.1741353173663
 21
380.5957229811165
 31
0.0
  0
LINE
  5
9FD
330
1E
100
AcDbEntity
  8
STEMPEL
100
AcDbLine
 10
306.973173423043
 20
385.5957229811165
 30
0.0
 11
305.0761119076149
 21
385.5957229811166
 31
0.0
  0
LINE
  5
9FE
330
1E
100
AcDbEntity
  8
STEMPEL
100
AcDbLine
 10
306.973173423043
 20
379.5957229811166
 30
0.0
 11
306.0609196606271
 21
384.7693711587835
 31
0.0
  0
LINE
  5
9FF
330
1E
100
AcDbEntity
  8
STEMPEL
100
AcDbLine
 10
301.673173423043
 20
380.5957229811166
 30
0.0
 11
304.2050001902657
 21
385.086807877949
 31
0.0
  0
ARC
  5
A00
330
1E
100
AcDbEntity
  8
STEMPEL
100
AcDbCircle
 10
305.0761119076149
 20
384.5957229811166
 30
0.0
 40
1.0
100
AcDbArc
 50
10.00000000000181
 51
150.588086334471
  0
LINE
  5
A01
330
1E
100
AcDbEntity
  8
STEMPEL
100
AcDbLine
 10
303.473173423043
 20
370.1957229811166
 30
0.0
 11
303.473173423043
 21
369.5957229811166
 31
0.0
  0
ARC
  5
A02
330
1E
100
AcDbEntity
  8
STEMPEL
100
AcDbCircle
 10
143.2617915905775
 20
379.9181945798626
 30
0.0
 40
238.5606811700688
100
AcDbArc
 50
355.3261458984475
 51
356.8403665142374
  0
LINE
  5
A03
330
1E
100
AcDbEntity
  8
STEMPEL
100
AcDbLine
 10
379.9731734230428
 20
360.4793869908261
 30
0.0
 11
381.0291807755614
 21
360.4793869908261
 31
0.0
  0
ARC
  5
A04
330
1E
100
AcDbEntity
  8
STEMPEL
100
AcDbCircle
 10
382.3568196018728
 20
366.6957229811166
 30
0.0
 40
0.9
100
AcDbArc
 50
28.35500602841055
 51
175.3175831377314
  0
LINE
  5
A05
330
1E
100
AcDbEntity
  8
STEMPEL
100
AcDbLine
 10
385.7731734230429
 20
365.5957229811166
 30
0.0
 11
383.4731734230429
 21
369.5957229811166
 31
0.0
  0
LINE
  5
A06
330
1E
100
AcDbEntity
  8
STEMPEL
100
AcDbLine
 10
385.7731734230429
 20
365.5957229811166
 30
0.0
 11
383.9731734230429
 21
365.5957229811166
 31
0.0
  0
LINE
  5
A07
330
1E
100
AcDbEntity
  8
STEMPEL
100
AcDbLine
 10
383.9731734230429
 20
365.5957229811166
 30
0.0
 11
383.148839227212
 21
367.1231629337154
 31
0.0
  0
LINE
  5
A08
330
1E
100
AcDbEntity
  8
STEMPEL
100
AcDbLine
 10
383.4731734230429
 20
370.1957229811166
 30
0.0
 11
383.4731734230429
 21
369.5957229811166
 31
0.0
  0
LINE
  5
A09
330
1E
100
AcDbEntity
  8
STEMPEL
100
AcDbLine
 10
384.8731734230429
 20
372.5957229811166
 30
0.0
 11
383.4731734230429
 21
373.9957229811166
 31
0.0
  0
LINE
  5
A0A
330
1E
100
AcDbEntity
  8
STEMPEL
100
AcDbLine
 10
384.8731734230429
 20
371.5957229811166
 30
0.0
 11
383.4731734230429
 21
370.1957229811166
 31
0.0
  0
LINE
  5
A0B
330
1E
100
AcDbEntity
  8
STEMPEL
100
AcDbLine
 10
384.8731734230429
 20
372.5957229811166
 30
0.0
 11
384.8731734230429
 21
371.5957229811166
 31
0.0
  0
LINE
  5
A0C
330
1E
100
AcDbEntity
  8
STEMPEL
100
AcDbLine
 10
383.4731734230429
 20
375.1007681422074
 30
0.0
 11
383.4731734230429
 21
373.9957229811166
 31
0.0
  0
LINE
  5
A0D
330
1E
100
AcDbEntity
  8
STEMPEL
100
AcDbLine
 10
382.2117792378021
 20
378.5664201831878
 30
0.0
 11
383.4731734230429
 21
375.1007681422074
 31
0.0
  0
ARC
  5
A0E
330
1E
100
AcDbEntity
  8
STEMPEL
100
AcDbCircle
 10
381.870234938471
 20
384.5957229811166
 30
0.0
 40
1.0
100
AcDbArc
 50
29.411913665529
 51
169.9999999999981
  0
LINE
  5
A0F
330
1E
100
AcDbEntity
  8
STEMPEL
100
AcDbLine
 10
385.2731734230429
 20
380.5957229811166
 30
0.0
 11
382.7413466558202
 21
385.086807877949
 31
0.0
  0
LINE
  5
A10
330
1E
100
AcDbEntity
  8
STEMPEL
100
AcDbLine
 10
379.9731734230429
 20
379.5957229811166
 30
0.0
 11
380.8854271854587
 21
384.7693711587835
 31
0.0
  0
LINE
  5
A11
330
1E
100
AcDbEntity
  8
STEMPEL
100
AcDbLine
 10
379.9731734230428
 20
385.5957229811165
 30
0.0
 11
381.870234938471
 21
385.5957229811166
 31
0.0
  0
LINE
  5
A12
330
1E
100
AcDbEntity
  8
STEMPEL
100
AcDbLine
 10
385.2731734230429
 20
380.5957229811166
 30
0.0
 11
382.1872474264139
 21
380.5957229811166
 31
0.0
  0
ARC
  5
A13
330
1E
100
AcDbEntity
  8
STEMPEL
100
AcDbCircle
 10
382.1872474264139
 20
380.0957229811166
 30
0.0
 40
0.5
100
AcDbArc
 50
90.0
 51
193.6764432972255
  0
LINE
  5
A14
330
1E
100
AcDbEntity
  8
STEMPEL
100
AcDbLine
 10
305.8285365491482
 20
361.5957229811165
 30
0.0
 11
287.3131462936671
 21
361.5957229811165
 31
0.0
  0
ARC
  5
A15
102
{ACAD_REACTORS
330
A1A
102
}
330
1E
100
AcDbEntity
  8
SCHRAFF
100
AcDbCircle
 10
394.973173423043
 20
352.5350343377452
 30
0.0
 40
4.0
100
AcDbArc
 50
356.9999999999976
 51
89.99999999999836
  0
HATCH
  5
A1A
330
1E
100
AcDbEntity
  8
SCHRAFF
100
AcDbHatch
 10
0.0
 20
0.0
 30
0.0
210
0.0
220
0.0
230
1.0
  2
_USER
 70
     0
 71
     1
 91
        1
 92
        7
 72
     1
 73
     1
 93
        3
 10
394.9731734230431
 20
356.5350343377452
 42
0.0
 10
394.9731734230431
 20
352.535034337745
 42
0.0
 10
398.9676915620612
 20
352.3256905127732
 42
0.4296339059668398
 97
        3
330
45F
330
4A0
330
A15
 75
     0
 76
     0
 52
0.0
 41
0.1
 77
     0
 78
     1
 53
0.0
 43
0.0
 44
0.0
 45
0.0
 46
0.1
 79
     0
 47
0.0372827976023358
 98
        1
 10
395.6845022862599
 20
354.0644803403029
  0
LINE
  5
A47
330
1E
100
AcDbEntity
  8
STEMPEL
100
AcDbLine
 10
310.473173423043
 20
384.5957229811165
 30
0.0
 11
309.2160257213401
 21
346.5957229811165
 31
0.0
  0
LINE
  5
A48
330
1E
100
AcDbEntity
  8
STEMPEL
100
AcDbLine
 10
306.973173423043
 20
346.5957229811165
 30
0.0
 11
306.973173423043
 21
386.5957229811166
 31
0.0
  0
LINE
  5
A49
330
1E
100
AcDbEntity
  8
STEMPEL
100
AcDbLine
 10
306.973173423043
 20
346.5957229811165
 30
0.0
 11
379.973173423043
 21
346.5957229811165
 31
0.0
  0
HATCH
  5
A4A
330
1E
100
AcDbEntity
  8
SCHRAFF
100
AcDbHatch
 10
0.0
 20
0.0
 30
0.0
210
0.0
220
0.0
230
1.0
  2
NET
 70
     0
 71
     0
 91
        6
 92
        7
 72
     0
 73
     1
 93
       10
 10
379.973173423043
 20
386.5957229811166
 10
384.473173423043
 20
386.5957229811166
 10
384.473173423043
 20
391.5957229811164
 10
378.9731734230429
 20
391.5957229811164
 10
378.9731734230429
 20
390.5957229811164
 10
370.3432311081318
 20
390.5957229811164
 10
370.3432311081318
 20
384.5957229811164
 10
376.473173423043
 20
384.5957229811164
 10
377.7303211247459
 20
346.5957229811165
 10
379.973173423043
 20
346.5957229811166
 97
        0
 92
        7
 72
     0
 73
     1
 93
        4
 10
360.4437361715201
 20
390.5957229811164
 10
356.2010954844009
 20
390.5957229811165
 10
356.2010954844009
 20
384.5957229811164
 10
360.4437361715201
 20
384.5957229811163
 97
        0
 92
        7
 72
     0
 73
     1
 93
        4
 10
343.4731734230429
 20
384.5957229811165
 10
347.751348016095
 20
384.5957229811165
 10
347.751348016095
 20
390.5957229811164
 10
343.4731734230429
 20
390.5957229811162
 97
        0
 92
        7
 72
     0
 73
     1
 93
        4
 10
339.829932911378
 20
384.5957229811165
 10
343.4731734230429
 20
384.5957229811165
 10
343.4731734230429
 20
390.5957229811164
 10
339.829932911378
 20
390.5957229811164
 97
        0
 92
        7
 72
     0
 73
     1
 93
        4
 10
327.916824236939
 20
384.5957229811164
 10
332.1594649240583
 20
384.5957229811164
 10
332.1594649240582
 20
390.5957229811165
 10
327.916824236939
 20
390.5957229811164
 97
        0
 92
        7
 72
     0
 73
     1
 93
       10
 10
318.0173293003273
 20
384.5957229811165
 10
318.0173293003273
 20
390.5957229811166
 10
307.973173423043
 20
390.5957229811166
 10
307.973173423043
 20
391.5957229811166
 10
302.473173423043
 20
391.5957229811165
 10
302.4731734230429
 20
386.5957229811166
 10
306.973173423043
 20
386.5957229811166
 10
306.973173423043
 20
346.5957229811165
 10
309.2160257213401
 20
346.5957229811165
 10
310.473173423043
 20
384.5957229811165
 97
        0
 75
     0
 76
     1
 52
45.0
 41
15.0
 77
     0
 78
     2
 53
45.0
 43
237.3432927703335
 44
122.5766341396015
 45
-1.325825214724776
 46
1.325825214724776
 79
     0
 53
135.0
 43
237.3432927703335
 44
122.5766341396015
 45
-1.325825214724776
 46
-1.325825214724776
 79
     0
 47
0.202624019147231
 98
        6
 10
378.5046356834326
 20
387.7659499996537
 10
358.63343691171
 20
387.7659499996537
 10
345.4535602329505
 20
387.1580776758989
 10
340.7899120829489
 20
387.3607015426638
 10
329.6377082184391
 20
387.3607015426638
 10
314.8356926110527
 20
387.1580776758989
  0
LINE
  5
A4B
330
1E
100
AcDbEntity
  8
STEMPEL
100
AcDbLine
 10
379.973173423043
 20
346.5957229811165
 30
0.0
 11
379.973173423043
 21
386.5957229811166
 31
0.0
  0
LINE
  5
A4C
330
1E
100
AcDbEntity
  8
STEMPEL
100
AcDbLine
 10
376.473173423043
 20
384.5957229811164
 30
0.0
 11
377.7303211247459
 21
346.5957229811165
 31
0.0
  0
LINE
  5
A4D
330
1E
100
AcDbEntity
  8
STEMPEL
100
AcDbLine
 10
370.3432311081318
 20
384.5957229811164
 30
0.0
 11
370.3432311081318
 21
390.5957229811164
 31
0.0
  0
LINE
  5
A4E
330
1E
100
AcDbEntity
  8
STEMPEL
100
AcDbLine
 10
360.4437361715201
 20
384.5957229811164
 30
0.0
 11
360.4437361715201
 21
390.5957229811164
 31
0.0
  0
LINE
  5
A4F
330
1E
100
AcDbEntity
  8
STEMPEL
100
AcDbLine
 10
356.2010954844009
 20
384.5957229811164
 30
0.0
 11
356.2010954844009
 21
390.5957229811164
 31
0.0
  0
LINE
  5
A50
330
1E
100
AcDbEntity
  8
STEMPEL
100
AcDbLine
 10
347.751348016095
 20
384.5957229811164
 30
0.0
 11
347.751348016095
 21
390.5957229811164
 31
0.0
  0
LINE
  5
A51
330
1E
100
AcDbEntity
  8
STEMPEL
100
AcDbLine
 10
302.473173423043
 20
391.5957229811167
 30
0.0
 11
384.473173423043
 21
391.5957229811163
 31
0.0
  0
LINE
  5
A52
330
1E
100
AcDbEntity
  8
STEMPEL
100
AcDbLine
 10
307.973173423043
 20
390.5957229811166
 30
0.0
 11
378.9731734230429
 21
390.5957229811164
 31
0.0
  0
LINE
  5
A53
330
1E
100
AcDbEntity
  8
STEMPEL
100
AcDbLine
 10
310.473173423043
 20
384.5957229811165
 30
0.0
 11
376.473173423043
 21
384.5957229811164
 31
0.0
  0
DIMENSION
  5
A54
330
1E
100
AcDbEntity
  8
BEM
100
AcDbDimension
  2
*D9
 10
384.473173423043
 20
403.2897416832687
 30
0.0
 11
348.6976887012269
 21
403.2897416832687
 31
0.0
 70
   160
 71
     5
 42
82.0
  3
Standard
100
AcDbAlignedDimension
 13
302.473173423043
 23
391.5957229811167
 33
0.0
 14
384.473173423043
 24
391.5957229811163
 34
0.0
100
AcDbRotatedDimension
1001
ACAD
1000
DSTYLE
1002
{
1070
    40
1040
2.0
1070
    41
1040
3.5
1070
    42
1040
1.0
1070
    43
1040
7.0
1070
    44
1040
1.0
1070
    73
1070
     0
1070
    74
1070
     0
1070
    77
1070
     1
1070
    78
1070
     8
1070
    79
1070
     2
1070
   140
1040
3.5
1070
   141
1040
1.5
1070
   146
1040
0.5142857142857144
1070
   147
1040
1.5
1070
   172
1070
     1
1070
   178
1070
     1
1070
   179
1070
     2
1070
   271
1070
     2
1070
   272
1070
     2
1070
   284
1070
     8
1070
   285
1070
     8
1070
   286
1070
     8
1002
}
  0
LINE
  5
A55
330
1E
100
AcDbEntity
  8
STEMPEL
100
AcDbLine
 10
378.9731734230429
 20
390.5957229811164
 30
0.0
 11
378.9731734230429
 21
391.5957229811164
 31
0.0
  0
LINE
  5
A56
330
1E
100
AcDbEntity
  8
STEMPEL
100
AcDbLine
 10
379.973173423043
 20
386.5957229811166
 30
0.0
 11
384.473173423043
 21
386.5957229811166
 31
0.0
  0
LINE
  5
A57
330
1E
100
AcDbEntity
  8
STEMPEL
100
AcDbLine
 10
384.473173423043
 20
386.5957229811166
 30
0.0
 11
384.473173423043
 21
391.5957229811164
 31
0.0
  0
LINE
  5
A58
330
1E
100
AcDbEntity
  8
STEMPEL
100
AcDbLine
 10
339.829932911378
 20
384.5957229811165
 30
0.0
 11
339.829932911378
 21
390.5957229811164
 31
0.0
  0
LINE
  5
A59
330
1E
100
AcDbEntity
  8
STEMPEL
100
AcDbLine
 10
327.916824236939
 20
384.5957229811164
 30
0.0
 11
327.916824236939
 21
390.5957229811166
 31
0.0
  0
LINE
  5
A5A
330
1E
100
AcDbEntity
  8
STEMPEL
100
AcDbLine
 10
332.1594649240582
 20
384.5957229811165
 30
0.0
 11
332.1594649240582
 21
390.5957229811164
 31
0.0
  0
LINE
  5
A5B
330
1E
100
AcDbEntity
  8
STEMPEL
100
AcDbLine
 10
307.973173423043
 20
390.5957229811166
 30
0.0
 11
307.973173423043
 21
391.5957229811166
 31
0.0
  0
POINT
  5
A5C
330
1E
100
AcDbEntity
  8
SCHRAFF
  6
ByBlock
 62
     0
100
AcDbPoint
 10
302.473173423043
 20
386.5957229811166
 30
0.0
  0
LINE
  5
A5D
330
1E
100
AcDbEntity
  8
STEMPEL
100
AcDbLine
 10
302.473173423043
 20
386.5957229811166
 30
0.0
 11
306.973173423043
 21
386.5957229811166
 31
0.0
  0
LINE
  5
A5E
330
1E
100
AcDbEntity
  8
STEMPEL
100
AcDbLine
 10
302.473173423043
 20
386.5957229811166
 30
0.0
 11
302.473173423043
 21
391.5957229811166
 31
0.0
  0
LWPOLYLINE
  5
A5F
330
1E
100
AcDbEntity
  8
BEM
 62
     1
100
AcDbPolyline
 90
        4
 70
     1
 43
0.0
 10
333.8868241611375
 20
413.3259168787976
 10
333.8868241611375
 20
406.3259168787975
 10
340.8868241611375
 20
406.3259168787975
 10
340.8868241611375
 20
413.3259168787976
  0
DIMENSION
  5
A75
330
1E
100
AcDbEntity
  8
BEM
100
AcDbDimension
  2
*D10
 10
224.5201651542566
 20
391.5957229811167
 30
0.0
 11
218.0201651542565
 21
379.0957229811166
 31
0.0
 70
    32
 71
     5
 42
25.00000000000017
  3
Standard
100
AcDbAlignedDimension
 13
243.6500829245459
 23
366.5957229811165
 33
0.0
 14
302.473173423043
 24
391.5957229811167
 34
0.0
 50
90.0
100
AcDbRotatedDimension
1001
ACAD
1000
DSTYLE
1002
{
1070
    40
1040
2.0
1070
    41
1040
3.5
1070
    42
1040
1.0
1070
    43
1040
7.0
1070
    44
1040
1.0
1070
    73
1070
     0
1070
    74
1070
     0
1070
    77
1070
     1
1070
    78
1070
     8
1070
    79
1070
     2
1070
   140
1040
3.5
1070
   141
1040
1.5
1070
   146
1040
0.5
1070
   147
1040
1.5
1070
   172
1070
     1
1070
   178
1070
     1
1070
   179
1070
     2
1070
   271
1070
     2
1070
   272
1070
     2
1070
   284
1070
     8
1070
   285
1070
     8
1070
   286
1070
     8
1002
}
  0
LWPOLYLINE
  5
AAB
330
1E
100
AcDbEntity
  8
BEM
 62
     1
100
AcDbPolyline
 90
        4
 70
     1
 43
0.0
 10
426.3688074351621
 20
476.6885029391117
 10
426.3688074351621
 20
469.6885029391117
 10
433.3688074351621
 20
469.6885029391117
 10
433.3688074351621
 20
476.6885029391117
  0
TEXT
  5
AAC
330
1E
100
AcDbEntity
  8
TEXT
 62
     1
100
AcDbText
 10
466.8372120144462
 20
406.5956766085033
 30
0.0
 40
7.0
  1
EDV-Art.Nr. 00911.070X
 41
0.8
  7
GREEKS
100
AcDbText
  0
LINE
  5
AAD
330
1E
100
AcDbEntity
  8
TEXT
 62
     2
100
AcDbLine
 10
466.2489059001696
 20
415.4281161761375
 30
0.0
 11
571.756260586233
 21
415.4281161761375
 31
0.0
  0
LINE
  5
AAE
330
1E
100
AcDbEntity
  8
TEXT
 62
     2
100
AcDbLine
 10
466.2489059001696
 20
415.4281161761375
 30
0.0
 11
382.1465767446564
 21
382.2558438758128
 31
0.0
  0
TEXT
  5
AAF
330
1E
100
AcDbEntity
  8
TEXT
 62
     1
100
AcDbText
 10
466.8372120144462
 20
419.4181754444514
 30
0.0
 40
7.0
  1
Dichtelement DN70
 41
0.8
  7
GREEKS
100
AcDbText
  0
TEXT
  5
AB0
330
1E
100
AcDbEntity
  8
TEXT
 62
     1
100
AcDbText
 10
403.9517541968051
 20
469.6590716277627
 30
0.0
 40
7.0
  1
Sieb   82
 41
0.8
  7
GREEKS
100
AcDbText
  0
LINE
  5
AB1
330
1E
100
AcDbEntity
  8
TEXT
 62
     2
100
AcDbLine
 10
403.3634480825286
 20
465.6690123594489
 30
0.0
 11
358.0163179130475
 21
387.793708791013
 31
0.0
  0
LINE
  5
AB2
330
1E
100
AcDbEntity
  8
TEXT
 62
     2
100
AcDbLine
 10
403.3634480825286
 20
465.6690123594489
 30
0.0
 11
508.8708027685919
 21
465.6690123594489
 31
0.0
  0
TEXT
  5
AB3
330
1E
100
AcDbEntity
  8
TEXT
 62
     1
100
AcDbText
 10
403.9517541968051
 20
456.8365727918147
 30
0.0
 40
7.0
  1
EDV-Art.Nr. 15091.000X
 41
0.8
  7
GREEKS
100
AcDbText
  0
TEXT
  5
AC6
330
1E
100
AcDbEntity
  8
TEXT
 62
     1
100
AcDbText
 10
468.0092502808068
 20
329.2513257931684
 30
0.0
 40
7.0
  1
DN50
 50
357.0
 41
0.8
  7
GREEKS
100
AcDbText
  0
ENDSEC
  0
SECTION
  2
OBJECTS
  0
DICTIONARY
  5
C
330
0
100
AcDbDictionary
281
     1
  3
ACAD_COLOR
350
11A
  3
ACAD_GROUP
350
D
  3
ACAD_LAYOUT
350
19
  3
ACAD_MATERIAL
350
119
  3
ACAD_MLINESTYLE
350
16
  3
ACAD_PLOTSETTINGS
350
18
  3
ACAD_PLOTSTYLENAME
350
E
  3
AcDbVariableDictionary
350
125
  0
DICTIONARY
  5
DB
330
1E
100
AcDbDictionary
280
     1
281
     1
  3
ACAD_LAYOUTSELFREF
360
10F
  0
DICTIONARY
  5
DD
330
1A
100
AcDbDictionary
280
     1
281
     1
  3
ACAD_LAYOUTSELFREF
360
10E
  0
DICTIONARY
  5
11A
102
{ACAD_REACTORS
330
C
102
}
330
C
100
AcDbDictionary
281
     1
  0
DICTIONARY
  5
D
102
{ACAD_REACTORS
330
C
102
}
330
C
100
AcDbDictionary
281
     1
  0
DICTIONARY
  5
19
102
{ACAD_REACTORS
330
C
102
}
330
C
100
AcDbDictionary
281
     1
  3
Layout1
350
1D
  3
Model
350
21
  0
DICTIONARY
  5
119
102
{ACAD_REACTORS
330
C
102
}
330
C
100
AcDbDictionary
281
     1
  0
DICTIONARY
  5
16
102
{ACAD_REACTORS
330
C
102
}
330
C
100
AcDbDictionary
281
     1
  3
Standard
350
17
  0
DICTIONARY
  5
18
102
{ACAD_REACTORS
330
C
102
}
330
C
100
AcDbDictionary
281
     1
  0
ACDBDICTIONARYWDFLT
  5
E
102
{ACAD_REACTORS
330
C
102
}
330
C
100
AcDbDictionary
281
     1
  3
Normal
350
F
100
AcDbDictionaryWithDefault
340
F
  0
DICTIONARY
  5
125
102
{ACAD_REACTORS
330
C
102
}
330
C
100
AcDbDictionary
281
     1
  3
DIMASSOC
350
126
  3
PROJECTNAME
350
127
  0
XRECORD
  5
10F
102
{ACAD_REACTORS
330
DB
102
}
330
DB
100
AcDbXrecord
280
     1
340
1E
  0
XRECORD
  5
10E
102
{ACAD_REACTORS
330
DD
102
}
330
DD
100
AcDbXrecord
280
     1
340
1A
  0
LAYOUT
  5
1D
102
{ACAD_REACTORS
330
19
102
}
330
19
100
AcDbPlotSettings
  1

  2
\\NT_WORK01\HP LaserJet 5000 PCL 6
  4

  6

 40
0.0
 41
0.0
 42
0.0
 43
0.0
 44
0.0
 45
0.0
 46
0.0
 47
0.0
 48
0.0
 49
0.0
140
0.0
141
0.0
142
1.0
143
1.0
 70
   688
 72
     0
 73
     0
 74
     5
  7

 75
    16
147
1.0
 76
     0
 77
     2
 78
   300
148
0.0
149
0.0
100
AcDbLayout
  1
Layout1
 70
     0
 71
     1
 10
0.0
 20
0.0
 11
12.0
 21
9.0
 12
0.0
 22
0.0
 32
0.0
 14
1.000000000000000E+20
 24
1.000000000000000E+20
 34
1.000000000000000E+20
 15
-1.000000000000000E+20
 25
-1.000000000000000E+20
 35
-1.000000000000000E+20
146
0.0
 13
0.0
 23
0.0
 33
0.0
 16
1.0
 26
0.0
 36
0.0
 17
0.0
 27
1.0
 37
0.0
 76
     0
330
1A
  0
LAYOUT
  5
21
102
{ACAD_REACTORS
330
19
102
}
330
19
100
AcDbPlotSettings
  1

  2
none_device
  4
Letter_(8.50_x_11.00_Inches)
  6

 40
6.349999904632568
 41
6.349999904632568
 42
6.350006103515625
 43
6.350006103515625
 44
215.8999938964844
 45
279.3999938964844
 46
0.0
 47
0.0
 48
0.0
 49
0.0
140
0.0
141
0.0
142
1.0
143
1.0
 70
 11952
 72
     0
 73
     1
 74
     0
  7

 75
     0
147
1.0
 76
     0
 77
     2
 78
   300
148
-2639.820043822139
149
484.3799707260534
100
AcDbLayout
  1
Model
 70
     1
 71
     0
 10
0.0
 20
0.0
 11
12.0
 21
9.0
 12
0.0
 22
0.0
 32
0.0
 14
0.0
 24
0.0
 34
0.0
 15
0.0
 25
0.0
 35
0.0
146
0.0
 13
0.0
 23
0.0
 33
0.0
 16
1.0
 26
0.0
 36
0.0
 17
0.0
 27
1.0
 37
0.0
 76
     0
330
1E
  0
MLINESTYLE
  5
17
102
{ACAD_REACTORS
330
16
102
}
330
16
100
AcDbMlineStyle
  2
STANDARD
 70
     0
  3

 62
   256
 51
90.0
 52
90.0
 71
     2
 49
0.5
 62
   256
  6
BYLAYER
 49
-0.5
 62
   256
  6
BYLAYER
  0
ACDBPLACEHOLDER
  5
F
102
{ACAD_REACTORS
330
E
102
}
330
E
  0
DICTIONARYVAR
  5
126
102
{ACAD_REACTORS
330
125
102
}
330
125
100
DictionaryVariables
280
     0
  1
1
  0
DICTIONARYVAR
  5
127
102
{ACAD_REACTORS
330
125
102
}
330
125
100
DictionaryVariables
280
     0
  1

  0
ENDSEC
  0
EOF
