  0
SECTION
  2
HEADER
  9
$ACADVER
  1
AC1018
  9
$ACADMAINTVER
 70
     2
  9
$DWGCODEPAGE
  3
ANSI_1252
  9
$INSBASE
 10
0.0
 20
0.0
 30
0.0
  9
$EXTMIN
 10
-0.025627235270008
 20
-0.0362442327398185
 30
-0.000000000000013
  9
$EXTMAX
 10
420.0256404375887
 20
594.0362629045889
 30
0.0000000000000023
  9
$LIMMIN
 10
0.0
 20
0.0
  9
$LIMMAX
 10
419.9999999999999
 20
594.0
  9
$ORTHOMODE
 70
     1
  9
$REGENMODE
 70
     1
  9
$FILLMODE
 70
     1
  9
$QTEXTMODE
 70
     0
  9
$MIRRTEXT
 70
     1
  9
$LTSCALE
 40
20.0
  9
$ATTMODE
 70
     1
  9
$TEXTSIZE
 40
3.5
  9
$TRACEWID
 40
0.5
  9
$TEXTSTYLE
  7
STANDARD
  9
$CLAYER
  8
BEM
  9
$CELTYPE
  6
ByLayer
  9
$CECOLOR
 62
   256
  9
$CELTSCALE
 40
1.0
  9
$DISPSILH
 70
     0
  9
$DIMSCALE
 40
2.0
  9
$DIMASZ
 40
3.5
  9
$DIMEXO
 40
1.0
  9
$DIMDLI
 40
7.0
  9
$DIMRND
 40
0.0
  9
$DIMDLE
 40
0.0
  9
$DIMEXE
 40
1.0
  9
$DIMTP
 40
0.0
  9
$DIMTM
 40
0.0
  9
$DIMTXT
 40
3.5
  9
$DIMCEN
 40
1.5
  9
$DIMTSZ
 40
0.0
  9
$DIMTOL
 70
     0
  9
$DIMLIM
 70
     0
  9
$DIMTIH
 70
     0
  9
$DIMTOH
 70
     0
  9
$DIMSE1
 70
     0
  9
$DIMSE2
 70
     0
  9
$DIMTAD
 70
     1
  9
$DIMZIN
 70
     8
  9
$DIMBLK
  1

  9
$DIMASO
 70
     1
  9
$DIMSHO
 70
     0
  9
$DIMPOST
  1

  9
$DIMAPOST
  1

  9
$DIMALT
 70
     0
  9
$DIMALTD
 70
     2
  9
$DIMALTF
 40
25.4
  9
$DIMLFAC
 40
1.0
  9
$DIMTOFL
 70
     1
  9
$DIMTVP
 40
0.0
  9
$DIMTIX
 70
     0
  9
$DIMSOXD
 70
     0
  9
$DIMSAH
 70
     0
  9
$DIMBLK1
  1

  9
$DIMBLK2
  1

  9
$DIMSTYLE
  2
Standard
  9
$DIMCLRD
 70
     0
  9
$DIMCLRE
 70
     0
  9
$DIMCLRT
 70
     1
  9
$DIMTFAC
 40
0.5142857142857144
  9
$DIMGAP
 40
1.5
  9
$DIMJUST
 70
     0
  9
$DIMSD1
 70
     0
  9
$DIMSD2
 70
     0
  9
$DIMTOLJ
 70
     1
  9
$DIMTZIN
 70
     8
  9
$DIMALTZ
 70
     8
  9
$DIMALTTZ
 70
     8
  9
$DIMUPT
 70
     0
  9
$DIMDEC
 70
     2
  9
$DIMTDEC
 70
     2
  9
$DIMALTU
 70
     2
  9
$DIMALTTD
 70
     2
  9
$DIMTXSTY
  7
STANDARD
  9
$DIMAUNIT
 70
     0
  9
$DIMADEC
 70
     2
  9
$DIMALTRND
 40
0.0
  9
$DIMAZIN
 70
     2
  9
$DIMDSEP
 70
    46
  9
$DIMATFIT
 70
     3
  9
$DIMFRAC
 70
     0
  9
$DIMLDRBLK
  1

  9
$DIMLUNIT
 70
     2
  9
$DIMLWD
 70
    -2
  9
$DIMLWE
 70
    -2
  9
$DIMTMOVE
 70
     0
  9
$LUNITS
 70
     2
  9
$LUPREC
 70
     2
  9
$SKETCHINC
 40
1.0
  9
$FILLETRAD
 40
0.0
  9
$AUNITS
 70
     0
  9
$AUPREC
 70
     0
  9
$MENU
  1
ACAD
  9
$ELEVATION
 40
0.0
  9
$PELEVATION
 40
0.0
  9
$THICKNESS
 40
0.0
  9
$LIMCHECK
 70
     0
  9
$CHAMFERA
 40
0.0
  9
$CHAMFERB
 40
0.0
  9
$CHAMFERC
 40
0.0
  9
$CHAMFERD
 40
0.0
  9
$SKPOLY
 70
     0
  9
$TDCREATE
 40
2455397.864709028
  9
$TDUCREATE
 40
2455397.781375695
  9
$TDUPDATE
 40
2456153.478186042
  9
$TDUUPDATE
 40
2456153.394852709
  9
$TDINDWG
 40
0.1069896412
  9
$TDUSRTIMER
 40
0.1069896412
  9
$USRTIMER
 70
     1
  9
$ANGBASE
 50
0.0
  9
$ANGDIR
 70
     0
  9
$PDMODE
 70
     0
  9
$PDSIZE
 40
0.0
  9
$PLINEWID
 40
0.0
  9
$SPLFRAME
 70
     0
  9
$SPLINETYPE
 70
     6
  9
$SPLINESEGS
 70
     8
  9
$HANDSEED
  5
C3E
  9
$SURFTAB1
 70
     6
  9
$SURFTAB2
 70
     6
  9
$SURFTYPE
 70
     6
  9
$SURFU
 70
     6
  9
$SURFV
 70
     6
  9
$UCSBASE
  2

  9
$UCSNAME
  2

  9
$UCSORG
 10
0.0
 20
0.0
 30
0.0
  9
$UCSXDIR
 10
1.0
 20
0.0
 30
0.0
  9
$UCSYDIR
 10
0.0
 20
1.0
 30
0.0
  9
$UCSORTHOREF
  2

  9
$UCSORTHOVIEW
 70
     0
  9
$UCSORGTOP
 10
0.0
 20
0.0
 30
0.0
  9
$UCSORGBOTTOM
 10
0.0
 20
0.0
 30
0.0
  9
$UCSORGLEFT
 10
0.0
 20
0.0
 30
0.0
  9
$UCSORGRIGHT
 10
0.0
 20
0.0
 30
0.0
  9
$UCSORGFRONT
 10
0.0
 20
0.0
 30
0.0
  9
$UCSORGBACK
 10
0.0
 20
0.0
 30
0.0
  9
$PUCSBASE
  2

  9
$PUCSNAME
  2

  9
$PUCSORG
 10
0.0
 20
0.0
 30
0.0
  9
$PUCSXDIR
 10
1.0
 20
0.0
 30
0.0
  9
$PUCSYDIR
 10
0.0
 20
1.0
 30
0.0
  9
$PUCSORTHOREF
  2

  9
$PUCSORTHOVIEW
 70
     0
  9
$PUCSORGTOP
 10
0.0
 20
0.0
 30
0.0
  9
$PUCSORGBOTTOM
 10
0.0
 20
0.0
 30
0.0
  9
$PUCSORGLEFT
 10
0.0
 20
0.0
 30
0.0
  9
$PUCSORGRIGHT
 10
0.0
 20
0.0
 30
0.0
  9
$PUCSORGFRONT
 10
0.0
 20
0.0
 30
0.0
  9
$PUCSORGBACK
 10
0.0
 20
0.0
 30
0.0
  9
$USERI1
 70
     0
  9
$USERI2
 70
     0
  9
$USERI3
 70
     0
  9
$USERI4
 70
     0
  9
$USERI5
 70
     0
  9
$USERR1
 40
0.0
  9
$USERR2
 40
0.0
  9
$USERR3
 40
0.0
  9
$USERR4
 40
0.0
  9
$USERR5
 40
0.0
  9
$WORLDVIEW
 70
     1
  9
$SHADEDGE
 70
     3
  9
$SHADEDIF
 70
    70
  9
$TILEMODE
 70
     1
  9
$MAXACTVP
 70
    16
  9
$PINSBASE
 10
0.0
 20
0.0
 30
0.0
  9
$PLIMCHECK
 70
     0
  9
$PEXTMIN
 10
1.000000000000000E+20
 20
1.000000000000000E+20
 30
1.000000000000000E+20
  9
$PEXTMAX
 10
-1.000000000000000E+20
 20
-1.000000000000000E+20
 30
-1.000000000000000E+20
  9
$PLIMMIN
 10
0.0
 20
0.0
  9
$PLIMMAX
 10
12.0
 20
9.0
  9
$UNITMODE
 70
     0
  9
$VISRETAIN
 70
     0
  9
$PLINEGEN
 70
     0
  9
$PSLTSCALE
 70
     0
  9
$TREEDEPTH
 70
  3020
  9
$CMLSTYLE
  2
Standard
  9
$CMLJUST
 70
     0
  9
$CMLSCALE
 40
1.0
  9
$PROXYGRAPHICS
 70
     1
  9
$MEASUREMENT
 70
     0
  9
$CELWEIGHT
370
    -1
  9
$ENDCAPS
280
     0
  9
$JOINSTYLE
280
     0
  9
$LWDISPLAY
290
     0
  9
$INSUNITS
 70
     0
  9
$HYPERLINKBASE
  1

  9
$STYLESHEET
  1
monochrome 1.ctb
  9
$XEDIT
290
     1
  9
$CEPSNTYPE
380
     0
  9
$PSTYLEMODE
290
     1
  9
$FINGERPRINTGUID
  2
{D68B0D02-A558-11D7-B632-000102183313}
  9
$VERSIONGUID
  2
{775297DA-7FC6-471E-9D78-86CEC59B740C}
  9
$EXTNAMES
290
     1
  9
$PSVPSCALE
 40
0.0
  9
$OLESTARTUP
290
     0
  9
$SORTENTS
280
   127
  9
$INDEXCTL
280
     0
  9
$HIDETEXT
280
     0
  9
$XCLIPFRAME
290
     0
  9
$HALOGAP
280
     0
  9
$OBSCOLOR
 70
   257
  9
$OBSLTYPE
280
     0
  9
$INTERSECTIONDISPLAY
280
     0
  9
$INTERSECTIONCOLOR
 70
   257
  9
$DIMASSOC
280
     1
  9
$PROJECTNAME
  1

  0
ENDSEC
  0
SECTION
  2
CLASSES
  0
CLASS
  1
ACDBDICTIONARYWDFLT
  2
AcDbDictionaryWithDefault
  3
ObjectDBX Classes
 90
        0
 91
        1
280
     0
281
     0
  0
CLASS
  1
DICTIONARYVAR
  2
AcDbDictionaryVar
  3
ObjectDBX Classes
 90
        0
 91
        2
280
     0
281
     0
  0
ENDSEC
  0
SECTION
  2
TABLES
  0
TABLE
  2
VPORT
  5
8
330
0
100
AcDbSymbolTable
 70
     4
  0
VPORT
  5
C3D
330
8
100
AcDbSymbolTableRecord
100
AcDbViewportTableRecord
  2
*Active
 70
     0
 10
0.0
 20
0.0
 11
1.0
 21
1.0
 12
209.9999999999999
 22
297.0
 13
0.0
 23
0.0
 14
1.0
 24
1.0
 15
10.0
 25
10.0
 16
0.0
 26
0.0
 36
1.0
 17
0.0
 27
0.0
 37
0.0
 40
594.0
 41
1.404858299595141
 42
50.0
 43
0.0
 44
0.0
 50
0.0
 51
0.0
 71
     0
 72
  1500
 73
     1
 74
     0
 75
     0
 76
     0
 77
     0
 78
     0
281
     0
 65
     1
110
0.0
120
0.0
130
0.0
111
1.0
121
0.0
131
0.0
112
0.0
122
1.0
132
0.0
 79
     0
146
0.0
  0
ENDTAB
  0
TABLE
  2
LTYPE
  5
5
330
0
100
AcDbSymbolTable
 70
     2
  0
LTYPE
  5
13
330
5
100
AcDbSymbolTableRecord
100
AcDbLinetypeTableRecord
  2
ByBlock
 70
     0
  3

 72
    65
 73
     0
 40
0.0
  0
LTYPE
  5
14
330
5
100
AcDbSymbolTableRecord
100
AcDbLinetypeTableRecord
  2
ByLayer
 70
     0
  3

 72
    65
 73
     0
 40
0.0
  0
LTYPE
  5
15
330
5
100
AcDbSymbolTableRecord
100
AcDbLinetypeTableRecord
  2
Continuous
 70
     0
  3
Solid line
 72
    65
 73
     0
 40
0.0
  0
LTYPE
  5
25
330
5
100
AcDbSymbolTableRecord
100
AcDbLinetypeTableRecord
  2
STRICHPUNKT
 70
     0
  3
__ . __ . __ . __ . __ . __ . __ . __ . __ . __
 72
    65
 73
     4
 40
1.0
 49
0.5
 74
     0
 49
-0.25
 74
     0
 49
0.0
 74
     0
 49
-0.25
 74
     0
  0
ENDTAB
  0
TABLE
  2
LAYER
  5
2
330
0
100
AcDbSymbolTable
 70
     9
  0
LAYER
  5
10
330
2
100
AcDbSymbolTableRecord
100
AcDbLayerTableRecord
  2
0
 70
     0
 62
     7
  6
Continuous
370
    -3
390
F
  0
LAYER
  5
2A
330
2
100
AcDbSymbolTableRecord
100
AcDbLayerTableRecord
  2
VOLL
 70
     0
 62
     1
  6
Continuous
370
    -3
390
F
  0
LAYER
  5
2B
330
2
100
AcDbSymbolTableRecord
100
AcDbLayerTableRecord
  2
HILF
 70
     0
 62
     2
  6
Continuous
370
    -3
390
F
  0
LAYER
  5
2C
330
2
100
AcDbSymbolTableRecord
100
AcDbLayerTableRecord
  2
MITTEL
 70
     0
 62
     2
  6
STRICHPUNKT
370
    -3
390
F
  0
LAYER
  5
2F
330
2
100
AcDbSymbolTableRecord
100
AcDbLayerTableRecord
  2
BEM
 70
     0
 62
     7
  6
Continuous
370
    -3
390
F
  0
LAYER
  5
30
330
2
100
AcDbSymbolTableRecord
100
AcDbLayerTableRecord
  2
STEMPEL
 70
     0
 62
     3
  6
Continuous
370
    -3
390
F
  0
LAYER
  5
31
330
2
100
AcDbSymbolTableRecord
100
AcDbLayerTableRecord
  2
TEXT
 70
     0
 62
     7
  6
Continuous
370
    -3
390
F
  0
LAYER
  5
2F4
330
2
100
AcDbSymbolTableRecord
100
AcDbLayerTableRecord
  2
SCHRAFF
 70
     0
 62
     7
  6
Continuous
370
    -3
390
F
  0
LAYER
  5
2F5
330
2
100
AcDbSymbolTableRecord
100
AcDbLayerTableRecord
  2
DEFPOINTS
 70
     0
 62
     7
  6
Continuous
290
     0
370
    -3
390
F
  0
ENDTAB
  0
TABLE
  2
STYLE
  5
3
330
0
100
AcDbSymbolTable
 70
     2
  0
STYLE
  5
11
330
3
100
AcDbSymbolTableRecord
100
AcDbTextStyleTableRecord
  2
STANDARD
 70
     0
 40
0.0
 41
0.8
 50
0.0
 71
     0
 42
3.5
  3
simplex.shx
  4

  0
STYLE
  5
24
330
3
100
AcDbSymbolTableRecord
100
AcDbTextStyleTableRecord
  2
GREEKS
 70
     0
 40
0.0
 41
0.8
 50
0.0
 71
     0
 42
2.5
  3
SIMPLEX.shx
  4

  0
ENDTAB
  0
TABLE
  2
VIEW
  5
6
330
0
100
AcDbSymbolTable
 70
     0
  0
ENDTAB
  0
TABLE
  2
UCS
  5
7
330
0
100
AcDbSymbolTable
 70
     0
  0
ENDTAB
  0
TABLE
  2
APPID
  5
9
330
0
100
AcDbSymbolTable
 70
     1
  0
APPID
  5
12
330
9
100
AcDbSymbolTableRecord
100
AcDbRegAppTableRecord
  2
ACAD
 70
     0
  0
ENDTAB
  0
TABLE
  2
DIMSTYLE
  5
A
330
0
100
AcDbSymbolTable
 70
     1
100
AcDbDimStyleTable
 71
     1
340
9D
  0
DIMSTYLE
105
9D
102
{ACAD_REACTORS
330
B4A
330
B73
330
B98
330
BA5
330
BB4
330
BC1
330
BCE
102
}
330
A
100
AcDbSymbolTableRecord
100
AcDbDimStyleTableRecord
  2
Standard
 70
     0
340
11
  0
ENDTAB
  0
TABLE
  2
BLOCK_RECORD
  5
1
330
0
100
AcDbSymbolTable
 70
     8
  0
BLOCK_RECORD
  5
1E
102
{ACAD_XDICTIONARY
360
A0
102
}
330
1
100
AcDbSymbolTableRecord
100
AcDbBlockTableRecord
  2
*Model_Space
340
21
  0
BLOCK_RECORD
  5
1A
102
{ACAD_XDICTIONARY
360
A2
102
}
330
1
100
AcDbSymbolTableRecord
100
AcDbBlockTableRecord
  2
*Paper_Space
340
1D
  0
BLOCK_RECORD
  5
22
330
1
100
AcDbSymbolTableRecord
100
AcDbBlockTableRecord
  2
LOGO
340
0
102
{BLKREFS
331
9B
102
}
  0
BLOCK_RECORD
  5
B4B
330
1
100
AcDbSymbolTableRecord
100
AcDbBlockTableRecord
  2
*D1
340
0
  0
BLOCK_RECORD
  5
B74
330
1
100
AcDbSymbolTableRecord
100
AcDbBlockTableRecord
  2
*D2
340
0
  0
BLOCK_RECORD
  5
B99
330
1
100
AcDbSymbolTableRecord
100
AcDbBlockTableRecord
  2
*D3
340
0
  0
BLOCK_RECORD
  5
BA6
330
1
100
AcDbSymbolTableRecord
100
AcDbBlockTableRecord
  2
*D4
340
0
  0
BLOCK_RECORD
  5
BB5
330
1
100
AcDbSymbolTableRecord
100
AcDbBlockTableRecord
  2
*D5
340
0
  0
BLOCK_RECORD
  5
BC2
330
1
100
AcDbSymbolTableRecord
100
AcDbBlockTableRecord
  2
*D6
340
0
  0
BLOCK_RECORD
  5
BCF
330
1
100
AcDbSymbolTableRecord
100
AcDbBlockTableRecord
  2
*D7
340
0
  0
ENDTAB
  0
ENDSEC
  0
SECTION
  2
BLOCKS
  0
BLOCK
  5
35
330
1E
100
AcDbEntity
  8
0
100
AcDbBlockBegin
  2
*Model_Space
 70
     0
 10
0.0
 20
0.0
 30
0.0
  3
*Model_Space
  1

  0
ENDBLK
  5
36
330
1E
100
AcDbEntity
  8
0
100
AcDbBlockEnd
  0
BLOCK
  5
33
330
1A
100
AcDbEntity
 67
     1
  8
0
100
AcDbBlockBegin
  2
*Paper_Space
 70
     0
 10
0.0
 20
0.0
 30
0.0
  3
*Paper_Space
  1

  0
ENDBLK
  5
34
330
1A
100
AcDbEntity
 67
     1
  8
0
100
AcDbBlockEnd
  0
BLOCK
  5
37
330
22
100
AcDbEntity
  8
0
100
AcDbBlockBegin
  2
LOGO
 70
     0
 10
0.0
 20
0.0
 30
0.0
  3
LOGO
  1

  0
ARC
  5
38
330
22
100
AcDbEntity
  8
0
100
AcDbCircle
 10
11.59973089678112
 20
-9.271599258481501
 30
0.0
 40
4.5
100
AcDbArc
 50
270.0
 51
231.0575587310159
  0
LINE
  5
39
330
22
100
AcDbEntity
  8
0
100
AcDbLine
 10
3.599730896781125
 20
-4.771599258481529
 30
0.0
 11
3.599730896781153
 21
-11.77159925848133
 31
0.0
  0
LINE
  5
3A
330
22
100
AcDbEntity
  8
0
100
AcDbLine
 10
2.599730896781125
 20
-4.771599258481529
 30
0.0
 11
2.599730896781153
 21
-11.77159925848133
 31
0.0
  0
CIRCLE
  5
3B
330
22
100
AcDbEntity
  8
0
100
AcDbCircle
 10
11.59973089678112
 20
-9.271599258481501
 30
0.0
 40
3.5
  0
ARC
  5
3C
330
22
100
AcDbEntity
  8
0
100
AcDbCircle
 10
31.59973089678115
 20
-9.271599258481472
 30
0.0
 40
4.5
100
AcDbArc
 50
270.0
 51
231.0575587310182
  0
LINE
  5
3D
330
22
100
AcDbEntity
  8
0
100
AcDbLine
 10
17.59973089678112
 20
-4.771599258481472
 30
0.0
 11
17.59973089678115
 21
-13.77159925848147
 31
0.0
  0
ARC
  5
3E
330
22
100
AcDbEntity
  8
0
100
AcDbCircle
 10
22.59973089678116
 20
-7.271599258481472
 30
0.0
 40
2.5
100
AcDbArc
 50
293.1161887722295
 51
90.0
  0
CIRCLE
  5
3F
330
22
100
AcDbEntity
  8
0
100
AcDbCircle
 10
31.59973089678115
 20
-9.271599258481472
 30
0.0
 40
3.5
  0
ARC
  5
40
330
22
100
AcDbEntity
  8
0
100
AcDbCircle
 10
4.599730896781153
 20
-11.77159925848133
 30
0.0
 40
1.0
100
AcDbArc
 50
180.0
 51
270.0
  0
ARC
  5
41
330
22
100
AcDbEntity
  8
0
100
AcDbCircle
 10
4.599730896781153
 20
-11.77159925848133
 30
0.0
 40
2.0
100
AcDbArc
 50
179.9999999999992
 51
270.0
  0
LINE
  5
42
330
22
100
AcDbEntity
  8
0
100
AcDbLine
 10
11.59973089678115
 20
-13.77159925848144
 30
0.0
 11
4.599730896781153
 21
-13.77159925848147
 31
0.0
  0
LINE
  5
43
330
22
100
AcDbEntity
  8
0
100
AcDbLine
 10
8.771303772034769
 20
-12.77159925848136
 30
0.0
 11
4.599730896781153
 21
-12.77159925848133
 31
0.0
  0
LINE
  5
44
330
22
100
AcDbEntity
  8
0
100
AcDbLine
 10
31.59973089678115
 20
-13.77159925848147
 30
0.0
 11
23.6715276665056
 21
-13.77159925848144
 31
0.0
  0
LINE
  5
45
330
22
100
AcDbEntity
  8
0
100
AcDbLine
 10
23.56565672307022
 20
-9.51278021337896
 30
0.0
 11
24.4388546544846
 21
-12.77159925848144
 31
0.0
  0
LINE
  5
46
330
22
100
AcDbEntity
  8
0
100
AcDbLine
 10
22.59973089678116
 20
-9.771599258481472
 30
0.0
 11
18.59973089678112
 21
-9.771599258481472
 31
0.0
  0
LINE
  5
47
330
22
100
AcDbEntity
  8
0
100
AcDbLine
 10
18.59973089678115
 20
-13.77159925848144
 30
0.0
 11
17.59973089678115
 21
-13.77159925848144
 31
0.0
  0
LINE
  5
48
330
22
100
AcDbEntity
  8
0
100
AcDbLine
 10
18.59973089678115
 20
-9.771599258481472
 30
0.0
 11
18.59973089678115
 21
-13.77159925848144
 31
0.0
  0
LINE
  5
49
330
22
100
AcDbEntity
  8
0
100
AcDbLine
 10
22.59973089678116
 20
-9.771599258481472
 30
0.0
 11
23.67152766650562
 21
-13.77159925848147
 31
0.0
  0
ARC
  5
4A
330
22
100
AcDbEntity
  8
0
100
AcDbCircle
 10
22.59973089678116
 20
-7.271599258481472
 30
0.0
 40
2.5
100
AcDbArc
 50
270.0
 51
270.0000000000007
  0
LINE
  5
4B
330
22
100
AcDbEntity
  8
0
100
AcDbLine
 10
28.77130377203494
 20
-12.77159925848147
 30
0.0
 11
24.43885465448463
 21
-12.77159925848144
 31
0.0
  0
LINE
  5
4C
330
22
100
AcDbEntity
  8
0
100
AcDbLine
 10
3.599730896781125
 20
-4.771599258481472
 30
0.0
 11
2.599730896781125
 21
-4.771599258481472
 31
0.0
  0
LINE
  5
4D
330
22
100
AcDbEntity
  8
0
100
AcDbLine
 10
22.59973089678116
 20
-8.771599258481472
 30
0.0
 11
18.59973089678115
 21
-8.771599258481472
 31
0.0
  0
LINE
  5
4E
330
22
100
AcDbEntity
  8
0
100
AcDbLine
 10
22.59973089678116
 20
-5.771599258481472
 30
0.0
 11
18.59973089678115
 21
-5.771599258481472
 31
0.0
  0
LINE
  5
4F
330
22
100
AcDbEntity
  8
0
100
AcDbLine
 10
22.59973089678116
 20
-4.771599258481472
 30
0.0
 11
17.59973089678115
 21
-4.771599258481472
 31
0.0
  0
LINE
  5
50
330
22
100
AcDbEntity
  8
0
100
AcDbLine
 10
18.59973089678115
 20
-5.771599258481472
 30
0.0
 11
18.59973089678115
 21
-8.771599258481472
 31
0.0
  0
ARC
  5
51
330
22
100
AcDbEntity
  8
0
100
AcDbCircle
 10
22.59973089678116
 20
-7.271599258481472
 30
0.0
 40
1.5
100
AcDbArc
 50
270.0
 51
90.0
  0
ENDBLK
  5
52
330
22
100
AcDbEntity
  8
0
100
AcDbBlockEnd
  0
BLOCK
  5
B55
330
B4B
100
AcDbEntity
  8
0
100
AcDbBlockBegin
  2
*D1
 70
     1
 10
0.0
 20
0.0
 30
0.0
  3
*D1
  1

  0
LINE
  5
C25
330
B4B
100
AcDbEntity
  8
BEM
 62
     0
370
    -2
100
AcDbLine
 10
175.627341152673
 20
308.450065268892
 30
0.0
 11
175.627341152673
 21
284.3681138630677
 31
0.0
  0
LINE
  5
C26
330
B4B
100
AcDbEntity
  8
BEM
 62
     0
370
    -2
100
AcDbLine
 10
248.627341152673
 20
308.450065268893
 30
0.0
 11
248.627341152673
 21
284.3681138630677
 31
0.0
  0
LINE
  5
C27
330
B4B
100
AcDbEntity
  8
BEM
 62
     0
370
    -2
100
AcDbLine
 10
182.6273411526731
 20
286.3681138630677
 30
0.0
 11
241.6273411526729
 21
286.3681138630677
 31
0.0
  0
SOLID
  5
C28
330
B4B
100
AcDbEntity
  8
BEM
 62
     0
100
AcDbTrace
 10
182.6273411526731
 20
287.5347805297344
 30
0.0
 11
182.6273411526731
 21
285.201447196401
 31
0.0
 12
175.627341152673
 22
286.3681138630677
 32
0.0
 13
175.627341152673
 23
286.3681138630677
 33
0.0
  0
SOLID
  5
C29
330
B4B
100
AcDbEntity
  8
BEM
 62
     0
100
AcDbTrace
 10
241.6273411526729
 20
287.5347805297344
 30
0.0
 11
241.6273411526729
 21
285.201447196401
 31
0.0
 12
248.627341152673
 22
286.3681138630677
 32
0.0
 13
248.627341152673
 23
286.3681138630677
 33
0.0
  0
MTEXT
  5
C2A
330
B4B
100
AcDbEntity
  8
BEM
 62
     1
100
AcDbMText
 10
212.127341152673
 20
292.8681138630677
 30
0.0
 40
7.0
 41
0.0
 71
     5
 72
     1
  1
\A1;73
 73
     1
 44
1.0
  0
POINT
  5
C2B
330
B4B
100
AcDbEntity
  8
DEFPOINTS
 62
     0
100
AcDbPoint
 10
175.627341152673
 20
310.450065268892
 30
0.0
  0
POINT
  5
C2C
330
B4B
100
AcDbEntity
  8
DEFPOINTS
 62
     0
100
AcDbPoint
 10
248.627341152673
 20
310.450065268893
 30
0.0
  0
POINT
  5
C2D
330
B4B
100
AcDbEntity
  8
DEFPOINTS
 62
     0
100
AcDbPoint
 10
248.627341152673
 20
286.3681138630677
 30
0.0
  0
ENDBLK
  5
B56
330
B4B
100
AcDbEntity
  8
0
100
AcDbBlockEnd
  0
BLOCK
  5
B7E
330
B74
100
AcDbEntity
  8
0
100
AcDbBlockBegin
  2
*D2
 70
     1
 10
0.0
 20
0.0
 30
0.0
  3
*D2
  1

  0
LINE
  5
C1E
330
B74
100
AcDbEntity
  8
BEM
 62
     0
370
    -2
100
AcDbLine
 10
322.1289659488907
 20
343.5024584003832
 30
0.0
 11
322.1289659488907
 21
269.5601513244771
 31
0.0
  0
LINE
  5
C1F
330
B74
100
AcDbEntity
  8
BEM
 62
     0
370
    -2
100
AcDbLine
 10
315.1289659488906
 20
271.5601513244771
 30
0.0
 11
199.3940078193399
 21
271.5601513244771
 31
0.0
  0
SOLID
  5
C20
330
B74
100
AcDbEntity
  8
BEM
 62
     0
100
AcDbTrace
 10
315.1289659488906
 20
272.7268179911438
 30
0.0
 11
315.1289659488906
 21
270.3934846578104
 31
0.0
 12
322.1289659488907
 22
271.5601513244771
 32
0.0
 13
322.1289659488907
 23
271.5601513244771
 33
0.0
  0
MTEXT
  5
C21
330
B74
100
AcDbEntity
  8
BEM
 62
     1
100
AcDbMText
 10
212.1273411526732
 20
278.0601513244771
 30
0.0
 40
7.0
 41
0.0
 71
     5
 72
     1
  1
\A1;%%c220
 73
     1
 44
1.0
  0
POINT
  5
C22
330
B74
100
AcDbEntity
  8
DEFPOINTS
 62
     0
100
AcDbPoint
 10
322.1289659488907
 20
345.5024584003832
 30
0.0
  0
POINT
  5
C23
330
B74
100
AcDbEntity
  8
DEFPOINTS
 62
     0
100
AcDbPoint
 10
102.1257163564558
 20
345.5024584003825
 30
0.0
  0
POINT
  5
C24
330
B74
100
AcDbEntity
  8
DEFPOINTS
 62
     0
100
AcDbPoint
 10
102.1257163564558
 20
271.5601513244771
 30
0.0
  0
ENDBLK
  5
B7F
330
B74
100
AcDbEntity
  8
0
100
AcDbBlockEnd
  0
BLOCK
  5
BA3
330
B99
100
AcDbEntity
  8
0
100
AcDbBlockBegin
  2
*D3
 70
     1
 10
0.0
 20
0.0
 30
0.0
  3
*D3
  1

  0
LINE
  5
C15
330
B99
100
AcDbEntity
  8
BEM
 62
     0
370
    -2
100
AcDbLine
 10
174.0602006652506
 20
305.5024584003825
 30
0.0
 11
63.84983232558631
 21
305.5024584003825
 31
0.0
  0
LINE
  5
C16
330
B99
100
AcDbEntity
  8
BEM
 62
     0
370
    -2
100
AcDbLine
 10
75.12734115267313
 20
345.5024584003824
 30
0.0
 11
63.84983232558631
 21
345.5024584003824
 31
0.0
  0
LINE
  5
C17
330
B99
100
AcDbEntity
  8
BEM
 62
     0
370
    -2
100
AcDbLine
 10
65.84983232558631
 20
312.5024584003825
 30
0.0
 11
65.84983232558631
 21
338.5024584003824
 31
0.0
  0
SOLID
  5
C18
330
B99
100
AcDbEntity
  8
BEM
 62
     0
100
AcDbTrace
 10
64.68316565891964
 20
312.5024584003825
 30
0.0
 11
67.01649899225298
 21
312.5024584003825
 31
0.0
 12
65.84983232558631
 22
305.5024584003825
 32
0.0
 13
65.84983232558631
 23
305.5024584003825
 33
0.0
  0
SOLID
  5
C19
330
B99
100
AcDbEntity
  8
BEM
 62
     0
100
AcDbTrace
 10
64.68316565891964
 20
338.5024584003824
 30
0.0
 11
67.01649899225298
 21
338.5024584003824
 31
0.0
 12
65.84983232558631
 22
345.5024584003824
 32
0.0
 13
65.84983232558631
 23
345.5024584003824
 33
0.0
  0
MTEXT
  5
C1A
330
B99
100
AcDbEntity
  8
BEM
 62
     1
100
AcDbMText
 10
59.34983232558625
 20
325.5024584003824
 30
0.0
 40
7.0
 41
0.0
 71
     5
 72
     1
  1
\A1;40
 11
0.0000000000000001
 21
1.0
 31
0.0
 73
     1
 44
1.0
  0
POINT
  5
C1B
330
B99
100
AcDbEntity
  8
DEFPOINTS
 62
     0
100
AcDbPoint
 10
176.0602006652506
 20
305.5024584003825
 30
0.0
  0
POINT
  5
C1C
330
B99
100
AcDbEntity
  8
DEFPOINTS
 62
     0
100
AcDbPoint
 10
77.12734115267313
 20
345.5024584003824
 30
0.0
  0
POINT
  5
C1D
330
B99
100
AcDbEntity
  8
DEFPOINTS
 62
     0
100
AcDbPoint
 10
65.84983232558631
 20
345.5024584003824
 30
0.0
  0
ENDBLK
  5
BA4
330
B99
100
AcDbEntity
  8
0
100
AcDbBlockEnd
  0
BLOCK
  5
BB2
330
BA6
100
AcDbEntity
  8
0
100
AcDbBlockBegin
  2
*D4
 70
     1
 10
0.0
 20
0.0
 30
0.0
  3
*D4
  1

  0
LINE
  5
C0A
330
BA6
100
AcDbEntity
  8
BEM
 62
     0
370
    -2
100
AcDbLine
 10
75.12734115267318
 20
347.0024584003825
 30
0.0
 11
50.3983608611116
 21
347.0024584003825
 31
0.0
  0
LINE
  5
C0B
330
BA6
100
AcDbEntity
  8
BEM
 62
     0
370
    -2
100
AcDbLine
 10
80.12734115267312
 20
362.0024584003825
 30
0.0
 11
50.3983608611116
 21
362.0024584003825
 31
0.0
  0
LINE
  5
C0C
330
BA6
100
AcDbEntity
  8
BEM
 62
     0
370
    -2
100
AcDbLine
 10
52.3983608611116
 20
340.0024584003825
 30
0.0
 11
52.39836086111159
 21
333.0024584003825
 31
0.0
  0
LINE
  5
C0D
330
BA6
100
AcDbEntity
  8
BEM
 62
     0
370
    -2
100
AcDbLine
 10
52.39836086111161
 20
369.0024584003825
 30
0.0
 11
52.39836086111161
 21
376.0024584003825
 31
0.0
  0
LINE
  5
C0E
330
BA6
100
AcDbEntity
  8
BEM
 62
     0
370
    -2
100
AcDbLine
 10
52.3983608611116
 20
347.0024584003825
 30
0.0
 11
52.3983608611116
 21
362.0024584003825
 31
0.0
  0
SOLID
  5
C0F
330
BA6
100
AcDbEntity
  8
BEM
 62
     0
100
AcDbTrace
 10
51.23169419444494
 20
340.0024584003825
 30
0.0
 11
53.56502752777826
 21
340.0024584003825
 31
0.0
 12
52.3983608611116
 22
347.0024584003825
 32
0.0
 13
52.3983608611116
 23
347.0024584003825
 33
0.0
  0
SOLID
  5
C10
330
BA6
100
AcDbEntity
  8
BEM
 62
     0
100
AcDbTrace
 10
51.23169419444494
 20
369.0024584003825
 30
0.0
 11
53.56502752777827
 21
369.0024584003825
 31
0.0
 12
52.3983608611116
 22
362.0024584003825
 32
0.0
 13
52.3983608611116
 23
362.0024584003825
 33
0.0
  0
MTEXT
  5
C11
330
BA6
100
AcDbEntity
  8
BEM
 62
     1
100
AcDbMText
 10
45.89836086111154
 20
354.5024584003825
 30
0.0
 40
7.0
 41
0.0
 71
     5
 72
     1
  1
\A1;15
 11
0.0000000000000001
 21
1.0
 31
0.0
 73
     1
 44
1.0
  0
POINT
  5
C12
330
BA6
100
AcDbEntity
  8
DEFPOINTS
 62
     0
100
AcDbPoint
 10
77.12734115267318
 20
347.0024584003825
 30
0.0
  0
POINT
  5
C13
330
BA6
100
AcDbEntity
  8
DEFPOINTS
 62
     0
100
AcDbPoint
 10
82.12734115267313
 20
362.0024584003825
 30
0.0
  0
POINT
  5
C14
330
BA6
100
AcDbEntity
  8
DEFPOINTS
 62
     0
100
AcDbPoint
 10
52.3983608611116
 20
362.0024584003825
 30
0.0
  0
ENDBLK
  5
BB3
330
BA6
100
AcDbEntity
  8
0
100
AcDbBlockEnd
  0
BLOCK
  5
BBF
330
BB5
100
AcDbEntity
  8
0
100
AcDbBlockBegin
  2
*D5
 70
     1
 10
0.0
 20
0.0
 30
0.0
  3
*D5
  1

  0
LINE
  5
C01
330
BB5
100
AcDbEntity
  8
BEM
 62
     0
370
    -2
100
AcDbLine
 10
80.12734115267312
 20
362.0024584003825
 30
0.0
 11
50.39836086111163
 21
362.0024584003825
 31
0.0
  0
LINE
  5
C02
330
BB5
100
AcDbEntity
  8
BEM
 62
     0
370
    -2
100
AcDbLine
 10
130.1273411526734
 20
452.0024584003818
 30
0.0
 11
50.39836086111165
 21
452.0024584003819
 31
0.0
  0
LINE
  5
C03
330
BB5
100
AcDbEntity
  8
BEM
 62
     0
370
    -2
100
AcDbLine
 10
52.39836086111164
 20
369.0024584003825
 30
0.0
 11
52.39836086111165
 21
445.0024584003819
 31
0.0
  0
SOLID
  5
C04
330
BB5
100
AcDbEntity
  8
BEM
 62
     0
100
AcDbTrace
 10
51.23169419444497
 20
369.0024584003825
 30
0.0
 11
53.56502752777831
 21
369.0024584003825
 31
0.0
 12
52.39836086111163
 22
362.0024584003825
 32
0.0
 13
52.39836086111163
 23
362.0024584003825
 33
0.0
  0
SOLID
  5
C05
330
BB5
100
AcDbEntity
  8
BEM
 62
     0
100
AcDbTrace
 10
51.23169419444499
 20
445.0024584003819
 30
0.0
 11
53.56502752777831
 21
445.0024584003819
 31
0.0
 12
52.39836086111165
 22
452.0024584003819
 32
0.0
 13
52.39836086111165
 23
452.0024584003819
 33
0.0
  0
MTEXT
  5
C06
330
BB5
100
AcDbEntity
  8
BEM
 62
     1
100
AcDbMText
 10
45.89836086111158
 20
407.0024584003822
 30
0.0
 40
7.0
 41
0.0
 71
     5
 72
     1
  1
\A1;90
 11
0.0000000000000001
 21
1.0
 31
0.0
 73
     1
 44
1.0
  0
POINT
  5
C07
330
BB5
100
AcDbEntity
  8
DEFPOINTS
 62
     0
100
AcDbPoint
 10
82.12734115267313
 20
362.0024584003825
 30
0.0
  0
POINT
  5
C08
330
BB5
100
AcDbEntity
  8
DEFPOINTS
 62
     0
100
AcDbPoint
 10
132.1273411526734
 20
452.0024584003818
 30
0.0
  0
POINT
  5
C09
330
BB5
100
AcDbEntity
  8
DEFPOINTS
 62
     0
100
AcDbPoint
 10
52.39836086111165
 20
452.0024584003819
 30
0.0
  0
ENDBLK
  5
BC0
330
BB5
100
AcDbEntity
  8
0
100
AcDbBlockEnd
  0
BLOCK
  5
BCC
330
BC2
100
AcDbEntity
  8
0
100
AcDbBlockBegin
  2
*D6
 70
     1
 10
0.0
 20
0.0
 30
0.0
  3
*D6
  1

  0
LINE
  5
BF8
330
BC2
100
AcDbEntity
  8
BEM
 62
     0
370
    -2
100
AcDbLine
 10
102.1273411526731
 20
434.0024004330668
 30
0.0
 11
102.1273411526731
 21
464.2400326061219
 31
0.0
  0
LINE
  5
BF9
330
BC2
100
AcDbEntity
  8
BEM
 62
     0
370
    -2
100
AcDbLine
 10
322.1273411526734
 20
434.0024004330659
 30
0.0
 11
322.1273411526734
 21
464.2400326061219
 31
0.0
  0
LINE
  5
BFA
330
BC2
100
AcDbEntity
  8
BEM
 62
     0
370
    -2
100
AcDbLine
 10
109.1273411526731
 20
462.2400326061219
 30
0.0
 11
315.1273411526734
 21
462.2400326061219
 31
0.0
  0
SOLID
  5
BFB
330
BC2
100
AcDbEntity
  8
BEM
 62
     0
100
AcDbTrace
 10
109.1273411526731
 20
463.4066992727886
 30
0.0
 11
109.1273411526731
 21
461.0733659394552
 31
0.0
 12
102.1273411526731
 22
462.2400326061219
 32
0.0
 13
102.1273411526731
 23
462.2400326061219
 33
0.0
  0
SOLID
  5
BFC
330
BC2
100
AcDbEntity
  8
BEM
 62
     0
100
AcDbTrace
 10
315.1273411526734
 20
463.4066992727886
 30
0.0
 11
315.1273411526734
 21
461.0733659394552
 31
0.0
 12
322.1273411526734
 22
462.2400326061219
 32
0.0
 13
322.1273411526734
 23
462.2400326061219
 33
0.0
  0
MTEXT
  5
BFD
330
BC2
100
AcDbEntity
  8
BEM
 62
     1
100
AcDbMText
 10
212.1273411526733
 20
468.7400326061219
 30
0.0
 40
7.0
 41
0.0
 71
     5
 72
     1
  1
\A1;%%c220
 73
     1
 44
1.0
  0
POINT
  5
BFE
330
BC2
100
AcDbEntity
  8
DEFPOINTS
 62
     0
100
AcDbPoint
 10
102.1273411526731
 20
432.0024004330668
 30
0.0
  0
POINT
  5
BFF
330
BC2
100
AcDbEntity
  8
DEFPOINTS
 62
     0
100
AcDbPoint
 10
322.1273411526734
 20
432.0024004330659
 30
0.0
  0
POINT
  5
C00
330
BC2
100
AcDbEntity
  8
DEFPOINTS
 62
     0
100
AcDbPoint
 10
322.1273411526734
 20
462.2400326061219
 30
0.0
  0
ENDBLK
  5
BCD
330
BC2
100
AcDbEntity
  8
0
100
AcDbBlockEnd
  0
BLOCK
  5
BD9
330
BCF
100
AcDbEntity
  8
0
100
AcDbBlockBegin
  2
*D7
 70
     1
 10
0.0
 20
0.0
 30
0.0
  3
*D7
  1

  0
LINE
  5
BEF
330
BCF
100
AcDbEntity
  8
BEM
 62
     0
370
    -2
100
AcDbLine
 10
82.12734115267323
 20
365.0024584003825
 30
0.0
 11
82.12734115267325
 21
479.2531658135084
 31
0.0
  0
LINE
  5
BF0
330
BCF
100
AcDbEntity
  8
BEM
 62
     0
370
    -2
100
AcDbLine
 10
342.1273411526732
 20
365.0024584003813
 30
0.0
 11
342.1273411526732
 21
479.2531658135084
 31
0.0
  0
LINE
  5
BF1
330
BCF
100
AcDbEntity
  8
BEM
 62
     0
370
    -2
100
AcDbLine
 10
89.12734115267324
 20
477.2531658135084
 30
0.0
 11
335.1273411526732
 21
477.2531658135084
 31
0.0
  0
SOLID
  5
BF2
330
BCF
100
AcDbEntity
  8
BEM
 62
     0
100
AcDbTrace
 10
89.12734115267324
 20
478.4198324801751
 30
0.0
 11
89.12734115267324
 21
476.0864991468418
 31
0.0
 12
82.12734115267323
 22
477.2531658135084
 32
0.0
 13
82.12734115267323
 23
477.2531658135084
 33
0.0
  0
SOLID
  5
BF3
330
BCF
100
AcDbEntity
  8
BEM
 62
     0
100
AcDbTrace
 10
335.1273411526732
 20
478.4198324801751
 30
0.0
 11
335.1273411526732
 21
476.0864991468418
 31
0.0
 12
342.1273411526732
 22
477.2531658135084
 32
0.0
 13
342.1273411526732
 23
477.2531658135084
 33
0.0
  0
MTEXT
  5
BF4
330
BCF
100
AcDbEntity
  8
BEM
 62
     1
100
AcDbMText
 10
212.1273411526732
 20
483.7531658135084
 30
0.0
 40
7.0
 41
0.0
 71
     5
 72
     1
  1
\A1;%%c260
 73
     1
 44
1.0
  0
POINT
  5
BF5
330
BCF
100
AcDbEntity
  8
DEFPOINTS
 62
     0
100
AcDbPoint
 10
82.12734115267323
 20
363.0024584003824
 30
0.0
  0
POINT
  5
BF6
330
BCF
100
AcDbEntity
  8
DEFPOINTS
 62
     0
100
AcDbPoint
 10
342.1273411526732
 20
363.0024584003813
 30
0.0
  0
POINT
  5
BF7
330
BCF
100
AcDbEntity
  8
DEFPOINTS
 62
     0
100
AcDbPoint
 10
342.1273411526732
 20
477.2531658135084
 30
0.0
  0
ENDBLK
  5
BDA
330
BCF
100
AcDbEntity
  8
0
100
AcDbBlockEnd
  0
ENDSEC
  0
SECTION
  2
ENTITIES
  0
LINE
  5
57
330
1E
100
AcDbEntity
  8
STEMPEL
100
AcDbLine
 10
410.0
 20
110.0
 30
0.0
 11
29.99999999999997
 21
110.0
 31
0.0
  0
LINE
  5
58
330
1E
100
AcDbEntity
  8
STEMPEL
100
AcDbLine
 10
136.0000000000001
 20
109.9999999999999
 30
0.0
 11
136.0
 21
9.999999999999971
 31
0.0
  0
LINE
  5
59
330
1E
100
AcDbEntity
  8
STEMPEL
100
AcDbLine
 10
220.0
 20
110.0
 30
0.0
 11
220.0
 21
9.999999999999971
 31
0.0
  0
LINE
  5
5A
330
1E
100
AcDbEntity
  8
STEMPEL
100
AcDbLine
 10
332.0
 20
109.9999999999997
 30
0.0
 11
332.0
 21
40.0
 31
0.0
  0
LINE
  5
5B
330
1E
100
AcDbEntity
  8
STEMPEL
100
AcDbLine
 10
135.9999999999999
 20
29.99999999999997
 30
0.0
 11
29.99999999999997
 21
29.99999999999997
 31
0.0
  0
LINE
  5
5C
330
1E
100
AcDbEntity
  8
STEMPEL
100
AcDbLine
 10
410.0
 20
40.0
 30
0.0
 11
136.0000000000001
 21
39.99999999999997
 31
0.0
  0
LINE
  5
5D
330
1E
100
AcDbEntity
  8
STEMPEL
100
AcDbLine
 10
410.0
 20
80.0
 30
0.0
 11
136.0000000000001
 21
79.99999999999994
 31
0.0
  0
LINE
  5
5E
330
1E
100
AcDbEntity
  8
VOLL
100
AcDbLine
 10
44.00000000000008
 20
110.0
 30
0.0
 11
43.99999999999997
 21
9.999999999999971
 31
0.0
  0
LINE
  5
5F
330
1E
100
AcDbEntity
  8
VOLL
100
AcDbLine
 10
94.00000000000011
 20
109.9999999999999
 30
0.0
 11
94.0
 21
9.999999999999971
 31
0.0
  0
LINE
  5
60
330
1E
100
AcDbEntity
  8
VOLL
100
AcDbLine
 10
114.0000000000001
 20
109.9999999999999
 30
0.0
 11
114.0
 21
9.999999999999971
 31
0.0
  0
LINE
  5
61
330
1E
100
AcDbEntity
  8
VOLL
100
AcDbLine
 10
154.0000000000001
 20
79.99999999999994
 30
0.0
 11
154.0000000000001
 21
39.99999999999997
 31
0.0
  0
LINE
  5
62
330
1E
100
AcDbEntity
  8
VOLL
100
AcDbLine
 10
180.0000000000001
 20
109.9999999999998
 30
0.0
 11
180.0
 21
39.99999999999997
 31
0.0
  0
LINE
  5
63
330
1E
100
AcDbEntity
  8
HILF
100
AcDbLine
 10
30.00000000000009
 20
100.0
 30
0.0
 11
136.0000000000001
 21
100.0
 31
0.0
  0
LINE
  5
64
330
1E
100
AcDbEntity
  8
HILF
100
AcDbLine
 10
30.00000000000009
 20
90.00000000000005
 30
0.0
 11
136.0000000000001
 21
90.00000000000005
 31
0.0
  0
LINE
  5
65
330
1E
100
AcDbEntity
  8
HILF
100
AcDbLine
 10
30.00000000000009
 20
79.99999999999994
 30
0.0
 11
136.0000000000001
 21
79.99999999999994
 31
0.0
  0
LINE
  5
66
330
1E
100
AcDbEntity
  8
HILF
100
AcDbLine
 10
30.00000000000009
 20
69.99999999999994
 30
0.0
 11
136.0000000000001
 21
69.99999999999994
 31
0.0
  0
LINE
  5
67
330
1E
100
AcDbEntity
  8
HILF
100
AcDbLine
 10
30.00000000000009
 20
59.99999999999997
 30
0.0
 11
136.0000000000001
 21
59.99999999999997
 31
0.0
  0
LINE
  5
68
330
1E
100
AcDbEntity
  8
HILF
100
AcDbLine
 10
30.00000000000009
 20
49.99999999999997
 30
0.0
 11
136.0000000000001
 21
49.99999999999997
 31
0.0
  0
LINE
  5
69
330
1E
100
AcDbEntity
  8
HILF
100
AcDbLine
 10
30.00000000000009
 20
39.99999999999997
 30
0.0
 11
136.0000000000001
 21
39.99999999999997
 31
0.0
  0
LINE
  5
6A
330
1E
100
AcDbEntity
  8
HILF
100
AcDbLine
 10
136.0000000000001
 20
69.99999999999994
 30
0.0
 11
220.0
 21
69.99999999999994
 31
0.0
  0
LINE
  5
6B
330
1E
100
AcDbEntity
  8
HILF
100
AcDbLine
 10
136.0000000000001
 20
59.99999999999997
 30
0.0
 11
220.0
 21
59.99999999999997
 31
0.0
  0
LINE
  5
6C
330
1E
100
AcDbEntity
  8
HILF
100
AcDbLine
 10
136.0000000000001
 20
49.99999999999997
 30
0.0
 11
220.0
 21
49.99999999999997
 31
0.0
  0
LINE
  5
6D
330
1E
100
AcDbEntity
  8
HILF
100
AcDbLine
 10
224.7736801096948
 20
84.03758247564139
 30
0.0
 11
324.8353916556311
 21
84.03758247564139
 31
0.0
  0
LINE
  5
6E
330
1E
100
AcDbEntity
  8
HILF
100
AcDbLine
 10
224.7736801096948
 20
69.99999999999994
 30
0.0
 11
324.835391655631
 21
69.99999999999994
 31
0.0
  0
LINE
  5
6F
330
1E
100
AcDbEntity
  8
HILF
100
AcDbLine
 10
224.7736801096948
 20
59.99999999999997
 30
0.0
 11
324.835391655631
 21
59.99999999999997
 31
0.0
  0
LINE
  5
70
330
1E
100
AcDbEntity
  8
HILF
100
AcDbLine
 10
224.7736801096948
 20
49.99999999999997
 30
0.0
 11
324.835391655631
 21
49.99999999999997
 31
0.0
  0
LINE
  5
71
330
1E
100
AcDbEntity
  8
VOLL
100
AcDbLine
 10
332.0
 20
60.0
 30
0.0
 11
410.0
 21
60.0
 31
0.0
  0
LINE
  5
72
330
1E
100
AcDbEntity
  8
HILF
100
AcDbLine
 10
336.7238616296993
 20
83.77983636955827
 30
0.0
 11
404.8588839326728
 21
83.77983636955827
 31
0.0
  0
LINE
  5
73
330
1E
100
AcDbEntity
  8
HILF
100
AcDbLine
 10
223.4909699289885
 20
14.89398258028314
 30
0.0
 11
404.8588839326728
 21
14.89398258028314
 31
0.0
  0
TEXT
  5
74
330
1E
100
AcDbEntity
  8
TEXT
100
AcDbText
 10
59.34071736793199
 20
18.67381894984132
 30
0.0
 40
4.0
  1
Änderung
 41
0.8
  7
GREEKS
 72
     1
 11
70.08357451078913
 21
18.67381894984132
 31
0.0
100
AcDbText
  0
TEXT
  5
75
330
1E
100
AcDbEntity
  8
TEXT
100
AcDbText
 10
143.5163572150377
 20
102.4620895087088
 30
0.0
 40
5.0
  1
Maßstab
 41
0.8
  7
GREEKS
100
AcDbText
  0
TEXT
  5
76
330
1E
100
AcDbEntity
  8
TEXT
100
AcDbText
 10
184.2858954734051
 20
102.4184168434819
 30
0.0
 40
5.0
  1
Zul. Abw.
 41
0.8
  7
GREEKS
100
AcDbText
  0
TEXT
  5
77
330
1E
100
AcDbEntity
  8
TEXT
100
AcDbText
 10
224.877940380901
 20
102.5489328011779
 30
0.0
 40
5.0
  1
Benennung
 41
0.8
  7
GREEKS
100
AcDbText
  0
TEXT
  5
78
330
1E
100
AcDbEntity
  8
TEXT
100
AcDbText
 10
336.178754957634
 20
102.3132034537136
 30
0.0
 40
5.0
  1
Zeichnungs Nr.
 41
0.8
  7
GREEKS
100
AcDbText
  0
TEXT
  5
79
330
1E
100
AcDbEntity
  8
TEXT
100
AcDbText
 10
224.742238391136
 20
30.84560570193057
 30
0.0
 40
5.0
  1
Bauvorhaben
 41
0.8
  7
GREEKS
100
AcDbText
  0
TEXT
  5
7A
330
1E
100
AcDbEntity
  8
TEXT
100
AcDbText
 10
336.7238616296993
 20
73.1811823709997
 30
0.0
 40
5.0
  1
Ersatz für:
 41
0.8
  7
GREEKS
100
AcDbText
  0
TEXT
  5
7B
330
1E
100
AcDbEntity
  8
TEXT
100
AcDbText
 10
38.26641107045757
 20
13.65465846027192
 30
0.0
 40
4.0
  1
Index
 50
90.0
 41
0.8
  7
GREEKS
100
AcDbText
  0
TEXT
  5
7C
330
1E
100
AcDbEntity
  8
TEXT
100
AcDbText
 10
100.0934676075481
 20
18.6715626933981
 30
0.0
 40
4.0
  1
Tag
 41
0.8
  7
GREEKS
 72
     1
 11
103.8268009408814
 21
18.6715626933981
 31
0.0
100
AcDbText
  0
TEXT
  5
7D
330
1E
100
AcDbEntity
  8
TEXT
100
AcDbText
 10
119.0122744386592
 20
18.59324216966408
 30
0.0
 40
4.0
  1
Name
 41
0.8
  7
GREEKS
 72
     1
 11
125.3360839624688
 21
18.59324216966408
 31
0.0
100
AcDbText
  0
TEXT
  5
7E
330
1E
100
AcDbEntity
  8
TEXT
100
AcDbText
 10
162.3311673153651
 20
73.31880501229926
 30
0.0
 40
4.0
  1
Tag
 41
0.8
  7
GREEKS
100
AcDbText
  0
TEXT
  5
7F
330
1E
100
AcDbEntity
  8
TEXT
100
AcDbText
 10
192.4626584226295
 20
73.30961091915225
 30
0.0
 40
4.0
  1
Name
 41
0.8
  7
GREEKS
100
AcDbText
  0
TEXT
  5
80
330
1E
100
AcDbEntity
  8
TEXT
100
AcDbText
 10
137.5836127167615
 20
63.62990369617964
 30
0.0
 40
4.0
  1
Gez.
 41
0.8
  7
GREEKS
100
AcDbText
  0
TEXT
  5
81
330
1E
100
AcDbEntity
  8
TEXT
100
AcDbText
 10
137.5515086571672
 20
53.68926291428377
 30
0.0
 40
4.0
  1
Gepr.
 41
0.8
  7
GREEKS
100
AcDbText
  0
TEXT
  5
82
330
1E
100
AcDbEntity
  8
TEXT
100
AcDbText
 10
137.6006777387304
 20
43.52946389649807
 30
0.0
 40
4.0
  1
Norm.
 41
0.8
  7
GREEKS
100
AcDbText
  0
LINE
  5
83
330
1E
100
AcDbEntity
  8
STEMPEL
100
AcDbLine
 10
39.99999999999989
 20
10.0
 30
0.0
 11
410.0
 21
10.0
 31
0.0
  0
TEXT
  5
84
330
1E
100
AcDbEntity
  8
TEXT
100
AcDbText
 10
337.2400861497006
 20
52.07416177878602
 30
0.0
 40
5.0
  1
ersetzt durch:
 41
0.8
  7
GREEKS
100
AcDbText
  0
LINE
  5
85
330
1E
100
AcDbEntity
  8
STEMPEL
100
AcDbLine
 10
410.0
 20
10.0
 30
0.0
 11
29.99999999999989
 21
10.0
 31
0.0
  0
LINE
  5
86
330
1E
100
AcDbEntity
  8
STEMPEL
100
AcDbLine
 10
410.0
 20
10.0
 30
0.0
 11
410.0
 21
584.0
 31
0.0
  0
LINE
  5
87
330
1E
100
AcDbEntity
  8
STEMPEL
100
AcDbLine
 10
30.0
 20
10.0
 30
0.0
 11
29.99999999999989
 21
584.0
 31
0.0
  0
LINE
  5
88
330
1E
100
AcDbEntity
  8
STEMPEL
100
AcDbLine
 10
410.0
 20
584.0
 30
0.0
 11
29.99999999999989
 21
584.0
 31
0.0
  0
LINE
  5
89
330
1E
100
AcDbEntity
  8
HILF
100
AcDbLine
 10
0.0
 20
0.0
 30
0.0
 11
-0.0000000000001137
 21
594.0
 31
0.0
  0
LINE
  5
8A
330
1E
100
AcDbEntity
  8
HILF
100
AcDbLine
 10
419.9999999999999
 20
594.0000000000002
 30
0.0
 11
0.0
 21
594.0
 31
0.0
  0
LINE
  5
8B
330
1E
100
AcDbEntity
  8
HILF
100
AcDbLine
 10
420.0
 20
0.0
 30
0.0
 11
0.0
 21
0.0
 31
0.0
  0
LINE
  5
8C
330
1E
100
AcDbEntity
  8
HILF
100
AcDbLine
 10
31.08767135713856
 20
297.0
 30
0.0
 11
0.0000000000001137
 21
297.0
 31
0.0
  0
TEXT
  5
8D
330
1E
100
AcDbEntity
  8
TEXT
100
AcDbText
 10
138.622109822104
 20
73.14025471151666
 30
0.0
 40
4.0
  1
2012
 41
0.8
  7
GREEKS
100
AcDbText
  0
LINE
  5
8E
330
1E
100
AcDbEntity
  8
HILF
100
AcDbLine
 10
420.0
 20
-0.0000000000001137
 30
0.0
 11
419.9999999999999
 21
594.0
 31
0.0
  0
TEXT
  5
8F
330
1E
100
AcDbEntity
  8
VOLL
100
AcDbText
 10
78.07675471698113
 20
31.02594776470585
 30
0.0
 40
1.8
  1

  7
GREEKS
100
AcDbText
  0
TEXT
  5
90
330
1E
100
AcDbEntity
  8
TEXT
100
AcDbText
 10
31.85509950977675
 20
111.6719999999999
 30
0.0
 40
5.0
  1
Erstellt mit AUTOCAD 2004
 41
0.8
  7
GREEKS
100
AcDbText
  0
TEXT
  5
91
330
1E
100
AcDbEntity
  8
TEXT
100
AcDbText
 10
194.4216048581257
 20
63.0896391972351
 30
0.0
 40
4.0
  1
Koeh
 41
0.8
  7
GREEKS
 72
     1
 11
199.6787477152685
 21
63.0896391972351
 31
0.0
100
AcDbText
  0
TEXT
  5
92
330
1E
100
AcDbEntity
  8
TEXT
 62
     1
100
AcDbText
 10
346.3606348038285
 20
88.14901428913959
 30
0.0
 40
7.0
  1
15590070W
 41
0.8
  7
GREEKS
 72
     1
 11
369.8273014704952
 21
88.14901428913959
 31
0.0
100
AcDbText
  0
TEXT
  5
93
330
1E
100
AcDbEntity
  8
TEXT
 62
     1
100
AcDbText
 10
150.5006306481887
 20
88.14901428913959
 30
0.0
 40
7.0
  1
1:2
 41
0.8
  7
GREEKS
100
AcDbText
  0
TEXT
  5
94
330
1E
100
AcDbEntity
  8
TEXT
100
AcDbText
 10
160.7037590129979
 20
63.10765040825732
 30
0.0
 40
4.0
  1
13.08.
 41
0.8
  7
GREEKS
 72
     1
 11
167.4085209177598
 21
63.10765040825732
 31
0.0
100
AcDbText
  0
TEXT
  5
95
330
1E
100
AcDbEntity
  8
TEXT
 62
     1
100
AcDbText
 10
226.8935731057402
 20
87.41748789253779
 30
0.0
 40
7.0
  1
Siebeinheit DN70
 41
0.8
  7
GREEKS
100
AcDbText
  0
TEXT
  5
98
330
1E
100
AcDbEntity
  8
TEXT
100
AcDbText
 10
225.1296391125315
 20
51.64011943042158
 30
0.0
 40
5.0
  1
EDV-Art.Nr. 15590.070X
 41
0.8
  7
GREEKS
100
AcDbText
  0
TEXT
  5
99
330
1E
100
AcDbEntity
  8
TEXT
100
AcDbText
 10
224.9837501577827
 20
42.62974153022632
 30
0.0
 40
4.0
  1
15590070W.DWG
 41
0.8
  7
GREEKS
100
AcDbText
  0
TEXT
  5
9A
330
1E
100
AcDbEntity
  8
TEXT
100
AcDbText
 10
182.626132208084
 20
90.76363841023022
 30
0.0
 40
4.0
  1
DIN EN1123-2
 41
0.8
  7
GREEKS
 72
     1
 11
199.6166083985602
 21
90.76363841023022
 31
0.0
100
AcDbText
  0
INSERT
  5
9B
330
1E
100
AcDbEntity
  8
STEMPEL
100
AcDbBlockReference
  2
LOGO
 10
140.9955485457794
 20
45.02105276448322
 30
0.0
 41
2.0
 42
2.0
 43
2.0
  0
TEXT
  5
118
330
1E
100
AcDbEntity
  8
BEM
100
AcDbText
 10
417.3022923857165
 20
10.16790107998849
 30
0.0
 40
4.0
  1
Diese Zeichnung ist urheberrechtlich geschützt und bleibt unser Eigentum. Sie darf weder ganz noch teilweise verfielfältigt und nicht an Dritte weitergegeben werden.
 50
90.0
 41
0.8
  7
GREEKS
100
AcDbText
  0
TEXT
  5
756
330
1E
100
AcDbEntity
  8
TEXT
 62
     1
100
AcDbText
 10
55.30025830609452
 20
281.0357567633385
 30
0.0
 40
7.0
  1
Losflansch DN70
 41
0.8
  7
GREEKS
100
AcDbText
  0
LINE
  5
757
330
1E
100
AcDbEntity
  8
TEXT
 62
     2
100
AcDbLine
 10
53.18036531004906
 20
277.655851346442
 30
0.0
 11
161.2910747512891
 21
277.655851346442
 31
0.0
  0
TEXT
  5
759
330
1E
100
AcDbEntity
  8
TEXT
 62
     1
100
AcDbText
 10
55.30025830609452
 20
267.6284002358752
 30
0.0
 40
7.0
  1
EDV-Art.Nr. 17014.070X
 41
0.8
  7
GREEKS
100
AcDbText
  0
TEXT
  5
75A
330
1E
100
AcDbEntity
  8
TEXT
 62
     1
100
AcDbText
 10
285.5318880859829
 20
501.6502072123123
 30
0.0
 40
7.0
  1
EDV-Art.Nr. 21004.000X
 41
0.8
  7
GREEKS
100
AcDbText
  0
LINE
  5
75C
330
1E
100
AcDbEntity
  8
TEXT
 62
     2
100
AcDbLine
 10
283.4119950899374
 20
511.6776583228791
 30
0.0
 11
391.5227045311775
 21
511.6776583228791
 31
0.0
  0
TEXT
  5
75D
330
1E
100
AcDbEntity
  8
TEXT
 62
     1
100
AcDbText
 10
285.5318880859829
 20
515.0575637397755
 30
0.0
 40
7.0
  1
Siebkorb
 41
0.8
  7
GREEKS
100
AcDbText
  0
TEXT
  5
75E
330
1E
100
AcDbEntity
  8
TEXT
 62
     1
100
AcDbText
 10
285.5318880859829
 20
215.0592918165885
 30
0.0
 40
7.0
  1
EDV-Art.Nr. 00911.070X
 41
0.8
  7
GREEKS
100
AcDbText
  0
LINE
  5
75F
330
1E
100
AcDbEntity
  8
TEXT
 62
     2
100
AcDbLine
 10
250.921059787035
 20
217.9361530585339
 30
0.0
 11
283.4119950899374
 21
225.0867429271553
 31
0.0
  0
LINE
  5
760
330
1E
100
AcDbEntity
  8
TEXT
 62
     2
100
AcDbLine
 10
283.4119950899374
 20
225.0867429271553
 30
0.0
 11
391.5227045311775
 21
225.0867429271553
 31
0.0
  0
TEXT
  5
761
330
1E
100
AcDbEntity
  8
TEXT
 62
     1
100
AcDbText
 10
285.5318880859829
 20
228.4666483440517
 30
0.0
 40
7.0
  1
Dichelement DN70
 41
0.8
  7
GREEKS
100
AcDbText
  0
LINE
  5
7EC
102
{ACAD_REACTORS
330
86F
102
}
330
1E
100
AcDbEntity
  8
STEMPEL
100
AcDbLine
 10
253.8423317277699
 20
225.5799715293908
 30
0.0
 11
250.756405731141
 21
225.5799715293909
 31
0.0
  0
LINE
  5
7ED
102
{ACAD_REACTORS
330
86F
102
}
330
1E
100
AcDbEntity
  8
STEMPEL
100
AcDbLine
 10
253.8423317277699
 20
225.5799715293908
 30
0.0
 11
251.3105049605472
 21
230.0710564262232
 31
0.0
  0
ARC
  5
7EE
102
{ACAD_REACTORS
330
86F
102
}
330
1E
100
AcDbEntity
  8
STEMPEL
100
AcDbCircle
 10
250.439393243198
 20
229.5799715293908
 30
0.0
 40
1.0
100
AcDbArc
 50
29.41191366553042
 51
169.9999999999997
  0
LINE
  5
7EF
102
{ACAD_REACTORS
330
86F
102
}
330
1E
100
AcDbEntity
  8
STEMPEL
100
AcDbLine
 10
250.286559420748
 20
224.908961457728
 30
0.0
 11
252.04233172777
 21
220.0850166904817
 31
0.0
  0
ARC
  5
7F0
102
{ACAD_REACTORS
330
86F
102
}
330
1E
100
AcDbEntity
  8
STEMPEL
100
AcDbCircle
 10
250.756405731141
 20
225.0799715293909
 30
0.0
 40
0.5
100
AcDbArc
 50
90.0
 51
200.0000000000001
  0
LINE
  5
7F1
102
{ACAD_REACTORS
330
86F
102
}
330
1E
100
AcDbEntity
  8
STEMPEL
100
AcDbLine
 10
248.54233172777
 20
224.5799715293908
 30
0.0
 11
249.4545854901858
 21
229.7536197070578
 31
0.0
  0
LINE
  5
7F2
102
{ACAD_REACTORS
330
86F
102
}
330
1E
100
AcDbEntity
  8
STEMPEL
100
AcDbLine
 10
253.44233172777
 20
217.5799715293908
 30
0.0
 11
252.04233172777
 21
218.9799715293908
 31
0.0
  0
LINE
  5
7F3
102
{ACAD_REACTORS
330
86F
102
}
330
1E
100
AcDbEntity
  8
STEMPEL
100
AcDbLine
 10
252.04233172777
 20
215.1799715293908
 30
0.0
 11
252.04233172777
 21
214.5799715293908
 31
0.0
  0
LINE
  5
7F4
102
{ACAD_REACTORS
330
86F
102
}
330
1E
100
AcDbEntity
  8
STEMPEL
100
AcDbLine
 10
253.44233172777
 20
217.5799715293908
 30
0.0
 11
253.44233172777
 21
216.5799715293908
 31
0.0
  0
LINE
  5
7F5
102
{ACAD_REACTORS
330
86F
102
}
330
1E
100
AcDbEntity
  8
STEMPEL
100
AcDbLine
 10
253.44233172777
 20
216.5799715293908
 30
0.0
 11
252.04233172777
 21
215.1799715293908
 31
0.0
  0
LINE
  5
7F6
102
{ACAD_REACTORS
330
86F
102
}
330
1E
100
AcDbEntity
  8
STEMPEL
100
AcDbLine
 10
252.54233172777
 20
210.5799715293908
 30
0.0
 11
251.717997531939
 21
212.1074114819896
 31
0.0
  0
LINE
  5
7F7
102
{ACAD_REACTORS
330
86F
102
}
330
1E
100
AcDbEntity
  8
STEMPEL
100
AcDbLine
 10
254.3423317277699
 20
210.5799715293908
 30
0.0
 11
252.54233172777
 21
210.5799715293908
 31
0.0
  0
ARC
  5
7F8
102
{ACAD_REACTORS
330
86F
102
}
330
1E
100
AcDbEntity
  8
STEMPEL
100
AcDbCircle
 10
246.04233172777
 20
212.0799715293908
 30
0.0
 40
4.0
100
AcDbArc
 50
337.975687162958
 51
355.3175831377298
  0
ARC
  5
7F9
102
{ACAD_REACTORS
330
86F
102
}
330
1E
100
AcDbEntity
  8
STEMPEL
100
AcDbCircle
 10
250.9259779065998
 20
211.6799715293908
 30
0.0
 40
0.9
100
AcDbArc
 50
28.35500602840977
 51
175.3175831377314
  0
LINE
  5
7FA
330
1E
100
AcDbEntity
  8
STEMPEL
100
AcDbLine
 10
252.54233172777
 20
210.5799715293908
 30
0.0
 11
249.7504309713177
 21
210.5799715293908
 31
0.0
  0
LINE
  5
7FB
102
{ACAD_REACTORS
330
86F
102
}
330
1E
100
AcDbEntity
  8
STEMPEL
100
AcDbLine
 10
254.3423317277699
 20
210.5799715293908
 30
0.0
 11
252.04233172777
 21
214.5799715293908
 31
0.0
  0
LINE
  5
7FC
102
{ACAD_REACTORS
330
86F
102
}
330
1E
100
AcDbEntity
  8
STEMPEL
100
AcDbLine
 10
248.54233172777
 20
224.5799715293908
 30
0.0
 11
248.54233172777
 21
214.5799715293908
 31
0.0
  0
LINE
  5
7FD
102
{ACAD_REACTORS
330
86F
102
}
330
1E
100
AcDbEntity
  8
STEMPEL
100
AcDbLine
 10
252.04233172777
 20
220.0850166904817
 30
0.0
 11
252.04233172777
 21
218.9799715293908
 31
0.0
  0
ARC
  5
7FE
102
{ACAD_REACTORS
330
86F
102
}
330
1E
100
AcDbEntity
  8
STEMPEL
100
AcDbCircle
 10
243.5423317277699
 20
214.5799715293908
 30
0.0
 40
5.0
100
AcDbArc
 50
270.0
 51
0.0
  0
LINE
  5
800
102
{ACAD_REACTORS
330
86F
102
}
330
1E
100
AcDbEntity
  8
STEMPEL
100
AcDbLine
 10
243.5423317277699
 20
209.5799715293908
 30
0.0
 11
243.5423317277699
 21
208.0799715293908
 31
0.0
  0
ARC
  5
801
102
{ACAD_REACTORS
330
86F
102
}
330
1E
100
AcDbEntity
  8
STEMPEL
100
AcDbCircle
 10
246.04233172777
 20
212.0799715293908
 30
0.0
 40
4.0
100
AcDbArc
 50
270.0
 51
337.975687162958
  0
LINE
  5
802
102
{ACAD_REACTORS
330
86F
102
}
330
1E
100
AcDbEntity
  8
STEMPEL
100
AcDbLine
 10
174.5423317277699
 20
224.5799715293908
 30
0.0
 11
173.6300779653541
 21
229.7536197070578
 31
0.0
  0
LINE
  5
803
102
{ACAD_REACTORS
330
86F
102
}
330
1E
100
AcDbEntity
  8
STEMPEL
100
AcDbLine
 10
169.2423317277699
 20
225.5799715293908
 30
0.0
 11
172.3282577243988
 21
225.5799715293909
 31
0.0
  0
LINE
  5
804
102
{ACAD_REACTORS
330
86F
102
}
330
1E
100
AcDbEntity
  8
STEMPEL
100
AcDbLine
 10
169.2423317277699
 20
225.5799715293908
 30
0.0
 11
171.7741584949926
 21
230.0710564262232
 31
0.0
  0
ARC
  5
805
102
{ACAD_REACTORS
330
86F
102
}
330
1E
100
AcDbEntity
  8
STEMPEL
100
AcDbCircle
 10
172.3282577243988
 20
225.0799715293909
 30
0.0
 40
0.5
100
AcDbArc
 50
339.9999999999999
 51
90.0
  0
LINE
  5
806
102
{ACAD_REACTORS
330
86F
102
}
330
1E
100
AcDbEntity
  8
STEMPEL
100
AcDbLine
 10
172.7981040347918
 20
224.908961457728
 30
0.0
 11
171.0423317277699
 21
220.0850166904817
 31
0.0
  0
ARC
  5
807
102
{ACAD_REACTORS
330
86F
102
}
330
1E
100
AcDbEntity
  8
STEMPEL
100
AcDbCircle
 10
172.6452702123419
 20
229.5799715293908
 30
0.0
 40
1.0
100
AcDbArc
 50
10.00000000000021
 51
150.5880863344696
  0
ARC
  5
808
102
{ACAD_REACTORS
330
86F
102
}
330
1E
100
AcDbEntity
  8
STEMPEL
100
AcDbCircle
 10
177.0423317277699
 20
212.0799715293908
 30
0.0
 40
4.0
100
AcDbArc
 50
184.6824168622701
 51
202.0243128370421
  0
ARC
  5
809
102
{ACAD_REACTORS
330
86F
102
}
330
1E
100
AcDbEntity
  8
STEMPEL
100
AcDbCircle
 10
179.5423317277699
 20
214.5799715293908
 30
0.0
 40
5.0
100
AcDbArc
 50
180.0
 51
270.0
  0
LINE
  5
80A
102
{ACAD_REACTORS
330
86F
102
}
330
1E
100
AcDbEntity
  8
STEMPEL
100
AcDbLine
 10
171.0423317277699
 20
215.1799715293908
 30
0.0
 11
171.0423317277699
 21
214.5799715293908
 31
0.0
  0
LINE
  5
80B
102
{ACAD_REACTORS
330
86F
102
}
330
1E
100
AcDbEntity
  8
STEMPEL
100
AcDbLine
 10
169.6423317277699
 20
217.5799715293908
 30
0.0
 11
169.6423317277699
 21
216.5799715293908
 31
0.0
  0
LINE
  5
80C
102
{ACAD_REACTORS
330
86F
102
}
330
1E
100
AcDbEntity
  8
STEMPEL
100
AcDbLine
 10
169.6423317277699
 20
216.5799715293908
 30
0.0
 11
171.0423317277699
 21
215.1799715293908
 31
0.0
  0
LINE
  5
80D
102
{ACAD_REACTORS
330
86F
102
}
330
1E
100
AcDbEntity
  8
STEMPEL
100
AcDbLine
 10
169.6423317277699
 20
217.5799715293908
 30
0.0
 11
171.0423317277699
 21
218.9799715293908
 31
0.0
  0
LINE
  5
80E
102
{ACAD_REACTORS
330
86F
102
}
330
1E
100
AcDbEntity
  8
STEMPEL
100
AcDbLine
 10
170.5423317277699
 20
210.5799715293908
 30
0.0
 11
171.3666659236009
 21
212.1074114819896
 31
0.0
  0
LINE
  5
80F
102
{ACAD_REACTORS
330
86F
102
}
330
1E
100
AcDbEntity
  8
STEMPEL
100
AcDbLine
 10
168.7423317277699
 20
210.5799715293908
 30
0.0
 11
170.5423317277699
 21
210.5799715293908
 31
0.0
  0
LINE
  5
810
102
{ACAD_REACTORS
330
86F
102
}
330
1E
100
AcDbEntity
  8
STEMPEL
100
AcDbLine
 10
168.7423317277699
 20
210.5799715293908
 30
0.0
 11
171.0423317277699
 21
214.5799715293908
 31
0.0
  0
ARC
  5
811
102
{ACAD_REACTORS
330
86F
102
}
330
1E
100
AcDbEntity
  8
STEMPEL
100
AcDbCircle
 10
172.15868554894
 20
211.6799715293908
 30
0.0
 40
0.9
100
AcDbArc
 50
4.682416862268558
 51
151.6449939715902
  0
LINE
  5
812
330
1E
100
AcDbEntity
  8
STEMPEL
100
AcDbLine
 10
170.5423317277699
 20
210.5799715293908
 30
0.0
 11
173.3342324842221
 21
210.5799715293908
 31
0.0
  0
LINE
  5
813
102
{ACAD_REACTORS
330
86F
102
}
330
1E
100
AcDbEntity
  8
STEMPEL
100
AcDbLine
 10
174.5423317277699
 20
224.5799715293908
 30
0.0
 11
174.5423317277699
 21
214.5799715293908
 31
0.0
  0
LINE
  5
814
102
{ACAD_REACTORS
330
86F
102
}
330
1E
100
AcDbEntity
  8
STEMPEL
100
AcDbLine
 10
171.0423317277699
 20
220.0850166904817
 30
0.0
 11
171.0423317277699
 21
218.9799715293908
 31
0.0
  0
LINE
  5
816
102
{ACAD_REACTORS
330
86F
102
}
330
1E
100
AcDbEntity
  8
STEMPEL
100
AcDbLine
 10
179.5423317277699
 20
209.5799715293908
 30
0.0
 11
179.5423317277699
 21
208.0799715293908
 31
0.0
  0
ARC
  5
817
102
{ACAD_REACTORS
330
86F
102
}
330
1E
100
AcDbEntity
  8
STEMPEL
100
AcDbCircle
 10
177.0423317277699
 20
212.0799715293908
 30
0.0
 40
4.0
100
AcDbArc
 50
202.0243128370421
 51
270.0
  0
LINE
  5
818
330
1E
100
AcDbEntity
  8
STEMPEL
100
AcDbLine
 10
172.6452702123419
 20
230.5799715293908
 30
0.0
 11
250.439393243198
 21
230.5799715293908
 31
0.0
  0
LINE
  5
819
330
1E
100
AcDbEntity
  8
STEMPEL
100
AcDbLine
 10
174.5423317277699
 20
224.5799715293908
 30
0.0
 11
248.5423317277699
 21
224.5799715293908
 31
0.0
  0
LINE
  5
81A
102
{ACAD_REACTORS
330
86F
102
}
330
1E
100
AcDbEntity
  8
STEMPEL
100
AcDbLine
 10
177.0423317277699
 20
208.0799715293908
 30
0.0
 11
246.04233172777
 21
208.0799715293908
 31
0.0
  0
LINE
  5
81B
330
1E
100
AcDbEntity
  8
STEMPEL
100
AcDbLine
 10
179.5423317277699
 20
209.5799715293908
 30
0.0
 11
243.5423317277699
 21
209.5799715293908
 31
0.0
  0
LINE
  5
821
330
1E
100
AcDbEntity
  8
MITTEL
100
AcDbLine
 10
211.5423317277699
 20
232.5799715293908
 30
0.0
 11
211.5423317277699
 21
206.0799715293908
 31
0.0
  0
LINE
  5
838
330
1E
100
AcDbEntity
  8
TEXT
 62
     2
100
AcDbLine
 10
266.7841019731049
 20
451.5798957550845
 30
0.0
 11
269.2002321816292
 21
460.3124524647362
 31
0.0
  0
LINE
  5
839
330
1E
100
AcDbEntity
  8
TEXT
 62
     2
100
AcDbLine
 10
161.2910747512891
 20
277.655851346442
 30
0.0
 11
176.7106907628665
 21
314.6086554964054
 31
0.0
  0
TEXT
  5
83A
330
1E
100
AcDbEntity
  8
TEXT
100
AcDbText
 10
225.1296391125315
 20
71.64011943042154
 30
0.0
 40
5.0
  1
für Flachdacheinlauf
 41
0.8
  7
GREEKS
100
AcDbText
  0
HATCH
  5
86F
330
1E
100
AcDbEntity
  8
SCHRAFF
100
AcDbHatch
 10
0.0
 20
0.0
 30
0.0
210
0.0
220
0.0
230
1.0
  2
NET
 70
     0
 71
     1
 91
        2
 92
        7
 72
     1
 73
     1
 93
       21
 10
248.54233172777
 20
214.5799715293908
 42
-0.4142135623730951
 10
243.5423317277699
 20
209.5799715293908
 42
0.0
 10
243.5423317277699
 20
208.0799715293908
 42
0.0
 10
246.04233172777
 20
208.0799715293908
 42
0.305614684580701
 10
249.7504309713178
 20
210.5799715293908
 42
0.0758130451093978
 10
250.0289816696719
 20
211.7534409171459
 42
-0.7464811088943229
 10
251.717997531939
 20
212.1074114819896
 42
0.0
 10
252.5423317277699
 20
210.5799715293908
 42
0.0
 10
254.34233172777
 20
210.5799715293908
 42
0.0
 10
252.04233172777
 20
214.5799715293908
 42
0.0
 10
252.04233172777
 20
215.1799715293908
 42
0.0
 10
253.44233172777
 20
216.5799715293908
 42
0.0
 10
253.4423317277699
 20
217.5799715293909
 42
0.0
 10
252.04233172777
 20
218.9799715293908
 42
0.0
 10
252.0423317277699
 20
220.0850166904817
 42
0.0
 10
250.286559420748
 20
224.908961457728
 42
-0.5205670505517908
 10
250.756405731141
 20
225.5799715293909
 42
0.0
 10
253.84233172777
 20
225.5799715293907
 42
0.0
 10
251.3105049605472
 20
230.0710564262232
 42
0.7040385315423727
 10
249.4545854901858
 20
229.7536197070578
 42
0.0
 10
248.5423317277699
 20
224.5799715293908
 42
0.0
 97
       21
330
7EF
330
7F0
330
7EC
330
7ED
330
7EE
330
7F1
330
7FC
330
7FE
330
800
330
81A
330
801
330
7F8
330
7F9
330
7F6
330
7F7
330
7FB
330
7F3
330
7F5
330
7F4
330
7F2
330
7FD
 92
        7
 72
     1
 73
     1
 93
       21
 10
169.6423317277699
 20
217.5799715293908
 42
0.0
 10
169.6423317277699
 20
216.5799715293908
 42
0.0
 10
171.0423317277699
 20
215.1799715293908
 42
0.0
 10
171.0423317277699
 20
214.5799715293908
 42
0.0
 10
168.7423317277699
 20
210.5799715293908
 42
0.0
 10
170.5423317277699
 20
210.5799715293908
 42
0.0
 10
171.3666659236009
 20
212.1074114819896
 42
-0.7464811088943229
 10
173.055681785868
 20
211.7534409171459
 42
0.0758130451093981
 10
173.3342324842221
 20
210.5799715293908
 42
0.3056146845807016
 10
177.04233172777
 20
208.0799715293908
 42
0.0
 10
179.5423317277699
 20
208.0799715293908
 42
0.0
 10
179.5423317277699
 20
209.5799715293908
 42
-0.4142135623730951
 10
174.5423317277699
 20
214.5799715293908
 42
0.0
 10
174.5423317277699
 20
224.5799715293908
 42
0.0
 10
173.6300779653541
 20
229.7536197070578
 42
0.7040385315423727
 10
171.7741584949926
 20
230.0710564262232
 42
0.0
 10
169.2423317277699
 20
225.5799715293908
 42
0.0
 10
172.3282577243988
 20
225.5799715293909
 42
-0.5205670505517907
 10
172.7981040347918
 20
224.908961457728
 42
0.0
 10
171.0423317277699
 20
220.0850166904816
 42
0.0
 10
171.0423317277699
 20
218.9799715293908
 42
0.0
 97
       21
330
802
330
807
330
804
330
803
330
805
330
806
330
814
330
80D
330
80B
330
80C
330
80A
330
810
330
80F
330
80E
330
811
330
808
330
817
330
81A
330
816
330
809
330
813
 75
     0
 76
     1
 52
45.0
 41
10.0
 77
     0
 78
     2
 53
45.0
 43
0.0
 44
0.0
 45
-0.8838834764831842
 46
0.8838834764831844
 79
     0
 53
135.0
 43
0.0
 44
0.0
 45
-0.8838834764831844
 46
-0.8838834764831842
 79
     0
 47
0.1338800975901234
 98
        2
 10
249.2902689230991
 20
219.5201382778964
 10
171.5955786255968
 20
217.6458166711122
  0
ARC
  5
8BA
330
1E
100
AcDbEntity
  8
SCHRAFF
100
AcDbCircle
 10
219.8661309394142
 20
345.5024584003827
 30
0.0
 40
5.0
100
AcDbArc
 50
342.5423968762768
 51
17.45760312372323
  0
ARC
  5
8BB
330
1E
100
AcDbEntity
  8
SCHRAFF
100
AcDbCircle
 10
224.8661309394142
 20
345.5024584003827
 30
0.0
 40
5.0
100
AcDbArc
 50
342.5423968762768
 51
17.45760312372323
  0
ARC
  5
8BC
330
1E
100
AcDbEntity
  8
SCHRAFF
100
AcDbCircle
 10
229.8661309394142
 20
345.5024584003827
 30
0.0
 40
5.0
100
AcDbArc
 50
342.5423968762768
 51
17.45760312372323
  0
ARC
  5
8BD
330
1E
100
AcDbEntity
  8
SCHRAFF
100
AcDbCircle
 10
194.9318721141655
 20
345.5024584003827
 30
0.0
 40
5.0
100
AcDbArc
 50
342.5423968762768
 51
17.45760312372323
  0
ARC
  5
8BE
330
1E
100
AcDbEntity
  8
SCHRAFF
100
AcDbCircle
 10
189.9318721141655
 20
345.5024584003827
 30
0.0
 40
5.0
100
AcDbArc
 50
342.5423968762768
 51
17.45760312372323
  0
ARC
  5
8BF
330
1E
100
AcDbEntity
  8
SCHRAFF
100
AcDbCircle
 10
184.9318721141655
 20
345.5024584003827
 30
0.0
 40
5.0
100
AcDbArc
 50
342.5423968762768
 51
17.45760312372323
  0
ARC
  5
8C0
330
1E
100
AcDbEntity
  8
SCHRAFF
100
AcDbCircle
 10
175.7823971172202
 20
345.5024584003829
 30
0.0
 40
1.828088629478462
100
AcDbArc
 50
304.8622016819239
 51
55.13779831807614
  0
HATCH
  5
8C1
330
1E
100
AcDbEntity
  8
SCHRAFF
100
AcDbHatch
 10
0.0
 20
0.0
 30
0.0
210
0.0
220
0.0
230
1.0
  2
_USER
 70
     0
 71
     0
 91
        2
 92
        7
 72
     1
 73
     1
 93
        3
 10
176.8273411526731
 20
347.0024584003824
 42
-0.2453357974240878
 10
177.6104857466984
 20
345.5024584003831
 42
0.0
 10
176.8273411526732
 20
345.5024584003831
 42
0.0
 97
        0
 92
        7
 72
     1
 73
     1
 93
        3
 10
176.8273411526731
 20
345.5024584003831
 42
0.0
 10
177.6104857466988
 20
345.5024584003831
 42
-0.2453357974242125
 10
176.8273411526731
 20
344.002458400383
 42
0.0
 97
        0
 75
     0
 76
     0
 52
0.0
 41
0.1
 77
     0
 78
     1
 53
179.9999999999998
 43
437.1273411526716
 44
-167.9240542272575
 45
0.0000000000000003
 46
0.1
 79
     0
 47
0.0937308931428171
 98
        2
 10
177.1785883396159
 20
345.9473147418364
 10
177.0848233238411
 20
345.1037362123497
  0
HATCH
  5
8C2
330
1E
100
AcDbEntity
  8
SCHRAFF
100
AcDbHatch
 10
0.0
 20
0.0
 30
0.0
210
0.0
220
0.0
230
1.0
  2
_USER
 70
     0
 71
     0
 91
        2
 92
        7
 72
     1
 73
     1
 93
        3
 10
247.4273411526731
 20
347.0024584003824
 42
0.2453357974240914
 10
246.6441965586478
 20
345.502458400383
 42
0.0
 10
247.4273411526731
 20
345.502458400383
 42
0.0
 97
        0
 92
        7
 72
     1
 73
     1
 93
        3
 10
247.4273411526731
 20
345.502458400383
 42
0.0
 10
246.6441965586475
 20
345.502458400383
 42
0.2453357974242161
 10
247.4273411526731
 20
344.0024584003829
 42
0.0
 97
        0
 75
     0
 76
     0
 52
0.0
 41
0.1
 77
     0
 78
     1
 53
0.0
 43
-12.87265884732682
 44
-167.9240542272569
 45
0.0
 46
0.1
 79
     0
 47
0.0937308931428171
 98
        2
 10
247.0760939657303
 20
345.9473147418364
 10
247.1698589815051
 20
345.1037362123497
  0
ARC
  5
8C3
330
1E
100
AcDbEntity
  8
SCHRAFF
100
AcDbCircle
 10
248.4722851881259
 20
345.5024584003829
 30
0.0
 40
1.828088629478462
100
AcDbArc
 50
124.8622016819238
 51
235.1377983180761
  0
ELLIPSE
  5
8C4
330
1E
100
AcDbEntity
  8
STEMPEL
100
AcDbEllipse
 10
181.5566443990823
 20
337.5024584003831
 30
0.0
 11
0.0000000000000199
 21
5.999999999999943
 31
0.0
210
0.0
220
0.0
230
-1.0
 40
0.4142502043711471
 41
3.141592653589793
 42
4.496892404783716
  0
LINE
  5
8C5
330
1E
100
AcDbEntity
  8
STEMPEL
100
AcDbLine
 10
178.28687303993
 20
345.5024584003831
 30
0.0
 11
179.1286319944398
 21
336.2194631326838
 31
0.0
  0
ELLIPSE
  5
8C6
330
1E
100
AcDbEntity
  8
STEMPEL
100
AcDbEllipse
 10
181.5566443990823
 20
337.5024584003831
 30
0.0
 11
0.0000000000000199
 21
5.999999999999943
 31
0.0
210
0.0
220
0.0
230
-1.0
 40
0.5528730833000856
 41
1.889213012932703
 42
3.141592653589793
  0
LINE
  5
8C7
330
1E
100
AcDbEntity
  8
STEMPEL
100
AcDbLine
 10
186.5074209851355
 20
345.5024584003829
 30
0.0
 11
184.707132901576
 21
335.6240790242383
 31
0.0
  0
ELLIPSE
  5
8C8
330
1E
100
AcDbEntity
  8
STEMPEL
100
AcDbEllipse
 10
180.5174139145411
 20
337.5024584003831
 30
0.0
 11
0.0000000000000199
 21
6.0
 31
0.0
210
0.0
220
0.0
230
-1.0
 40
0.5716676357068783
 41
1.889213012932743
 42
2.964997179685858
  0
LINE
  5
8C9
330
1E
100
AcDbEntity
  8
STEMPEL
100
AcDbLine
 10
185.6364888547942
 20
345.5024584003829
 30
0.0
 11
183.7750011763263
 21
335.6240790242381
 31
0.0
  0
LINE
  5
8CA
330
1E
100
AcDbEntity
  8
STEMPEL
100
AcDbLine
 10
238.6181934505519
 20
345.5024584003829
 30
0.0
 11
240.47968112902
 21
335.624079024238
 31
0.0
  0
ELLIPSE
  5
8CB
330
1E
100
AcDbEntity
  8
STEMPEL
100
AcDbEllipse
 10
243.7372683908051
 20
337.502458400383
 30
0.0
 11
0.0
 21
6.0
 31
0.0
210
0.0
220
0.0
230
1.0
 40
0.5716676357068783
 41
1.889213012932743
 42
2.964997179685858
  0
LINE
  5
8CC
330
1E
100
AcDbEntity
  8
STEMPEL
100
AcDbLine
 10
237.7472613202107
 20
345.5024584003829
 30
0.0
 11
239.5475494037701
 21
335.6240790242382
 31
0.0
  0
ELLIPSE
  5
8CD
330
1E
100
AcDbEntity
  8
STEMPEL
100
AcDbEllipse
 10
242.6980379062639
 20
337.502458400383
 30
0.0
 11
0.0
 21
5.999999999999943
 31
0.0
210
0.0
220
0.0
230
1.0
 40
0.5528730833000856
 41
1.889213012932703
 42
3.141592653589793
  0
LINE
  5
8CE
330
1E
100
AcDbEntity
  8
STEMPEL
100
AcDbLine
 10
245.9678092654162
 20
345.502458400383
 30
0.0
 11
245.1260503109064
 21
336.2194631326837
 31
0.0
  0
ELLIPSE
  5
8CF
330
1E
100
AcDbEntity
  8
STEMPEL
100
AcDbEllipse
 10
242.6980379062639
 20
337.502458400383
 30
0.0
 11
0.0
 21
5.999999999999943
 31
0.0
210
0.0
220
0.0
230
1.0
 40
0.4142502043711471
 41
3.141592653589793
 42
4.496892404783716
  0
LINE
  5
8D0
330
1E
100
AcDbEntity
  8
STEMPEL
100
AcDbLine
 10
203.6273411526732
 20
345.5024584003829
 30
0.0
 11
206.3541328923574
 21
335.8684246237974
 31
0.0
  0
LINE
  5
8D1
330
1E
100
AcDbEntity
  8
STEMPEL
100
AcDbLine
 10
220.6273411526732
 20
345.5024584003829
 30
0.0
 11
217.9005494129888
 21
335.8684246237974
 31
0.0
  0
ARC
  5
8D2
330
1E
100
AcDbEntity
  8
STEMPEL
100
AcDbCircle
 10
212.1273411526732
 20
337.5024584003829
 30
0.0
 40
6.0
100
AcDbArc
 50
195.8034962890195
 51
344.1965037109804
  0
HATCH
  5
8D3
330
1E
100
AcDbEntity
  8
SCHRAFF
100
AcDbHatch
 10
0.0
 20
0.0
 30
0.0
210
0.0
220
0.0
230
1.0
  2
_USER
 70
     0
 71
     0
 91
        4
 92
        7
 72
     0
 73
     1
 93
        4
 10
322.2289659488907
 20
345.5024584003832
 10
322.2289659488907
 20
347.002458400383
 10
273.1273411526732
 20
347.0024584003829
 10
273.1273411526731
 20
345.502458400383
 97
        0
 92
        7
 72
     0
 73
     1
 93
        4
 10
247.4273411526731
 20
347.0024584003829
 10
247.4273411526731
 20
345.502458400383
 10
273.1273411526732
 20
345.5024584003831
 10
273.1273411526732
 20
347.002458400383
 97
        0
 92
        7
 72
     0
 73
     1
 93
        4
 10
176.8273411526731
 20
345.5024584003827
 10
176.827341152673
 20
347.0024584003827
 10
90.12734115267306
 20
347.0024584003825
 10
90.12734115267306
 20
345.5024584003825
 97
        0
 92
        7
 72
     0
 73
     1
 93
        4
 10
90.12734115267312
 20
345.5024584003825
 10
90.12734115267312
 20
347.0024584003827
 10
77.12734115267313
 20
347.0024584003824
 10
77.12734115267313
 20
345.5024584003825
 97
        0
 75
     0
 76
     0
 52
135.0
 41
2.0
 77
     0
 78
     1
 53
135.0
 43
-12.87265884732682
 44
-167.9240542272569
 45
-1.414213562373095
 46
-1.414213562373094
 79
     0
 47
0.3414825388743071
 98
        4
 10
300.8270181631051
 20
346.0472800754641
 10
258.8103287018112
 20
346.3887629302812
 10
170.3361617862725
 20
346.0472800754641
 10
84.93638764043685
 20
345.7057972206471
  0
HATCH
  5
8D4
330
1E
100
AcDbEntity
  8
SCHRAFF
100
AcDbHatch
 10
0.0
 20
0.0
 30
0.0
210
0.0
220
0.0
230
1.0
  2
_USER
 70
     0
 71
     1
 91
        2
 92
        7
 72
     0
 73
     1
 93
        6
 10
247.4273411526731
 20
310.5024584003834
 10
246.9898978350435
 20
305.5024584003825
 10
248.1944816400954
 20
305.5024584003825
 10
248.627341152673
 20
310.4500652688928
 10
248.6273411526731
 20
345.5024584003829
 10
247.4273411526731
 20
345.5024584003829
 97
        6
330
8EB
330
8ED
330
8D5
330
8F0
330
8D6
330
8EE
 92
        7
 72
     0
 73
     1
 93
        6
 10
176.8273411526731
 20
345.5024584003827
 10
175.627341152673
 20
345.5024584003827
 10
175.627341152673
 20
310.4500652688921
 10
176.0602006652506
 20
305.5024584003825
 10
177.2647844703026
 20
305.5024584003825
 10
176.827341152673
 20
310.5024584003826
 97
        6
330
8EB
330
8EF
330
8D7
330
8F0
330
8D8
330
8EC
 75
     0
 76
     0
 52
45.0
 41
2.0
 77
     0
 78
     1
 53
45.0
 43
-12.87265884732682
 44
-167.9240542272569
 45
-1.414213562373094
 46
1.414213562373095
 79
     0
 47
0.2778527412201284
 98
        2
 10
248.0116038551506
 20
337.3735627287501
 10
176.5790751485734
 20
337.929268168091
  0
LINE
  5
8D5
102
{ACAD_REACTORS
330
8D4
102
}
330
1E
100
AcDbEntity
  8
STEMPEL
100
AcDbLine
 10
247.427341152673
 20
310.5024584003825
 30
0.0
 11
246.9898978350435
 21
305.5024584003825
 31
0.0
  0
LINE
  5
8D6
102
{ACAD_REACTORS
330
8D4
102
}
330
1E
100
AcDbEntity
  8
STEMPEL
100
AcDbLine
 10
248.627341152673
 20
310.450065268893
 30
0.0
 11
248.1944816400954
 21
305.5024584003825
 31
0.0
  0
LINE
  5
8D7
102
{ACAD_REACTORS
330
8D4
102
}
330
1E
100
AcDbEntity
  8
STEMPEL
100
AcDbLine
 10
175.627341152673
 20
310.450065268892
 30
0.0
 11
176.0602006652506
 21
305.5024584003825
 31
0.0
  0
LINE
  5
8D8
102
{ACAD_REACTORS
330
8D4
102
}
330
1E
100
AcDbEntity
  8
STEMPEL
100
AcDbLine
 10
176.827341152673
 20
310.5024584003825
 30
0.0
 11
177.2647844703027
 21
305.5024584003825
 31
0.0
  0
LINE
  5
8D9
330
1E
100
AcDbEntity
  8
HILF
100
AcDbLine
 10
246.222757347621
 20
310.5024584003825
 30
0.0
 11
178.031924957725
 21
310.5024584003825
 31
0.0
  0
LINE
  5
8DA
330
1E
100
AcDbEntity
  8
STEMPEL
100
AcDbLine
 10
278.1273411526732
 20
362.0024584003825
 30
0.0
 11
268.1273411526732
 21
362.0024584003825
 31
0.0
  0
LINE
  5
8DB
330
1E
100
AcDbEntity
  8
STEMPEL
100
AcDbLine
 10
268.1273411526732
 20
347.0024584003825
 30
0.0
 11
268.1273411526732
 21
362.0024584003825
 31
0.0
  0
LINE
  5
8DC
330
1E
100
AcDbEntity
  8
STEMPEL
100
AcDbLine
 10
278.1273411526732
 20
347.0024584003825
 30
0.0
 11
278.1273411526732
 21
362.0024584003825
 31
0.0
  0
LINE
  5
8DD
330
1E
100
AcDbEntity
  8
MITTEL
100
AcDbLine
 10
273.1273411526732
 20
340.5024584003828
 30
0.0
 11
273.1273411526732
 21
367.0024584003825
 31
0.0
  0
LINE
  5
8DF
330
1E
100
AcDbEntity
  8
MITTEL
100
AcDbLine
 10
90.12734115267312
 20
340.5024584003826
 30
0.0
 11
90.12734115267312
 21
367.0024584003824
 31
0.0
  0
LINE
  5
8E0
330
1E
100
AcDbEntity
  8
STEMPEL
100
AcDbLine
 10
92.12734115267313
 20
347.9414274025111
 30
0.0
 11
90.12734115267312
 21
347.4055290176488
 31
0.0
  0
LINE
  5
8E1
330
1E
100
AcDbEntity
  8
STEMPEL
100
AcDbLine
 10
88.12734115267312
 20
347.9414274025111
 30
0.0
 11
90.12734115267312
 21
347.4055290176488
 31
0.0
  0
LINE
  5
8E2
330
1E
100
AcDbEntity
  8
STEMPEL
100
AcDbLine
 10
92.12734115267313
 20
347.9414274025111
 30
0.0
 11
88.12734115267312
 21
347.9414274025111
 31
0.0
  0
LINE
  5
8E3
330
1E
100
AcDbEntity
  8
STEMPEL
100
AcDbLine
 10
88.12734115267312
 20
347.9414274025109
 30
0.0
 11
88.12734115267318
 21
351.0024584003827
 31
0.0
  0
LINE
  5
8E4
330
1E
100
AcDbEntity
  8
STEMPEL
100
AcDbLine
 10
92.12734115267313
 20
347.9414274025107
 30
0.0
 11
92.12734115267318
 21
351.0024584003827
 31
0.0
  0
LINE
  5
8E5
330
1E
100
AcDbEntity
  8
STEMPEL
100
AcDbLine
 10
93.12734115267312
 20
349.2126105647728
 30
0.0
 11
87.12734115267313
 21
349.212610564773
 31
0.0
  0
LINE
  5
8E6
330
1E
100
AcDbEntity
  8
HILF
100
AcDbLine
 10
93.12734115267312
 20
349.212610564773
 30
0.0
 11
93.12734115267307
 21
351.6159584003826
 31
0.0
  0
LINE
  5
8E7
330
1E
100
AcDbEntity
  8
HILF
100
AcDbLine
 10
87.12734115267313
 20
349.212610564773
 30
0.0
 11
87.12734115267307
 21
351.6159584003826
 31
0.0
  0
LINE
  5
8E8
330
1E
100
AcDbEntity
  8
STEMPEL
100
AcDbLine
 10
95.12734115267312
 20
347.0024584003824
 30
0.0
 11
95.12734115267312
 21
362.0024584003824
 31
0.0
  0
LINE
  5
8E9
330
1E
100
AcDbEntity
  8
STEMPEL
100
AcDbLine
 10
85.12734115267312
 20
347.0024584003824
 30
0.0
 11
85.12734115267312
 21
362.0024584003824
 31
0.0
  0
LINE
  5
8EA
330
1E
100
AcDbEntity
  8
STEMPEL
100
AcDbLine
 10
95.12734115267312
 20
362.0024584003824
 30
0.0
 11
93.12734115267312
 21
362.0024584003823
 31
0.0
  0
LINE
  5
8EB
102
{ACAD_REACTORS
330
8D4
102
}
330
1E
100
AcDbEntity
  8
STEMPEL
100
AcDbLine
 10
322.1289659488907
 20
345.5024584003832
 30
0.0
 11
77.12734115267313
 21
345.5024584003824
 31
0.0
  0
LINE
  5
8EC
102
{ACAD_REACTORS
330
8D4
102
}
330
1E
100
AcDbEntity
  8
STEMPEL
100
AcDbLine
 10
176.8273411526731
 20
347.0024584003824
 30
0.0
 11
176.827341152673
 21
310.5024584003825
 31
0.0
  0
LINE
  5
8ED
102
{ACAD_REACTORS
330
8D4
102
}
330
1E
100
AcDbEntity
  8
STEMPEL
100
AcDbLine
 10
247.4273411526731
 20
347.0024584003824
 30
0.0
 11
247.4273411526731
 21
310.5024584003825
 31
0.0
  0
LINE
  5
8EE
102
{ACAD_REACTORS
330
8D4
102
}
330
1E
100
AcDbEntity
  8
STEMPEL
100
AcDbLine
 10
248.6273411526732
 20
345.5024584003826
 30
0.0
 11
248.627341152673
 21
310.450065268893
 31
0.0
  0
LINE
  5
8EF
102
{ACAD_REACTORS
330
8D4
102
}
330
1E
100
AcDbEntity
  8
STEMPEL
100
AcDbLine
 10
175.627341152673
 20
345.5024584003825
 30
0.0
 11
175.627341152673
 21
310.450065268892
 31
0.0
  0
LINE
  5
8F0
102
{ACAD_REACTORS
330
8D4
102
}
330
1E
100
AcDbEntity
  8
STEMPEL
100
AcDbLine
 10
248.1944816400954
 20
305.5024584003825
 30
0.0
 11
176.0602006652506
 21
305.5024584003825
 31
0.0
  0
LINE
  5
8F1
330
1E
100
AcDbEntity
  8
STEMPEL
100
AcDbLine
 10
322.1289659488907
 20
347.002458400383
 30
0.0
 11
322.1289659488907
 21
345.5024584003827
 31
0.0
  0
LINE
  5
8F2
330
1E
100
AcDbEntity
  8
STEMPEL
100
AcDbLine
 10
77.12734115267318
 20
347.0024584003825
 30
0.0
 11
77.12734115267313
 21
345.5024584003823
 31
0.0
  0
LINE
  5
8F3
330
1E
100
AcDbEntity
  8
STEMPEL
100
AcDbLine
 10
322.1289659488907
 20
347.002458400383
 30
0.0
 11
77.12734115267318
 21
347.0024584003825
 31
0.0
  0
LINE
  5
8F4
330
1E
100
AcDbEntity
  8
MITTEL
100
AcDbLine
 10
212.1273411526734
 20
457.0024584003802
 30
0.0
 11
212.1273411526731
 21
300.5024584003824
 31
0.0
  0
ARC
  5
9E6
330
1E
100
AcDbEntity
  8
STEMPEL
100
AcDbCircle
 10
102.6161975483617
 20
441.5222953828441
 30
0.0
 40
5.0
100
AcDbArc
 50
300.0670458384842
 51
300.2564371635285
  0
ARC
  5
9E7
330
1E
100
AcDbEntity
  8
STEMPEL
100
AcDbCircle
 10
108.1273411526735
 20
432.0024004330663
 30
0.0
 40
6.000000000000454
100
AcDbArc
 50
120.2564164748169
 51
179.9999999999965
  0
ARC
  5
9E8
330
1E
100
AcDbEntity
  8
STEMPEL
100
AcDbCircle
 10
108.1273411526737
 20
432.0024004330666
 30
0.0
 40
5.000000000000511
100
AcDbArc
 50
120.2564164748186
 51
179.9999999999965
  0
LINE
  5
9E9
330
1E
100
AcDbEntity
  8
STEMPEL
100
AcDbLine
 10
102.1273411526735
 20
427.0024584003821
 30
0.0
 11
103.1273411526734
 21
427.0024584003821
 31
0.0
  0
LINE
  5
9EA
330
1E
100
AcDbEntity
  8
STEMPEL
100
AcDbLine
 10
102.1273411526733
 20
387.0024584003822
 30
0.0
 11
103.1273411526733
 21
387.0024584003822
 31
0.0
  0
LINE
  5
9EB
330
1E
100
AcDbEntity
  8
STEMPEL
100
AcDbLine
 10
82.12734115267323
 20
363.0024584003827
 30
0.0
 11
82.12734115267313
 21
362.0024584003825
 31
0.0
  0
LINE
  5
9EC
330
1E
100
AcDbEntity
  8
STEMPEL
100
AcDbLine
 10
86.12734115267313
 20
363.0024584003824
 30
0.0
 11
86.12734115267313
 21
362.0024584003825
 31
0.0
  0
LINE
  5
9EE
330
1E
100
AcDbEntity
  8
STEMPEL
100
AcDbLine
 10
94.12734115267312
 20
363.0024584003828
 30
0.0
 11
94.12734115267312
 21
362.0024584003824
 31
0.0
  0
LWPOLYLINE
  5
9EF
330
1E
100
AcDbEntity
  8
STEMPEL
100
AcDbPolyline
 90
        7
 70
   128
 43
0.0
 10
103.8190854785894
 20
380.9645124562203
 10
103.9569144881596
 20
380.2124062192818
 10
104.0757787651258
 20
379.289692608567
 10
104.172126767027
 20
378.2239413586628
 10
104.2430797145651
 20
377.0469960218417
 10
104.2865176065731
 20
375.7940225154399
 10
104.3011425634707
 20
374.5024584003805
  0
LWPOLYLINE
  5
9F0
330
1E
100
AcDbEntity
  8
STEMPEL
100
AcDbPolyline
 90
        7
 70
   128
 43
0.0
 10
-101.6806833798
 20
363.0024584003828
 10
-102.3573852548774
 20
363.6120591282419
 10
-102.9569346785114
 20
364.3396182121535
 10
-103.463223351661
 20
365.1655880738337
 10
-103.8626486437066
 20
366.0677770990368
 10
-104.1444790589695
 20
367.0219458672305
 10
-104.301142563471
 20
368.0024584003828
210
0.0
220
0.0
230
-1.0
  0
LWPOLYLINE
  5
9F1
330
1E
100
AcDbEntity
  8
STEMPEL
100
AcDbPolyline
 90
       10
 70
   128
 43
0.0
 10
-103.9776510138681
 20
362.0024584003823
 10
-104.8138302887097
 20
362.0936118823091
 10
-105.6246026794123
 20
362.3643026756669
 10
-106.3853332771551
 20
362.8063059776758
 10
-107.0729076676739
 20
363.4061917416686
 10
-107.6664342510423
 20
364.1457327422633
 10
-108.1478790223635
 20
365.0024584003826
 10
-108.5026135258839
 20
365.9503375404286
 10
-108.7198593332181
 20
366.9605693343811
 10
-108.793015540442
 20
368.0024584003828
210
0.0
220
0.0
230
-1.0
  0
LINE
  5
9F2
330
1E
100
AcDbEntity
  8
STEMPEL
100
AcDbLine
 10
103.3370283937082
 20
374.5024584003805
 30
0.0
 11
103.3370283937082
 21
368.0024584003828
 31
0.0
  0
LINE
  5
9F3
330
1E
100
AcDbEntity
  8
STEMPEL
100
AcDbLine
 10
108.793015540442
 20
374.5024584003805
 30
0.0
 11
108.793015540442
 21
368.0024584003839
 31
0.0
  0
LINE
  5
9F4
330
1E
100
AcDbEntity
  8
STEMPEL
100
AcDbLine
 10
105.2949212770087
 20
374.5024584003805
 30
0.0
 11
105.2949212770087
 21
368.0024584003817
 31
0.0
  0
LINE
  5
9F5
330
1E
100
AcDbEntity
  8
STEMPEL
100
AcDbLine
 10
104.3011425634708
 20
374.5024584003805
 30
0.0
 11
104.3011425634708
 21
368.0024584003828
 31
0.0
  0
LINE
  5
9F6
330
1E
100
AcDbEntity
  8
STEMPEL
100
AcDbLine
 10
100.7165692100376
 20
363.0024584003824
 30
0.0
 11
101.6806833798002
 21
363.0024584003824
 31
0.0
  0
ARC
  5
9F7
330
1E
100
AcDbEntity
  8
STEMPEL
100
AcDbCircle
 10
97.12734115267302
 20
368.0024584003829
 30
0.0
 40
5.0
100
AcDbArc
 50
269.9999999999998
 51
359.9999999999997
  0
LWPOLYLINE
  5
9F8
330
1E
100
AcDbEntity
  8
STEMPEL
100
AcDbPolyline
 90
       10
 70
   128
 43
0.0
 10
-97.83103966267743
 20
362.0024584003835
 10
-98.6891126589502
 20
362.0685856149562
 10
-99.54192485857243
 20
362.3211393646864
 10
-100.3626831654894
 20
362.752185081004
 10
-101.1256015318885
 20
363.3481804514439
 10
-101.8067110873876
 20
364.0904008831645
 10
-102.3846131773333
 20
364.955527779962
 10
-102.8411516517395
 20
365.916381150678
 10
-103.1619832833371
 20
366.9427735323901
 10
-103.3370283937082
 20
368.0024584003828
210
0.0
220
0.0
230
-1.0
  0
ARC
  5
9F9
330
1E
100
AcDbEntity
  8
STEMPEL
100
AcDbCircle
 10
97.12734115267302
 20
368.0024584003829
 30
0.0
 40
6.0
100
AcDbArc
 50
269.9999999999998
 51
359.9999999999997
  0
LWPOLYLINE
  5
9FA
330
1E
100
AcDbEntity
  8
STEMPEL
100
AcDbPolyline
 90
       10
 70
   128
 43
0.0
 10
-99.78893254597791
 20
362.0024584003824
 10
-100.6470055422507
 20
362.0685856149551
 10
-101.4998177418729
 20
362.3211393646853
 10
-102.3205760487899
 20
362.7521850810028
 10
-103.0834944151889
 20
363.3481804514427
 10
-103.7646039706881
 20
364.0904008831634
 10
-104.3425060606338
 20
364.9555277799608
 10
-104.79904453504
 20
365.9163811506768
 10
-105.1198761666376
 20
366.942773532389
 10
-105.2949212770087
 20
368.0024584003817
210
0.0
220
0.0
230
-1.0
  0
LINE
  5
9FB
330
1E
100
AcDbEntity
  8
STEMPEL
100
AcDbLine
 10
82.12734115267336
 20
363.0024584003824
 30
0.0
 11
97.12734115267323
 21
363.0024584003828
 31
0.0
  0
LWPOLYLINE
  5
9FC
330
1E
100
AcDbEntity
  8
STEMPEL
100
AcDbPolyline
 90
       18
 70
   128
 43
0.0
 10
103.3370283937082
 20
374.5024584003805
 10
103.3536968171851
 20
375.8805797840051
 10
103.4031344644454
 20
377.2117708967848
 10
103.4836577957058
 20
378.4506996219615
 10
103.5925246854975
 20
379.5551757277308
 10
103.7260278024598
 20
380.4875876049836
 10
103.8796208580639
 20
381.2161830855449
 10
104.048073425016
 20
381.7161507241782
 10
104.2256490531849
 20
381.9704647225949
 10
104.406300617532
 20
381.9704647225949
 10
104.5838762457009
 20
381.7161507241782
 10
104.752328812653
 20
381.2161830855449
 10
104.9059218682571
 20
380.4875876049836
 10
105.0394249852194
 20
379.5551757277308
 10
105.148291875011
 20
378.4506996219615
 10
105.2288152062715
 20
377.2117708967848
 10
105.2782528535318
 20
375.8805797840051
 10
105.2949212770087
 20
374.5024584003805
  0
LINE
  5
9FD
330
1E
100
AcDbEntity
  8
STEMPEL
100
AcDbLine
 10
103.1273411526732
 20
432.0024004330668
 30
0.0
 11
103.127341152673
 21
368.0024584003828
 31
0.0
  0
LINE
  5
9FE
330
1E
100
AcDbEntity
  8
STEMPEL
100
AcDbLine
 10
102.1273411526731
 20
432.0024004330668
 30
0.0
 11
102.1273411526729
 21
368.0024584003829
 31
0.0
  0
ARC
  5
9FF
330
1E
100
AcDbEntity
  8
STEMPEL
100
AcDbCircle
 10
132.1273411526732
 20
446.0024584003819
 30
0.0
 40
6.0
100
AcDbArc
 50
89.99999999999975
 51
89.99999999999975
  0
ARC
  5
A00
330
1E
100
AcDbEntity
  8
STEMPEL
100
AcDbCircle
 10
132.1273411526734
 20
446.0024584003826
 30
0.0
 40
5.999999999999263
100
AcDbArc
 50
89.99999999999975
 51
120.5128743276264
  0
ARC
  5
A01
330
1E
100
AcDbEntity
  8
STEMPEL
100
AcDbCircle
 10
132.1273411526754
 20
446.0024584003773
 30
0.0
 40
5.000000000004884
100
AcDbArc
 50
90.00000000002581
 51
120.5373500482915
  0
ARC
  5
A02
330
1E
100
AcDbEntity
  8
STEMPEL
100
AcDbCircle
 10
189.4859027689706
 20
452.0024584003815
 30
0.0
 40
1.5
100
AcDbArc
 50
30.00000000000592
 51
89.99999999999975
  0
ARC
  5
A03
330
1E
100
AcDbEntity
  8
STEMPEL
100
AcDbCircle
 10
189.4859027689706
 20
452.0024584003815
 30
0.0
 40
0.5
100
AcDbArc
 50
30.00000000000592
 51
89.99999999999975
  0
LINE
  5
A04
330
1E
100
AcDbEntity
  8
STEMPEL
100
AcDbLine
 10
189.4859027689706
 20
452.5024584003815
 30
0.0
 11
189.2859027689706
 21
452.5024584003815
 31
0.0
  0
ARC
  5
A05
330
1E
100
AcDbEntity
  8
STEMPEL
100
AcDbCircle
 10
189.2859027689706
 20
452.0024584003815
 30
0.0
 40
0.5
100
AcDbArc
 50
89.99999999999975
 51
150.0000000000081
  0
ARC
  5
A06
330
1E
100
AcDbEntity
  8
STEMPEL
100
AcDbCircle
 10
189.2859027689706
 20
452.0024584003815
 30
0.0
 40
1.5
100
AcDbArc
 50
89.99999999999975
 51
150.0000000000081
  0
ARC
  5
A07
330
1E
100
AcDbEntity
  8
STEMPEL
100
AcDbCircle
 10
186.6878265576166
 20
453.5024584003815
 30
0.0
 40
1.5
100
AcDbArc
 50
269.9999999999998
 51
330.0000000000081
  0
ARC
  5
A08
330
1E
100
AcDbEntity
  8
STEMPEL
100
AcDbCircle
 10
186.6878265576166
 20
453.5024584003815
 30
0.0
 40
2.5
100
AcDbArc
 50
269.9999999999998
 51
330.0000000000081
  0
LINE
  5
A09
330
1E
100
AcDbEntity
  8
STEMPEL
100
AcDbLine
 10
198.5378265576171
 20
452.0024584003817
 30
0.0
 11
192.0839789803231
 21
452.0024584003817
 31
0.0
  0
LINE
  5
A0A
330
1E
100
AcDbEntity
  8
STEMPEL
100
AcDbLine
 10
198.5378265576171
 20
452.0024584003815
 30
0.0
 11
192.0839789803231
 21
452.0024584003815
 31
0.0
  0
ARC
  5
A0B
330
1E
100
AcDbEntity
  8
STEMPEL
100
AcDbCircle
 10
201.1359027689705
 20
452.0024584003815
 30
0.0
 40
1.5
100
AcDbArc
 50
89.99999999999975
 51
150.000000000002
  0
ARC
  5
A0C
330
1E
100
AcDbEntity
  8
STEMPEL
100
AcDbCircle
 10
201.3359027689706
 20
452.0024584003815
 30
0.0
 40
1.5
100
AcDbArc
 50
14.47751218592604
 51
89.99999999999975
  0
ARC
  5
A0D
330
1E
100
AcDbEntity
  8
STEMPEL
100
AcDbCircle
 10
203.2723944420746
 20
452.5024584003815
 30
0.0
 40
0.5
100
AcDbArc
 50
194.477512185926
 51
269.9999999999998
  0
LINE
  5
A0E
330
1E
100
AcDbEntity
  8
STEMPEL
100
AcDbLine
 10
203.4611436346739
 20
452.0024584003815
 30
0.0
 11
203.2723944420746
 21
452.0024584003815
 31
0.0
  0
ARC
  5
A0F
330
1E
100
AcDbEntity
  8
STEMPEL
100
AcDbCircle
 10
201.3359027689706
 20
452.0024584003815
 30
0.0
 40
0.5
100
AcDbArc
 50
14.47751218592604
 51
89.99999999999975
  0
LINE
  5
A10
330
1E
100
AcDbEntity
  8
STEMPEL
100
AcDbLine
 10
201.3359027689706
 20
452.5024584003817
 30
0.0
 11
201.1359027689705
 21
452.5024584003817
 31
0.0
  0
ARC
  5
A11
330
1E
100
AcDbEntity
  8
STEMPEL
100
AcDbCircle
 10
201.1359027689705
 20
452.0024584003815
 30
0.0
 40
0.5
100
AcDbArc
 50
89.99999999999975
 51
150.000000000002
  0
ARC
  5
A12
330
1E
100
AcDbEntity
  8
STEMPEL
100
AcDbCircle
 10
205.3976353077772
 20
452.0024584003815
 30
0.0
 40
0.5
100
AcDbArc
 50
89.99999999999975
 51
165.5224878140703
  0
ARC
  5
A13
330
1E
100
AcDbEntity
  8
STEMPEL
100
AcDbCircle
 10
205.3976353077772
 20
452.0024584003815
 30
0.0
 40
1.5
100
AcDbArc
 50
89.99999999999975
 51
165.5224878140703
  0
ARC
  5
A14
330
1E
100
AcDbEntity
  8
STEMPEL
100
AcDbCircle
 10
203.4611436346739
 20
452.5024584003815
 30
0.0
 40
0.5
100
AcDbArc
 50
269.9999999999998
 51
345.5224878140703
  0
ARC
  5
A15
330
1E
100
AcDbEntity
  8
STEMPEL
100
AcDbCircle
 10
198.5378265576171
 20
453.5024584003815
 30
0.0
 40
1.5
100
AcDbArc
 50
269.9999999999998
 51
330.000000000002
  0
ARC
  5
A16
330
1E
100
AcDbEntity
  8
STEMPEL
100
AcDbCircle
 10
203.4611436346739
 20
452.5024584003815
 30
0.0
 40
1.5
100
AcDbArc
 50
269.9999999999998
 51
345.5224878140703
  0
ARC
  5
A17
330
1E
100
AcDbEntity
  8
STEMPEL
100
AcDbCircle
 10
203.2723944420746
 20
452.5024584003815
 30
0.0
 40
1.5
100
AcDbArc
 50
194.477512185926
 51
269.9999999999998
  0
ARC
  5
A18
330
1E
100
AcDbEntity
  8
STEMPEL
100
AcDbCircle
 10
198.5378265576171
 20
453.5024584003815
 30
0.0
 40
2.5
100
AcDbArc
 50
269.9999999999998
 51
330.000000000002
  0
ARC
  5
A19
330
1E
100
AcDbEntity
  8
STEMPEL
100
AcDbCircle
 10
192.0839789803231
 20
453.5024584003815
 30
0.0
 40
1.5
100
AcDbArc
 50
210.0000000000059
 51
269.9999999999998
  0
ARC
  5
A1A
330
1E
100
AcDbEntity
  8
STEMPEL
100
AcDbCircle
 10
192.0839789803231
 20
453.5024584003815
 30
0.0
 40
2.5
100
AcDbArc
 50
210.0000000000059
 51
269.9999999999998
  0
ARC
  5
A1B
330
1E
100
AcDbEntity
  8
STEMPEL
100
AcDbCircle
 10
215.4859027689707
 20
452.0024584003815
 30
0.0
 40
0.5
100
AcDbArc
 50
30.00000000000313
 51
89.99999999999975
  0
ARC
  5
A1C
330
1E
100
AcDbEntity
  8
STEMPEL
100
AcDbCircle
 10
218.0839789803234
 20
453.5024584003815
 30
0.0
 40
1.5
100
AcDbArc
 50
210.0000000000031
 51
269.9999999999998
  0
ARC
  5
A1D
330
1E
100
AcDbEntity
  8
STEMPEL
100
AcDbCircle
 10
215.4859027689707
 20
452.0024584003815
 30
0.0
 40
1.5
100
AcDbArc
 50
30.00000000000313
 51
89.99999999999975
  0
ARC
  5
A1E
330
1E
100
AcDbEntity
  8
STEMPEL
100
AcDbCircle
 10
218.0839789803234
 20
453.5024584003815
 30
0.0
 40
2.5
100
AcDbArc
 50
210.0000000000031
 51
269.9999999999998
  0
ARC
  5
A1F
330
1E
100
AcDbEntity
  8
STEMPEL
100
AcDbCircle
 10
224.5378265576176
 20
453.5024584003815
 30
0.0
 40
1.5
100
AcDbArc
 50
269.9999999999998
 51
329.9999999999992
  0
ARC
  5
A20
330
1E
100
AcDbEntity
  8
STEMPEL
100
AcDbCircle
 10
227.3359027689706
 20
452.0024584003815
 30
0.0
 40
0.5
100
AcDbArc
 50
29.99999999999748
 51
89.99999999999975
  0
LINE
  5
A21
330
1E
100
AcDbEntity
  8
STEMPEL
100
AcDbLine
 10
227.3359027689706
 20
452.5024584003815
 30
0.0
 11
227.1359027689705
 21
452.5024584003815
 31
0.0
  0
ARC
  5
A22
330
1E
100
AcDbEntity
  8
STEMPEL
100
AcDbCircle
 10
227.1359027689705
 20
452.0024584003815
 30
0.0
 40
0.5
100
AcDbArc
 50
89.99999999999975
 51
149.9999999999963
  0
ARC
  5
A23
330
1E
100
AcDbEntity
  8
STEMPEL
100
AcDbCircle
 10
227.1359027689705
 20
452.0024584003815
 30
0.0
 40
1.5
100
AcDbArc
 50
89.99999999999975
 51
149.9999999999963
  0
ARC
  5
A24
330
1E
100
AcDbEntity
  8
STEMPEL
100
AcDbCircle
 10
229.9339789803244
 20
453.5024584003815
 30
0.0
 40
1.5
100
AcDbArc
 50
209.9999999999975
 51
269.9999999999998
  0
LINE
  5
A25
330
1E
100
AcDbEntity
  8
STEMPEL
100
AcDbLine
 10
231.9928265576166
 20
452.0024584003815
 30
0.0
 11
229.9339789803244
 21
452.0024584003815
 31
0.0
  0
LINE
  5
A26
330
1E
100
AcDbEntity
  8
STEMPEL
100
AcDbLine
 10
231.9928265576166
 20
452.0024584003815
 30
0.0
 11
229.9339789803244
 21
452.0024584003815
 31
0.0
  0
ARC
  5
A27
330
1E
100
AcDbEntity
  8
STEMPEL
100
AcDbCircle
 10
227.3359027689706
 20
452.0024584003815
 30
0.0
 40
1.5
100
AcDbArc
 50
29.99999999999748
 51
89.99999999999975
  0
ARC
  5
A28
330
1E
100
AcDbEntity
  8
STEMPEL
100
AcDbCircle
 10
234.7909027689705
 20
452.0024584003815
 30
0.0
 40
0.5
100
AcDbArc
 50
30.0000000000003
 51
89.99999999999975
  0
LINE
  5
A29
330
1E
100
AcDbEntity
  8
STEMPEL
100
AcDbLine
 10
234.7909027689705
 20
452.5024584003815
 30
0.0
 11
234.5909027689704
 21
452.5024584003815
 31
0.0
  0
ARC
  5
A2A
330
1E
100
AcDbEntity
  8
STEMPEL
100
AcDbCircle
 10
234.5909027689704
 20
452.0024584003815
 30
0.0
 40
0.5
100
AcDbArc
 50
89.99999999999975
 51
149.9999999999992
  0
ARC
  5
A2B
330
1E
100
AcDbEntity
  8
STEMPEL
100
AcDbCircle
 10
234.5909027689704
 20
452.0024584003815
 30
0.0
 40
1.5
100
AcDbArc
 50
89.99999999999975
 51
150.0000000000081
  0
ARC
  5
A2C
330
1E
100
AcDbEntity
  8
STEMPEL
100
AcDbCircle
 10
234.7909027689705
 20
452.0024584003815
 30
0.0
 40
1.5
100
AcDbArc
 50
29.99999999999748
 51
89.99999999999975
  0
ARC
  5
A2D
330
1E
100
AcDbEntity
  8
STEMPEL
100
AcDbCircle
 10
237.3889789803241
 20
453.5024584003813
 30
0.0
 40
1.5
100
AcDbArc
 50
209.9999999999975
 51
269.9999999999998
  0
ARC
  5
A2E
330
1E
100
AcDbEntity
  8
STEMPEL
100
AcDbCircle
 10
231.9928265576166
 20
453.5024584003815
 30
0.0
 40
1.5
100
AcDbArc
 50
269.9999999999998
 51
330.000000000002
  0
ARC
  5
A2F
330
1E
100
AcDbEntity
  8
STEMPEL
100
AcDbCircle
 10
237.3889789803241
 20
453.5024584003813
 30
0.0
 40
2.5
100
AcDbArc
 50
210.0000000000003
 51
269.9999999999998
  0
ARC
  5
A30
330
1E
100
AcDbEntity
  8
STEMPEL
100
AcDbCircle
 10
231.9928265576166
 20
453.5024584003815
 30
0.0
 40
2.5
100
AcDbArc
 50
269.9999999999998
 51
330.0000000000081
  0
ARC
  5
A31
330
1E
100
AcDbEntity
  8
STEMPEL
100
AcDbCircle
 10
229.9339789803244
 20
453.5024584003815
 30
0.0
 40
2.5
100
AcDbArc
 50
209.9999999999975
 51
269.9999999999998
  0
ARC
  5
A32
330
1E
100
AcDbEntity
  8
STEMPEL
100
AcDbCircle
 10
224.5378265576176
 20
453.5024584003815
 30
0.0
 40
2.5
100
AcDbArc
 50
269.9999999999998
 51
329.9999999999992
  0
LINE
  5
A33
330
1E
100
AcDbEntity
  8
STEMPEL
100
AcDbLine
 10
224.5378265576176
 20
452.0024584003815
 30
0.0
 11
218.0839789803234
 21
452.0024584003815
 31
0.0
  0
LINE
  5
A34
330
1E
100
AcDbEntity
  8
STEMPEL
100
AcDbLine
 10
224.5378265576176
 20
452.0024584003815
 30
0.0
 11
218.0839789803234
 21
452.0024584003815
 31
0.0
  0
LINE
  5
A35
330
1E
100
AcDbEntity
  8
STEMPEL
100
AcDbLine
 10
215.4859027689707
 20
452.5024584003815
 30
0.0
 11
205.3976353077772
 21
452.5024584003817
 31
0.0
  0
LINE
  5
A36
330
1E
100
AcDbEntity
  8
STEMPEL
100
AcDbLine
 10
234.7909027689705
 20
453.5024584003815
 30
0.0
 11
189.2859027689706
 21
453.5024584003815
 31
0.0
  0
LINE
  5
A37
330
1E
100
AcDbEntity
  8
STEMPEL
100
AcDbLine
 10
186.6878265576166
 20
452.0024584003817
 30
0.0
 11
132.1273411526732
 21
452.0024584003821
 31
0.0
  0
ELLIPSE
  5
A38
330
1E
100
AcDbEntity
  8
STEMPEL
100
AcDbEllipse
 10
117.0862316263213
 20
419.5024584003824
 30
0.0
 11
0.0000000000000334
 21
7.499999999999999
 31
0.0
210
0.0
220
0.0
230
1.0
 40
0.4999999999999926
 41
4.712388980384689
 42
6.167183451052224
  0
ELLIPSE
  5
A39
330
1E
100
AcDbEntity
  8
STEMPEL
100
AcDbEllipse
 10
117.95429564601
 20
419.5024584003824
 30
0.0
 11
0.0000000000000334
 21
7.499999999999999
 31
0.0
210
0.0
220
0.0
230
1.0
 40
0.4999999999999926
 41
4.712388980384689
 42
7.853981633974482
  0
ELLIPSE
  5
A3A
330
1E
100
AcDbEntity
  8
STEMPEL
100
AcDbEllipse
 10
117.0862316263213
 20
394.502458400384
 30
0.0
 11
-0.0000000000000334
 21
-7.499999999999999
 31
0.0
210
0.0
220
0.0
230
-1.0
 40
0.4999999999999926
 41
4.712388980384689
 42
6.167183451052224
  0
ELLIPSE
  5
A3B
330
1E
100
AcDbEntity
  8
STEMPEL
100
AcDbEllipse
 10
117.95429564601
 20
394.502458400384
 30
0.0
 11
-0.0000000000000334
 21
-7.499999999999999
 31
0.0
210
0.0
220
0.0
230
-1.0
 40
0.4999999999999926
 41
4.712388980384689
 42
7.853981633974482
  0
LINE
  5
A3C
330
1E
100
AcDbEntity
  8
STEMPEL
100
AcDbLine
 10
114.2042956460103
 20
419.5024584003824
 30
0.0
 11
114.20429564601
 21
394.5024584003857
 31
0.0
  0
LINE
  5
A3D
330
1E
100
AcDbEntity
  8
STEMPEL
100
AcDbLine
 10
121.70429564601
 20
419.5024584003824
 30
0.0
 11
121.70429564601
 21
394.502458400384
 31
0.0
  0
LINE
  5
A3E
330
1E
100
AcDbEntity
  8
STEMPEL
100
AcDbLine
 10
120.8362316263211
 20
394.5024584003825
 30
0.0
 11
120.8362316263211
 21
419.502458400384
 31
0.0
  0
LWPOLYLINE
  5
A3F
330
1E
100
AcDbEntity
  8
STEMPEL
100
AcDbPolyline
 90
        7
 70
   128
 43
0.0
 10
-111.4536410567439
 20
363.0024584003824
 10
-112.0737315798082
 20
363.6117963022232
 10
-112.6055517265917
 20
364.3392265755124
 10
-113.0347975263229
 20
365.1651840694561
 10
-113.3499238741202
 20
366.0674536199184
 10
-113.5424550510861
 20
367.0217675541616
 10
-113.6072126894124
 20
368.0024584003828
210
0.0
220
0.0
230
-1.0
  0
LWPOLYLINE
  5
A40
330
1E
100
AcDbEntity
  8
STEMPEL
100
AcDbPolyline
 90
       10
 70
   128
 43
0.0
 10
-109.7179024993458
 20
362.0024584003823
 10
-110.5540817741874
 20
362.0936118823091
 10
-111.36485416489
 20
362.3643026756669
 10
-112.1255847626329
 20
362.8063059776758
 10
-112.8131591531516
 20
363.4061917416686
 10
-113.4066857365201
 20
364.1457327422633
 10
-113.8881305078412
 20
365.0024584003826
 10
-114.2428650113616
 20
365.9503375404286
 10
-114.4601108186958
 20
366.9605693343811
 10
-114.5332670259197
 20
368.0024584003828
210
0.0
220
0.0
230
-1.0
  0
LINE
  5
A41
330
1E
100
AcDbEntity
  8
STEMPEL
100
AcDbLine
 10
113.6072126894125
 20
374.5024584003805
 30
0.0
 11
113.6072126894125
 21
368.0024584003839
 31
0.0
  0
LINE
  5
A42
330
1E
100
AcDbEntity
  8
STEMPEL
100
AcDbLine
 10
114.5332670259197
 20
374.5024584003805
 30
0.0
 11
114.5332670259197
 21
368.0024584003839
 31
0.0
  0
LINE
  5
A43
330
1E
100
AcDbEntity
  8
STEMPEL
100
AcDbLine
 10
121.2910662096015
 20
374.5024584003805
 30
0.0
 11
121.2910662096015
 21
368.0024584003839
 31
0.0
  0
LWPOLYLINE
  5
A44
330
1E
100
AcDbEntity
  8
STEMPEL
100
AcDbPolyline
 90
       10
 70
   128
 43
0.0
 10
-116.9273600349957
 20
362.0024584003823
 10
-117.6851096600899
 20
362.0936118823091
 10
-118.4198354462653
 20
362.3643026756669
 10
-119.1092131222986
 20
362.8063059776757
 10
-119.7322962963449
 20
363.4061917416685
 10
-120.2701529014564
 20
364.1457327422632
 10
-120.7064404368553
 20
365.0024584003825
 10
-121.0279025265507
 20
365.9503375404286
 10
-121.2247717076146
 20
366.9605693343811
 10
-121.2910662096015
 20
368.0024584003827
210
0.0
220
0.0
230
-1.0
  0
LWPOLYLINE
  5
A45
330
1E
100
AcDbEntity
  8
STEMPEL
100
AcDbPolyline
 90
        7
 70
   128
 43
0.0
 10
-127.6756899293944
 20
363.0024584003823
 10
-128.2376189026584
 20
363.6117963022231
 10
-128.7195568422456
 20
364.3392265755124
 10
-129.1085414219954
 20
365.165184069456
 10
-129.3941104131018
 20
366.0674536199183
 10
-129.5685830788978
 20
367.0217675541616
 10
-129.6272667579128
 20
368.0024584003827
210
0.0
220
0.0
230
-1.0
  0
LWPOLYLINE
  5
A46
330
1E
100
AcDbEntity
  8
STEMPEL
100
AcDbPolyline
 90
       10
 70
   128
 43
0.0
 10
-126.0587814701276
 20
362.0024584003823
 10
-126.8165310952218
 20
362.0936118823091
 10
-127.5512568813972
 20
362.3643026756669
 10
-128.2406345574305
 20
362.8063059776757
 10
-128.8637177314768
 20
363.4061917416685
 10
-129.4015743365883
 20
364.1457327422632
 10
-129.8378618719872
 20
365.0024584003825
 10
-130.1593239616825
 20
365.9503375404285
 10
-130.3561931427464
 20
366.9605693343811
 10
-130.4224876447334
 20
368.0024584003827
210
0.0
220
0.0
230
-1.0
  0
LINE
  5
A47
330
1E
100
AcDbEntity
  8
STEMPEL
100
AcDbLine
 10
129.6272667579126
 20
374.5024584003804
 30
0.0
 11
129.6272667579126
 21
368.0024584003839
 31
0.0
  0
LINE
  5
A48
330
1E
100
AcDbEntity
  8
STEMPEL
100
AcDbLine
 10
130.4224876447334
 20
374.5024584003804
 30
0.0
 11
130.4224876447334
 21
368.0024584003839
 31
0.0
  0
LWPOLYLINE
  5
A49
330
1E
100
AcDbEntity
  8
STEMPEL
100
AcDbPolyline
 90
       10
 70
   128
 43
0.0
 10
-136.3168557665611
 20
362.0024584003822
 10
-136.952860126562
 20
362.093611882309
 10
-137.569539815918
 20
362.3643026756668
 10
-138.1481573343231
 20
362.8063059776757
 10
-138.6711316812751
 20
363.4061917416685
 10
-139.1225725458794
 20
364.1457327422632
 10
-139.4887631259055
 20
365.0024584003825
 10
-139.7585769058804
 20
365.9503375404285
 10
-139.923815730632
 20
366.9605693343811
 10
-139.9794589020851
 20
368.0024584003827
210
0.0
220
0.0
230
-1.0
  0
LINE
  5
A4A
330
1E
100
AcDbEntity
  8
STEMPEL
100
AcDbLine
 10
139.9794589020851
 20
374.5024584003804
 30
0.0
 11
139.9794589020851
 21
368.0024584003839
 31
0.0
  0
LINE
  5
A4B
330
1E
100
AcDbEntity
  8
STEMPEL
100
AcDbLine
 10
119.339489381083
 20
363.0024584003823
 30
0.0
 11
127.6756899293951
 21
363.0024584003823
 31
0.0
  0
LWPOLYLINE
  5
A4C
330
1E
100
AcDbEntity
  8
STEMPEL
100
AcDbPolyline
 90
        9
 70
   128
 43
0.0
 10
111.2001141149288
 20
381.9042166450456
 10
111.6891746581976
 20
381.5777837472882
 10
112.1487876260986
 20
381.032514734031
 10
112.5647374297228
 20
380.285274490903
 10
112.9241589590144
 20
379.3591747681255
 10
113.2159354939019
 20
378.2828593461552
 10
113.4310425386401
 20
377.0896180985243
 10
113.5628269447476
 20
375.8163573534485
 10
113.6072126894124
 20
374.5024584003821
  0
LWPOLYLINE
  5
A4D
330
1E
100
AcDbEntity
  8
STEMPEL
100
AcDbPolyline
 90
       18
 70
   128
 43
0.0
 10
121.2910662096017
 20
374.5024584003805
 10
121.3688061108617
 20
375.880579784005
 10
121.5993784755436
 20
377.2117708967847
 10
121.9749314383087
 20
378.4506996219615
 10
122.4826759934365
 20
379.5551757277307
 10
123.1053215090745
 20
380.4875876049836
 10
123.8216645389685
 20
381.2161830855449
 10
124.6073108803944
 20
381.7161507241781
 10
125.4355062894738
 20
381.9704647225949
 10
126.2780475648615
 20
381.9704647225949
 10
127.1062429739409
 20
381.7161507241781
 10
127.8918893153666
 20
381.2161830855449
 10
128.6082323452609
 20
380.4875876049835
 10
129.2308778608988
 20
379.5551757277307
 10
129.7386224160264
 20
378.4506996219614
 10
130.1141753787915
 20
377.2117708967846
 10
130.3447477434734
 20
375.880579784005
 10
130.4224876447336
 20
374.5024584003804
  0
LWPOLYLINE
  5
A4E
330
1E
100
AcDbEntity
  8
STEMPEL
100
AcDbPolyline
 90
       10
 70
   128
 43
0.0
 10
125.0615560403467
 20
382.0024584003837
 10
125.8543833862064
 20
381.8885165479752
 10
126.623121074352
 20
381.5501530562778
 10
127.3444113991295
 20
380.9976489287667
 10
127.9963383190111
 20
380.2477917237756
 10
128.5590933644267
 20
379.3233654730321
 10
129.0155775080896
 20
378.2524584003828
 10
129.3519207102864
 20
377.0676094753251
 10
129.5579033530164
 20
375.8048197328843
 10
129.6272667579126
 20
374.502458400382
  0
LINE
  5
A4F
330
1E
100
AcDbEntity
  8
STEMPEL
100
AcDbLine
 10
151.2613174506112
 20
419.5024584003824
 30
0.0
 11
151.2613174506112
 21
394.502458400384
 31
0.0
  0
LINE
  5
A50
330
1E
100
AcDbEntity
  8
STEMPEL
100
AcDbLine
 10
164.2516985073769
 20
419.5024584003822
 30
0.0
 11
164.2516985073769
 21
394.5024584003823
 31
0.0
  0
LINE
  5
A51
330
1E
100
AcDbEntity
  8
STEMPEL
100
AcDbLine
 10
163.750521511935
 20
419.5024584003822
 30
0.0
 11
163.750521511935
 21
394.5024584003823
 31
0.0
  0
ELLIPSE
  5
A52
330
1E
100
AcDbEntity
  8
STEMPEL
100
AcDbEllipse
 10
157.756507978994
 20
419.5024584003824
 30
0.0
 11
0.0000000000000334
 21
7.5
 31
0.0
210
0.0
220
0.0
230
1.0
 40
0.8660254037843856
 41
4.712388980384689
 42
7.853981633974482
  0
ELLIPSE
  5
A53
330
1E
100
AcDbEntity
  8
STEMPEL
100
AcDbEllipse
 10
157.2553309835521
 20
419.5024584003824
 30
0.0
 11
0.0000000000000334
 21
7.5
 31
0.0
210
0.0
220
0.0
230
1.0
 40
0.8660254037843856
 41
4.712388980384689
 42
6.24459510668465
  0
ELLIPSE
  5
A54
330
1E
100
AcDbEntity
  8
STEMPEL
100
AcDbEllipse
 10
157.756507978994
 20
394.5024584003823
 30
0.0
 11
-0.0000000000000334
 21
-7.5
 31
0.0
210
0.0
220
0.0
230
-1.0
 40
0.8660254037843856
 41
4.712388980384689
 42
7.853981633974482
  0
ELLIPSE
  5
A55
330
1E
100
AcDbEntity
  8
STEMPEL
100
AcDbEllipse
 10
157.2553309835521
 20
394.5024584003823
 30
0.0
 11
-0.0000000000000334
 21
-7.5
 31
0.0
210
0.0
220
0.0
230
-1.0
 40
0.8660254037843856
 41
4.712388980384689
 42
6.24459510668465
  0
LINE
  5
A56
330
1E
100
AcDbEntity
  8
STEMPEL
100
AcDbLine
 10
151.2695645585916
 20
374.5024584003804
 30
0.0
 11
151.2695645585916
 21
368.0024584003838
 31
0.0
  0
LINE
  5
A57
330
1E
100
AcDbEntity
  8
STEMPEL
100
AcDbLine
 10
151.879759006454
 20
374.5024584003804
 30
0.0
 11
151.879759006454
 21
368.0024584003838
 31
0.0
  0
LWPOLYLINE
  5
A58
330
1E
100
AcDbEntity
  8
STEMPEL
100
AcDbPolyline
 90
        7
 70
   128
 43
0.0
 10
-149.6315414824863
 20
363.0024584003822
 10
-150.1031870830532
 20
363.6117963022231
 10
-150.5076935594359
 20
364.3392265755123
 10
-150.8341812019251
 20
365.1651840694559
 10
-151.0738687153333
 20
366.0674536199183
 10
-151.2203094029592
 20
367.0217675541615
 10
-151.2695645585916
 20
368.0024584003827
210
0.0
220
0.0
230
-1.0
  0
LWPOLYLINE
  5
A59
330
1E
100
AcDbEntity
  8
STEMPEL
100
AcDbPolyline
 90
       10
 70
   128
 43
0.0
 10
-148.2171558709299
 20
362.0024584003822
 10
-148.8531602309309
 20
362.0936118823089
 10
-149.4698399202869
 20
362.3643026756667
 10
-150.0484574386919
 20
362.8063059776756
 10
-150.5714317856439
 20
363.4061917416684
 10
-151.0228726502483
 20
364.1457327422632
 10
-151.3890632302744
 20
365.0024584003824
 10
-151.6588770102492
 20
365.9503375404284
 10
-151.8241158350009
 20
366.960569334381
 10
-151.879759006454
 20
368.0024584003827
210
0.0
220
0.0
230
-1.0
  0
LWPOLYLINE
  5
A5A
330
1E
100
AcDbEntity
  8
STEMPEL
100
AcDbPolyline
 90
       10
 70
   128
 43
0.0
 10
-160.8622672127263
 20
362.0024584003821
 10
-161.3349971704797
 20
362.0936118823089
 10
-161.7933634676799
 20
362.3643026756667
 10
-162.2234388763307
 20
362.8063059776756
 10
-162.6121557727691
 20
363.4061917416683
 10
-162.9477031907966
 20
364.1457327422631
 10
-163.2198856919122
 20
365.0024584003824
 10
-163.4204331485503
 20
365.9503375404284
 10
-163.5432520277227
 20
366.9605693343809
 10
-163.5846105399353
 20
368.0024584003826
210
0.0
220
0.0
230
-1.0
  0
LINE
  5
A5B
330
1E
100
AcDbEntity
  8
STEMPEL
100
AcDbLine
 10
163.5846105399353
 20
374.5024584003803
 30
0.0
 11
163.5846105399353
 21
368.0024584003837
 31
0.0
  0
LWPOLYLINE
  5
A5C
330
1E
100
AcDbEntity
  8
STEMPEL
100
AcDbPolyline
 90
        9
 70
   128
 43
0.0
 10
145.62451173035
 20
381.9925924782041
 10
146.7409194517211
 20
381.785285341797
 10
147.8061987034635
 20
381.3160306143432
 10
148.7820336865018
 20
380.6017063771746
 10
149.6333257193596
 20
379.6680053337782
 10
150.3294556620961
 20
378.5485106986178
 10
150.8453852207875
 20
377.2834882812791
 10
151.1625575210033
 20
375.9184382120698
 10
151.2695645585916
 20
374.5024584003819
  0
LINE
  5
A5D
330
1E
100
AcDbEntity
  8
STEMPEL
100
AcDbLine
 10
138.3414358259797
 20
363.0024584003822
 30
0.0
 11
149.6315414824869
 21
363.0024584003822
 31
0.0
  0
LWPOLYLINE
  5
A5E
330
1E
100
AcDbEntity
  8
STEMPEL
100
AcDbPolyline
 90
       18
 70
   128
 43
0.0
 10
139.9794589020851
 20
374.5024584003804
 10
140.0807715138895
 20
375.880579784005
 10
140.3812592698187
 20
377.2117708967846
 10
140.8706894197399
 20
378.4506996219614
 10
141.5323950069042
 20
379.5551757277306
 10
142.3438424411693
 20
380.4875876049834
 10
143.277398853385
 20
381.2161830855448
 10
144.3012730996111
 20
381.716150724178
 10
145.380598370394
 20
381.9704647225947
 10
146.4786195381451
 20
381.9704647225947
 10
147.5579448089277
 20
381.716150724178
 10
148.5818190551538
 20
381.2161830855448
 10
149.5153754673695
 20
380.4875876049834
 10
150.3268229016347
 20
379.5551757277306
 10
150.9885284887992
 20
378.4506996219613
 10
151.4779586387204
 20
377.2117708967846
 10
151.7784463946496
 20
375.8805797840049
 10
151.879759006454
 20
374.5024584003804
  0
LINE
  5
A5F
330
1E
100
AcDbEntity
  8
STEMPEL
100
AcDbLine
 10
204.6273411526732
 20
419.5024584003822
 30
0.0
 11
204.6273411526732
 21
394.5024584003821
 31
0.0
  0
LWPOLYLINE
  5
A60
330
1E
100
AcDbEntity
  8
STEMPEL
100
AcDbPolyline
 90
        7
 70
   128
 43
0.0
 10
-175.8417078292
 20
363.002458400382
 10
-176.192273043612
 20
363.6117963022229
 10
-176.4929350225507
 20
364.3392265755121
 10
-176.7356070844853
 20
365.1651840694559
 10
-176.9137622595338
 20
366.0674536199181
 10
-177.0226088405143
 20
367.0217675541613
 10
-177.0592192619293
 20
368.0024584003825
210
0.0
220
0.0
230
-1.0
  0
LINE
  5
A61
330
1E
100
AcDbEntity
  8
STEMPEL
100
AcDbLine
 10
177.0592192619293
 20
374.5024584003803
 30
0.0
 11
177.0592192619293
 21
368.0024584003837
 31
0.0
  0
LINE
  5
A62
330
1E
100
AcDbEntity
  8
STEMPEL
100
AcDbLine
 10
177.4428035276062
 20
374.5024584003787
 30
0.0
 11
177.4428035276062
 21
368.0024584003837
 31
0.0
  0
LWPOLYLINE
  5
A63
330
1E
100
AcDbEntity
  8
STEMPEL
100
AcDbPolyline
 90
       10
 70
   128
 43
0.0
 10
-189.1862943118781
 20
362.002458400382
 10
-189.4140468747467
 20
362.0936118823088
 10
-189.6348792912409
 20
362.3643026756666
 10
-189.842081680132
 20
362.8063059776754
 10
-190.0293583016833
 20
363.4061917416683
 10
-190.1910188505151
 20
364.145732742263
 10
-190.3221513526558
 20
365.0024584003822
 10
-190.4187714133837
 20
365.9503375404283
 10
-190.4779432810458
 20
366.9605693343808
 10
-190.4978690483859
 20
368.0024584003825
210
0.0
220
0.0
230
-1.0
  0
LINE
  5
A64
330
1E
100
AcDbEntity
  8
STEMPEL
100
AcDbLine
 10
190.4978690483859
 20
374.5024584003818
 30
0.0
 11
190.4978690483859
 21
368.0024584003836
 31
0.0
  0
LWPOLYLINE
  5
A65
330
1E
100
AcDbEntity
  8
STEMPEL
100
AcDbPolyline
 90
       10
 70
   128
 43
0.0
 10
-204.0579672324857
 20
362.0024584003819
 10
-204.2857197953543
 20
362.0936118823087
 10
-204.5065522118485
 20
362.3643026756665
 10
-204.7137546007396
 20
362.8063059776754
 10
-204.9010312222909
 20
363.4061917416681
 10
-205.0626917711227
 20
364.1457327422628
 10
-205.1938242732634
 20
365.0024584003821
 10
-205.2904443339913
 20
365.9503375404282
 10
-205.3496162016537
 20
366.9605693343807
 10
-205.3695419689935
 20
368.0024584003823
210
0.0
220
0.0
230
-1.0
  0
LWPOLYLINE
  5
A66
330
1E
100
AcDbEntity
  8
STEMPEL
100
AcDbPolyline
 90
        7
 70
   128
 43
0.0
 10
-204.65213399705
 20
363.002458400382
 10
-204.8210298428185
 20
363.6117963022227
 10
-204.9658832313911
 20
364.339226575512
 10
-205.0827981489582
 20
365.1651840694557
 10
-205.1686300219758
 20
366.0674536199179
 10
-205.2210702944215
 20
367.0217675541612
 10
-205.2387085193069
 20
368.0024584003823
210
0.0
220
0.0
230
-1.0
  0
LINE
  5
A67
330
1E
100
AcDbEntity
  8
STEMPEL
100
AcDbLine
 10
205.2387085193071
 20
374.5024584003801
 30
0.0
 11
205.2387085193071
 21
368.0024584003835
 31
0.0
  0
LINE
  5
A68
330
1E
100
AcDbEntity
  8
STEMPEL
100
AcDbLine
 10
205.3695419689935
 20
374.5024584003785
 30
0.0
 11
205.3695419689935
 21
368.0024584003835
 31
0.0
  0
LINE
  5
A69
330
1E
100
AcDbEntity
  8
STEMPEL
100
AcDbLine
 10
189.9112945261288
 20
363.002458400382
 30
0.0
 11
204.6521339970503
 21
363.002458400382
 31
0.0
  0
LWPOLYLINE
  5
A6A
330
1E
100
AcDbEntity
  8
STEMPEL
100
AcDbPolyline
 90
       18
 70
   128
 43
0.0
 10
190.4978690483861
 20
374.5024584003802
 10
190.6244782945624
 20
375.8805797840047
 10
190.999994507064
 20
377.2117708967844
 10
191.6116299316564
 20
378.4506996219612
 10
192.4385560575309
 20
379.5551757277304
 10
193.452612907259
 20
380.4875876049832
 10
194.6192679910508
 20
381.2161830855445
 10
195.8987922692761
 20
381.7161507241778
 10
197.2476130772602
 20
381.9704647225945
 10
198.6197979401195
 20
381.9704647225945
 10
199.9686187481037
 20
381.7161507241778
 10
201.2481430263288
 20
381.2161830855445
 10
202.4147981101206
 20
380.4875876049832
 10
203.4288549598489
 20
379.5551757277304
 10
204.2557810857232
 20
378.4506996219611
 10
204.8674165103155
 20
377.2117708967843
 10
205.2429327228172
 20
375.8805797840046
 10
205.3695419689937
 20
374.5024584003801
  0
LWPOLYLINE
  5
A6B
330
1E
100
AcDbEntity
  8
STEMPEL
100
AcDbPolyline
 90
        9
 70
   128
 43
0.0
 10
197.8682887839464
 20
382.0021681601549
 10
199.3096287678241
 20
381.8468667662312
 10
200.6937096712737
 20
381.4124665192169
 10
201.9679342838056
 20
380.7154752989417
 10
203.0838801035355
 20
379.782379847496
 10
203.9991394669885
 20
378.6486392321525
 10
204.6789311057637
 20
377.3573373460831
 10
205.0974218884131
 20
375.9575456539235
 10
205.2387085193071
 20
374.5024584003817
  0
LINE
  5
A6C
330
1E
100
AcDbEntity
  8
STEMPEL
100
AcDbLine
 10
219.6273411526732
 20
419.5024584003803
 30
0.0
 11
219.6273411526732
 21
394.5024584003804
 31
0.0
  0
LWPOLYLINE
  5
A6D
330
1E
100
AcDbEntity
  8
STEMPEL
100
AcDbPolyline
 90
        7
 70
   128
 43
0.0
 10
219.6025483082961
 20
363.0024584003818
 10
219.4336524625276
 20
363.6117963022227
 10
219.2887990739549
 20
364.339226575512
 10
219.1718841563877
 20
365.1651840694556
 10
219.0860522833701
 20
366.0674536199179
 10
219.0336120109244
 20
367.0217675541612
 10
219.015973786039
 20
368.0024584003823
  0
LWPOLYLINE
  5
A6E
330
1E
100
AcDbEntity
  8
STEMPEL
100
AcDbPolyline
 90
       10
 70
   128
 43
0.0
 10
220.1967150728604
 20
362.0024584003818
 10
219.9689625099919
 20
362.0936118823086
 10
219.7481300934977
 20
362.3643026756664
 10
219.5409277046063
 20
362.8063059776753
 10
219.3536510830552
 20
363.4061917416681
 10
219.1919905342232
 20
364.1457327422628
 10
219.0608580320825
 20
365.0024584003821
 10
218.9642379713546
 20
365.9503375404281
 10
218.9050661036925
 20
366.9605693343807
 10
218.8851403363524
 20
368.0024584003823
  0
LINE
  5
A6F
330
1E
100
AcDbEntity
  8
STEMPEL
100
AcDbLine
 10
218.8851403363524
 20
374.5024584003784
 30
0.0
 11
218.8851403363524
 21
368.0024584003835
 31
0.0
  0
LINE
  5
A70
330
1E
100
AcDbEntity
  8
STEMPEL
100
AcDbLine
 10
219.015973786039
 20
374.50245840038
 30
0.0
 11
219.015973786039
 21
368.0024584003835
 31
0.0
  0
LWPOLYLINE
  5
A71
330
1E
100
AcDbEntity
  8
STEMPEL
100
AcDbPolyline
 90
       10
 70
   128
 43
0.0
 10
235.068387993468
 20
362.0024584003818
 10
234.8406354305994
 20
362.0936118823085
 10
234.6198030141052
 20
362.3643026756663
 10
234.4126006252139
 20
362.8063059776752
 10
234.2253240036628
 20
363.406191741668
 10
234.0636634548308
 20
364.1457327422628
 10
233.9325309526901
 20
365.002458400382
 10
233.8359108919622
 20
365.950337540428
 10
233.7767390243001
 20
366.9605693343806
 10
233.75681325696
 20
368.0024584003823
  0
LINE
  5
A72
330
1E
100
AcDbEntity
  8
STEMPEL
100
AcDbLine
 10
233.7568132569602
 20
374.5024584003815
 30
0.0
 11
233.7568132569602
 21
368.0024584003834
 31
0.0
  0
LINE
  5
A73
330
1E
100
AcDbEntity
  8
STEMPEL
100
AcDbLine
 10
234.3433877792171
 20
363.0024584003818
 30
0.0
 11
219.6025483082956
 21
363.0024584003818
 31
0.0
  0
LWPOLYLINE
  5
A74
330
1E
100
AcDbEntity
  8
STEMPEL
100
AcDbPolyline
 90
        9
 70
   128
 43
0.0
 10
-226.3863935213997
 20
382.0021681601548
 10
-224.9450535375218
 20
381.8468667662311
 10
-223.5609726340722
 20
381.4124665192167
 10
-222.2867480215403
 20
380.7154752989415
 10
-221.1708022018104
 20
379.7823798474959
 10
-220.2555428383574
 20
378.6486392321524
 10
-219.5757511995824
 20
377.357337346083
 10
-219.1572604169329
 20
375.9575456539234
 10
-219.015973786039
 20
374.5024584003816
210
0.0
220
0.0
230
-1.0
  0
LWPOLYLINE
  5
A75
330
1E
100
AcDbEntity
  8
STEMPEL
100
AcDbPolyline
 90
       18
 70
   128
 43
0.0
 10
-233.75681325696
 20
374.50245840038
 10
-233.6302040107835
 20
375.8805797840045
 10
-233.2546877982819
 20
377.2117708967842
 10
-232.6430523736895
 20
378.4506996219609
 10
-231.8161262478152
 20
379.5551757277302
 10
-230.8020693980869
 20
380.487587604983
 10
-229.6354143142951
 20
381.2161830855444
 10
-228.35589003607
 20
381.7161507241777
 10
-227.0070692280859
 20
381.9704647225944
 10
-225.6348843652266
 20
381.9704647225944
 10
-224.2860635572425
 20
381.7161507241777
 10
-223.0065392790171
 20
381.2161830855444
 10
-221.8398841952254
 20
380.4875876049831
 10
-220.8258273454972
 20
379.5551757277303
 10
-219.9989012196227
 20
378.450699621961
 10
-219.3872657950304
 20
377.2117708967842
 10
-219.0117495825287
 20
375.8805797840046
 10
-218.8851403363524
 20
374.50245840038
210
0.0
220
0.0
230
-1.0
  0
ARC
  5
A76
330
1E
100
AcDbEntity
  8
STEMPEL
100
AcDbCircle
 10
212.1273411526732
 20
419.5024584003819
 30
0.0
 40
7.5
100
AcDbArc
 50
359.9999999999867
 51
179.9999999999737
  0
ARC
  5
A77
330
1E
100
AcDbEntity
  8
STEMPEL
100
AcDbCircle
 10
212.1273411526732
 20
394.5024584003821
 30
0.0
 40
7.5
100
AcDbArc
 50
180.0000000000258
 51
0.0000000000127791
  0
LWPOLYLINE
  5
A78
330
1E
100
AcDbEntity
  8
STEMPEL
100
AcDbPolyline
 90
       10
 70
   128
 43
0.0
 10
-174.7204602003972
 20
362.0024584003821
 10
-175.1931901581507
 20
362.0936118823089
 10
-175.6515564553509
 20
362.3643026756667
 10
-176.0816318640016
 20
362.8063059776755
 10
-176.47034876044
 20
363.4061917416683
 10
-176.8058961784675
 20
364.145732742263
 10
-177.0780786795831
 20
365.0024584003823
 10
-177.2786261362212
 20
365.9503375404284
 10
-177.4014450153936
 20
366.9605693343809
 10
-177.4428035276062
 20
368.0024584003825
210
0.0
220
0.0
230
-1.0
  0
LINE
  5
A79
330
1E
100
AcDbEntity
  8
STEMPEL
100
AcDbLine
 10
162.3670991072061
 20
363.0024584003821
 30
0.0
 11
175.8417078292005
 21
363.002458400382
 31
0.0
  0
LWPOLYLINE
  5
A7A
330
1E
100
AcDbEntity
  8
STEMPEL
100
AcDbPolyline
 90
        9
 70
   128
 43
0.0
 10
170.3219149009588
 20
381.9995848234204
 10
171.6461243512886
 20
381.8207519163726
 10
172.9141037484747
 20
381.3704759990484
 10
174.0788224365604
 20
380.6654582669093
 10
175.0970798051669
 20
379.7318485505257
 10
175.9311076444292
 20
378.6042753915497
 10
176.5499710066231
 20
377.3245616345978
 10
176.9307156150974
 20
375.9401731750624
 10
177.0592192619293
 20
374.5024584003818
  0
LWPOLYLINE
  5
A7B
330
1E
100
AcDbEntity
  8
STEMPEL
100
AcDbPolyline
 90
       18
 70
   128
 43
0.0
 10
163.5846105399353
 20
374.5024584003803
 10
163.7025915752163
 20
375.8805797840048
 10
164.052516978406
 20
377.2117708967845
 10
164.6224704595877
 20
378.4506996219613
 10
165.3930429365439
 20
379.5551757277305
 10
166.3379934877715
 20
380.4875876049834
 10
167.4251429555914
 20
381.2161830855446
 10
168.6174697687698
 20
381.7161507241779
 10
169.8743706677215
 20
381.9704647225946
 10
171.1530433998198
 20
381.9704647225946
 10
172.4099442987718
 20
381.7161507241779
 10
173.6022711119499
 20
381.2161830855446
 10
174.6894205797701
 20
380.4875876049834
 10
175.6343711309976
 20
379.5551757277305
 10
176.4049436079536
 20
378.4506996219612
 10
176.9748970891353
 20
377.2117708967845
 10
177.324822492325
 20
375.8805797840048
 10
177.4428035276062
 20
374.5024584003803
  0
LINE
  5
A7D
330
1E
100
AcDbEntity
  8
STEMPEL
100
AcDbLine
 10
105.6079875845461
 20
436.321295847263
 30
0.0
 11
129.5868414774973
 21
450.3089490134484
 31
0.0
  0
LINE
  5
A7E
330
1E
100
AcDbEntity
  8
STEMPEL
100
AcDbLine
 10
105.0946465309653
 20
437.1795389604257
 30
0.0
 11
129.0809494064322
 21
451.171548971114
 31
0.0
  0
LINE
  5
A7F
330
1E
100
AcDbEntity
  8
STEMPEL
100
AcDbLine
 10
106.6394439077735
 20
363.0024584003824
 30
0.0
 11
111.4536410567449
 21
363.0024584003824
 31
0.0
  0
LWPOLYLINE
  5
A80
330
1E
100
AcDbEntity
  8
STEMPEL
100
AcDbPolyline
 90
       18
 70
   128
 43
0.0
 10
108.793015540442
 20
374.5024584003805
 10
108.8418848853583
 20
375.8805797840051
 10
108.9868287331784
 20
377.2117708967848
 10
109.2229111950056
 20
378.4506996219615
 10
109.5420927657523
 20
379.5551757277308
 10
109.9335040998427
 20
380.4875876049836
 10
110.3838161537406
 20
381.2161830855449
 10
110.8776940905401
 20
381.7161507241782
 10
111.398319489445
 20
381.9704647225949
 10
111.9279630769168
 20
381.9704647225949
 10
112.4485884758218
 20
381.7161507241782
 10
112.9424664126212
 20
381.2161830855449
 10
113.3927784665192
 20
380.4875876049836
 10
113.7841898006096
 20
379.5551757277308
 10
114.1033713713562
 20
378.4506996219615
 10
114.3394538331834
 20
377.2117708967848
 10
114.4843976810035
 20
375.8805797840051
 10
114.5332670259197
 20
374.5024584003805
  0
ARC
  5
A81
330
1E
100
AcDbEntity
  8
STEMPEL
100
AcDbCircle
 10
292.1273411526734
 20
446.002458400381
 30
0.0
 40
6.0
100
AcDbArc
 50
89.99999999999975
 51
89.99999999999975
  0
ARC
  5
A82
330
1E
100
AcDbEntity
  8
STEMPEL
100
AcDbCircle
 10
292.1273411526734
 20
446.002458400381
 30
0.0
 40
6.0
100
AcDbArc
 50
59.48712567238031
 51
89.99999999999975
  0
ARC
  5
A83
330
1E
100
AcDbEntity
  8
STEMPEL
100
AcDbCircle
 10
292.1273411526734
 20
446.002458400381
 30
0.0
 40
5.0
100
AcDbArc
 50
59.46264995170067
 51
89.99999999999975
  0
ARC
  5
A84
330
1E
100
AcDbEntity
  8
STEMPEL
100
AcDbCircle
 10
316.1273411526732
 20
432.0024004330659
 30
0.0
 40
5.0
100
AcDbArc
 50
359.9999999999997
 51
59.74358352518254
  0
ARC
  5
A85
330
1E
100
AcDbEntity
  8
STEMPEL
100
AcDbCircle
 10
321.6384847569851
 20
441.5222953828433
 30
0.0
 40
5.0
100
AcDbArc
 50
239.7435628364709
 51
239.9329541615154
  0
ARC
  5
A86
330
1E
100
AcDbEntity
  8
STEMPEL
100
AcDbCircle
 10
316.1273411526732
 20
432.0024004330659
 30
0.0
 40
6.0
100
AcDbArc
 50
359.9999999999997
 51
59.74358352518254
  0
LINE
  5
A87
330
1E
100
AcDbEntity
  8
STEMPEL
100
AcDbLine
 10
319.1600357743813
 20
437.1795389604248
 30
0.0
 11
295.1737328989143
 21
451.1715489711134
 31
0.0
  0
LINE
  5
A88
330
1E
100
AcDbEntity
  8
STEMPEL
100
AcDbLine
 10
318.6466947208003
 20
436.3212958472622
 30
0.0
 11
294.6678408278493
 21
450.3089490134477
 31
0.0
  0
ELLIPSE
  5
A89
330
1E
100
AcDbEntity
  8
STEMPEL
100
AcDbEllipse
 10
266.9993513217944
 20
419.5024584003816
 30
0.0
 11
0.0000000000000334
 21
7.5
 31
0.0
210
0.0
220
0.0
230
-1.0
 40
0.8660254037843856
 41
4.712388980384689
 42
6.24459510668465
  0
ELLIPSE
  5
A8A
330
1E
100
AcDbEntity
  8
STEMPEL
100
AcDbEllipse
 10
266.4981743263525
 20
419.5024584003816
 30
0.0
 11
0.0000000000000334
 21
7.5
 31
0.0
210
0.0
220
0.0
230
-1.0
 40
0.8660254037843856
 41
4.712388980384689
 42
7.853981633974482
  0
ELLIPSE
  5
A8B
330
1E
100
AcDbEntity
  8
STEMPEL
100
AcDbEllipse
 10
266.9993513217944
 20
394.5024584003818
 30
0.0
 11
-0.0000000000000334
 21
-7.5
 31
0.0
210
0.0
220
0.0
230
1.0
 40
0.8660254037843856
 41
4.712388980384689
 42
6.24459510668465
  0
ELLIPSE
  5
A8C
330
1E
100
AcDbEntity
  8
STEMPEL
100
AcDbEllipse
 10
266.4981743263525
 20
394.5024584003818
 30
0.0
 11
-0.0000000000000334
 21
-7.5
 31
0.0
210
0.0
220
0.0
230
1.0
 40
0.8660254037843856
 41
4.712388980384689
 42
7.853981633974482
  0
LINE
  5
A8D
330
1E
100
AcDbEntity
  8
STEMPEL
100
AcDbLine
 10
260.5041607934116
 20
419.5024584003819
 30
0.0
 11
260.5041607934116
 21
394.5024584003818
 31
0.0
  0
LINE
  5
A8E
330
1E
100
AcDbEntity
  8
STEMPEL
100
AcDbLine
 10
272.9933648547354
 20
419.5024584003816
 30
0.0
 11
272.9933648547354
 21
394.5024584003834
 31
0.0
  0
LINE
  5
A8F
330
1E
100
AcDbEntity
  8
STEMPEL
100
AcDbLine
 10
260.0029837979696
 20
419.5024584003819
 30
0.0
 11
260.0029837979694
 21
394.5024584003818
 31
0.0
  0
LWPOLYLINE
  5
A90
330
1E
100
AcDbEntity
  8
STEMPEL
100
AcDbPolyline
 90
        7
 70
   128
 43
0.0
 10
248.4129744761458
 20
363.0024584003817
 10
248.0624092617339
 20
363.6117963022226
 10
247.7617472827952
 20
364.3392265755118
 10
247.5190752208606
 20
365.1651840694555
 10
247.3409200458121
 20
366.0674536199178
 10
247.2320734648316
 20
367.021767554161
 10
247.1954630434169
 20
368.0024584003822
  0
LINE
  5
A91
330
1E
100
AcDbEntity
  8
STEMPEL
100
AcDbLine
 10
246.8118787777399
 20
374.5024584003783
 30
0.0
 11
246.8118787777399
 21
368.0024584003833
 31
0.0
  0
LINE
  5
A92
330
1E
100
AcDbEntity
  8
STEMPEL
100
AcDbLine
 10
247.1954630434169
 20
374.5024584003799
 30
0.0
 11
247.1954630434169
 21
368.0024584003833
 31
0.0
  0
LWPOLYLINE
  5
A93
330
1E
100
AcDbEntity
  8
STEMPEL
100
AcDbPolyline
 90
       10
 70
   128
 43
0.0
 10
249.5342221049489
 20
362.0024584003817
 10
249.0614921471952
 20
362.0936118823085
 10
248.603125849995
 20
362.3643026756663
 10
248.1730504413443
 20
362.8063059776752
 10
247.7843335449061
 20
363.4061917416679
 10
247.4487861268784
 20
364.1457327422627
 10
247.1766036257628
 20
365.002458400382
 10
246.9760561691247
 20
365.950337540428
 10
246.8532372899522
 20
366.9605693343805
 10
246.8118787777399
 20
368.0024584003822
  0
LWPOLYLINE
  5
A94
330
1E
100
AcDbEntity
  8
STEMPEL
100
AcDbPolyline
 90
       10
 70
   128
 43
0.0
 10
263.3924150926199
 20
362.0024584003817
 10
262.9196851348662
 20
362.0936118823085
 10
262.461318837666
 20
362.3643026756663
 10
262.0312434290152
 20
362.8063059776751
 10
261.6425265325771
 20
363.4061917416679
 10
261.3069791145493
 20
364.1457327422626
 10
261.0347966134337
 20
365.0024584003819
 10
260.8342491567956
 20
365.950337540428
 10
260.7114302776231
 20
366.9605693343805
 10
260.6700717654108
 20
368.0024584003821
  0
LINE
  5
A95
330
1E
100
AcDbEntity
  8
STEMPEL
100
AcDbLine
 10
260.6700717654108
 20
374.5024584003799
 30
0.0
 11
260.6700717654108
 21
368.0024584003833
 31
0.0
  0
LINE
  5
A96
330
1E
100
AcDbEntity
  8
STEMPEL
100
AcDbLine
 10
272.3749232988919
 20
374.5024584003798
 30
0.0
 11
272.3749232988919
 21
368.0024584003832
 31
0.0
  0
LINE
  5
A97
330
1E
100
AcDbEntity
  8
STEMPEL
100
AcDbLine
 10
272.9851177467543
 20
374.5024584003798
 30
0.0
 11
272.9851177467543
 21
368.0024584003832
 31
0.0
  0
LINE
  5
A98
330
1E
100
AcDbEntity
  8
STEMPEL
100
AcDbLine
 10
261.8875831981398
 20
363.0024584003817
 30
0.0
 11
248.4129744761454
 21
363.0024584003817
 31
0.0
  0
LWPOLYLINE
  5
A99
330
1E
100
AcDbEntity
  8
STEMPEL
100
AcDbPolyline
 90
        9
 70
   128
 43
0.0
 10
-253.9327674043871
 20
381.9995848234201
 10
-252.6085579540573
 20
381.8207519163722
 10
-251.3405785568712
 20
381.3704759990481
 10
-250.1758598687857
 20
380.6654582669089
 10
-249.1576025001789
 20
379.7318485505254
 10
-248.3235746609167
 20
378.6042753915493
 10
-247.7047112987228
 20
377.3245616345975
 10
-247.3239666902487
 20
375.940173175062
 10
-247.1954630434169
 20
374.5024584003815
210
0.0
220
0.0
230
-1.0
  0
LWPOLYLINE
  5
A9A
330
1E
100
AcDbEntity
  8
STEMPEL
100
AcDbPolyline
 90
       18
 70
   128
 43
0.0
 10
-260.6700717654108
 20
374.5024584003799
 10
-260.5520907301296
 20
375.8805797840044
 10
-260.2021653269399
 20
377.2117708967841
 10
-259.6322118457582
 20
378.4506996219608
 10
-258.8616393688022
 20
379.5551757277301
 10
-257.9166888175747
 20
380.487587604983
 10
-256.8295393497545
 20
381.2161830855442
 10
-255.6372125365763
 20
381.7161507241776
 10
-254.3803116376244
 20
381.9704647225943
 10
-253.1016389055261
 20
381.9704647225943
 10
-251.8447380065743
 20
381.7161507241776
 10
-250.6524111933962
 20
381.2161830855443
 10
-249.565261725576
 20
380.487587604983
 10
-248.6203111743485
 20
379.5551757277302
 10
-247.8497386973923
 20
378.4506996219609
 10
-247.2797852162106
 20
377.2117708967841
 10
-246.9298598130209
 20
375.8805797840044
 10
-246.8118787777399
 20
374.5024584003799
210
0.0
220
0.0
230
-1.0
  0
LINE
  5
A9B
330
1E
100
AcDbEntity
  8
STEMPEL
100
AcDbLine
 10
303.4184506790253
 20
394.5024584003817
 30
0.0
 11
303.4184506790253
 21
419.5024584003832
 31
0.0
  0
LINE
  5
A9C
330
1E
100
AcDbEntity
  8
STEMPEL
100
AcDbLine
 10
302.5503866593366
 20
419.5024584003816
 30
0.0
 11
302.5503866593363
 21
394.5024584003832
 31
0.0
  0
LWPOLYLINE
  5
A9D
330
1E
100
AcDbEntity
  8
STEMPEL
100
AcDbPolyline
 90
       10
 70
   128
 43
0.0
 10
287.937826538785
 20
362.0024584003815
 10
287.3018221787841
 20
362.0936118823083
 10
286.6851424894278
 20
362.3643026756661
 10
286.1065249710228
 20
362.806305977675
 10
285.583550624071
 20
363.4061917416678
 10
285.1321097594665
 20
364.1457327422625
 10
284.7659191794406
 20
365.0024584003818
 10
284.4961053994655
 20
365.9503375404278
 10
284.3308665747139
 20
366.9605693343803
 10
284.2752234032608
 20
368.002458400382
  0
LINE
  5
A9E
330
1E
100
AcDbEntity
  8
STEMPEL
100
AcDbLine
 10
284.2752234032608
 20
374.5024584003797
 30
0.0
 11
284.2752234032608
 21
368.0024584003831
 31
0.0
  0
LINE
  5
A9F
330
1E
100
AcDbEntity
  8
STEMPEL
100
AcDbLine
 10
285.9132464793662
 20
363.0024584003816
 30
0.0
 11
274.6231408228592
 21
363.0024584003816
 31
0.0
  0
LWPOLYLINE
  5
AA0
330
1E
100
AcDbEntity
  8
STEMPEL
100
AcDbPolyline
 90
        7
 70
   128
 43
0.0
 10
296.5789923759517
 20
363.0024584003815
 10
296.0170634026875
 20
363.6117963022223
 10
295.5351254631003
 20
364.3392265755116
 10
295.1461408833505
 20
365.1651840694553
 10
294.8605718922441
 20
366.0674536199175
 10
294.6860992264481
 20
367.0217675541608
 10
294.6274155474333
 20
368.0024584003819
  0
LINE
  5
AA1
330
1E
100
AcDbEntity
  8
STEMPEL
100
AcDbLine
 10
293.8321946606125
 20
374.5024584003797
 30
0.0
 11
293.8321946606125
 21
368.0024584003831
 31
0.0
  0
LINE
  5
AA2
330
1E
100
AcDbEntity
  8
STEMPEL
100
AcDbLine
 10
294.6274155474333
 20
374.5024584003797
 30
0.0
 11
294.6274155474333
 21
368.0024584003831
 31
0.0
  0
LINE
  5
AA3
330
1E
100
AcDbEntity
  8
STEMPEL
100
AcDbLine
 10
302.9636160957444
 20
374.5024584003797
 30
0.0
 11
302.9636160957444
 21
368.0024584003831
 31
0.0
  0
LINE
  5
AA4
330
1E
100
AcDbEntity
  8
STEMPEL
100
AcDbLine
 10
304.9151929242628
 20
363.0024584003815
 30
0.0
 11
296.578992375951
 21
363.0024584003815
 31
0.0
  0
LWPOLYLINE
  5
AA5
330
1E
100
AcDbEntity
  8
STEMPEL
100
AcDbPolyline
 90
       10
 70
   128
 43
0.0
 10
298.1959008352185
 20
362.0024584003815
 10
297.4381512101243
 20
362.0936118823083
 10
296.7034254239487
 20
362.3643026756661
 10
296.0140477479157
 20
362.8063059776749
 10
295.3909645738693
 20
363.4061917416677
 10
294.8531079687578
 20
364.1457327422624
 10
294.4168204333587
 20
365.0024584003817
 10
294.0953583436636
 20
365.9503375404278
 10
293.8984891625994
 20
366.9605693343803
 10
293.8321946606127
 20
368.002458400382
  0
LWPOLYLINE
  5
AA6
330
1E
100
AcDbEntity
  8
STEMPEL
100
AcDbPolyline
 90
       10
 70
   128
 43
0.0
 10
-299.1931262649994
 20
382.0024584003828
 10
-298.4002989191397
 20
381.8885165479744
 10
-297.6315612309939
 20
381.550153056277
 10
-296.9102709062164
 20
380.9976489287659
 10
-296.258343986335
 20
380.2477917237748
 10
-295.6955889409192
 20
379.3233654730313
 10
-295.2391047972563
 20
378.2524584003821
 10
-294.9027615950596
 20
377.0676094753243
 10
-294.6967789523295
 20
375.8048197328835
 10
-294.6274155474335
 20
374.5024584003813
210
0.0
220
0.0
230
-1.0
  0
LWPOLYLINE
  5
AA7
330
1E
100
AcDbEntity
  8
STEMPEL
100
AcDbPolyline
 90
       18
 70
   128
 43
0.0
 10
-302.9636160957444
 20
374.5024584003797
 10
-302.8858761944842
 20
375.8805797840042
 10
-302.6553038298023
 20
377.2117708967839
 10
-302.2797508670372
 20
378.4506996219607
 10
-301.7720063119096
 20
379.5551757277299
 10
-301.1493607962716
 20
380.4875876049828
 10
-300.4330177663776
 20
381.2161830855441
 10
-299.6473714249517
 20
381.7161507241774
 10
-298.8191760158723
 20
381.9704647225941
 10
-297.9766347404846
 20
381.9704647225941
 10
-297.1484393314052
 20
381.7161507241774
 10
-296.3627929899793
 20
381.2161830855441
 10
-295.6464499600853
 20
380.4875876049828
 10
-295.0238044444473
 20
379.5551757277299
 10
-294.5160598893195
 20
378.4506996219607
 10
-294.1405069265544
 20
377.2117708967839
 10
-293.9099345618725
 20
375.8805797840043
 10
-293.8321946606125
 20
374.5024584003797
210
0.0
220
0.0
230
-1.0
  0
LWPOLYLINE
  5
AA8
330
1E
100
AcDbEntity
  8
STEMPEL
100
AcDbPolyline
 90
        7
 70
   128
 43
0.0
 10
274.6231408228596
 20
363.0024584003816
 10
274.1514952222929
 20
363.6117963022225
 10
273.7469887459099
 20
364.3392265755118
 10
273.420501103421
 20
365.1651840694554
 10
273.1808135900128
 20
366.0674536199177
 10
273.0343729023867
 20
367.0217675541609
 10
272.9851177467543
 20
368.0024584003821
  0
LWPOLYLINE
  5
AA9
330
1E
100
AcDbEntity
  8
STEMPEL
100
AcDbPolyline
 90
       10
 70
   128
 43
0.0
 10
276.0375264344162
 20
362.0024584003816
 10
275.4015220744153
 20
362.0936118823084
 10
274.784842385059
 20
362.3643026756662
 10
274.206224866654
 20
362.806305977675
 10
273.6832505197022
 20
363.4061917416679
 10
273.2318096550976
 20
364.1457327422626
 10
272.8656190750717
 20
365.0024584003818
 10
272.5958052950967
 20
365.9503375404279
 10
272.430566470345
 20
366.9605693343804
 10
272.3749232988919
 20
368.0024584003821
  0
LWPOLYLINE
  5
AAA
330
1E
100
AcDbEntity
  8
STEMPEL
100
AcDbPolyline
 90
        9
 70
   128
 43
0.0
 10
-278.6301705749959
 20
381.9925924782035
 10
-277.5137628536248
 20
381.7852853417964
 10
-276.4484836018826
 20
381.3160306143426
 10
-275.4726486188443
 20
380.601706377174
 10
-274.6213565859862
 20
379.6680053337777
 10
-273.9252266432498
 20
378.5485106986172
 10
-273.4092970845584
 20
377.2834882812786
 10
-273.0921247843426
 20
375.9184382120693
 10
-272.9851177467545
 20
374.5024584003814
210
0.0
220
0.0
230
-1.0
  0
LWPOLYLINE
  5
AAB
330
1E
100
AcDbEntity
  8
STEMPEL
100
AcDbPolyline
 90
       18
 70
   128
 43
0.0
 10
-284.275223403261
 20
374.5024584003797
 10
-284.1739107914566
 20
375.8805797840043
 10
-283.8734230355274
 20
377.211770896784
 10
-283.3839928856063
 20
378.4506996219607
 10
-282.7222872984417
 20
379.55517572773
 10
-281.9108398641766
 20
380.4875876049828
 10
-280.9772834519609
 20
381.2161830855442
 10
-279.9534092057348
 20
381.7161507241774
 10
-278.8740839349521
 20
381.9704647225941
 10
-277.7760627672011
 20
381.9704647225941
 10
-276.6967374964182
 20
381.7161507241774
 10
-275.672863250192
 20
381.2161830855442
 10
-274.7393068379764
 20
380.4875876049829
 10
-273.9278594037112
 20
379.55517572773
 10
-273.2661538165469
 20
378.4506996219608
 10
-272.7767236666257
 20
377.211770896784
 10
-272.4762359106965
 20
375.8805797840043
 10
-272.3749232988922
 20
374.5024584003798
210
0.0
220
0.0
230
-1.0
  0
LINE
  5
AAC
330
1E
100
AcDbEntity
  8
STEMPEL
100
AcDbLine
 10
322.1273411526734
 20
427.0024584003812
 30
0.0
 11
321.1273411526734
 21
427.0024584003812
 31
0.0
  0
LINE
  5
AAD
330
1E
100
AcDbEntity
  8
STEMPEL
100
AcDbLine
 10
322.1273411526736
 20
387.0024584003812
 30
0.0
 11
321.1273411526734
 21
387.0024584003812
 31
0.0
  0
LINE
  5
AAE
330
1E
100
AcDbEntity
  8
STEMPEL
100
AcDbLine
 10
310.0503866593363
 20
419.5024584003816
 30
0.0
 11
310.0503866593363
 21
394.5024584003848
 31
0.0
  0
LWPOLYLINE
  5
AAF
330
1E
100
AcDbEntity
  8
STEMPEL
100
AcDbPolyline
 90
        7
 70
   128
 43
0.0
 10
312.8010412486022
 20
363.0024584003814
 10
312.1809507255378
 20
363.6117963022223
 10
311.6491305787543
 20
364.3392265755115
 10
311.2198847790231
 20
365.1651840694552
 10
310.9047584312258
 20
366.0674536199175
 10
310.71222725426
 20
367.0217675541607
 10
310.6474696159335
 20
368.0024584003819
  0
LINE
  5
AB0
330
1E
100
AcDbEntity
  8
STEMPEL
100
AcDbLine
 10
309.7214152794261
 20
374.5024584003796
 30
0.0
 11
309.7214152794261
 21
368.0024584003831
 31
0.0
  0
LINE
  5
AB1
330
1E
100
AcDbEntity
  8
STEMPEL
100
AcDbLine
 10
310.6474696159335
 20
374.5024584003796
 30
0.0
 11
310.6474696159335
 21
368.0024584003831
 31
0.0
  0
LWPOLYLINE
  5
AB2
330
1E
100
AcDbEntity
  8
STEMPEL
100
AcDbPolyline
 90
        7
 70
   128
 43
0.0
 10
-320.4355968267567
 20
380.9645124562194
 10
-320.2977678171863
 20
380.2124062192809
 10
-320.1789035402201
 20
379.289692608566
 10
-320.082555538319
 20
378.2239413586618
 10
-320.0116025907808
 20
377.0469960218407
 10
-319.9681646987729
 20
375.7940225154389
 10
-319.9535397418752
 20
374.5024584003796
210
0.0
220
0.0
230
-1.0
  0
LWPOLYLINE
  5
AB3
330
1E
100
AcDbEntity
  8
STEMPEL
100
AcDbPolyline
 90
        7
 70
   128
 43
0.0
 10
322.5739989255461
 20
363.0024584003818
 10
321.8972970504686
 20
363.6120591282409
 10
321.2977476268346
 20
364.3396182121525
 10
320.791458953685
 20
365.1655880738327
 10
320.3920336616393
 20
366.0677770990358
 10
320.1102032463765
 20
367.0219458672296
 10
319.953539741875
 20
368.0024584003819
  0
LWPOLYLINE
  5
AB4
330
1E
100
AcDbEntity
  8
STEMPEL
100
AcDbPolyline
 90
       10
 70
   128
 43
0.0
 10
320.2770312914779
 20
362.0024584003814
 10
319.4408520166363
 20
362.0936118823082
 10
318.6300796259337
 20
362.364302675666
 10
317.8693490281908
 20
362.8063059776749
 10
317.1817746376722
 20
363.4061917416677
 10
316.5882480543037
 20
364.1457327422624
 10
316.1068032829824
 20
365.0024584003817
 10
315.752068779462
 20
365.9503375404277
 10
315.5348229721279
 20
366.9605693343803
 10
315.4616667649039
 20
368.0024584003819
  0
LINE
  5
AB5
330
1E
100
AcDbEntity
  8
STEMPEL
100
AcDbLine
 10
315.4616667649039
 20
374.5024584003796
 30
0.0
 11
315.4616667649039
 21
368.0024584003831
 31
0.0
  0
LINE
  5
AB6
330
1E
100
AcDbEntity
  8
STEMPEL
100
AcDbLine
 10
320.9176539116378
 20
374.5024584003796
 30
0.0
 11
320.9176539116378
 21
368.0024584003819
 31
0.0
  0
LINE
  5
AB7
330
1E
100
AcDbEntity
  8
STEMPEL
100
AcDbLine
 10
319.9535397418752
 20
374.5024584003796
 30
0.0
 11
319.9535397418752
 21
368.0024584003819
 31
0.0
  0
LINE
  5
AB8
330
1E
100
AcDbEntity
  8
STEMPEL
100
AcDbLine
 10
318.9597610283373
 20
374.5024584003796
 30
0.0
 11
318.9597610283373
 21
368.0024584003807
 31
0.0
  0
LWPOLYLINE
  5
AB9
330
1E
100
AcDbEntity
  8
STEMPEL
100
AcDbPolyline
 90
       10
 70
   128
 43
0.0
 10
314.5367798060002
 20
362.0024584003814
 10
313.7006005311585
 20
362.0936118823082
 10
312.8898281404559
 20
362.364302675666
 10
312.1290975427131
 20
362.8063059776749
 10
311.4415231521944
 20
363.4061917416677
 10
310.847996568826
 20
364.1457327422624
 10
310.3665517975047
 20
365.0024584003817
 10
310.0118172939843
 20
365.9503375404277
 10
309.7945714866501
 20
366.9605693343803
 10
309.7214152794261
 20
368.0024584003819
  0
LINE
  5
ABA
330
1E
100
AcDbEntity
  8
STEMPEL
100
AcDbLine
 10
317.6152383975726
 20
363.0024584003814
 30
0.0
 11
312.801041248601
 21
363.0024584003814
 31
0.0
  0
LINE
  5
ABB
330
1E
100
AcDbEntity
  8
STEMPEL
100
AcDbLine
 10
323.5381130953083
 20
363.0024584003814
 30
0.0
 11
322.5739989255458
 21
363.0024584003814
 31
0.0
  0
LWPOLYLINE
  5
ABC
330
1E
100
AcDbEntity
  8
STEMPEL
100
AcDbPolyline
 90
       10
 70
   128
 43
0.0
 10
324.4657497593681
 20
362.0024584003814
 10
323.6076767630953
 20
362.068585614954
 10
322.7548645634732
 20
362.3211393646843
 10
321.9341062565562
 20
362.7521850810018
 10
321.1711878901572
 20
363.3481804514417
 10
320.490078334658
 20
364.0904008831624
 10
319.9121762447122
 20
364.9555277799598
 10
319.4556377703059
 20
365.9163811506759
 10
319.1348061387085
 20
366.9427735323881
 10
318.9597610283373
 20
368.0024584003807
  0
LWPOLYLINE
  5
ABD
330
1E
100
AcDbEntity
  8
STEMPEL
100
AcDbPolyline
 90
       10
 70
   128
 43
0.0
 10
326.4236426426685
 20
362.0024584003825
 10
325.5655696463958
 20
362.0685856149552
 10
324.7127574467736
 20
362.3211393646854
 10
323.8919991398566
 20
362.752185081003
 10
323.1290807734577
 20
363.3481804514429
 10
322.4479712179585
 20
364.0904008831635
 10
321.8700691280127
 20
364.955527779961
 10
321.4135306536064
 20
365.916381150677
 10
321.092699022009
 20
366.9427735323892
 10
320.9176539116378
 20
368.0024584003819
  0
ARC
  5
ABE
330
1E
100
AcDbEntity
  8
STEMPEL
100
AcDbCircle
 10
327.1273411526729
 20
368.0024584003819
 30
0.0
 40
5.0
100
AcDbArc
 50
179.9999999999997
 51
269.9999999999998
  0
ARC
  5
ABF
330
1E
100
AcDbEntity
  8
STEMPEL
100
AcDbCircle
 10
327.1273411526729
 20
368.0024584003819
 30
0.0
 40
6.0
100
AcDbArc
 50
179.9999999999997
 51
269.9999999999998
  0
LWPOLYLINE
  5
AC0
330
1E
100
AcDbEntity
  8
STEMPEL
100
AcDbPolyline
 90
       18
 70
   128
 43
0.0
 10
-315.4616667649039
 20
374.5024584003796
 10
-315.4127974199876
 20
375.8805797840042
 10
-315.2678535721676
 20
377.2117708967838
 10
-315.0317711103403
 20
378.4506996219606
 10
-314.7125895395937
 20
379.5551757277299
 10
-314.3211782055033
 20
380.4875876049827
 10
-313.8708661516053
 20
381.216183085544
 10
-313.3769882148059
 20
381.7161507241773
 10
-312.8563628159009
 20
381.970464722594
 10
-312.3267192284291
 20
381.970464722594
 10
-311.8060938295242
 20
381.7161507241773
 10
-311.3122158927247
 20
381.216183085544
 10
-310.8619038388268
 20
380.4875876049827
 10
-310.4704925047366
 20
379.5551757277299
 10
-310.1513109339897
 20
378.4506996219606
 10
-309.9152284721625
 20
377.2117708967838
 10
-309.7702846243424
 20
375.8805797840042
 10
-309.7214152794261
 20
374.5024584003796
210
0.0
220
0.0
230
-1.0
  0
LWPOLYLINE
  5
AC1
330
1E
100
AcDbEntity
  8
STEMPEL
100
AcDbPolyline
 90
        9
 70
   128
 43
0.0
 10
-313.0545681904171
 20
381.9042166450448
 10
-312.5655076471483
 20
381.5777837472873
 10
-312.1058946792473
 20
381.0325147340301
 10
-311.6899448756231
 20
380.2852744909021
 10
-311.3305233463316
 20
379.3591747681245
 10
-311.0387468114441
 20
378.2828593461543
 10
-310.8236397667059
 20
377.0896180985234
 10
-310.6918553605984
 20
375.8163573534476
 10
-310.6474696159335
 20
374.5024584003812
210
0.0
220
0.0
230
-1.0
  0
LWPOLYLINE
  5
AC2
330
1E
100
AcDbEntity
  8
STEMPEL
100
AcDbPolyline
 90
       18
 70
   128
 43
0.0
 10
-320.9176539116378
 20
374.5024584003796
 10
-320.9009854881611
 20
375.8805797840041
 10
-320.8515478409006
 20
377.2117708967838
 10
-320.7710245096401
 20
378.4506996219605
 10
-320.6621576198484
 20
379.5551757277298
 10
-320.5286545028863
 20
380.4875876049826
 10
-320.375061447282
 20
381.216183085544
 10
-320.20660888033
 20
381.7161507241772
 10
-320.0290332521611
 20
381.9704647225939
 10
-319.8483816878141
 20
381.9704647225939
 10
-319.670806059645
 20
381.7161507241772
 10
-319.502353492693
 20
381.216183085544
 10
-319.348760437089
 20
380.4875876049827
 10
-319.2152573201266
 20
379.5551757277299
 10
-319.1063904303349
 20
378.4506996219606
 10
-319.0258670990746
 20
377.2117708967838
 10
-318.9764294518141
 20
375.8805797840042
 10
-318.9597610283373
 20
374.5024584003796
210
0.0
220
0.0
230
-1.0
  0
LINE
  5
AC3
330
1E
100
AcDbEntity
  8
STEMPEL
100
AcDbLine
 10
342.1273411526732
 20
363.0024584003816
 30
0.0
 11
342.1273411526734
 21
362.0024584003813
 31
0.0
  0
LINE
  5
AC4
330
1E
100
AcDbEntity
  8
STEMPEL
100
AcDbLine
 10
342.1273411526732
 20
363.0024584003813
 30
0.0
 11
327.1273411526729
 21
363.0024584003818
 31
0.0
  0
LWPOLYLINE
  5
AC5
330
1E
100
AcDbEntity
  8
STEMPEL
100
AcDbPolyline
 90
       10
 70
   128
 43
0.0
 10
307.3273222703504
 20
362.0024584003814
 10
306.5695726452562
 20
362.0936118823083
 10
305.8348468590805
 20
362.3643026756661
 10
305.1454691830475
 20
362.8063059776749
 10
304.5223860090012
 20
363.4061917416677
 10
303.9845294038897
 20
364.1457327422624
 10
303.5482418684906
 20
365.0024584003817
 10
303.2267797787954
 20
365.9503375404278
 10
303.0299105977313
 20
366.9605693343803
 10
302.9636160957446
 20
368.0024584003819
  0
ELLIPSE
  5
AC6
330
1E
100
AcDbEntity
  8
STEMPEL
100
AcDbEllipse
 10
306.3003866593363
 20
419.5024584003816
 30
0.0
 11
0.0000000000000334
 21
7.499999999999999
 31
0.0
210
0.0
220
0.0
230
-1.0
 40
0.4999999999999926
 41
4.712388980384689
 42
7.853981633974482
  0
ELLIPSE
  5
AC7
330
1E
100
AcDbEntity
  8
STEMPEL
100
AcDbEllipse
 10
307.1684506790253
 20
419.5024584003816
 30
0.0
 11
0.0000000000000334
 21
7.499999999999999
 31
0.0
210
0.0
220
0.0
230
-1.0
 40
0.4999999999999926
 41
4.712388980384689
 42
6.167183451052224
  0
ELLIPSE
  5
AC8
330
1E
100
AcDbEntity
  8
STEMPEL
100
AcDbEllipse
 10
307.1684506790253
 20
394.5024584003832
 30
0.0
 11
-0.0000000000000334
 21
-7.499999999999999
 31
0.0
210
0.0
220
0.0
230
1.0
 40
0.4999999999999926
 41
4.712388980384689
 42
6.167183451052224
  0
ELLIPSE
  5
AC9
330
1E
100
AcDbEntity
  8
STEMPEL
100
AcDbEllipse
 10
306.3003866593363
 20
394.5024584003832
 30
0.0
 11
-0.0000000000000334
 21
-7.499999999999999
 31
0.0
210
0.0
220
0.0
230
1.0
 40
0.4999999999999926
 41
4.712388980384689
 42
7.853981633974482
  0
LINE
  5
ACA
330
1E
100
AcDbEntity
  8
STEMPEL
100
AcDbLine
 10
322.1273411526734
 20
432.0024004330659
 30
0.0
 11
322.1273411526732
 21
368.0024584003818
 31
0.0
  0
LINE
  5
ACB
330
1E
100
AcDbEntity
  8
STEMPEL
100
AcDbLine
 10
321.1273411526732
 20
432.0024004330659
 30
0.0
 11
321.1273411526729
 21
368.0024584003818
 31
0.0
  0
LINE
  5
ACC
330
1E
100
AcDbEntity
  8
STEMPEL
100
AcDbLine
 10
292.1273411526734
 20
452.0024584003808
 30
0.0
 11
237.3889789803241
 21
452.0024584003812
 31
0.0
  0
LINE
  5
ACD
330
1E
100
AcDbEntity
  8
HILF
100
AcDbLine
 10
109.8010080951427
 20
435.0024584003851
 30
0.0
 11
314.9536742102041
 21
435.002458400384
 31
0.0
  0
LINE
  5
ACE
330
1E
100
AcDbEntity
  8
STEMPEL
100
AcDbLine
 10
342.1273411526732
 20
362.0024584003813
 30
0.0
 11
93.12734115267312
 21
362.0024584003825
 31
0.0
  0
LINE
  5
ACF
330
1E
100
AcDbEntity
  8
STEMPEL
100
AcDbLine
 10
292.1273411526734
 20
451.002458400381
 30
0.0
 11
132.1273411526732
 21
451.0024584003821
 31
0.0
  0
HATCH
  5
AD0
330
1E
100
AcDbEntity
  8
SCHRAFF
100
AcDbHatch
 10
0.0
 20
0.0
 30
0.0
210
0.0
220
0.0
230
1.0
  2
ANSI31
 70
     0
 71
     0
 91
        5
 92
        7
 72
     1
 73
     1
 93
       39
 10
132.1273411526734
 20
452.0024584003821
 42
0.0
 10
186.6878265576168
 20
452.0024584003817
 42
0.2679491924311848
 10
187.9868646632936
 20
452.7524584003817
 42
-0.2859076546239628
 10
189.385902768971
 20
453.499121355091
 42
-0.2859076546237491
 10
190.784940874647
 20
452.7524584003814
 42
0.2679491924311245
 10
192.0839789803236
 20
452.0024584003815
 42
0.0
 10
198.5378265576171
 20
452.0024584003815
 42
0.2679491924311449
 10
199.836864663294
 20
452.7524584003814
 42
-0.2859076546238214
 10
201.2359027689702
 20
453.4991213550912
 42
-0.3607372083888889
 10
202.7882715237984
 20
452.3774584003815
 42
0.3419987131196436
 10
203.2723944420744
 20
452.0024584003815
 42
0.0
 10
203.4611436346739
 20
452.0024584003815
 42
0.341998713119513
 10
203.9452665529494
 20
452.3774584003815
 42
-0.3419987131196436
 10
205.3976353077772
 20
453.5024584003815
 42
0.0
 10
212.1273411526734
 20
453.5024584003815
 42
0.0
 10
212.1273411526734
 20
452.5024584003815
 42
0.0
 10
205.3976353077772
 20
452.5024584003817
 42
0.3419987131195064
 10
204.9135123895015
 20
452.1274584003815
 42
-0.3596757619904947
 10
203.3667690383741
 20
451.0054301990527
 42
-0.3596757619905158
 10
201.8200256872467
 20
452.1274584003815
 42
0.3419987131196715
 10
201.3359027689708
 20
452.5024584003817
 42
0.0
 10
201.1359027689705
 20
452.5024584003817
 42
0.267949192431149
 10
200.7028900670783
 20
452.2524584003817
 42
-0.2679491924311241
 10
198.5378265576171
 20
451.0024584003817
 42
0.0
 10
192.0839789803231
 20
451.0024584003817
 42
-0.2679491924310771
 10
189.9189154708622
 20
452.2524584003813
 42
0.2679491924312612
 10
189.48590276897
 20
452.5024584003815
 42
0.0
 10
189.2859027689706
 20
452.5024584003815
 42
0.2679491924313018
 10
188.8528900670781
 20
452.2524584003817
 42
-0.2679491924311406
 10
186.6878265576168
 20
451.0024584003817
 42
0.0
 10
132.1273411526754
 20
451.0024584003821
 42
0.1340385084113211
 10
129.5868414774969
 20
450.3089490134481
 42
0.0
 10
105.6079875845463
 20
436.3212958472633
 42
0.2667503951500854
 10
103.1273411526732
 20
432.0024004330666
 42
0.0
 10
103.1273411526732
 20
427.0024584003821
 42
0.0
 10
102.1273411526732
 20
427.0024584003821
 42
0.0
 10
102.1273411526731
 20
432.0024004330663
 42
-0.2662608607120724
 10
105.0946465309986
 20
437.179538960445
 42
0.0
 10
129.127341152725
 20
451.1986108231182
 42
-0.1316524975848892
 97
        0
 92
        7
 72
     1
 73
     1
 93
        8
 10
102.1273411526731
 20
387.0024584003822
 42
0.0
 10
103.1273411526731
 20
387.0024584003822
 42
0.0
 10
103.127341152673
 20
368.0024584003828
 42
-0.4142135623731166
 10
97.12734115267302
 20
362.0024584003824
 42
0.0
 10
94.12734115267301
 20
362.0024584003824
 42
0.0
 10
94.12734115267312
 20
363.0024584003827
 42
0.0
 10
97.12734115267323
 20
363.0024584003828
 42
0.4142135623730752
 10
102.1273411526729
 20
368.0024584003828
 42
0.0
 97
        0
 92
        7
 72
     0
 73
     1
 93
        4
 10
82.12734115267323
 20
363.0024584003824
 10
86.12734115267313
 20
363.0024584003826
 10
86.12734115267301
 20
362.0024584003825
 10
82.12734115267313
 20
362.0024584003824
 97
        0
 92
        7
 72
     1
 73
     1
 93
        8
 10
321.1273411526729
 20
368.0024584003819
 42
0.0
 10
321.1273411526732
 20
387.0024584003812
 42
0.0
 10
322.1273411526732
 20
387.0024584003812
 42
0.0
 10
322.1273411526732
 20
368.0024584003819
 42
0.4142135623730909
 10
327.1273411526729
 20
363.0024584003818
 42
0.0
 10
342.1273411526732
 20
363.0024584003813
 42
0.0
 10
342.1273411526734
 20
362.0024584003813
 42
0.0
 10
327.1273411526729
 20
362.0024584003814
 42
-0.4142135623731175
 97
        0
 92
        7
 72
     1
 73
     1
 93
       40
 10
235.223915470863
 20
452.2524584003814
 42
0.2679491924310875
 10
234.7909027689707
 20
452.5024584003815
 42
0.0
 10
234.5909027689704
 20
452.5024584003815
 42
0.2679491924312574
 10
234.157890067078
 20
452.2524584003817
 42
-0.267949192431145
 10
231.9928265576169
 20
451.0024584003814
 42
0.0
 10
229.9339789803244
 20
451.0024584003814
 42
-0.2679491924311416
 10
227.7689154708631
 20
452.2524584003817
 42
0.2679491924310647
 10
227.3359027689711
 20
452.5024584003815
 42
0.0
 10
227.1359027689705
 20
452.5024584003815
 42
0.267949192430994
 10
226.7028900670787
 20
452.2524584003814
 42
-0.2679491924311175
 10
224.5378265576176
 20
451.0024584003814
 42
0.0
 10
218.0839789803234
 20
451.0024584003814
 42
-0.2679491924310871
 10
215.9189154708625
 20
452.2524584003813
 42
0.2679491924312534
 10
215.4859027689702
 20
452.5024584003815
 42
0.0
 10
212.1273411526734
 20
452.5024584003815
 42
0.0
 10
212.1273411526734
 20
453.5024584003815
 42
0.0
 10
215.4859027689707
 20
453.5024584003815
 42
-0.2679491924310706
 10
216.784940874647
 20
452.7524584003814
 42
0.2679491924311357
 10
218.0839789803238
 20
452.0024584003815
 42
0.0
 10
224.5378265576176
 20
452.0024584003815
 42
0.2679491924310962
 10
225.8368646632942
 20
452.7524584003814
 42
-0.2859076546238522
 10
227.2359027689707
 20
453.499121355091
 42
-0.2859076546238809
 10
228.6349408746476
 20
452.7524584003814
 42
0.2679491924311237
 10
229.9339789803242
 20
452.0024584003815
 42
0.0
 10
231.9928265576166
 20
452.0024584003815
 42
0.2679491924311723
 10
233.2918646632937
 20
452.7524584003814
 42
-0.2859076546238861
 10
234.6909027689704
 20
453.499121355091
 42
-0.2859076546239122
 10
236.0899408746473
 20
452.7524584003814
 42
0.267949192431137
 10
237.3889789803239
 20
452.0024584003812
 42
0.0
 10
292.1273411526734
 20
452.0024584003808
 42
-0.1316524975836561
 10
295.1273411525972
 20
451.1986108231316
 42
0.0
 10
319.1600357743781
 20
437.1795389604266
 42
-0.2662608607105233
 10
322.1273411526734
 20
432.0024004330659
 42
0.0
 10
322.1273411526734
 20
427.0024584003812
 42
0.0
 10
321.1273411526732
 20
427.0024584003812
 42
0.0
 10
321.1273411526732
 20
432.0024004330659
 42
0.2667503951500889
 10
318.6466947208003
 20
436.3212958472622
 42
0.0
 10
294.6678408278595
 20
450.3089490134415
 42
0.1340385084119114
 10
292.1273411526734
 20
451.002458400381
 42
0.0
 10
237.3889789803241
 20
451.0024584003812
 42
-0.2679491924311331
 97
        0
 75
     0
 76
     1
 52
0.0
 41
20.0
 77
     0
 78
     1
 53
134.9999999999997
 43
450.5708127073463
 44
-54.82389194813276
 45
1.767766952966376
 46
1.767766952966361
 79
     0
 47
0.2376111440341236
 98
        5
 10
150.0172634909473
 20
451.7972811832998
 10
102.3365491789556
 20
378.132986304895
 10
83.80667327928643
 20
362.785065273308
 10
335.254350255153
 20
362.3613249421815
 10
284.8360396577437
 20
451.7031174630325
  0
TEXT
  5
AF7
330
1E
100
AcDbEntity
  8
VOLL
100
AcDbText
 10
473.146110428583
 20
286.9997507822909
 30
0.0
 40
1.8
  1

 50
270.0
  7
GREEKS
100
AcDbText
  0
LINE
  5
AF8
330
1E
100
AcDbEntity
  8
STEMPEL
100
AcDbLine
 10
93.12734115267312
 20
351.6159584003826
 30
0.0
 11
93.12734115267312
 21
363.0024584003826
 31
0.0
  0
LINE
  5
AF9
330
1E
100
AcDbEntity
  8
STEMPEL
100
AcDbLine
 10
87.12734115267313
 20
363.0024584003826
 30
0.0
 11
87.12734115267313
 21
351.6159584003826
 31
0.0
  0
LINE
  5
AFA
330
1E
100
AcDbEntity
  8
STEMPEL
100
AcDbLine
 10
92.51384115267313
 20
351.0024584003826
 30
0.0
 11
93.12734115267312
 21
351.6159584003826
 31
0.0
  0
LINE
  5
AFB
330
1E
100
AcDbEntity
  8
STEMPEL
100
AcDbLine
 10
87.12734115267313
 20
351.6159584003826
 30
0.0
 11
87.74084115267312
 21
351.0024584003826
 31
0.0
  0
ARC
  5
AFC
330
1E
100
AcDbEntity
  8
STEMPEL
100
AcDbCircle
 10
83.57734115267311
 20
363.5524584003826
 30
0.0
 40
0.5500000000000003
100
AcDbArc
 50
109.9999999999995
 51
270.0
  0
ARC
  5
AFD
330
1E
100
AcDbEntity
  8
STEMPEL
100
AcDbCircle
 10
96.67734115267315
 20
363.5524584003826
 30
0.0
 40
0.5500000000000009
100
AcDbArc
 50
270.0
 51
70.00000000000047
  0
LINE
  5
AFE
330
1E
100
AcDbEntity
  8
STEMPEL
100
AcDbLine
 10
96.86545223150222
 20
364.0692893418149
 30
0.0
 11
95.90084384456934
 21
364.420378082382
 31
0.0
  0
LINE
  5
AFF
330
1E
100
AcDbEntity
  8
STEMPEL
100
AcDbLine
 10
84.35383846077684
 20
364.420378082382
 30
0.0
 11
83.38923007384403
 21
364.0692893418149
 31
0.0
  0
LINE
  5
B00
330
1E
100
AcDbEntity
  8
STEMPEL
100
AcDbLine
 10
93.12734115267307
 20
351.6159584003826
 30
0.0
 11
87.12734115267307
 21
351.6159584003826
 31
0.0
  0
LINE
  5
B01
330
1E
100
AcDbEntity
  8
STEMPEL
100
AcDbLine
 10
92.51384115267313
 20
351.0024584003826
 30
0.0
 11
87.74084115267312
 21
351.0024584003826
 31
0.0
  0
LINE
  5
B02
330
1E
100
AcDbEntity
  8
STEMPEL
100
AcDbLine
 10
95.12734115267312
 20
369.6024584003827
 30
0.0
 11
85.12734115267312
 21
369.6024584003827
 31
0.0
  0
LINE
  5
B03
330
1E
100
AcDbEntity
  8
STEMPEL
100
AcDbLine
 10
95.90084384456941
 20
369.3951989787457
 30
0.0
 11
95.90084384456934
 21
364.420378082382
 31
0.0
  0
LINE
  5
B04
330
1E
100
AcDbEntity
  8
STEMPEL
100
AcDbLine
 10
93.01409249862127
 20
369.3951989787457
 30
0.0
 11
93.01409249862127
 21
364.420378082382
 31
0.0
  0
LINE
  5
B05
330
1E
100
AcDbEntity
  8
STEMPEL
100
AcDbLine
 10
87.24058980672499
 20
369.3951989787457
 30
0.0
 11
87.24058980672499
 21
364.420378082382
 31
0.0
  0
LINE
  5
B06
330
1E
100
AcDbEntity
  8
STEMPEL
100
AcDbLine
 10
84.35383846077684
 20
369.3951989787457
 30
0.0
 11
84.35383846077684
 21
364.420378082382
 31
0.0
  0
LINE
  5
B07
330
1E
100
AcDbEntity
  8
STEMPEL
100
AcDbLine
 10
96.67734115267315
 20
363.0024584003826
 30
0.0
 11
83.57734115267311
 21
363.0024584003826
 31
0.0
  0
LINE
  5
B08
330
1E
100
AcDbEntity
  8
STEMPEL
100
AcDbLine
 10
96.86545223150222
 20
364.0692893418149
 30
0.0
 11
83.38923007384403
 21
364.0692893418149
 31
0.0
  0
LINE
  5
B09
330
1E
100
AcDbEntity
  8
HILF
100
AcDbLine
 10
92.51384115267313
 20
360.0024584003826
 30
0.0
 11
92.51384115267313
 21
351.0024584003826
 31
0.0
  0
LINE
  5
B0A
330
1E
100
AcDbEntity
  8
HILF
100
AcDbLine
 10
92.51384115267313
 20
360.0024584003826
 30
0.0
 11
93.12734115267312
 21
363.0024584003826
 31
0.0
  0
LINE
  5
B0B
330
1E
100
AcDbEntity
  8
HILF
100
AcDbLine
 10
87.12734115267313
 20
360.0024584003826
 30
0.0
 11
93.12734115267312
 21
360.0024584003826
 31
0.0
  0
LINE
  5
B0C
330
1E
100
AcDbEntity
  8
HILF
100
AcDbLine
 10
87.74084115267312
 20
360.0024584003826
 30
0.0
 11
87.74084115267312
 21
351.0024584003826
 31
0.0
  0
LINE
  5
B0D
330
1E
100
AcDbEntity
  8
HILF
100
AcDbLine
 10
87.74084115267312
 20
360.0024584003826
 30
0.0
 11
87.12734115267313
 21
363.0024584003826
 31
0.0
  0
ARC
  5
B10
330
1E
100
AcDbEntity
  8
STEMPEL
100
AcDbCircle
 10
94.45746817159534
 20
364.4729212618595
 30
0.0
 40
5.129537138523076
100
AcDbArc
 50
73.65710669401657
 51
106.3428933059834
  0
LINE
  5
B11
330
1E
100
AcDbEntity
  8
STEMPEL
100
AcDbLine
 10
95.12734115267312
 20
369.6024584003827
 30
0.0
 11
95.90084384456941
 21
369.3951989787457
 31
0.0
  0
LINE
  5
B12
330
1E
100
AcDbEntity
  8
STEMPEL
100
AcDbLine
 10
85.12734115267312
 20
369.6024584003827
 30
0.0
 11
84.35383846077684
 21
369.3951989787457
 31
0.0
  0
ARC
  5
B13
330
1E
100
AcDbEntity
  8
STEMPEL
100
AcDbCircle
 10
85.79721413375091
 20
364.4729212618595
 30
0.0
 40
5.129537138523076
100
AcDbArc
 50
73.65710669401657
 51
106.3428933059834
  0
ARC
  5
B14
330
1E
100
AcDbEntity
  8
STEMPEL
100
AcDbCircle
 10
90.12734115267312
 20
349.3951989787457
 30
0.0
 40
20.20725942163691
100
AcDbArc
 50
81.78678929826059
 51
98.2132107017394
  0
ARC
  5
B15
330
1E
100
AcDbEntity
  8
HILF
100
AcDbCircle
 10
94.45746817159534
 20
360.859985076678
 30
0.0
 40
3.841839622940954
100
AcDbArc
 50
67.93247218100944
 51
112.0675278189905
  0
ARC
  5
B16
330
1E
100
AcDbEntity
  8
HILF
100
AcDbCircle
 10
85.79721413375091
 20
360.8611496385663
 30
0.0
 40
3.840760399790701
100
AcDbArc
 50
67.92594526323878
 51
112.0740547367612
  0
ARC
  5
B17
330
1E
100
AcDbEntity
  8
HILF
100
AcDbCircle
 10
90.12734115267312
 20
349.7611663731565
 30
0.0
 40
14.94074366520046
100
AcDbArc
 50
78.85962783889434
 51
101.1403721611056
  0
LINE
  5
B18
330
1E
100
AcDbEntity
  8
STEMPEL
100
AcDbLine
 10
87.12734115267313
 20
362.0024584003825
 30
0.0
 11
82.127341152673
 21
362.0024584003825
 31
0.0
  0
LINE
  5
B19
330
1E
100
AcDbEntity
  8
STEMPEL
100
AcDbLine
 10
87.12734115267307
 20
362.0024584003823
 30
0.0
 11
85.12734115267312
 21
362.0024584003824
 31
0.0
  0
HATCH
  5
B36
330
1E
100
AcDbEntity
  8
SCHRAFF
100
AcDbHatch
 10
0.0
 20
0.0
 30
0.0
210
0.0
220
0.0
230
1.0
  2
_USER
 70
     0
 71
     0
 91
        4
 92
        7
 72
     0
 73
     1
 93
        9
 10
95.12734115267319
 20
362.0024584003824
 10
93.12734115267318
 20
362.0024584003825
 10
93.12734115267312
 20
351.6159584003826
 10
93.12734115267312
 20
349.2126105647728
 10
92.12734115267313
 20
349.2126105647728
 10
92.12734115267318
 20
347.9414274025111
 10
90.12734115267306
 20
347.4055290176488
 10
90.12734115267301
 20
347.0024584003825
 10
95.12734115267312
 20
347.0024584003826
 97
        0
 92
       23
 72
     0
 73
     1
 93
        5
 10
93.12734115267302
 20
351.6159584003825
 10
92.51384115267313
 20
351.0024584003826
 10
92.12734115267318
 20
351.0024584003826
 10
92.12734115267318
 20
349.2126105647728
 10
93.12734115267318
 20
349.2126105647728
 97
        0
 92
        7
 72
     0
 73
     1
 93
        9
 10
88.12734115267312
 20
349.212610564773
 10
87.12734115267313
 20
349.212610564773
 10
87.12734115267307
 20
351.6159584003826
 10
87.12734115267313
 20
362.0024584003824
 10
85.12734115267312
 20
362.0024584003824
 10
85.12734115267319
 20
347.0024584003825
 10
90.12734115267319
 20
347.0024584003826
 10
90.12734115267312
 20
347.4055290176488
 10
88.12734115267307
 20
347.9414274025111
 97
        0
 92
       23
 72
     0
 73
     1
 93
        5
 10
88.12734115267335
 20
351.0024584003827
 10
87.74084115267305
 20
351.0024584003826
 10
87.12734115267313
 20
351.6159584003827
 10
87.12734115267307
 20
349.2126105647729
 10
88.12734115267312
 20
349.2126105647729
 97
        0
 75
     0
 76
     0
 52
45.0
 41
1.0
 77
     0
 78
     1
 53
45.0
 43
-398.1262826697606
 44
8.309006308732421
 45
-0.7071067811865475
 46
0.7071067811865476
 79
     0
 47
0.0420521955660228
 98
        4
 10
95.0765838120356
 20
357.0414569442498
 10
92.8469505091876
 20
350.1448966266893
 10
87.25183481014807
 20
348.210495374624
 10
87.63045196508125
 20
349.8505309151012
  0
ARC
  5
B37
330
1E
100
AcDbEntity
  8
HILF
100
AcDbCircle
 10
273.1273411526732
 20
349.7611663731571
 30
0.0
 40
14.94074366520046
100
AcDbArc
 50
78.85962783889434
 51
88.16153752705771
  0
ARC
  5
B39
330
1E
100
AcDbEntity
  8
HILF
100
AcDbCircle
 10
277.4574681715954
 20
360.8599850766786
 30
0.0
 40
3.841839622940954
100
AcDbArc
 50
67.93247218100944
 51
112.0675278189905
  0
ARC
  5
B3A
330
1E
100
AcDbEntity
  8
STEMPEL
100
AcDbCircle
 10
273.1273411526732
 20
349.3951989787463
 30
0.0
 40
20.20725942163691
100
AcDbArc
 50
81.78678929826059
 51
90.40326439207252
  0
LINE
  5
B3D
330
1E
100
AcDbEntity
  8
STEMPEL
100
AcDbLine
 10
278.1273411526732
 20
369.6024584003832
 30
0.0
 11
278.9008438445695
 21
369.3951989787463
 31
0.0
  0
ARC
  5
B3E
330
1E
100
AcDbEntity
  8
STEMPEL
100
AcDbCircle
 10
277.4574681715954
 20
364.4729212618601
 30
0.0
 40
5.129537138523076
100
AcDbArc
 50
73.65710669401657
 51
106.3428933059834
  0
LINE
  5
B3F
330
1E
100
AcDbEntity
  8
STEMPEL
100
AcDbLine
 10
279.8654522315023
 20
364.0692893418155
 30
0.0
 11
273.8970943481326
 21
364.0692893418155
 31
0.0
  0
LINE
  5
B40
330
1E
100
AcDbEntity
  8
STEMPEL
100
AcDbLine
 10
279.6773411526731
 20
363.0024584003832
 30
0.0
 11
274.6231408228584
 21
363.0024584003832
 31
0.0
  0
LINE
  5
B43
330
1E
100
AcDbEntity
  8
STEMPEL
100
AcDbLine
 10
276.0140924986213
 20
369.3951989787463
 30
0.0
 11
276.0140924986213
 21
364.4203780823826
 31
0.0
  0
LINE
  5
B44
330
1E
100
AcDbEntity
  8
STEMPEL
100
AcDbLine
 10
278.9008438445695
 20
369.3951989787463
 30
0.0
 11
278.9008438445695
 21
364.4203780823826
 31
0.0
  0
LINE
  5
B45
330
1E
100
AcDbEntity
  8
STEMPEL
100
AcDbLine
 10
278.1273411526732
 20
369.6024584003832
 30
0.0
 11
272.9851177467543
 21
369.6024584003832
 31
0.0
  0
LINE
  5
B47
330
1E
100
AcDbEntity
  8
STEMPEL
100
AcDbLine
 10
279.8654522315023
 20
364.0692893418155
 30
0.0
 11
278.9008438445695
 21
364.4203780823826
 31
0.0
  0
ARC
  5
B48
330
1E
100
AcDbEntity
  8
STEMPEL
100
AcDbCircle
 10
279.6773411526731
 20
363.5524584003832
 30
0.0
 40
0.5500000000000009
100
AcDbArc
 50
270.0
 51
70.00000000000047
  0
DIMENSION
  5
B4A
330
1E
100
AcDbEntity
  8
BEM
100
AcDbDimension
  2
*D1
 10
248.627341152673
 20
286.3681138630677
 30
0.0
 11
212.127341152673
 21
292.8681138630677
 31
0.0
 70
    32
 71
     5
 42
72.99999999999989
  3
Standard
100
AcDbAlignedDimension
 13
175.627341152673
 23
310.450065268892
 33
0.0
 14
248.627341152673
 24
310.450065268893
 34
0.0
100
AcDbRotatedDimension
1001
ACAD
1000
DSTYLE
1002
{
1070
    40
1040
2.0
1070
    41
1040
3.5
1070
    42
1040
1.0
1070
    43
1040
7.0
1070
    44
1040
1.0
1070
    73
1070
     0
1070
    74
1070
     0
1070
    77
1070
     1
1070
    78
1070
     8
1070
    79
1070
     2
1070
   140
1040
3.5
1070
   141
1040
1.5
1070
   146
1040
0.5142857142857144
1070
   147
1040
1.5
1070
   172
1070
     1
1070
   178
1070
     1
1070
   179
1070
     2
1070
   271
1070
     2
1070
   272
1070
     2
1070
   284
1070
     8
1070
   285
1070
     8
1070
   286
1070
     8
1002
}
  0
DIMENSION
  5
B73
330
1E
100
AcDbEntity
  8
BEM
100
AcDbDimension
  2
*D2
 10
102.1257163564558
 20
271.5601513244771
 30
0.0
 11
212.1273411526732
 21
278.0601513244771
 31
0.0
 70
    32
  1
%%c<>
 71
     5
 42
220.0032495924348
  3
Standard
100
AcDbAlignedDimension
 13
322.1289659488907
 23
345.5024584003832
 33
0.0
 14
102.1257163564558
 24
345.5024584003825
 34
0.0
100
AcDbRotatedDimension
1001
ACAD
1000
DSTYLE
1002
{
1070
   282
1070
     1
1070
    76
1070
     1
1070
    40
1040
2.0
1070
    41
1040
3.5
1070
    42
1040
1.0
1070
    43
1040
7.0
1070
    44
1040
1.0
1070
    73
1070
     0
1070
    74
1070
     0
1070
    77
1070
     1
1070
    78
1070
     8
1070
    79
1070
     2
1070
   140
1040
3.5
1070
   141
1040
1.5
1070
   146
1040
0.5142857142857144
1070
   147
1040
1.5
1070
   172
1070
     1
1070
   178
1070
     1
1070
   179
1070
     2
1070
   271
1070
     2
1070
   272
1070
     2
1070
   284
1070
     8
1070
   285
1070
     8
1070
   286
1070
     8
1002
}
  0
DIMENSION
  5
B98
330
1E
100
AcDbEntity
  8
BEM
100
AcDbDimension
  2
*D3
 10
65.84983232558631
 20
345.5024584003824
 30
0.0
 11
59.34983232558625
 21
325.5024584003824
 31
0.0
 70
    32
 71
     5
 42
39.99999999999989
  3
Standard
100
AcDbAlignedDimension
 13
176.0602006652506
 23
305.5024584003825
 33
0.0
 14
77.12734115267313
 24
345.5024584003824
 34
0.0
 50
90.0
100
AcDbRotatedDimension
1001
ACAD
1000
DSTYLE
1002
{
1070
    40
1040
2.0
1070
    41
1040
3.5
1070
    42
1040
1.0
1070
    43
1040
7.0
1070
    44
1040
1.0
1070
    73
1070
     0
1070
    74
1070
     0
1070
    77
1070
     1
1070
    78
1070
     8
1070
    79
1070
     2
1070
   140
1040
3.5
1070
   141
1040
1.5
1070
   146
1040
0.5142857142857144
1070
   147
1040
1.5
1070
   172
1070
     1
1070
   178
1070
     1
1070
   179
1070
     2
1070
   271
1070
     2
1070
   272
1070
     2
1070
   284
1070
     8
1070
   285
1070
     8
1070
   286
1070
     8
1002
}
  0
DIMENSION
  5
BA5
330
1E
100
AcDbEntity
  8
BEM
100
AcDbDimension
  2
*D4
 10
52.3983608611116
 20
362.0024584003825
 30
0.0
 11
45.89836086111154
 21
354.5024584003825
 31
0.0
 70
    32
 71
     5
 42
14.99999999999994
  3
Standard
100
AcDbAlignedDimension
 13
77.12734115267318
 23
347.0024584003825
 33
0.0
 14
82.12734115267313
 24
362.0024584003825
 34
0.0
 50
90.0
100
AcDbRotatedDimension
1001
ACAD
1000
DSTYLE
1002
{
1070
    40
1040
2.0
1070
    41
1040
3.5
1070
    42
1040
1.0
1070
    43
1040
7.0
1070
    44
1040
1.0
1070
    73
1070
     0
1070
    74
1070
     0
1070
    77
1070
     1
1070
    78
1070
     8
1070
    79
1070
     2
1070
   140
1040
3.5
1070
   141
1040
1.5
1070
   146
1040
0.5142857142857144
1070
   147
1040
1.5
1070
   172
1070
     1
1070
   178
1070
     1
1070
   179
1070
     2
1070
   271
1070
     2
1070
   272
1070
     2
1070
   284
1070
     8
1070
   285
1070
     8
1070
   286
1070
     8
1002
}
  0
DIMENSION
  5
BB4
330
1E
100
AcDbEntity
  8
BEM
100
AcDbDimension
  2
*D5
 10
52.39836086111165
 20
452.0024584003819
 30
0.0
 11
45.89836086111158
 21
407.0024584003822
 31
0.0
 70
    32
 71
     5
 42
89.99999999999948
  3
Standard
100
AcDbAlignedDimension
 13
82.12734115267313
 23
362.0024584003825
 33
0.0
 14
132.1273411526734
 24
452.0024584003818
 34
0.0
 50
90.0
100
AcDbRotatedDimension
1001
ACAD
1000
DSTYLE
1002
{
1070
   279
1070
     1
1070
    40
1040
2.0
1070
    41
1040
3.5
1070
    42
1040
1.0
1070
    43
1040
7.0
1070
    44
1040
1.0
1070
    73
1070
     0
1070
    74
1070
     0
1070
    77
1070
     1
1070
    78
1070
     8
1070
    79
1070
     2
1070
   140
1040
3.5
1070
   141
1040
1.5
1070
   146
1040
0.5142857142857144
1070
   147
1040
1.5
1070
   172
1070
     1
1070
   178
1070
     1
1070
   179
1070
     2
1070
   271
1070
     2
1070
   272
1070
     2
1070
   284
1070
     8
1070
   285
1070
     8
1070
   286
1070
     8
1002
}
  0
DIMENSION
  5
BC1
330
1E
100
AcDbEntity
  8
BEM
100
AcDbDimension
  2
*D6
 10
322.1273411526734
 20
462.2400326061219
 30
0.0
 11
212.1273411526733
 21
468.7400326061219
 31
0.0
 70
    32
  1
%%c<>
 71
     5
 42
220.0000000000003
  3
Standard
100
AcDbAlignedDimension
 13
102.1273411526731
 23
432.0024004330668
 33
0.0
 14
322.1273411526734
 24
432.0024004330659
 34
0.0
100
AcDbRotatedDimension
1001
ACAD
1000
DSTYLE
1002
{
1070
    40
1040
2.0
1070
    41
1040
3.5
1070
    42
1040
1.0
1070
    43
1040
7.0
1070
    44
1040
1.0
1070
    73
1070
     0
1070
    74
1070
     0
1070
    77
1070
     1
1070
    78
1070
     8
1070
    79
1070
     2
1070
   140
1040
3.5
1070
   141
1040
1.5
1070
   146
1040
0.5142857142857144
1070
   147
1040
1.5
1070
   172
1070
     1
1070
   178
1070
     1
1070
   179
1070
     2
1070
   271
1070
     2
1070
   272
1070
     2
1070
   284
1070
     8
1070
   285
1070
     8
1070
   286
1070
     8
1002
}
  0
DIMENSION
  5
BCE
330
1E
100
AcDbEntity
  8
BEM
100
AcDbDimension
  2
*D7
 10
342.1273411526732
 20
477.2531658135084
 30
0.0
 11
212.1273411526732
 21
483.7531658135084
 31
0.0
 70
    32
  1
%%c<>
 71
     5
 42
260.0
  3
Standard
100
AcDbAlignedDimension
 13
82.12734115267323
 23
363.0024584003824
 33
0.0
 14
342.1273411526732
 24
363.0024584003813
 34
0.0
100
AcDbRotatedDimension
1001
ACAD
1000
DSTYLE
1002
{
1070
    40
1040
2.0
1070
    41
1040
3.5
1070
    42
1040
1.0
1070
    43
1040
7.0
1070
    44
1040
1.0
1070
    73
1070
     0
1070
    74
1070
     0
1070
    77
1070
     1
1070
    78
1070
     8
1070
    79
1070
     2
1070
   140
1040
3.5
1070
   141
1040
1.5
1070
   146
1040
0.5142857142857144
1070
   147
1040
1.5
1070
   172
1070
     1
1070
   178
1070
     1
1070
   179
1070
     2
1070
   271
1070
     2
1070
   272
1070
     2
1070
   284
1070
     8
1070
   285
1070
     8
1070
   286
1070
     8
1002
}
  0
LINE
  5
C30
330
1E
100
AcDbEntity
  8
TEXT
 62
     2
100
AcDbLine
 10
274.4207254919659
 20
479.1807459548941
 30
0.0
 11
283.4119950899374
 21
511.6776583228791
 31
0.0
  0
LINE
  5
C31
330
1E
100
AcDbEntity
  8
TEXT
 62
     2
100
AcDbLine
 10
270.2668807620629
 20
464.1676127475077
 30
0.0
 11
273.3540769115321
 21
475.3255856721227
 31
0.0
  0
ENDSEC
  0
SECTION
  2
OBJECTS
  0
DICTIONARY
  5
C
330
0
100
AcDbDictionary
281
     1
  3
ACAD_COLOR
350
DF
  3
ACAD_GROUP
350
D
  3
ACAD_LAYOUT
350
19
  3
ACAD_MATERIAL
350
DE
  3
ACAD_MLINESTYLE
350
16
  3
ACAD_PLOTSETTINGS
350
18
  3
ACAD_PLOTSTYLENAME
350
E
  3
AcDbVariableDictionary
350
EA
  0
DICTIONARY
  5
A0
330
1E
100
AcDbDictionary
280
     1
281
     1
  3
ACAD_LAYOUTSELFREF
360
D4
  0
DICTIONARY
  5
A2
330
1A
100
AcDbDictionary
280
     1
281
     1
  3
ACAD_LAYOUTSELFREF
360
D3
  0
DICTIONARY
  5
DF
102
{ACAD_REACTORS
330
C
102
}
330
C
100
AcDbDictionary
281
     1
  0
DICTIONARY
  5
D
102
{ACAD_REACTORS
330
C
102
}
330
C
100
AcDbDictionary
281
     1
  0
DICTIONARY
  5
19
102
{ACAD_REACTORS
330
C
102
}
330
C
100
AcDbDictionary
281
     1
  3
Layout1
350
1D
  3
Model
350
21
  0
DICTIONARY
  5
DE
102
{ACAD_REACTORS
330
C
102
}
330
C
100
AcDbDictionary
281
     1
  0
DICTIONARY
  5
16
102
{ACAD_REACTORS
330
C
102
}
330
C
100
AcDbDictionary
281
     1
  3
Standard
350
17
  0
DICTIONARY
  5
18
102
{ACAD_REACTORS
330
C
102
}
330
C
100
AcDbDictionary
281
     1
  0
ACDBDICTIONARYWDFLT
  5
E
102
{ACAD_REACTORS
330
C
102
}
330
C
100
AcDbDictionary
281
     1
  3
Normal
350
F
100
AcDbDictionaryWithDefault
340
F
  0
DICTIONARY
  5
EA
102
{ACAD_REACTORS
330
C
102
}
330
C
100
AcDbDictionary
281
     1
  3
DIMASSOC
350
EB
  3
PROJECTNAME
350
EC
  0
XRECORD
  5
D4
102
{ACAD_REACTORS
330
A0
102
}
330
A0
100
AcDbXrecord
280
     1
340
1E
  0
XRECORD
  5
D3
102
{ACAD_REACTORS
330
A2
102
}
330
A2
100
AcDbXrecord
280
     1
340
1A
  0
LAYOUT
  5
1D
102
{ACAD_REACTORS
330
19
102
}
330
19
100
AcDbPlotSettings
  1

  2
\\NT_WORK01\HP LaserJet 5000 PCL 6
  4

  6

 40
0.0
 41
0.0
 42
0.0
 43
0.0
 44
0.0
 45
0.0
 46
0.0
 47
0.0
 48
0.0
 49
0.0
140
0.0
141
0.0
142
1.0
143
1.0
 70
   688
 72
     0
 73
     0
 74
     5
  7

 75
    16
147
1.0
 76
     0
 77
     2
 78
   300
148
0.0
149
0.0
100
AcDbLayout
  1
Layout1
 70
     0
 71
     1
 10
0.0
 20
0.0
 11
12.0
 21
9.0
 12
0.0
 22
0.0
 32
0.0
 14
1.000000000000000E+20
 24
1.000000000000000E+20
 34
1.000000000000000E+20
 15
-1.000000000000000E+20
 25
-1.000000000000000E+20
 35
-1.000000000000000E+20
146
0.0
 13
0.0
 23
0.0
 33
0.0
 16
1.0
 26
0.0
 36
0.0
 17
0.0
 27
1.0
 37
0.0
 76
     0
330
1A
  0
LAYOUT
  5
21
102
{ACAD_REACTORS
330
19
102
}
330
19
100
AcDbPlotSettings
  1

  2
none_device
  4
Letter_(8.50_x_11.00_Inches)
  6

 40
6.349999904632568
 41
6.349999904632568
 42
6.350006103515625
 43
6.350006103515625
 44
215.8999938964844
 45
279.3999938964844
 46
0.0
 47
0.0
 48
0.0
 49
0.0
140
0.0
141
0.0
142
1.0
143
1.0
 70
 11952
 72
     0
 73
     1
 74
     0
  7

 75
     0
147
1.0
 76
     0
 77
     2
 78
   300
148
2209.800000000002
149
0.0
100
AcDbLayout
  1
Model
 70
     1
 71
     0
 10
0.0
 20
0.0
 11
12.0
 21
9.0
 12
0.0
 22
0.0
 32
0.0
 14
0.0
 24
0.0
 34
0.0
 15
0.0
 25
0.0
 35
0.0
146
0.0
 13
0.0
 23
0.0
 33
0.0
 16
1.0
 26
0.0
 36
0.0
 17
0.0
 27
1.0
 37
0.0
 76
     0
330
1E
  0
MLINESTYLE
  5
17
102
{ACAD_REACTORS
330
16
102
}
330
16
100
AcDbMlineStyle
  2
STANDARD
 70
     0
  3

 62
   256
 51
90.0
 52
90.0
 71
     2
 49
0.5
 62
   256
  6
BYLAYER
 49
-0.5
 62
   256
  6
BYLAYER
  0
ACDBPLACEHOLDER
  5
F
102
{ACAD_REACTORS
330
E
102
}
330
E
  0
DICTIONARYVAR
  5
EB
102
{ACAD_REACTORS
330
EA
102
}
330
EA
100
DictionaryVariables
280
     0
  1
1
  0
DICTIONARYVAR
  5
EC
102
{ACAD_REACTORS
330
EA
102
}
330
EA
100
DictionaryVariables
280
     0
  1

  0
ENDSEC
  0
EOF
