  0
SECTION
  2
HEADER
  9
$ACADVER
  1
AC1018
  9
$ACADMAINTVER
 70
     2
  9
$DWGCODEPAGE
  3
ANSI_1252
  9
$INSBASE
 10
0.0
 20
0.0
 30
0.0
  9
$EXTMIN
 10
-0.0015802182531388
 20
-0.0600112656982219
 30
-0.0000000000000129
  9
$EXTMAX
 10
594.0257222805439
 20
840.0028407372207
 30
0.0000000000000023
  9
$LIMMIN
 10
0.0
 20
0.0000000000000364
  9
$LIMMAX
 10
594.0
 20
840.0000000000002
  9
$ORTHOMODE
 70
     1
  9
$REGENMODE
 70
     1
  9
$FILLMODE
 70
     1
  9
$QTEXTMODE
 70
     0
  9
$MIRRTEXT
 70
     1
  9
$LTSCALE
 40
20.0
  9
$ATTMODE
 70
     1
  9
$TEXTSIZE
 40
3.5
  9
$TRACEWID
 40
1.0
  9
$TEXTSTYLE
  7
STANDARD
  9
$CLAYER
  8
VOLL
  9
$CELTYPE
  6
ByLayer
  9
$CECOLOR
 62
   256
  9
$CELTSCALE
 40
1.0
  9
$DISPSILH
 70
     0
  9
$DIMSCALE
 40
2.0
  9
$DIMASZ
 40
3.5
  9
$DIMEXO
 40
1.0
  9
$DIMDLI
 40
7.0
  9
$DIMRND
 40
0.0
  9
$DIMDLE
 40
0.0
  9
$DIMEXE
 40
1.0
  9
$DIMTP
 40
3.0
  9
$DIMTM
 40
3.0
  9
$DIMTXT
 40
3.5
  9
$DIMCEN
 40
1.5
  9
$DIMTSZ
 40
0.0
  9
$DIMTOL
 70
     0
  9
$DIMLIM
 70
     0
  9
$DIMTIH
 70
     0
  9
$DIMTOH
 70
     0
  9
$DIMSE1
 70
     0
  9
$DIMSE2
 70
     0
  9
$DIMTAD
 70
     1
  9
$DIMZIN
 70
     8
  9
$DIMBLK
  1

  9
$DIMASO
 70
     1
  9
$DIMSHO
 70
     0
  9
$DIMPOST
  1

  9
$DIMAPOST
  1

  9
$DIMALT
 70
     0
  9
$DIMALTD
 70
     2
  9
$DIMALTF
 40
25.4
  9
$DIMLFAC
 40
1.0
  9
$DIMTOFL
 70
     1
  9
$DIMTVP
 40
0.5714285714285714
  9
$DIMTIX
 70
     0
  9
$DIMSOXD
 70
     0
  9
$DIMSAH
 70
     0
  9
$DIMBLK1
  1

  9
$DIMBLK2
  1

  9
$DIMSTYLE
  2
Standard
  9
$DIMCLRD
 70
     0
  9
$DIMCLRE
 70
     0
  9
$DIMCLRT
 70
     1
  9
$DIMTFAC
 40
0.5
  9
$DIMGAP
 40
1.5
  9
$DIMJUST
 70
     0
  9
$DIMSD1
 70
     0
  9
$DIMSD2
 70
     0
  9
$DIMTOLJ
 70
     1
  9
$DIMTZIN
 70
     8
  9
$DIMALTZ
 70
     8
  9
$DIMALTTZ
 70
     8
  9
$DIMUPT
 70
     0
  9
$DIMDEC
 70
     2
  9
$DIMTDEC
 70
     2
  9
$DIMALTU
 70
     2
  9
$DIMALTTD
 70
     2
  9
$DIMTXSTY
  7
STANDARD
  9
$DIMAUNIT
 70
     0
  9
$DIMADEC
 70
     2
  9
$DIMALTRND
 40
0.0
  9
$DIMAZIN
 70
     2
  9
$DIMDSEP
 70
    46
  9
$DIMATFIT
 70
     3
  9
$DIMFRAC
 70
     0
  9
$DIMLDRBLK
  1

  9
$DIMLUNIT
 70
     2
  9
$DIMLWD
 70
    -2
  9
$DIMLWE
 70
    -2
  9
$DIMTMOVE
 70
     0
  9
$LUNITS
 70
     2
  9
$LUPREC
 70
     2
  9
$SKETCHINC
 40
1.0
  9
$FILLETRAD
 40
12.0
  9
$AUNITS
 70
     0
  9
$AUPREC
 70
     0
  9
$MENU
  1
ACAD
  9
$ELEVATION
 40
0.0
  9
$PELEVATION
 40
0.0
  9
$THICKNESS
 40
0.0
  9
$LIMCHECK
 70
     0
  9
$CHAMFERA
 40
0.0
  9
$CHAMFERB
 40
0.0
  9
$CHAMFERC
 40
0.0
  9
$CHAMFERD
 40
0.0
  9
$SKPOLY
 70
     0
  9
$TDCREATE
 40
2451478.493279398
  9
$TDUCREATE
 40
2451478.409946065
  9
$TDUPDATE
 40
2455460.560707916
  9
$TDUUPDATE
 40
2455460.477374584
  9
$TDINDWG
 40
0.3545069560
  9
$TDUSRTIMER
 40
0.3545069560
  9
$USRTIMER
 70
     1
  9
$ANGBASE
 50
0.0
  9
$ANGDIR
 70
     0
  9
$PDMODE
 70
     0
  9
$PDSIZE
 40
0.0
  9
$PLINEWID
 40
0.0
  9
$SPLFRAME
 70
     0
  9
$SPLINETYPE
 70
     6
  9
$SPLINESEGS
 70
     8
  9
$HANDSEED
  5
379E
  9
$SURFTAB1
 70
     6
  9
$SURFTAB2
 70
     6
  9
$SURFTYPE
 70
     6
  9
$SURFU
 70
     6
  9
$SURFV
 70
     6
  9
$UCSBASE
  2

  9
$UCSNAME
  2

  9
$UCSORG
 10
0.0
 20
0.0
 30
0.0
  9
$UCSXDIR
 10
1.0
 20
0.0
 30
0.0
  9
$UCSYDIR
 10
0.0
 20
1.0
 30
0.0
  9
$UCSORTHOREF
  2

  9
$UCSORTHOVIEW
 70
     0
  9
$UCSORGTOP
 10
0.0
 20
0.0
 30
0.0
  9
$UCSORGBOTTOM
 10
0.0
 20
0.0
 30
0.0
  9
$UCSORGLEFT
 10
0.0
 20
0.0
 30
0.0
  9
$UCSORGRIGHT
 10
0.0
 20
0.0
 30
0.0
  9
$UCSORGFRONT
 10
0.0
 20
0.0
 30
0.0
  9
$UCSORGBACK
 10
0.0
 20
0.0
 30
0.0
  9
$PUCSBASE
  2

  9
$PUCSNAME
  2

  9
$PUCSORG
 10
0.0
 20
0.0
 30
0.0
  9
$PUCSXDIR
 10
1.0
 20
0.0
 30
0.0
  9
$PUCSYDIR
 10
0.0
 20
1.0
 30
0.0
  9
$PUCSORTHOREF
  2

  9
$PUCSORTHOVIEW
 70
     0
  9
$PUCSORGTOP
 10
0.0
 20
0.0
 30
0.0
  9
$PUCSORGBOTTOM
 10
0.0
 20
0.0
 30
0.0
  9
$PUCSORGLEFT
 10
0.0
 20
0.0
 30
0.0
  9
$PUCSORGRIGHT
 10
0.0
 20
0.0
 30
0.0
  9
$PUCSORGFRONT
 10
0.0
 20
0.0
 30
0.0
  9
$PUCSORGBACK
 10
0.0
 20
0.0
 30
0.0
  9
$USERI1
 70
     0
  9
$USERI2
 70
     0
  9
$USERI3
 70
     0
  9
$USERI4
 70
     0
  9
$USERI5
 70
     0
  9
$USERR1
 40
0.0
  9
$USERR2
 40
0.0
  9
$USERR3
 40
0.0
  9
$USERR4
 40
0.0
  9
$USERR5
 40
0.0
  9
$WORLDVIEW
 70
     1
  9
$SHADEDGE
 70
     3
  9
$SHADEDIF
 70
    70
  9
$TILEMODE
 70
     1
  9
$MAXACTVP
 70
    16
  9
$PINSBASE
 10
-21.29083225966441
 20
50.00000000000001
 30
-30.66246831754066
  9
$PLIMCHECK
 70
     0
  9
$PEXTMIN
 10
1.000000000000000E+20
 20
1.000000000000000E+20
 30
1.000000000000000E+20
  9
$PEXTMAX
 10
-1.000000000000000E+20
 20
-1.000000000000000E+20
 30
-1.000000000000000E+20
  9
$PLIMMIN
 10
0.0
 20
0.0
  9
$PLIMMAX
 10
12.0
 20
9.0
  9
$UNITMODE
 70
     0
  9
$VISRETAIN
 70
     0
  9
$PLINEGEN
 70
     0
  9
$PSLTSCALE
 70
     0
  9
$TREEDEPTH
 70
  3020
  9
$CMLSTYLE
  2
Standard
  9
$CMLJUST
 70
     0
  9
$CMLSCALE
 40
1.0
  9
$PROXYGRAPHICS
 70
     1
  9
$MEASUREMENT
 70
     0
  9
$CELWEIGHT
370
    -1
  9
$ENDCAPS
280
     0
  9
$JOINSTYLE
280
     0
  9
$LWDISPLAY
290
     0
  9
$INSUNITS
 70
     0
  9
$HYPERLINKBASE
  1

  9
$STYLESHEET
  1
monochrome 1.ctb
  9
$XEDIT
290
     1
  9
$CEPSNTYPE
380
     0
  9
$PSTYLEMODE
290
     1
  9
$FINGERPRINTGUID
  2
{9DEF50BF-E230-4383-9716-51C270AF992E}
  9
$VERSIONGUID
  2
{549525D1-3FAC-45C2-AE05-481C29B44867}
  9
$EXTNAMES
290
     1
  9
$PSVPSCALE
 40
0.0
  9
$OLESTARTUP
290
     0
  9
$SORTENTS
280
   127
  9
$INDEXCTL
280
     0
  9
$HIDETEXT
280
     1
  9
$XCLIPFRAME
290
     0
  9
$HALOGAP
280
     0
  9
$OBSCOLOR
 70
   257
  9
$OBSLTYPE
280
     0
  9
$INTERSECTIONDISPLAY
280
     0
  9
$INTERSECTIONCOLOR
 70
   257
  9
$DIMASSOC
280
     2
  9
$PROJECTNAME
  1

  0
ENDSEC
  0
SECTION
  2
CLASSES
  0
CLASS
  1
ACDBDICTIONARYWDFLT
  2
AcDbDictionaryWithDefault
  3
ObjectDBX Classes
 90
        0
 91
        1
280
     0
281
     0
  0
CLASS
  1
DICTIONARYVAR
  2
AcDbDictionaryVar
  3
ObjectDBX Classes
 90
        0
 91
        3
280
     0
281
     0
  0
CLASS
  1
DIMASSOC
  2
AcDbDimAssoc
  3
"AcDbDimAssoc|Product Desc:     AcDim ARX App For Dimension|Company:          Autodesk, Inc.|WEB Address:      www.autodesk.com"
 90
        0
 91
        5
280
     0
281
     0
  0
ENDSEC
  0
SECTION
  2
TABLES
  0
TABLE
  2
VPORT
  5
8
330
0
100
AcDbSymbolTable
 70
     3
  0
VPORT
  5
379D
330
8
100
AcDbSymbolTableRecord
100
AcDbViewportTableRecord
  2
*Active
 70
     0
 10
0.0
 20
0.0
 11
1.0
 21
1.0
 12
297.0120710311454
 22
419.9714147357613
 13
0.0
 23
0.0
 14
2.5
 24
2.5
 15
10.0
 25
10.0
 16
0.0
 26
0.0
 36
1.0
 17
0.0
 27
0.0
 37
0.0
 40
846.8466704578553
 41
1.336927223719676
 42
50.0
 43
0.0
 44
0.0
 50
0.0
 51
0.0
 71
     0
 72
   500
 73
     1
 74
     0
 75
     0
 76
     0
 77
     0
 78
     0
281
     0
 65
     1
110
0.0
120
0.0
130
0.0
111
1.0
121
0.0
131
0.0
112
0.0
122
1.0
132
0.0
 79
     0
146
0.0
  0
ENDTAB
  0
TABLE
  2
LTYPE
  5
5
330
0
100
AcDbSymbolTable
 70
     3
  0
LTYPE
  5
13
330
5
100
AcDbSymbolTableRecord
100
AcDbLinetypeTableRecord
  2
ByBlock
 70
     0
  3

 72
    65
 73
     0
 40
0.0
  0
LTYPE
  5
14
330
5
100
AcDbSymbolTableRecord
100
AcDbLinetypeTableRecord
  2
ByLayer
 70
     0
  3

 72
    65
 73
     0
 40
0.0
  0
LTYPE
  5
15
330
5
100
AcDbSymbolTableRecord
100
AcDbLinetypeTableRecord
  2
Continuous
 70
     0
  3
Solid line
 72
    65
 73
     0
 40
0.0
  0
LTYPE
  5
31
330
5
100
AcDbSymbolTableRecord
100
AcDbLinetypeTableRecord
  2
STRICHPUNKT
 70
     0
  3
__ . __ . __ . __ . __ . __ . __ . __ . __ . __
 72
    65
 73
     4
 40
1.0
 49
0.5
 74
     0
 49
-0.25
 74
     0
 49
0.0
 74
     0
 49
-0.25
 74
     0
  0
LTYPE
  5
734
330
5
100
AcDbSymbolTableRecord
100
AcDbLinetypeTableRecord
  2
AUSGEZOGEN
 70
     0
  3
Ausgezogene Linie
 72
    65
 73
     0
 40
0.0
  0
ENDTAB
  0
TABLE
  2
LAYER
  5
2
330
0
100
AcDbSymbolTable
 70
    10
  0
LAYER
  5
10
330
2
100
AcDbSymbolTableRecord
100
AcDbLayerTableRecord
  2
0
 70
     0
 62
     7
  6
Continuous
370
    -3
390
F
  0
LAYER
  5
34
330
2
100
AcDbSymbolTableRecord
100
AcDbLayerTableRecord
  2
VOLL
 70
     0
 62
     1
  6
Continuous
370
    -3
390
F
  0
LAYER
  5
35
330
2
100
AcDbSymbolTableRecord
100
AcDbLayerTableRecord
  2
MITTEL
 70
     0
 62
     2
  6
STRICHPUNKT
370
    -3
390
F
  0
LAYER
  5
36
330
2
100
AcDbSymbolTableRecord
100
AcDbLayerTableRecord
  2
BEM
 70
     0
 62
     7
  6
Continuous
370
    -3
390
F
  0
LAYER
  5
37
330
2
100
AcDbSymbolTableRecord
100
AcDbLayerTableRecord
  2
HILF
 70
     0
 62
     2
  6
Continuous
370
    -3
390
F
  0
LAYER
  5
38
330
2
100
AcDbSymbolTableRecord
100
AcDbLayerTableRecord
  2
SCHRAFF
 70
     0
 62
     7
  6
Continuous
370
    -3
390
F
  0
LAYER
  5
39
330
2
100
AcDbSymbolTableRecord
100
AcDbLayerTableRecord
  2
STEMPEL
 70
     0
 62
     3
  6
Continuous
370
    -3
390
F
  0
LAYER
  5
3A
330
2
100
AcDbSymbolTableRecord
100
AcDbLayerTableRecord
  2
DEFPOINTS
 70
     0
 62
     7
  6
Continuous
290
     0
370
    -3
390
F
  0
LAYER
  5
3B
330
2
100
AcDbSymbolTableRecord
100
AcDbLayerTableRecord
  2
TEXT
 70
     0
 62
     7
  6
Continuous
370
    -3
390
F
  0
LAYER
  5
19AE
330
2
100
AcDbSymbolTableRecord
100
AcDbLayerTableRecord
  2
TEXT35
 70
     0
 62
     1
  6
AUSGEZOGEN
370
    -3
390
F
1001
RAK
1000
{LAYER_STATE1
1070
     0
1070
     1
1000
AUSGEZOGEN
1000
LAYER_STATE1}
  0
ENDTAB
  0
TABLE
  2
STYLE
  5
3
330
0
100
AcDbSymbolTable
 70
     2
  0
STYLE
  5
11
330
3
100
AcDbSymbolTableRecord
100
AcDbTextStyleTableRecord
  2
STANDARD
 70
     0
 40
0.0
 41
0.8
 50
0.0
 71
     0
 42
3.5
  3
simplex.shx
  4

  0
STYLE
  5
30
330
3
100
AcDbSymbolTableRecord
100
AcDbTextStyleTableRecord
  2
GREEKS
 70
     0
 40
0.0
 41
0.8
 50
0.0
 71
     0
 42
3.5
  3
SIMPLEX.shx
  4

  0
ENDTAB
  0
TABLE
  2
VIEW
  5
6
330
0
100
AcDbSymbolTable
 70
     0
  0
ENDTAB
  0
TABLE
  2
UCS
  5
7
330
0
100
AcDbSymbolTable
 70
     0
  0
ENDTAB
  0
TABLE
  2
APPID
  5
9
330
0
100
AcDbSymbolTable
 70
     2
  0
APPID
  5
12
330
9
100
AcDbSymbolTableRecord
100
AcDbRegAppTableRecord
  2
ACAD
 70
     0
  0
APPID
  5
19B1
330
9
100
AcDbSymbolTableRecord
100
AcDbRegAppTableRecord
  2
RAK
 70
     0
  0
ENDTAB
  0
TABLE
  2
DIMSTYLE
  5
A
330
0
100
AcDbSymbolTable
 70
     1
100
AcDbDimStyleTable
 71
     1
340
258
  0
DIMSTYLE
105
258
102
{ACAD_REACTORS
330
DBD
330
21BC
330
2983
330
2E78
330
2EA2
330
3086
330
34CA
102
}
330
A
100
AcDbSymbolTableRecord
100
AcDbDimStyleTableRecord
  2
Standard
 70
     0
340
11
  0
ENDTAB
  0
TABLE
  2
BLOCK_RECORD
  5
1
330
0
100
AcDbSymbolTable
 70
     8
  0
BLOCK_RECORD
  5
20
330
1
100
AcDbSymbolTableRecord
100
AcDbBlockTableRecord
  2
*Model_Space
340
23
  0
BLOCK_RECORD
  5
1C
330
1
100
AcDbSymbolTableRecord
100
AcDbBlockTableRecord
  2
*Paper_Space
340
1F
  0
BLOCK_RECORD
  5
24
330
1
100
AcDbSymbolTableRecord
100
AcDbBlockTableRecord
  2
LOGO
340
0
102
{BLKREFS
331
315C
102
}
  0
BLOCK_RECORD
  5
E33
330
1
100
AcDbSymbolTableRecord
100
AcDbBlockTableRecord
  2
*D1
340
0
  0
BLOCK_RECORD
  5
21BD
330
1
100
AcDbSymbolTableRecord
100
AcDbBlockTableRecord
  2
*D2
340
0
  0
BLOCK_RECORD
  5
2984
330
1
100
AcDbSymbolTableRecord
100
AcDbBlockTableRecord
  2
*D3
340
0
  0
BLOCK_RECORD
  5
2E79
330
1
100
AcDbSymbolTableRecord
100
AcDbBlockTableRecord
  2
*D4
340
0
  0
BLOCK_RECORD
  5
2EA3
330
1
100
AcDbSymbolTableRecord
100
AcDbBlockTableRecord
  2
*D5
340
0
  0
BLOCK_RECORD
  5
3087
330
1
100
AcDbSymbolTableRecord
100
AcDbBlockTableRecord
  2
*D6
340
0
  0
BLOCK_RECORD
  5
34CB
330
1
100
AcDbSymbolTableRecord
100
AcDbBlockTableRecord
  2
*D7
340
0
  0
ENDTAB
  0
ENDSEC
  0
SECTION
  2
BLOCKS
  0
BLOCK
  5
3F
330
20
100
AcDbEntity
  8
0
100
AcDbBlockBegin
  2
*Model_Space
 70
     0
 10
0.0
 20
0.0
 30
0.0
  3
*Model_Space
  1

  0
ENDBLK
  5
40
330
20
100
AcDbEntity
  8
0
100
AcDbBlockEnd
  0
BLOCK
  5
3D
330
1C
100
AcDbEntity
 67
     1
  8
0
100
AcDbBlockBegin
  2
*Paper_Space
 70
     0
 10
0.0
 20
0.0
 30
0.0
  3
*Paper_Space
  1

  0
ENDBLK
  5
3E
330
1C
100
AcDbEntity
 67
     1
  8
0
100
AcDbBlockEnd
  0
BLOCK
  5
41
330
24
100
AcDbEntity
  8
0
100
AcDbBlockBegin
  2
LOGO
 70
     0
 10
0.0
 20
0.0
 30
0.0
  3
LOGO
  1

  0
ARC
  5
42
330
24
100
AcDbEntity
  8
0
100
AcDbCircle
 10
11.59973089678112
 20
-9.271599258481501
 30
0.0
 40
4.5
100
AcDbArc
 50
270.0
 51
231.0575587310159
  0
LINE
  5
43
330
24
100
AcDbEntity
  8
0
100
AcDbLine
 10
3.599730896781125
 20
-4.771599258481529
 30
0.0
 11
3.599730896781153
 21
-11.77159925848133
 31
0.0
  0
LINE
  5
44
330
24
100
AcDbEntity
  8
0
100
AcDbLine
 10
2.599730896781125
 20
-4.771599258481529
 30
0.0
 11
2.599730896781153
 21
-11.77159925848133
 31
0.0
  0
CIRCLE
  5
45
330
24
100
AcDbEntity
  8
0
100
AcDbCircle
 10
11.59973089678112
 20
-9.271599258481501
 30
0.0
 40
3.5
  0
ARC
  5
46
330
24
100
AcDbEntity
  8
0
100
AcDbCircle
 10
31.59973089678115
 20
-9.271599258481472
 30
0.0
 40
4.5
100
AcDbArc
 50
270.0
 51
231.0575587310182
  0
LINE
  5
47
330
24
100
AcDbEntity
  8
0
100
AcDbLine
 10
17.59973089678112
 20
-4.771599258481472
 30
0.0
 11
17.59973089678115
 21
-13.77159925848147
 31
0.0
  0
ARC
  5
48
330
24
100
AcDbEntity
  8
0
100
AcDbCircle
 10
22.59973089678116
 20
-7.271599258481472
 30
0.0
 40
2.5
100
AcDbArc
 50
293.1161887722295
 51
90.0
  0
CIRCLE
  5
49
330
24
100
AcDbEntity
  8
0
100
AcDbCircle
 10
31.59973089678115
 20
-9.271599258481472
 30
0.0
 40
3.5
  0
ARC
  5
4A
330
24
100
AcDbEntity
  8
0
100
AcDbCircle
 10
4.599730896781153
 20
-11.77159925848133
 30
0.0
 40
1.0
100
AcDbArc
 50
180.0
 51
270.0
  0
ARC
  5
4B
330
24
100
AcDbEntity
  8
0
100
AcDbCircle
 10
4.599730896781153
 20
-11.77159925848133
 30
0.0
 40
2.0
100
AcDbArc
 50
179.9999999999992
 51
270.0
  0
LINE
  5
4C
330
24
100
AcDbEntity
  8
0
100
AcDbLine
 10
11.59973089678115
 20
-13.77159925848144
 30
0.0
 11
4.599730896781153
 21
-13.77159925848147
 31
0.0
  0
LINE
  5
4D
330
24
100
AcDbEntity
  8
0
100
AcDbLine
 10
8.771303772034769
 20
-12.77159925848136
 30
0.0
 11
4.599730896781153
 21
-12.77159925848133
 31
0.0
  0
LINE
  5
4E
330
24
100
AcDbEntity
  8
0
100
AcDbLine
 10
31.59973089678115
 20
-13.77159925848147
 30
0.0
 11
23.6715276665056
 21
-13.77159925848144
 31
0.0
  0
LINE
  5
4F
330
24
100
AcDbEntity
  8
0
100
AcDbLine
 10
23.56565672307022
 20
-9.51278021337896
 30
0.0
 11
24.4388546544846
 21
-12.77159925848144
 31
0.0
  0
LINE
  5
50
330
24
100
AcDbEntity
  8
0
100
AcDbLine
 10
22.59973089678116
 20
-9.771599258481472
 30
0.0
 11
18.59973089678112
 21
-9.771599258481472
 31
0.0
  0
LINE
  5
51
330
24
100
AcDbEntity
  8
0
100
AcDbLine
 10
18.59973089678115
 20
-13.77159925848144
 30
0.0
 11
17.59973089678115
 21
-13.77159925848144
 31
0.0
  0
LINE
  5
52
330
24
100
AcDbEntity
  8
0
100
AcDbLine
 10
18.59973089678115
 20
-9.771599258481472
 30
0.0
 11
18.59973089678115
 21
-13.77159925848144
 31
0.0
  0
LINE
  5
53
330
24
100
AcDbEntity
  8
0
100
AcDbLine
 10
22.59973089678116
 20
-9.771599258481472
 30
0.0
 11
23.67152766650562
 21
-13.77159925848147
 31
0.0
  0
ARC
  5
54
330
24
100
AcDbEntity
  8
0
100
AcDbCircle
 10
22.59973089678116
 20
-7.271599258481472
 30
0.0
 40
2.5
100
AcDbArc
 50
270.0
 51
270.0000000000007
  0
LINE
  5
55
330
24
100
AcDbEntity
  8
0
100
AcDbLine
 10
28.77130377203494
 20
-12.77159925848147
 30
0.0
 11
24.43885465448463
 21
-12.77159925848144
 31
0.0
  0
LINE
  5
56
330
24
100
AcDbEntity
  8
0
100
AcDbLine
 10
3.599730896781125
 20
-4.771599258481472
 30
0.0
 11
2.599730896781125
 21
-4.771599258481472
 31
0.0
  0
LINE
  5
57
330
24
100
AcDbEntity
  8
0
100
AcDbLine
 10
22.59973089678116
 20
-8.771599258481472
 30
0.0
 11
18.59973089678115
 21
-8.771599258481472
 31
0.0
  0
LINE
  5
58
330
24
100
AcDbEntity
  8
0
100
AcDbLine
 10
22.59973089678116
 20
-5.771599258481472
 30
0.0
 11
18.59973089678115
 21
-5.771599258481472
 31
0.0
  0
LINE
  5
59
330
24
100
AcDbEntity
  8
0
100
AcDbLine
 10
22.59973089678116
 20
-4.771599258481472
 30
0.0
 11
17.59973089678115
 21
-4.771599258481472
 31
0.0
  0
LINE
  5
5A
330
24
100
AcDbEntity
  8
0
100
AcDbLine
 10
18.59973089678115
 20
-5.771599258481472
 30
0.0
 11
18.59973089678115
 21
-8.771599258481472
 31
0.0
  0
ARC
  5
5B
330
24
100
AcDbEntity
  8
0
100
AcDbCircle
 10
22.59973089678116
 20
-7.271599258481472
 30
0.0
 40
1.5
100
AcDbArc
 50
270.0
 51
90.0
  0
ENDBLK
  5
5C
330
24
100
AcDbEntity
  8
0
100
AcDbBlockEnd
  0
BLOCK
  5
E3D
330
E33
100
AcDbEntity
  8
0
100
AcDbBlockBegin
  2
*D1
 70
     1
 10
0.0
 20
0.0
 30
0.0
  3
*D1
  1

  0
LINE
  5
371B
330
E33
100
AcDbEntity
  8
BEM
 62
     0
370
    -2
100
AcDbLine
 10
83.23504277485715
 20
564.0896554546495
 30
0.0
 11
36.75796070784758
 21
564.0896554546495
 31
0.0
  0
LINE
  5
371C
330
E33
100
AcDbEntity
  8
BEM
 62
     0
370
    -2
100
AcDbLine
 10
224.2599747560127
 20
164.0896554546496
 30
0.0
 11
36.75796070784748
 21
164.0896554546497
 31
0.0
  0
LINE
  5
371D
330
E33
100
AcDbEntity
  8
BEM
 62
     0
370
    -2
100
AcDbLine
 10
38.75796070784757
 20
557.0896554546496
 30
0.0
 11
38.75796070784748
 21
171.0896554546497
 31
0.0
  0
SOLID
  5
371E
330
E33
100
AcDbEntity
  8
BEM
 62
     0
100
AcDbTrace
 10
37.5912940411809
 20
557.0896554546496
 30
0.0
 11
39.92462737451423
 21
557.0896554546496
 31
0.0
 12
38.75796070784757
 22
564.0896554546495
 32
0.0
 13
38.75796070784757
 23
564.0896554546495
 33
0.0
  0
SOLID
  5
371F
330
E33
100
AcDbEntity
  8
BEM
 62
     0
100
AcDbTrace
 10
37.59129404118082
 20
171.0896554546497
 30
0.0
 11
39.92462737451415
 21
171.0896554546497
 31
0.0
 12
38.75796070784748
 22
164.0896554546497
 32
0.0
 13
38.75796070784748
 23
164.0896554546497
 33
0.0
  0
MTEXT
  5
3720
330
E33
100
AcDbEntity
  8
BEM
 62
     1
100
AcDbMText
 10
32.25796070784747
 20
364.0896554546496
 30
0.0
 40
7.0
 41
0.0
 71
     5
 72
     1
  1
\A1;400
  7
GREEKS
 11
0.0000000000000001
 21
1.0
 31
0.0
 73
     1
 44
1.0
  0
POINT
  5
3721
330
E33
100
AcDbEntity
  8
DEFPOINTS
 62
     0
100
AcDbPoint
 10
85.23504277485717
 20
564.0896554546495
 30
0.0
  0
POINT
  5
3722
330
E33
100
AcDbEntity
  8
DEFPOINTS
 62
     0
100
AcDbPoint
 10
226.2599747560127
 20
164.0896554546496
 30
0.0
  0
POINT
  5
3723
330
E33
100
AcDbEntity
  8
DEFPOINTS
 62
     0
100
AcDbPoint
 10
38.75796070784748
 20
164.0896554546497
 30
0.0
  0
ENDBLK
  5
E3E
330
E33
100
AcDbEntity
  8
0
100
AcDbBlockEnd
  0
BLOCK
  5
21C9
330
21BD
100
AcDbEntity
  8
0
100
AcDbBlockBegin
  2
*D2
 70
     1
 10
0.0
 20
0.0
 30
0.0
  3
*D2
  1

  0
LINE
  5
3724
330
21BD
100
AcDbEntity
  8
BEM
 62
     0
370
    -2
100
AcDbLine
 10
83.23504277485715
 20
564.0896554546495
 30
0.0
 11
57.42161637168088
 21
564.0896554546495
 31
0.0
  0
LINE
  5
3725
330
21BD
100
AcDbEntity
  8
BEM
 62
     0
370
    -2
100
AcDbLine
 10
83.23504277485715
 20
558.0896554546495
 30
0.0
 11
57.42161637168088
 21
558.0896554546495
 31
0.0
  0
LINE
  5
3726
330
21BD
100
AcDbEntity
  8
BEM
 62
     0
370
    -2
100
AcDbLine
 10
59.42161637168088
 20
571.0896554546495
 30
0.0
 11
59.42161637168088
 21
578.0896554546496
 31
0.0
  0
LINE
  5
3727
330
21BD
100
AcDbEntity
  8
BEM
 62
     0
370
    -2
100
AcDbLine
 10
59.42161637168087
 20
551.0896554546495
 30
0.0
 11
59.42161637168087
 21
534.6229887879828
 31
0.0
  0
LINE
  5
3728
330
21BD
100
AcDbEntity
  8
BEM
 62
     0
370
    -2
100
AcDbLine
 10
59.42161637168088
 20
564.0896554546495
 30
0.0
 11
59.42161637168087
 21
558.0896554546495
 31
0.0
  0
SOLID
  5
3729
330
21BD
100
AcDbEntity
  8
BEM
 62
     0
100
AcDbTrace
 10
58.25494970501422
 20
571.0896554546495
 30
0.0
 11
60.58828303834754
 21
571.0896554546495
 31
0.0
 12
59.42161637168088
 22
564.0896554546495
 32
0.0
 13
59.42161637168088
 23
564.0896554546495
 33
0.0
  0
SOLID
  5
372A
330
21BD
100
AcDbEntity
  8
BEM
 62
     0
100
AcDbTrace
 10
58.25494970501421
 20
551.0896554546495
 30
0.0
 11
60.58828303834754
 21
551.0896554546495
 31
0.0
 12
59.42161637168087
 22
558.0896554546495
 32
0.0
 13
59.42161637168087
 23
558.0896554546495
 33
0.0
  0
MTEXT
  5
372B
330
21BD
100
AcDbEntity
  8
BEM
 62
     1
100
AcDbMText
 10
52.92161637168079
 20
539.3563221213162
 30
0.0
 40
7.0
 41
0.0
 71
     5
 72
     1
  1
\A1;6
 11
0.0000000000000001
 21
1.0
 31
0.0
 73
     1
 44
1.0
  0
POINT
  5
372C
330
21BD
100
AcDbEntity
  8
DEFPOINTS
 62
     0
100
AcDbPoint
 10
85.23504277485717
 20
564.0896554546495
 30
0.0
  0
POINT
  5
372D
330
21BD
100
AcDbEntity
  8
DEFPOINTS
 62
     0
100
AcDbPoint
 10
85.23504277485717
 20
558.0896554546495
 30
0.0
  0
POINT
  5
372E
330
21BD
100
AcDbEntity
  8
DEFPOINTS
 62
     0
100
AcDbPoint
 10
59.42161637168087
 20
558.0896554546495
 30
0.0
  0
ENDBLK
  5
21CA
330
21BD
100
AcDbEntity
  8
0
100
AcDbBlockEnd
  0
BLOCK
  5
298E
330
2984
100
AcDbEntity
  8
0
100
AcDbBlockBegin
  2
*D3
 70
     1
 10
0.0
 20
0.0
 30
0.0
  3
*D3
  1

  0
LINE
  5
36EA
330
2984
100
AcDbEntity
  8
BEM
 62
     0
370
    -2
100
AcDbLine
 10
83.23504277485715
 20
564.0896554546495
 30
0.0
 11
36.75796070784758
 21
564.0896554546495
 31
0.0
  0
LINE
  5
36EB
330
2984
100
AcDbEntity
  8
BEM
 62
     0
370
    -2
100
AcDbLine
 10
207.2350427748572
 20
655.0421741248326
 30
0.0
 11
36.75796070784759
 21
655.0421741248326
 31
0.0
  0
LINE
  5
36EC
330
2984
100
AcDbEntity
  8
BEM
 62
     0
370
    -2
100
AcDbLine
 10
38.75796070784758
 20
571.0896554546495
 30
0.0
 11
38.7579607078476
 21
648.0421741248326
 31
0.0
  0
SOLID
  5
36ED
330
2984
100
AcDbEntity
  8
BEM
 62
     0
100
AcDbTrace
 10
37.59129404118092
 20
571.0896554546495
 30
0.0
 11
39.92462737451424
 21
571.0896554546495
 31
0.0
 12
38.75796070784758
 22
564.0896554546495
 32
0.0
 13
38.75796070784758
 23
564.0896554546495
 33
0.0
  0
SOLID
  5
36EE
330
2984
100
AcDbEntity
  8
BEM
 62
     0
100
AcDbTrace
 10
37.59129404118093
 20
648.0421741248326
 30
0.0
 11
39.92462737451426
 21
648.0421741248326
 31
0.0
 12
38.7579607078476
 22
655.0421741248326
 32
0.0
 13
38.7579607078476
 23
655.0421741248326
 33
0.0
  0
MTEXT
  5
36EF
330
2984
100
AcDbEntity
  8
BEM
 62
     1
100
AcDbMText
 10
32.25796070784749
 20
609.5659147897411
 30
0.0
 40
7.0
 41
0.0
 71
     5
 72
     1
  1
\A1;91
 11
0.0000000000000001
 21
1.0
 31
0.0
 73
     1
 44
1.0
  0
POINT
  5
36F0
330
2984
100
AcDbEntity
  8
DEFPOINTS
 62
     0
100
AcDbPoint
 10
85.23504277485717
 20
564.0896554546495
 30
0.0
  0
POINT
  5
36F1
330
2984
100
AcDbEntity
  8
DEFPOINTS
 62
     0
100
AcDbPoint
 10
209.2350427748572
 20
655.0421741248326
 30
0.0
  0
POINT
  5
36F2
330
2984
100
AcDbEntity
  8
DEFPOINTS
 62
     0
100
AcDbPoint
 10
38.7579607078476
 20
655.0421741248326
 30
0.0
  0
ENDBLK
  5
298F
330
2984
100
AcDbEntity
  8
0
100
AcDbBlockEnd
  0
BLOCK
  5
2E83
330
2E79
100
AcDbEntity
  8
0
100
AcDbBlockBegin
  2
*D4
 70
     1
 10
0.0
 20
0.0
 30
0.0
  3
*D4
  1

  0
LINE
  5
36E1
330
2E79
100
AcDbEntity
  8
BEM
 62
     0
370
    -2
100
AcDbLine
 10
184.2350427748571
 20
641.0896554546493
 30
0.0
 11
184.2350427748571
 21
673.9655134393638
 31
0.0
  0
LINE
  5
36E2
330
2E79
100
AcDbEntity
  8
BEM
 62
     0
370
    -2
100
AcDbLine
 10
356.2350427748572
 20
641.0896554546491
 30
0.0
 11
356.2350427748572
 21
673.9655134393638
 31
0.0
  0
LINE
  5
36E3
330
2E79
100
AcDbEntity
  8
BEM
 62
     0
370
    -2
100
AcDbLine
 10
191.2350427748571
 20
671.9655134393637
 30
0.0
 11
349.2350427748572
 21
671.9655134393637
 31
0.0
  0
SOLID
  5
36E4
330
2E79
100
AcDbEntity
  8
BEM
 62
     0
100
AcDbTrace
 10
191.2350427748571
 20
673.1321801060304
 30
0.0
 11
191.2350427748571
 21
670.7988467726972
 31
0.0
 12
184.2350427748571
 22
671.9655134393637
 32
0.0
 13
184.2350427748571
 23
671.9655134393637
 33
0.0
  0
SOLID
  5
36E5
330
2E79
100
AcDbEntity
  8
BEM
 62
     0
100
AcDbTrace
 10
349.2350427748572
 20
673.1321801060304
 30
0.0
 11
349.2350427748572
 21
670.7988467726972
 31
0.0
 12
356.2350427748572
 22
671.9655134393637
 32
0.0
 13
356.2350427748572
 23
671.9655134393637
 33
0.0
  0
MTEXT
  5
36E6
330
2E79
100
AcDbEntity
  8
BEM
 62
     1
100
AcDbMText
 10
270.2350427748572
 20
678.4655134393638
 30
0.0
 40
7.0
 41
0.0
 71
     5
 72
     1
  1
\A1;%%c172
 73
     1
 44
1.0
  0
POINT
  5
36E7
330
2E79
100
AcDbEntity
  8
DEFPOINTS
 62
     0
100
AcDbPoint
 10
184.2350427748571
 20
639.0896554546493
 30
0.0
  0
POINT
  5
36E8
330
2E79
100
AcDbEntity
  8
DEFPOINTS
 62
     0
100
AcDbPoint
 10
356.2350427748572
 20
639.0896554546491
 30
0.0
  0
POINT
  5
36E9
330
2E79
100
AcDbEntity
  8
DEFPOINTS
 62
     0
100
AcDbPoint
 10
356.2350427748572
 20
671.9655134393637
 30
0.0
  0
ENDBLK
  5
2E84
330
2E79
100
AcDbEntity
  8
0
100
AcDbBlockEnd
  0
BLOCK
  5
2EAD
330
2EA3
100
AcDbEntity
  8
0
100
AcDbBlockBegin
  2
*D5
 70
     1
 10
0.0
 20
0.0
 30
0.0
  3
*D5
  1

  0
LINE
  5
36D8
330
2EA3
100
AcDbEntity
  8
BEM
 62
     0
370
    -2
100
AcDbLine
 10
179.2350427748572
 20
637.7469375451473
 30
0.0
 11
179.2350427748572
 21
692.1937281616851
 31
0.0
  0
LINE
  5
36D9
330
2EA3
100
AcDbEntity
  8
BEM
 62
     0
370
    -2
100
AcDbLine
 10
361.2350427748572
 20
637.7469375451473
 30
0.0
 11
361.2350427748572
 21
692.1937281616851
 31
0.0
  0
LINE
  5
36DA
330
2EA3
100
AcDbEntity
  8
BEM
 62
     0
370
    -2
100
AcDbLine
 10
186.2350427748572
 20
690.1937281616851
 30
0.0
 11
354.2350427748572
 21
690.1937281616851
 31
0.0
  0
SOLID
  5
36DB
330
2EA3
100
AcDbEntity
  8
BEM
 62
     0
100
AcDbTrace
 10
186.2350427748572
 20
691.3603948283517
 30
0.0
 11
186.2350427748572
 21
689.0270614950185
 31
0.0
 12
179.2350427748572
 22
690.1937281616851
 32
0.0
 13
179.2350427748572
 23
690.1937281616851
 33
0.0
  0
SOLID
  5
36DC
330
2EA3
100
AcDbEntity
  8
BEM
 62
     0
100
AcDbTrace
 10
354.2350427748572
 20
691.3603948283517
 30
0.0
 11
354.2350427748572
 21
689.0270614950185
 31
0.0
 12
361.2350427748572
 22
690.1937281616851
 32
0.0
 13
361.2350427748572
 23
690.1937281616851
 33
0.0
  0
MTEXT
  5
36DD
330
2EA3
100
AcDbEntity
  8
BEM
 62
     1
100
AcDbMText
 10
270.2350427748572
 20
696.6937281616851
 30
0.0
 40
7.0
 41
0.0
 71
     5
 72
     1
  1
\A1;%%c182
 73
     1
 44
1.0
  0
POINT
  5
36DE
330
2EA3
100
AcDbEntity
  8
DEFPOINTS
 62
     0
100
AcDbPoint
 10
179.2350427748572
 20
635.7469375451473
 30
0.0
  0
POINT
  5
36DF
330
2EA3
100
AcDbEntity
  8
DEFPOINTS
 62
     0
100
AcDbPoint
 10
361.2350427748572
 20
635.7469375451473
 30
0.0
  0
POINT
  5
36E0
330
2EA3
100
AcDbEntity
  8
DEFPOINTS
 62
     0
100
AcDbPoint
 10
361.2350427748572
 20
690.1937281616851
 30
0.0
  0
ENDBLK
  5
2EAE
330
2EA3
100
AcDbEntity
  8
0
100
AcDbBlockEnd
  0
BLOCK
  5
3091
330
3087
100
AcDbEntity
  8
0
100
AcDbBlockBegin
  2
*D6
 70
     1
 10
0.0
 20
0.0
 30
0.0
  3
*D6
  1

  0
LINE
  5
36CF
330
3087
100
AcDbEntity
  8
BEM
 62
     0
370
    -2
100
AcDbLine
 10
85.23504277485717
 20
566.0896554546495
 30
0.0
 11
85.23504277485718
 21
710.8225589197206
 31
0.0
  0
LINE
  5
36D0
330
3087
100
AcDbEntity
  8
BEM
 62
     0
370
    -2
100
AcDbLine
 10
455.2350427748571
 20
566.0896554546495
 30
0.0
 11
455.2350427748571
 21
710.8225589197206
 31
0.0
  0
LINE
  5
36D1
330
3087
100
AcDbEntity
  8
BEM
 62
     0
370
    -2
100
AcDbLine
 10
92.23504277485718
 20
708.8225589197207
 30
0.0
 11
448.2350427748571
 21
708.8225589197207
 31
0.0
  0
SOLID
  5
36D2
330
3087
100
AcDbEntity
  8
BEM
 62
     0
100
AcDbTrace
 10
92.23504277485718
 20
709.9892255863872
 30
0.0
 11
92.23504277485718
 21
707.655892253054
 31
0.0
 12
85.23504277485718
 22
708.8225589197207
 32
0.0
 13
85.23504277485718
 23
708.8225589197207
 33
0.0
  0
SOLID
  5
36D3
330
3087
100
AcDbEntity
  8
BEM
 62
     0
100
AcDbTrace
 10
448.2350427748571
 20
709.9892255863872
 30
0.0
 11
448.2350427748571
 21
707.655892253054
 31
0.0
 12
455.2350427748571
 22
708.8225589197207
 32
0.0
 13
455.2350427748571
 23
708.8225589197207
 33
0.0
  0
MTEXT
  5
36D4
330
3087
100
AcDbEntity
  8
BEM
 62
     1
100
AcDbMText
 10
270.2350427748572
 20
715.3225589197206
 30
0.0
 40
7.0
 41
0.0
 71
     5
 72
     1
  1
\A1;%%c370
 73
     1
 44
1.0
  0
POINT
  5
36D5
330
3087
100
AcDbEntity
  8
DEFPOINTS
 62
     0
100
AcDbPoint
 10
85.23504277485717
 20
564.0896554546495
 30
0.0
  0
POINT
  5
36D6
330
3087
100
AcDbEntity
  8
DEFPOINTS
 62
     0
100
AcDbPoint
 10
455.2350427748571
 20
564.0896554546495
 30
0.0
  0
POINT
  5
36D7
330
3087
100
AcDbEntity
  8
DEFPOINTS
 62
     0
100
AcDbPoint
 10
455.2350427748571
 20
708.8225589197207
 30
0.0
  0
ENDBLK
  5
3092
330
3087
100
AcDbEntity
  8
0
100
AcDbBlockEnd
  0
BLOCK
  5
34D5
330
34CB
100
AcDbEntity
  8
0
100
AcDbBlockBegin
  2
*D7
 70
     1
 10
0.0
 20
0.0
 30
0.0
  3
*D7
  1

  0
LINE
  5
36C6
330
34CB
100
AcDbEntity
  8
BEM
 62
     0
370
    -2
100
AcDbLine
 10
225.7350427748571
 20
168.0896554546495
 30
0.0
 11
225.7350427748571
 21
142.8966781894644
 31
0.0
  0
LINE
  5
36C7
330
34CB
100
AcDbEntity
  8
BEM
 62
     0
370
    -2
100
AcDbLine
 10
314.7350427748572
 20
168.0896554546495
 30
0.0
 11
314.7350427748572
 21
142.8966781894644
 31
0.0
  0
LINE
  5
36C8
330
34CB
100
AcDbEntity
  8
BEM
 62
     0
370
    -2
100
AcDbLine
 10
232.7350427748571
 20
144.8966781894644
 30
0.0
 11
307.7350427748572
 21
144.8966781894644
 31
0.0
  0
SOLID
  5
36C9
330
34CB
100
AcDbEntity
  8
BEM
 62
     0
100
AcDbTrace
 10
232.7350427748571
 20
146.063344856131
 30
0.0
 11
232.7350427748571
 21
143.7300115227977
 31
0.0
 12
225.7350427748571
 22
144.8966781894644
 32
0.0
 13
225.7350427748571
 23
144.8966781894644
 33
0.0
  0
SOLID
  5
36CA
330
34CB
100
AcDbEntity
  8
BEM
 62
     0
100
AcDbTrace
 10
307.7350427748572
 20
146.063344856131
 30
0.0
 11
307.7350427748572
 21
143.7300115227977
 31
0.0
 12
314.7350427748572
 22
144.8966781894644
 32
0.0
 13
314.7350427748572
 23
144.8966781894644
 33
0.0
  0
MTEXT
  5
36CB
330
34CB
100
AcDbEntity
  8
BEM
 62
     1
100
AcDbMText
 10
270.2350427748572
 20
151.3966781894644
 30
0.0
 40
7.0
 41
0.0
 71
     5
 72
     1
  1
\A1;%%c89
 73
     1
 44
1.0
  0
POINT
  5
36CC
330
34CB
100
AcDbEntity
  8
DEFPOINTS
 62
     0
100
AcDbPoint
 10
225.7350427748571
 20
170.0896554546495
 30
0.0
  0
POINT
  5
36CD
330
34CB
100
AcDbEntity
  8
DEFPOINTS
 62
     0
100
AcDbPoint
 10
314.7350427748572
 20
170.0896554546495
 30
0.0
  0
POINT
  5
36CE
330
34CB
100
AcDbEntity
  8
DEFPOINTS
 62
     0
100
AcDbPoint
 10
314.7350427748572
 20
144.8966781894644
 30
0.0
  0
ENDBLK
  5
34D6
330
34CB
100
AcDbEntity
  8
0
100
AcDbBlockEnd
  0
ENDSEC
  0
SECTION
  2
ENTITIES
  0
DIMENSION
  5
DBD
330
20
100
AcDbEntity
  8
BEM
100
AcDbDimension
  2
*D1
 10
38.75796070784748
 20
164.0896554546497
 30
0.0
 11
32.25796070784747
 21
364.0896554546496
 31
0.0
 70
    32
 71
     5
 42
399.9999999999999
  3
Standard
100
AcDbAlignedDimension
 13
85.23504277485717
 23
564.0896554546495
 33
0.0
 14
226.2599747560127
 24
164.0896554546496
 34
0.0
 50
90.0
100
AcDbRotatedDimension
1001
ACAD
1000
DSTYLE
1002
{
1070
    40
1040
2.0
1070
    41
1040
3.5
1070
    42
1040
1.0
1070
    43
1040
7.0
1070
    44
1040
1.0
1070
    47
1040
3.0
1070
    48
1040
3.0
1070
    73
1070
     0
1070
    74
1070
     0
1070
    77
1070
     1
1070
    78
1070
     8
1070
    79
1070
     2
1070
   140
1040
3.5
1070
   141
1040
1.5
1070
   146
1040
0.5
1070
   147
1040
1.5
1070
   172
1070
     1
1070
   178
1070
     1
1070
   179
1070
     2
1070
   271
1070
     2
1070
   272
1070
     2
1070
   284
1070
     8
1070
   285
1070
     8
1070
   286
1070
     8
1070
   340
1005
30
1002
}
  0
TEXT
  5
10EA
330
20
100
AcDbEntity
  8
VOLL
100
AcDbText
 10
81.35936929549407
 20
-9.599300494364459
 30
0.0
 40
1.8
  1

  7
GREEKS
100
AcDbText
  0
LINE
  5
10F9
330
20
100
AcDbEntity
  8
STEMPEL
100
AcDbLine
 10
314.7350427748571
 20
378.2031359712403
 30
0.0
 11
314.7350427748571
 21
170.0896554546482
 31
0.0
  0
LINE
  5
113C
102
{ACAD_REACTORS
330
3773
102
}
330
20
100
AcDbEntity
  8
STEMPEL
100
AcDbLine
 10
226.2599747560127
 20
164.0896554546496
 30
0.0
 11
227.866086496082
 21
164.0896554546496
 31
0.0
  0
LINE
  5
113D
330
20
100
AcDbEntity
  8
STEMPEL
100
AcDbLine
 10
225.735042774857
 20
378.2031359712403
 30
0.0
 11
225.735042774857
 21
171.8894805863568
 31
0.0
  0
TEXT
  5
15E2
330
20
100
AcDbEntity
  8
VOLL
100
AcDbText
 10
-328.235234523289
 20
-725.9773991463078
 30
0.0
 40
1.8
  1

  7
GREEKS
100
AcDbText
  0
TEXT
  5
15EE
330
20
100
AcDbEntity
  8
VOLL
100
AcDbText
 10
-66.51616550689039
 20
-685.0837705726823
 30
0.0
 40
1.8
  1

  7
GREEKS
100
AcDbText
  0
TEXT
  5
15EF
330
20
100
AcDbEntity
  8
TEXT
100
AcDbText
 10
265.3161026967026
 20
-679.5255350394567
 30
0.0
 40
2.5
  1
  
  7
GREEKS
 72
     1
 11
267.5780074586073
 21
-679.5255350394567
 31
0.0
100
AcDbText
  0
TEXT
  5
15F0
330
20
100
AcDbEntity
  8
BEM
100
AcDbText
 10
509.4358200091845
 20
-543.9666530090545
 30
0.0
 40
2.5
  1
 
 72
     4
 11
510.5667723901369
 21
-543.9666530090545
 31
0.0
100
AcDbText
  0
TEXT
  5
1606
330
20
100
AcDbEntity
  8
BEM
100
AcDbText
 10
47.97285287127698
 20
-622.1448444719086
 30
0.0
 40
2.5
  1

  7
GREEKS
100
AcDbText
  0
TEXT
  5
1607
330
20
100
AcDbEntity
  8
VOLL
100
AcDbText
 10
33.90665985155556
 20
-642.3281051289437
 30
0.0
 40
1.8
  1

  7
GREEKS
100
AcDbText
  0
TEXT
  5
1608
330
20
100
AcDbEntity
  8
BEM
100
AcDbText
 10
68.39472469084012
 20
-637.6023808057232
 30
0.0
 40
2.5
  1

 41
0.8
  7
GREEKS
100
AcDbText
  0
TEXT
  5
1609
330
20
100
AcDbEntity
  8
BEM
100
AcDbText
 10
68.39472469084012
 20
-642.2961493597753
 30
0.0
 40
2.5
  1

 41
0.8
  7
GREEKS
100
AcDbText
  0
TEXT
  5
160A
330
20
100
AcDbEntity
  8
BEM
100
AcDbText
 10
68.39472469084012
 20
-647.5339931784388
 30
0.0
 40
2.5
  1

 41
0.8
  7
GREEKS
100
AcDbText
  0
TEXT
  5
160B
330
20
100
AcDbEntity
  8
BEM
100
AcDbText
 10
68.32178021346573
 20
-652.0391821285365
 30
0.0
 40
1.8
  1

 41
0.8
  7
GREEKS
100
AcDbText
  0
TEXT
  5
160C
330
20
100
AcDbEntity
  8
BEM
100
AcDbText
 10
55.63820933385454
 20
-626.4475930323111
 30
0.0
 40
2.0
  1

 41
0.8
  7
GREEKS
 72
     1
 11
55.63820933385454
 21
-626.4475930323111
 31
0.0
100
AcDbText
  0
TEXT
  5
160D
330
20
100
AcDbEntity
  8
TEXT
100
AcDbText
 10
365.7389280551485
 20
-636.7698695957182
 30
0.0
 40
2.5
  1
  
  7
GREEKS
 72
     1
 11
368.0008328170533
 21
-636.7698695957182
 31
0.0
100
AcDbText
  0
TEXT
  5
160E
330
20
100
AcDbEntity
  8
BEM
100
AcDbText
 10
609.8586453676304
 20
-501.210987565316
 30
0.0
 40
2.5
  1
 
 72
     4
 11
610.9895977485828
 21
-501.210987565316
 31
0.0
100
AcDbText
  0
TEXT
  5
17A7
330
20
100
AcDbEntity
  8
TEXT
 62
     1
100
AcDbText
 10
267.4534714256317
 20
408.7573247350393
 30
0.0
 40
7.0
  1
DN80
 50
90.0
 41
0.8
  7
GREEKS
100
AcDbText
  0
LINE
  5
1A43
102
{ACAD_REACTORS
330
3773
102
}
330
20
100
AcDbEntity
  8
STEMPEL
100
AcDbLine
 10
313.1350427748572
 20
537.8423186599698
 30
0.0
 11
313.1350427748571
 21
170.1595129633019
 31
0.0
  0
LINE
  5
1A44
102
{ACAD_REACTORS
330
3773
102
}
330
20
100
AcDbEntity
  8
STEMPEL
100
AcDbLine
 10
314.7350427748572
 20
537.8423186599698
 30
0.0
 11
314.7350427748571
 21
171.8894805863561
 31
0.0
  0
LINE
  5
1A45
102
{ACAD_REACTORS
330
3773
102
}
330
20
100
AcDbEntity
  8
STEMPEL
100
AcDbLine
 10
227.3350427748571
 20
537.8423186599698
 30
0.0
 11
227.335042774857
 21
170.1595129633046
 31
0.0
  0
LINE
  5
1A46
102
{ACAD_REACTORS
330
3773
102
}
330
20
100
AcDbEntity
  8
STEMPEL
100
AcDbLine
 10
225.7350427748572
 20
537.8423186599698
 30
0.0
 11
225.7350427748571
 21
170.0896554546495
 31
0.0
  0
TEXT
  5
1B0F
330
20
100
AcDbEntity
  8
VOLL
100
AcDbText
 10
156.1535094339622
 20
62.05189552941169
 30
0.0
 40
3.6
  1

  7
GREEKS
100
AcDbText
  0
TEXT
  5
1B1E
330
20
100
AcDbEntity
  8
TEXT35
100
AcDbText
 10
506.14002931072
 20
505.0214973110238
 30
0.0
 40
7.0
  1

 41
0.8
100
AcDbText
  0
TEXT
  5
1CAE
330
20
100
AcDbEntity
  8
VOLL
100
AcDbText
 10
156.1535094339622
 20
62.05189552941169
 30
0.0
 40
3.6
  1

  7
GREEKS
100
AcDbText
  0
TEXT
  5
1CB3
330
20
100
AcDbEntity
  8
TEXT35
100
AcDbText
 10
506.14002931072
 20
505.0214973110238
 30
0.0
 40
7.0
  1

 41
0.8
100
AcDbText
  0
LINE
  5
1ECD
102
{ACAD_REACTORS
330
299A
330
327B
330
373D
102
}
330
20
100
AcDbEntity
  8
STEMPEL
100
AcDbLine
 10
85.23504277485717
 20
564.0896554546495
 30
0.0
 11
455.2350427748571
 21
564.0896554546495
 31
0.0
  0
LINE
  5
1ECE
102
{ACAD_REACTORS
330
21D7
330
373D
102
}
330
20
100
AcDbEntity
  8
STEMPEL
100
AcDbLine
 10
85.23504277485717
 20
558.0896554546495
 30
0.0
 11
455.2350427748571
 21
558.0896554546495
 31
0.0
  0
LINE
  5
1ECF
102
{ACAD_REACTORS
330
21D7
330
373D
102
}
330
20
100
AcDbEntity
  8
STEMPEL
100
AcDbLine
 10
85.23504277485717
 20
564.0896554546495
 30
0.0
 11
85.23504277485717
 21
558.0896554546495
 31
0.0
  0
LINE
  5
1ED0
102
{ACAD_REACTORS
330
373D
102
}
330
20
100
AcDbEntity
  8
STEMPEL
100
AcDbLine
 10
455.2350427748571
 20
564.0896554546495
 30
0.0
 11
455.2350427748571
 21
558.0896554546495
 31
0.0
  0
LINE
  5
1EE8
102
{ACAD_REACTORS
330
373D
102
}
330
20
100
AcDbEntity
  8
STEMPEL
100
AcDbLine
 10
321.2350427748572
 20
558.0896554546495
 30
0.0
 11
321.2350427748572
 21
564.0896554546495
 31
0.0
  0
LINE
  5
1EE9
102
{ACAD_REACTORS
330
373D
102
}
330
20
100
AcDbEntity
  8
STEMPEL
100
AcDbLine
 10
219.2350427748572
 20
558.0896554546493
 30
0.0
 11
219.2350427748572
 21
564.0896554546493
 31
0.0
  0
DIMENSION
  5
21BC
102
{ACAD_XDICTIONARY
360
21CB
102
}
102
{ACAD_REACTORS
330
21D7
102
}
330
20
100
AcDbEntity
  8
BEM
100
AcDbDimension
  2
*D2
 10
59.42161637168087
 20
558.0896554546495
 30
0.0
 11
52.92161637168079
 21
539.3563221213162
 31
0.0
 70
    32
 71
     5
 42
6.0
  3
Standard
100
AcDbAlignedDimension
 13
85.23504277485717
 23
564.0896554546495
 33
0.0
 14
85.23504277485717
 24
558.0896554546495
 34
0.0
 50
90.0
100
AcDbRotatedDimension
1001
ACAD
1000
DSTYLE
1002
{
1070
    40
1040
2.0
1070
    41
1040
3.5
1070
    42
1040
1.0
1070
    43
1040
7.0
1070
    44
1040
1.0
1070
    47
1040
3.0
1070
    48
1040
3.0
1070
    73
1070
     0
1070
    74
1070
     0
1070
    77
1070
     1
1070
    78
1070
     8
1070
    79
1070
     2
1070
   140
1040
3.5
1070
   141
1040
1.5
1070
   145
1040
0.5714285714285714
1070
   146
1040
0.5
1070
   147
1040
1.5
1070
   172
1070
     1
1070
   178
1070
     1
1070
   179
1070
     2
1070
   271
1070
     2
1070
   272
1070
     2
1070
   284
1070
     8
1070
   285
1070
     8
1070
   286
1070
     8
1002
}
  0
LINE
  5
2299
330
20
100
AcDbEntity
  8
MITTEL
100
AcDbLine
 10
270.2350427748572
 20
660.7469375451472
 30
0.0
 11
270.2350427748572
 21
160.054009926941
 31
0.0
  0
TEXT
  5
289D
330
20
100
AcDbEntity
  8
VOLL
100
AcDbText
 10
-348.4508342853027
 20
163.1111002970935
 30
0.0
 40
1.8
  1

  7
GREEKS
100
AcDbText
  0
LINE
  5
28E8
330
20
100
AcDbEntity
  8
STEMPEL
100
AcDbLine
 10
184.2350427748571
 20
639.0896554546493
 30
0.0
 11
188.0588905763702
 21
639.0896554546493
 31
0.0
  0
LINE
  5
28EA
330
20
100
AcDbEntity
  8
STEMPEL
100
AcDbLine
 10
184.2350427748571
 20
574.0896554546493
 30
0.0
 11
225.2646227458321
 21
574.0896554546493
 31
0.0
  0
LINE
  5
28EB
330
20
100
AcDbEntity
  8
STEMPEL
100
AcDbLine
 10
184.2350427748571
 20
579.0896554546498
 30
0.0
 11
225.2646227458321
 21
579.0896554546495
 31
0.0
  0
LINE
  5
28EC
330
20
100
AcDbEntity
  8
STEMPEL
100
AcDbLine
 10
184.2350427748571
 20
589.0896554546491
 30
0.0
 11
225.2646227458321
 21
589.0896554546491
 31
0.0
  0
LINE
  5
28ED
330
20
100
AcDbEntity
  8
STEMPEL
100
AcDbLine
 10
184.2350427748571
 20
594.0896554546493
 30
0.0
 11
225.2646227458321
 21
594.0896554546493
 31
0.0
  0
LINE
  5
28EE
330
20
100
AcDbEntity
  8
STEMPEL
100
AcDbLine
 10
184.2350427748571
 20
604.0896554546492
 30
0.0
 11
225.2646227458321
 21
604.0896554546493
 31
0.0
  0
LINE
  5
28EF
330
20
100
AcDbEntity
  8
STEMPEL
100
AcDbLine
 10
184.2350427748571
 20
609.0896554546499
 30
0.0
 11
225.2646227458321
 21
609.0896554546495
 31
0.0
  0
LINE
  5
28F0
330
20
100
AcDbEntity
  8
STEMPEL
100
AcDbLine
 10
184.2350427748571
 20
619.089655454649
 30
0.0
 11
225.2646227458321
 21
619.089655454649
 31
0.0
  0
LINE
  5
28F1
330
20
100
AcDbEntity
  8
STEMPEL
100
AcDbLine
 10
184.2350427748571
 20
624.0896554546502
 30
0.0
 11
189.7214797774734
 21
624.0896554546501
 31
0.0
  0
LINE
  5
28F2
330
20
100
AcDbEntity
  8
STEMPEL
100
AcDbLine
 10
184.2350427748571
 20
634.0896554546496
 30
0.0
 11
186.7191446142147
 21
634.0896554546498
 31
0.0
  0
LINE
  5
28F3
102
{ACAD_REACTORS
330
2E8F
102
}
330
20
100
AcDbEntity
  8
STEMPEL
100
AcDbLine
 10
184.2350427748571
 20
639.0896554546493
 30
0.0
 11
184.2350427748571
 21
564.0896554546491
 31
0.0
  0
LINE
  5
28F4
102
{ACAD_REACTORS
330
2E8F
330
327B
102
}
330
20
100
AcDbEntity
  8
STEMPEL
100
AcDbLine
 10
356.2350427748572
 20
639.0896554546491
 30
0.0
 11
356.2350427748572
 21
564.0896554546498
 31
0.0
  0
LINE
  5
28F5
330
20
100
AcDbEntity
  8
STEMPEL
100
AcDbLine
 10
354.4350427748571
 20
639.0896554546491
 30
0.0
 11
354.4350427748571
 21
564.0896554546497
 31
0.0
  0
LINE
  5
28F6
330
20
100
AcDbEntity
  8
STEMPEL
100
AcDbLine
 10
186.0350427748571
 20
639.0896554546493
 30
0.0
 11
186.0350427748571
 21
564.0896554546497
 31
0.0
  0
LINE
  5
28F7
330
20
100
AcDbEntity
  8
STEMPEL
100
AcDbLine
 10
315.2054628038822
 20
574.0896554546491
 30
0.0
 11
354.435042774857
 21
574.0896554546491
 31
0.0
  0
LINE
  5
28F8
330
20
100
AcDbEntity
  8
STEMPEL
100
AcDbLine
 10
315.2054628038822
 20
579.0896554546493
 30
0.0
 11
354.4350427748571
 21
579.0896554546493
 31
0.0
  0
LINE
  5
28F9
330
20
100
AcDbEntity
  8
STEMPEL
100
AcDbLine
 10
315.2054628038822
 20
589.0896554546491
 30
0.0
 11
354.4350427748571
 21
589.0896554546491
 31
0.0
  0
LINE
  5
28FA
330
20
100
AcDbEntity
  8
STEMPEL
100
AcDbLine
 10
315.2054628038822
 20
594.0896554546493
 30
0.0
 11
354.4350427748571
 21
594.0896554546493
 31
0.0
  0
LINE
  5
28FB
330
20
100
AcDbEntity
  8
STEMPEL
100
AcDbLine
 10
315.2054628038822
 20
604.0896554546493
 30
0.0
 11
354.4350427748571
 21
604.0896554546493
 31
0.0
  0
LINE
  5
28FC
330
20
100
AcDbEntity
  8
STEMPEL
100
AcDbLine
 10
315.2054628038822
 20
609.0896554546491
 30
0.0
 11
354.435042774857
 21
609.0896554546489
 31
0.0
  0
LINE
  5
28FD
330
20
100
AcDbEntity
  8
STEMPEL
100
AcDbLine
 10
315.2054628038822
 20
619.089655454649
 30
0.0
 11
354.435042774857
 21
619.089655454649
 31
0.0
  0
LINE
  5
28FE
330
20
100
AcDbEntity
  8
STEMPEL
100
AcDbLine
 10
317.3713716207835
 20
624.0896554546491
 30
0.0
 11
354.4350427748571
 21
624.0896554546488
 31
0.0
  0
LINE
  5
28FF
330
20
100
AcDbEntity
  8
STEMPEL
100
AcDbLine
 10
319.2302333032405
 20
634.0896554546493
 30
0.0
 11
354.4350427748571
 21
634.0896554546493
 31
0.0
  0
LINE
  5
2900
330
20
100
AcDbEntity
  8
STEMPEL
100
AcDbLine
 10
316.1668257023649
 20
564.0896554546495
 30
0.0
 11
309.3978334725315
 21
564.0896554546495
 31
0.0
  0
LINE
  5
2902
330
20
100
AcDbEntity
  8
STEMPEL
100
AcDbLine
 10
231.0722520771827
 20
564.0896554546493
 30
0.0
 11
224.3032598473494
 21
564.0896554546493
 31
0.0
  0
LINE
  5
2903
330
20
100
AcDbEntity
  8
STEMPEL
100
AcDbLine
 10
231.0722520771827
 20
574.0896554546493
 30
0.0
 11
309.3978334725315
 21
574.0896554546491
 31
0.0
  0
LINE
  5
2904
330
20
100
AcDbEntity
  8
STEMPEL
100
AcDbLine
 10
231.0722520771827
 20
579.0896554546495
 30
0.0
 11
309.3978334725315
 21
579.0896554546493
 31
0.0
  0
LINE
  5
2905
330
20
100
AcDbEntity
  8
STEMPEL
100
AcDbLine
 10
231.0722520771827
 20
589.0896554546491
 30
0.0
 11
309.3978334725315
 21
589.0896554546491
 31
0.0
  0
LINE
  5
2906
330
20
100
AcDbEntity
  8
STEMPEL
100
AcDbLine
 10
231.0722520771827
 20
594.0896554546493
 30
0.0
 11
309.3978334725315
 21
594.0896554546493
 31
0.0
  0
LINE
  5
2907
330
20
100
AcDbEntity
  8
STEMPEL
100
AcDbLine
 10
231.0722520771827
 20
604.0896554546493
 30
0.0
 11
309.3978334725315
 21
604.0896554546493
 31
0.0
  0
LINE
  5
2908
330
20
100
AcDbEntity
  8
STEMPEL
100
AcDbLine
 10
231.0722520771827
 20
609.0896554546493
 30
0.0
 11
309.3978334725315
 21
609.0896554546491
 31
0.0
  0
LINE
  5
2909
330
20
100
AcDbEntity
  8
STEMPEL
100
AcDbLine
 10
231.0722520771827
 20
619.089655454649
 30
0.0
 11
309.3978334725315
 21
619.089655454649
 31
0.0
  0
LINE
  5
290A
330
20
100
AcDbEntity
  8
STEMPEL
100
AcDbLine
 10
231.0722520771827
 20
624.0896554546497
 30
0.0
 11
303.2342910382404
 21
624.0896554546492
 31
0.0
  0
LINE
  5
290B
330
20
100
AcDbEntity
  8
STEMPEL
100
AcDbLine
 10
231.0722520771827
 20
634.0896554546498
 30
0.0
 11
305.2398522464738
 21
634.0896554546494
 31
0.0
  0
LINE
  5
290E
330
20
100
AcDbEntity
  8
STEMPEL
100
AcDbLine
 10
231.0722520771827
 20
634.0896554546498
 30
0.0
 11
231.0722520771827
 21
624.0896554546497
 31
0.0
  0
LINE
  5
290F
330
20
100
AcDbEntity
  8
STEMPEL
100
AcDbLine
 10
309.3978334725315
 20
619.089655454649
 30
0.0
 11
309.3978334725315
 21
609.0896554546491
 31
0.0
  0
LINE
  5
2910
330
20
100
AcDbEntity
  8
STEMPEL
100
AcDbLine
 10
309.3978334725315
 20
604.0896554546493
 30
0.0
 11
309.3978334725315
 21
594.0896554546493
 31
0.0
  0
LINE
  5
2911
330
20
100
AcDbEntity
  8
STEMPEL
100
AcDbLine
 10
309.3978334725315
 20
589.0896554546491
 30
0.0
 11
309.3978334725315
 21
579.0896554546493
 31
0.0
  0
LINE
  5
2912
330
20
100
AcDbEntity
  8
STEMPEL
100
AcDbLine
 10
309.3978334725315
 20
574.0896554546491
 30
0.0
 11
309.3978334725315
 21
564.0896554546495
 31
0.0
  0
LINE
  5
2913
330
20
100
AcDbEntity
  8
STEMPEL
100
AcDbLine
 10
231.0722520771827
 20
574.0896554546493
 30
0.0
 11
231.0722520771827
 21
564.0896554546493
 31
0.0
  0
LINE
  5
2914
330
20
100
AcDbEntity
  8
STEMPEL
100
AcDbLine
 10
231.0722520771827
 20
589.0896554546491
 30
0.0
 11
231.0722520771827
 21
579.0896554546495
 31
0.0
  0
LINE
  5
2915
330
20
100
AcDbEntity
  8
STEMPEL
100
AcDbLine
 10
231.0722520771827
 20
604.0896554546493
 30
0.0
 11
231.0722520771827
 21
594.0896554546493
 31
0.0
  0
LINE
  5
2916
330
20
100
AcDbEntity
  8
STEMPEL
100
AcDbLine
 10
231.0722520771827
 20
619.089655454649
 30
0.0
 11
231.0722520771827
 21
609.0896554546493
 31
0.0
  0
LINE
  5
2919
330
20
100
AcDbEntity
  8
STEMPEL
100
AcDbLine
 10
225.2646227458321
 20
634.0896554546498
 30
0.0
 11
225.2646227458321
 21
624.0896554546497
 31
0.0
  0
LINE
  5
291A
330
20
100
AcDbEntity
  8
STEMPEL
100
AcDbLine
 10
224.3032598473494
 20
634.0896554546498
 30
0.0
 11
224.3032598473495
 21
624.0896554546497
 31
0.0
  0
LINE
  5
291B
330
20
100
AcDbEntity
  8
STEMPEL
100
AcDbLine
 10
316.1668257023647
 20
574.0896554546491
 30
0.0
 11
316.1668257023647
 21
564.0896554546495
 31
0.0
  0
LINE
  5
291C
330
20
100
AcDbEntity
  8
STEMPEL
100
AcDbLine
 10
315.2054628038822
 20
574.0896554546491
 30
0.0
 11
315.2054628038822
 21
564.0896554546495
 31
0.0
  0
LINE
  5
291D
330
20
100
AcDbEntity
  8
STEMPEL
100
AcDbLine
 10
316.1668257023647
 20
589.0896554546491
 30
0.0
 11
316.1668257023647
 21
579.0896554546493
 31
0.0
  0
LINE
  5
291E
330
20
100
AcDbEntity
  8
STEMPEL
100
AcDbLine
 10
315.2054628038822
 20
589.0896554546491
 30
0.0
 11
315.2054628038822
 21
579.0896554546493
 31
0.0
  0
LINE
  5
291F
330
20
100
AcDbEntity
  8
STEMPEL
100
AcDbLine
 10
316.1668257023647
 20
604.0896554546493
 30
0.0
 11
316.1668257023647
 21
594.0896554546493
 31
0.0
  0
LINE
  5
2920
330
20
100
AcDbEntity
  8
STEMPEL
100
AcDbLine
 10
315.2054628038821
 20
604.0896554546493
 30
0.0
 11
315.2054628038822
 21
594.0896554546493
 31
0.0
  0
LINE
  5
2921
330
20
100
AcDbEntity
  8
STEMPEL
100
AcDbLine
 10
316.1668257023647
 20
619.089655454649
 30
0.0
 11
316.1668257023647
 21
609.0896554546491
 31
0.0
  0
LINE
  5
2922
330
20
100
AcDbEntity
  8
STEMPEL
100
AcDbLine
 10
315.2054628038822
 20
619.089655454649
 30
0.0
 11
315.2054628038822
 21
609.0896554546491
 31
0.0
  0
LINE
  5
2923
330
20
100
AcDbEntity
  8
STEMPEL
100
AcDbLine
 10
225.2646227458321
 20
619.089655454649
 30
0.0
 11
225.2646227458321
 21
609.0896554546495
 31
0.0
  0
LINE
  5
2924
330
20
100
AcDbEntity
  8
STEMPEL
100
AcDbLine
 10
224.3032598473495
 20
619.089655454649
 30
0.0
 11
224.3032598473495
 21
609.0896554546495
 31
0.0
  0
LINE
  5
2925
330
20
100
AcDbEntity
  8
STEMPEL
100
AcDbLine
 10
225.2646227458321
 20
604.0896554546493
 30
0.0
 11
225.2646227458321
 21
594.0896554546493
 31
0.0
  0
LINE
  5
2926
330
20
100
AcDbEntity
  8
STEMPEL
100
AcDbLine
 10
224.3032598473495
 20
604.0896554546493
 30
0.0
 11
224.3032598473494
 21
594.0896554546493
 31
0.0
  0
LINE
  5
2927
330
20
100
AcDbEntity
  8
STEMPEL
100
AcDbLine
 10
225.2646227458321
 20
589.0896554546491
 30
0.0
 11
225.2646227458321
 21
579.0896554546495
 31
0.0
  0
LINE
  5
2928
330
20
100
AcDbEntity
  8
STEMPEL
100
AcDbLine
 10
224.3032598473494
 20
589.0896554546491
 30
0.0
 11
224.3032598473494
 21
579.0896554546495
 31
0.0
  0
LINE
  5
2929
330
20
100
AcDbEntity
  8
STEMPEL
100
AcDbLine
 10
225.2646227458321
 20
574.0896554546493
 30
0.0
 11
225.2646227458321
 21
564.0896554546493
 31
0.0
  0
LINE
  5
292A
330
20
100
AcDbEntity
  8
STEMPEL
100
AcDbLine
 10
224.3032598473494
 20
574.0896554546493
 30
0.0
 11
224.3032598473494
 21
564.0896554546493
 31
0.0
  0
DIMENSION
  5
2983
102
{ACAD_XDICTIONARY
360
2990
102
}
102
{ACAD_REACTORS
330
299A
102
}
330
20
100
AcDbEntity
  8
BEM
100
AcDbDimension
  2
*D3
 10
38.7579607078476
 20
655.0421741248326
 30
0.0
 11
32.25796070784749
 21
609.5659147897411
 31
0.0
 70
    32
  1
91
 71
     5
 42
90.95251867018305
  3
Standard
100
AcDbAlignedDimension
 13
85.23504277485717
 23
564.0896554546495
 33
0.0
 14
209.2350427748572
 24
655.0421741248326
 34
0.0
 50
270.0
100
AcDbRotatedDimension
1001
ACAD
1000
DSTYLE
1002
{
1070
    40
1040
2.0
1070
    41
1040
3.5
1070
    42
1040
1.0
1070
    43
1040
7.0
1070
    44
1040
1.0
1070
    47
1040
3.0
1070
    48
1040
3.0
1070
    73
1070
     0
1070
    74
1070
     0
1070
    77
1070
     1
1070
    78
1070
     8
1070
    79
1070
     2
1070
   140
1040
3.5
1070
   141
1040
1.5
1070
   145
1040
0.5714285714285714
1070
   146
1040
0.5
1070
   147
1040
1.5
1070
   172
1070
     1
1070
   178
1070
     1
1070
   179
1070
     2
1070
   271
1070
     2
1070
   272
1070
     2
1070
   284
1070
     8
1070
   285
1070
     8
1070
   286
1070
     8
1002
}
  0
TEXT
  5
2A02
330
20
100
AcDbEntity
  8
TEXT
 62
     1
100
AcDbText
 10
347.4557779472141
 20
736.8017665431935
 30
0.0
 40
6.0
  1
Siebdeckel DN70
 41
0.8
100
AcDbText
  0
TEXT
  5
2A03
330
20
100
AcDbEntity
  8
TEXT
 62
     1
100
AcDbText
 10
346.7966776056253
 20
725.4765234083581
 30
0.0
 40
6.0
  1
EDV-Art.Nr. 19096.070X
 41
0.8
100
AcDbText
  0
LINE
  5
2D0D
102
{ACAD_REACTORS
330
3241
102
}
330
20
100
AcDbEntity
  8
STEMPEL
100
AcDbLine
 10
206.2118166217126
 20
654.9296109505379
 30
0.0
 11
182.2118166217127
 21
640.9296109505381
 31
0.0
  0
LINE
  5
2D0E
102
{ACAD_REACTORS
330
3241
102
}
330
20
100
AcDbEntity
  8
STEMPEL
100
AcDbLine
 10
207.2195586727608
 20
653.2020531487412
 30
0.0
 11
183.2195586727608
 21
639.202053148741
 31
0.0
  0
LINE
  5
2D16
330
20
100
AcDbEntity
  8
STEMPEL
100
AcDbLine
 10
190.4679681689933
 20
640.3530488193815
 30
0.0
 11
188.0941904353319
 21
631.4939897114816
 31
0.0
  0
LINE
  5
2D17
330
20
100
AcDbEntity
  8
STEMPEL
100
AcDbLine
 10
188.5361165164152
 20
640.8706869095865
 30
0.0
 11
186.1623387827537
 21
632.0116278016866
 31
0.0
  0
LINE
  5
2D59
330
20
100
AcDbEntity
  8
STEMPEL
100
AcDbLine
 10
191.7549332690811
 20
620.5676106923574
 30
0.0
 11
193.48698407665
 21
621.5676106923574
 31
0.0
  0
LINE
  5
2D5A
330
20
100
AcDbEntity
  8
STEMPEL
100
AcDbLine
 10
186.4620400502676
 20
629.7351706663792
 30
0.0
 11
191.7549332690811
 21
620.5676106923574
 31
0.0
  0
LINE
  5
2D5B
330
20
100
AcDbEntity
  8
STEMPEL
100
AcDbLine
 10
188.1940908578366
 20
630.7351706663792
 30
0.0
 11
193.48698407665
 21
621.5676106923574
 31
0.0
  0
ARC
  5
2D5C
330
20
100
AcDbEntity
  8
STEMPEL
100
AcDbCircle
 10
189.060116261621
 20
631.2351706663791
 30
0.0
 40
1.0
100
AcDbArc
 50
164.9999999999992
 51
210.0000000000005
  0
ARC
  5
2D5D
330
20
100
AcDbEntity
  8
STEMPEL
100
AcDbCircle
 10
189.060116261621
 20
631.2351706663791
 30
0.0
 40
3.0
100
AcDbArc
 50
164.9999999999992
 51
210.0000000000005
  0
LINE
  5
2D5E
102
{ACAD_REACTORS
330
3241
102
}
330
20
100
AcDbEntity
  8
STEMPEL
100
AcDbLine
 10
179.2350427748572
 20
633.7469375451473
 30
0.0
 11
184.2350427748571
 21
633.7469375451473
 31
0.0
  0
LINE
  5
2D5F
102
{ACAD_REACTORS
330
3241
102
}
330
20
100
AcDbEntity
  8
STEMPEL
100
AcDbLine
 10
181.2350427748572
 20
633.7469375451473
 30
0.0
 11
181.2350427748572
 21
635.7469375451473
 31
0.0
  0
LINE
  5
2D60
102
{ACAD_REACTORS
330
2EB9
330
3241
102
}
330
20
100
AcDbEntity
  8
STEMPEL
100
AcDbLine
 10
179.2350427748572
 20
633.7469375451473
 30
0.0
 11
179.2350427748572
 21
635.7469375451473
 31
0.0
  0
ARC
  5
2D61
102
{ACAD_REACTORS
330
3241
102
}
330
20
100
AcDbEntity
  8
STEMPEL
100
AcDbCircle
 10
185.2350427748572
 20
635.7469375451473
 30
0.0
 40
4.0
100
AcDbArc
 50
120.2564371635288
 51
180.0
  0
ARC
  5
2D62
102
{ACAD_REACTORS
330
3241
102
}
330
20
100
AcDbEntity
  8
STEMPEL
100
AcDbCircle
 10
185.2350427748572
 20
635.7469375451473
 30
0.0
 40
6.0
100
AcDbArc
 50
120.2564371635288
 51
180.0
  0
LINE
  5
2D63
330
20
100
AcDbEntity
  8
STEMPEL
100
AcDbLine
 10
200.1014539693041
 20
646.253148396877
 30
0.0
 11
190.9338939952823
 21
640.9602551780635
 31
0.0
  0
ARC
  5
2D65
330
20
100
AcDbEntity
  8
STEMPEL
100
AcDbCircle
 10
191.4338939952824
 20
640.094229774279
 30
0.0
 40
1.0
100
AcDbArc
 50
120.0000000000005
 51
164.9999999999992
  0
ARC
  5
2D66
330
20
100
AcDbEntity
  8
STEMPEL
100
AcDbCircle
 10
198.9070932170575
 20
636.4088557602404
 30
0.0
 40
11.29004406238259
100
AcDbArc
 50
144.2160965002002
 51
156.72152018006
  0
LINE
  5
2D67
330
20
100
AcDbEntity
  8
STEMPEL
100
AcDbLine
 10
198.8935865753902
 20
648.3452360919415
 30
0.0
 11
200.1014539693041
 21
646.253148396877
 31
0.0
  0
LINE
  5
2D69
330
20
100
AcDbEntity
  8
STEMPEL
100
AcDbLine
 10
319.2302333032405
 20
630.9878561119953
 30
0.0
 11
319.2302333032404
 21
641.0493325388159
 31
0.0
  0
LINE
  5
2D6A
330
20
100
AcDbEntity
  8
STEMPEL
100
AcDbLine
 10
318.2302333032404
 20
631.3728476453261
 30
0.0
 11
318.2302333032404
 21
640.2647651403854
 31
0.0
  0
LINE
  5
2D6B
330
20
100
AcDbEntity
  8
STEMPEL
100
AcDbLine
 10
305.2398522464738
 20
631.3728476453263
 30
0.0
 11
305.2398522464738
 21
640.2647651403854
 31
0.0
  0
ARC
  5
2D8E
330
20
100
AcDbEntity
  8
STEMPEL
100
AcDbCircle
 10
317.2302333032405
 20
630.9878561119953
 30
0.0
 40
2.0
100
AcDbArc
 50
344.3219434716735
 51
0.0
  0
LINE
  5
2D8F
330
20
100
AcDbEntity
  8
STEMPEL
100
AcDbLine
 10
302.5264183389593
 20
621.5676106923574
 30
0.0
 11
303.3924437427438
 21
620.5676106923574
 31
0.0
  0
LINE
  5
2D90
330
20
100
AcDbEntity
  8
STEMPEL
100
AcDbLine
 10
315.516799395726
 20
621.5676106923574
 30
0.0
 11
316.3828247995104
 21
620.5676106923574
 31
0.0
  0
LINE
  5
2D91
330
20
100
AcDbEntity
  8
STEMPEL
100
AcDbLine
 10
316.3828247995104
 20
620.5676106923574
 30
0.0
 11
319.1558239271553
 21
630.4473926543119
 31
0.0
  0
LINE
  5
2D92
330
20
100
AcDbEntity
  8
STEMPEL
100
AcDbLine
 10
303.3924437427439
 20
620.5676106923574
 30
0.0
 11
316.3828247995104
 21
620.5676106923574
 31
0.0
  0
LINE
  5
2D93
330
20
100
AcDbEntity
  8
STEMPEL
100
AcDbLine
 10
302.5264183389593
 20
621.5676106923574
 30
0.0
 11
315.516799395726
 21
621.5676106923574
 31
0.0
  0
LINE
  5
2D94
330
20
100
AcDbEntity
  8
HILF
100
AcDbLine
 10
318.2208884682594
 20
631.236457235028
 30
0.0
 11
305.2305074114928
 21
631.236457235028
 31
0.0
  0
LINE
  5
2D95
330
20
100
AcDbEntity
  8
STEMPEL
100
AcDbLine
 10
302.5264183389593
 20
621.5676106923574
 30
0.0
 11
305.2026475584312
 21
631.1026159164846
 31
0.0
  0
ARC
  5
2D96
330
20
100
AcDbEntity
  8
STEMPEL
100
AcDbCircle
 10
304.2398522464738
 20
631.3728476453263
 30
0.0
 40
1.0
100
AcDbArc
 50
344.3219434716735
 51
0.0
  0
LINE
  5
2D97
330
20
100
AcDbEntity
  8
STEMPEL
100
AcDbLine
 10
315.516799395726
 20
621.5676106923574
 30
0.0
 11
318.1930286151979
 21
631.1026159164843
 31
0.0
  0
ARC
  5
2D98
330
20
100
AcDbEntity
  8
STEMPEL
100
AcDbCircle
 10
317.2302333032404
 20
631.3728476453261
 30
0.0
 40
1.0
100
AcDbArc
 50
344.3219434716735
 51
0.0
  0
LINE
  5
2D99
102
{ACAD_REACTORS
330
3241
102
}
330
20
100
AcDbEntity
  8
STEMPEL
100
AcDbLine
 10
356.2350427748572
 20
633.7469375451473
 30
0.0
 11
361.2350427748572
 21
633.7469375451473
 31
0.0
  0
LINE
  5
2D9B
102
{ACAD_REACTORS
330
3241
102
}
330
20
100
AcDbEntity
  8
STEMPEL
100
AcDbLine
 10
358.2582689280016
 20
640.9296109505381
 30
0.0
 11
334.2582689280017
 21
654.929610950538
 31
0.0
  0
LINE
  5
2D9C
102
{ACAD_REACTORS
330
3241
102
}
330
20
100
AcDbEntity
  8
STEMPEL
100
AcDbLine
 10
357.2505268769536
 20
639.2020531487412
 30
0.0
 11
333.2505268769535
 21
653.2020531487412
 31
0.0
  0
LINE
  5
2D9D
102
{ACAD_REACTORS
330
3241
102
}
330
20
100
AcDbEntity
  8
STEMPEL
100
AcDbLine
 10
209.2350427748572
 20
655.7469375451473
 30
0.0
 11
331.2350427748572
 21
655.7469375451473
 31
0.0
  0
LINE
  5
2D9E
102
{ACAD_REACTORS
330
3241
102
}
330
20
100
AcDbEntity
  8
STEMPEL
100
AcDbLine
 10
209.2350427748572
 20
653.7469375451474
 30
0.0
 11
331.2350427748572
 21
653.7469375451474
 31
0.0
  0
ARC
  5
2DA0
102
{ACAD_REACTORS
330
3241
102
}
330
20
100
AcDbEntity
  8
STEMPEL
100
AcDbCircle
 10
209.2350427748572
 20
649.7469375451474
 30
0.0
 40
4.0
100
AcDbArc
 50
90.0
 51
120.2564371635288
  0
ARC
  5
2DA1
102
{ACAD_REACTORS
330
3241
102
}
330
20
100
AcDbEntity
  8
STEMPEL
100
AcDbCircle
 10
209.2350427748572
 20
649.7469375451474
 30
0.0
 40
6.0
100
AcDbArc
 50
90.0
 51
120.2564371635288
  0
LINE
  5
2DA2
102
{ACAD_REACTORS
330
3241
102
}
330
20
100
AcDbEntity
  8
STEMPEL
100
AcDbLine
 10
216.0350427748573
 20
653.7469375451474
 30
0.0
 11
216.0350427748573
 21
655.7469375451473
 31
0.0
  0
LINE
  5
2DA3
102
{ACAD_REACTORS
330
3241
102
}
330
20
100
AcDbEntity
  8
STEMPEL
100
AcDbLine
 10
222.4350427748573
 20
653.7469375451474
 30
0.0
 11
222.4350427748573
 21
655.7469375451473
 31
0.0
  0
LINE
  5
2DA4
330
20
100
AcDbEntity
  8
STEMPEL
100
AcDbLine
 10
227.2634698996033
 20
655.7469375451473
 30
0.0
 11
227.384790243163
 21
655.868257888707
 31
0.0
  0
LINE
  5
2DA5
102
{ACAD_REACTORS
330
3241
102
}
330
20
100
AcDbEntity
  8
STEMPEL
100
AcDbLine
 10
236.2350427748572
 20
653.7469375451474
 30
0.0
 11
236.2350427748572
 21
655.7469375451473
 31
0.0
  0
LINE
  5
2DA6
102
{ACAD_REACTORS
330
3241
102
}
330
20
100
AcDbEntity
  8
STEMPEL
100
AcDbLine
 10
254.2350427748572
 20
653.7469375451474
 30
0.0
 11
254.2350427748572
 21
655.7469375451473
 31
0.0
  0
LINE
  5
2DA7
102
{ACAD_REACTORS
330
3241
102
}
330
20
100
AcDbEntity
  8
STEMPEL
100
AcDbLine
 10
263.2350427748572
 20
653.7469375451474
 30
0.0
 11
263.2350427748572
 21
655.7469375451473
 31
0.0
  0
LINE
  5
2DA8
330
20
100
AcDbEntity
  8
STEMPEL
100
AcDbLine
 10
299.2191833926323
 20
646.2531483968769
 30
0.0
 11
312.2095644493989
 21
646.2531483968769
 31
0.0
  0
LINE
  5
2DA9
330
20
100
AcDbEntity
  8
STEMPEL
100
AcDbLine
 10
299.7191833926324
 20
647.9851992044459
 30
0.0
 11
312.7095644493989
 21
647.9851992044459
 31
0.0
  0
LINE
  5
2DAA
330
20
100
AcDbEntity
  8
STEMPEL
100
AcDbLine
 10
304.9176453628857
 20
641.0000178121553
 30
0.0
 11
299.2191833926323
 21
646.2531483968769
 31
0.0
  0
LINE
  5
2DAB
102
{ACAD_REACTORS
330
3241
102
}
330
20
100
AcDbEntity
  8
STEMPEL
100
AcDbLine
 10
277.2350427748572
 20
653.7469375451474
 30
0.0
 11
277.2350427748572
 21
655.7469375451473
 31
0.0
  0
LINE
  5
2DAC
102
{ACAD_REACTORS
330
3241
102
}
330
20
100
AcDbEntity
  8
STEMPEL
100
AcDbLine
 10
286.2350427748572
 20
653.7469375451474
 30
0.0
 11
286.2350427748572
 21
655.7469375451473
 31
0.0
  0
LINE
  5
2DAD
330
20
100
AcDbEntity
  8
STEMPEL
100
AcDbLine
 10
299.7191833926324
 20
647.9851992044459
 30
0.0
 11
299.2191833926323
 21
646.2531483968769
 31
0.0
  0
ARC
  5
2DAF
330
20
100
AcDbEntity
  8
STEMPEL
100
AcDbCircle
 10
317.2302333032404
 20
641.0493325388159
 30
0.0
 40
2.0
100
AcDbArc
 50
0.0
 51
47.07499282497357
  0
LINE
  5
2DB0
330
20
100
AcDbEntity
  8
STEMPEL
100
AcDbLine
 10
318.5923143592082
 20
642.5138239853509
 30
0.0
 11
312.7095644493989
 21
647.9851992044459
 31
0.0
  0
LINE
  5
2DB1
330
20
100
AcDbEntity
  8
STEMPEL
100
AcDbLine
 10
317.9080264196522
 20
641.0000178121552
 30
0.0
 11
312.2095644493989
 21
646.2531483968769
 31
0.0
  0
LINE
  5
2DB2
330
20
100
AcDbEntity
  8
HILF
100
AcDbLine
 10
305.1557652107919
 20
640.6661420726996
 30
0.0
 11
318.1461462675585
 21
640.6661420726996
 31
0.0
  0
ARC
  5
2DB3
330
20
100
AcDbEntity
  8
STEMPEL
100
AcDbCircle
 10
304.2398522464738
 20
640.2647651403854
 30
0.0
 40
1.0
100
AcDbArc
 50
0.0
 51
47.32857085182612
  0
ARC
  5
2DB4
330
20
100
AcDbEntity
  8
STEMPEL
100
AcDbCircle
 10
317.2302333032404
 20
640.2647651403854
 30
0.0
 40
1.0
100
AcDbArc
 50
0.0
 51
47.32857085182612
  0
LINE
  5
2DB5
102
{ACAD_REACTORS
330
3241
102
}
330
20
100
AcDbEntity
  8
STEMPEL
100
AcDbLine
 10
304.2350427748572
 20
653.7469375451474
 30
0.0
 11
304.2350427748572
 21
655.7469375451473
 31
0.0
  0
LINE
  5
2DB6
330
20
100
AcDbEntity
  8
STEMPEL
100
AcDbLine
 10
312.7095644493989
 20
647.9851992044459
 30
0.0
 11
312.2095644493989
 21
646.2531483968769
 31
0.0
  0
LINE
  5
2DB7
102
{ACAD_REACTORS
330
3241
102
}
330
20
100
AcDbEntity
  8
STEMPEL
100
AcDbLine
 10
318.0350427748571
 20
653.7469375451474
 30
0.0
 11
318.0350427748571
 21
655.7469375451473
 31
0.0
  0
LINE
  5
2DB8
102
{ACAD_REACTORS
330
3241
102
}
330
20
100
AcDbEntity
  8
STEMPEL
100
AcDbLine
 10
324.4350427748571
 20
653.7469375451474
 30
0.0
 11
324.4350427748571
 21
655.7469375451473
 31
0.0
  0
ARC
  5
2DB9
102
{ACAD_REACTORS
330
3241
102
}
330
20
100
AcDbEntity
  8
STEMPEL
100
AcDbCircle
 10
331.2350427748572
 20
649.7469375451474
 30
0.0
 40
6.0
100
AcDbArc
 50
59.74356283647122
 51
90.0
  0
ARC
  5
2DBA
102
{ACAD_REACTORS
330
3241
102
}
330
20
100
AcDbEntity
  8
STEMPEL
100
AcDbCircle
 10
331.2350427748572
 20
649.7469375451474
 30
0.0
 40
4.0
100
AcDbArc
 50
59.74356283647122
 51
90.0
  0
ARC
  5
2DBC
102
{ACAD_REACTORS
330
3241
102
}
330
20
100
AcDbEntity
  8
STEMPEL
100
AcDbCircle
 10
355.2350427748572
 20
635.7469375451473
 30
0.0
 40
6.0
100
AcDbArc
 50
0.0
 51
59.74356283647122
  0
LINE
  5
2DBD
102
{ACAD_REACTORS
330
2EB9
330
3241
102
}
330
20
100
AcDbEntity
  8
STEMPEL
100
AcDbLine
 10
361.2350427748572
 20
633.7469375451473
 30
0.0
 11
361.2350427748572
 21
635.7469375451473
 31
0.0
  0
LINE
  5
2DBE
102
{ACAD_REACTORS
330
3241
102
}
330
20
100
AcDbEntity
  8
STEMPEL
100
AcDbLine
 10
359.2350427748572
 20
633.7469375451473
 30
0.0
 11
359.2350427748572
 21
635.7469375451473
 31
0.0
  0
ARC
  5
2DBF
102
{ACAD_REACTORS
330
3241
102
}
330
20
100
AcDbEntity
  8
STEMPEL
100
AcDbCircle
 10
355.2350427748572
 20
635.7469375451473
 30
0.0
 40
4.0
100
AcDbArc
 50
0.0
 51
59.74356283647122
  0
LINE
  5
2E5E
330
20
100
AcDbEntity
  8
STEMPEL
100
AcDbLine
 10
319.2302333032404
 20
639.0896554546491
 30
0.0
 11
356.2350427748572
 21
639.0896554546491
 31
0.0
  0
LINE
  5
2E5F
330
20
100
AcDbEntity
  8
STEMPEL
100
AcDbLine
 10
188.7896969750349
 20
634.0896554546499
 30
0.0
 11
225.2646227458321
 21
634.0896554546498
 31
0.0
  0
LINE
  5
2E60
330
20
100
AcDbEntity
  8
STEMPEL
100
AcDbLine
 10
190.1294429371904
 20
639.0896554546491
 30
0.0
 11
305.2398522464738
 21
639.0896554546492
 31
0.0
  0
DIMENSION
  5
2E78
102
{ACAD_XDICTIONARY
360
2E85
102
}
102
{ACAD_REACTORS
330
2E8F
102
}
330
20
100
AcDbEntity
  8
BEM
100
AcDbDimension
  2
*D4
 10
356.2350427748572
 20
671.9655134393637
 30
0.0
 11
270.2350427748572
 21
678.4655134393638
 31
0.0
 70
    32
  1
%%c<>
 71
     5
 42
172.0
  3
Standard
100
AcDbAlignedDimension
 13
184.2350427748571
 23
639.0896554546493
 33
0.0
 14
356.2350427748572
 24
639.0896554546491
 34
0.0
100
AcDbRotatedDimension
1001
ACAD
1000
DSTYLE
1002
{
1070
    40
1040
2.0
1070
    41
1040
3.5
1070
    42
1040
1.0
1070
    43
1040
7.0
1070
    44
1040
1.0
1070
    47
1040
3.0
1070
    48
1040
3.0
1070
    73
1070
     0
1070
    74
1070
     0
1070
    77
1070
     1
1070
    78
1070
     8
1070
    79
1070
     2
1070
   140
1040
3.5
1070
   141
1040
1.5
1070
   145
1040
0.5714285714285714
1070
   146
1040
0.5
1070
   147
1040
1.5
1070
   172
1070
     1
1070
   178
1070
     1
1070
   179
1070
     2
1070
   271
1070
     2
1070
   272
1070
     2
1070
   284
1070
     8
1070
   285
1070
     8
1070
   286
1070
     8
1002
}
  0
DIMENSION
  5
2EA2
102
{ACAD_XDICTIONARY
360
2EAF
102
}
102
{ACAD_REACTORS
330
2EB9
102
}
330
20
100
AcDbEntity
  8
BEM
100
AcDbDimension
  2
*D5
 10
361.2350427748572
 20
690.1937281616851
 30
0.0
 11
270.2350427748572
 21
696.6937281616851
 31
0.0
 70
    32
  1
%%c<>
 71
     5
 42
182.0
  3
Standard
100
AcDbAlignedDimension
 13
179.2350427748572
 23
635.7469375451473
 33
0.0
 14
361.2350427748572
 24
635.7469375451473
 34
0.0
100
AcDbRotatedDimension
1001
ACAD
1000
DSTYLE
1002
{
1070
    40
1040
2.0
1070
    41
1040
3.5
1070
    42
1040
1.0
1070
    43
1040
7.0
1070
    44
1040
1.0
1070
    47
1040
3.0
1070
    48
1040
3.0
1070
    73
1070
     0
1070
    74
1070
     0
1070
    77
1070
     1
1070
    78
1070
     8
1070
    79
1070
     2
1070
   140
1040
3.5
1070
   141
1040
1.5
1070
   145
1040
0.5714285714285714
1070
   146
1040
0.5
1070
   147
1040
1.5
1070
   172
1070
     1
1070
   178
1070
     1
1070
   179
1070
     2
1070
   271
1070
     2
1070
   272
1070
     2
1070
   284
1070
     8
1070
   285
1070
     8
1070
   286
1070
     8
1002
}
  0
LINE
  5
2EC5
330
20
100
AcDbEntity
  8
TEXT
 62
     2
100
AcDbLine
 10
436.8166234295842
 20
733.9231921248843
 30
0.0
 11
343.2421065142991
 21
733.9231921248843
 31
0.0
  0
LINE
  5
2EC6
330
20
100
AcDbEntity
  8
TEXT
 62
     2
100
AcDbLine
 10
343.2421065142991
 20
733.9231921248843
 30
0.0
 11
333.5725738915972
 21
710.4387232654268
 31
0.0
  0
LINE
  5
2EC9
330
20
100
AcDbEntity
  8
STEMPEL
100
AcDbLine
 10
192.0308808542321
 20
624.0896554546501
 30
0.0
 11
225.2646227458321
 21
624.0896554546497
 31
0.0
  0
DIMENSION
  5
3086
330
20
100
AcDbEntity
  8
BEM
100
AcDbDimension
  2
*D6
 10
455.2350427748571
 20
708.8225589197207
 30
0.0
 11
270.2350427748572
 21
715.3225589197206
 31
0.0
 70
    32
  1
%%c<>
 71
     5
 42
370.0
  3
Standard
100
AcDbAlignedDimension
 13
85.23504277485717
 23
564.0896554546495
 33
0.0
 14
455.2350427748571
 24
564.0896554546495
 34
0.0
100
AcDbRotatedDimension
1001
ACAD
1000
DSTYLE
1002
{
1070
    40
1040
2.0
1070
    41
1040
3.5
1070
    42
1040
1.0
1070
    43
1040
7.0
1070
    44
1040
1.0
1070
    47
1040
3.0
1070
    48
1040
3.0
1070
    73
1070
     0
1070
    74
1070
     0
1070
    77
1070
     1
1070
    78
1070
     8
1070
    79
1070
     2
1070
   140
1040
3.5
1070
   141
1040
1.5
1070
   145
1040
0.5714285714285714
1070
   146
1040
0.5
1070
   147
1040
1.5
1070
   172
1070
     1
1070
   178
1070
     1
1070
   179
1070
     2
1070
   271
1070
     2
1070
   272
1070
     2
1070
   284
1070
     8
1070
   285
1070
     8
1070
   286
1070
     8
1002
}
  0
TEXT
  5
3123
330
20
100
AcDbEntity
  8
TEXT
 62
     1
100
AcDbText
 10
506.8002190344366
 20
654.979117340995
 30
0.0
 40
6.799999999999999
  1
Sanierungsablauf DN80
 50
90.0
 41
0.75
100
AcDbText
  0
LINE
  5
3124
330
20
100
AcDbEntity
  8
STEMPEL
100
AcDbLine
 10
484.0
 20
830.0
 30
0.0
 11
484.0
 21
470.0
 31
0.0
  0
LINE
  5
3125
330
20
100
AcDbEntity
  8
STEMPEL
100
AcDbLine
 10
484.0
 20
470.0
 30
0.0
 11
584.0
 21
469.9999999999999
 31
0.0
  0
LINE
  5
3126
330
20
100
AcDbEntity
  8
STEMPEL
100
AcDbLine
 10
484.0000000000001
 20
566.0000000000001
 30
0.0
 11
584.0000000000001
 21
565.9999999999999
 31
0.0
  0
LINE
  5
3127
330
20
100
AcDbEntity
  8
STEMPEL
100
AcDbLine
 10
484.0
 20
649.9999999999999
 30
0.0
 11
584.0
 21
649.9999999999999
 31
0.0
  0
LINE
  5
3128
330
20
100
AcDbEntity
  8
STEMPEL
100
AcDbLine
 10
484.0000000000004
 20
752.0000000000001
 30
0.0
 11
554.0
 21
752.0000000000001
 31
0.0
  0
LINE
  5
3129
330
20
100
AcDbEntity
  8
STEMPEL
100
AcDbLine
 10
564.0
 20
565.9999999999999
 30
0.0
 11
564.0
 21
469.9999999999999
 31
0.0
  0
LINE
  5
312A
330
20
100
AcDbEntity
  8
STEMPEL
100
AcDbLine
 10
554.0
 20
830.0
 30
0.0
 11
554.0
 21
565.9999999999999
 31
0.0
  0
LINE
  5
312B
330
20
100
AcDbEntity
  8
STEMPEL
100
AcDbLine
 10
514.0
 20
830.0
 30
0.0
 11
514.0
 21
566.0000000000001
 31
0.0
  0
LINE
  5
312C
330
20
100
AcDbEntity
  8
VOLL
100
AcDbLine
 10
484.0
 20
484.0
 30
0.0
 11
584.0
 21
483.9999999999998
 31
0.0
  0
LINE
  5
312D
330
20
100
AcDbEntity
  8
VOLL
100
AcDbLine
 10
484.0000000000001
 20
524.0000000000001
 30
0.0
 11
584.0000000000001
 21
523.9999999999999
 31
0.0
  0
LINE
  5
312E
330
20
100
AcDbEntity
  8
VOLL
100
AcDbLine
 10
484.0000000000001
 20
544.0000000000001
 30
0.0
 11
584.0000000000001
 21
543.9999999999998
 31
0.0
  0
LINE
  5
312F
330
20
100
AcDbEntity
  8
VOLL
100
AcDbLine
 10
514.0
 20
584.0000000000001
 30
0.0
 11
554.0
 21
584.0000000000001
 31
0.0
  0
LINE
  5
3130
330
20
100
AcDbEntity
  8
VOLL
100
AcDbLine
 10
484.0000000000002
 20
610.0000000000001
 30
0.0
 11
554.0
 21
609.9999999999998
 31
0.0
  0
LINE
  5
3131
330
20
100
AcDbEntity
  8
HILF
100
AcDbLine
 10
494.0
 20
470.0
 30
0.0
 11
494.0
 21
566.0000000000001
 31
0.0
  0
LINE
  5
3132
330
20
100
AcDbEntity
  8
HILF
100
AcDbLine
 10
504.0
 20
470.0
 30
0.0
 11
504.0
 21
566.0000000000001
 31
0.0
  0
LINE
  5
3133
330
20
100
AcDbEntity
  8
HILF
100
AcDbLine
 10
514.0
 20
470.0
 30
0.0
 11
514.0
 21
566.0000000000001
 31
0.0
  0
LINE
  5
3134
330
20
100
AcDbEntity
  8
HILF
100
AcDbLine
 10
524.0
 20
470.0
 30
0.0
 11
524.0
 21
566.0000000000001
 31
0.0
  0
LINE
  5
3135
330
20
100
AcDbEntity
  8
HILF
100
AcDbLine
 10
534.0
 20
470.0
 30
0.0
 11
534.0
 21
566.0000000000001
 31
0.0
  0
LINE
  5
3136
330
20
100
AcDbEntity
  8
HILF
100
AcDbLine
 10
544.0
 20
470.0
 30
0.0
 11
544.0
 21
566.0000000000001
 31
0.0
  0
LINE
  5
3137
330
20
100
AcDbEntity
  8
HILF
100
AcDbLine
 10
554.0
 20
470.0
 30
0.0
 11
554.0
 21
566.0000000000001
 31
0.0
  0
LINE
  5
3138
330
20
100
AcDbEntity
  8
HILF
100
AcDbLine
 10
524.0
 20
566.0000000000001
 30
0.0
 11
524.0
 21
649.9999999999999
 31
0.0
  0
LINE
  5
3139
330
20
100
AcDbEntity
  8
HILF
100
AcDbLine
 10
534.0
 20
566.0000000000001
 30
0.0
 11
534.0
 21
649.9999999999999
 31
0.0
  0
LINE
  5
313A
330
20
100
AcDbEntity
  8
HILF
100
AcDbLine
 10
544.0
 20
566.0000000000001
 30
0.0
 11
544.0
 21
649.9999999999999
 31
0.0
  0
LINE
  5
313B
330
20
100
AcDbEntity
  8
HILF
100
AcDbLine
 10
509.9624175243587
 20
654.7736801096947
 30
0.0
 11
509.9624175243587
 21
746.629784251481
 31
0.0
  0
LINE
  5
313C
330
20
100
AcDbEntity
  8
HILF
100
AcDbLine
 10
524.0
 20
654.7736801096947
 30
0.0
 11
524.0
 21
746.629784251481
 31
0.0
  0
LINE
  5
313D
330
20
100
AcDbEntity
  8
HILF
100
AcDbLine
 10
534.0
 20
654.7736801096947
 30
0.0
 11
534.0
 21
746.629784251481
 31
0.0
  0
LINE
  5
313E
330
20
100
AcDbEntity
  8
HILF
100
AcDbLine
 10
544.0
 20
654.7736801096947
 30
0.0
 11
544.0
 21
746.629784251481
 31
0.0
  0
LINE
  5
313F
330
20
100
AcDbEntity
  8
VOLL
100
AcDbLine
 10
534.0
 20
752.0000000000001
 30
0.0
 11
534.0
 21
830.0
 31
0.0
  0
LINE
  5
3140
330
20
100
AcDbEntity
  8
HILF
100
AcDbLine
 10
510.2201636304418
 20
756.7238616296994
 30
0.0
 11
510.2201636304418
 21
824.8588839326728
 31
0.0
  0
LINE
  5
3141
330
20
100
AcDbEntity
  8
HILF
100
AcDbLine
 10
579.1060174197169
 20
654.7736801096947
 30
0.0
 11
579.1060174197169
 21
824.8588839326728
 31
0.0
  0
TEXT
  5
3142
330
20
100
AcDbEntity
  8
TEXT
100
AcDbText
 10
575.7142857142857
 20
493.2571428571428
 30
0.0
 40
4.0
  1
Änderung
 50
90.0
 41
0.8
 72
     4
 11
574.0
 21
503.9999999999999
 31
0.0
100
AcDbText
  0
TEXT
  5
3143
330
20
100
AcDbEntity
  8
TEXT
100
AcDbText
 10
491.4510671988221
 20
654.8779403809009
 30
0.0
 40
5.0
  1
Benennung
 50
90.0
 41
0.8
100
AcDbText
  0
TEXT
  5
3144
330
20
100
AcDbEntity
  8
TEXT
100
AcDbText
 10
491.6867965462865
 20
756.1787549576341
 30
0.0
 40
5.0
  1
Zeichnungs Nr.
 50
90.0
 41
0.8
100
AcDbText
  0
TEXT
  5
3145
330
20
100
AcDbEntity
  8
TEXT
100
AcDbText
 10
563.1543942980695
 20
654.7422383911358
 30
0.0
 40
5.0
  1
Bauvorhaben
 50
90.0
 41
0.8
100
AcDbText
  0
TEXT
  5
3146
330
20
100
AcDbEntity
  8
TEXT
100
AcDbText
 10
520.8188176290003
 20
756.7238616296994
 30
0.0
 40
5.0
  1
Ersatz für:
 50
90.0
 41
0.8
100
AcDbText
  0
TEXT
  5
3147
330
20
100
AcDbEntity
  8
TEXT
100
AcDbText
 10
580.3453415397281
 20
478.2664110704574
 30
0.0
 40
4.0
  1
Index
 50
180.0
 41
0.8
100
AcDbText
  0
TEXT
  5
3148
330
20
100
AcDbEntity
  8
TEXT
100
AcDbText
 10
575.3333333333333
 20
530.2666666666666
 30
0.0
 40
4.0
  1
Tag
 50
90.0
 41
0.8
 72
     4
 11
574.0
 21
534.0
 31
0.0
100
AcDbText
  0
TEXT
  5
3149
330
20
100
AcDbEntity
  8
TEXT
100
AcDbText
 10
576.0
 20
548.6761904761904
 30
0.0
 40
4.0
  1
Name
 50
90.0
 41
0.8
 72
     4
 11
574.0
 21
554.9999999999998
 31
0.0
100
AcDbText
  0
TEXT
  5
314A
330
20
100
AcDbEntity
  8
TEXT
100
AcDbText
 10
530.3700963038204
 20
567.5836127167614
 30
0.0
 40
4.0
  1
Gez.
 50
90.0
 41
0.8
100
AcDbText
  0
TEXT
  5
314B
330
20
100
AcDbEntity
  8
TEXT
100
AcDbText
 10
540.3107370857163
 20
567.5515086571671
 30
0.0
 40
4.0
  1
Gepr.
 50
90.0
 41
0.8
100
AcDbText
  0
TEXT
  5
314C
330
20
100
AcDbEntity
  8
TEXT
100
AcDbText
 10
550.470536103502
 20
567.6006777387303
 30
0.0
 40
4.0
  1
Norm.
 50
90.0
 41
0.8
100
AcDbText
  0
TEXT
  5
314D
330
20
100
AcDbEntity
  8
TEXT
100
AcDbText
 10
541.925838221214
 20
757.2400861497007
 30
0.0
 40
5.0
  1
ersetzt durch:
 50
90.0
 41
0.8
100
AcDbText
  0
LINE
  5
314E
330
20
100
AcDbEntity
  8
HILF
100
AcDbLine
 10
594.0
 20
0.0
 30
0.0
 11
594.0
 21
840.0000000000002
 31
0.0
  0
LINE
  5
314F
330
20
100
AcDbEntity
  8
HILF
100
AcDbLine
 10
594.0
 20
840.0000000000002
 30
0.0
 11
0.0
 21
840.0000000000002
 31
0.0
  0
LINE
  5
3150
330
20
100
AcDbEntity
  8
HILF
100
AcDbLine
 10
0.0
 20
840.0000000000002
 30
0.0
 11
0.0
 21
0.0000000000000364
 31
0.0
  0
LINE
  5
3151
330
20
100
AcDbEntity
  8
HILF
100
AcDbLine
 10
0.0
 20
0.0000000000000364
 30
0.0
 11
594.0
 21
0.0
 31
0.0
  0
LINE
  5
3152
330
20
100
AcDbEntity
  8
STEMPEL
100
AcDbLine
 10
10.0
 20
830.0
 30
0.0
 11
10.0
 21
40.00000000000003
 31
0.0
  0
LINE
  5
3153
330
20
100
AcDbEntity
  8
STEMPEL
100
AcDbLine
 10
584.0
 20
40.0
 30
0.0
 11
584.0
 21
830.0
 31
0.0
  0
LINE
  5
3154
330
20
100
AcDbEntity
  8
STEMPEL
100
AcDbLine
 10
584.0
 20
830.0
 30
0.0
 11
10.0
 21
830.0
 31
0.0
  0
LINE
  5
3155
330
20
100
AcDbEntity
  8
STEMPEL
100
AcDbLine
 10
10.0
 20
40.00000000000003
 30
0.0
 11
584.0
 21
40.0
 31
0.0
  0
TEXT
  5
3156
330
20
100
AcDbEntity
  8
TEXT
100
AcDbText
 10
522.0
 20
654.862987254257
 30
0.0
 40
5.0
  1
für Flüssigkunststoff
 50
90.0
 41
0.8
100
AcDbText
  0
TEXT
  5
3158
330
20
100
AcDbEntity
  8
TEXT
100
AcDbText
 10
583.4462193823216
 20
836.4132055378062
 30
0.0
 40
4.0
  1
Diese Zeichnung ist urheberrechtlich geschützt und bleibt unser Eigentum. Sie darf weder ganz noch teilweise vervielfältigt und nicht an Dritte weitergegeben werden.
 50
180.0
 41
0.8
100
AcDbText
  0
TEXT
  5
3159
330
20
100
AcDbEntity
  8
TEXT
 62
     1
100
AcDbText
 10
507.0579651405188
 20
767.4377728175697
 30
0.0
 40
7.0
  1
15518080W
 50
90.0
 41
0.8
 72
     1
 11
507.0579651405188
 21
790.3711061509031
 31
0.0
100
AcDbText
  0
TEXT
  5
315B
330
20
100
AcDbEntity
  8
TEXT
100
AcDbText
 10
552.0
 20
654.9713400534564
 30
0.0
 40
4.0
  1
15518080W.DWG
 50
90.0
 41
0.8
100
AcDbText
  0
INSERT
  5
315C
330
20
100
AcDbEntity
  8
STEMPEL
100
AcDbBlockReference
  2
LOGO
 10
549.6760802813286
 20
568.9705276546529
 30
0.0
 41
2.0
 42
2.0
 43
2.0
 50
90.0
  0
LINE
  5
315D
330
20
100
AcDbEntity
  8
HILF
100
AcDbLine
 10
594.0
 20
460.0000000000001
 30
0.0
 11
584.0
 21
460.0000000000001
 31
0.0
  0
LINE
  5
315E
330
20
100
AcDbEntity
  8
HILF
100
AcDbLine
 10
10.0
 20
460.0000000000001
 30
0.0
 11
0.0
 21
460.0000000000001
 31
0.0
  0
TEXT
  5
3160
330
20
100
AcDbEntity
  8
TEXT
100
AcDbText
 10
491.4510671988221
 20
576.1904761904762
 30
0.0
 40
5.0
  1
Maßstab
 50
90.0
 41
0.8
 72
     1
 11
491.4510671988221
 21
588.0000000000001
 31
0.0
100
AcDbText
  0
TEXT
  5
3161
330
20
100
AcDbEntity
  8
TEXT
100
AcDbText
 10
491.4510671988221
 20
616.5714285714285
 30
0.0
 40
5.0
  1
Zul. Abw.
 50
90.0
 41
0.8
 72
     1
 11
491.4510671988221
 21
630.0
 31
0.0
100
AcDbText
  0
TEXT
  5
3162
330
20
100
AcDbEntity
  8
TEXT
100
AcDbText
 10
506.0254814117801
 20
613.0095238095237
 30
0.0
 40
4.0
  1
DIN EN1123-2
 50
90.0
 41
0.8
 72
     1
 11
506.0254814117801
 21
630.0
 31
0.0
100
AcDbText
  0
TEXT
  5
3163
330
20
100
AcDbEntity
  8
TEXT
 62
     1
100
AcDbText
 10
505.9065984160819
 20
582.0000000000001
 30
0.0
 40
7.0
  1
1:2
 50
90.0
 41
0.8
 72
     1
 11
505.9065984160819
 21
588.0000000000001
 31
0.0
100
AcDbText
  0
TEXT
  5
3164
330
20
100
AcDbEntity
  8
TEXT
100
AcDbText
 10
521.0
 20
569.3619047619047
 30
0.0
 40
4.0
  1
2008
 50
90.0
 41
0.8
 72
     4
 11
519.0
 21
575.0
 31
0.0
100
AcDbText
  0
TEXT
  5
3165
330
20
100
AcDbEntity
  8
TEXT
100
AcDbText
 10
520.3333333333334
 20
593.2666666666666
 30
0.0
 40
4.0
  1
Tag
 50
90.0
 41
0.8
 72
     4
 11
519.0
 21
597.0
 31
0.0
100
AcDbText
  0
TEXT
  5
3166
330
20
100
AcDbEntity
  8
TEXT
100
AcDbText
 10
521.0
 20
623.6761904761905
 30
0.0
 40
4.0
  1
Name
 50
90.0
 41
0.8
 72
     4
 11
519.0
 21
630.0
 31
0.0
100
AcDbText
  0
TEXT
  5
3167
330
20
100
AcDbEntity
  8
TEXT
100
AcDbText
 10
531.0
 20
589.9904761904762
 30
0.0
 40
4.0
  1
27.05.
 50
90.0
 41
0.8
 72
     4
 11
529.0
 21
597.0
 31
0.0
100
AcDbText
  0
TEXT
  5
3168
330
20
100
AcDbEntity
  8
TEXT
100
AcDbText
 10
531.0
 20
624.7428571428571
 30
0.0
 40
4.0
  1
Koeh
 50
90.0
 41
0.8
 72
     4
 11
529.0
 21
630.0
 31
0.0
100
AcDbText
  0
TEXT
  5
316A
330
20
100
AcDbEntity
  8
TEXT
100
AcDbText
 10
478.1548469145179
 20
473.9727920339915
 30
0.0
 40
5.0
  1
Erstellt mit AUTOCAD 2004
 50
90.0
 41
0.8
100
AcDbText
  0
HATCH
  5
3241
330
20
100
AcDbEntity
  8
SCHRAFF
100
AcDbHatch
 10
0.0
 20
0.0
 30
0.0
210
0.0
220
0.0
230
1.0
  2
_USER
 70
     0
 71
     1
 91
        6
 92
        7
 72
     1
 73
     1
 93
       12
 10
334.2582689280017
 20
654.929610950538
 42
0.1327909774928398
 10
331.2350427748572
 20
655.7469375451473
 42
0.0
 10
324.4350427748571
 20
655.7469375451473
 42
0.0
 10
324.4350427748571
 20
653.7469375451474
 42
0.0
 10
331.2350427748572
 20
653.7469375451474
 42
-0.1327909774928428
 10
333.2505268769535
 20
653.2020531487412
 42
0.0
 10
357.2505268769536
 20
639.2020531487412
 42
-0.2667502984552112
 10
359.2350427748572
 20
635.7469375451473
 42
0.0
 10
359.2350427748572
 20
633.7469375451473
 42
0.0
 10
361.2350427748572
 20
633.7469375451473
 42
0.0
 10
361.2350427748572
 20
635.7469375451473
 42
0.2667502984552029
 10
358.2582689280018
 20
640.9296109505379
 42
0.0
 97
       12
330
2DB9
330
2D9D
330
2DB8
330
2D9E
330
2DBA
330
2D9C
330
2DBF
330
2DBE
330
2D99
330
2DBD
330
2DBC
330
2D9B
 92
        7
 72
     0
 73
     1
 93
        4
 10
318.0350427748571
 20
655.7469375451473
 10
304.2350427748572
 20
655.7469375451473
 10
304.2350427748572
 20
653.7469375451474
 10
318.0350427748572
 20
653.7469375451474
 97
        4
330
2D9D
330
2DB5
330
2D9E
330
2DB7
 92
        7
 72
     0
 73
     1
 93
        4
 10
277.2350427748572
 20
655.7469375451472
 10
277.2350427748573
 20
653.7469375451474
 10
286.2350427748573
 20
653.7469375451474
 10
286.2350427748573
 20
655.7469375451473
 97
        4
330
2D9D
330
2DAB
330
2D9E
330
2DAC
 92
        7
 72
     0
 73
     1
 93
        4
 10
263.2350427748572
 20
655.7469375451473
 10
254.2350427748572
 20
655.7469375451473
 10
254.2350427748572
 20
653.7469375451474
 10
263.2350427748572
 20
653.7469375451472
 97
        4
330
2D9D
330
2DA6
330
2D9E
330
2DA7
 92
        7
 72
     0
 73
     1
 93
        4
 10
236.2350427748572
 20
655.7469375451473
 10
222.4350427748572
 20
655.7469375451473
 10
222.4350427748573
 20
653.7469375451474
 10
236.2350427748572
 20
653.7469375451474
 97
        4
330
2D9D
330
2DA3
330
2D9E
330
2DA5
 92
        7
 72
     1
 73
     1
 93
       12
 10
216.0350427748573
 20
655.7469375451473
 42
0.0
 10
209.2350427748572
 20
655.7469375451473
 42
0.1327909774928398
 10
206.2118166217127
 20
654.929610950538
 42
0.0
 10
182.2118166217127
 20
640.9296109505381
 42
0.2667502984552101
 10
179.2350427748572
 20
635.7469375451473
 42
0.0
 10
179.2350427748572
 20
633.7469375451474
 42
0.0
 10
181.2350427748572
 20
633.7469375451474
 42
0.0
 10
181.2350427748572
 20
635.7469375451473
 42
-0.2667502984551961
 10
183.2195586727608
 20
639.202053148741
 42
0.0
 10
207.2195586727608
 20
653.2020531487412
 42
-0.1327909774928265
 10
209.235042774857
 20
653.7469375451474
 42
0.0
 10
216.0350427748573
 20
653.7469375451474
 42
0.0
 97
       12
330
2D9D
330
2DA1
330
2D0D
330
2D62
330
2D60
330
2D5E
330
2D5F
330
2D61
330
2D0E
330
2DA0
330
2D9E
330
2DA2
 75
     0
 76
     0
 52
45.0
 41
2.0
 77
     0
 78
     1
 53
45.0
 43
0.0
 44
71.79033641607952
 45
-1.414213562373094
 46
1.414213562373095
 79
     0
 47
0.2825333351065566
 98
        6
 10
327.9569954945237
 20
654.2504452777479
 10
309.296680666721
 20
655.0980451090112
 10
282.1544010972252
 20
654.815513151183
 10
261.5149605293668
 20
654.2504452777479
 10
229.5662349065719
 20
654.5329792144657
 10
212.0368474436745
 20
655.0980451090112
  0
HATCH
  5
3266
330
20
100
AcDbEntity
  8
SCHRAFF
100
AcDbHatch
 10
0.0
 20
0.0
 30
0.0
210
0.0
220
0.0
230
1.0
  2
_USER
 70
     0
 71
     0
 91
        6
 92
        7
 72
     0
 73
     1
 93
        4
 10
356.2350427748572
 20
639.0896554546491
 10
354.4350427748572
 20
639.0896554546491
 10
354.435042774857
 20
564.0896554546498
 10
356.2350427748572
 20
564.0896554546497
 97
        0
 92
        7
 72
     0
 73
     1
 93
        4
 10
186.0350427748571
 20
639.0896554546493
 10
184.2350427748571
 20
639.0896554546493
 10
184.2350427748571
 20
634.0896554546495
 10
186.0350427748571
 20
634.0896554546498
 97
        0
 92
        7
 72
     0
 73
     1
 93
        4
 10
186.0350427748571
 20
624.0896554546502
 10
184.2350427748571
 20
624.0896554546502
 10
184.2350427748571
 20
619.089655454649
 10
186.0350427748571
 20
619.089655454649
 97
        0
 92
        7
 72
     0
 73
     1
 93
        4
 10
186.0350427748571
 20
609.0896554546499
 10
184.2350427748571
 20
609.0896554546499
 10
184.2350427748571
 20
604.0896554546492
 10
186.0350427748571
 20
604.0896554546492
 97
        0
 92
        7
 72
     0
 73
     1
 93
        4
 10
186.0350427748571
 20
594.0896554546493
 10
184.2350427748571
 20
594.0896554546493
 10
184.2350427748571
 20
589.0896554546492
 10
186.0350427748571
 20
589.0896554546492
 97
        0
 92
        7
 72
     0
 73
     1
 93
        4
 10
186.0350427748571
 20
579.0896554546499
 10
184.2350427748571
 20
579.0896554546498
 10
184.2350427748571
 20
574.0896554546493
 10
186.0350427748571
 20
574.0896554546492
 97
        0
 75
     0
 76
     0
 52
135.0
 41
2.0
 77
     0
 78
     1
 53
135.0
 43
0.0
 44
71.79033641607952
 45
-1.414213562373095
 46
-1.414213562373094
 79
     0
 47
0.2825333351065566
 98
        6
 10
355.382007855736
 20
634.7556452009139
 10
184.8945678741788
 20
635.8857789688945
 10
185.1773006658955
 20
621.1940439429227
 10
185.4600334576121
 20
607.6324446638209
 10
185.1773006658955
 20
592.6581776800203
 10
185.1773006658955
 20
576.5537769282396
  0
HATCH
  5
3275
330
20
100
AcDbEntity
  8
SCHRAFF
100
AcDbHatch
 10
0.0
 20
0.0
 30
0.0
210
0.0
220
0.0
230
1.0
  2
_USER
 70
     0
 71
     0
 91
        1
 92
        7
 72
     1
 73
     1
 93
       12
 10
189.7482919615792
 20
643.0104809005517
 42
0.0546194224109986
 10
188.5361165164151
 20
640.8706869095862
 42
0.0
 10
186.1623387827537
 20
632.0116278016866
 42
0.1989123673796535
 10
186.4620400502676
 20
629.7351706663792
 42
0.0
 10
191.7549332690811
 20
620.5676106923574
 42
0.0
 10
193.4869840766501
 20
621.5676106923574
 42
0.0
 10
188.1940908578366
 20
630.7351706663792
 42
-0.1989123673796342
 10
188.0941904353319
 20
631.4939897114816
 42
0.0
 10
190.4679681689933
 20
640.3530488193815
 42
-0.198912367379663
 10
190.9338939952823
 20
640.9602551780635
 42
0.0
 10
200.1014539693042
 20
646.253148396877
 42
0.0
 10
198.8935865753902
 20
648.3452360919415
 42
0.0
 97
        0
 75
     0
 76
     0
 52
135.0
 41
1.0
 77
     0
 78
     1
 53
135.0
 43
0.0
 44
71.79033641607952
 45
-0.7071067811865476
 46
-0.7071067811865475
 79
     0
 47
0.0732699459136168
 98
        1
 10
193.5651136580545
 20
643.9671214576283
  0
ARC
  5
3277
102
{ACAD_REACTORS
330
327B
102
}
330
20
100
AcDbEntity
  8
SCHRAFF
100
AcDbCircle
 10
356.2350427748572
 20
564.0896554546498
 30
0.0
 40
4.0
100
AcDbArc
 50
359.9999999999968
 51
90.0
  0
HATCH
  5
327B
330
20
100
AcDbEntity
  8
SCHRAFF
100
AcDbHatch
 10
0.0
 20
0.0
 30
0.0
210
0.0
220
0.0
230
1.0
  2
_USER
 70
     0
 71
     1
 91
        1
 92
        7
 72
     1
 73
     1
 93
        3
 10
356.2350427748572
 20
568.0896554546498
 42
0.0
 10
356.2350427748572
 20
564.0896554546497
 42
0.0
 10
360.2350427748572
 20
564.0896554546497
 42
0.4142135623731033
 97
        3
330
28F4
330
1ECD
330
3277
 75
     0
 76
     0
 52
0.0
 41
0.1
 77
     0
 78
     1
 53
0.0
 43
0.0
 44
71.79033641607952
 45
0.0
 46
0.1
 79
     0
 47
0.0524918962696119
 98
        1
 10
358.3102283983808
 20
564.6590930473198
  0
LINE
  5
327C
330
20
100
AcDbEntity
  8
TEXT
 62
     2
100
AcDbLine
 10
332.0269490015156
 20
706.6848521099273
 30
0.0
 11
325.7866550658063
 21
691.529001840292
 31
0.0
  0
LINE
  5
327D
330
20
100
AcDbEntity
  8
TEXT
 62
     2
100
AcDbLine
 10
324.2857650464943
 20
687.8837786123099
 30
0.0
 11
318.5692238475354
 21
673.999970675661
 31
0.0
  0
LINE
  5
327E
330
20
100
AcDbEntity
  8
TEXT
 62
     2
100
AcDbLine
 10
316.627519354567
 20
669.2841379173822
 30
0.0
 11
310.5826009492973
 21
654.6027977134902
 31
0.0
  0
LINE
  5
32A9
102
{ACAD_REACTORS
330
3773
102
}
330
20
100
AcDbEntity
  8
STEMPEL
100
AcDbLine
 10
316.0498602922185
 20
543.3037173189865
 30
0.0
 11
323.2350427748572
 21
557.3614689667806
 31
0.0
  0
LINE
  5
32AA
102
{ACAD_REACTORS
330
3773
102
}
330
20
100
AcDbEntity
  8
STEMPEL
100
AcDbLine
 10
321.8103517771721
 20
558.0896554546495
 30
0.0
 11
323.2350427748572
 21
557.3614689667806
 31
0.0
  0
LINE
  5
32AB
102
{ACAD_REACTORS
330
3773
102
}
330
20
100
AcDbEntity
  8
STEMPEL
100
AcDbLine
 10
314.6251692945333
 20
544.0319038068554
 30
0.0
 11
321.8103517771721
 21
558.0896554546495
 31
0.0
  0
ARC
  5
32AD
102
{ACAD_REACTORS
330
3773
102
}
330
20
100
AcDbEntity
  8
STEMPEL
100
AcDbCircle
 10
326.7350427748573
 20
537.8423186599698
 30
0.0
 40
12.0
100
AcDbArc
 50
152.9275661726873
 51
179.9999999999999
  0
ARC
  5
32AE
102
{ACAD_REACTORS
330
3773
102
}
330
20
100
AcDbEntity
  8
STEMPEL
100
AcDbCircle
 10
326.7350427748573
 20
537.8423186599698
 30
0.0
 40
13.6
100
AcDbArc
 50
152.9275661726873
 51
179.9999999999999
  0
LINE
  5
32B0
330
20
100
AcDbEntity
  8
HILF
100
AcDbLine
 10
311.7968000771424
 20
540.6510381376262
 30
0.0
 11
228.6732854725721
 21
540.6510381376262
 31
0.0
  0
ARC
  5
32B2
102
{ACAD_REACTORS
330
3773
102
}
330
20
100
AcDbEntity
  8
STEMPEL
100
AcDbCircle
 10
213.7350427748572
 20
537.8423186599698
 30
0.0
 40
13.6
100
AcDbArc
 50
0.0000000000000579
 51
27.07243382731264
  0
ARC
  5
32B3
102
{ACAD_REACTORS
330
3773
102
}
330
20
100
AcDbEntity
  8
STEMPEL
100
AcDbCircle
 10
213.7350427748572
 20
537.8423186599698
 30
0.0
 40
12.0
100
AcDbArc
 50
0.0000000000000579
 51
27.07243382731264
  0
LINE
  5
32B4
102
{ACAD_REACTORS
330
3773
102
}
330
20
100
AcDbEntity
  8
STEMPEL
100
AcDbLine
 10
225.8449162551811
 20
544.0319038068554
 30
0.0
 11
218.6597337725424
 21
558.0896554546495
 31
0.0
  0
LINE
  5
32B5
102
{ACAD_REACTORS
330
3773
102
}
330
20
100
AcDbEntity
  8
STEMPEL
100
AcDbLine
 10
218.6597337725424
 20
558.0896554546495
 30
0.0
 11
217.2350427748572
 21
557.3614689667806
 31
0.0
  0
LINE
  5
32B6
102
{ACAD_REACTORS
330
3773
102
}
330
20
100
AcDbEntity
  8
STEMPEL
100
AcDbLine
 10
224.4202252574959
 20
543.3037173189865
 30
0.0
 11
217.2350427748572
 21
557.3614689667806
 31
0.0
  0
ARC
  5
3373
330
20
100
AcDbEntity
  8
SCHRAFF
100
AcDbCircle
 10
321.8103517771721
 20
558.0896554546495
 30
0.0
 40
3.011551924996452
100
AcDbArc
 50
275.0200559231603
 51
0.0
  0
HATCH
  5
337A
330
20
100
AcDbEntity
  8
SCHRAFF
100
AcDbHatch
 10
0.0
 20
0.0
 30
0.0
210
0.0
220
0.0
230
1.0
  2
_USER
 70
     0
 71
     0
 91
        1
 92
        7
 72
     1
 73
     1
 93
        4
 10
321.8103517771721
 20
558.0896554546495
 42
0.0
 10
323.2350427748572
 20
557.3614689667806
 42
0.0
 10
322.0738759638225
 20
555.0896554546495
 42
0.3887779908903081
 10
324.8219037021685
 20
558.0896554546495
 42
0.0
 97
        0
 75
     0
 76
     0
 52
0.0
 41
0.1
 77
     0
 78
     1
 53
0.0
 43
0.0
 44
69.79033641607952
 45
0.0
 46
0.1
 79
     0
 47
0.0210183000199671
 98
        1
 10
323.0137739126562
 20
557.8263406996202
  0
HATCH
  5
337B
330
20
100
AcDbEntity
  8
SCHRAFF
100
AcDbHatch
 10
0.0
 20
0.0
 30
0.0
210
0.0
220
0.0
230
1.0
  2
_USER
 70
     0
 71
     0
 91
        1
 92
        7
 72
     1
 73
     1
 93
        4
 10
218.6597337725424
 20
558.0896554546495
 42
0.0
 10
217.2350427748572
 20
557.3614689667806
 42
0.0
 10
218.3962095858919
 20
555.0896554546495
 42
-0.3887779908903081
 10
215.6481818475459
 20
558.0896554546495
 42
0.0
 97
        0
 75
     0
 76
     0
 52
0.0
 41
0.1
 77
     0
 78
     1
 53
180.0
 43
540.4700855497144
 44
69.79033641607952
 45
0.0
 46
0.1
 79
     0
 47
0.0210183000199671
 98
        1
 10
217.4563116370582
 20
557.8263406996202
  0
ARC
  5
337C
330
20
100
AcDbEntity
  8
SCHRAFF
100
AcDbCircle
 10
218.6597337725424
 20
558.0896554546495
 30
0.0
 40
3.011551924996452
100
AcDbArc
 50
180.0
 51
264.9799440768397
  0
LINE
  5
3434
330
20
100
AcDbEntity
  8
HILF
100
AcDbLine
 10
228.9472662549959
 20
170.0896554546496
 30
0.0
 11
311.5228192947185
 21
170.0896554546494
 31
0.0
  0
LINE
  5
3435
102
{ACAD_REACTORS
330
34E1
330
3773
102
}
330
20
100
AcDbEntity
  8
STEMPEL
100
AcDbLine
 10
225.7350427748571
 20
170.0896554546495
 30
0.0
 11
226.2599747560127
 21
164.0896554546496
 31
0.0
  0
LINE
  5
3436
102
{ACAD_REACTORS
330
3773
102
}
330
20
100
AcDbEntity
  8
STEMPEL
100
AcDbLine
 10
227.335042774857
 20
170.1595129633046
 30
0.0
 11
227.866086496082
 21
164.0896554546496
 31
0.0
  0
LINE
  5
3439
102
{ACAD_REACTORS
330
3773
102
}
330
20
100
AcDbEntity
  8
STEMPEL
100
AcDbLine
 10
313.1350427748573
 20
170.1595129633046
 30
0.0
 11
312.6039990536323
 21
164.0896554546496
 31
0.0
  0
LINE
  5
343A
102
{ACAD_REACTORS
330
34E1
330
3773
102
}
330
20
100
AcDbEntity
  8
STEMPEL
100
AcDbLine
 10
314.7350427748572
 20
170.0896554546495
 30
0.0
 11
314.2101107937016
 21
164.0896554546496
 31
0.0
  0
LINE
  5
3472
330
20
100
AcDbEntity
  8
TEXT
 62
     2
100
AcDbLine
 10
353.2683927221512
 20
319.7946791188008
 30
0.0
 11
314.1503372920597
 21
313.5830631874927
 31
0.0
  0
LINE
  5
3473
330
20
100
AcDbEntity
  8
TEXT
 62
     2
100
AcDbLine
 10
449.1370204933224
 20
319.7946791188008
 30
0.0
 11
353.2683927221512
 21
319.7946791188008
 31
0.0
  0
TEXT
  5
3474
330
20
100
AcDbEntity
  8
TEXT
 62
     1
100
AcDbText
 10
356.8229638134774
 20
311.3480104022747
 30
0.0
 40
6.0
  1
EDV-Art.Nr. 15539.080X
 41
0.8
100
AcDbText
  0
TEXT
  5
3475
330
20
100
AcDbEntity
  8
TEXT
 62
     1
100
AcDbText
 10
357.4820641550662
 20
322.67325353711
 30
0.0
 40
6.0
  1
Ablaufkörper DN80
 41
0.8
100
AcDbText
  0
DIMENSION
  5
34CA
102
{ACAD_XDICTIONARY
360
34D7
102
}
102
{ACAD_REACTORS
330
34E1
102
}
330
20
100
AcDbEntity
  8
BEM
100
AcDbDimension
  2
*D7
 10
314.7350427748572
 20
144.8966781894644
 30
0.0
 11
270.2350427748572
 21
151.3966781894644
 31
0.0
 70
    32
  1
%%c<>
 71
     5
 42
89.00000000000011
  3
Standard
100
AcDbAlignedDimension
 13
225.7350427748571
 23
170.0896554546495
 33
0.0
 14
314.7350427748572
 24
170.0896554546495
 34
0.0
100
AcDbRotatedDimension
1001
ACAD
1000
DSTYLE
1002
{
1070
    40
1040
2.0
1070
    41
1040
3.5
1070
    42
1040
1.0
1070
    43
1040
7.0
1070
    44
1040
1.0
1070
    47
1040
3.0
1070
    48
1040
3.0
1070
    73
1070
     0
1070
    74
1070
     0
1070
    77
1070
     1
1070
    78
1070
     8
1070
    79
1070
     2
1070
   140
1040
3.5
1070
   141
1040
1.5
1070
   145
1040
0.5714285714285714
1070
   146
1040
0.5
1070
   147
1040
1.5
1070
   172
1070
     1
1070
   178
1070
     1
1070
   179
1070
     2
1070
   271
1070
     2
1070
   272
1070
     2
1070
   284
1070
     8
1070
   285
1070
     8
1070
   286
1070
     8
1002
}
  0
TEXT
  5
34FD
330
20
100
AcDbEntity
  8
TEXT
100
AcDbText
 10
542.0
 20
654.862987254257
 30
0.0
 40
5.0
  1
EDV-Art.Nr. 15518.080X
 50
90.0
 41
0.8
100
AcDbText
  0
ARC
  5
35AC
330
20
100
AcDbEntity
  8
STEMPEL
100
AcDbCircle
 10
319.7350427748572
 20
179.9501273589687
 30
0.0
 40
3.0
100
AcDbArc
 50
119.9999999999997
 51
180.0
  0
ARC
  5
35AD
330
20
100
AcDbEntity
  8
STEMPEL
100
AcDbCircle
 10
220.7350427748572
 20
179.9501273589687
 30
0.0
 40
3.0
100
AcDbArc
 50
0.0
 51
60.00000000000028
  0
LINE
  5
35AE
330
20
100
AcDbEntity
  8
STEMPEL
100
AcDbLine
 10
316.7350427748572
 20
179.9501273589687
 30
0.0
 11
316.7350427748572
 21
162.0896554546494
 31
0.0
  0
LINE
  5
35AF
330
20
100
AcDbEntity
  8
STEMPEL
100
AcDbLine
 10
223.7350427748572
 20
179.9501273589687
 30
0.0
 11
223.7350427748571
 21
162.0896554546494
 31
0.0
  0
LINE
  5
35B0
330
20
100
AcDbEntity
  8
STEMPEL
100
AcDbLine
 10
215.2350427748572
 20
197.5896554546494
 30
0.0
 11
215.2350427748572
 21
198.0896554546495
 31
0.0
  0
LINE
  5
35B1
330
20
100
AcDbEntity
  8
STEMPEL
100
AcDbLine
 10
215.2350427748572
 20
186.5896554546494
 30
0.0
 11
215.2350427748572
 21
187.0896554546494
 31
0.0
  0
LINE
  5
35B2
330
20
100
AcDbEntity
  8
STEMPEL
100
AcDbLine
 10
215.2350427748572
 20
208.5896554546494
 30
0.0
 11
215.2350427748572
 21
209.0896554546495
 31
0.0
  0
LINE
  5
35B3
330
20
100
AcDbEntity
  8
STEMPEL
100
AcDbLine
 10
215.2350427748572
 20
187.0896554546494
 30
0.0
 11
222.6464186680098
 21
187.0896554546493
 31
0.0
  0
LINE
  5
35B4
330
20
100
AcDbEntity
  8
STEMPEL
100
AcDbLine
 10
215.2350427748572
 20
197.5896554546494
 30
0.0
 11
221.8785160741374
 21
193.7540443569559
 31
0.0
  0
LINE
  5
35B5
330
20
100
AcDbEntity
  8
STEMPEL
100
AcDbLine
 10
215.2350427748572
 20
198.0896554546495
 30
0.0
 11
222.6464186680098
 21
198.0896554546493
 31
0.0
  0
LINE
  5
35B6
330
20
100
AcDbEntity
  8
STEMPEL
100
AcDbLine
 10
215.2350427748572
 20
209.0896554546495
 30
0.0
 11
222.6695902109208
 21
209.0896554546493
 31
0.0
  0
LINE
  5
35B7
330
20
100
AcDbEntity
  8
STEMPEL
100
AcDbLine
 10
215.2350427748572
 20
208.5896554546494
 30
0.0
 11
221.8785160741374
 21
204.7540443569559
 31
0.0
  0
LINE
  5
35B8
330
20
100
AcDbEntity
  8
STEMPEL
100
AcDbLine
 10
223.3368259054924
 20
215.3665073211914
 30
0.0
 11
223.6675838134577
 21
210.1529702972645
 31
0.0
  0
ARC
  5
35B9
330
20
100
AcDbEntity
  8
STEMPEL
100
AcDbCircle
 10
222.6464186680098
 20
188.0896554546493
 30
0.0
 40
1.0
100
AcDbArc
 50
270.0
 51
4.859412574886842
  0
ARC
  5
35BA
330
20
100
AcDbEntity
  8
STEMPEL
100
AcDbCircle
 10
222.6695902109208
 20
210.0896554546494
 30
0.0
 40
1.0
100
AcDbArc
 50
270.0
 51
3.630101396023583
  0
ARC
  5
35BB
330
20
100
AcDbEntity
  8
STEMPEL
100
AcDbCircle
 10
220.3428450978816
 20
215.1765627933461
 30
0.0
 40
3.0
100
AcDbArc
 50
3.630101396023583
 51
60.00000000000028
  0
ARC
  5
35BC
330
20
100
AcDbEntity
  8
STEMPEL
100
AcDbCircle
 10
220.3785160741373
 20
191.1559681456025
 30
0.0
 40
3.0
100
AcDbArc
 50
4.859412574885221
 51
60.00000000000028
  0
LINE
  5
35BD
330
20
100
AcDbEntity
  8
STEMPEL
100
AcDbLine
 10
223.3677327367307
 20
191.4101014650912
 30
0.0
 11
223.6428242222076
 21
188.1743665611456
 31
0.0
  0
LINE
  5
35BE
330
20
100
AcDbEntity
  8
STEMPEL
100
AcDbLine
 10
223.3677327367306
 20
202.4101014650912
 30
0.0
 11
223.6428242222076
 21
199.1743665611456
 31
0.0
  0
ARC
  5
35BF
330
20
100
AcDbEntity
  8
STEMPEL
100
AcDbCircle
 10
220.3785160741373
 20
202.1559681456025
 30
0.0
 40
3.0
100
AcDbArc
 50
4.859412574885221
 51
60.00000000000028
  0
ARC
  5
35C0
330
20
100
AcDbEntity
  8
STEMPEL
100
AcDbCircle
 10
222.6464186680098
 20
199.0896554546493
 30
0.0
 40
1.0
100
AcDbArc
 50
270.0
 51
4.859412574886842
  0
LINE
  5
35C1
330
20
100
AcDbEntity
  8
STEMPEL
100
AcDbLine
 10
215.2350427748572
 20
221.5896554546495
 30
0.0
 11
221.8428450978816
 21
217.7746390046995
 31
0.0
  0
ARC
  5
35C2
330
20
100
AcDbEntity
  8
STEMPEL
100
AcDbCircle
 10
317.8236668817045
 20
199.0896554546493
 30
0.0
 40
1.0
100
AcDbArc
 50
175.1405874251131
 51
270.0
  0
ARC
  5
35C3
330
20
100
AcDbEntity
  8
STEMPEL
100
AcDbCircle
 10
320.091569475577
 20
202.1559681456025
 30
0.0
 40
3.0
100
AcDbArc
 50
119.9999999999997
 51
175.1405874251148
  0
LINE
  5
35C4
330
20
100
AcDbEntity
  8
STEMPEL
100
AcDbLine
 10
317.1023528129837
 20
202.4101014650912
 30
0.0
 11
316.8272613275068
 21
199.1743665611456
 31
0.0
  0
LINE
  5
35C5
330
20
100
AcDbEntity
  8
STEMPEL
100
AcDbLine
 10
317.1023528129836
 20
191.4101014650912
 30
0.0
 11
316.8272613275067
 21
188.1743665611456
 31
0.0
  0
ARC
  5
35C6
330
20
100
AcDbEntity
  8
STEMPEL
100
AcDbCircle
 10
320.0915694755769
 20
191.1559681456025
 30
0.0
 40
3.0
100
AcDbArc
 50
119.9999999999997
 51
175.1405874251148
  0
ARC
  5
35C7
330
20
100
AcDbEntity
  8
STEMPEL
100
AcDbCircle
 10
320.1272404518327
 20
215.1765627933461
 30
0.0
 40
3.0
100
AcDbArc
 50
119.9999999999997
 51
176.3698986039764
  0
ARC
  5
35C8
330
20
100
AcDbEntity
  8
STEMPEL
100
AcDbCircle
 10
317.8004953387935
 20
210.0896554546494
 30
0.0
 40
1.0
100
AcDbArc
 50
176.3698986039764
 51
270.0
  0
ARC
  5
35C9
330
20
100
AcDbEntity
  8
STEMPEL
100
AcDbCircle
 10
317.8236668817044
 20
188.0896554546493
 30
0.0
 40
1.0
100
AcDbArc
 50
175.1405874251131
 51
270.0
  0
LINE
  5
35CA
330
20
100
AcDbEntity
  8
STEMPEL
100
AcDbLine
 10
317.133259644222
 20
215.3665073211913
 30
0.0
 11
316.8025017362566
 21
210.1529702972645
 31
0.0
  0
LINE
  5
35CB
330
20
100
AcDbEntity
  8
STEMPEL
100
AcDbLine
 10
225.7350427748571
 20
220.0896554546495
 30
0.0
 11
225.7350427748571
 21
164.5896554546495
 31
0.0
  0
LINE
  5
35CC
102
{ACAD_REACTORS
330
3773
102
}
330
20
100
AcDbEntity
  8
STEMPEL
100
AcDbLine
 10
226.2350427748571
 20
164.0896554546495
 30
0.0
 11
227.2350427748571
 21
164.0896554546495
 31
0.0
  0
LINE
  5
35CD
330
20
100
AcDbEntity
  8
STEMPEL
100
AcDbLine
 10
227.7350427748572
 20
169.0896554546495
 30
0.0
 11
227.7350427748571
 21
165.5874920421984
 31
0.0
  0
LINE
  5
35CE
330
20
100
AcDbEntity
  8
STEMPEL
100
AcDbLine
 10
229.7350427748571
 20
169.0896554546495
 30
0.0
 11
229.7350427748571
 21
165.6748139280161
 31
0.0
  0
ARC
  5
35CF
330
20
100
AcDbEntity
  8
STEMPEL
100
AcDbCircle
 10
226.2350427748571
 20
164.5896554546495
 30
0.0
 40
0.5
100
AcDbArc
 50
180.0
 51
270.0
  0
LINE
  5
35D1
330
20
100
AcDbEntity
  8
STEMPEL
100
AcDbLine
 10
223.735042774857
 20
222.0896554546495
 30
0.0
 11
225.7350427748571
 21
220.0896554546495
 31
0.0
  0
LINE
  5
35D2
330
20
100
AcDbEntity
  8
STEMPEL
100
AcDbLine
 10
325.2350427748571
 20
221.5896554546495
 30
0.0
 11
318.6272404518326
 21
217.7746390046993
 31
0.0
  0
LINE
  5
35D3
330
20
100
AcDbEntity
  8
STEMPEL
100
AcDbLine
 10
325.2350427748571
 20
208.5896554546494
 30
0.0
 11
318.5915694755769
 21
204.7540443569558
 31
0.0
  0
LINE
  5
35D4
330
20
100
AcDbEntity
  8
STEMPEL
100
AcDbLine
 10
325.2350427748571
 20
209.0896554546495
 30
0.0
 11
317.8004953387935
 21
209.0896554546493
 31
0.0
  0
LINE
  5
35D5
330
20
100
AcDbEntity
  8
STEMPEL
100
AcDbLine
 10
325.2350427748571
 20
198.0896554546495
 30
0.0
 11
317.8236668817045
 21
198.0896554546493
 31
0.0
  0
LINE
  5
35D6
330
20
100
AcDbEntity
  8
STEMPEL
100
AcDbLine
 10
325.2350427748571
 20
197.5896554546494
 30
0.0
 11
318.5915694755769
 21
193.7540443569559
 31
0.0
  0
LINE
  5
35D7
330
20
100
AcDbEntity
  8
STEMPEL
100
AcDbLine
 10
325.2350427748571
 20
186.5896554546494
 30
0.0
 11
318.2350427748572
 21
182.5482035703221
 31
0.0
  0
LINE
  5
35D8
330
20
100
AcDbEntity
  8
STEMPEL
100
AcDbLine
 10
325.2350427748571
 20
187.0896554546494
 30
0.0
 11
317.8236668817044
 21
187.0896554546493
 31
0.0
  0
LINE
  5
35D9
330
20
100
AcDbEntity
  8
STEMPEL
100
AcDbLine
 10
325.2350427748571
 20
222.0896554546495
 30
0.0
 11
325.2350427748571
 21
221.5896554546495
 31
0.0
  0
LINE
  5
35DA
330
20
100
AcDbEntity
  8
STEMPEL
100
AcDbLine
 10
325.2350427748571
 20
208.5896554546494
 30
0.0
 11
325.2350427748571
 21
209.0896554546495
 31
0.0
  0
LINE
  5
35DB
330
20
100
AcDbEntity
  8
STEMPEL
100
AcDbLine
 10
325.2350427748571
 20
186.5896554546494
 30
0.0
 11
325.2350427748571
 21
187.0896554546494
 31
0.0
  0
LINE
  5
35DC
330
20
100
AcDbEntity
  8
STEMPEL
100
AcDbLine
 10
325.2350427748571
 20
197.5896554546494
 30
0.0
 11
325.2350427748571
 21
198.0896554546495
 31
0.0
  0
LINE
  5
35DD
330
20
100
AcDbEntity
  8
STEMPEL
100
AcDbLine
 10
215.2350427748572
 20
222.0896554546495
 30
0.0
 11
215.2350427748572
 21
221.5896554546495
 31
0.0
  0
LINE
  5
35DF
330
20
100
AcDbEntity
  8
STEMPEL
100
AcDbLine
 10
316.7350427748572
 20
222.0896554546495
 30
0.0
 11
314.7350427748571
 21
220.0896554546495
 31
0.0
  0
ARC
  5
35E1
330
20
100
AcDbEntity
  8
STEMPEL
100
AcDbCircle
 10
314.2350427748572
 20
164.5896554546494
 30
0.0
 40
0.5
100
AcDbArc
 50
270.0
 51
0.0
  0
LINE
  5
35E2
330
20
100
AcDbEntity
  8
STEMPEL
100
AcDbLine
 10
227.7350427748572
 20
169.0896554546494
 30
0.0
 11
312.7350427748571
 21
169.0896554546494
 31
0.0
  0
LINE
  5
35E3
330
20
100
AcDbEntity
  8
STEMPEL
100
AcDbLine
 10
215.2350427748571
 20
186.5896554546494
 30
0.0
 11
222.2350427748572
 21
182.5482035703221
 31
0.0
  0
LINE
  5
35E4
330
20
100
AcDbEntity
  8
STEMPEL
100
AcDbLine
 10
310.7350427748571
 20
169.0896554546494
 30
0.0
 11
310.7350427748571
 21
165.6748139280148
 31
0.0
  0
LINE
  5
35E5
330
20
100
AcDbEntity
  8
STEMPEL
100
AcDbLine
 10
312.7350427748571
 20
169.0896554546494
 30
0.0
 11
312.7350427748571
 21
165.5874920421965
 31
0.0
  0
LINE
  5
35E6
330
20
100
AcDbEntity
  8
STEMPEL
100
AcDbLine
 10
314.2350427748572
 20
164.0896554546494
 30
0.0
 11
313.235042774857
 21
164.0896554546494
 31
0.0
  0
LINE
  5
35E7
102
{ACAD_REACTORS
330
3773
102
}
330
20
100
AcDbEntity
  8
STEMPEL
100
AcDbLine
 10
314.7350427748571
 20
220.0896554546495
 30
0.0
 11
314.7350427748571
 21
164.5896554546494
 31
0.0
  0
LINE
  5
35E8
330
20
100
AcDbEntity
  8
STEMPEL
100
AcDbLine
 10
316.7350427748572
 20
162.0896554546494
 30
0.0
 11
223.7350427748571
 21
162.0896554546494
 31
0.0
  0
LINE
  5
35E9
330
20
100
AcDbEntity
  8
STEMPEL
100
AcDbLine
 10
325.2350427748571
 20
222.0896554546495
 30
0.0
 11
314.7350427748571
 21
222.0896554546495
 31
0.0
  0
LINE
  5
35F6
330
20
100
AcDbEntity
  8
STEMPEL
100
AcDbLine
 10
225.7350427748572
 20
222.0896554546495
 30
0.0
 11
215.2350427748572
 21
222.0896554546495
 31
0.0
  0
LINE
  5
3613
330
20
100
AcDbEntity
  8
STEMPEL
100
AcDbLine
 10
310.7350427748571
 20
165.6748139280148
 30
0.0
 11
310.4213820514938
 21
162.0896554546494
 31
0.0
  0
LINE
  5
3614
102
{ACAD_REACTORS
330
3773
102
}
330
20
100
AcDbEntity
  8
STEMPEL
100
AcDbLine
 10
312.6039990536323
 20
164.0896554546494
 30
0.0
 11
314.2101107937016
 21
164.0896554546494
 31
0.0
  0
LINE
  5
3615
330
20
100
AcDbEntity
  8
STEMPEL
100
AcDbLine
 10
229.7350427748571
 20
165.6748139280161
 30
0.0
 11
230.0487034982206
 21
162.0896554546494
 31
0.0
  0
HATCH
  5
365B
330
20
100
AcDbEntity
  8
SCHRAFF
100
AcDbHatch
 10
0.0
 20
0.0
 30
0.0
210
0.0
220
0.0
230
1.0
  2
NET
 70
     0
 71
     0
 91
        2
 92
        7
 72
     1
 73
     1
 93
       33
 10
314.7350427748571
 20
164.5896554546495
 42
-0.4142135623731117
 10
314.2350427748572
 20
164.0896554546494
 42
0.0
 10
312.6039990536324
 20
164.0896554546495
 42
0.0
 10
312.7350427748571
 20
165.5874920421968
 42
0.0
 10
312.7350427748571
 20
169.0896554546495
 42
0.0
 10
310.7350427748571
 20
169.0896554546494
 42
0.0
 10
310.7350427748571
 20
165.6748139280141
 42
0.0
 10
310.4213820514938
 20
162.0896554546495
 42
0.0
 10
316.7350427748572
 20
162.0896554546495
 42
0.0
 10
316.7350427748572
 20
179.9501273589688
 42
-0.2679491924311265
 10
318.2350427748572
 20
182.5482035703221
 42
0.0
 10
325.2350427748571
 20
186.5896554546494
 42
0.0
 10
325.2350427748571
 20
187.0896554546494
 42
0.0
 10
317.8236668817044
 20
187.0896554546493
 42
-0.4392785345969149
 10
316.8272613275067
 20
188.1743665611456
 42
0.0
 10
317.1023528129836
 20
191.4101014650912
 42
-0.2453486997325327
 10
318.5915694755769
 20
193.7540443569558
 42
0.0
 10
325.2350427748571
 20
197.5896554546494
 42
0.0
 10
325.2350427748571
 20
198.0896554546494
 42
0.0
 10
317.8236668817045
 20
198.0896554546493
 42
-0.4392785345969149
 10
316.8272613275068
 20
199.1743665611456
 42
0.0
 10
317.1023528129837
 20
202.4101014650912
 42
-0.2453486997325248
 10
318.5915694755769
 20
204.7540443569558
 42
0.0
 10
325.2350427748571
 20
208.5896554546494
 42
0.0
 10
325.2350427748571
 20
209.0896554546495
 42
0.0
 10
317.8004953387935
 20
209.0896554546493
 42
-0.432894588713171
 10
316.8025017362566
 20
210.1529702972645
 42
0.0
 10
317.133259644222
 20
215.3665073211913
 42
-0.2510430142356945
 10
318.6272404518326
 20
217.7746390046993
 42
0.0
 10
325.2350427748571
 20
221.5896554546495
 42
0.0
 10
325.2350427748571
 20
222.0896554546494
 42
0.0
 10
316.7350427748572
 20
222.0896554546495
 42
0.0
 10
314.7350427748572
 20
220.0896554546495
 42
0.0
 97
        0
 92
        7
 72
     1
 73
     1
 93
       34
 10
225.7350427748571
 20
220.0896554546495
 42
0.0
 10
223.735042774857
 20
222.0896554546495
 42
0.0
 10
215.2350427748572
 20
222.0896554546495
 42
0.0
 10
215.2350427748571
 20
221.5896554546495
 42
0.0
 10
221.8428450978816
 20
217.7746390046995
 42
-0.2510430142356912
 10
223.3368259054924
 20
215.3665073211915
 42
0.0
 10
223.6675838134577
 20
210.1529702972645
 42
-0.4328945887131457
 10
222.6695902109208
 20
209.0896554546493
 42
0.0
 10
215.2350427748572
 20
209.0896554546495
 42
0.0
 10
215.2350427748572
 20
208.5896554546495
 42
0.0
 10
221.8785160741374
 20
204.7540443569559
 42
-0.2453486997325141
 10
223.3677327367306
 20
202.4101014650914
 42
0.0
 10
223.6428242222076
 20
199.1743665611456
 42
-0.4392785345969049
 10
222.6464186680098
 20
198.0896554546493
 42
0.0
 10
215.2350427748572
 20
198.0896554546494
 42
0.0
 10
215.2350427748572
 20
197.5896554546494
 42
0.0
 10
221.8785160741374
 20
193.7540443569558
 42
-0.2453486997325234
 10
223.3677327367307
 20
191.4101014650913
 42
0.0
 10
223.6428242222076
 20
188.1743665611456
 42
-0.4392785345969143
 10
222.6464186680098
 20
187.0896554546493
 42
0.0
 10
215.2350427748572
 20
187.0896554546495
 42
0.0
 10
215.2350427748571
 20
186.5896554546494
 42
0.0
 10
222.2350427748572
 20
182.5482035703221
 42
-0.2679491924311239
 10
223.7350427748572
 20
179.9501273589688
 42
0.0
 10
223.7350427748571
 20
162.0896554546494
 42
0.0
 10
230.0487034982205
 20
162.0896554546495
 42
0.0
 10
229.7350427748571
 20
165.6748139280161
 42
0.0
 10
229.7350427748571
 20
169.0896554546495
 42
0.0
 10
227.7350427748572
 20
169.0896554546495
 42
0.0
 10
227.7350427748572
 20
165.5874920421983
 42
0.0
 10
227.866086496082
 20
164.0896554546496
 42
0.0
 10
226.2599747560127
 20
164.0896554546496
 42
0.0
 10
226.2350427748571
 20
164.0896554546495
 42
-0.4142135623730951
 10
225.7350427748571
 20
164.5896554546495
 42
0.0
 97
        0
 75
     0
 76
     1
 52
45.0
 41
15.0
 77
     0
 78
     2
 53
45.0
 43
0.0
 44
-56.78667504250234
 45
-1.325825214724776
 46
1.325825214724776
 79
     0
 53
135.0
 43
0.0
 44
-56.78667504250234
 45
-1.325825214724776
 46
-1.325825214724776
 79
     0
 47
0.1847443518349611
 98
        2
 10
315.6858618489128
 20
207.0785514726801
 10
224.5428320523934
 20
206.8938072258254
  0
TEXT
  5
3689
330
20
100
AcDbEntity
  8
TEXT
 62
     1
100
AcDbText
 10
354.0209747288315
 20
212.3680257262257
 30
0.0
 40
6.0
  1
Dichtelement DN80/100
 41
0.8
100
AcDbText
  0
TEXT
  5
368A
330
20
100
AcDbEntity
  8
TEXT
 62
     1
100
AcDbText
 10
354.3134236710572
 20
200.4723774349671
 30
0.0
 40
6.0
  1
EDV-Art.Nr. 00940.080X
 41
0.8
100
AcDbText
  0
LINE
  5
368B
330
20
100
AcDbEntity
  8
TEXT
 62
     2
100
AcDbLine
 10
446.7334728395522
 20
209.4781225802367
 30
0.0
 11
351.8179147971206
 21
209.4781225802368
 31
0.0
  0
LINE
  5
368C
330
20
100
AcDbEntity
  8
TEXT
 62
     2
100
AcDbLine
 10
351.8179147971206
 20
209.4781225802368
 30
0.0
 11
320.6599686620088
 21
194.9482351840338
 31
0.0
  0
HATCH
  5
373D
330
20
100
AcDbEntity
  8
SCHRAFF
100
AcDbHatch
 10
0.0
 20
0.0
 30
0.0
210
0.0
220
0.0
230
1.0
  2
_USER
 70
     0
 71
     1
 91
        2
 92
        7
 72
     0
 73
     1
 93
        4
 10
455.2350427748571
 20
558.0896554546496
 10
455.2350427748571
 20
564.0896554546494
 10
321.2350427748573
 20
564.0896554546495
 10
321.2350427748573
 20
558.0896554546495
 97
        4
330
1ECD
330
1EE8
330
1ECE
330
1ED0
 92
        7
 72
     0
 73
     1
 93
        4
 10
219.2350427748572
 20
558.0896554546496
 10
219.2350427748572
 20
564.0896554546497
 10
85.23504277485717
 20
564.0896554546495
 10
85.23504277485718
 20
558.0896554546495
 97
        4
330
1ECD
330
1ECF
330
1ECE
330
1EE9
 75
     0
 76
     0
 52
45.0
 41
5.0
 77
     0
 78
     1
 53
45.0
 43
0.0
 44
0.0
 45
-3.535533905932737
 46
3.535533905932737
 79
     0
 47
0.5460738837394091
 98
        2
 10
370.3207786598173
 20
560.7935297796425
 10
200.3723435450556
 20
560.7935297796425
  0
HATCH
  5
3773
330
20
100
AcDbEntity
  8
SCHRAFF
100
AcDbHatch
 10
0.0
 20
0.0
 30
0.0
210
0.0
220
0.0
230
1.0
  2
_USER
 70
     0
 71
     1
 91
        2
 92
        7
 72
     1
 73
     1
 93
       11
 10
313.1350427748571
 20
170.1595129633022
 42
0.0
 10
312.6039990536323
 20
164.0896554546495
 42
0.0
 10
314.2101107937017
 20
164.0896554546494
 42
0.0
 10
314.7350427748571
 20
170.0896554546488
 42
0.0
 10
314.7350427748571
 20
220.0896554546495
 42
0.0
 10
314.7350427748572
 20
537.8423186599698
 42
-0.1186782912731369
 10
316.0498602922185
 20
543.3037173189865
 42
0.0
 10
323.2350427748572
 20
557.3614689667806
 42
0.0
 10
321.8103517771721
 20
558.0896554546495
 42
0.0
 10
314.6251692945333
 20
544.0319038068554
 42
0.118678291273139
 10
313.1350427748572
 20
537.8423186599698
 42
0.0
 97
       11
330
32AD
330
32A9
330
32AA
330
32AB
330
32AE
330
1A43
330
3439
330
3614
330
343A
330
35E7
330
1A44
 92
        7
 72
     1
 73
     1
 93
       11
 10
227.3350427748571
 20
537.8423186599698
 42
0.1186782912731385
 10
225.8449162551811
 20
544.0319038068554
 42
0.0
 10
218.6597337725424
 20
558.0896554546495
 42
0.0
 10
217.2350427748572
 20
557.3614689667806
 42
0.0
 10
224.4202252574959
 20
543.3037173189865
 42
-0.1186782912731413
 10
225.7350427748572
 20
537.8423186599696
 42
0.0
 10
225.7350427748571
 20
170.0896554546495
 42
0.0
 10
226.2599747560127
 20
164.0896554546495
 42
0.0
 10
227.2350427748571
 20
164.0896554546495
 42
0.0
 10
227.866086496082
 20
164.0896554546496
 42
0.0
 10
227.335042774857
 20
170.1595129633047
 42
0.0
 97
       11
330
32B2
330
32B4
330
32B5
330
32B6
330
32B3
330
1A46
330
3435
330
35CC
330
113C
330
3436
330
1A45
 75
     0
 76
     0
 52
135.0
 41
2.0
 77
     0
 78
     1
 53
135.0
 43
0.0
 44
0.0
 45
-1.414213562373095
 46
-1.414213562373094
 79
     0
 47
0.826722163419525
 98
        2
 10
313.741987027161
 20
454.217287167894
 10
226.8751017476388
 20
450.0836752422806
  0
ENDSEC
  0
SECTION
  2
OBJECTS
  0
DICTIONARY
  5
C
330
0
100
AcDbDictionary
281
     1
  3
ACAD_COLOR
350
1B
  3
ACAD_GROUP
350
D
  3
ACAD_LAYOUT
350
19
  3
ACAD_MATERIAL
350
1A
  3
ACAD_MLINESTYLE
350
16
  3
ACAD_PLOTSETTINGS
350
18
  3
ACAD_PLOTSTYLENAME
350
E
  3
AcDbVariableDictionary
350
355
  0
DICTIONARY
  5
21CB
330
21BC
100
AcDbDictionary
280
     1
281
     1
  3
ACAD_DIMASSOC
360
21D7
  0
DICTIONARY
  5
2990
330
2983
100
AcDbDictionary
280
     1
281
     1
  3
ACAD_DIMASSOC
360
299A
  0
DICTIONARY
  5
2E85
330
2E78
100
AcDbDictionary
280
     1
281
     1
  3
ACAD_DIMASSOC
360
2E8F
  0
DICTIONARY
  5
2EAF
330
2EA2
100
AcDbDictionary
280
     1
281
     1
  3
ACAD_DIMASSOC
360
2EB9
  0
DICTIONARY
  5
34D7
330
34CA
100
AcDbDictionary
280
     1
281
     1
  3
ACAD_DIMASSOC
360
34E1
  0
DICTIONARY
  5
1B
102
{ACAD_REACTORS
330
C
102
}
330
C
100
AcDbDictionary
281
     1
  0
DICTIONARY
  5
D
102
{ACAD_REACTORS
330
C
102
}
330
C
100
AcDbDictionary
281
     1
  0
DICTIONARY
  5
19
102
{ACAD_REACTORS
330
C
102
}
330
C
100
AcDbDictionary
281
     1
  3
Layout1
350
1F
  3
Model
350
23
  0
DICTIONARY
  5
1A
102
{ACAD_REACTORS
330
C
102
}
330
C
100
AcDbDictionary
281
     1
  0
DICTIONARY
  5
16
102
{ACAD_REACTORS
330
C
102
}
330
C
100
AcDbDictionary
281
     1
  3
Standard
350
17
  0
DICTIONARY
  5
18
102
{ACAD_REACTORS
330
C
102
}
330
C
100
AcDbDictionary
281
     1
  0
ACDBDICTIONARYWDFLT
  5
E
102
{ACAD_REACTORS
330
C
102
}
330
C
100
AcDbDictionary
281
     1
  3
Normal
350
F
100
AcDbDictionaryWithDefault
340
F
  0
DICTIONARY
  5
355
102
{ACAD_REACTORS
330
C
102
}
330
C
100
AcDbDictionary
281
     1
  3
DIMASSOC
350
357
  3
HIDETEXT
350
356
  3
PROJECTNAME
350
358
  0
DIMASSOC
  5
21D7
102
{ACAD_REACTORS
330
21CB
102
}
330
21CB
100
AcDbDimAssoc
330
21BC
 90
        3
 70
     0
 71
     0
  1
AcDbOsnapPointRef
 72
    13
331
1ECF
 73
     2
 91
        0
 40
0.0
 10
0.0
 20
0.0
 30
2.000000000000000E+50
 75
     0
  1
AcDbOsnapPointRef
 72
     8
331
1ECE
 73
     2
 91
        0
 40
0.0
 10
0.0
 20
0.0
 30
0.0
 75
     1
  1
AcDbOsnapPointRef
 72
    13
331
1ECF
 73
     2
 91
        0
 40
0.0
 10
0.0
 20
0.0
 30
2.000000000000000E+50
 75
     0
  0
DIMASSOC
  5
299A
102
{ACAD_REACTORS
330
2990
102
}
330
2990
100
AcDbDimAssoc
330
2983
 90
        1
 70
     0
 71
     0
  1
AcDbOsnapPointRef
 72
    13
331
1ECD
 73
     2
 91
        0
 40
0.0
 10
0.0
 20
0.0
 30
2.000000000000000E+50
 75
     0
  0
DIMASSOC
  5
2E8F
102
{ACAD_REACTORS
330
2E85
102
}
330
2E85
100
AcDbDimAssoc
330
2E78
 90
        3
 70
     0
 71
     0
  1
AcDbOsnapPointRef
 72
    13
331
28F3
 73
     2
 91
        0
 40
0.0
 10
0.0
 20
0.0
 30
2.000000000000000E+50
 75
     0
  1
AcDbOsnapPointRef
 72
    13
331
28F4
 73
     2
 91
        0
 40
0.0
 10
0.0
 20
0.0
 30
2.000000000000000E+50
 75
     0
  0
DIMASSOC
  5
2EB9
102
{ACAD_REACTORS
330
2EAF
102
}
330
2EAF
100
AcDbDimAssoc
330
2EA2
 90
        3
 70
     0
 71
     0
  1
AcDbOsnapPointRef
 72
     1
331
2D60
 73
     2
 91
        0
 40
1.0
 10
0.0
 20
0.0
 30
2.000000000000000E+50
 75
     0
  1
AcDbOsnapPointRef
 72
     1
331
2DBD
 73
     2
 91
        0
 40
1.0
 10
0.0
 20
0.0
 30
2.000000000000000E+50
 75
     0
  0
DIMASSOC
  5
34E1
102
{ACAD_REACTORS
330
34D7
102
}
330
34D7
100
AcDbDimAssoc
330
34CA
 90
        3
 70
     0
 71
     0
  1
AcDbOsnapPointRef
 72
    13
331
3435
 73
     2
 91
        0
 40
0.0
 10
0.0
 20
0.0
 30
2.000000000000000E+50
 75
     0
  1
AcDbOsnapPointRef
 72
    13
331
343A
 73
     2
 91
        0
 40
0.0
 10
0.0
 20
0.0
 30
2.000000000000000E+50
 75
     0
  0
LAYOUT
  5
1F
102
{ACAD_REACTORS
330
19
102
}
330
19
100
AcDbPlotSettings
  1

  2
RICOH Aficio 2027 PCL 6
  4

  6

 40
0.0
 41
0.0
 42
0.0
 43
0.0
 44
0.0
 45
0.0
 46
0.0
 47
0.0
 48
0.0
 49
0.0
140
0.0
141
0.0
142
1.0
143
1.0
 70
   688
 72
     0
 73
     0
 74
     5
  7
monochrome1.ctb
 75
    16
147
1.0
 76
     0
 77
     2
 78
   300
148
0.0
149
0.0
100
AcDbLayout
  1
Layout1
 70
     0
 71
     1
 10
0.0
 20
0.0
 11
12.0
 21
9.0
 12
-21.29083225966441
 22
50.00000000000001
 32
-30.66246831754066
 14
1.000000000000000E+20
 24
1.000000000000000E+20
 34
1.000000000000000E+20
 15
-1.000000000000000E+20
 25
-1.000000000000000E+20
 35
-1.000000000000000E+20
146
0.0
 13
0.0
 23
0.0
 33
0.0
 16
1.0
 26
0.0
 36
0.0
 17
0.0
 27
1.0
 37
0.0
 76
     0
330
1C
  0
LAYOUT
  5
23
102
{ACAD_REACTORS
330
19
102
}
330
19
100
AcDbPlotSettings
  1

  2
RICOH Aficio 2027 PCL 6
  4
A4
  6

 40
5.027083396911621
 41
5.027085304260253
 42
5.027084350585937
 43
5.027069091796875
 44
209.9733276367187
 45
296.9259948730469
 46
0.0
 47
0.0
 48
0.0
 49
0.0
140
0.0
141
0.0
142
1.0
143
1.0
 70
 11952
 72
     0
 73
     1
 74
     0
  7
monochrome1.ctb
 75
     0
147
1.0
 76
     0
 77
     2
 78
   300
148
-1516.84296075294
149
45.31615144065641
100
AcDbLayout
  1
Model
 70
     1
 71
     0
 10
0.0
 20
0.0
 11
12.0
 21
9.0
 12
0.0
 22
0.0
 32
0.0
 14
0.0
 24
0.0
 34
0.0
 15
0.0
 25
0.0
 35
0.0
146
0.0
 13
0.0
 23
0.0
 33
0.0
 16
1.0
 26
0.0
 36
0.0
 17
0.0
 27
1.0
 37
0.0
 76
     0
330
20
  0
MLINESTYLE
  5
17
102
{ACAD_REACTORS
330
16
102
}
330
16
100
AcDbMlineStyle
  2
STANDARD
 70
     0
  3

 62
   256
 51
90.0
 52
90.0
 71
     2
 49
0.5
 62
   256
  6
BYLAYER
 49
-0.5
 62
   256
  6
BYLAYER
  0
ACDBPLACEHOLDER
  5
F
102
{ACAD_REACTORS
330
E
102
}
330
E
  0
DICTIONARYVAR
  5
357
102
{ACAD_REACTORS
330
355
102
}
330
355
100
DictionaryVariables
280
     0
  1
2
  0
DICTIONARYVAR
  5
356
102
{ACAD_REACTORS
330
355
102
}
330
355
100
DictionaryVariables
280
     0
  1
1
  0
DICTIONARYVAR
  5
358
102
{ACAD_REACTORS
330
355
102
}
330
355
100
DictionaryVariables
280
     0
  1

  0
ENDSEC
  0
EOF
