  0
SECTION
  2
HEADER
  9
$ACADVER
  1
AC1018
  9
$ACADMAINTVER
 70
     2
  9
$DWGCODEPAGE
  3
ANSI_1252
  9
$INSBASE
 10
0.0
 20
0.0
 30
0.0
  9
$EXTMIN
 10
-0.005322321162339
 20
-0.0037676166430174
 30
-0.0000000000000053
  9
$EXTMAX
 10
840.0149686494213
 20
594.0007696009176
 30
0.0000000000000099
  9
$LIMMIN
 10
0.0
 20
0.0
  9
$LIMMAX
 10
840.0
 20
594.0
  9
$ORTHOMODE
 70
     1
  9
$REGENMODE
 70
     1
  9
$FILLMODE
 70
     1
  9
$QTEXTMODE
 70
     0
  9
$MIRRTEXT
 70
     1
  9
$LTSCALE
 40
20.0
  9
$ATTMODE
 70
     1
  9
$TEXTSIZE
 40
3.5
  9
$TRACEWID
 40
1.0
  9
$TEXTSTYLE
  7
STANDARD
  9
$CLAYER
  8
BEM
  9
$CELTYPE
  6
ByLayer
  9
$CECOLOR
 62
   256
  9
$CELTSCALE
 40
1.0
  9
$DISPSILH
 70
     0
  9
$DIMSCALE
 40
2.0
  9
$DIMASZ
 40
3.5
  9
$DIMEXO
 40
1.0
  9
$DIMDLI
 40
7.0
  9
$DIMRND
 40
0.0
  9
$DIMDLE
 40
0.0
  9
$DIMEXE
 40
1.0
  9
$DIMTP
 40
0.0
  9
$DIMTM
 40
0.0
  9
$DIMTXT
 40
3.5
  9
$DIMCEN
 40
1.5
  9
$DIMTSZ
 40
0.0
  9
$DIMTOL
 70
     0
  9
$DIMLIM
 70
     0
  9
$DIMTIH
 70
     0
  9
$DIMTOH
 70
     0
  9
$DIMSE1
 70
     0
  9
$DIMSE2
 70
     0
  9
$DIMTAD
 70
     1
  9
$DIMZIN
 70
     8
  9
$DIMBLK
  1

  9
$DIMASO
 70
     1
  9
$DIMSHO
 70
     0
  9
$DIMPOST
  1

  9
$DIMAPOST
  1

  9
$DIMALT
 70
     0
  9
$DIMALTD
 70
     2
  9
$DIMALTF
 40
25.4
  9
$DIMLFAC
 40
1.0
  9
$DIMTOFL
 70
     1
  9
$DIMTVP
 40
0.0
  9
$DIMTIX
 70
     0
  9
$DIMSOXD
 70
     0
  9
$DIMSAH
 70
     0
  9
$DIMBLK1
  1

  9
$DIMBLK2
  1

  9
$DIMSTYLE
  2
Standard
  9
$DIMCLRD
 70
     0
  9
$DIMCLRE
 70
     0
  9
$DIMCLRT
 70
     1
  9
$DIMTFAC
 40
0.5
  9
$DIMGAP
 40
1.5
  9
$DIMJUST
 70
     0
  9
$DIMSD1
 70
     0
  9
$DIMSD2
 70
     0
  9
$DIMTOLJ
 70
     1
  9
$DIMTZIN
 70
     8
  9
$DIMALTZ
 70
     8
  9
$DIMALTTZ
 70
     8
  9
$DIMUPT
 70
     0
  9
$DIMDEC
 70
     2
  9
$DIMTDEC
 70
     2
  9
$DIMALTU
 70
     2
  9
$DIMALTTD
 70
     2
  9
$DIMTXSTY
  7
STANDARD
  9
$DIMAUNIT
 70
     0
  9
$DIMADEC
 70
     2
  9
$DIMALTRND
 40
0.0
  9
$DIMAZIN
 70
     2
  9
$DIMDSEP
 70
    46
  9
$DIMATFIT
 70
     3
  9
$DIMFRAC
 70
     0
  9
$DIMLDRBLK
  1

  9
$DIMLUNIT
 70
     2
  9
$DIMLWD
 70
    -2
  9
$DIMLWE
 70
    -2
  9
$DIMTMOVE
 70
     0
  9
$LUNITS
 70
     2
  9
$LUPREC
 70
     2
  9
$SKETCHINC
 40
1.0
  9
$FILLETRAD
 40
4.0
  9
$AUNITS
 70
     0
  9
$AUPREC
 70
     0
  9
$MENU
  1
ACAD
  9
$ELEVATION
 40
0.0
  9
$PELEVATION
 40
0.0
  9
$THICKNESS
 40
0.0
  9
$LIMCHECK
 70
     0
  9
$CHAMFERA
 40
0.0
  9
$CHAMFERB
 40
0.0
  9
$CHAMFERC
 40
0.0
  9
$CHAMFERD
 40
0.0
  9
$SKPOLY
 70
     0
  9
$TDCREATE
 40
2455397.867059838
  9
$TDUCREATE
 40
2455397.783726505
  9
$TDUPDATE
 40
2455460.533293472
  9
$TDUUPDATE
 40
2455460.449960139
  9
$TDINDWG
 40
0.1285784028
  9
$TDUSRTIMER
 40
0.1285784028
  9
$USRTIMER
 70
     1
  9
$ANGBASE
 50
0.0
  9
$ANGDIR
 70
     0
  9
$PDMODE
 70
     0
  9
$PDSIZE
 40
0.0
  9
$PLINEWID
 40
0.0
  9
$SPLFRAME
 70
     0
  9
$SPLINETYPE
 70
     6
  9
$SPLINESEGS
 70
     8
  9
$HANDSEED
  5
E70
  9
$SURFTAB1
 70
     6
  9
$SURFTAB2
 70
     6
  9
$SURFTYPE
 70
     6
  9
$SURFU
 70
     6
  9
$SURFV
 70
     6
  9
$UCSBASE
  2

  9
$UCSNAME
  2

  9
$UCSORG
 10
0.0
 20
0.0
 30
0.0
  9
$UCSXDIR
 10
1.0
 20
0.0
 30
0.0
  9
$UCSYDIR
 10
0.0
 20
1.0
 30
0.0
  9
$UCSORTHOREF
  2

  9
$UCSORTHOVIEW
 70
     0
  9
$UCSORGTOP
 10
0.0
 20
0.0
 30
0.0
  9
$UCSORGBOTTOM
 10
0.0
 20
0.0
 30
0.0
  9
$UCSORGLEFT
 10
0.0
 20
0.0
 30
0.0
  9
$UCSORGRIGHT
 10
0.0
 20
0.0
 30
0.0
  9
$UCSORGFRONT
 10
0.0
 20
0.0
 30
0.0
  9
$UCSORGBACK
 10
0.0
 20
0.0
 30
0.0
  9
$PUCSBASE
  2

  9
$PUCSNAME
  2

  9
$PUCSORG
 10
0.0
 20
0.0
 30
0.0
  9
$PUCSXDIR
 10
1.0
 20
0.0
 30
0.0
  9
$PUCSYDIR
 10
0.0
 20
1.0
 30
0.0
  9
$PUCSORTHOREF
  2

  9
$PUCSORTHOVIEW
 70
     0
  9
$PUCSORGTOP
 10
0.0
 20
0.0
 30
0.0
  9
$PUCSORGBOTTOM
 10
0.0
 20
0.0
 30
0.0
  9
$PUCSORGLEFT
 10
0.0
 20
0.0
 30
0.0
  9
$PUCSORGRIGHT
 10
0.0
 20
0.0
 30
0.0
  9
$PUCSORGFRONT
 10
0.0
 20
0.0
 30
0.0
  9
$PUCSORGBACK
 10
0.0
 20
0.0
 30
0.0
  9
$USERI1
 70
     0
  9
$USERI2
 70
     0
  9
$USERI3
 70
     0
  9
$USERI4
 70
     0
  9
$USERI5
 70
     0
  9
$USERR1
 40
0.0
  9
$USERR2
 40
0.0
  9
$USERR3
 40
0.0
  9
$USERR4
 40
0.0
  9
$USERR5
 40
0.0
  9
$WORLDVIEW
 70
     1
  9
$SHADEDGE
 70
     3
  9
$SHADEDIF
 70
    70
  9
$TILEMODE
 70
     1
  9
$MAXACTVP
 70
    16
  9
$PINSBASE
 10
0.0
 20
0.0
 30
0.0
  9
$PLIMCHECK
 70
     0
  9
$PEXTMIN
 10
1.000000000000000E+20
 20
1.000000000000000E+20
 30
1.000000000000000E+20
  9
$PEXTMAX
 10
-1.000000000000000E+20
 20
-1.000000000000000E+20
 30
-1.000000000000000E+20
  9
$PLIMMIN
 10
0.0
 20
0.0
  9
$PLIMMAX
 10
12.0
 20
9.0
  9
$UNITMODE
 70
     0
  9
$VISRETAIN
 70
     0
  9
$PLINEGEN
 70
     0
  9
$PSLTSCALE
 70
     0
  9
$TREEDEPTH
 70
  3020
  9
$CMLSTYLE
  2
Standard
  9
$CMLJUST
 70
     0
  9
$CMLSCALE
 40
1.0
  9
$PROXYGRAPHICS
 70
     1
  9
$MEASUREMENT
 70
     0
  9
$CELWEIGHT
370
    -1
  9
$ENDCAPS
280
     0
  9
$JOINSTYLE
280
     0
  9
$LWDISPLAY
290
     0
  9
$INSUNITS
 70
     0
  9
$HYPERLINKBASE
  1

  9
$STYLESHEET
  1
monochrome 1.ctb
  9
$XEDIT
290
     1
  9
$CEPSNTYPE
380
     0
  9
$PSTYLEMODE
290
     1
  9
$FINGERPRINTGUID
  2
{D68B0D0D-A558-11D7-B632-000102183313}
  9
$VERSIONGUID
  2
{E44C439E-133F-4D6D-B530-6B8B19FE3273}
  9
$EXTNAMES
290
     1
  9
$PSVPSCALE
 40
0.0
  9
$OLESTARTUP
290
     0
  9
$SORTENTS
280
   127
  9
$INDEXCTL
280
     0
  9
$HIDETEXT
280
     0
  9
$XCLIPFRAME
290
     0
  9
$HALOGAP
280
     0
  9
$OBSCOLOR
 70
   257
  9
$OBSLTYPE
280
     0
  9
$INTERSECTIONDISPLAY
280
     0
  9
$INTERSECTIONCOLOR
 70
   257
  9
$DIMASSOC
280
     1
  9
$PROJECTNAME
  1

  0
ENDSEC
  0
SECTION
  2
CLASSES
  0
CLASS
  1
ACDBDICTIONARYWDFLT
  2
AcDbDictionaryWithDefault
  3
ObjectDBX Classes
 90
        0
 91
        1
280
     0
281
     0
  0
CLASS
  1
DICTIONARYVAR
  2
AcDbDictionaryVar
  3
ObjectDBX Classes
 90
        0
 91
        2
280
     0
281
     0
  0
ENDSEC
  0
SECTION
  2
TABLES
  0
TABLE
  2
VPORT
  5
8
330
0
100
AcDbSymbolTable
 70
     2
  0
VPORT
  5
E6F
330
8
100
AcDbSymbolTableRecord
100
AcDbViewportTableRecord
  2
*Active
 70
     0
 10
0.0
 20
0.0
 11
1.0
 21
1.0
 12
420.0048231641294
 22
296.9985009921373
 13
0.0
 23
0.0
 14
1.0
 24
1.0
 15
10.0
 25
10.0
 16
0.0
 26
0.0
 36
1.0
 17
0.0
 27
0.0
 37
0.0
 40
632.1168465161835
 41
1.336927223719676
 42
50.0
 43
0.0
 44
0.0
 50
0.0
 51
0.0
 71
     0
 72
  1500
 73
     1
 74
     0
 75
     0
 76
     0
 77
     0
 78
     0
281
     0
 65
     1
110
0.0
120
0.0
130
0.0
111
1.0
121
0.0
131
0.0
112
0.0
122
1.0
132
0.0
 79
     0
146
0.0
  0
ENDTAB
  0
TABLE
  2
LTYPE
  5
5
330
0
100
AcDbSymbolTable
 70
     2
  0
LTYPE
  5
13
330
5
100
AcDbSymbolTableRecord
100
AcDbLinetypeTableRecord
  2
ByBlock
 70
     0
  3

 72
    65
 73
     0
 40
0.0
  0
LTYPE
  5
14
330
5
100
AcDbSymbolTableRecord
100
AcDbLinetypeTableRecord
  2
ByLayer
 70
     0
  3

 72
    65
 73
     0
 40
0.0
  0
LTYPE
  5
15
330
5
100
AcDbSymbolTableRecord
100
AcDbLinetypeTableRecord
  2
Continuous
 70
     0
  3
Solid line
 72
    65
 73
     0
 40
0.0
  0
LTYPE
  5
25
330
5
100
AcDbSymbolTableRecord
100
AcDbLinetypeTableRecord
  2
STRICHPUNKT
 70
     0
  3
__ . __ . __ . __ . __ . __ . __ . __ . __ . __
 72
    65
 73
     4
 40
1.0
 49
0.5
 74
     0
 49
-0.25
 74
     0
 49
0.0
 74
     0
 49
-0.25
 74
     0
  0
ENDTAB
  0
TABLE
  2
LAYER
  5
2
330
0
100
AcDbSymbolTable
 70
     9
  0
LAYER
  5
10
330
2
100
AcDbSymbolTableRecord
100
AcDbLayerTableRecord
  2
0
 70
     0
 62
     7
  6
Continuous
370
    -3
390
F
  0
LAYER
  5
2B
330
2
100
AcDbSymbolTableRecord
100
AcDbLayerTableRecord
  2
VOLL
 70
     0
 62
     1
  6
Continuous
370
    -3
390
F
  0
LAYER
  5
2C
330
2
100
AcDbSymbolTableRecord
100
AcDbLayerTableRecord
  2
HILF
 70
     0
 62
     2
  6
Continuous
370
    -3
390
F
  0
LAYER
  5
2D
330
2
100
AcDbSymbolTableRecord
100
AcDbLayerTableRecord
  2
MITTEL
 70
     0
 62
     2
  6
STRICHPUNKT
370
    -3
390
F
  0
LAYER
  5
2F
330
2
100
AcDbSymbolTableRecord
100
AcDbLayerTableRecord
  2
BEM
 70
     0
 62
     7
  6
Continuous
370
    -3
390
F
  0
LAYER
  5
30
330
2
100
AcDbSymbolTableRecord
100
AcDbLayerTableRecord
  2
STEMPEL
 70
     0
 62
     3
  6
Continuous
370
    -3
390
F
  0
LAYER
  5
33
330
2
100
AcDbSymbolTableRecord
100
AcDbLayerTableRecord
  2
TEXT
 70
     0
 62
     7
  6
Continuous
370
    -3
390
F
  0
LAYER
  5
3FF
330
2
100
AcDbSymbolTableRecord
100
AcDbLayerTableRecord
  2
DEFPOINTS
 70
     0
 62
     7
  6
Continuous
290
     0
370
    -3
390
F
  0
LAYER
  5
400
330
2
100
AcDbSymbolTableRecord
100
AcDbLayerTableRecord
  2
SCHRAFF
 70
     0
 62
     7
  6
Continuous
370
    -3
390
F
  0
ENDTAB
  0
TABLE
  2
STYLE
  5
3
330
0
100
AcDbSymbolTable
 70
     2
  0
STYLE
  5
11
330
3
100
AcDbSymbolTableRecord
100
AcDbTextStyleTableRecord
  2
STANDARD
 70
     0
 40
0.0
 41
0.8
 50
0.0
 71
     0
 42
3.5
  3
simplex.shx
  4

  0
STYLE
  5
24
330
3
100
AcDbSymbolTableRecord
100
AcDbTextStyleTableRecord
  2
GREEKS
 70
     0
 40
0.0
 41
0.8
 50
0.0
 71
     0
 42
2.5
  3
SIMPLEX.shx
  4

  0
ENDTAB
  0
TABLE
  2
VIEW
  5
6
330
0
100
AcDbSymbolTable
 70
     0
  0
ENDTAB
  0
TABLE
  2
UCS
  5
7
330
0
100
AcDbSymbolTable
 70
     0
  0
ENDTAB
  0
TABLE
  2
APPID
  5
9
330
0
100
AcDbSymbolTable
 70
     1
  0
APPID
  5
12
330
9
100
AcDbSymbolTableRecord
100
AcDbRegAppTableRecord
  2
ACAD
 70
     0
  0
ENDTAB
  0
TABLE
  2
DIMSTYLE
  5
A
330
0
100
AcDbSymbolTable
 70
     1
100
AcDbDimStyleTable
 71
     1
340
A2
  0
DIMSTYLE
105
A2
102
{ACAD_REACTORS
330
B9F
330
BAC
330
E15
330
E22
330
E2F
330
E45
102
}
330
A
100
AcDbSymbolTableRecord
100
AcDbDimStyleTableRecord
  2
Standard
 70
     0
340
11
  0
ENDTAB
  0
TABLE
  2
BLOCK_RECORD
  5
1
330
0
100
AcDbSymbolTable
 70
    11
  0
BLOCK_RECORD
  5
1E
102
{ACAD_XDICTIONARY
360
DB
102
}
330
1
100
AcDbSymbolTableRecord
100
AcDbBlockTableRecord
  2
*Model_Space
340
21
  0
BLOCK_RECORD
  5
1A
102
{ACAD_XDICTIONARY
360
DD
102
}
330
1
100
AcDbSymbolTableRecord
100
AcDbBlockTableRecord
  2
*Paper_Space
340
1D
  0
BLOCK_RECORD
  5
22
330
1
100
AcDbSymbolTableRecord
100
AcDbBlockTableRecord
  2
LOGO
340
0
102
{BLKREFS
331
56
102
}
  0
BLOCK_RECORD
  5
23
330
1
100
AcDbSymbolTableRecord
100
AcDbBlockTableRecord
  2
LORO
340
0
102
{BLKREFS
331
9B
102
}
  0
BLOCK_RECORD
  5
BA0
330
1
100
AcDbSymbolTableRecord
100
AcDbBlockTableRecord
  2
*D2
340
0
  0
BLOCK_RECORD
  5
BAD
330
1
100
AcDbSymbolTableRecord
100
AcDbBlockTableRecord
  2
*D3
340
0
  0
BLOCK_RECORD
  5
C86
330
1
100
AcDbSymbolTableRecord
100
AcDbBlockTableRecord
  2
*X4
340
0
102
{BLKREFS
331
DFA
102
}
  0
BLOCK_RECORD
  5
CDF
330
1
100
AcDbSymbolTableRecord
100
AcDbBlockTableRecord
  2
*X5
340
0
102
{BLKREFS
331
DFE
102
}
  0
BLOCK_RECORD
  5
D1A
330
1
100
AcDbSymbolTableRecord
100
AcDbBlockTableRecord
  2
*X6
340
0
102
{BLKREFS
331
DEC
102
}
  0
BLOCK_RECORD
  5
E16
330
1
100
AcDbSymbolTableRecord
100
AcDbBlockTableRecord
  2
*D7
340
0
  0
BLOCK_RECORD
  5
E23
330
1
100
AcDbSymbolTableRecord
100
AcDbBlockTableRecord
  2
*D8
340
0
  0
BLOCK_RECORD
  5
E30
330
1
100
AcDbSymbolTableRecord
100
AcDbBlockTableRecord
  2
*D9
340
0
  0
BLOCK_RECORD
  5
E46
330
1
100
AcDbSymbolTableRecord
100
AcDbBlockTableRecord
  2
*D10
340
0
  0
ENDTAB
  0
ENDSEC
  0
SECTION
  2
BLOCKS
  0
BLOCK
  5
37
330
1E
100
AcDbEntity
  8
0
100
AcDbBlockBegin
  2
*Model_Space
 70
     0
 10
0.0
 20
0.0
 30
0.0
  3
*Model_Space
  1

  0
ENDBLK
  5
38
330
1E
100
AcDbEntity
  8
0
100
AcDbBlockEnd
  0
BLOCK
  5
35
330
1A
100
AcDbEntity
 67
     1
  8
0
100
AcDbBlockBegin
  2
*Paper_Space
 70
     0
 10
0.0
 20
0.0
 30
0.0
  3
*Paper_Space
  1

  0
ENDBLK
  5
36
330
1A
100
AcDbEntity
 67
     1
  8
0
100
AcDbBlockEnd
  0
BLOCK
  5
39
330
22
100
AcDbEntity
  8
0
100
AcDbBlockBegin
  2
LOGO
 70
     0
 10
0.0
 20
0.0
 30
0.0
  3
LOGO
  1

  0
ARC
  5
3A
330
22
100
AcDbEntity
  8
0
100
AcDbCircle
 10
11.59973089678112
 20
-9.271599258481501
 30
0.0
 40
4.5
100
AcDbArc
 50
270.0
 51
231.0575587310159
  0
LINE
  5
3B
330
22
100
AcDbEntity
  8
0
100
AcDbLine
 10
3.599730896781125
 20
-4.771599258481529
 30
0.0
 11
3.599730896781153
 21
-11.77159925848133
 31
0.0
  0
LINE
  5
3C
330
22
100
AcDbEntity
  8
0
100
AcDbLine
 10
2.599730896781125
 20
-4.771599258481529
 30
0.0
 11
2.599730896781153
 21
-11.77159925848133
 31
0.0
  0
CIRCLE
  5
3D
330
22
100
AcDbEntity
  8
0
100
AcDbCircle
 10
11.59973089678112
 20
-9.271599258481501
 30
0.0
 40
3.5
  0
ARC
  5
3E
330
22
100
AcDbEntity
  8
0
100
AcDbCircle
 10
31.59973089678115
 20
-9.271599258481472
 30
0.0
 40
4.5
100
AcDbArc
 50
270.0
 51
231.0575587310182
  0
LINE
  5
3F
330
22
100
AcDbEntity
  8
0
100
AcDbLine
 10
17.59973089678112
 20
-4.771599258481472
 30
0.0
 11
17.59973089678115
 21
-13.77159925848147
 31
0.0
  0
ARC
  5
40
330
22
100
AcDbEntity
  8
0
100
AcDbCircle
 10
22.59973089678116
 20
-7.271599258481472
 30
0.0
 40
2.5
100
AcDbArc
 50
293.1161887722295
 51
90.0
  0
CIRCLE
  5
41
330
22
100
AcDbEntity
  8
0
100
AcDbCircle
 10
31.59973089678115
 20
-9.271599258481472
 30
0.0
 40
3.5
  0
ARC
  5
42
330
22
100
AcDbEntity
  8
0
100
AcDbCircle
 10
4.599730896781153
 20
-11.77159925848133
 30
0.0
 40
1.0
100
AcDbArc
 50
180.0
 51
270.0
  0
ARC
  5
43
330
22
100
AcDbEntity
  8
0
100
AcDbCircle
 10
4.599730896781153
 20
-11.77159925848133
 30
0.0
 40
2.0
100
AcDbArc
 50
179.9999999999992
 51
270.0
  0
LINE
  5
44
330
22
100
AcDbEntity
  8
0
100
AcDbLine
 10
11.59973089678115
 20
-13.77159925848144
 30
0.0
 11
4.599730896781153
 21
-13.77159925848147
 31
0.0
  0
LINE
  5
45
330
22
100
AcDbEntity
  8
0
100
AcDbLine
 10
8.771303772034769
 20
-12.77159925848136
 30
0.0
 11
4.599730896781153
 21
-12.77159925848133
 31
0.0
  0
LINE
  5
46
330
22
100
AcDbEntity
  8
0
100
AcDbLine
 10
31.59973089678115
 20
-13.77159925848147
 30
0.0
 11
23.6715276665056
 21
-13.77159925848144
 31
0.0
  0
LINE
  5
47
330
22
100
AcDbEntity
  8
0
100
AcDbLine
 10
23.56565672307022
 20
-9.51278021337896
 30
0.0
 11
24.4388546544846
 21
-12.77159925848144
 31
0.0
  0
LINE
  5
48
330
22
100
AcDbEntity
  8
0
100
AcDbLine
 10
22.59973089678116
 20
-9.771599258481472
 30
0.0
 11
18.59973089678112
 21
-9.771599258481472
 31
0.0
  0
LINE
  5
49
330
22
100
AcDbEntity
  8
0
100
AcDbLine
 10
18.59973089678115
 20
-13.77159925848144
 30
0.0
 11
17.59973089678115
 21
-13.77159925848144
 31
0.0
  0
LINE
  5
4A
330
22
100
AcDbEntity
  8
0
100
AcDbLine
 10
18.59973089678115
 20
-9.771599258481472
 30
0.0
 11
18.59973089678115
 21
-13.77159925848144
 31
0.0
  0
LINE
  5
4B
330
22
100
AcDbEntity
  8
0
100
AcDbLine
 10
22.59973089678116
 20
-9.771599258481472
 30
0.0
 11
23.67152766650562
 21
-13.77159925848147
 31
0.0
  0
ARC
  5
4C
330
22
100
AcDbEntity
  8
0
100
AcDbCircle
 10
22.59973089678116
 20
-7.271599258481472
 30
0.0
 40
2.5
100
AcDbArc
 50
270.0
 51
270.0000000000007
  0
LINE
  5
4D
330
22
100
AcDbEntity
  8
0
100
AcDbLine
 10
28.77130377203494
 20
-12.77159925848147
 30
0.0
 11
24.43885465448463
 21
-12.77159925848144
 31
0.0
  0
LINE
  5
4E
330
22
100
AcDbEntity
  8
0
100
AcDbLine
 10
3.599730896781125
 20
-4.771599258481472
 30
0.0
 11
2.599730896781125
 21
-4.771599258481472
 31
0.0
  0
LINE
  5
4F
330
22
100
AcDbEntity
  8
0
100
AcDbLine
 10
22.59973089678116
 20
-8.771599258481472
 30
0.0
 11
18.59973089678115
 21
-8.771599258481472
 31
0.0
  0
LINE
  5
50
330
22
100
AcDbEntity
  8
0
100
AcDbLine
 10
22.59973089678116
 20
-5.771599258481472
 30
0.0
 11
18.59973089678115
 21
-5.771599258481472
 31
0.0
  0
LINE
  5
51
330
22
100
AcDbEntity
  8
0
100
AcDbLine
 10
22.59973089678116
 20
-4.771599258481472
 30
0.0
 11
17.59973089678115
 21
-4.771599258481472
 31
0.0
  0
LINE
  5
52
330
22
100
AcDbEntity
  8
0
100
AcDbLine
 10
18.59973089678115
 20
-5.771599258481472
 30
0.0
 11
18.59973089678115
 21
-8.771599258481472
 31
0.0
  0
ARC
  5
53
330
22
100
AcDbEntity
  8
0
100
AcDbCircle
 10
22.59973089678116
 20
-7.271599258481472
 30
0.0
 40
1.5
100
AcDbArc
 50
270.0
 51
90.0
  0
ENDBLK
  5
54
330
22
100
AcDbEntity
  8
0
100
AcDbBlockEnd
  0
BLOCK
  5
55
330
23
100
AcDbEntity
  8
0
100
AcDbBlockBegin
  2
LORO
 70
     0
 10
0.0
 20
0.0
 30
0.0
  3
LORO
  1

  0
INSERT
  5
56
330
23
100
AcDbEntity
  8
STEMPEL
100
AcDbBlockReference
  2
LOGO
 10
-1.748032802467321
 20
3.771489518552062
 30
0.0
  0
ENDBLK
  5
57
330
23
100
AcDbEntity
  8
0
100
AcDbBlockEnd
  0
BLOCK
  5
BAA
330
BA0
100
AcDbEntity
  8
0
100
AcDbBlockBegin
  2
*D2
 70
     1
 10
0.0
 20
0.0
 30
0.0
  3
*D2
  1

  0
LINE
  5
BCB
330
BA0
100
AcDbEntity
  8
BEM
 62
     0
370
    -2
100
AcDbLine
 10
238.7625622428923
 20
381.5314964055957
 30
0.0
 11
238.7625622428923
 21
397.0025094460377
 31
0.0
  0
LINE
  5
BCC
330
BA0
100
AcDbEntity
  8
BEM
 62
     0
370
    -2
100
AcDbLine
 10
468.7625622428922
 20
381.5314964055957
 30
0.0
 11
468.7625622428922
 21
397.0025094460377
 31
0.0
  0
LINE
  5
BCD
330
BA0
100
AcDbEntity
  8
BEM
 62
     0
370
    -2
100
AcDbLine
 10
245.7625622428923
 20
395.0025094460377
 30
0.0
 11
461.7625622428922
 21
395.0025094460377
 31
0.0
  0
SOLID
  5
BCE
330
BA0
100
AcDbEntity
  8
BEM
 62
     0
100
AcDbTrace
 10
245.7625622428923
 20
396.1691761127044
 30
0.0
 11
245.7625622428923
 21
393.835842779371
 31
0.0
 12
238.7625622428923
 22
395.0025094460377
 32
0.0
 13
238.7625622428923
 23
395.0025094460377
 33
0.0
  0
SOLID
  5
BCF
330
BA0
100
AcDbEntity
  8
BEM
 62
     0
100
AcDbTrace
 10
461.7625622428922
 20
396.1691761127044
 30
0.0
 11
461.7625622428922
 21
393.835842779371
 31
0.0
 12
468.7625622428922
 22
395.0025094460377
 32
0.0
 13
468.7625622428922
 23
395.0025094460377
 33
0.0
  0
MTEXT
  5
BD0
330
BA0
100
AcDbEntity
  8
BEM
 62
     1
100
AcDbMText
 10
353.7625622428923
 20
401.5025094460376
 30
0.0
 40
7.0
 41
0.0
 71
     5
 72
     1
  1
\A1;%%c230
 73
     1
 44
1.0
  0
POINT
  5
BD1
330
BA0
100
AcDbEntity
  8
DEFPOINTS
 62
     0
100
AcDbPoint
 10
238.7625622428923
 20
379.5314964055957
 30
0.0
  0
POINT
  5
BD2
330
BA0
100
AcDbEntity
  8
DEFPOINTS
 62
     0
100
AcDbPoint
 10
468.7625622428922
 20
379.5314964055957
 30
0.0
  0
POINT
  5
BD3
330
BA0
100
AcDbEntity
  8
DEFPOINTS
 62
     0
100
AcDbPoint
 10
468.7625622428922
 20
395.0025094460377
 30
0.0
  0
ENDBLK
  5
BAB
330
BA0
100
AcDbEntity
  8
0
100
AcDbBlockEnd
  0
BLOCK
  5
BB7
330
BAD
100
AcDbEntity
  8
0
100
AcDbBlockBegin
  2
*D3
 70
     1
 10
0.0
 20
0.0
 30
0.0
  3
*D3
  1

  0
LINE
  5
BDD
330
BAD
100
AcDbEntity
  8
BEM
 62
     0
370
    -2
100
AcDbLine
 10
183.7625622428922
 20
386.0314964055957
 30
0.0
 11
183.7625622428922
 21
410.8028361703514
 31
0.0
  0
LINE
  5
BDE
330
BAD
100
AcDbEntity
  8
BEM
 62
     0
370
    -2
100
AcDbLine
 10
523.7625622428923
 20
386.0314964055957
 30
0.0
 11
523.7625622428923
 21
410.8028361703514
 31
0.0
  0
LINE
  5
BDF
330
BAD
100
AcDbEntity
  8
BEM
 62
     0
370
    -2
100
AcDbLine
 10
190.7625622428922
 20
408.8028361703513
 30
0.0
 11
516.7625622428922
 21
408.8028361703513
 31
0.0
  0
SOLID
  5
BE0
330
BAD
100
AcDbEntity
  8
BEM
 62
     0
100
AcDbTrace
 10
190.7625622428922
 20
409.969502837018
 30
0.0
 11
190.7625622428922
 21
407.6361695036847
 31
0.0
 12
183.7625622428922
 22
408.8028361703513
 32
0.0
 13
183.7625622428922
 23
408.8028361703513
 33
0.0
  0
SOLID
  5
BE1
330
BAD
100
AcDbEntity
  8
BEM
 62
     0
100
AcDbTrace
 10
516.7625622428922
 20
409.969502837018
 30
0.0
 11
516.7625622428922
 21
407.6361695036847
 31
0.0
 12
523.7625622428923
 22
408.8028361703513
 32
0.0
 13
523.7625622428923
 23
408.8028361703513
 33
0.0
  0
MTEXT
  5
BE2
330
BAD
100
AcDbEntity
  8
BEM
 62
     1
100
AcDbMText
 10
356.9411691556382
 20
415.3028361703514
 30
0.0
 40
7.0
 41
0.0
 71
     5
 72
     1
  1
\A1;340
 73
     1
 44
1.0
  0
POINT
  5
BE3
330
BAD
100
AcDbEntity
  8
DEFPOINTS
 62
     0
100
AcDbPoint
 10
183.7625622428922
 20
384.0314964055957
 30
0.0
  0
POINT
  5
BE4
330
BAD
100
AcDbEntity
  8
DEFPOINTS
 62
     0
100
AcDbPoint
 10
523.7625622428923
 20
384.0314964055957
 30
0.0
  0
POINT
  5
BE5
330
BAD
100
AcDbEntity
  8
DEFPOINTS
 62
     0
100
AcDbPoint
 10
523.7625622428923
 20
408.8028361703513
 30
0.0
  0
ENDBLK
  5
BB8
330
BAD
100
AcDbEntity
  8
0
100
AcDbBlockEnd
  0
BLOCK
  5
C87
330
C86
100
AcDbEntity
  8
0
100
AcDbBlockBegin
  2
*X4
 70
     1
 10
0.0
 20
0.0
 30
0.0
  3
*X4
  1

  0
LINE
  5
C88
330
C86
100
AcDbEntity
  8
0
 62
     0
100
AcDbLine
 10
287.1203419627699
 20
376.1458187902117
 30
0.0
 11
287.1055530559067
 21
376.1606076970749
 31
0.0
  0
LINE
  5
C89
330
C86
100
AcDbEntity
  8
0
 62
     0
100
AcDbLine
 10
287.245207148155
 20
375.8795322485893
 30
0.0
 11
287.0595096899236
 21
376.0652297068206
 31
0.0
  0
LINE
  5
C8A
330
C86
100
AcDbEntity
  8
0
 62
     0
100
AcDbLine
 10
287.3895446145551
 20
375.5937734259519
 30
0.0
 11
287.0162691776874
 21
375.9670488628196
 31
0.0
  0
LINE
  5
C8B
330
C86
100
AcDbEntity
  8
0
 62
     0
100
AcDbLine
 10
287.5597193977039
 20
375.2821772865658
 30
0.0
 11
286.9759488146223
 21
375.8659478696474
 31
0.0
  0
LINE
  5
C8C
330
C86
100
AcDbEntity
  8
0
 62
     0
100
AcDbLine
 10
287.7667259860596
 20
374.9337493419727
 30
0.0
 11
286.9386861306585
 21
375.7617891973739
 31
0.0
  0
LINE
  5
C8D
330
C86
100
AcDbEntity
  8
0
 62
     0
100
AcDbLine
 10
288.0330125982715
 20
374.5260413735236
 30
0.0
 11
286.9046426811308
 21
375.6544112906642
 31
0.0
  0
LINE
  5
C8E
330
C86
100
AcDbEntity
  8
0
 62
     0
100
AcDbLine
 10
288.4232186327327
 20
373.9944139828251
 30
0.0
 11
286.8740089460409
 21
375.5436236695169
 31
0.0
  0
LINE
  5
C8F
330
C86
100
AcDbEntity
  8
0
 62
     0
100
AcDbLine
 10
289.5538483749516
 20
372.7223628843688
 30
0.0
 11
286.8470107443851
 21
375.4292005149352
 31
0.0
  0
LINE
  5
C90
330
C86
100
AcDbEntity
  8
0
 62
     0
100
AcDbLine
 10
289.4124270187142
 20
372.7223628843689
 30
0.0
 11
286.8239177628853
 21
375.3108721401977
 31
0.0
  0
LINE
  5
C91
330
C86
100
AcDbEntity
  8
0
 62
     0
100
AcDbLine
 10
289.271005662477
 20
372.7223628843689
 30
0.0
 11
286.8050551044376
 21
375.1883134424082
 31
0.0
  0
LINE
  5
C92
330
C86
100
AcDbEntity
  8
0
 62
     0
100
AcDbLine
 10
289.1295843062396
 20
372.7223628843689
 30
0.0
 11
286.7908192632437
 21
375.0611279273649
 31
0.0
  0
LINE
  5
C93
330
C86
100
AcDbEntity
  8
0
 62
     0
100
AcDbLine
 10
288.9881629500024
 20
372.7223628843689
 30
0.0
 11
286.781700786422
 21
374.9288250479492
 31
0.0
  0
LINE
  5
C94
330
C86
100
AcDbEntity
  8
0
 62
     0
100
AcDbLine
 10
288.846741593765
 20
372.7223628843689
 30
0.0
 11
286.7783173941827
 21
374.7907870839511
 31
0.0
  0
LINE
  5
C95
330
C86
100
AcDbEntity
  8
0
 62
     0
100
AcDbLine
 10
288.7053202375276
 20
372.7223628843689
 30
0.0
 11
286.7814641487628
 21
374.6462189731337
 31
0.0
  0
LINE
  5
C96
330
C86
100
AcDbEntity
  8
0
 62
     0
100
AcDbLine
 10
288.5638988812904
 20
372.7223628843689
 30
0.0
 11
286.7921928355539
 21
374.4940689301053
 31
0.0
  0
LINE
  5
C97
330
C86
100
AcDbEntity
  8
0
 62
     0
100
AcDbLine
 10
288.422477525053
 20
372.7223628843689
 30
0.0
 11
286.811944573003
 21
374.332895836419
 31
0.0
  0
LINE
  5
C98
330
C86
100
AcDbEntity
  8
0
 62
     0
100
AcDbLine
 10
288.2810561688157
 20
372.7223628843689
 30
0.0
 11
286.842787287575
 21
374.1606317656096
 31
0.0
  0
LINE
  5
C99
330
C86
100
AcDbEntity
  8
0
 62
     0
100
AcDbLine
 10
288.1396348125784
 20
372.7223628843689
 30
0.0
 11
286.8878821716178
 21
373.9741155253295
 31
0.0
  0
LINE
  5
C9A
330
C86
100
AcDbEntity
  8
0
 62
     0
100
AcDbLine
 10
288.1017374443489
 20
372.6188388963611
 30
0.0
 11
286.9525271136755
 21
373.7680492270345
 31
0.0
  0
LINE
  5
C9B
330
C86
100
AcDbEntity
  8
0
 62
     0
100
AcDbLine
 10
288.1017374443489
 20
372.4774175401238
 30
0.0
 11
287.0470065163199
 21
373.5321484681528
 31
0.0
  0
LINE
  5
C9C
330
C86
100
AcDbEntity
  8
0
 62
     0
100
AcDbLine
 10
288.1017374443489
 20
372.3359961838865
 30
0.0
 11
287.1977928805879
 21
373.2399407476474
 31
0.0
  0
LINE
  5
C9D
330
C86
100
AcDbEntity
  8
0
 62
     0
100
AcDbLine
 10
391.244261997531
 20
366.9156287906852
 30
0.0
 11
391.1017374443488
 21
367.0581533438673
 31
0.0
  0
LINE
  5
C9E
330
C86
100
AcDbEntity
  8
0
 62
     0
100
AcDbLine
 10
391.3935048397004
 20
366.9078073047532
 30
0.0
 11
391.1017374443488
 21
367.1995747001047
 31
0.0
  0
LINE
  5
C9F
330
C86
100
AcDbEntity
  8
0
 62
     0
100
AcDbLine
 10
391.5427476818697
 20
366.8999858188212
 30
0.0
 11
391.1017374443488
 21
367.340996056342
 31
0.0
  0
LINE
  5
CA0
330
C86
100
AcDbEntity
  8
0
 62
     0
100
AcDbLine
 10
391.691990524039
 20
366.8921643328892
 30
0.0
 11
391.1017374443488
 21
367.4824174125793
 31
0.0
  0
LINE
  5
CA1
330
C86
100
AcDbEntity
  8
0
 62
     0
100
AcDbLine
 10
391.8412333662083
 20
366.8843428469572
 30
0.0
 11
391.1017374443488
 21
367.6238387688167
 31
0.0
  0
LINE
  5
CA2
330
C86
100
AcDbEntity
  8
0
 62
     0
100
AcDbLine
 10
391.9904762083775
 20
366.8765213610253
 30
0.0
 11
391.1017374443488
 21
367.7652601250539
 31
0.0
  0
LINE
  5
CA3
330
C86
100
AcDbEntity
  8
0
 62
     0
100
AcDbLine
 10
392.1397190505468
 20
366.8686998750933
 30
0.0
 11
391.1017374443488
 21
367.9066814812912
 31
0.0
  0
LINE
  5
CA4
330
C86
100
AcDbEntity
  8
0
 62
     0
100
AcDbLine
 10
392.2889618927161
 20
366.8608783891613
 30
0.0
 11
391.1017374443488
 21
368.0481028375285
 31
0.0
  0
LINE
  5
CA5
330
C86
100
AcDbEntity
  8
0
 62
     0
100
AcDbLine
 10
392.4382047348855
 20
366.8530569032293
 30
0.0
 11
391.1017374443488
 21
368.1895241937659
 31
0.0
  0
LINE
  5
CA6
330
C86
100
AcDbEntity
  8
0
 62
     0
100
AcDbLine
 10
392.5874475770548
 20
366.8452354172973
 30
0.0
 11
391.1017374443488
 21
368.3309455500032
 31
0.0
  0
LINE
  5
CA7
330
C86
100
AcDbEntity
  8
0
 62
     0
100
AcDbLine
 10
392.736690419224
 20
366.8374139313653
 30
0.0
 11
391.1017374443488
 21
368.4723669062404
 31
0.0
  0
LINE
  5
CA8
330
C86
100
AcDbEntity
  8
0
 62
     0
100
AcDbLine
 10
392.8859332613933
 20
366.8295924454333
 30
0.0
 11
391.1017374443488
 21
368.6137882624777
 31
0.0
  0
LINE
  5
CA9
330
C86
100
AcDbEntity
  8
0
 62
     0
100
AcDbLine
 10
393.0351761035626
 20
366.8217709595014
 30
0.0
 11
391.1017374443488
 21
368.7552096187151
 31
0.0
  0
LINE
  5
CAA
330
C86
100
AcDbEntity
  8
0
 62
     0
100
AcDbLine
 10
393.1844189457319
 20
366.8139494735694
 30
0.0
 11
391.1017374443488
 21
368.8966309749524
 31
0.0
  0
LINE
  5
CAB
330
C86
100
AcDbEntity
  8
0
 62
     0
100
AcDbLine
 10
393.1112383319247
 20
367.028551443614
 30
0.0
 11
391.1017374443488
 21
369.0380523311898
 31
0.0
  0
LINE
  5
CAC
330
C86
100
AcDbEntity
  8
0
 62
     0
100
AcDbLine
 10
393.0124655682921
 20
367.2687455634837
 30
0.0
 11
391.1017374443488
 21
369.1794736874269
 31
0.0
  0
LINE
  5
CAD
330
C86
100
AcDbEntity
  8
0
 62
     0
100
AcDbLine
 10
392.871315811142
 20
367.5513166768711
 30
0.0
 11
391.3220444016714
 21
369.1005880863418
 31
0.0
  0
LINE
  5
CAE
330
C86
100
AcDbEntity
  8
0
 62
     0
100
AcDbLine
 10
392.6331657472042
 20
367.9308880970463
 30
0.0
 11
391.7016158218466
 21
368.8624380224039
 31
0.0
  0
LINE
  5
CAF
330
C86
100
AcDbEntity
  8
0
 62
     0
100
AcDbLine
 10
389.6801685909665
 20
372.722362884369
 30
0.0
 11
389.6425962053465
 21
372.759935269989
 31
0.0
  0
LINE
  5
CB0
330
C86
100
AcDbEntity
  8
0
 62
     0
100
AcDbLine
 10
389.8215899472038
 20
372.722362884369
 30
0.0
 11
389.7157451700767
 21
372.8282076614962
 31
0.0
  0
LINE
  5
CB1
330
C86
100
AcDbEntity
  8
0
 62
     0
100
AcDbLine
 10
389.9630113034411
 20
372.722362884369
 30
0.0
 11
389.7882197923875
 21
372.8971543954226
 31
0.0
  0
LINE
  5
CB2
330
C86
100
AcDbEntity
  8
0
 62
     0
100
AcDbLine
 10
390.1044326596785
 20
372.722362884369
 30
0.0
 11
389.860020552938
 21
372.9667749911095
 31
0.0
  0
LINE
  5
CB3
330
C86
100
AcDbEntity
  8
0
 62
     0
100
AcDbLine
 10
390.2458540159159
 20
372.722362884369
 30
0.0
 11
389.931147748537
 21
373.0370691517479
 31
0.0
  0
LINE
  5
CB4
330
C86
100
AcDbEntity
  8
0
 62
     0
100
AcDbLine
 10
390.387275372153
 20
372.722362884369
 30
0.0
 11
390.0016014925487
 21
373.1080367639733
 31
0.0
  0
LINE
  5
CB5
330
C86
100
AcDbEntity
  8
0
 62
     0
100
AcDbLine
 10
391.1641566737532
 20
372.0869029390062
 30
0.0
 11
391.1017374443489
 21
372.1493221684105
 31
0.0
  0
LINE
  5
CB6
330
C86
100
AcDbEntity
  8
0
 62
     0
100
AcDbLine
 10
390.5286967283903
 20
372.722362884369
 30
0.0
 11
390.0713817150461
 21
373.1796778977133
 31
0.0
  0
LINE
  5
CB7
330
C86
100
AcDbEntity
  8
0
 62
     0
100
AcDbLine
 10
391.2368438064569
 20
372.1556371625398
 30
0.0
 11
391.1017374443489
 21
372.2907435246479
 31
0.0
  0
LINE
  5
CB8
330
C86
100
AcDbEntity
  8
0
 62
     0
100
AcDbLine
 10
390.6701180846277
 20
372.722362884369
 30
0.0
 11
390.1404881627162
 21
373.2519928062806
 31
0.0
  0
LINE
  5
CB9
330
C86
100
AcDbEntity
  8
0
 62
     0
100
AcDbLine
 10
391.3076140460025
 20
372.2262882792316
 30
0.0
 11
391.1017374443489
 21
372.4321648808852
 31
0.0
  0
LINE
  5
CBA
330
C86
100
AcDbEntity
  8
0
 62
     0
100
AcDbLine
 10
390.8115394408651
 20
372.722362884369
 30
0.0
 11
390.2089203985145
 21
373.3249819267196
 31
0.0
  0
LINE
  5
CBB
330
C86
100
AcDbEntity
  8
0
 62
     0
100
AcDbLine
 10
391.3764675237435
 20
372.2988561577279
 30
0.0
 11
391.1017374443489
 21
372.5735862371225
 31
0.0
  0
LINE
  5
CBC
330
C86
100
AcDbEntity
  8
0
 62
     0
100
AcDbLine
 10
390.9529607971024
 20
372.722362884369
 30
0.0
 11
390.2766778010697
 21
373.3986458804017
 31
0.0
  0
LINE
  5
CBD
330
C86
100
AcDbEntity
  8
0
 62
     0
100
AcDbLine
 10
391.4434001382534
 20
372.3733448994551
 30
0.0
 11
391.1017374443489
 21
372.7150075933597
 31
0.0
  0
LINE
  5
CBE
330
C86
100
AcDbEntity
  8
0
 62
     0
100
AcDbLine
 10
391.0943821533395
 20
372.722362884369
 30
0.0
 11
390.3437595638347
 21
373.4729854738739
 31
0.0
  0
LINE
  5
CBF
330
C86
100
AcDbEntity
  8
0
 62
     0
100
AcDbLine
 10
391.5084035098733
 20
372.4497628840726
 30
0.0
 11
390.4101646939823
 21
373.5480016999636
 31
0.0
  0
LINE
  5
CC0
330
C86
100
AcDbEntity
  8
0
 62
     0
100
AcDbLine
 10
391.5714648871733
 20
372.52812286301
 30
0.0
 11
390.4758920110418
 21
373.6236957391415
 31
0.0
  0
LINE
  5
CC1
330
C86
100
AcDbEntity
  8
0
 62
     0
100
AcDbLine
 10
391.6325670028716
 20
372.608442103549
 30
0.0
 11
390.540940145272
 21
373.7000689611486
 31
0.0
  0
LINE
  5
CC2
330
C86
100
AcDbEntity
  8
0
 62
     0
100
AcDbLine
 10
391.6916878753644
 20
372.6907425872935
 30
0.0
 11
390.6053075357665
 21
373.7771229268915
 31
0.0
  0
LINE
  5
CC3
330
C86
100
AcDbEntity
  8
0
 62
     0
100
AcDbLine
 10
391.7488005504377
 20
372.7750512684575
 30
0.0
 11
390.6689924282821
 21
373.854859390613
 31
0.0
  0
LINE
  5
CC4
330
C86
100
AcDbEntity
  8
0
 62
     0
100
AcDbLine
 10
391.8038727758832
 20
372.8614003992492
 30
0.0
 11
390.7319928727878
 21
373.9332803023446
 31
0.0
  0
LINE
  5
CC5
330
C86
100
AcDbEntity
  8
0
 62
     0
100
AcDbLine
 10
391.8568665995063
 20
372.9498279318635
 30
0.0
 11
390.7943067207212
 21
374.0123878106486
 31
0.0
  0
LINE
  5
CC6
330
C86
100
AcDbEntity
  8
0
 62
     0
100
AcDbLine
 10
391.9077378782641
 20
373.0403780093431
 30
0.0
 11
390.8559316219474
 21
374.0921842656597
 31
0.0
  0
LINE
  5
CC7
330
C86
100
AcDbEntity
  8
0
 62
     0
100
AcDbLine
 10
391.9564356828178
 20
373.1331015610266
 30
0.0
 11
390.9168650214081
 21
374.1726722224364
 31
0.0
  0
LINE
  5
CC8
330
C86
100
AcDbEntity
  8
0
 62
     0
100
AcDbLine
 10
392.0029015773731
 20
373.2280570227086
 30
0.0
 11
390.9771041554496
 21
374.2538544446321
 31
0.0
  0
LINE
  5
CC9
330
C86
100
AcDbEntity
  8
0
 62
     0
100
AcDbLine
 10
392.0470687489708
 20
373.3253112073482
 30
0.0
 11
391.0366460478179
 21
374.3357339085011
 31
0.0
  0
LINE
  5
CCA
330
C86
100
AcDbEntity
  8
0
 62
     0
100
AcDbLine
 10
392.0888609528916
 20
373.4249403596647
 30
0.0
 11
391.0954875053064
 21
374.4183138072499
 31
0.0
  0
LINE
  5
CCB
330
C86
100
AcDbEntity
  8
0
 62
     0
100
AcDbLine
 10
392.1281912308561
 20
373.5270314379376
 30
0.0
 11
391.1536251130412
 21
374.5015975557525
 31
0.0
  0
LINE
  5
CCC
330
C86
100
AcDbEntity
  8
0
 62
     0
100
AcDbLine
 10
392.1649603452414
 20
373.6316836797897
 30
0.0
 11
391.211055229387
 21
374.5855887956441
 31
0.0
  0
LINE
  5
CCD
330
C86
100
AcDbEntity
  8
0
 62
     0
100
AcDbLine
 10
392.1990548541243
 20
373.739010527144
 30
0.0
 11
391.2677739804559
 21
374.6702914008123
 31
0.0
  0
LINE
  5
CCE
330
C86
100
AcDbEntity
  8
0
 62
     0
100
AcDbLine
 10
392.2303447264002
 20
373.8491420111054
 30
0.0
 11
391.3237772541984
 21
374.7557094833071
 31
0.0
  0
LINE
  5
CCF
330
C86
100
AcDbEntity
  8
0
 62
     0
100
AcDbLine
 10
392.2586803601807
 20
373.9622277335622
 30
0.0
 11
391.3790606940548
 21
374.8418473996882
 31
0.0
  0
LINE
  5
CD0
330
C86
100
AcDbEntity
  8
0
 62
     0
100
AcDbLine
 10
392.2838888159507
 20
374.0784406340295
 30
0.0
 11
391.4336196921427
 21
374.9287097578376
 31
0.0
  0
LINE
  5
CD1
330
C86
100
AcDbEntity
  8
0
 62
     0
100
AcDbLine
 10
392.3057690003292
 20
374.1979818058883
 30
0.0
 11
391.4874493819562
 21
375.0163014242614
 31
0.0
  0
LINE
  5
CD2
330
C86
100
AcDbEntity
  8
0
 62
     0
100
AcDbLine
 10
392.3240854233382
 20
374.3210867391165
 30
0.0
 11
391.540544630546
 21
375.1046275319088
 31
0.0
  0
LINE
  5
CD3
330
C86
100
AcDbEntity
  8
0
 62
     0
100
AcDbLine
 10
392.3385599794598
 20
374.4480335392324
 30
0.0
 11
391.5929000301509
 21
375.1936934885412
 31
0.0
  0
LINE
  5
CD4
330
C86
100
AcDbEntity
  8
0
 62
     0
100
AcDbLine
 10
392.3488609318994
 20
374.57915394303
 30
0.0
 11
391.6445098892463
 21
375.2835049856832
 31
0.0
  0
LINE
  5
CD5
330
C86
100
AcDbEntity
  8
0
 62
     0
100
AcDbLine
 10
392.3545878416658
 20
374.7148483895009
 30
0.0
 11
391.695368222973
 21
375.3740680081938
 31
0.0
  0
LINE
  5
CD6
330
C86
100
AcDbEntity
  8
0
 62
     0
100
AcDbLine
 10
392.3552504509483
 20
374.8556071364558
 30
0.0
 11
391.745468742906
 21
375.4653888444981
 31
0.0
  0
LINE
  5
CD7
330
C86
100
AcDbEntity
  8
0
 62
     0
100
AcDbLine
 10
392.3502382569208
 20
375.0020406867205
 30
0.0
 11
391.7948048461191
 21
375.5574740975222
 31
0.0
  0
LINE
  5
CD8
330
C86
100
AcDbEntity
  8
0
 62
     0
100
AcDbLine
 10
392.3387751931228
 20
375.1549251067558
 30
0.0
 11
391.8433696034984
 21
375.6503306963803
 31
0.0
  0
LINE
  5
CD9
330
C86
100
AcDbEntity
  8
0
 62
     0
100
AcDbLine
 10
392.3198493749179
 20
375.3152722811981
 30
0.0
 11
391.89115574725
 21
375.743965908866
 31
0.0
  0
LINE
  5
CDA
330
C86
100
AcDbEntity
  8
0
 62
     0
100
AcDbLine
 10
392.2920986976056
 20
375.4844443147477
 30
0.0
 11
391.9381556575475
 21
375.8383873548059
 31
0.0
  0
LINE
  5
CDB
330
C86
100
AcDbEntity
  8
0
 62
     0
100
AcDbLine
 10
392.253612619911
 20
375.6643517486797
 30
0.0
 11
391.9843613482543
 21
375.9336030203364
 31
0.0
  0
LINE
  5
CDC
330
C86
100
AcDbEntity
  8
0
 62
     0
100
AcDbLine
 10
392.2015597669313
 20
375.8578259578966
 30
0.0
 11
392.0297644516538
 21
376.029621273174
 31
0.0
  0
LINE
  5
CDD
330
C86
100
AcDbEntity
  8
0
 62
     0
100
AcDbLine
 10
392.1314063985133
 20
376.0694006825519
 30
0.0
 11
392.0743562021107
 21
376.1264508789545
 31
0.0
  0
ENDBLK
  5
CDE
330
C86
100
AcDbEntity
  8
0
100
AcDbBlockEnd
  0
BLOCK
  5
CE0
330
CDF
100
AcDbEntity
  8
0
100
AcDbBlockBegin
  2
*X5
 70
     1
 10
0.0
 20
0.0
 30
0.0
  3
*X5
  1

  0
LINE
  5
CE1
330
CDF
100
AcDbEntity
  8
0
 62
     0
100
AcDbLine
 10
234.4775813385072
 20
395.69792744904
 30
0.0
 11
235.5483888269965
 21
396.7687349375293
 31
0.0
  0
LINE
  5
CE2
330
CDF
100
AcDbEntity
  8
0
 62
     0
100
AcDbLine
 10
232.8983027981761
 20
396.9470760334551
 30
0.0
 11
233.964085727923
 21
398.0128589632021
 31
0.0
  0
LINE
  5
CE3
330
CDF
100
AcDbEntity
  8
0
 62
     0
100
AcDbLine
 10
231.3747434370224
 20
398.2519437970477
 30
0.0
 11
232.4372241668936
 21
399.3144245269188
 31
0.0
  0
LINE
  5
CE4
330
CDF
100
AcDbEntity
  8
0
 62
     0
100
AcDbLine
 10
229.906401241113
 20
399.6120287258844
 30
0.0
 11
230.9672549815127
 21
400.672882466284
 31
0.0
  0
LINE
  5
CE5
330
CDF
100
AcDbEntity
  8
0
 62
     0
100
AcDbLine
 10
228.4930299363982
 20
401.0270845459157
 30
0.0
 11
229.5539089545008
 21
402.0879635640183
 31
0.0
  0
LINE
  5
CE6
330
CDF
100
AcDbEntity
  8
0
 62
     0
100
AcDbLine
 10
227.1346333437286
 20
402.4971150779923
 30
0.0
 11
228.1971902617261
 21
403.5596719959898
 31
0.0
  0
LINE
  5
CE7
330
CDF
100
AcDbEntity
  8
0
 62
     0
100
AcDbLine
 10
225.8314654660034
 20
404.0223743250134
 30
0.0
 11
226.8973765733012
 21
405.0882854323111
 31
0.0
  0
LINE
  5
CE8
330
CDF
100
AcDbEntity
  8
0
 62
     0
100
AcDbLine
 10
224.5840363121301
 20
405.6033722958862
 30
0.0
 11
225.6550258135109
 21
406.6743617972671
 31
0.0
  0
LINE
  5
CE9
330
CDF
100
AcDbEntity
  8
0
 62
     0
100
AcDbLine
 10
223.3931237727735
 20
407.2408868812758
 30
0.0
 11
224.470989968014
 21
408.3187530765163
 31
0.0
  0
LINE
  5
CEA
330
CDF
100
AcDbEntity
  8
0
 62
     0
100
AcDbLine
 10
222.2597922042713
 20
408.9359824375198
 30
0.0
 11
223.3464367502332
 21
410.0226269834817
 31
0.0
  0
LINE
  5
CEB
330
CDF
100
AcDbEntity
  8
0
 62
     0
100
AcDbLine
 10
221.185418785139
 20
410.6900361431336
 30
0.0
 11
222.2828804501402
 21
411.7874978081348
 31
0.0
  0
LINE
  5
CEC
330
CDF
100
AcDbEntity
  8
0
 62
     0
100
AcDbLine
 10
220.1717292307305
 20
412.5047737134714
 30
0.0
 11
221.2822239501131
 21
413.615268432854
 31
0.0
  0
LINE
  5
CED
330
CDF
100
AcDbEntity
  8
0
 62
     0
100
AcDbLine
 10
219.2208451518076
 20
414.3823167592946
 30
0.0
 11
220.346814794306
 21
415.508286401793
 31
0.0
  0
LINE
  5
CEE
330
CDF
100
AcDbEntity
  8
0
 62
     0
100
AcDbLine
 10
218.3353463211718
 20
416.325245053405
 30
0.0
 11
219.4795194779728
 21
417.4694182102061
 31
0.0
  0
LINE
  5
CEF
330
CDF
100
AcDbEntity
  8
0
 62
     0
100
AcDbLine
 10
217.5183525244136
 20
418.336678381393
 30
0.0
 11
218.6838220018776
 21
419.5021478588571
 31
0.0
  0
LINE
  5
CF0
330
CDF
100
AcDbEntity
  8
0
 62
     0
100
AcDbLine
 10
216.7736317679669
 20
420.4203847496925
 30
0.0
 11
217.9639555792069
 21
421.6107085609325
 31
0.0
  0
LINE
  5
CF1
330
CDF
100
AcDbEntity
  8
0
 62
     0
100
AcDbLine
 10
216.1057448212962
 20
422.5809249277681
 30
0.0
 11
217.3250808135392
 21
423.8002609200109
 31
0.0
  0
LINE
  5
CF2
330
CDF
100
AcDbEntity
  8
0
 62
     0
100
AcDbLine
 10
215.5202411090665
 20
424.8238483402845
 30
0.0
 11
216.7735307967807
 21
426.0771380279988
 31
0.0
  0
LINE
  5
CF3
330
CDF
100
AcDbEntity
  8
0
 62
     0
100
AcDbLine
 10
215.0239291509426
 20
427.1559635069068
 30
0.0
 11
216.3171554572476
 21
428.4491898132118
 31
0.0
  0
LINE
  5
CF4
330
CDF
100
AcDbEntity
  8
0
 62
     0
100
AcDbLine
 10
214.6252585134139
 20
429.5857199941242
 30
0.0
 11
215.9658180855938
 21
430.9262795663041
 31
0.0
  0
LINE
  5
CF5
330
CDF
100
AcDbEntity
  8
0
 62
     0
100
AcDbLine
 10
214.3348743686701
 20
432.1237629741267
 30
0.0
 11
215.7321343536148
 21
433.5210229590713
 31
0.0
  0
LINE
  5
CF6
330
CDF
100
AcDbEntity
  8
0
 62
     0
100
AcDbLine
 10
214.1664501217026
 20
434.7837658519053
 30
0.0
 11
215.6326157964406
 21
436.2499315266433
 31
0.0
  0
LINE
  5
CF7
330
CDF
100
AcDbEntity
  8
0
 62
     0
100
AcDbLine
 10
214.1305266405216
 20
437.5762694954706
 30
0.0
 11
215.6305266405217
 21
439.0762694954706
 31
0.0
  0
LINE
  5
CF8
330
CDF
100
AcDbEntity
  8
0
 62
     0
100
AcDbLine
 10
214.1305266405216
 20
440.4046966202168
 30
0.0
 11
215.6305266405217
 21
441.9046966202168
 31
0.0
  0
LINE
  5
CF9
330
CDF
100
AcDbEntity
  8
0
 62
     0
100
AcDbLine
 10
214.1305266405216
 20
443.233123744963
 30
0.0
 11
215.6305266405217
 21
444.733123744963
 31
0.0
  0
LINE
  5
CFA
330
CDF
100
AcDbEntity
  8
0
 62
     0
100
AcDbLine
 10
214.1305266405216
 20
446.0615508697092
 30
0.0
 11
215.6305266405217
 21
447.5615508697092
 31
0.0
  0
LINE
  5
CFB
330
CDF
100
AcDbEntity
  8
0
 62
     0
100
AcDbLine
 10
214.1305266405216
 20
448.8899779944553
 30
0.0
 11
215.6305266405217
 21
450.3899779944553
 31
0.0
  0
LINE
  5
CFC
330
CDF
100
AcDbEntity
  8
0
 62
     0
100
AcDbLine
 10
214.1305266405216
 20
451.7184051192016
 30
0.0
 11
215.6305266405217
 21
453.2184051192016
 31
0.0
  0
LINE
  5
CFD
330
CDF
100
AcDbEntity
  8
0
 62
     0
100
AcDbLine
 10
214.1305266405216
 20
454.5468322439478
 30
0.0
 11
215.6305266405217
 21
456.0468322439478
 31
0.0
  0
LINE
  5
CFE
330
CDF
100
AcDbEntity
  8
0
 62
     0
100
AcDbLine
 10
214.1305266405216
 20
457.3752593686939
 30
0.0
 11
215.6305266405217
 21
458.8752593686939
 31
0.0
  0
LINE
  5
CFF
330
CDF
100
AcDbEntity
  8
0
 62
     0
100
AcDbLine
 10
214.1305266405216
 20
460.2036864934401
 30
0.0
 11
215.6305266405217
 21
461.7036864934402
 31
0.0
  0
LINE
  5
D00
330
CDF
100
AcDbEntity
  8
0
 62
     0
100
AcDbLine
 10
214.1305266405216
 20
463.0321136181863
 30
0.0
 11
215.6305266405217
 21
464.5321136181864
 31
0.0
  0
LINE
  5
D01
330
CDF
100
AcDbEntity
  8
0
 62
     0
100
AcDbLine
 10
214.1305266405216
 20
465.8605407429325
 30
0.0
 11
215.6305266405217
 21
467.3605407429326
 31
0.0
  0
LINE
  5
D02
330
CDF
100
AcDbEntity
  8
0
 62
     0
100
AcDbLine
 10
236.1133484941137
 20
394.5052674799003
 30
0.0
 11
237.1909761529789
 21
395.5828951387656
 31
0.0
  0
LINE
  5
D03
330
CDF
100
AcDbEntity
  8
0
 62
     0
100
AcDbLine
 10
237.8066594879542
 20
393.3701513489947
 30
0.0
 11
238.8930053298337
 21
394.4564971908742
 31
0.0
  0
LINE
  5
D04
330
CDF
100
AcDbEntity
  8
0
 62
     0
100
AcDbLine
 10
239.5588814274655
 20
392.2939461637597
 30
0.0
 11
240.6559794581944
 21
393.3910441944886
 31
0.0
  0
LINE
  5
D05
330
CDF
100
AcDbEntity
  8
0
 62
     0
100
AcDbLine
 10
241.3717766698242
 20
391.2784142813722
 30
0.0
 11
242.4848503650764
 21
392.3914879766245
 31
0.0
  0
LINE
  5
D06
330
CDF
100
AcDbEntity
  8
0
 62
     0
100
AcDbLine
 10
315.6305266405216
 20
465.5371642520697
 30
0.0
 11
317.1305266405216
 21
467.0371642520696
 31
0.0
  0
LINE
  5
D07
330
CDF
100
AcDbEntity
  8
0
 62
     0
100
AcDbLine
 10
243.2962422215025
 20
390.3744527083044
 30
0.0
 11
244.4533676930446
 21
391.5315781798464
 31
0.0
  0
LINE
  5
D08
330
CDF
100
AcDbEntity
  8
0
 62
     0
100
AcDbLine
 10
315.6305266405216
 20
462.7087371273234
 30
0.0
 11
317.1305266405216
 21
464.2087371273235
 31
0.0
  0
LINE
  5
D09
330
CDF
100
AcDbEntity
  8
0
 62
     0
100
AcDbLine
 10
245.3889710419755
 20
389.6387544040312
 30
0.0
 11
246.6106633550995
 21
390.8604467171552
 31
0.0
  0
LINE
  5
D0A
330
CDF
100
AcDbEntity
  8
0
 62
     0
100
AcDbLine
 10
247.6773882396074
 20
389.0987444769169
 30
0.0
 11
248.9943892682685
 21
390.415745505578
 31
0.0
  0
LINE
  5
D0B
330
CDF
100
AcDbEntity
  8
0
 62
     0
100
AcDbLine
 10
250.2065811116823
 20
388.7995102242456
 30
0.0
 11
251.6698007154035
 21
390.2627298279668
 31
0.0
  0
LINE
  5
D0C
330
CDF
100
AcDbEntity
  8
0
 62
     0
100
AcDbLine
 10
252.9982278401497
 20
388.7627298279668
 30
0.0
 11
254.4982278401497
 21
390.2627298279668
 31
0.0
  0
LINE
  5
D0D
330
CDF
100
AcDbEntity
  8
0
 62
     0
100
AcDbLine
 10
255.8266549648959
 20
388.7627298279668
 30
0.0
 11
257.3266549648959
 21
390.2627298279668
 31
0.0
  0
LINE
  5
D0E
330
CDF
100
AcDbEntity
  8
0
 62
     0
100
AcDbLine
 10
258.655082089642
 20
388.7627298279668
 30
0.0
 11
260.1550820896421
 21
390.2627298279668
 31
0.0
  0
LINE
  5
D0F
330
CDF
100
AcDbEntity
  8
0
 62
     0
100
AcDbLine
 10
261.4835092143883
 20
388.7627298279668
 30
0.0
 11
262.9835092143883
 21
390.2627298279668
 31
0.0
  0
LINE
  5
D10
330
CDF
100
AcDbEntity
  8
0
 62
     0
100
AcDbLine
 10
264.3119363391345
 20
388.7627298279668
 30
0.0
 11
265.6305266405216
 21
390.081320129354
 31
0.0
  0
LINE
  5
D11
330
CDF
100
AcDbEntity
  8
0
 62
     0
100
AcDbLine
 10
265.6305266405216
 20
390.081320129354
 30
0.0
 11
265.8119363391344
 21
390.2627298279668
 31
0.0
  0
LINE
  5
D12
330
CDF
100
AcDbEntity
  8
0
 62
     0
100
AcDbLine
 10
267.1403634638806
 20
388.7627298279668
 30
0.0
 11
268.6403634638806
 21
390.2627298279668
 31
0.0
  0
LINE
  5
D13
330
CDF
100
AcDbEntity
  8
0
 62
     0
100
AcDbLine
 10
269.9687905886268
 20
388.7627298279668
 30
0.0
 11
271.4687905886268
 21
390.2627298279668
 31
0.0
  0
LINE
  5
D14
330
CDF
100
AcDbEntity
  8
0
 62
     0
100
AcDbLine
 10
272.797217713373
 20
388.7627298279668
 30
0.0
 11
274.297217713373
 21
390.2627298279668
 31
0.0
  0
LINE
  5
D15
330
CDF
100
AcDbEntity
  8
0
 62
     0
100
AcDbLine
 10
275.6256448381192
 20
388.7627298279668
 30
0.0
 11
277.1256448381192
 21
390.2627298279668
 31
0.0
  0
LINE
  5
D16
330
CDF
100
AcDbEntity
  8
0
 62
     0
100
AcDbLine
 10
278.4540719628654
 20
388.7627298279668
 30
0.0
 11
279.9546903972098
 21
390.2633482623112
 31
0.0
  0
LINE
  5
D17
330
CDF
100
AcDbEntity
  8
0
 62
     0
100
AcDbLine
 10
281.3377477254594
 20
388.8179784658146
 30
0.0
 11
282.9278395236776
 21
390.4080702640328
 31
0.0
  0
LINE
  5
D18
330
CDF
100
AcDbEntity
  8
0
 62
     0
100
AcDbLine
 10
284.6704518282752
 20
389.3222554438843
 30
0.0
 11
285.6154166971123
 21
390.2672203127213
 31
0.0
  0
ENDBLK
  5
D19
330
CDF
100
AcDbEntity
  8
0
100
AcDbBlockEnd
  0
BLOCK
  5
D1B
330
D1A
100
AcDbEntity
  8
0
100
AcDbBlockBegin
  2
*X6
 70
     1
 10
0.0
 20
0.0
 30
0.0
  3
*X6
  1

  0
LINE
  5
D1C
330
D1A
100
AcDbEntity
  8
0
 62
     0
100
AcDbLine
 10
440.9455820080329
 20
382.1267112931083
 30
0.0
 11
439.2547748036593
 21
383.817518497482
 31
0.0
  0
LINE
  5
D1D
330
D1A
100
AcDbEntity
  8
0
 62
     0
100
AcDbLine
 10
365.4933105128581
 20
457.5789827882831
 30
0.0
 11
363.8025033084844
 21
459.2697899926568
 31
0.0
  0
LINE
  5
D1E
330
D1A
100
AcDbEntity
  8
0
 62
     0
100
AcDbLine
 10
437.960725164647
 20
382.2831410117479
 30
0.0
 11
436.2699179602734
 21
383.9739482161216
 31
0.0
  0
LINE
  5
D1F
330
D1A
100
AcDbEntity
  8
0
 62
     0
100
AcDbLine
 10
362.5084536694723
 20
457.7354125069227
 30
0.0
 11
360.8176464650985
 21
459.4262197112964
 31
0.0
  0
LINE
  5
D20
330
D1A
100
AcDbEntity
  8
0
 62
     0
100
AcDbLine
 10
434.9758683212613
 20
382.4395707303876
 30
0.0
 11
433.2850611168876
 21
384.1303779347612
 31
0.0
  0
LINE
  5
D21
330
D1A
100
AcDbEntity
  8
0
 62
     0
100
AcDbLine
 10
359.5235968260865
 20
457.8918422255624
 30
0.0
 11
357.8327896217127
 21
459.582649429936
 31
0.0
  0
LINE
  5
D22
330
D1A
100
AcDbEntity
  8
0
 62
     0
100
AcDbLine
 10
431.9910114778754
 20
382.5960004490273
 30
0.0
 11
430.3002042735018
 21
384.2868076534008
 31
0.0
  0
LINE
  5
D23
330
D1A
100
AcDbEntity
  8
0
 62
     0
100
AcDbLine
 10
356.5387399827006
 20
458.0482719442019
 30
0.0
 11
354.8479327783269
 21
459.7390791485756
 31
0.0
  0
LINE
  5
D24
330
D1A
100
AcDbEntity
  8
0
 62
     0
100
AcDbLine
 10
429.0061546344896
 20
382.7524301676669
 30
0.0
 11
427.3153474301159
 21
384.4432373720406
 31
0.0
  0
LINE
  5
D25
330
D1A
100
AcDbEntity
  8
0
 62
     0
100
AcDbLine
 10
353.5538831393148
 20
458.2047016628416
 30
0.0
 11
351.8630759349411
 21
459.8955088672154
 31
0.0
  0
LINE
  5
D26
330
D1A
100
AcDbEntity
  8
0
 62
     0
100
AcDbLine
 10
426.0212977911037
 20
382.9088598863065
 30
0.0
 11
424.3304905867301
 21
384.5996670906801
 31
0.0
  0
LINE
  5
D27
330
D1A
100
AcDbEntity
  8
0
 62
     0
100
AcDbLine
 10
350.5690262959289
 20
458.3611313814812
 30
0.0
 11
348.8782190915553
 21
460.0519385858549
 31
0.0
  0
LINE
  5
D28
330
D1A
100
AcDbEntity
  8
0
 62
     0
100
AcDbLine
 10
423.0364409477179
 20
383.0652896049461
 30
0.0
 11
421.3456337433442
 21
384.7560968093198
 31
0.0
  0
LINE
  5
D29
330
D1A
100
AcDbEntity
  8
0
 62
     0
100
AcDbLine
 10
347.5841694525432
 20
458.5175611001209
 30
0.0
 11
345.8933622481694
 21
460.2083683044946
 31
0.0
  0
LINE
  5
D2A
330
D1A
100
AcDbEntity
  8
0
 62
     0
100
AcDbLine
 10
420.0515841043321
 20
383.2217193235858
 30
0.0
 11
418.3607768999585
 21
384.9125265279594
 31
0.0
  0
LINE
  5
D2B
330
D1A
100
AcDbEntity
  8
0
 62
     0
100
AcDbLine
 10
344.5993126091573
 20
458.6739908187605
 30
0.0
 11
342.9085054047836
 21
460.3647980231342
 31
0.0
  0
LINE
  5
D2C
330
D1A
100
AcDbEntity
  8
0
 62
     0
100
AcDbLine
 10
417.0667272609462
 20
383.3781490422254
 30
0.0
 11
415.3759200565726
 21
385.0689562465991
 31
0.0
  0
LINE
  5
D2D
330
D1A
100
AcDbEntity
  8
0
 62
     0
100
AcDbLine
 10
341.6144557657715
 20
458.8304205374002
 30
0.0
 11
339.9236485613978
 21
460.5212277417739
 31
0.0
  0
LINE
  5
D2E
330
D1A
100
AcDbEntity
  8
0
 62
     0
100
AcDbLine
 10
414.0818704175605
 20
383.5345787608651
 30
0.0
 11
412.3910632131868
 21
385.2253859652387
 31
0.0
  0
LINE
  5
D2F
330
D1A
100
AcDbEntity
  8
0
 62
     0
100
AcDbLine
 10
338.6295989223857
 20
458.9868502560398
 30
0.0
 11
336.9387917180119
 21
460.6776574604135
 31
0.0
  0
LINE
  5
D30
330
D1A
100
AcDbEntity
  8
0
 62
     0
100
AcDbLine
 10
411.0970135741746
 20
383.6910084795047
 30
0.0
 11
409.4062063698009
 21
385.3818156838784
 31
0.0
  0
LINE
  5
D31
330
D1A
100
AcDbEntity
  8
0
 62
     0
100
AcDbLine
 10
335.6447420789998
 20
459.1432799746795
 30
0.0
 11
333.9539348746261
 21
460.8340871790532
 31
0.0
  0
LINE
  5
D32
330
D1A
100
AcDbEntity
  8
0
 62
     0
100
AcDbLine
 10
408.1121567307888
 20
383.8474381981443
 30
0.0
 11
406.4213495264151
 21
385.538245402518
 31
0.0
  0
LINE
  5
D33
330
D1A
100
AcDbEntity
  8
0
 62
     0
100
AcDbLine
 10
332.659885235614
 20
459.2997096933191
 30
0.0
 11
330.9690780312402
 21
460.9905168976928
 31
0.0
  0
LINE
  5
D34
330
D1A
100
AcDbEntity
  8
0
 62
     0
100
AcDbLine
 10
405.127299887403
 20
384.003867916784
 30
0.0
 11
403.4364926830293
 21
385.6946751211576
 31
0.0
  0
LINE
  5
D35
330
D1A
100
AcDbEntity
  8
0
 62
     0
100
AcDbLine
 10
329.6750283922282
 20
459.4561394119587
 30
0.0
 11
327.9842211878544
 21
461.1469466163324
 31
0.0
  0
LINE
  5
D36
330
D1A
100
AcDbEntity
  8
0
 62
     0
100
AcDbLine
 10
402.1424430440172
 20
384.1602976354236
 30
0.0
 11
400.4516358396434
 21
385.8511048397972
 31
0.0
  0
LINE
  5
D37
330
D1A
100
AcDbEntity
  8
0
 62
     0
100
AcDbLine
 10
326.6901715488423
 20
459.6125691305983
 30
0.0
 11
324.9993643444686
 21
461.303376334972
 31
0.0
  0
LINE
  5
D38
330
D1A
100
AcDbEntity
  8
0
 62
     0
100
AcDbLine
 10
399.1575862006314
 20
384.3167273540633
 30
0.0
 11
397.4667789962577
 21
386.0075345584369
 31
0.0
  0
LINE
  5
D39
330
D1A
100
AcDbEntity
  8
0
 62
     0
100
AcDbLine
 10
323.7053147054565
 20
459.768998849238
 30
0.0
 11
322.0145075010828
 21
461.4598060536117
 31
0.0
  0
LINE
  5
D3A
330
D1A
100
AcDbEntity
  8
0
 62
     0
100
AcDbLine
 10
396.1727293572455
 20
384.4731570727029
 30
0.0
 11
394.4819221528718
 21
386.1639642770766
 31
0.0
  0
LINE
  5
D3B
330
D1A
100
AcDbEntity
  8
0
 62
     0
100
AcDbLine
 10
320.7204578620707
 20
459.9254285678776
 30
0.0
 11
319.029650657697
 21
461.6162357722513
 31
0.0
  0
LINE
  5
D3C
330
D1A
100
AcDbEntity
  8
0
 62
     0
100
AcDbLine
 10
393.1878725138597
 20
384.6295867913426
 30
0.0
 11
391.4970653094861
 21
386.3203939957162
 31
0.0
  0
LINE
  5
D3D
330
D1A
100
AcDbEntity
  8
0
 62
     0
100
AcDbLine
 10
317.7356010186849
 20
460.0818582865173
 30
0.0
 11
316.0447938143111
 21
461.772665490891
 31
0.0
  0
LINE
  5
D3E
330
D1A
100
AcDbEntity
  8
0
 62
     0
100
AcDbLine
 10
390.2030156704739
 20
384.7860165099822
 30
0.0
 11
388.5122084661002
 21
386.4768237143558
 31
0.0
  0
LINE
  5
D3F
330
D1A
100
AcDbEntity
  8
0
 62
     0
100
AcDbLine
 10
314.750744175299
 20
460.2382880051569
 30
0.0
 11
313.0599369709253
 21
461.9290952095306
 31
0.0
  0
LINE
  5
D40
330
D1A
100
AcDbEntity
  8
0
 62
     0
100
AcDbLine
 10
387.218158827088
 20
384.9424462286219
 30
0.0
 11
385.5273516227144
 21
386.6332534329954
 31
0.0
  0
LINE
  5
D41
330
D1A
100
AcDbEntity
  8
0
 62
     0
100
AcDbLine
 10
311.7658873319132
 20
460.3947177237966
 30
0.0
 11
310.0750801275395
 21
462.0855249281702
 31
0.0
  0
LINE
  5
D42
330
D1A
100
AcDbEntity
  8
0
 62
     0
100
AcDbLine
 10
384.2333019837022
 20
385.0988759472615
 30
0.0
 11
382.5424947793285
 21
386.7896831516351
 31
0.0
  0
LINE
  5
D43
330
D1A
100
AcDbEntity
  8
0
 62
     0
100
AcDbLine
 10
308.7810304885274
 20
460.5511474424361
 30
0.0
 11
307.0902232841536
 21
462.2419546468099
 31
0.0
  0
LINE
  5
D44
330
D1A
100
AcDbEntity
  8
0
 62
     0
100
AcDbLine
 10
381.2484451403163
 20
385.2553056659011
 30
0.0
 11
379.5576379359427
 21
386.9461128702747
 31
0.0
  0
LINE
  5
D45
330
D1A
100
AcDbEntity
  8
0
 62
     0
100
AcDbLine
 10
305.7961736451416
 20
460.7075771610759
 30
0.0
 11
304.1053664407678
 21
462.3983843654496
 31
0.0
  0
LINE
  5
D46
330
D1A
100
AcDbEntity
  8
0
 62
     0
100
AcDbLine
 10
378.2635882969306
 20
385.4117353845408
 30
0.0
 11
376.5727810925569
 21
387.1025425889144
 31
0.0
  0
LINE
  5
D47
330
D1A
100
AcDbEntity
  8
0
 62
     0
100
AcDbLine
 10
302.8113168017557
 20
460.8640068797155
 30
0.0
 11
301.1205095973819
 21
462.5548140840892
 31
0.0
  0
LINE
  5
D48
330
D1A
100
AcDbEntity
  8
0
 62
     0
100
AcDbLine
 10
375.2787314535447
 20
385.5681651031804
 30
0.0
 11
373.5879242491711
 21
387.258972307554
 31
0.0
  0
LINE
  5
D49
330
D1A
100
AcDbEntity
  8
0
 62
     0
100
AcDbLine
 10
299.8264599583699
 20
461.0204365983551
 30
0.0
 11
298.2263796853725
 21
462.6205168713524
 31
0.0
  0
LINE
  5
D4A
330
D1A
100
AcDbEntity
  8
0
 62
     0
100
AcDbLine
 10
372.2938746101589
 20
385.7245948218201
 30
0.0
 11
370.6030674057852
 21
387.4154020261936
 31
0.0
  0
LINE
  5
D4B
330
D1A
100
AcDbEntity
  8
0
 62
     0
100
AcDbLine
 10
297.0880267119168
 20
460.9304427200619
 30
0.0
 11
295.6255000444063
 21
462.3929693875726
 31
0.0
  0
LINE
  5
D4C
330
D1A
100
AcDbEntity
  8
0
 62
     0
100
AcDbLine
 10
369.309017766773
 20
385.8810245404597
 30
0.0
 11
367.6182105623994
 21
387.5718317448333
 31
0.0
  0
LINE
  5
D4D
330
D1A
100
AcDbEntity
  8
0
 62
     0
100
AcDbLine
 10
294.4871470709505
 20
460.7028952362821
 30
0.0
 11
293.02462040344
 21
462.1654219037925
 31
0.0
  0
LINE
  5
D4E
330
D1A
100
AcDbEntity
  8
0
 62
     0
100
AcDbLine
 10
366.3241609233872
 20
386.0374542590993
 30
0.0
 11
364.6333537190135
 21
387.7282614634729
 31
0.0
  0
LINE
  5
D4F
330
D1A
100
AcDbEntity
  8
0
 62
     0
100
AcDbLine
 10
363.3393040800014
 20
386.193883977739
 30
0.0
 11
361.6484968756278
 21
387.8846911821126
 31
0.0
  0
LINE
  5
D50
330
D1A
100
AcDbEntity
  8
0
 62
     0
100
AcDbLine
 10
360.3544472366156
 20
386.3503136963786
 30
0.0
 11
358.6636400322419
 21
388.0411209007522
 31
0.0
  0
LINE
  5
D51
330
D1A
100
AcDbEntity
  8
0
 62
     0
100
AcDbLine
 10
357.3695903932297
 20
386.5067434150183
 30
0.0
 11
355.6787831888561
 21
388.1975506193919
 31
0.0
  0
LINE
  5
D52
330
D1A
100
AcDbEntity
  8
0
 62
     0
100
AcDbLine
 10
354.3847335498439
 20
386.6631731336579
 30
0.0
 11
352.6939263454702
 21
388.3539803380315
 31
0.0
  0
LINE
  5
D53
330
D1A
100
AcDbEntity
  8
0
 62
     0
100
AcDbLine
 10
351.399876706458
 20
386.8196028522975
 30
0.0
 11
349.7090695020844
 21
388.5104100566711
 31
0.0
  0
LINE
  5
D54
330
D1A
100
AcDbEntity
  8
0
 62
     0
100
AcDbLine
 10
348.4150198630723
 20
386.9760325709372
 30
0.0
 11
346.7242126586986
 21
388.6668397753108
 31
0.0
  0
LINE
  5
D55
330
D1A
100
AcDbEntity
  8
0
 62
     0
100
AcDbLine
 10
345.4301630196864
 20
387.1324622895768
 30
0.0
 11
343.7393558153128
 21
388.8232694939504
 31
0.0
  0
LINE
  5
D56
330
D1A
100
AcDbEntity
  8
0
 62
     0
100
AcDbLine
 10
342.4453061763006
 20
387.2888920082164
 30
0.0
 11
340.7544989719269
 21
388.9796992125901
 31
0.0
  0
LINE
  5
D57
330
D1A
100
AcDbEntity
  8
0
 62
     0
100
AcDbLine
 10
339.4604493329147
 20
387.4453217268561
 30
0.0
 11
337.7696421285411
 21
389.1361289312297
 31
0.0
  0
LINE
  5
D58
330
D1A
100
AcDbEntity
  8
0
 62
     0
100
AcDbLine
 10
336.4755924895289
 20
387.6017514454957
 30
0.0
 11
334.7847852851553
 21
389.2925586498693
 31
0.0
  0
LINE
  5
D59
330
D1A
100
AcDbEntity
  8
0
 62
     0
100
AcDbLine
 10
333.4907356461431
 20
387.7581811641353
 30
0.0
 11
331.7999284417695
 21
389.4489883685089
 31
0.0
  0
LINE
  5
D5A
330
D1A
100
AcDbEntity
  8
0
 62
     0
100
AcDbLine
 10
330.5058788027573
 20
387.914610882775
 30
0.0
 11
328.8150715983836
 21
389.6054180871486
 31
0.0
  0
LINE
  5
D5B
330
D1A
100
AcDbEntity
  8
0
 62
     0
100
AcDbLine
 10
327.5210219593714
 20
388.0710406014146
 30
0.0
 11
325.8302147549978
 21
389.7618478057882
 31
0.0
  0
LINE
  5
D5C
330
D1A
100
AcDbEntity
  8
0
 62
     0
100
AcDbLine
 10
324.5361651159856
 20
388.2274703200543
 30
0.0
 11
322.8453579116119
 21
389.9182775244279
 31
0.0
  0
LINE
  5
D5D
330
D1A
100
AcDbEntity
  8
0
 62
     0
100
AcDbLine
 10
321.5513082725997
 20
388.3839000386939
 30
0.0
 11
319.8605010682261
 21
390.0747072430675
 31
0.0
  0
LINE
  5
D5E
330
D1A
100
AcDbEntity
  8
0
 62
     0
100
AcDbLine
 10
318.566451429214
 20
388.5403297573335
 30
0.0
 11
317.1305266405216
 21
389.9762545460258
 31
0.0
  0
LINE
  5
D5F
330
D1A
100
AcDbEntity
  8
0
 62
     0
100
AcDbLine
 10
317.1305266405216
 20
389.9762545460258
 30
0.0
 11
316.8756442248402
 21
390.2311369617072
 31
0.0
  0
LINE
  5
D60
330
D1A
100
AcDbEntity
  8
0
 62
     0
100
AcDbLine
 10
315.581594585828
 20
388.6967594759732
 30
0.0
 11
313.8907873814544
 21
390.3875666803468
 31
0.0
  0
LINE
  5
D61
330
D1A
100
AcDbEntity
  8
0
 62
     0
100
AcDbLine
 10
312.5967377424422
 20
388.8531891946129
 30
0.0
 11
310.9059305380686
 21
390.5439963989865
 31
0.0
  0
LINE
  5
D62
330
D1A
100
AcDbEntity
  8
0
 62
     0
100
AcDbLine
 10
309.6118808990564
 20
389.0096189132525
 30
0.0
 11
307.9210736946827
 21
390.7004261176261
 31
0.0
  0
LINE
  5
D63
330
D1A
100
AcDbEntity
  8
0
 62
     0
100
AcDbLine
 10
306.6270240556705
 20
389.1660486318921
 30
0.0
 11
304.9362168512969
 21
390.8568558362658
 31
0.0
  0
LINE
  5
D64
330
D1A
100
AcDbEntity
  8
0
 62
     0
100
AcDbLine
 10
303.6421672122847
 20
389.3224783505317
 30
0.0
 11
301.9513600079111
 21
391.0132855549054
 31
0.0
  0
LINE
  5
D65
330
D1A
100
AcDbEntity
  8
0
 62
     0
100
AcDbLine
 10
300.6573103688988
 20
389.4789080691714
 30
0.0
 11
298.9665031645253
 21
391.169715273545
 31
0.0
  0
LINE
  5
D66
330
D1A
100
AcDbEntity
  8
0
 62
     0
100
AcDbLine
 10
297.672453525513
 20
389.6353377878111
 30
0.0
 11
295.9816463211394
 21
391.3261449921847
 31
0.0
  0
LINE
  5
D67
330
D1A
100
AcDbEntity
  8
0
 62
     0
100
AcDbLine
 10
294.6534698346281
 20
389.8258943539498
 30
0.0
 11
292.7806923217949
 21
391.698671866783
 31
0.0
  0
LINE
  5
D68
330
D1A
100
AcDbEntity
  8
0
 62
     0
100
AcDbLine
 10
291.3625314876425
 20
390.2884055761892
 30
0.0
 11
289.4897539748093
 21
392.1611830890225
 31
0.0
  0
LINE
  5
D69
330
D1A
100
AcDbEntity
  8
0
 62
     0
100
AcDbLine
 10
443.9304388514187
 20
381.9702815744687
 30
0.0
 11
442.2396316470451
 21
383.6610887788424
 31
0.0
  0
LINE
  5
D6A
330
D1A
100
AcDbEntity
  8
0
 62
     0
100
AcDbLine
 10
368.478167356244
 20
457.4225530696434
 30
0.0
 11
366.7873601518703
 21
459.1133602740171
 31
0.0
  0
LINE
  5
D6B
330
D1A
100
AcDbEntity
  8
0
 62
     0
100
AcDbLine
 10
446.9152956948046
 20
381.8138518558291
 30
0.0
 11
445.224488490431
 21
383.5046590602027
 31
0.0
  0
LINE
  5
D6C
330
D1A
100
AcDbEntity
  8
0
 62
     0
100
AcDbLine
 10
371.4630241996298
 20
457.2661233510038
 30
0.0
 11
369.7722169952561
 21
458.9569305553775
 31
0.0
  0
LINE
  5
D6D
330
D1A
100
AcDbEntity
  8
0
 62
     0
100
AcDbLine
 10
449.9001525381904
 20
381.6574221371894
 30
0.0
 11
448.2093453338167
 21
383.348229341563
 31
0.0
  0
LINE
  5
D6E
330
D1A
100
AcDbEntity
  8
0
 62
     0
100
AcDbLine
 10
374.4478810430156
 20
457.1096936323641
 30
0.0
 11
372.7570738386419
 21
458.8005008367378
 31
0.0
  0
LINE
  5
D6F
330
D1A
100
AcDbEntity
  8
0
 62
     0
100
AcDbLine
 10
452.8850093815762
 20
381.5009924185497
 30
0.0
 11
451.1942021772026
 21
383.1917996229234
 31
0.0
  0
LINE
  5
D70
330
D1A
100
AcDbEntity
  8
0
 62
     0
100
AcDbLine
 10
377.4327378864015
 20
456.9532639137245
 30
0.0
 11
375.7419306820277
 21
458.6440711180982
 31
0.0
  0
LINE
  5
D71
330
D1A
100
AcDbEntity
  8
0
 62
     0
100
AcDbLine
 10
455.8698662249621
 20
381.3445626999101
 30
0.0
 11
454.1790590205884
 21
383.0353699042838
 31
0.0
  0
LINE
  5
D72
330
D1A
100
AcDbEntity
  8
0
 62
     0
100
AcDbLine
 10
380.4175947297872
 20
456.7968341950849
 30
0.0
 11
378.7267875254136
 21
458.4876413994585
 31
0.0
  0
LINE
  5
D73
330
D1A
100
AcDbEntity
  8
0
 62
     0
100
AcDbLine
 10
458.8547230683479
 20
381.1881329812705
 30
0.0
 11
457.1639158639743
 21
382.8789401856441
 31
0.0
  0
LINE
  5
D74
330
D1A
100
AcDbEntity
  8
0
 62
     0
100
AcDbLine
 10
383.4024515731731
 20
456.6404044764452
 30
0.0
 11
381.7116443687994
 21
458.331211680819
 31
0.0
  0
LINE
  5
D75
330
D1A
100
AcDbEntity
  8
0
 62
     0
100
AcDbLine
 10
461.8395799117337
 20
381.0317032626309
 30
0.0
 11
460.1487727073601
 21
382.7225104670045
 31
0.0
  0
LINE
  5
D76
330
D1A
100
AcDbEntity
  8
0
 62
     0
100
AcDbLine
 10
386.3873084165589
 20
456.4839747578055
 30
0.0
 11
384.6965012121852
 21
458.1747819621792
 31
0.0
  0
LINE
  5
D77
330
D1A
100
AcDbEntity
  8
0
 62
     0
100
AcDbLine
 10
464.8244367551195
 20
380.8752735439912
 30
0.0
 11
463.1336295507459
 21
382.5660807483648
 31
0.0
  0
LINE
  5
D78
330
D1A
100
AcDbEntity
  8
0
 62
     0
100
AcDbLine
 10
389.3721652599448
 20
456.3275450391659
 30
0.0
 11
387.681358055571
 21
458.0183522435397
 31
0.0
  0
LINE
  5
D79
330
D1A
100
AcDbEntity
  8
0
 62
     0
100
AcDbLine
 10
467.8092935985054
 20
380.7188438253515
 30
0.0
 11
466.1184863941318
 21
382.4096510297252
 31
0.0
  0
LINE
  5
D7A
330
D1A
100
AcDbEntity
  8
0
 62
     0
100
AcDbLine
 10
392.3570221033306
 20
456.1711153205263
 30
0.0
 11
390.6662148989568
 21
457.8619225249
 31
0.0
  0
LINE
  5
D7B
330
D1A
100
AcDbEntity
  8
0
 62
     0
100
AcDbLine
 10
470.7941504418912
 20
380.5624141067119
 30
0.0
 11
469.1033432375176
 21
382.2532213110855
 31
0.0
  0
LINE
  5
D7C
330
D1A
100
AcDbEntity
  8
0
 62
     0
100
AcDbLine
 10
395.3418789467164
 20
456.0146856018866
 30
0.0
 11
393.6510717423427
 21
457.7054928062604
 31
0.0
  0
LINE
  5
D7D
330
D1A
100
AcDbEntity
  8
0
 62
     0
100
AcDbLine
 10
473.7790072852771
 20
380.4059843880723
 30
0.0
 11
472.0882000809034
 21
382.0967915924459
 31
0.0
  0
LINE
  5
D7E
330
D1A
100
AcDbEntity
  8
0
 62
     0
100
AcDbLine
 10
398.3267357901023
 20
455.858255883247
 30
0.0
 11
396.6359285857286
 21
457.5490630876207
 31
0.0
  0
LINE
  5
D7F
330
D1A
100
AcDbEntity
  8
0
 62
     0
100
AcDbLine
 10
476.7638641286628
 20
380.2495546694326
 30
0.0
 11
475.0730569242892
 21
381.9403618738063
 31
0.0
  0
LINE
  5
D80
330
D1A
100
AcDbEntity
  8
0
 62
     0
100
AcDbLine
 10
401.311592633488
 20
455.7018261646073
 30
0.0
 11
399.6207854291144
 21
457.3926333689811
 31
0.0
  0
LINE
  5
D81
330
D1A
100
AcDbEntity
  8
0
 62
     0
100
AcDbLine
 10
479.7487209720487
 20
380.093124950793
 30
0.0
 11
478.0579137676751
 21
381.7839321551666
 31
0.0
  0
LINE
  5
D82
330
D1A
100
AcDbEntity
  8
0
 62
     0
100
AcDbLine
 10
404.2964494768739
 20
455.5453964459677
 30
0.0
 11
402.6056422725002
 21
457.2362036503414
 31
0.0
  0
LINE
  5
D83
330
D1A
100
AcDbEntity
  8
0
 62
     0
100
AcDbLine
 10
482.7335778154346
 20
379.9366952321534
 30
0.0
 11
481.0427706110608
 21
381.627502436527
 31
0.0
  0
LINE
  5
D84
330
D1A
100
AcDbEntity
  8
0
 62
     0
100
AcDbLine
 10
407.2813063202597
 20
455.388966727328
 30
0.0
 11
405.5904991158859
 21
457.0797739317018
 31
0.0
  0
LINE
  5
D85
330
D1A
100
AcDbEntity
  8
0
 62
     0
100
AcDbLine
 10
485.7184346588204
 20
379.7802655135137
 30
0.0
 11
484.0276274544467
 21
381.4710727178873
 31
0.0
  0
LINE
  5
D86
330
D1A
100
AcDbEntity
  8
0
 62
     0
100
AcDbLine
 10
410.2661631636455
 20
455.2325370086885
 30
0.0
 11
408.5753559592718
 21
456.9233442130622
 31
0.0
  0
LINE
  5
D87
330
D1A
100
AcDbEntity
  8
0
 62
     0
100
AcDbLine
 10
488.7032915022062
 20
379.6238357948741
 30
0.0
 11
487.0124842978325
 21
381.3146429992477
 31
0.0
  0
LINE
  5
D88
330
D1A
100
AcDbEntity
  8
0
 62
     0
100
AcDbLine
 10
413.2510200070313
 20
455.0761072900488
 30
0.0
 11
411.5602128026576
 21
456.7669144944225
 31
0.0
  0
LINE
  5
D89
330
D1A
100
AcDbEntity
  8
0
 62
     0
100
AcDbLine
 10
491.688148345592
 20
379.4674060762344
 30
0.0
 11
489.9973411412183
 21
381.1582132806081
 31
0.0
  0
LINE
  5
D8A
330
D1A
100
AcDbEntity
  8
0
 62
     0
100
AcDbLine
 10
416.2358768504172
 20
454.9196775714092
 30
0.0
 11
414.5450696460435
 21
456.6104847757828
 31
0.0
  0
LINE
  5
D8B
330
D1A
100
AcDbEntity
  8
0
 62
     0
100
AcDbLine
 10
494.6730051889779
 20
379.3109763575948
 30
0.0
 11
492.9821979846042
 21
381.0017835619685
 31
0.0
  0
LINE
  5
D8C
330
D1A
100
AcDbEntity
  8
0
 62
     0
100
AcDbLine
 10
419.2207336938031
 20
454.7632478527695
 30
0.0
 11
417.5299264894293
 21
456.4540550571432
 31
0.0
  0
LINE
  5
D8D
330
D1A
100
AcDbEntity
  8
0
 62
     0
100
AcDbLine
 10
497.6578620323636
 20
379.1545466389552
 30
0.0
 11
495.96705482799
 21
380.8453538433288
 31
0.0
  0
LINE
  5
D8E
330
D1A
100
AcDbEntity
  8
0
 62
     0
100
AcDbLine
 10
422.2055905371889
 20
454.6068181341299
 30
0.0
 11
420.5147833328151
 21
456.2976253385036
 31
0.0
  0
LINE
  5
D8F
330
D1A
100
AcDbEntity
  8
0
 62
     0
100
AcDbLine
 10
500.6427188757495
 20
378.9981169203155
 30
0.0
 11
498.9519116713759
 21
380.6889241246892
 31
0.0
  0
LINE
  5
D90
330
D1A
100
AcDbEntity
  8
0
 62
     0
100
AcDbLine
 10
425.1904473805747
 20
454.4503884154902
 30
0.0
 11
423.499640176201
 21
456.1411956198639
 31
0.0
  0
LINE
  5
D91
330
D1A
100
AcDbEntity
  8
0
 62
     0
100
AcDbLine
 10
503.6275757191353
 20
378.8416872016758
 30
0.0
 11
501.9367685147617
 21
380.5324944060495
 31
0.0
  0
LINE
  5
D92
330
D1A
100
AcDbEntity
  8
0
 62
     0
100
AcDbLine
 10
428.1753042239605
 20
454.2939586968507
 30
0.0
 11
426.4844970195868
 21
455.9847659012243
 31
0.0
  0
LINE
  5
D93
330
D1A
100
AcDbEntity
  8
0
 62
     0
100
AcDbLine
 10
506.6124325625212
 20
378.6852574830362
 30
0.0
 11
504.9216253581475
 21
380.3760646874099
 31
0.0
  0
LINE
  5
D94
330
D1A
100
AcDbEntity
  8
0
 62
     0
100
AcDbLine
 10
431.1601610673464
 20
454.1375289782109
 30
0.0
 11
429.4693538629727
 21
455.8283361825846
 31
0.0
  0
LINE
  5
D95
330
D1A
100
AcDbEntity
  8
0
 62
     0
100
AcDbLine
 10
509.4395963686021
 20
378.6865208017015
 30
0.0
 11
507.8985285655006
 21
380.2275886048031
 31
0.0
  0
LINE
  5
D96
330
D1A
100
AcDbEntity
  8
0
 62
     0
100
AcDbLine
 10
434.1450179107322
 20
453.9810992595713
 30
0.0
 11
432.4542107063584
 21
455.671906463945
 31
0.0
  0
LINE
  5
D97
330
D1A
100
AcDbEntity
  8
0
 62
     0
100
AcDbLine
 10
512.1725854129086
 20
378.7819588821412
 30
0.0
 11
510.631517609807
 21
380.3230266852428
 31
0.0
  0
LINE
  5
D98
330
D1A
100
AcDbEntity
  8
0
 62
     0
100
AcDbLine
 10
437.1298747541181
 20
453.8246695409317
 30
0.0
 11
435.4390675497443
 21
455.5154767453053
 31
0.0
  0
LINE
  5
D99
330
D1A
100
AcDbEntity
  8
0
 62
     0
100
AcDbLine
 10
513.807408476545
 20
379.9755629432509
 30
0.0
 11
513.3645066541135
 21
380.4184647656825
 31
0.0
  0
LINE
  5
D9A
330
D1A
100
AcDbEntity
  8
0
 62
     0
100
AcDbLine
 10
440.1147315975038
 20
453.6682398222921
 30
0.0
 11
438.4239243931301
 21
455.3590470266658
 31
0.0
  0
LINE
  5
D9B
330
D1A
100
AcDbEntity
  8
0
 62
     0
100
AcDbLine
 10
443.0995884408897
 20
453.5118101036524
 30
0.0
 11
441.408781236516
 21
455.2026173080261
 31
0.0
  0
LINE
  5
D9C
330
D1A
100
AcDbEntity
  8
0
 62
     0
100
AcDbLine
 10
446.0844452842755
 20
453.3553803850128
 30
0.0
 11
444.3936380799018
 21
455.0461875893865
 31
0.0
  0
LINE
  5
D9D
330
D1A
100
AcDbEntity
  8
0
 62
     0
100
AcDbLine
 10
449.0693021276613
 20
453.1989506663731
 30
0.0
 11
447.3784949232876
 21
454.8897578707468
 31
0.0
  0
LINE
  5
D9E
330
D1A
100
AcDbEntity
  8
0
 62
     0
100
AcDbLine
 10
452.0541589710472
 20
453.0425209477335
 30
0.0
 11
450.3633517666735
 21
454.7333281521072
 31
0.0
  0
LINE
  5
D9F
330
D1A
100
AcDbEntity
  8
0
 62
     0
100
AcDbLine
 10
455.039015814433
 20
452.8860912290938
 30
0.0
 11
453.3482086100593
 21
454.5768984334675
 31
0.0
  0
LINE
  5
DA0
330
D1A
100
AcDbEntity
  8
0
 62
     0
100
AcDbLine
 10
458.0238726578188
 20
452.7296615104543
 30
0.0
 11
456.3330654534452
 21
454.4204687148279
 31
0.0
  0
LINE
  5
DA1
330
D1A
100
AcDbEntity
  8
0
 62
     0
100
AcDbLine
 10
461.0087295012046
 20
452.5732317918145
 30
0.0
 11
459.3179222968309
 21
454.2640389961882
 31
0.0
  0
LINE
  5
DA2
330
D1A
100
AcDbEntity
  8
0
 62
     0
100
AcDbLine
 10
463.9935863445905
 20
452.4168020731749
 30
0.0
 11
462.3027791402168
 21
454.1076092775486
 31
0.0
  0
LINE
  5
DA3
330
D1A
100
AcDbEntity
  8
0
 62
     0
100
AcDbLine
 10
466.9784431879763
 20
452.2603723545353
 30
0.0
 11
465.2876359836026
 21
453.951179558909
 31
0.0
  0
LINE
  5
DA4
330
D1A
100
AcDbEntity
  8
0
 62
     0
100
AcDbLine
 10
469.9633000313621
 20
452.1039426358957
 30
0.0
 11
468.2724928269884
 21
453.7947498402694
 31
0.0
  0
LINE
  5
DA5
330
D1A
100
AcDbEntity
  8
0
 62
     0
100
AcDbLine
 10
472.948156874748
 20
451.947512917256
 30
0.0
 11
471.2573496703742
 21
453.6383201216297
 31
0.0
  0
LINE
  5
DA6
330
D1A
100
AcDbEntity
  8
0
 62
     0
100
AcDbLine
 10
475.9330137181338
 20
451.7910831986164
 30
0.0
 11
474.2422065137601
 21
453.4818904029901
 31
0.0
  0
LINE
  5
DA7
330
D1A
100
AcDbEntity
  8
0
 62
     0
100
AcDbLine
 10
478.9178705615197
 20
451.6346534799767
 30
0.0
 11
477.2270633571459
 21
453.3254606843504
 31
0.0
  0
LINE
  5
DA8
330
D1A
100
AcDbEntity
  8
0
 62
     0
100
AcDbLine
 10
481.9027274049055
 20
451.4782237613371
 30
0.0
 11
480.2119202005317
 21
453.1690309657108
 31
0.0
  0
LINE
  5
DA9
330
D1A
100
AcDbEntity
  8
0
 62
     0
100
AcDbLine
 10
484.8875842482913
 20
451.3217940426975
 30
0.0
 11
483.1967770439176
 21
453.0126012470711
 31
0.0
  0
LINE
  5
DAA
330
D1A
100
AcDbEntity
  8
0
 62
     0
100
AcDbLine
 10
487.8724410916771
 20
451.1653643240578
 30
0.0
 11
486.1816338873034
 21
452.8561715284316
 31
0.0
  0
LINE
  5
DAB
330
D1A
100
AcDbEntity
  8
0
 62
     0
100
AcDbLine
 10
490.857297935063
 20
451.0089346054181
 30
0.0
 11
489.1664907306893
 21
452.6997418097918
 31
0.0
  0
LINE
  5
DAC
330
D1A
100
AcDbEntity
  8
0
 62
     0
100
AcDbLine
 10
493.8421547784488
 20
450.8525048867785
 30
0.0
 11
492.151347574075
 21
452.5433120911522
 31
0.0
  0
LINE
  5
DAD
330
D1A
100
AcDbEntity
  8
0
 62
     0
100
AcDbLine
 10
496.8270116218347
 20
450.6960751681389
 30
0.0
 11
495.1362044174609
 21
452.3868823725126
 31
0.0
  0
LINE
  5
DAE
330
D1A
100
AcDbEntity
  8
0
 62
     0
100
AcDbLine
 10
499.8118684652204
 20
450.5396454494992
 30
0.0
 11
498.1210612608467
 21
452.230452653873
 31
0.0
  0
LINE
  5
DAF
330
D1A
100
AcDbEntity
  8
0
 62
     0
100
AcDbLine
 10
502.7967253086063
 20
450.3832157308596
 30
0.0
 11
501.1059181042326
 21
452.0740229352333
 31
0.0
  0
LINE
  5
DB0
330
D1A
100
AcDbEntity
  8
0
 62
     0
100
AcDbLine
 10
505.7815821519922
 20
450.2267860122199
 30
0.0
 11
504.0907749476184
 21
451.9175932165937
 31
0.0
  0
LINE
  5
DB1
330
D1A
100
AcDbEntity
  8
0
 62
     0
100
AcDbLine
 10
508.7664389953779
 20
450.0703562935803
 30
0.0
 11
507.0756317910042
 21
451.761163497954
 31
0.0
  0
LINE
  5
DB2
330
D1A
100
AcDbEntity
  8
0
 62
     0
100
AcDbLine
 10
511.7806258554945
 20
449.88459655821
 30
0.0
 11
510.0604886343901
 21
451.6047337793144
 31
0.0
  0
LINE
  5
DB3
330
D1A
100
AcDbEntity
  8
0
 62
     0
100
AcDbLine
 10
515.0715642024802
 20
449.4220853359705
 30
0.0
 11
513.1987866896468
 21
451.2948628488039
 31
0.0
  0
LINE
  5
DB4
330
D1A
100
AcDbEntity
  8
0
 62
     0
100
AcDbLine
 10
517.4695072106443
 20
449.8525694525524
 30
0.0
 11
516.4897250366325
 21
450.8323516265644
 31
0.0
  0
ENDBLK
  5
DB5
330
D1A
100
AcDbEntity
  8
0
100
AcDbBlockEnd
  0
BLOCK
  5
E20
330
E16
100
AcDbEntity
  8
0
100
AcDbBlockBegin
  2
*D7
 70
     1
 10
0.0
 20
0.0
 30
0.0
  3
*D7
  1

  0
LINE
  5
E17
330
E16
100
AcDbEntity
  8
BEM
 62
     0
370
    -2
100
AcDbLine
 10
244.2683364646758
 20
383.0314964055958
 30
0.0
 11
224.9338683793306
 21
383.0314964055958
 31
0.0
  0
LINE
  5
E18
330
E16
100
AcDbEntity
  8
BEM
 62
     0
370
    -2
100
AcDbLine
 10
337.5956784637047
 20
277.0314964055958
 30
0.0
 11
224.9338683793305
 21
277.0314964055958
 31
0.0
  0
LINE
  5
E19
330
E16
100
AcDbEntity
  8
BEM
 62
     0
370
    -2
100
AcDbLine
 10
226.9338683793306
 20
376.0314964055958
 30
0.0
 11
226.9338683793305
 21
284.0314964055957
 31
0.0
  0
SOLID
  5
E1A
330
E16
100
AcDbEntity
  8
BEM
 62
     0
100
AcDbTrace
 10
225.7672017126639
 20
376.0314964055958
 30
0.0
 11
228.1005350459972
 21
376.0314964055958
 31
0.0
 12
226.9338683793306
 22
383.0314964055958
 32
0.0
 13
226.9338683793306
 23
383.0314964055958
 33
0.0
  0
SOLID
  5
E1B
330
E16
100
AcDbEntity
  8
BEM
 62
     0
100
AcDbTrace
 10
225.7672017126639
 20
284.0314964055957
 30
0.0
 11
228.1005350459972
 21
284.0314964055957
 31
0.0
 12
226.9338683793305
 22
277.0314964055958
 32
0.0
 13
226.9338683793305
 23
277.0314964055958
 33
0.0
  0
MTEXT
  5
E1C
330
E16
100
AcDbEntity
  8
BEM
 62
     1
100
AcDbMText
 10
220.4338683793305
 20
330.0314964055958
 30
0.0
 40
7.0
 41
0.0
 71
     5
 72
     1
  1
\A1;106
 11
0.0000000000000001
 21
1.0
 31
0.0
 73
     1
 44
1.0
  0
POINT
  5
E1D
330
E16
100
AcDbEntity
  8
DEFPOINTS
 62
     0
100
AcDbPoint
 10
246.2683364646758
 20
383.0314964055958
 30
0.0
  0
POINT
  5
E1E
330
E16
100
AcDbEntity
  8
DEFPOINTS
 62
     0
100
AcDbPoint
 10
339.5956784637047
 20
277.0314964055958
 30
0.0
  0
POINT
  5
E1F
330
E16
100
AcDbEntity
  8
DEFPOINTS
 62
     0
100
AcDbPoint
 10
226.9338683793305
 20
277.0314964055958
 30
0.0
  0
ENDBLK
  5
E21
330
E16
100
AcDbEntity
  8
0
100
AcDbBlockEnd
  0
BLOCK
  5
E2D
330
E23
100
AcDbEntity
  8
0
100
AcDbBlockBegin
  2
*D8
 70
     1
 10
0.0
 20
0.0
 30
0.0
  3
*D8
  1

  0
LINE
  5
E24
330
E23
100
AcDbEntity
  8
BEM
 62
     0
370
    -2
100
AcDbLine
 10
353.7625622428922
 20
270.0314964055957
 30
0.0
 11
353.7625622428922
 21
240.2271571644849
 31
0.0
  0
LINE
  5
E25
330
E23
100
AcDbEntity
  8
BEM
 62
     0
370
    -2
100
AcDbLine
 10
603.7625622428923
 20
301.0314964055958
 30
0.0
 11
603.7625622428923
 21
240.2271571644849
 31
0.0
  0
LINE
  5
E26
330
E23
100
AcDbEntity
  8
BEM
 62
     0
370
    -2
100
AcDbLine
 10
360.7625622428922
 20
242.2271571644849
 30
0.0
 11
596.7625622428924
 21
242.2271571644849
 31
0.0
  0
SOLID
  5
E27
330
E23
100
AcDbEntity
  8
BEM
 62
     0
100
AcDbTrace
 10
360.7625622428922
 20
243.3938238311515
 30
0.0
 11
360.7625622428922
 21
241.0604904978182
 31
0.0
 12
353.7625622428922
 22
242.2271571644849
 32
0.0
 13
353.7625622428922
 23
242.2271571644849
 33
0.0
  0
SOLID
  5
E28
330
E23
100
AcDbEntity
  8
BEM
 62
     0
100
AcDbTrace
 10
596.7625622428924
 20
243.3938238311515
 30
0.0
 11
596.7625622428924
 21
241.0604904978182
 31
0.0
 12
603.7625622428923
 22
242.2271571644849
 32
0.0
 13
603.7625622428923
 23
242.2271571644849
 33
0.0
  0
MTEXT
  5
E29
330
E23
100
AcDbEntity
  8
BEM
 62
     1
100
AcDbMText
 10
478.7625622428922
 20
248.7271571644849
 30
0.0
 40
7.0
 41
0.0
 71
     5
 72
     1
  1
\A1;250
 73
     1
 44
1.0
  0
POINT
  5
E2A
330
E23
100
AcDbEntity
  8
DEFPOINTS
 62
     0
100
AcDbPoint
 10
353.7625622428922
 20
272.0314964055957
 30
0.0
  0
POINT
  5
E2B
330
E23
100
AcDbEntity
  8
DEFPOINTS
 62
     0
100
AcDbPoint
 10
603.7625622428923
 20
303.0314964055957
 30
0.0
  0
POINT
  5
E2C
330
E23
100
AcDbEntity
  8
DEFPOINTS
 62
     0
100
AcDbPoint
 10
603.7625622428923
 20
242.2271571644849
 30
0.0
  0
ENDBLK
  5
E2E
330
E23
100
AcDbEntity
  8
0
100
AcDbBlockEnd
  0
BLOCK
  5
E3A
330
E30
100
AcDbEntity
  8
0
100
AcDbBlockBegin
  2
*D9
 70
     1
 10
0.0
 20
0.0
 30
0.0
  3
*D9
  1

  0
LINE
  5
E3C
330
E30
100
AcDbEntity
  8
BEM
 62
     0
370
    -2
100
AcDbLine
 10
601.6783065067415
 20
339.6908182491096
 30
0.0
 11
627.2111978871713
 21
338.3526961131861
 31
0.0
  0
LINE
  5
E3D
330
E30
100
AcDbEntity
  8
BEM
 62
     0
370
    -2
100
AcDbLine
 10
597.8577817010066
 20
266.7908622120255
 30
0.0
 11
623.3906730814363
 21
265.4527400761021
 31
0.0
  0
LINE
  5
E3E
330
E30
100
AcDbEntity
  8
BEM
 62
     0
370
    -2
100
AcDbLine
 10
624.8475871239616
 20
331.46696128239
 30
0.0
 11
621.7597657056278
 21
272.54781873187
 31
0.0
  0
SOLID
  5
E3F
330
E30
100
AcDbEntity
  8
BEM
 62
     0
100
AcDbTrace
 10
623.6825193334147
 20
331.5280198980067
 30
0.0
 11
626.0126549145086
 21
331.4059026667732
 31
0.0
 12
625.2139388176622
 22
338.457368025672
 32
0.0
 13
625.2139388176622
 23
338.457368025672
 33
0.0
  0
SOLID
  5
E40
330
E30
100
AcDbEntity
  8
BEM
 62
     0
100
AcDbTrace
 10
620.5946979150809
 20
272.6088773474867
 30
0.0
 11
622.9248334961749
 21
272.4867601162532
 31
0.0
 12
621.3934140119272
 22
265.557411988588
 32
0.0
 13
621.3934140119272
 23
265.557411988588
 33
0.0
  0
MTEXT
  5
E41
330
E30
100
AcDbEntity
  8
BEM
 62
     1
100
AcDbMText
 10
616.8125844388899
 20
302.3475737227091
 30
0.0
 40
7.0
 41
0.0
 71
     5
 72
     1
  1
\A1;%%c73
 11
0.052335956242946
 21
0.9986295347545739
 31
0.0
 73
     1
 44
1.0
  0
POINT
  5
E42
330
E30
100
AcDbEntity
  8
DEFPOINTS
 62
     0
100
AcDbPoint
 10
599.6810474372324
 20
339.7954901615955
 30
0.0
  0
POINT
  5
E43
330
E30
100
AcDbEntity
  8
DEFPOINTS
 62
     0
100
AcDbPoint
 10
595.8605226314975
 20
266.8955341245115
 30
0.0
  0
POINT
  5
E44
330
E30
100
AcDbEntity
  8
DEFPOINTS
 62
     0
100
AcDbPoint
 10
621.3934140119272
 20
265.557411988588
 30
0.0
  0
ENDBLK
  5
E3B
330
E30
100
AcDbEntity
  8
0
100
AcDbBlockEnd
  0
BLOCK
  5
E50
330
E46
100
AcDbEntity
  8
0
100
AcDbBlockBegin
  2
*D10
 70
     1
 10
0.0
 20
0.0
 30
0.0
  3
*D10
  1

  0
LINE
  5
E52
330
E46
100
AcDbEntity
  8
BEM
 62
     0
370
    -2
100
AcDbLine
 10
525.7625622428922
 20
383.0314964055956
 30
0.0
 11
645.1054198413496
 21
383.0314964055956
 31
0.0
  0
LINE
  5
E53
330
E46
100
AcDbEntity
  8
BEM
 62
     0
370
    -2
100
AcDbLine
 10
625.3204641612703
 20
303.0314964055957
 30
0.0
 11
645.1054198413496
 21
303.0314964055957
 31
0.0
  0
LINE
  5
E54
330
E46
100
AcDbEntity
  8
BEM
 62
     0
370
    -2
100
AcDbLine
 10
643.1054198413496
 20
376.0314964055956
 30
0.0
 11
643.1054198413496
 21
310.0314964055957
 31
0.0
  0
SOLID
  5
E55
330
E46
100
AcDbEntity
  8
BEM
 62
     0
100
AcDbTrace
 10
641.938753174683
 20
376.0314964055956
 30
0.0
 11
644.2720865080162
 21
376.0314964055956
 31
0.0
 12
643.1054198413496
 22
383.0314964055956
 32
0.0
 13
643.1054198413496
 23
383.0314964055956
 33
0.0
  0
SOLID
  5
E56
330
E46
100
AcDbEntity
  8
BEM
 62
     0
100
AcDbTrace
 10
641.938753174683
 20
310.0314964055957
 30
0.0
 11
644.2720865080162
 21
310.0314964055957
 31
0.0
 12
643.1054198413496
 22
303.0314964055957
 32
0.0
 13
643.1054198413496
 23
303.0314964055957
 33
0.0
  0
MTEXT
  5
E57
330
E46
100
AcDbEntity
  8
BEM
 62
     1
100
AcDbMText
 10
636.6054198413495
 20
343.0314964055958
 30
0.0
 40
7.0
 41
0.0
 71
     5
 72
     1
  1
\A1;80
 11
0.0000000000000001
 21
1.0
 31
0.0
 73
     1
 44
1.0
  0
POINT
  5
E58
330
E46
100
AcDbEntity
  8
DEFPOINTS
 62
     0
100
AcDbPoint
 10
523.7625622428923
 20
383.0314964055956
 30
0.0
  0
POINT
  5
E59
330
E46
100
AcDbEntity
  8
DEFPOINTS
 62
     0
100
AcDbPoint
 10
623.3204641612704
 20
303.0314964055957
 30
0.0
  0
POINT
  5
E5A
330
E46
100
AcDbEntity
  8
DEFPOINTS
 62
     0
100
AcDbPoint
 10
643.1054198413496
 20
303.0314964055957
 30
0.0
  0
ENDBLK
  5
E51
330
E46
100
AcDbEntity
  8
0
100
AcDbBlockEnd
  0
ENDSEC
  0
SECTION
  2
ENTITIES
  0
LINE
  5
58
330
1E
100
AcDbEntity
  8
STEMPEL
100
AcDbLine
 10
830.0000000000002
 20
110.0
 30
0.0
 11
470.0000000000001
 21
110.0
 31
0.0
  0
LINE
  5
59
330
1E
100
AcDbEntity
  8
STEMPEL
100
AcDbLine
 10
470.0000000000001
 20
110.0
 30
0.0
 11
470.0000000000001
 21
10.0
 31
0.0
  0
LINE
  5
5A
330
1E
100
AcDbEntity
  8
STEMPEL
100
AcDbLine
 10
566.0000000000002
 20
109.9999999999999
 30
0.0
 11
566.0000000000001
 21
9.999999999999886
 31
0.0
  0
LINE
  5
5B
330
1E
100
AcDbEntity
  8
STEMPEL
100
AcDbLine
 10
650.0
 20
110.0
 30
0.0
 11
650.0
 21
10.0
 31
0.0
  0
LINE
  5
5C
330
1E
100
AcDbEntity
  8
STEMPEL
100
AcDbLine
 10
752.0000000000002
 20
109.9999999999997
 30
0.0
 11
752.0000000000002
 21
40.0
 31
0.0
  0
LINE
  5
5D
330
1E
100
AcDbEntity
  8
STEMPEL
100
AcDbLine
 10
566.0
 20
30.0
 30
0.0
 11
470.0000000000001
 21
30.0
 31
0.0
  0
LINE
  5
5E
330
1E
100
AcDbEntity
  8
STEMPEL
100
AcDbLine
 10
830.0000000000002
 20
40.0
 30
0.0
 11
566.0000000000001
 21
40.0
 31
0.0
  0
LINE
  5
5F
330
1E
100
AcDbEntity
  8
STEMPEL
100
AcDbLine
 10
830.0000000000002
 20
80.0
 30
0.0
 11
566.0000000000002
 21
80.0
 31
0.0
  0
LINE
  5
60
330
1E
100
AcDbEntity
  8
VOLL
100
AcDbLine
 10
484.0000000000002
 20
110.0
 30
0.0
 11
484.0000000000001
 21
9.999999999999985
 31
0.0
  0
LINE
  5
61
330
1E
100
AcDbEntity
  8
VOLL
100
AcDbLine
 10
524.0000000000001
 20
109.9999999999999
 30
0.0
 11
524.0000000000001
 21
9.999999999999943
 31
0.0
  0
LINE
  5
62
330
1E
100
AcDbEntity
  8
VOLL
100
AcDbLine
 10
544.0000000000002
 20
109.9999999999999
 30
0.0
 11
544.0000000000001
 21
9.999999999999914
 31
0.0
  0
LINE
  5
63
330
1E
100
AcDbEntity
  8
VOLL
100
AcDbLine
 10
584.0000000000002
 20
80.0
 30
0.0
 11
584.0000000000002
 21
40.0
 31
0.0
  0
LINE
  5
64
330
1E
100
AcDbEntity
  8
VOLL
100
AcDbLine
 10
610.0000000000002
 20
109.9999999999998
 30
0.0
 11
610.0000000000001
 21
40.0
 31
0.0
  0
LINE
  5
65
330
1E
100
AcDbEntity
  8
HILF
100
AcDbLine
 10
470.0000000000001
 20
100.0
 30
0.0
 11
566.0000000000002
 21
100.0
 31
0.0
  0
LINE
  5
66
330
1E
100
AcDbEntity
  8
HILF
100
AcDbLine
 10
470.0000000000001
 20
90.0
 30
0.0
 11
566.0000000000002
 21
90.0
 31
0.0
  0
LINE
  5
67
330
1E
100
AcDbEntity
  8
HILF
100
AcDbLine
 10
470.0000000000001
 20
80.0
 30
0.0
 11
566.0000000000002
 21
80.0
 31
0.0
  0
LINE
  5
68
330
1E
100
AcDbEntity
  8
HILF
100
AcDbLine
 10
470.0000000000001
 20
70.0
 30
0.0
 11
566.0000000000002
 21
70.0
 31
0.0
  0
LINE
  5
69
330
1E
100
AcDbEntity
  8
HILF
100
AcDbLine
 10
470.0000000000001
 20
60.0
 30
0.0
 11
566.0000000000002
 21
60.0
 31
0.0
  0
LINE
  5
6A
330
1E
100
AcDbEntity
  8
HILF
100
AcDbLine
 10
470.0000000000001
 20
50.0
 30
0.0
 11
566.0000000000002
 21
50.0
 31
0.0
  0
LINE
  5
6B
330
1E
100
AcDbEntity
  8
HILF
100
AcDbLine
 10
470.0000000000001
 20
40.0
 30
0.0
 11
566.0000000000002
 21
40.0
 31
0.0
  0
LINE
  5
6C
330
1E
100
AcDbEntity
  8
HILF
100
AcDbLine
 10
566.0000000000002
 20
70.0
 30
0.0
 11
650.0
 21
70.0
 31
0.0
  0
LINE
  5
6D
330
1E
100
AcDbEntity
  8
HILF
100
AcDbLine
 10
566.0000000000002
 20
60.0
 30
0.0
 11
650.0
 21
60.0
 31
0.0
  0
LINE
  5
6E
330
1E
100
AcDbEntity
  8
HILF
100
AcDbLine
 10
566.0000000000002
 20
50.0
 30
0.0
 11
650.0
 21
50.0
 31
0.0
  0
LINE
  5
6F
330
1E
100
AcDbEntity
  8
HILF
100
AcDbLine
 10
654.7736801096948
 20
84.03758247564136
 30
0.0
 11
746.6297842514811
 21
84.03758247564136
 31
0.0
  0
LINE
  5
70
330
1E
100
AcDbEntity
  8
HILF
100
AcDbLine
 10
654.7736801096948
 20
70.0
 30
0.0
 11
746.6297842514811
 21
70.0
 31
0.0
  0
LINE
  5
71
330
1E
100
AcDbEntity
  8
HILF
100
AcDbLine
 10
654.7736801096948
 20
60.0
 30
0.0
 11
746.6297842514811
 21
60.0
 31
0.0
  0
LINE
  5
72
330
1E
100
AcDbEntity
  8
HILF
100
AcDbLine
 10
654.7736801096948
 20
50.0
 30
0.0
 11
746.6297842514811
 21
50.0
 31
0.0
  0
LINE
  5
73
330
1E
100
AcDbEntity
  8
VOLL
100
AcDbLine
 10
752.0000000000002
 20
60.0
 30
0.0
 11
830.0000000000002
 21
60.0
 31
0.0
  0
LINE
  5
74
330
1E
100
AcDbEntity
  8
HILF
100
AcDbLine
 10
756.7238616296995
 20
83.77983636955823
 30
0.0
 11
824.858883932673
 21
83.77983636955823
 31
0.0
  0
LINE
  5
75
330
1E
100
AcDbEntity
  8
HILF
100
AcDbLine
 10
654.7736801096948
 20
14.89398258028305
 30
0.0
 11
824.858883932673
 21
14.89398258028305
 31
0.0
  0
TEXT
  5
76
330
1E
100
AcDbEntity
  8
TEXT
100
AcDbText
 10
492.3998239263297
 20
18.67381894984129
 30
0.0
 40
4.0
  1
Änderung
 41
0.8
  7
GREEKS
 72
     1
 11
503.1426810691868
 21
18.67381894984129
 31
0.0
100
AcDbText
  0
TEXT
  5
78
330
1E
100
AcDbEntity
  8
TEXT
100
AcDbText
 10
573.5163572150378
 20
102.4620895087088
 30
0.0
 40
5.0
  1
Maßstab
 41
0.8
  7
GREEKS
100
AcDbText
  0
TEXT
  5
79
330
1E
100
AcDbEntity
  8
TEXT
100
AcDbText
 10
654.8779403809011
 20
102.5489328011779
 30
0.0
 40
5.0
  1
Benennung
 41
0.8
  7
GREEKS
100
AcDbText
  0
TEXT
  5
7A
330
1E
100
AcDbEntity
  8
TEXT
100
AcDbText
 10
756.1787549576343
 20
102.3132034537135
 30
0.0
 40
5.0
  1
Zeichnungs Nr.
 41
0.8
  7
GREEKS
100
AcDbText
  0
TEXT
  5
7B
330
1E
100
AcDbEntity
  8
TEXT
100
AcDbText
 10
654.742238391136
 20
30.84560570193055
 30
0.0
 40
5.0
  1
Bauvorhaben
 41
0.8
  7
GREEKS
100
AcDbText
  0
TEXT
  5
7C
330
1E
100
AcDbEntity
  8
TEXT
100
AcDbText
 10
756.7238616296995
 20
73.18118237099965
 30
0.0
 40
5.0
  1
Ersatz für:
 41
0.8
  7
GREEKS
100
AcDbText
  0
TEXT
  5
7D
330
1E
100
AcDbEntity
  8
TEXT
100
AcDbText
 10
478.2664110704577
 20
13.65465846027187
 30
0.0
 40
4.0
  1
Index
 50
90.0
 41
0.8
  7
GREEKS
100
AcDbText
  0
TEXT
  5
7E
330
1E
100
AcDbEntity
  8
TEXT
100
AcDbText
 10
529.8990113186979
 20
18.67156269339808
 30
0.0
 40
4.0
  1
Tag
 41
0.8
  7
GREEKS
 72
     1
 11
533.6323446520313
 21
18.67156269339808
 31
0.0
100
AcDbText
  0
TEXT
  5
7F
330
1E
100
AcDbEntity
  8
TEXT
100
AcDbText
 10
548.9795678138293
 20
18.59324216966404
 30
0.0
 40
4.0
  1
Name
 41
0.8
  7
GREEKS
 72
     1
 11
555.3033773376388
 21
18.59324216966404
 31
0.0
100
AcDbText
  0
TEXT
  5
80
330
1E
100
AcDbEntity
  8
TEXT
100
AcDbText
 10
592.3311673153651
 20
73.31880501229919
 30
0.0
 40
4.0
  1
Tag
 41
0.8
  7
GREEKS
100
AcDbText
  0
TEXT
  5
81
330
1E
100
AcDbEntity
  8
TEXT
100
AcDbText
 10
622.4626584226296
 20
73.3096109191522
 30
0.0
 40
4.0
  1
Name
 41
0.8
  7
GREEKS
100
AcDbText
  0
TEXT
  5
82
330
1E
100
AcDbEntity
  8
TEXT
100
AcDbText
 10
567.5836127167616
 20
63.62990369617961
 30
0.0
 40
4.0
  1
Gez.
 41
0.8
  7
GREEKS
100
AcDbText
  0
TEXT
  5
83
330
1E
100
AcDbEntity
  8
TEXT
100
AcDbText
 10
567.5515086571673
 20
53.68926291428373
 30
0.0
 40
4.0
  1
Gepr.
 41
0.8
  7
GREEKS
100
AcDbText
  0
TEXT
  5
84
330
1E
100
AcDbEntity
  8
TEXT
100
AcDbText
 10
567.6006777387304
 20
43.52946389649804
 30
0.0
 40
4.0
  1
Norm.
 41
0.8
  7
GREEKS
100
AcDbText
  0
TEXT
  5
85
330
1E
100
AcDbEntity
  8
TEXT
100
AcDbText
 10
757.2400861497007
 20
52.07416177878596
 30
0.0
 40
5.0
  1
ersetzt durch:
 41
0.8
  7
GREEKS
100
AcDbText
  0
TEXT
  5
86
330
1E
100
AcDbEntity
  8
TEXT
100
AcDbText
 10
568.8693027807324
 20
72.96682596523723
 30
0.0
 40
4.0
  1
2008
 41
0.8
  7
GREEKS
100
AcDbText
  0
LINE
  5
87
330
1E
100
AcDbEntity
  8
HILF
100
AcDbLine
 10
0.0
 20
0.0
 30
0.0
 11
840.0
 21
0.0
 31
0.0
  0
LINE
  5
88
330
1E
100
AcDbEntity
  8
HILF
100
AcDbLine
 10
840.0
 20
0.0
 30
0.0
 11
840.0
 21
594.0
 31
0.0
  0
LINE
  5
89
330
1E
100
AcDbEntity
  8
HILF
100
AcDbLine
 10
840.0
 20
594.0
 30
0.0
 11
0.0
 21
594.0
 31
0.0
  0
LINE
  5
8B
330
1E
100
AcDbEntity
  8
STEMPEL
100
AcDbLine
 10
830.0
 20
584.0
 30
0.0
 11
40.0
 21
584.0
 31
0.0
  0
LINE
  5
8D
330
1E
100
AcDbEntity
  8
STEMPEL
100
AcDbLine
 10
40.0
 20
10.0
 30
0.0
 11
830.0
 21
10.0
 31
0.0
  0
LINE
  5
8E
330
1E
100
AcDbEntity
  8
STEMPEL
100
AcDbLine
 10
830.0
 20
10.0
 30
0.0
 11
830.0
 21
584.0
 31
0.0
  0
TEXT
  5
8F
330
1E
100
AcDbEntity
  8
TEXT
 62
     1
100
AcDbText
 10
655.0390572473189
 20
87.37343075652544
 30
0.0
 40
7.0
  1
Balkonablauf DN70
 41
0.8
  7
GREEKS
100
AcDbText
  0
TEXT
  5
90
330
1E
100
AcDbEntity
  8
TEXT
 62
     1
100
AcDbText
 10
766.6628088850802
 20
87.37343075652544
 30
0.0
 40
7.0
  1
15430070W
 41
0.8
  7
GREEKS
 72
     1
 11
790.1294755517469
 21
87.37343075652544
 31
0.0
100
AcDbText
  0
TEXT
  5
91
330
1E
100
AcDbEntity
  8
TEXT
100
AcDbText
 10
618.509022641583
 20
102.83989611379
 30
0.0
 40
5.0
  1
Zul.Abw.
 41
0.8
  7
GREEKS
100
AcDbText
  0
TEXT
  5
93
330
1E
100
AcDbEntity
  8
TEXT
100
AcDbText
 10
590.1565237511869
 20
63.1508587612022
 30
0.0
 40
4.0
  1
26.05.
 41
0.8
  7
GREEKS
 72
     1
 11
597.1660475607107
 21
63.1508587612022
 31
0.0
100
AcDbText
  0
TEXT
  5
94
330
1E
100
AcDbEntity
  8
TEXT
100
AcDbText
 10
624.023175322661
 20
62.94297655165468
 30
0.0
 40
4.0
  1
Koeh
 41
0.8
  7
GREEKS
 72
     1
 11
629.2803181798038
 21
62.94297655165468
 31
0.0
100
AcDbText
  0
TEXT
  5
95
330
1E
100
AcDbEntity
  8
TEXT
100
AcDbText
 10
654.3410940884992
 20
72.10021383107525
 30
0.0
 40
5.0
  1
Grundeinheit
 41
0.8
  7
GREEKS
100
AcDbText
  0
TEXT
  5
97
330
1E
100
AcDbEntity
  8
TEXT
100
AcDbText
 10
654.3410940884992
 20
52.59097337846058
 30
0.0
 40
5.0
  1
EDV-Art.Nr. 15430.070X
 41
0.8
  7
GREEKS
100
AcDbText
  0
TEXT
  5
98
330
1E
100
AcDbEntity
  8
TEXT
100
AcDbText
 10
654.1676050109348
 20
43.31127624791508
 30
0.0
 40
4.0
  1
15430070W.DWG
 41
0.8
  7
GREEKS
100
AcDbText
  0
TEXT
  5
99
330
1E
100
AcDbEntity
  8
TEXT
 62
     1
100
AcDbText
 10
582.7034912034222
 20
87.47077088414977
 30
0.0
 40
7.0
  1
1:2
 41
0.8
  7
GREEKS
100
AcDbText
  0
TEXT
  5
9A
330
1E
100
AcDbEntity
  8
TEXT
100
AcDbText
 10
470.0441139350127
 20
114.1143585051043
 30
0.0
 40
5.0
  1
Erstellt mit AUTOCAD 2004
 41
0.8
  7
GREEKS
100
AcDbText
  0
INSERT
  5
9B
330
1E
100
AcDbEntity
  8
HILF
100
AcDbBlockReference
  2
LORO
 10
573.0624985962354
 20
36.9805930029896
 30
0.0
 41
2.0
 42
2.0
 43
2.0
  0
LINE
  5
9C
330
1E
100
AcDbEntity
  8
BEM
100
AcDbLine
 10
456.0
 20
0.0
 30
0.0
 11
456.0
 21
10.0
 31
0.0
  0
LINE
  5
13E
330
1E
100
AcDbEntity
  8
HILF
100
AcDbLine
 10
0.0
 20
0.0
 30
0.0
 11
0.0
 21
594.0
 31
0.0
  0
LINE
  5
13F
330
1E
100
AcDbEntity
  8
STEMPEL
100
AcDbLine
 10
40.0
 20
10.0
 30
0.0
 11
40.0
 21
584.0
 31
0.0
  0
LINE
  5
14A
330
1E
100
AcDbEntity
  8
HILF
100
AcDbLine
 10
0.0
 20
297.0
 30
0.0
 11
40.0
 21
297.0
 31
0.0
  0
TEXT
  5
15B
330
1E
100
AcDbEntity
  8
BEM
100
AcDbText
 10
837.3022923857165
 20
10.16790107998861
 30
0.0
 40
4.0
  1
Diese Zeichnung ist urheberrechtlich geschützt und bleibt unser Eigentum. Sie darf weder ganz noch teilweise verfielfältigt und nicht an Dritte weitergegeben werden.
 50
90.0
 41
0.8
  7
GREEKS
100
AcDbText
  0
LINE
  5
4ED
330
1E
100
AcDbEntity
  8
STEMPEL
100
AcDbLine
 10
468.7625622428922
 20
379.5314964055957
 30
0.0
 11
468.1286348502812
 21
378.1720347250407
 31
0.0
  0
LINE
  5
4F0
330
1E
100
AcDbEntity
  8
STEMPEL
100
AcDbLine
 10
468.7625622428922
 20
379.5314964055957
 30
0.0
 11
461.2567880211087
 21
383.0314964055957
 31
0.0
  0
LINE
  5
4F1
330
1E
100
AcDbEntity
  8
STEMPEL
100
AcDbLine
 10
468.1286348502812
 20
378.1720347250407
 30
0.0
 11
460.9242460271444
 21
381.5314964055957
 31
0.0
  0
ARC
  5
4F2
330
1E
100
AcDbEntity
  8
STEMPEL
100
AcDbCircle
 10
424.7919200179873
 20
379.5314964055957
 30
0.0
 40
2.0
100
AcDbArc
 50
90.0
 51
134.9999999999997
  0
POINT
  5
4F3
330
1E
100
AcDbEntity
  8
STEMPEL
100
AcDbPoint
 10
418.0762707418769
 20
383.0314964055957
 30
0.0
  0
LINE
  5
4F4
330
1E
100
AcDbEntity
  8
STEMPEL
100
AcDbLine
 10
423.3777064556141
 20
380.9457099679688
 30
0.0
 11
421.4628327214613
 21
379.030836233816
 31
0.0
  0
LINE
  5
4F5
330
1E
100
AcDbEntity
  8
MITTEL
100
AcDbLine
 10
417.4021725496815
 20
388.0314964055957
 30
0.0
 11
417.4021725496815
 21
373.1720347250408
 31
0.0
  0
LINE
  5
4F7
330
1E
100
AcDbEntity
  8
STEMPEL
100
AcDbLine
 10
418.0762707418769
 20
381.5314964055957
 30
0.0
 11
460.9242460271444
 21
381.5314964055957
 31
0.0
  0
ARC
  5
4FB
330
1E
100
AcDbEntity
  8
STEMPEL
100
AcDbCircle
 10
418.0762707418769
 20
375.0314964055957
 30
0.0
 40
8.0
100
AcDbArc
 50
134.9999999999997
 51
134.9999999999997
  0
POINT
  5
4FC
330
1E
100
AcDbEntity
  8
STEMPEL
100
AcDbPoint
 10
412.4194164923846
 20
380.6883506550881
 30
0.0
  0
POINT
  5
4FD
330
1E
100
AcDbEntity
  8
STEMPEL
100
AcDbPoint
 10
410.7625622428922
 20
379.0314964055957
 30
0.0
  0
LINE
  5
4FE
330
1E
100
AcDbEntity
  8
STEMPEL
100
AcDbLine
 10
413.1123673962868
 20
379.2599812154306
 30
0.0
 11
413.3415123779014
 21
379.0308362338159
 31
0.0
  0
LINE
  5
4FF
330
1E
100
AcDbEntity
  8
STEMPEL
100
AcDbLine
 10
413.4800766641644
 20
379.6276904833082
 30
0.0
 11
411.3508214499364
 21
377.4984352690802
 31
0.0
  0
LINE
  5
500
330
1E
100
AcDbEntity
  8
STEMPEL
100
AcDbLine
 10
412.4194164923846
 20
380.6883506550881
 30
0.0
 11
410.7625622428922
 21
379.0314964055956
 31
0.0
  0
ARC
  5
501
330
1E
100
AcDbEntity
  8
STEMPEL
100
AcDbCircle
 10
383.7625622428923
 20
365.0314964055957
 30
0.0
 40
23.5
100
AcDbArc
 50
353.3741904351755
 51
16.65737706073938
  0
LINE
  5
502
102
{ACAD_REACTORS
330
B9E
102
}
330
1E
100
AcDbEntity
  8
STEMPEL
100
AcDbLine
 10
404.3674722420442
 20
372.9148766404216
 30
0.0
 11
404.8393542503542
 21
371.3377503391277
 31
0.0
  0
LINE
  5
503
102
{ACAD_REACTORS
330
B9E
102
}
330
1E
100
AcDbEntity
  8
STEMPEL
100
AcDbLine
 10
404.2625622428921
 20
373.7176370672328
 30
0.0
 11
404.2625622428921
 21
373.6314964055957
 31
0.0
  0
ARC
  5
504
102
{ACAD_REACTORS
330
B9E
102
}
330
1E
100
AcDbEntity
  8
STEMPEL
100
AcDbCircle
 10
406.7625622428922
 20
373.6314964055957
 30
0.0
 40
2.5
100
AcDbArc
 50
180.0
 51
196.6573770607382
  0
ARC
  5
505
102
{ACAD_REACTORS
330
B9E
102
}
330
1E
100
AcDbEntity
  8
STEMPEL
100
AcDbCircle
 10
406.7625622428922
 20
373.7176370672328
 30
0.0
 40
2.5
100
AcDbArc
 50
160.2500772043241
 51
180.0
  0
ARC
  5
506
330
1E
100
AcDbEntity
  8
STEMPEL
100
AcDbCircle
 10
406.7625622428922
 20
373.6314964055957
 30
0.0
 40
1.0
100
AcDbArc
 50
184.5397086345389
 51
196.6573770607393
  0
ARC
  5
507
330
1E
100
AcDbEntity
  8
STEMPEL
100
AcDbCircle
 10
408.2625622428921
 20
373.4271403293378
 30
0.0
 40
2.5
100
AcDbArc
 50
155.3800226712837
 51
177.1292868703559
  0
LINE
  5
508
330
1E
100
AcDbEntity
  8
STEMPEL
100
AcDbLine
 10
406.2764082508629
 20
371.7677221982321
 30
0.0
 11
405.804526242553
 21
373.344848499526
 31
0.0
  0
ARC
  5
509
102
{ACAD_REACTORS
330
B9E
102
}
330
1E
100
AcDbEntity
  8
STEMPEL
100
AcDbCircle
 10
383.7625622428923
 20
365.0314964055957
 30
0.0
 40
22.0
100
AcDbArc
 50
353.3741904351755
 51
16.65737706073938
  0
ARC
  5
50A
102
{ACAD_REACTORS
330
B9E
102
}
330
1E
100
AcDbEntity
  8
STEMPEL
100
AcDbCircle
 10
410.7625622428922
 20
372.2814964055957
 30
0.0
 40
6.75
100
AcDbArc
 50
90.0
 51
160.2500772043246
  0
ARC
  5
50B
330
1E
100
AcDbEntity
  8
STEMPEL
100
AcDbCircle
 10
410.7625622428922
 20
372.2814964055957
 30
0.0
 40
5.25
100
AcDbArc
 50
83.56653354842034
 51
155.3800226712831
  0
POINT
  5
511
330
1E
100
AcDbEntity
  8
STEMPEL
100
AcDbPoint
 10
402.7690368053145
 20
356.9079279833401
 30
0.0
  0
LINE
  5
512
330
1E
100
AcDbEntity
  8
STEMPEL
100
AcDbLine
 10
402.7625622428923
 20
356.9019775945885
 30
0.0
 11
402.7625622428923
 21
354.9757661816169
 31
0.0
  0
POINT
  5
513
330
1E
100
AcDbEntity
  8
STEMPEL
100
AcDbPoint
 10
402.7690368053145
 20
356.9079279833401
 30
0.0
  0
LINE
  5
514
330
1E
100
AcDbEntity
  8
STEMPEL
100
AcDbLine
 10
402.7625622428923
 20
356.901977594588
 30
0.0
 11
402.7625622428923
 21
354.9757661816169
 31
0.0
  0
ARC
  5
51B
330
1E
100
AcDbEntity
  8
STEMPEL
100
AcDbCircle
 10
396.675733813037
 20
363.5314964055957
 30
0.0
 40
10.5
100
AcDbArc
 50
305.4293005533256
 51
353.3741904351755
  0
ARC
  5
51C
102
{ACAD_REACTORS
330
B9E
102
}
330
1E
100
AcDbEntity
  8
STEMPEL
100
AcDbCircle
 10
396.675733813037
 20
363.5314964055957
 30
0.0
 40
9.0
100
AcDbArc
 50
312.5562941594319
 51
353.3741904351755
  0
LINE
  5
52F
330
1E
100
AcDbEntity
  8
STEMPEL
100
AcDbLine
 10
304.7625622428924
 20
356.901977594588
 30
0.0
 11
304.7625622428923
 21
354.9757661816169
 31
0.0
  0
LINE
  5
533
330
1E
100
AcDbEntity
  8
STEMPEL
100
AcDbLine
 10
304.7625622428923
 20
356.901977594588
 30
0.0
 11
304.7625622428923
 21
354.9757661816168
 31
0.0
  0
LINE
  5
538
330
1E
100
AcDbEntity
  8
STEMPEL
100
AcDbLine
 10
402.7625622428923
 20
356.901977594588
 30
0.0
 11
304.7625622428924
 21
356.901977594588
 31
0.0
  0
LINE
  5
53B
330
1E
100
AcDbEntity
  8
STEMPEL
100
AcDbLine
 10
410.7625622428922
 20
379.0314964055957
 30
0.0
 11
408.9657612794216
 21
379.0314964055958
 31
0.0
  0
LINE
  5
53D
102
{ACAD_REACTORS
330
B9E
102
}
330
1E
100
AcDbEntity
  8
STEMPEL
100
AcDbLine
 10
402.7625622428923
 20
356.9019775945879
 30
0.0
 11
304.7625622428923
 21
356.9019775945879
 31
0.0
  0
LINE
  5
53E
330
1E
100
AcDbEntity
  8
STEMPEL
100
AcDbLine
 10
402.7625622428923
 20
354.9757661816169
 30
0.0
 11
304.7625622428923
 21
354.9757661816169
 31
0.0
  0
LINE
  5
53F
330
1E
100
AcDbEntity
  8
MITTEL
100
AcDbLine
 10
295.2625622428923
 20
365.0314964055957
 30
0.0
 11
412.2625622428921
 21
365.0314964055957
 31
0.0
  0
LINE
  5
540
330
1E
100
AcDbEntity
  8
STEMPEL
100
AcDbLine
 10
412.0244209058968
 20
378.1720347250407
 30
0.0
 11
468.1286348502812
 21
378.1720347250407
 31
0.0
  0
LINE
  5
541
330
1E
100
AcDbEntity
  8
STEMPEL
100
AcDbLine
 10
413.3421725496815
 20
379.0314964055958
 30
0.0
 11
421.4621725496814
 21
379.0314964055958
 31
0.0
  0
ARC
  5
542
102
{ACAD_REACTORS
330
B9E
102
}
330
1E
100
AcDbEntity
  8
STEMPEL
100
AcDbCircle
 10
418.0762707418769
 20
375.0314964055957
 30
0.0
 40
8.0
100
AcDbArc
 50
90.0
 51
135.0
  0
ARC
  5
543
330
1E
100
AcDbEntity
  8
STEMPEL
100
AcDbCircle
 10
418.0762707418769
 20
375.0314964055957
 30
0.0
 40
6.5
100
AcDbArc
 50
90.0
 51
135.0
  0
LINE
  5
551
330
1E
100
AcDbEntity
  8
MITTEL
100
AcDbLine
 10
263.7625622428923
 20
388.0314964055956
 30
0.0
 11
263.7625622428923
 21
373.1720347250407
 31
0.0
  0
LINE
  5
567
102
{ACAD_REACTORS
330
B9E
102
}
330
1E
100
AcDbEntity
  8
STEMPEL
100
AcDbLine
 10
523.7625622428923
 20
383.0314964055956
 30
0.0
 11
502.757837423128
 21
383.0314964055956
 31
0.0
  0
LINE
  5
56E
330
1E
100
AcDbEntity
  8
MITTEL
100
AcDbLine
 10
353.7625622428923
 20
388.0314964055957
 30
0.0
 11
353.7625622428922
 21
272.0314964055957
 31
0.0
  0
LINE
  5
91A
330
1E
100
AcDbEntity
  8
STEMPEL
100
AcDbLine
 10
289.4488537439076
 20
381.5314964055957
 30
0.0
 11
271.1523097111981
 21
381.5314964055957
 31
0.0
  0
LINE
  5
91B
330
1E
100
AcDbEntity
  8
STEMPEL
100
AcDbLine
 10
239.3964896355033
 20
378.1720347250407
 30
0.0
 11
246.6008784586402
 21
381.5314964055957
 31
0.0
  0
LINE
  5
91C
330
1E
100
AcDbEntity
  8
STEMPEL
100
AcDbLine
 10
238.7625622428923
 20
379.5314964055957
 30
0.0
 11
246.2683364646758
 21
383.0314964055957
 31
0.0
  0
LINE
  5
91D
330
1E
100
AcDbEntity
  8
STEMPEL
100
AcDbLine
 10
238.7625622428923
 20
379.5314964055957
 30
0.0
 11
239.3964896355033
 21
378.1720347250407
 31
0.0
  0
ARC
  5
91E
330
1E
100
AcDbEntity
  8
STEMPEL
100
AcDbCircle
 10
289.4488537439076
 20
375.0314964055957
 30
0.0
 40
6.5
100
AcDbArc
 50
44.99999999999752
 51
90.00000000000024
  0
ARC
  5
91F
102
{ACAD_REACTORS
330
B9E
102
}
330
1E
100
AcDbEntity
  8
STEMPEL
100
AcDbCircle
 10
289.4488537439076
 20
375.0314964055957
 30
0.0
 40
8.0
100
AcDbArc
 50
45.00000000000001
 51
90.0
  0
LINE
  5
920
330
1E
100
AcDbEntity
  8
STEMPEL
100
AcDbLine
 10
295.1057079933999
 20
380.6883506550881
 30
0.0
 11
296.7625622428924
 21
379.0314964055956
 31
0.0
  0
POINT
  5
921
330
1E
100
AcDbEntity
  8
STEMPEL
100
AcDbPoint
 10
295.1057079933999
 20
380.6883506550881
 30
0.0
  0
ARC
  5
922
330
1E
100
AcDbEntity
  8
STEMPEL
100
AcDbCircle
 10
289.4488537439076
 20
375.0314964055957
 30
0.0
 40
8.0
100
AcDbArc
 50
45.00000000000029
 51
45.00000000000029
  0
ARC
  5
923
330
1E
100
AcDbEntity
  8
STEMPEL
100
AcDbCircle
 10
296.7625622428924
 20
372.2814964055957
 30
0.0
 40
5.25
100
AcDbArc
 50
24.61997732871691
 51
96.43346645157615
  0
ARC
  5
924
102
{ACAD_REACTORS
330
B9E
102
}
330
1E
100
AcDbEntity
  8
STEMPEL
100
AcDbCircle
 10
296.7625622428924
 20
372.2814964055957
 30
0.0
 40
6.75
100
AcDbArc
 50
19.74992279567537
 51
90.0
  0
LINE
  5
925
330
1E
100
AcDbEntity
  8
STEMPEL
100
AcDbLine
 10
301.2487162349216
 20
371.7677221982321
 30
0.0
 11
301.7205982432315
 21
373.344848499526
 31
0.0
  0
ARC
  5
926
330
1E
100
AcDbEntity
  8
STEMPEL
100
AcDbCircle
 10
299.2625622428923
 20
373.4271403293378
 30
0.0
 40
2.5
100
AcDbArc
 50
2.870713129644066
 51
24.61997732871628
  0
ARC
  5
927
330
1E
100
AcDbEntity
  8
STEMPEL
100
AcDbCircle
 10
300.7625622428923
 20
373.6314964055957
 30
0.0
 40
1.0
100
AcDbArc
 50
343.3426229392606
 51
355.4602913654612
  0
ARC
  5
928
102
{ACAD_REACTORS
330
B9E
102
}
330
1E
100
AcDbEntity
  8
STEMPEL
100
AcDbCircle
 10
300.7625622428923
 20
373.7176370672328
 30
0.0
 40
2.5
100
AcDbArc
 50
0.000000000000007
 51
19.74992279567586
  0
ARC
  5
929
102
{ACAD_REACTORS
330
B9E
102
}
330
1E
100
AcDbEntity
  8
STEMPEL
100
AcDbCircle
 10
300.7625622428923
 20
373.6314964055957
 30
0.0
 40
2.5
100
AcDbArc
 50
343.3426229392618
 51
0.000000000000007
  0
LINE
  5
92A
102
{ACAD_REACTORS
330
B9E
102
}
330
1E
100
AcDbEntity
  8
STEMPEL
100
AcDbLine
 10
303.2625622428923
 20
373.7176370672328
 30
0.0
 11
303.2625622428923
 21
373.6314964055957
 31
0.0
  0
LINE
  5
92B
102
{ACAD_REACTORS
330
B9E
102
}
330
1E
100
AcDbEntity
  8
STEMPEL
100
AcDbLine
 10
303.1576522437403
 20
372.9148766404216
 30
0.0
 11
302.6857702354303
 21
371.3377503391277
 31
0.0
  0
POINT
  5
92C
330
1E
100
AcDbEntity
  8
STEMPEL
100
AcDbPoint
 10
296.7625622428924
 20
379.0314964055957
 30
0.0
  0
ARC
  5
92D
102
{ACAD_REACTORS
330
B9E
102
}
330
1E
100
AcDbEntity
  8
STEMPEL
100
AcDbCircle
 10
323.7625622428923
 20
365.0314964055957
 30
0.0
 40
22.0
100
AcDbArc
 50
163.3426229392606
 51
186.6258095648245
  0
ARC
  5
92E
330
1E
100
AcDbEntity
  8
STEMPEL
100
AcDbCircle
 10
323.7625622428923
 20
365.0314964055957
 30
0.0
 40
23.5
100
AcDbArc
 50
163.3426229392606
 51
186.6258095648245
  0
ARC
  5
92F
102
{ACAD_REACTORS
330
B9E
102
}
330
1E
100
AcDbEntity
  8
STEMPEL
100
AcDbCircle
 10
310.8493906727476
 20
363.5314964055957
 30
0.0
 40
9.0
100
AcDbArc
 50
186.6258095648245
 51
227.4437058405681
  0
ARC
  5
930
330
1E
100
AcDbEntity
  8
STEMPEL
100
AcDbCircle
 10
310.8493906727476
 20
363.5314964055957
 30
0.0
 40
10.5
100
AcDbArc
 50
186.6258095648245
 51
234.5706994466745
  0
LINE
  5
931
330
1E
100
AcDbEntity
  8
STEMPEL
100
AcDbLine
 10
304.7625622428923
 20
356.901977594588
 30
0.0
 11
304.7625622428923
 21
354.9757661816169
 31
0.0
  0
POINT
  5
932
330
1E
100
AcDbEntity
  8
STEMPEL
100
AcDbPoint
 10
304.75608768047
 20
356.9079279833401
 30
0.0
  0
LINE
  5
933
330
1E
100
AcDbEntity
  8
STEMPEL
100
AcDbLine
 10
304.7625622428923
 20
356.9019775945885
 30
0.0
 11
304.7625622428923
 21
354.9757661816169
 31
0.0
  0
POINT
  5
934
330
1E
100
AcDbEntity
  8
STEMPEL
100
AcDbPoint
 10
304.7560876804699
 20
356.9079279833401
 30
0.0
  0
LINE
  5
936
330
1E
100
AcDbEntity
  8
STEMPEL
100
AcDbLine
 10
294.0450478216204
 20
379.627690483308
 30
0.0
 11
296.1743030358487
 21
377.4984352690796
 31
0.0
  0
LINE
  5
937
330
1E
100
AcDbEntity
  8
STEMPEL
100
AcDbLine
 10
259.7025622428923
 20
379.0314964055957
 30
0.0
 11
267.8225622428922
 21
379.0314964055957
 31
0.0
  0
LINE
  5
938
330
1E
100
AcDbEntity
  8
STEMPEL
100
AcDbLine
 10
269.738096148825
 20
380.9457099679688
 30
0.0
 11
267.8232224146721
 21
379.0308362338159
 31
0.0
  0
ARC
  5
939
330
1E
100
AcDbEntity
  8
STEMPEL
100
AcDbCircle
 10
271.1523097111981
 20
379.5314964055956
 30
0.0
 40
2.0
100
AcDbArc
 50
90.0
 51
134.9999999999977
  0
ARC
  5
93A
330
1E
100
AcDbEntity
  8
STEMPEL
100
AcDbCircle
 10
256.3728147745865
 20
379.5314964055956
 30
0.0
 40
2.0
100
AcDbArc
 50
45.00000000000029
 51
90.0
  0
LINE
  5
93B
330
1E
100
AcDbEntity
  8
STEMPEL
100
AcDbLine
 10
257.7870283369596
 20
380.9457099679687
 30
0.0
 11
259.7019020711125
 21
379.0308362338159
 31
0.0
  0
LINE
  5
93C
330
1E
100
AcDbEntity
  8
STEMPEL
100
AcDbLine
 10
268.6774359770452
 20
382.0063701397485
 30
0.0
 11
266.7625622428923
 21
380.0914964055957
 31
0.0
  0
ARC
  5
93D
330
1E
100
AcDbEntity
  8
STEMPEL
100
AcDbCircle
 10
271.1523097111981
 20
379.5314964055956
 30
0.0
 40
3.5
100
AcDbArc
 50
90.0
 51
134.9999999999997
  0
LINE
  5
93E
330
1E
100
AcDbEntity
  8
STEMPEL
100
AcDbLine
 10
258.8476885087394
 20
382.0063701397485
 30
0.0
 11
260.7625622428923
 21
380.0914964055957
 31
0.0
  0
ARC
  5
93F
330
1E
100
AcDbEntity
  8
STEMPEL
100
AcDbCircle
 10
256.3728147745865
 20
379.5314964055956
 30
0.0
 40
3.5
100
AcDbArc
 50
45.00000000000029
 51
90.0
  0
LINE
  5
940
330
1E
100
AcDbEntity
  8
STEMPEL
100
AcDbLine
 10
259.7019020711125
 20
379.0308362338159
 30
0.0
 11
260.7625622428923
 21
380.0914964055957
 31
0.0
  0
LINE
  5
941
330
1E
100
AcDbEntity
  8
STEMPEL
100
AcDbLine
 10
260.7625622428923
 20
380.0914964055957
 30
0.0
 11
266.7625622428923
 21
380.0914964055957
 31
0.0
  0
LINE
  5
942
330
1E
100
AcDbEntity
  8
STEMPEL
100
AcDbLine
 10
266.7625622428923
 20
380.0914964055957
 30
0.0
 11
267.8232224146721
 21
379.0308362338159
 31
0.0
  0
LINE
  5
944
330
1E
100
AcDbEntity
  8
STEMPEL
100
AcDbLine
 10
256.3728147745865
 20
381.5314964055957
 30
0.0
 11
246.6008784586402
 21
381.5314964055957
 31
0.0
  0
HATCH
  5
9A5
330
1E
100
AcDbEntity
  8
SCHRAFF
100
AcDbHatch
 10
0.0
 20
0.0
 30
0.0
210
0.0
220
0.0
230
1.0
  2
_USER
 70
     0
 71
     0
 91
        3
 92
        7
 72
     1
 73
     1
 93
        8
 10
461.2567880211088
 20
383.0314964055956
 42
0.0
 10
418.0762707418769
 20
383.0314964055957
 42
0.0210937042129262
 10
417.4021725496815
 20
383.0030452906794
 42
0.0
 10
417.4021725496815
 20
381.4964474206675
 42
-0.0259793971817303
 10
418.0762707418772
 20
381.5314964055957
 42
0.0
 10
460.924246027144
 20
381.5314964055957
 42
0.0
 10
468.1286348502812
 20
378.1720347250407
 42
0.0
 10
468.7625622428922
 20
379.5314964055957
 42
0.0
 97
        0
 92
        7
 72
     1
 73
     1
 93
       16
 10
417.4021725496815
 20
383.0030452906794
 42
0.1770756892303729
 10
412.4194164923844
 20
380.6883506550879
 42
0.0
 10
410.7625622428922
 20
379.0314964055956
 42
0.3164988464831926
 10
404.4096210664228
 20
374.5624256917247
 42
0.0907302820398373
 10
404.2629332811054
 20
373.6745667364161
 42
0.0771412373566204
 10
404.3674722420441
 20
372.9148766404219
 42
0.0
 10
404.8393542503542
 20
371.3377503391277
 42
-0.0728097721655519
 10
405.7625622428922
 20
365.0314964055957
 42
0.0
 10
407.2625622428923
 20
365.0314964055957
 42
0.0728097721655456
 10
406.2764082508631
 20
371.7677221982315
 42
0.0
 10
405.804526242553
 20
373.344848499526
 42
-0.0529226287086391
 10
405.765699524366
 20
373.5523464187819
 42
-0.0951853383424353
 10
405.9898364526985
 20
374.4686380406116
 42
-0.3240200234877804
 10
411.3508214499364
 20
377.4984352690802
 42
0.0
 10
413.4800766641644
 20
379.6276904833082
 42
-0.172043912052787
 10
417.4021725496815
 20
381.4964474206675
 42
0.0
 97
        0
 92
        7
 72
     1
 73
     1
 93
        6
 10
407.1056031581539
 20
362.319957944057
 42
0.0289186054923408
 10
407.2625622428921
 20
365.0314964055957
 42
0.0
 10
405.7625622428922
 20
365.0314964055957
 42
-0.0289186054923377
 10
405.6156218231378
 20
362.4930348671342
 42
-0.1800090156599683
 10
402.7625622428923
 20
356.901977594588
 42
0.0
 10
402.7625622428923
 20
354.9757661816169
 42
0.2123052470571922
 97
        0
 75
     0
 76
     0
 52
135.0
 41
2.0
 77
     0
 78
     1
 53
135.0
 43
125.5137759301747
 44
-105.3097255781226
 45
-1.414213562373095
 46
-1.414213562373094
 79
     0
 47
0.1180195295744155
 98
        3
 10
450.438949849497
 20
382.3284064762488
 10
415.9528716460754
 20
381.7383077513105
 10
405.7960134457298
 20
362.1470656270951
  0
LINE
  5
9A8
330
1E
100
AcDbEntity
  8
SCHRAFF
100
AcDbLine
 10
240.9391920998325
 20
378.8914086984119
 30
0.0
 11
239.8104611208739
 21
380.0201396773705
 31
0.0
  0
LINE
  5
9A9
330
1E
100
AcDbEntity
  8
SCHRAFF
100
AcDbLine
 10
242.868137303805
 20
379.7908906191856
 30
0.0
 11
241.7394063248463
 21
380.9196215981442
 31
0.0
  0
LINE
  5
9AA
330
1E
100
AcDbEntity
  8
SCHRAFF
100
AcDbLine
 10
244.7970825077774
 20
380.6903725399593
 30
0.0
 11
243.6683515288188
 21
381.8191035189179
 31
0.0
  0
LINE
  5
9AB
330
1E
100
AcDbEntity
  8
SCHRAFF
100
AcDbLine
 10
246.7843857668872
 20
381.5314964055957
 30
0.0
 11
245.5972967327912
 21
382.7185854396916
 31
0.0
  0
LINE
  5
9AC
330
1E
100
AcDbEntity
  8
SCHRAFF
100
AcDbLine
 10
249.6128128916335
 20
381.5314964055957
 30
0.0
 11
248.1128128916335
 21
383.0314964055956
 31
0.0
  0
LINE
  5
9AD
330
1E
100
AcDbEntity
  8
SCHRAFF
100
AcDbLine
 10
252.4412400163797
 20
381.5314964055957
 30
0.0
 11
250.9412400163797
 21
383.0314964055956
 31
0.0
  0
LINE
  5
9AE
330
1E
100
AcDbEntity
  8
SCHRAFF
100
AcDbLine
 10
255.2696671411258
 20
381.5314964055957
 30
0.0
 11
253.7696671411259
 21
383.0314964055956
 31
0.0
  0
LINE
  5
9AF
330
1E
100
AcDbEntity
  8
SCHRAFF
100
AcDbLine
 10
260.1503282543821
 20
379.4792624170855
 30
0.0
 11
256.5980942658721
 21
383.0314964055956
 31
0.0
  0
LINE
  5
9B2
330
1E
100
AcDbEntity
  8
SCHRAFF
100
AcDbLine
 10
268.4536291132813
 20
379.6612429324251
 30
0.0
 11
267.3929689415015
 21
380.7219031042049
 31
0.0
  0
LINE
  5
9B3
330
1E
100
AcDbEntity
  8
SCHRAFF
100
AcDbLine
 10
269.8738070275624
 20
381.0694921428901
 30
0.0
 11
268.8105858581168
 21
382.1327133123356
 31
0.0
  0
LINE
  5
9B4
330
1E
100
AcDbEntity
  8
SCHRAFF
100
AcDbLine
 10
272.2402298896029
 20
381.5314964055957
 30
0.0
 11
270.7402298896029
 21
383.0314964055956
 31
0.0
  0
LINE
  5
9B5
330
1E
100
AcDbEntity
  8
SCHRAFF
100
AcDbLine
 10
275.0686570143491
 20
381.5314964055957
 30
0.0
 11
273.5686570143491
 21
383.0314964055956
 31
0.0
  0
LINE
  5
9B6
330
1E
100
AcDbEntity
  8
SCHRAFF
100
AcDbLine
 10
277.8970841390953
 20
381.5314964055957
 30
0.0
 11
276.3970841390953
 21
383.0314964055956
 31
0.0
  0
LINE
  5
9B7
330
1E
100
AcDbEntity
  8
SCHRAFF
100
AcDbLine
 10
302.8502140133564
 20
359.4067936560808
 30
0.0
 11
300.5005071828483
 21
361.7565004865889
 31
0.0
  0
LINE
  5
9B8
330
1E
100
AcDbEntity
  8
SCHRAFF
100
AcDbLine
 10
280.7255112638415
 20
381.5314964055957
 30
0.0
 11
279.2255112638415
 21
383.0314964055957
 31
0.0
  0
LINE
  5
9B9
330
1E
100
AcDbEntity
  8
SCHRAFF
100
AcDbLine
 10
301.8347559501398
 20
363.2506788440436
 30
0.0
 11
300.2634966157354
 21
364.821938178448
 31
0.0
  0
LINE
  5
9BA
330
1E
100
AcDbEntity
  8
SCHRAFF
100
AcDbLine
 10
283.5539383885877
 20
381.5314964055957
 30
0.0
 11
282.0539383885878
 21
383.0314964055957
 31
0.0
  0
LINE
  5
9BB
330
1E
100
AcDbEntity
  8
SCHRAFF
100
AcDbLine
 10
301.789712856187
 20
366.1241490627425
 30
0.0
 11
300.3946123112929
 21
367.5192496076367
 31
0.0
  0
LINE
  5
9BC
330
1E
100
AcDbEntity
  8
SCHRAFF
100
AcDbLine
 10
286.3823655133338
 20
381.5314964055957
 30
0.0
 11
284.8823655133339
 21
383.0314964055956
 31
0.0
  0
LINE
  5
9BD
330
1E
100
AcDbEntity
  8
SCHRAFF
100
AcDbLine
 10
302.0664997174352
 20
368.6757893262405
 30
0.0
 11
300.7846738734821
 21
369.9576151701937
 31
0.0
  0
LINE
  5
9BE
330
1E
100
AcDbEntity
  8
SCHRAFF
100
AcDbLine
 10
289.21079263808
 20
381.5314964055957
 30
0.0
 11
287.7107926380801
 21
383.0314964055956
 31
0.0
  0
LINE
  5
9BF
330
1E
100
AcDbEntity
  8
SCHRAFF
100
AcDbLine
 10
302.5839288914043
 20
370.9867872770177
 30
0.0
 11
301.3763651515481
 21
372.1943510168738
 31
0.0
  0
LINE
  5
9C0
330
1E
100
AcDbEntity
  8
SCHRAFF
100
AcDbLine
 10
293.3111667726811
 20
380.2595493957408
 30
0.0
 11
290.6263503946746
 21
382.9443657737473
 31
0.0
  0
LINE
  5
9C1
330
1E
100
AcDbEntity
  8
SCHRAFF
100
AcDbLine
 10
303.2210952561082
 20
373.1780480370599
 30
0.0
 11
300.9469896285338
 21
375.4521536646344
 31
0.0
  0
LINE
  5
9C2
330
1E
100
AcDbEntity
  8
SCHRAFF
100
AcDbLine
 10
299.93321950193
 20
376.4659237912382
 30
0.0
 11
297.3975838229208
 21
379.0015594702475
 31
0.0
  0
TEXT
  5
A54
330
1E
100
AcDbEntity
  8
TEXT
100
AcDbText
 10
612.2898419893276
 20
90.20963860687919
 30
0.0
 40
4.0
  1
DIN EN1123-2
 41
0.8
  7
GREEKS
 72
     1
 11
629.2803181798038
 21
90.20963860687919
 31
0.0
100
AcDbText
  0
LINE
  5
A7C
102
{ACAD_REACTORS
330
B9E
102
}
330
1E
100
AcDbEntity
  8
STEMPEL
100
AcDbLine
 10
308.7625622428922
 20
357.901977594588
 30
0.0
 11
308.7625622428922
 21
356.9019775945879
 31
0.0
  0
LINE
  5
A7D
102
{ACAD_REACTORS
330
B9E
102
}
330
1E
100
AcDbEntity
  8
STEMPEL
100
AcDbLine
 10
398.7625622428923
 20
357.901977594588
 30
0.0
 11
398.7625622428923
 21
356.9019775945879
 31
0.0
  0
LINE
  5
A7E
102
{ACAD_REACTORS
330
B9E
102
}
330
1E
100
AcDbEntity
  8
STEMPEL
100
AcDbLine
 10
523.7625622428923
 20
384.0314964055957
 30
0.0
 11
503.0257866155592
 21
384.0314964055957
 31
0.0
  0
LINE
  5
A7F
102
{ACAD_REACTORS
330
B9E
102
}
330
1E
100
AcDbEntity
  8
STEMPEL
100
AcDbLine
 10
183.7625622428922
 20
384.0314964055957
 30
0.0
 11
183.7625622428922
 21
383.0314964055956
 31
0.0
  0
LINE
  5
A80
102
{ACAD_REACTORS
330
B9E
102
}
330
1E
100
AcDbEntity
  8
STEMPEL
100
AcDbLine
 10
523.7625622428923
 20
384.0314964055957
 30
0.0
 11
523.7625622428923
 21
383.0314964055956
 31
0.0
  0
LINE
  5
A87
330
1E
100
AcDbEntity
  8
HILF
100
AcDbLine
 10
503.5616850004214
 20
386.0314964055957
 30
0.0
 11
502.2219390382658
 21
381.0314964055957
 31
0.0
  0
LINE
  5
A88
330
1E
100
AcDbEntity
  8
HILF
100
AcDbLine
 10
502.5616850004214
 20
386.0314964055957
 30
0.0
 11
501.2219390382658
 21
381.0314964055957
 31
0.0
  0
LINE
  5
A89
102
{ACAD_REACTORS
330
B9E
102
}
330
1E
100
AcDbEntity
  8
STEMPEL
100
AcDbLine
 10
502.0257866155592
 20
384.0314964055956
 30
0.0
 11
205.4609068247544
 21
384.0314964055957
 31
0.0
  0
LINE
  5
A8A
102
{ACAD_REACTORS
330
B9E
102
}
330
1E
100
AcDbEntity
  8
STEMPEL
100
AcDbLine
 10
501.757837423128
 20
383.0314964055956
 30
0.0
 11
418.0762707418769
 21
383.0314964055957
 31
0.0
  0
LINE
  5
A93
102
{ACAD_REACTORS
330
B9E
102
}
330
1E
100
AcDbEntity
  8
HILF
100
AcDbLine
 10
503.5616850004214
 20
386.0314964055957
 30
0.0
 11
502.2219390382658
 21
381.0314964055956
 31
0.0
  0
LINE
  5
A94
102
{ACAD_REACTORS
330
B9E
102
}
330
1E
100
AcDbEntity
  8
HILF
100
AcDbLine
 10
502.5616850004214
 20
386.0314964055957
 30
0.0
 11
501.2219390382658
 21
381.0314964055956
 31
0.0
  0
LINE
  5
A95
102
{ACAD_REACTORS
330
B9E
102
}
330
1E
100
AcDbEntity
  8
HILF
100
AcDbLine
 10
205.9968052096166
 20
386.0314964055957
 30
0.0
 11
204.6570592474611
 21
381.0314964055956
 31
0.0
  0
LINE
  5
A96
102
{ACAD_REACTORS
330
B9E
102
}
330
1E
100
AcDbEntity
  8
HILF
100
AcDbLine
 10
204.9968052096167
 20
386.0314964055957
 30
0.0
 11
203.6570592474611
 21
381.0314964055956
 31
0.0
  0
LINE
  5
A97
102
{ACAD_REACTORS
330
B9E
102
}
330
1E
100
AcDbEntity
  8
STEMPEL
100
AcDbLine
 10
204.4609068247545
 20
384.0314964055957
 30
0.0
 11
183.7625622428922
 21
384.0314964055957
 31
0.0
  0
LINE
  5
A98
102
{ACAD_REACTORS
330
B9E
102
}
330
1E
100
AcDbEntity
  8
STEMPEL
100
AcDbLine
 10
204.1929576323233
 20
383.0314964055958
 30
0.0
 11
183.7625622428922
 21
383.0314964055957
 31
0.0
  0
HATCH
  5
AEA
330
1E
100
AcDbEntity
  8
SCHRAFF
100
AcDbHatch
 10
0.0
 20
0.0
 30
0.0
210
0.0
220
0.0
230
1.0
  2
NET
 70
     0
 71
     1
 91
        2
 92
        7
 72
     1
 73
     1
 93
        2
 10
398.0125622428923
 20
364.0314964055956
 42
1.0
 10
405.0125622428923
 20
364.0314964055956
 42
1.0
 97
        1
330
B00
 92
        7
 72
     1
 73
     1
 93
        2
 10
302.5125622428923
 20
364.0314964055957
 42
1.0
 10
309.5125622428923
 20
364.0314964055957
 42
1.0
 97
        1
330
B26
 75
     0
 76
     1
 52
45.0
 41
10.0
 77
     0
 78
     2
 53
45.0
 43
241.2625622428923
 44
141.2693284523608
 45
-0.8838834764831842
 46
0.8838834764831844
 79
     0
 53
135.0
 43
241.2625622428923
 44
141.2693284523608
 45
-0.8838834764831844
 46
-0.8838834764831842
 79
     0
 47
0.1673277598288079
 98
        2
 10
401.3134610080753
 20
364.768021726723
 10
307.7110875058665
 20
365.1026772838656
  0
HATCH
  5
AEB
330
1E
100
AcDbEntity
  8
SCHRAFF
100
AcDbHatch
 10
0.0
 20
0.0
 30
0.0
210
0.0
220
0.0
230
1.0
  2
NET
 70
     0
 71
     1
 91
        3
 92
        7
 72
     1
 73
     1
 93
        5
 10
406.7625622428923
 20
384.0314964055957
 42
0.0
 10
405.7625622428922
 20
383.0314964055957
 42
0.0
 10
405.7625622428922
 20
379.4612808980592
 42
-0.222066610227725
 10
408.7625622428922
 20
381.0314964055956
 42
0.0
 10
411.7625622428922
 20
384.0314964055957
 42
0.0
 97
        5
330
AED
330
AEC
330
B12
330
AF6
330
B14
 92
        7
 72
     1
 73
     1
 93
       19
 10
392.2625622428922
 20
378.9314964055956
 42
0.0
 10
392.2625622428922
 20
377.9314964055955
 42
0.0
 10
394.2625622428923
 20
372.4365415666863
 42
0.0
 10
394.2625622428923
 20
358.0314964055956
 42
0.0
 10
400.0125622428923
 20
358.0314964055956
 42
0.4142135623730868
 10
402.0125622428922
 20
360.0314964055956
 42
0.0
 10
399.0125622428923
 20
360.0314964055957
 42
-0.4142135623730951
 10
398.0125622428923
 20
361.0314964055957
 42
0.0
 10
398.0125622428922
 20
367.0314964055956
 42
-0.4142135623730951
 10
399.0125622428922
 20
368.0314964055956
 42
0.0
 10
402.0125622428921
 20
368.0314964055956
 42
0.0
 10
402.0125622428922
 20
373.0314964055957
 42
0.0
 10
403.7625622428921
 20
376.0625853188411
 42
0.0
 10
403.7625622428922
 20
383.0314964055957
 42
0.0
 10
402.7625622428922
 20
384.0314964055957
 42
0.0
 10
398.8125622428922
 20
384.0314964055957
 42
0.0
 10
398.8125622428922
 20
383.0314964055956
 42
0.0
 10
399.0125622428923
 20
382.6850862440819
 42
0.0
 10
399.0125622428923
 20
378.9314964055957
 42
0.0
 97
       19
330
AEE
330
AF3
330
AF1
330
AF2
330
B15
330
B06
330
B04
330
B05
330
B0E
330
B0C
330
B0D
330
B02
330
AFE
330
AFF
330
AFA
330
B01
330
B03
330
AF7
330
B13
 92
        7
 72
     1
 73
     1
 93
       19
 10
315.2625622428922
 20
377.9314964055957
 42
0.0
 10
315.2625622428922
 20
378.9314964055957
 42
0.0
 10
308.5125622428923
 20
378.9314964055957
 42
0.0
 10
308.5125622428923
 20
382.685086244082
 42
0.0
 10
308.7125622428922
 20
383.0314964055957
 42
0.0
 10
308.7125622428922
 20
384.0314964055957
 42
0.0
 10
295.7625622428923
 20
384.0314964055957
 42
0.0
 10
298.7625622428922
 20
381.0314964055957
 42
-0.2558860185809181
 10
302.0461066606489
 20
379.0355735962219
 42
0.0
 10
305.5125622428923
 20
373.0314964055955
 42
0.0
 10
305.5125622428923
 20
368.0314964055957
 42
0.0
 10
308.5125622428923
 20
368.0314964055956
 42
-0.4142135623730951
 10
309.5125622428923
 20
367.0314964055956
 42
0.0
 10
309.5125622428923
 20
361.0314964055956
 42
-0.4142135623730784
 10
308.5125622428923
 20
360.0314964055956
 42
0.0
 10
305.5125622428923
 20
360.0314964055957
 42
0.4142135623731117
 10
307.5125622428923
 20
358.0314964055956
 42
0.0
 10
313.2625622428923
 20
358.0314964055955
 42
0.0
 10
313.2625622428923
 20
372.4365415666863
 42
0.0
 97
       19
330
B1A
330
B2F
330
B2D
330
B18
330
B19
330
B30
330
B2C
330
B2B
330
B20
330
B25
330
B22
330
B28
330
B1C
330
B27
330
B24
330
B29
330
B2E
330
B2A
330
B1B
 75
     0
 76
     1
 52
45.0
 41
15.0
 77
     0
 78
     2
 53
45.0
 43
241.2625622428923
 44
141.2693284523608
 45
-1.325825214724776
 46
1.325825214724776
 79
     0
 53
135.0
 43
241.2625622428923
 44
141.2693284523608
 45
-1.325825214724776
 46
-1.325825214724776
 79
     0
 47
0.1673277598288079
 98
        3
 10
408.8485358727369
 20
383.1740752709428
 10
397.6296465699452
 20
377.4849314990598
 10
309.8878867017333
 20
373.9710484988328
  0
LINE
  5
AEC
102
{ACAD_REACTORS
330
AEB
102
}
330
1E
100
AcDbEntity
  8
STEMPEL
100
AcDbLine
 10
405.7625622428922
 20
383.0314964055957
 30
0.0
 11
406.7625622428923
 21
384.0314964055957
 31
0.0
  0
LINE
  5
AED
102
{ACAD_REACTORS
330
AEB
102
}
330
1E
100
AcDbEntity
  8
STEMPEL
100
AcDbLine
 10
411.7625622428922
 20
384.0314964055957
 30
0.0
 11
406.7625622428923
 21
384.0314964055957
 31
0.0
  0
LINE
  5
AEE
102
{ACAD_REACTORS
330
AEB
102
}
330
1E
100
AcDbEntity
  8
STEMPEL
100
AcDbLine
 10
403.7625622428922
 20
383.0314964055957
 30
0.0
 11
402.7625622428923
 21
384.0314964055957
 31
0.0
  0
POINT
  5
AEF
330
1E
100
AcDbEntity
  8
STEMPEL
100
AcDbPoint
 10
399.0125622428923
 20
382.6850862440819
 30
0.0
  0
POINT
  5
AF0
330
1E
100
AcDbEntity
  8
STEMPEL
100
AcDbPoint
 10
398.8125622428922
 20
384.0314964055957
 30
0.0
  0
LINE
  5
AF1
102
{ACAD_REACTORS
330
AEB
102
}
330
1E
100
AcDbEntity
  8
STEMPEL
100
AcDbLine
 10
398.8125622428922
 20
384.0314964055957
 30
0.0
 11
398.8125622428922
 21
383.0314964055956
 31
0.0
  0
LINE
  5
AF2
102
{ACAD_REACTORS
330
AEB
102
}
330
1E
100
AcDbEntity
  8
STEMPEL
100
AcDbLine
 10
398.8125622428922
 20
383.0314964055956
 30
0.0
 11
399.0125622428923
 21
382.6850862440819
 31
0.0
  0
LINE
  5
AF3
102
{ACAD_REACTORS
330
AEB
102
}
330
1E
100
AcDbEntity
  8
STEMPEL
100
AcDbLine
 10
402.7625622428923
 20
384.0314964055957
 30
0.0
 11
398.8125622428922
 21
384.0314964055957
 31
0.0
  0
LINE
  5
AF4
330
1E
100
AcDbEntity
  8
STEMPEL
100
AcDbLine
 10
406.7625622428923
 20
384.0314964055957
 30
0.0
 11
402.7625622428923
 21
384.0314964055957
 31
0.0
  0
LINE
  5
AF5
330
1E
100
AcDbEntity
  8
STEMPEL
100
AcDbLine
 10
405.7625622428922
 20
383.0314964055957
 30
0.0
 11
403.7625622428922
 21
383.0314964055957
 31
0.0
  0
ARC
  5
AF6
102
{ACAD_REACTORS
330
AEB
102
}
330
1E
100
AcDbEntity
  8
STEMPEL
100
AcDbCircle
 10
408.9431194402733
 20
377.0355735962219
 30
0.0
 40
4.0
100
AcDbArc
 50
92.58717043466431
 51
142.6684147984943
  0
LINE
  5
AF7
102
{ACAD_REACTORS
330
AEB
102
}
330
1E
100
AcDbEntity
  8
STEMPEL
100
AcDbLine
 10
402.0125622428922
 20
373.0314964055957
 30
0.0
 11
403.7625622428922
 21
376.0625853188411
 31
0.0
  0
LINE
  5
AF8
330
1E
100
AcDbEntity
  8
STEMPEL
100
AcDbLine
 10
403.7625622428922
 20
376.0625853188411
 30
0.0
 11
405.3897979991694
 21
378.881040324606
 31
0.0
  0
POINT
  5
AF9
330
1E
100
AcDbEntity
  8
STEMPEL
100
AcDbPoint
 10
402.0125622428922
 20
360.0314964055956
 30
0.0
  0
ARC
  5
AFA
102
{ACAD_REACTORS
330
AEB
102
}
330
1E
100
AcDbEntity
  8
STEMPEL
100
AcDbCircle
 10
399.0125622428922
 20
367.0314964055956
 30
0.0
 40
1.0
100
AcDbArc
 50
90.0
 51
180.0
  0
POINT
  5
AFB
330
1E
100
AcDbEntity
  8
STEMPEL
100
AcDbPoint
 10
400.0125622428923
 20
360.0314964055957
 30
0.0
  0
POINT
  5
AFC
330
1E
100
AcDbEntity
  8
STEMPEL
100
AcDbPoint
 10
400.0125622428923
 20
360.0314964055956
 30
0.0
  0
POINT
  5
AFD
330
1E
100
AcDbEntity
  8
STEMPEL
100
AcDbPoint
 10
400.0125622428923
 20
360.0314964055956
 30
0.0
  0
ARC
  5
AFE
102
{ACAD_REACTORS
330
AEB
102
}
330
1E
100
AcDbEntity
  8
STEMPEL
100
AcDbCircle
 10
399.0125622428923
 20
361.0314964055957
 30
0.0
 40
1.0
100
AcDbArc
 50
180.0
 51
270.0
  0
LINE
  5
AFF
102
{ACAD_REACTORS
330
AEB
102
}
330
1E
100
AcDbEntity
  8
STEMPEL
100
AcDbLine
 10
398.0125622428922
 20
367.0314964055956
 30
0.0
 11
398.0125622428923
 21
361.0314964055957
 31
0.0
  0
CIRCLE
  5
B00
102
{ACAD_REACTORS
330
AEA
330
B9E
102
}
330
1E
100
AcDbEntity
  8
STEMPEL
100
AcDbCircle
 10
401.5125622428922
 20
364.0314964055956
 30
0.0
 40
3.5
  0
LINE
  5
B01
102
{ACAD_REACTORS
330
AEB
102
}
330
1E
100
AcDbEntity
  8
STEMPEL
100
AcDbLine
 10
402.0125622428922
 20
368.0314964055956
 30
0.0
 11
399.0125622428922
 21
368.0314964055956
 31
0.0
  0
LINE
  5
B02
102
{ACAD_REACTORS
330
AEB
102
}
330
1E
100
AcDbEntity
  8
STEMPEL
100
AcDbLine
 10
402.0125622428922
 20
360.0314964055956
 30
0.0
 11
399.0125622428923
 21
360.0314964055957
 31
0.0
  0
LINE
  5
B03
102
{ACAD_REACTORS
330
AEB
102
}
330
1E
100
AcDbEntity
  8
STEMPEL
100
AcDbLine
 10
402.0125622428922
 20
373.0314964055957
 30
0.0
 11
402.0125622428922
 21
368.0314964055956
 31
0.0
  0
LINE
  5
B04
102
{ACAD_REACTORS
330
AEB
102
}
330
1E
100
AcDbEntity
  8
STEMPEL
100
AcDbLine
 10
392.2625622428923
 20
378.9314964055957
 30
0.0
 11
392.2625622428922
 21
377.9314964055957
 31
0.0
  0
LINE
  5
B05
102
{ACAD_REACTORS
330
AEB
102
}
330
1E
100
AcDbEntity
  8
STEMPEL
100
AcDbLine
 10
392.2625622428922
 20
377.9314964055957
 30
0.0
 11
394.2625622428923
 21
372.4365415666863
 31
0.0
  0
LINE
  5
B06
102
{ACAD_REACTORS
330
AEB
102
}
330
1E
100
AcDbEntity
  8
STEMPEL
100
AcDbLine
 10
399.0125622428923
 20
378.9314964055957
 30
0.0
 11
392.2625622428923
 21
378.9314964055957
 31
0.0
  0
POINT
  5
B07
330
1E
100
AcDbEntity
  8
STEMPEL
100
AcDbPoint
 10
401.3714414393005
 20
358.5640335169443
 30
0.0
  0
POINT
  5
B08
330
1E
100
AcDbEntity
  8
STEMPEL
100
AcDbPoint
 10
401.4660959786458
 20
358.6577279829616
 30
0.0
  0
POINT
  5
B09
330
1E
100
AcDbEntity
  8
STEMPEL
100
AcDbPoint
 10
401.4159056268325
 20
358.6064955821744
 30
0.0
  0
POINT
  5
B0A
330
1E
100
AcDbEntity
  8
STEMPEL
100
AcDbPoint
 10
400.0125622428923
 20
358.0314964055956
 30
0.0
  0
POINT
  5
B0B
330
1E
100
AcDbEntity
  8
STEMPEL
100
AcDbPoint
 10
400.0125622428923
 20
358.0314964055956
 30
0.0
  0
LINE
  5
B0C
102
{ACAD_REACTORS
330
AEB
102
}
330
1E
100
AcDbEntity
  8
STEMPEL
100
AcDbLine
 10
400.0125622428923
 20
358.0314964055956
 30
0.0
 11
394.2625622428922
 21
358.0314964055956
 31
0.0
  0
ARC
  5
B0D
102
{ACAD_REACTORS
330
AEB
102
}
330
1E
100
AcDbEntity
  8
STEMPEL
100
AcDbCircle
 10
400.0125622428923
 20
360.0314964055956
 30
0.0
 40
2.0
100
AcDbArc
 50
270.0
 51
0.0
  0
LINE
  5
B0E
102
{ACAD_REACTORS
330
AEB
102
}
330
1E
100
AcDbEntity
  8
STEMPEL
100
AcDbLine
 10
394.2625622428923
 20
372.4365415666863
 30
0.0
 11
394.2625622428922
 21
358.0314964055956
 31
0.0
  0
ARC
  5
B0F
330
1E
100
AcDbEntity
  8
STEMPEL
100
AcDbCircle
 10
408.9431194402733
 20
377.0355735962219
 30
0.0
 40
4.0
100
AcDbArc
 50
142.6684147984943
 51
152.5871704346633
  0
LINE
  5
B10
330
1E
100
AcDbEntity
  8
MITTEL
100
AcDbLine
 10
404.7625622428922
 20
387.0314964055957
 30
0.0
 11
404.7625622428922
 21
375.5478063833634
 31
0.0
  0
LINE
  5
B12
102
{ACAD_REACTORS
330
AEB
102
}
330
1E
100
AcDbEntity
  8
STEMPEL
100
AcDbLine
 10
405.7625622428922
 20
383.0314964055957
 30
0.0
 11
405.7625622428922
 21
379.4612808980592
 31
0.0
  0
LINE
  5
B13
102
{ACAD_REACTORS
330
AEB
102
}
330
1E
100
AcDbEntity
  8
STEMPEL
100
AcDbLine
 10
403.7625622428922
 20
383.0314964055957
 30
0.0
 11
403.7625622428922
 21
376.0625853188411
 31
0.0
  0
LINE
  5
B14
102
{ACAD_REACTORS
330
AEB
102
}
330
1E
100
AcDbEntity
  8
STEMPEL
100
AcDbLine
 10
411.7625622428922
 20
384.0314964055957
 30
0.0
 11
408.7625622428922
 21
381.0314964055956
 31
0.0
  0
LINE
  5
B15
102
{ACAD_REACTORS
330
AEB
102
}
330
1E
100
AcDbEntity
  8
STEMPEL
100
AcDbLine
 10
399.0125622428923
 20
382.6850862440819
 30
0.0
 11
399.0125622428923
 21
378.9314964055957
 31
0.0
  0
POINT
  5
B16
330
1E
100
AcDbEntity
  8
STEMPEL
100
AcDbPoint
 10
308.7125622428922
 20
384.0314964055957
 30
0.0
  0
POINT
  5
B17
330
1E
100
AcDbEntity
  8
STEMPEL
100
AcDbPoint
 10
308.5125622428923
 20
382.6850862440819
 30
0.0
  0
LINE
  5
B18
102
{ACAD_REACTORS
330
AEB
102
}
330
1E
100
AcDbEntity
  8
STEMPEL
100
AcDbLine
 10
308.7125622428922
 20
383.0314964055957
 30
0.0
 11
308.5125622428923
 21
382.6850862440819
 31
0.0
  0
LINE
  5
B19
102
{ACAD_REACTORS
330
AEB
102
}
330
1E
100
AcDbEntity
  8
STEMPEL
100
AcDbLine
 10
308.7125622428922
 20
384.0314964055957
 30
0.0
 11
308.7125622428922
 21
383.0314964055957
 31
0.0
  0
LINE
  5
B1A
102
{ACAD_REACTORS
330
AEB
102
}
330
1E
100
AcDbEntity
  8
STEMPEL
100
AcDbLine
 10
315.2625622428922
 20
378.9314964055957
 30
0.0
 11
315.2625622428922
 21
377.9314964055957
 31
0.0
  0
LINE
  5
B1B
102
{ACAD_REACTORS
330
AEB
102
}
330
1E
100
AcDbEntity
  8
STEMPEL
100
AcDbLine
 10
315.2625622428922
 20
377.9314964055957
 30
0.0
 11
313.2625622428923
 21
372.4365415666864
 31
0.0
  0
LINE
  5
B1C
102
{ACAD_REACTORS
330
AEB
102
}
330
1E
100
AcDbEntity
  8
STEMPEL
100
AcDbLine
 10
309.5125622428923
 20
367.0314964055956
 30
0.0
 11
309.5125622428923
 21
361.0314964055956
 31
0.0
  0
POINT
  5
B1D
330
1E
100
AcDbEntity
  8
STEMPEL
100
AcDbPoint
 10
305.5125622428923
 20
373.0314964055957
 30
0.0
  0
POINT
  5
B1E
330
1E
100
AcDbEntity
  8
STEMPEL
100
AcDbPoint
 10
305.5125622428923
 20
373.0314964055957
 30
0.0
  0
POINT
  5
B1F
330
1E
100
AcDbEntity
  8
STEMPEL
100
AcDbPoint
 10
302.135326486615
 20
378.881040324606
 30
0.0
  0
LINE
  5
B20
102
{ACAD_REACTORS
330
AEB
102
}
330
1E
100
AcDbEntity
  8
STEMPEL
100
AcDbLine
 10
305.5125622428923
 20
373.0314964055956
 30
0.0
 11
302.0461066606489
 21
379.0355735962219
 31
0.0
  0
POINT
  5
B21
330
1E
100
AcDbEntity
  8
STEMPEL
100
AcDbPoint
 10
305.5125622428923
 20
368.0314964055956
 30
0.0
  0
LINE
  5
B22
102
{ACAD_REACTORS
330
AEB
102
}
330
1E
100
AcDbEntity
  8
STEMPEL
100
AcDbLine
 10
308.5125622428923
 20
368.0314964055956
 30
0.0
 11
305.5125622428923
 21
368.0314964055956
 31
0.0
  0
POINT
  5
B23
330
1E
100
AcDbEntity
  8
STEMPEL
100
AcDbPoint
 10
305.5125622428923
 20
360.0314964055957
 30
0.0
  0
LINE
  5
B24
102
{ACAD_REACTORS
330
AEB
102
}
330
1E
100
AcDbEntity
  8
STEMPEL
100
AcDbLine
 10
308.5125622428922
 20
360.0314964055956
 30
0.0
 11
305.5125622428923
 21
360.0314964055957
 31
0.0
  0
LINE
  5
B25
102
{ACAD_REACTORS
330
AEB
102
}
330
1E
100
AcDbEntity
  8
STEMPEL
100
AcDbLine
 10
305.5125622428923
 20
373.0314964055956
 30
0.0
 11
305.5125622428923
 21
368.0314964055956
 31
0.0
  0
CIRCLE
  5
B26
102
{ACAD_REACTORS
330
AEA
330
B9E
102
}
330
1E
100
AcDbEntity
  8
STEMPEL
100
AcDbCircle
 10
306.0125622428923
 20
364.0314964055957
 30
0.0
 40
3.5
  0
ARC
  5
B27
102
{ACAD_REACTORS
330
AEB
102
}
330
1E
100
AcDbEntity
  8
STEMPEL
100
AcDbCircle
 10
308.5125622428923
 20
361.0314964055957
 30
0.0
 40
1.0
100
AcDbArc
 50
270.0
 51
0.0
  0
ARC
  5
B28
102
{ACAD_REACTORS
330
AEB
102
}
330
1E
100
AcDbEntity
  8
STEMPEL
100
AcDbCircle
 10
308.5125622428923
 20
367.0314964055956
 30
0.0
 40
1.0
100
AcDbArc
 50
0.0
 51
90.0
  0
ARC
  5
B29
102
{ACAD_REACTORS
330
AEB
102
}
330
1E
100
AcDbEntity
  8
STEMPEL
100
AcDbCircle
 10
307.5125622428923
 20
360.0314964055956
 30
0.0
 40
2.0
100
AcDbArc
 50
179.9999999999967
 51
270.0
  0
LINE
  5
B2A
102
{ACAD_REACTORS
330
AEB
102
}
330
1E
100
AcDbEntity
  8
STEMPEL
100
AcDbLine
 10
313.2625622428923
 20
372.4365415666864
 30
0.0
 11
313.2625622428923
 21
358.0314964055956
 31
0.0
  0
ARC
  5
B2B
102
{ACAD_REACTORS
330
AEB
102
}
330
1E
100
AcDbEntity
  8
STEMPEL
100
AcDbCircle
 10
298.5820050455112
 20
377.0355735962219
 30
0.0
 40
4.0
100
AcDbArc
 50
30.00000000000055
 51
87.41282956533897
  0
LINE
  5
B2C
102
{ACAD_REACTORS
330
AEB
102
}
330
1E
100
AcDbEntity
  8
STEMPEL
100
AcDbLine
 10
295.7625622428923
 20
384.0314964055957
 30
0.0
 11
298.7625622428922
 21
381.0314964055957
 31
0.0
  0
LINE
  5
B2D
102
{ACAD_REACTORS
330
AEB
102
}
330
1E
100
AcDbEntity
  8
STEMPEL
100
AcDbLine
 10
308.5125622428923
 20
382.6850862440819
 30
0.0
 11
308.5125622428923
 21
378.9314964055957
 31
0.0
  0
LINE
  5
B2E
102
{ACAD_REACTORS
330
AEB
102
}
330
1E
100
AcDbEntity
  8
STEMPEL
100
AcDbLine
 10
394.2625622428922
 20
358.0314964055956
 30
0.0
 11
307.5125622428923
 21
358.0314964055956
 31
0.0
  0
LINE
  5
B2F
102
{ACAD_REACTORS
330
AEB
102
}
330
1E
100
AcDbEntity
  8
STEMPEL
100
AcDbLine
 10
392.2625622428923
 20
378.9314964055957
 30
0.0
 11
308.5125622428923
 21
378.9314964055957
 31
0.0
  0
LINE
  5
B30
102
{ACAD_REACTORS
330
AEB
102
}
330
1E
100
AcDbEntity
  8
STEMPEL
100
AcDbLine
 10
398.8125622428922
 20
384.0314964055957
 30
0.0
 11
295.7625622428923
 21
384.0314964055957
 31
0.0
  0
LINE
  5
B31
330
1E
100
AcDbEntity
  8
STEMPEL
100
AcDbLine
 10
313.2625622428923
 20
372.4365415666864
 30
0.0
 11
394.2625622428923
 21
372.4365415666863
 31
0.0
  0
LINE
  5
B32
330
1E
100
AcDbEntity
  8
STEMPEL
100
AcDbLine
 10
392.2625622428922
 20
377.9314964055957
 30
0.0
 11
315.2625622428922
 21
377.9314964055957
 31
0.0
  0
LINE
  5
B33
330
1E
100
AcDbEntity
  8
STEMPEL
100
AcDbLine
 10
308.5125622428923
 20
382.6850862440819
 30
0.0
 11
399.0125622428923
 21
382.6850862440819
 31
0.0
  0
LINE
  5
B34
330
1E
100
AcDbEntity
  8
STEMPEL
100
AcDbLine
 10
398.8125622428922
 20
383.0314964055956
 30
0.0
 11
308.7125622428922
 21
383.0314964055956
 31
0.0
  0
LINE
  5
B35
102
{ACAD_REACTORS
330
B9E
102
}
330
1E
100
AcDbEntity
  8
STEMPEL
100
AcDbLine
 10
289.4488537439076
 20
383.0314964055957
 30
0.0
 11
205.1929576323233
 21
383.0314964055958
 31
0.0
  0
ARC
  5
B36
102
{ACAD_REACTORS
330
B9E
102
}
330
1E
100
AcDbEntity
  8
STEMPEL
100
AcDbCircle
 10
383.7625622428923
 20
365.0314964055957
 30
0.0
 40
21.0
100
AcDbArc
 50
0.8309537544566484
 51
16.65737706073938
  0
LINE
  5
B37
102
{ACAD_REACTORS
330
B9E
102
}
330
1E
100
AcDbEntity
  8
STEMPEL
100
AcDbLine
 10
403.409436241705
 20
372.6282287343519
 30
0.0
 11
403.881318250015
 21
371.051102433058
 31
0.0
  0
ARC
  5
B38
102
{ACAD_REACTORS
330
B9E
102
}
330
1E
100
AcDbEntity
  8
STEMPEL
100
AcDbCircle
 10
406.7625622428922
 20
373.6314964055957
 30
0.0
 40
3.5
100
AcDbArc
 50
180.0
 51
196.6573770607382
  0
ARC
  5
B39
102
{ACAD_REACTORS
330
B9E
102
}
330
1E
100
AcDbEntity
  8
STEMPEL
100
AcDbCircle
 10
406.7625622428922
 20
373.7176370672328
 30
0.0
 40
3.5
100
AcDbArc
 50
160.2500772043241
 51
180.0
  0
ARC
  5
B3A
102
{ACAD_REACTORS
330
B9E
102
}
330
1E
100
AcDbEntity
  8
STEMPEL
100
AcDbCircle
 10
410.7625622428922
 20
372.2814964055957
 30
0.0
 40
7.75
100
AcDbArc
 50
119.8121253911327
 51
160.2500772043246
  0
ARC
  5
B3B
102
{ACAD_REACTORS
330
B9E
102
}
330
1E
100
AcDbEntity
  8
STEMPEL
100
AcDbCircle
 10
418.0762707418769
 20
375.0314964055957
 30
0.0
 40
9.0
100
AcDbArc
 50
90.0
 51
119.8121253911325
  0
LINE
  5
B3C
102
{ACAD_REACTORS
330
B9E
102
}
330
1E
100
AcDbEntity
  8
STEMPEL
100
AcDbLine
 10
413.6018524016073
 20
382.8404387485932
 30
0.0
 11
406.9095908943267
 21
379.0058634231769
 31
0.0
  0
LINE
  5
B3D
102
{ACAD_REACTORS
330
B9E
102
}
330
1E
100
AcDbEntity
  8
STEMPEL
100
AcDbLine
 10
414.0990099949706
 20
381.9727784882601
 30
0.0
 11
407.4067484876899
 21
378.1382031628438
 31
0.0
  0
LINE
  5
B3E
330
1E
100
AcDbEntity
  8
STEMPEL
100
AcDbLine
 10
298.5593632063631
 20
379.0314964055957
 30
0.0
 11
296.7625622428922
 21
379.0314964055957
 31
0.0
  0
ARC
  5
B3F
102
{ACAD_REACTORS
330
B9E
102
}
330
1E
100
AcDbEntity
  8
STEMPEL
100
AcDbCircle
 10
396.675733813037
 20
363.5314964055957
 30
0.0
 40
8.0
100
AcDbArc
 50
335.9596622329144
 51
353.3741904351755
  0
LINE
  5
B40
102
{ACAD_REACTORS
330
B9E
102
}
330
1E
100
AcDbEntity
  8
STEMPEL
100
AcDbLine
 10
400.3287693240293
 20
357.901977594588
 30
0.0
 11
307.1963551617551
 21
357.901977594588
 31
0.0
  0
ARC
  5
B41
102
{ACAD_REACTORS
330
B9E
102
}
330
1E
100
AcDbEntity
  8
STEMPEL
100
AcDbCircle
 10
400.3287693240293
 20
361.901977594588
 30
0.0
 40
4.0
100
AcDbArc
 50
270.0
 51
335.9596622329146
  0
ARC
  5
B42
102
{ACAD_REACTORS
330
B9E
102
}
330
1E
100
AcDbEntity
  8
STEMPEL
100
AcDbCircle
 10
400.3287693240293
 20
361.901977594588
 30
0.0
 40
5.0
100
AcDbArc
 50
270.0
 51
335.9596622329146
  0
ARC
  5
B43
102
{ACAD_REACTORS
330
B9E
102
}
330
1E
100
AcDbEntity
  8
STEMPEL
100
AcDbCircle
 10
289.4488537439076
 20
375.0314964055957
 30
0.0
 40
9.0
100
AcDbArc
 50
60.18787460886742
 51
90.0
  0
ARC
  5
B45
102
{ACAD_REACTORS
330
B9E
102
}
330
1E
100
AcDbEntity
  8
STEMPEL
100
AcDbCircle
 10
296.7625622428924
 20
372.2814964055957
 30
0.0
 40
7.75
100
AcDbArc
 50
19.74992279567537
 51
60.18787460886752
  0
LINE
  5
B46
102
{ACAD_REACTORS
330
B9E
102
}
330
1E
100
AcDbEntity
  8
STEMPEL
100
AcDbLine
 10
293.9232720841772
 20
382.8404387485932
 30
0.0
 11
300.6155335914578
 21
379.0058634231769
 31
0.0
  0
LINE
  5
B47
102
{ACAD_REACTORS
330
B9E
102
}
330
1E
100
AcDbEntity
  8
STEMPEL
100
AcDbLine
 10
293.4261144908139
 20
381.9727784882601
 30
0.0
 11
300.1183759980946
 21
378.1382031628438
 31
0.0
  0
LINE
  5
B48
102
{ACAD_REACTORS
330
B9E
102
}
330
1E
100
AcDbEntity
  8
STEMPEL
100
AcDbLine
 10
502.0257866155593
 20
384.0314964055957
 30
0.0
 11
418.0762707418769
 21
384.0314964055957
 31
0.0
  0
ARC
  5
B49
102
{ACAD_REACTORS
330
B9E
102
}
330
1E
100
AcDbEntity
  8
STEMPEL
100
AcDbCircle
 10
300.7625622428923
 20
373.7176370672328
 30
0.0
 40
3.5
100
AcDbArc
 50
0.000000000000007
 51
19.74992279567586
  0
ARC
  5
B4A
102
{ACAD_REACTORS
330
B9E
102
}
330
1E
100
AcDbEntity
  8
STEMPEL
100
AcDbCircle
 10
300.7625622428923
 20
373.6314964055957
 30
0.0
 40
3.5
100
AcDbArc
 50
343.3426229392618
 51
0.000000000000007
  0
LINE
  5
B4B
102
{ACAD_REACTORS
330
B9E
102
}
330
1E
100
AcDbEntity
  8
STEMPEL
100
AcDbLine
 10
304.1156882440795
 20
372.6282287343519
 30
0.0
 11
303.6438062357695
 21
371.051102433058
 31
0.0
  0
ARC
  5
B4C
102
{ACAD_REACTORS
330
B9E
102
}
330
1E
100
AcDbEntity
  8
STEMPEL
100
AcDbCircle
 10
323.7625622428923
 20
365.0314964055957
 30
0.0
 40
21.0
100
AcDbArc
 50
163.3426229392606
 51
179.169046245543
  0
ARC
  5
B4D
102
{ACAD_REACTORS
330
B9E
102
}
330
1E
100
AcDbEntity
  8
STEMPEL
100
AcDbCircle
 10
310.8493906727476
 20
363.5314964055957
 30
0.0
 40
8.0
100
AcDbArc
 50
186.6258095648245
 51
204.0403377670855
  0
ARC
  5
B4E
102
{ACAD_REACTORS
330
B9E
102
}
330
1E
100
AcDbEntity
  8
STEMPEL
100
AcDbCircle
 10
307.1963551617551
 20
361.901977594588
 30
0.0
 40
4.0
100
AcDbArc
 50
204.0403377670857
 51
270.0
  0
ARC
  5
B4F
102
{ACAD_REACTORS
330
B9E
102
}
330
1E
100
AcDbEntity
  8
STEMPEL
100
AcDbCircle
 10
307.1963551617551
 20
361.901977594588
 30
0.0
 40
5.0
100
AcDbArc
 50
204.0403377670857
 51
270.0
  0
HATCH
  5
B9E
330
1E
100
AcDbEntity
  8
SCHRAFF
100
AcDbHatch
 10
0.0
 20
0.0
 30
0.0
210
0.0
220
0.0
230
1.0
  2
NET
 70
     0
 71
     1
 91
        4
 92
        7
 72
     0
 73
     1
 93
        4
 10
523.7625622428923
 20
383.0314964055956
 10
523.7625622428923
 20
384.0314964055957
 10
503.0257866155591
 20
384.0314964055957
 10
502.757837423128
 20
383.0314964055957
 97
        4
330
A7E
330
A93
330
567
330
A80
 92
        7
 72
     1
 73
     1
 93
       27
 10
501.7578374231281
 20
383.0314964055956
 42
0.0
 10
502.0257866155592
 20
384.0314964055957
 42
0.0
 10
418.0762707418769
 20
384.0314964055957
 42
0.1308186214179442
 10
413.6018524016074
 20
382.8404387485932
 42
0.0
 10
406.9095908943267
 20
379.0058634231769
 42
0.178297985477242
 10
403.4684445958348
 20
374.9003411415216
 42
0.0894895723998248
 10
403.2628272605538
 20
373.6745667364132
 42
0.0759033142298033
 10
403.409436241705
 20
372.6282287343519
 42
0.0
 10
403.881318250015
 20
371.051102433058
 42
-0.0691657775375908
 10
404.7603537798757
 20
365.3360461870523
 42
-0.0957781917611653
 10
405.0125622428923
 20
364.0314964055956
 42
-0.1247310581123101
 10
404.5901875191955
 20
362.364696280008
 42
-0.0684091467547773
 10
403.9818048350218
 20
360.2724587835804
 42
-0.2960220549713827
 10
400.3287693240292
 20
357.901977594588
 42
0.0
 10
398.7625622428923
 20
357.901977594588
 42
0.0
 10
398.7625622428923
 20
356.9019775945879
 42
0.0
 10
400.3287693240294
 20
356.9019775945879
 42
0.2960220549713651
 10
404.8950637127699
 20
359.8650790808282
 42
0.0761317921794737
 10
405.6156218231373
 20
362.4930348671339
 42
0.1019430245146344
 10
404.8393542503542
 20
371.3377503391277
 42
0.0
 10
404.3674722420442
 20
372.9148766404216
 42
-0.0728097721655565
 10
404.2625622428921
 20
373.6314964055957
 42
0.0
 10
404.2625622428921
 20
373.7176370672328
 42
-0.0863895110096339
 10
404.4096219475587
 20
374.5624281459002
 42
-0.1782978858307108
 10
407.40674848769
 20
378.1382031628439
 42
0.0
 10
414.0990099949707
 20
381.9727784882601
 42
-0.1308186214179428
 10
418.0762707418769
 20
383.0314964055957
 42
0.0
 97
       26
330
B48
330
B3B
330
B3C
330
B3A
330
B39
330
B38
330
B37
330
B36
330
B00
330
B3F
330
B41
330
B40
330
A7D
330
53D
330
B42
330
51C
330
509
330
502
330
504
330
503
330
505
330
50A
330
B3D
330
542
330
A8A
330
A94
 92
        7
 72
     1
 73
     1
 93
       27
 10
289.4488537439076
 20
383.0314964055957
 42
-0.1308186214179428
 10
293.4261144908138
 20
381.9727784882601
 42
0.0
 10
300.1183759980945
 20
378.1382031628439
 42
-0.1782978828563625
 10
303.1155025119248
 20
374.5624282191549
 42
-0.0863895188510103
 10
303.2625622428923
 20
373.717637067233
 42
0.0
 10
303.2625622428923
 20
373.6314964055957
 42
-0.0728097721655507
 10
303.1576522437403
 20
372.9148766404216
 42
0.0
 10
302.6857702354303
 20
371.3377503391277
 42
0.1019430245146386
 10
301.909502662647
 20
362.4930348671336
 42
0.076131792179475
 10
302.6300607730146
 20
359.8650790808278
 42
0.2960220549713463
 10
307.196355161755
 20
356.9019775945879
 42
0.0
 10
308.7625622428923
 20
356.9019775945879
 42
0.0
 10
308.7625622428922
 20
357.901977594588
 42
0.0
 10
307.1963551617551
 20
357.901977594588
 42
-0.2960220549713771
 10
303.5433196507627
 20
360.2724587835804
 42
-0.0684091467547823
 10
302.9349369665889
 20
362.3646962800082
 42
-0.1247310581123008
 10
302.5125622428923
 20
364.0314964055957
 42
-0.0957781917611702
 10
302.7647707059089
 20
365.3360461870524
 42
-0.0691657775375887
 10
303.6438062357695
 20
371.051102433058
 42
0.0
 10
304.1156882440795
 20
372.6282287343519
 42
0.0759033142297424
 10
304.2622972252308
 20
373.6745667364124
 42
0.0894893294871543
 10
304.0566810299946
 20
374.9003379662178
 42
0.1782980977679703
 10
300.6155335914578
 20
379.0058634231769
 42
0.0
 10
293.9232720841772
 20
382.8404387485932
 42
0.130818621417948
 10
289.4488537439075
 20
384.0314964055957
 42
0.0
 10
205.4609068247545
 20
384.0314964055958
 42
0.0
 10
205.1929576323233
 20
383.0314964055957
 42
0.0
 97
       26
330
A89
330
A95
330
B35
330
91F
330
B47
330
924
330
928
330
92A
330
929
330
92B
330
92D
330
92F
330
B4F
330
53D
330
A7C
330
B40
330
B4E
330
B4D
330
B26
330
B4C
330
B4B
330
B4A
330
B49
330
B45
330
B46
330
B43
 92
        7
 72
     0
 73
     1
 93
        4
 10
204.1929576323233
 20
383.0314964055958
 10
204.4609068247545
 20
384.0314964055957
 10
183.7625622428923
 20
384.0314964055958
 10
183.7625622428922
 20
383.0314964055956
 97
        4
330
A97
330
A7F
330
A98
330
A96
 75
     0
 76
     1
 52
45.0
 41
8.0
 77
     0
 78
     2
 53
45.0
 43
0.0
 44
0.0
 45
-0.7071067811865475
 46
0.7071067811865476
 79
     0
 53
135.0
 43
0.0
 44
0.0
 45
-0.7071067811865476
 46
-0.7071067811865475
 79
     0
 47
0.4361338005267785
 98
        4
 10
515.3322991372986
 20
383.4005930171036
 10
496.1288391198584
 20
383.4005930171036
 10
218.5515575816992
 20
383.4005930171036
 10
195.856557989777
 20
383.4005930171036
  0
DIMENSION
  5
B9F
330
1E
100
AcDbEntity
  8
BEM
100
AcDbDimension
  2
*D2
 10
468.7625622428922
 20
395.0025094460377
 30
0.0
 11
353.7625622428923
 21
401.5025094460376
 31
0.0
 70
    32
  1
%%c<>
 71
     5
 42
229.9999999999999
  3
Standard
100
AcDbAlignedDimension
 13
238.7625622428923
 23
379.5314964055957
 33
0.0
 14
468.7625622428922
 24
379.5314964055957
 34
0.0
100
AcDbRotatedDimension
1001
ACAD
1000
DSTYLE
1002
{
1070
    40
1040
2.0
1070
    41
1040
3.5
1070
    42
1040
1.0
1070
    43
1040
7.0
1070
    44
1040
1.0
1070
    73
1070
     0
1070
    74
1070
     0
1070
    77
1070
     1
1070
    78
1070
     8
1070
    79
1070
     2
1070
   140
1040
3.5
1070
   141
1040
1.5
1070
   146
1040
0.5
1070
   147
1040
1.5
1070
   172
1070
     1
1070
   178
1070
     1
1070
   179
1070
     2
1070
   271
1070
     2
1070
   272
1070
     2
1070
   284
1070
     8
1070
   285
1070
     8
1070
   286
1070
     8
1002
}
  0
DIMENSION
  5
BAC
330
1E
100
AcDbEntity
  8
BEM
100
AcDbDimension
  2
*D3
 10
523.7625622428923
 20
408.8028361703513
 30
0.0
 11
356.9411691556382
 21
408.8028361703513
 31
0.0
 70
   160
 71
     5
 42
340.0
  3
Standard
100
AcDbAlignedDimension
 13
183.7625622428922
 23
384.0314964055957
 33
0.0
 14
523.7625622428923
 24
384.0314964055957
 34
0.0
100
AcDbRotatedDimension
1001
ACAD
1000
DSTYLE
1002
{
1070
    40
1040
2.0
1070
    41
1040
3.5
1070
    42
1040
1.0
1070
    43
1040
7.0
1070
    44
1040
1.0
1070
    73
1070
     0
1070
    74
1070
     0
1070
    77
1070
     1
1070
    78
1070
     8
1070
    79
1070
     2
1070
   140
1040
3.5
1070
   141
1040
1.5
1070
   146
1040
0.5
1070
   147
1040
1.5
1070
   172
1070
     1
1070
   178
1070
     1
1070
   179
1070
     2
1070
   271
1070
     2
1070
   272
1070
     2
1070
   284
1070
     8
1070
   285
1070
     8
1070
   286
1070
     8
1002
}
  0
LWPOLYLINE
  5
BE6
330
1E
100
AcDbEntity
  8
VOLL
100
AcDbPolyline
 90
        4
 70
     1
 43
0.0
 10
341.9060367590744
 20
418.8395023086391
 10
341.9060367590744
 20
411.8395023086391
 10
348.9060367590744
 20
411.8395023086391
 10
348.9060367590744
 20
418.8395023086391
  0
LINE
  5
C06
330
1E
100
AcDbEntity
  8
STEMPEL
100
AcDbLine
 10
239.3964896355033
 20
378.1720347250407
 30
0.0
 11
295.5007035798875
 21
378.1720347250407
 31
0.0
  0
TEXT
  5
C6E
330
1E
100
AcDbEntity
  8
TEXT
 62
     1
100
AcDbText
 10
414.2916438354755
 20
442.7171032298537
 30
0.0
 40
7.0
  1
Klemmring
 41
0.8
  7
GREEKS
100
AcDbText
  0
LINE
  5
C6F
330
1E
100
AcDbEntity
  8
TEXT
 62
     2
100
AcDbLine
 10
414.086206604175
 20
439.7605648656419
 30
0.0
 11
407.4419090616478
 21
410.6109391464118
 31
0.0
  0
LINE
  5
C70
330
1E
100
AcDbEntity
  8
TEXT
 62
     2
100
AcDbLine
 10
414.086206604175
 20
439.7605648656419
 30
0.0
 11
519.1037450363685
 21
439.7605648656419
 31
0.0
  0
TEXT
  5
C71
330
1E
100
AcDbEntity
  8
TEXT
 62
     1
100
AcDbText
 10
414.2916438354755
 20
430.4862887008946
 30
0.0
 40
7.0
  1
EDV-Art.Nr. 15592.000X
 41
0.8
  7
GREEKS
100
AcDbText
  0
LINE
  5
C72
330
1E
100
AcDbEntity
  8
TEXT
 62
     2
100
AcDbLine
 10
217.2376761331009
 20
439.7605648656419
 30
0.0
 11
213.1987230490381
 21
410.58544315938
 31
0.0
  0
LINE
  5
C73
330
1E
100
AcDbEntity
  8
TEXT
 62
     2
100
AcDbLine
 10
217.2376761331009
 20
439.7605648656419
 30
0.0
 11
322.2552145652942
 21
439.7605648656419
 31
0.0
  0
TEXT
  5
C74
330
1E
100
AcDbEntity
  8
TEXT
 62
     1
100
AcDbText
 10
217.4431133644014
 20
442.7171032298537
 30
0.0
 40
7.0
  1
Anschlußmanschette
 41
0.8
  7
GREEKS
100
AcDbText
  0
TEXT
  5
C75
330
1E
100
AcDbEntity
  8
TEXT
 62
     1
100
AcDbText
 10
217.4431133644014
 20
430.4862887008946
 30
0.0
 40
7.0
  1
EDV-Art.Nr. 15004.000X
 41
0.8
  7
GREEKS
100
AcDbText
  0
TEXT
  5
C76
330
1E
100
AcDbEntity
  8
TEXT
 62
     1
100
AcDbText
 10
188.0395766115323
 20
230.484031971771
 30
0.0
 40
7.0
  1
Ablauftopf DN70
 41
0.8
  7
GREEKS
100
AcDbText
  0
LINE
  5
C77
330
1E
100
AcDbEntity
  8
TEXT
 62
     2
100
AcDbLine
 10
187.8341393802318
 20
227.5274936075591
 30
0.0
 11
292.8516778124254
 21
227.5274936075591
 31
0.0
  0
TEXT
  5
C78
330
1E
100
AcDbEntity
  8
TEXT
 62
     1
100
AcDbText
 10
188.0395766115323
 20
218.2532174428118
 30
0.0
 40
7.0
  1
EDV-Art.Nr. 15479.070X
 41
0.8
  7
GREEKS
100
AcDbText
  0
LINE
  5
C79
330
1E
100
AcDbEntity
  8
TEXT
 62
     2
100
AcDbLine
 10
333.0222803473065
 20
277.9760316424545
 30
0.0
 11
292.8516778124254
 21
227.5274936075591
 31
0.0
  0
LINE
  5
C7A
330
1E
100
AcDbEntity
  8
TEXT
 62
     2
100
AcDbLine
 10
406.5474978262943
 20
406.6870100052567
 30
0.0
 11
404.2944566908752
 21
396.8025481178805
 31
0.0
  0
LINE
  5
C7B
330
1E
100
AcDbEntity
  8
TEXT
 62
     2
100
AcDbLine
 10
403.4700789592674
 20
393.1858674719841
 30
0.0
 11
400.9511695814003
 21
382.134997893143
 31
0.0
  0
LINE
  5
C7C
330
1E
100
AcDbEntity
  8
TEXT
 62
     2
100
AcDbLine
 10
212.6624867845608
 20
406.7119744773177
 30
0.0
 11
209.4517401703222
 21
383.5193497330489
 31
0.0
  0
TEXT
  5
C7D
330
1E
100
AcDbEntity
  8
TEXT
100
AcDbText
 10
654.3410940884992
 20
62.10021383107525
 30
0.0
 40
5.0
  1
Auslauf seitlich
 41
0.8
  7
GREEKS
100
AcDbText
  0
LINE
  5
DE0
330
1E
100
AcDbEntity
  8
HILF
100
AcDbLine
 10
599.5538258635661
 20
337.3679579248414
 30
0.0
 11
595.9791334254484
 21
269.1587628965345
 31
0.0
  0
LINE
  5
DE1
330
1E
100
AcDbEntity
  8
STEMPEL
100
AcDbLine
 10
605.6453518285636
 20
338.9572618440185
 30
0.0
 11
601.8797726572211
 21
267.105730967173
 31
0.0
  0
LINE
  5
DE2
330
1E
100
AcDbEntity
  8
MITTEL
100
AcDbLine
 10
609.4469747570054
 20
302.7335889692023
 30
0.0
 11
353.7625622428923
 21
316.1334412263561
 31
0.0
  0
LINE
  5
DE3
330
1E
100
AcDbEntity
  8
STEMPEL
100
AcDbLine
 10
595.944260161486
 20
268.4933413801188
 30
0.0
 11
383.2361692587618
 21
279.6409000598658
 31
0.0
  0
LINE
  5
DE4
330
1E
100
AcDbEntity
  8
STEMPEL
100
AcDbLine
 10
548.7625622428923
 20
269.3638336372389
 30
0.0
 11
383.1524317287731
 21
278.0430928042585
 31
0.0
  0
LINE
  5
DE5
330
1E
100
AcDbEntity
  8
STEMPEL
100
AcDbLine
 10
595.8605226314973
 20
266.8955341245115
 30
0.0
 11
548.7625622428923
 21
269.3638336372389
 31
0.0
  0
LINE
  5
DE6
330
1E
100
AcDbEntity
  8
STEMPEL
100
AcDbLine
 10
595.944260161486
 20
268.4933413801188
 30
0.0
 11
601.9635101872097
 21
268.7035382227803
 31
0.0
  0
LINE
  5
DE7
330
1E
100
AcDbEntity
  8
STEMPEL
100
AcDbLine
 10
595.8605226314973
 20
266.8955341245115
 30
0.0
 11
601.8797726572211
 21
267.105730967173
 31
0.0
  0
LINE
  5
DE8
330
1E
100
AcDbEntity
  8
STEMPEL
100
AcDbLine
 10
599.6810474372324
 20
339.7954901615954
 30
0.0
 11
386.9729565345082
 21
350.9430488413425
 31
0.0
  0
LINE
  5
DE9
330
1E
100
AcDbEntity
  8
STEMPEL
100
AcDbLine
 10
599.5973099072436
 20
338.1976829059881
 30
0.0
 11
386.8892190045195
 21
349.3452415857352
 31
0.0
  0
LINE
  5
DEA
330
1E
100
AcDbEntity
  8
STEMPEL
100
AcDbLine
 10
599.6810474372324
 20
339.7954901615954
 30
0.0
 11
605.6453518285636
 21
338.9572618440185
 31
0.0
  0
LINE
  5
DEB
330
1E
100
AcDbEntity
  8
STEMPEL
100
AcDbLine
 10
599.5973099072436
 20
338.1976829059881
 30
0.0
 11
605.5616142985749
 21
337.3594545884112
 31
0.0
  0
INSERT
  5
DEC
330
1E
100
AcDbEntity
  8
SCHRAFF
100
AcDbBlockReference
  2
*X6
 10
88.1320356023707
 20
-111.731233422371
 30
0.0
1001
ACAD
1000
HATCH
1002
{
1070
    16
1000
_U,I
1040
2.0
1040
2.356194490192344
1070
     0
1002
}
  0
TEXT
  5
DED
330
1E
100
AcDbEntity
  8
TEXT
 62
     1
100
AcDbText
 10
497.432695440721
 20
319.5757976711019
 30
0.0
 40
7.0
  1
DN70
 50
357.0000000000009
 41
0.8
  7
GREEKS
100
AcDbText
  0
LINE
  5
DEE
330
1E
100
AcDbEntity
  8
HILF
100
AcDbLine
 10
386.8452100002215
 20
348.5054997592352
 30
0.0
 11
383.274627172614
 21
280.3747207708042
 31
0.0
  0
LINE
  5
DEF
102
{ACAD_REACTORS
330
E0B
102
}
330
1E
100
AcDbEntity
  8
STEMPEL
100
AcDbLine
 10
380.9370472921287
 20
350.4149752085629
 30
0.0
 11
377.1881273374419
 21
278.8813211218354
 31
0.0
  0
LINE
  5
DF0
330
1E
100
AcDbEntity
  8
STEMPEL
100
AcDbLine
 10
383.2361692587618
 20
279.6409000598658
 30
0.0
 11
377.2718648674306
 21
280.4791283774426
 31
0.0
  0
LINE
  5
DF1
102
{ACAD_REACTORS
330
E0B
102
}
330
1E
100
AcDbEntity
  8
STEMPEL
100
AcDbLine
 10
383.1524317287731
 20
278.0430928042585
 30
0.0
 11
377.1881273374419
 21
278.8813211218354
 31
0.0
  0
LINE
  5
DF2
330
1E
100
AcDbEntity
  8
STEMPEL
100
AcDbLine
 10
367.92944602208
 20
278.5314964055958
 30
0.0
 11
339.5956784637046
 21
278.5314964055958
 31
0.0
  0
LINE
  5
DF3
330
1E
100
AcDbEntity
  8
STEMPEL
100
AcDbLine
 10
367.92944602208
 20
277.0314964055958
 30
0.0
 11
339.5956784637047
 21
277.0314964055958
 31
0.0
  0
LINE
  5
DF4
330
1E
100
AcDbEntity
  8
STEMPEL
100
AcDbLine
 10
375.5827956486911
 20
278.4398006211964
 30
0.0
 11
370.548027433704
 21
278.7036616425488
 31
0.0
  0
ARC
  5
DF5
102
{ACAD_REACTORS
330
E0B
102
}
330
1E
100
AcDbEntity
  8
SCHRAFF
100
AcDbCircle
 10
376.4846630563259
 20
281.6753621615267
 30
0.0
 40
4.616979239721739
100
AcDbArc
 50
235.5312078222866
 51
316.6849502481245
  0
ARC
  5
DF6
102
{ACAD_REACTORS
330
E0B
102
}
330
1E
100
AcDbEntity
  8
STEMPEL
100
AcDbCircle
 10
367.92944602208
 20
298.5314964055957
 30
0.0
 40
21.5
100
AcDbArc
 50
270.0
 51
295.5469821985793
  0
ARC
  5
DF7
330
1E
100
AcDbEntity
  8
STEMPEL
100
AcDbCircle
 10
367.92944602208
 20
298.5314964055957
 30
0.0
 40
20.0
100
AcDbArc
 50
270.0
 51
297.9119474377829
  0
LINE
  5
DF8
330
1E
100
AcDbEntity
  8
STEMPEL
100
AcDbLine
 10
386.9729565345082
 20
350.9430488413425
 30
0.0
 11
380.9370472921287
 21
350.4149752085629
 31
0.0
  0
LINE
  5
DF9
330
1E
100
AcDbEntity
  8
STEMPEL
100
AcDbLine
 10
386.8892190045195
 20
349.3452415857348
 30
0.0
 11
380.85330976214
 21
348.8171679529552
 31
0.0
  0
INSERT
  5
DFA
330
1E
100
AcDbEntity
  8
SCHRAFF
100
AcDbBlockReference
  2
*X4
 10
14.16082479854344
 20
-16.93856696380709
 30
0.0
1001
ACAD
1000
HATCH
1002
{
1070
    16
1000
_U,I
1040
0.1
1040
2.356194490192344
1070
     0
1002
}
  0
LINE
  5
DFB
330
1E
100
AcDbEntity
  8
STEMPEL
100
AcDbLine
 10
405.2625622428923
 20
349.9845312222036
 30
0.0
 11
405.2625622428923
 21
355.7837959205619
 31
0.0
  0
LINE
  5
DFC
330
1E
100
AcDbEntity
  8
STEMPEL
100
AcDbLine
 10
403.7625622428923
 20
350.0631428911282
 30
0.0
 11
403.7625622428923
 21
355.7837959205619
 31
0.0
  0
ARC
  5
DFD
330
1E
100
AcDbEntity
  8
SCHRAFF
100
AcDbCircle
 10
403.5838340446756
 20
348.7137145575247
 30
0.0
 40
3.936642311443149
100
AcDbArc
 50
17.16305418078655
 51
64.75837320879818
  0
INSERT
  5
DFE
330
1E
100
AcDbEntity
  8
SCHRAFF
100
AcDbBlockReference
  2
*X5
 10
88.1320356023707
 20
-111.731233422371
 30
0.0
1001
ACAD
1000
HATCH
1002
{
1070
    16
1000
_U,I
1040
2.0
1040
0.7853981633974483
1070
     0
1002
}
  0
ARC
  5
DFF
330
1E
100
AcDbEntity
  8
STEMPEL
100
AcDbCircle
 10
353.7625622428923
 20
324.9757661816169
 30
0.0
 40
50.0
100
AcDbArc
 50
180.0
 51
241.8208868511799
  0
ARC
  5
E00
330
1E
100
AcDbEntity
  8
STEMPEL
100
AcDbCircle
 10
353.7625622428923
 20
324.9757661816169
 30
0.0
 40
51.5
100
AcDbArc
 50
180.0
 51
241.8208868511799
  0
ARC
  5
E01
330
1E
100
AcDbEntity
  8
STEMPEL
100
AcDbCircle
 10
339.5956784637047
 20
298.5314964055957
 30
0.0
 40
21.5
100
AcDbArc
 50
241.8208868511799
 51
270.0
  0
ARC
  5
E02
330
1E
100
AcDbEntity
  8
STEMPEL
100
AcDbCircle
 10
339.5956784637046
 20
298.5314964055957
 30
0.0
 40
20.0
100
AcDbArc
 50
241.8208868511799
 51
270.0
  0
LINE
  5
E03
330
1E
100
AcDbEntity
  8
STEMPEL
100
AcDbLine
 10
303.7625622428924
 20
324.9757661816169
 30
0.0
 11
303.7625622428924
 21
355.7837959205618
 31
0.0
  0
LINE
  5
E04
330
1E
100
AcDbEntity
  8
STEMPEL
100
AcDbLine
 10
302.2625622428923
 20
324.9757661816169
 30
0.0
 11
302.2625622428923
 21
355.7837959205619
 31
0.0
  0
LINE
  5
E05
330
1E
100
AcDbEntity
  8
STEMPEL
100
AcDbLine
 10
405.2625622428923
 20
355.7837959205619
 30
0.0
 11
403.7625622428923
 21
355.7837959205619
 31
0.0
  0
LINE
  5
E06
330
1E
100
AcDbEntity
  8
STEMPEL
100
AcDbLine
 10
303.7625622428924
 20
355.7837959205618
 30
0.0
 11
302.2625622428923
 21
355.7837959205619
 31
0.0
  0
HATCH
  5
E0B
330
1E
100
AcDbEntity
  8
SCHRAFF
100
AcDbHatch
 10
0.0
 20
0.0
 30
0.0
210
0.0
220
0.0
230
1.0
  2
_USER
 70
     0
 71
     1
 91
        1
 92
        7
 72
     1
 73
     1
 93
        4
 10
377.1881273374419
 20
278.8813211218354
 42
0.0
 10
377.2013439530549
 20
279.1335091708958
 42
-0.0414867685975289
 10
373.8716500971273
 20
277.8689648392439
 42
0.3696817945015159
 10
379.8439429402957
 20
278.5080705801947
 42
0.0
 97
        4
330
DEF
330
DF6
330
DF5
330
DF1
 75
     0
 76
     0
 52
0.0
 41
0.1
 77
     0
 78
     1
 53
0.0
 43
0.0
 44
0.0
 45
0.0
 46
0.1
 79
     0
 47
0.1886513960111014
 98
        1
 10
377.4198605263025
 20
278.5560783315311
  0
DIMENSION
  5
E15
330
1E
100
AcDbEntity
  8
BEM
100
AcDbDimension
  2
*D7
 10
226.9338683793305
 20
277.0314964055958
 30
0.0
 11
220.4338683793305
 21
330.0314964055958
 31
0.0
 70
    32
 71
     5
 42
106.0
  3
Standard
100
AcDbAlignedDimension
 13
246.2683364646758
 23
383.0314964055958
 33
0.0
 14
339.5956784637047
 24
277.0314964055958
 34
0.0
 50
90.0
100
AcDbRotatedDimension
1001
ACAD
1000
DSTYLE
1002
{
1070
    40
1040
2.0
1070
    41
1040
3.5
1070
    42
1040
1.0
1070
    43
1040
7.0
1070
    44
1040
1.0
1070
    73
1070
     0
1070
    74
1070
     0
1070
    77
1070
     1
1070
    78
1070
     8
1070
    79
1070
     2
1070
   140
1040
3.5
1070
   141
1040
1.5
1070
   146
1040
0.5
1070
   147
1040
1.5
1070
   172
1070
     1
1070
   178
1070
     1
1070
   179
1070
     2
1070
   271
1070
     2
1070
   272
1070
     2
1070
   284
1070
     8
1070
   285
1070
     8
1070
   286
1070
     8
1002
}
  0
DIMENSION
  5
E22
330
1E
100
AcDbEntity
  8
BEM
100
AcDbDimension
  2
*D8
 10
603.7625622428923
 20
242.2271571644849
 30
0.0
 11
478.7625622428922
 21
248.7271571644849
 31
0.0
 70
    32
 71
     5
 42
250.0000000000002
  3
Standard
100
AcDbAlignedDimension
 13
353.7625622428922
 23
272.0314964055957
 33
0.0
 14
603.7625622428923
 24
303.0314964055957
 34
0.0
100
AcDbRotatedDimension
1001
ACAD
1000
DSTYLE
1002
{
1070
    40
1040
2.0
1070
    41
1040
3.5
1070
    42
1040
1.0
1070
    43
1040
7.0
1070
    44
1040
1.0
1070
    73
1070
     0
1070
    74
1070
     0
1070
    77
1070
     1
1070
    78
1070
     8
1070
    79
1070
     2
1070
   140
1040
3.5
1070
   141
1040
1.5
1070
   146
1040
0.5
1070
   147
1040
1.5
1070
   172
1070
     1
1070
   178
1070
     1
1070
   179
1070
     2
1070
   271
1070
     2
1070
   272
1070
     2
1070
   284
1070
     8
1070
   285
1070
     8
1070
   286
1070
     8
1002
}
  0
DIMENSION
  5
E2F
330
1E
100
AcDbEntity
  8
BEM
100
AcDbDimension
  2
*D9
 10
621.3934140119272
 20
265.557411988588
 30
0.0
 11
616.8125844388899
 21
302.3475737227091
 31
0.0
 70
    33
  1
%%c<>
 71
     5
 42
73.00000000000011
  3
Standard
100
AcDbAlignedDimension
 13
599.6810474372324
 23
339.7954901615954
 33
0.0
 14
595.8605226314973
 24
266.8955341245115
 34
0.0
1001
ACAD
1000
DSTYLE
1002
{
1070
    40
1040
2.0
1070
    41
1040
3.5
1070
    42
1040
1.0
1070
    43
1040
7.0
1070
    44
1040
1.0
1070
    73
1070
     0
1070
    74
1070
     0
1070
    77
1070
     1
1070
    78
1070
     8
1070
    79
1070
     2
1070
   140
1040
3.5
1070
   141
1040
1.5
1070
   146
1040
0.5
1070
   147
1040
1.5
1070
   172
1070
     1
1070
   178
1070
     1
1070
   179
1070
     2
1070
   271
1070
     2
1070
   272
1070
     2
1070
   284
1070
     8
1070
   285
1070
     8
1070
   286
1070
     8
1002
}
  0
DIMENSION
  5
E45
330
1E
100
AcDbEntity
  8
BEM
100
AcDbDimension
  2
*D10
 10
643.1054198413496
 20
303.0314964055957
 30
0.0
 11
636.6054198413495
 21
343.0314964055958
 31
0.0
 70
    32
 71
     5
 42
79.99999999999989
  3
Standard
100
AcDbAlignedDimension
 13
523.7625622428923
 23
383.0314964055956
 33
0.0
 14
623.3204641612704
 24
303.0314964055957
 34
0.0
 50
90.0
100
AcDbRotatedDimension
1001
ACAD
1000
DSTYLE
1002
{
1070
    40
1040
2.0
1070
    41
1040
3.5
1070
    42
1040
1.0
1070
    43
1040
7.0
1070
    44
1040
1.0
1070
    73
1070
     0
1070
    74
1070
     0
1070
    77
1070
     1
1070
    78
1070
     8
1070
    79
1070
     2
1070
   140
1040
3.5
1070
   141
1040
1.5
1070
   146
1040
0.5
1070
   147
1040
1.5
1070
   172
1070
     1
1070
   178
1070
     1
1070
   179
1070
     2
1070
   271
1070
     2
1070
   272
1070
     2
1070
   284
1070
     8
1070
   285
1070
     8
1070
   286
1070
     8
1002
}
  0
ENDSEC
  0
SECTION
  2
OBJECTS
  0
DICTIONARY
  5
C
330
0
100
AcDbDictionary
281
     1
  3
ACAD_COLOR
350
11A
  3
ACAD_GROUP
350
D
  3
ACAD_LAYOUT
350
19
  3
ACAD_MATERIAL
350
119
  3
ACAD_MLINESTYLE
350
16
  3
ACAD_PLOTSETTINGS
350
18
  3
ACAD_PLOTSTYLENAME
350
E
  3
AcDbVariableDictionary
350
125
  0
DICTIONARY
  5
DB
330
1E
100
AcDbDictionary
280
     1
281
     1
  3
ACAD_LAYOUTSELFREF
360
10F
  0
DICTIONARY
  5
DD
330
1A
100
AcDbDictionary
280
     1
281
     1
  3
ACAD_LAYOUTSELFREF
360
10E
  0
DICTIONARY
  5
11A
102
{ACAD_REACTORS
330
C
102
}
330
C
100
AcDbDictionary
281
     1
  0
DICTIONARY
  5
D
102
{ACAD_REACTORS
330
C
102
}
330
C
100
AcDbDictionary
281
     1
  0
DICTIONARY
  5
19
102
{ACAD_REACTORS
330
C
102
}
330
C
100
AcDbDictionary
281
     1
  3
Layout1
350
1D
  3
Model
350
21
  0
DICTIONARY
  5
119
102
{ACAD_REACTORS
330
C
102
}
330
C
100
AcDbDictionary
281
     1
  0
DICTIONARY
  5
16
102
{ACAD_REACTORS
330
C
102
}
330
C
100
AcDbDictionary
281
     1
  3
Standard
350
17
  0
DICTIONARY
  5
18
102
{ACAD_REACTORS
330
C
102
}
330
C
100
AcDbDictionary
281
     1
  0
ACDBDICTIONARYWDFLT
  5
E
102
{ACAD_REACTORS
330
C
102
}
330
C
100
AcDbDictionary
281
     1
  3
Normal
350
F
100
AcDbDictionaryWithDefault
340
F
  0
DICTIONARY
  5
125
102
{ACAD_REACTORS
330
C
102
}
330
C
100
AcDbDictionary
281
     1
  3
DIMASSOC
350
126
  3
PROJECTNAME
350
127
  0
XRECORD
  5
10F
102
{ACAD_REACTORS
330
DB
102
}
330
DB
100
AcDbXrecord
280
     1
340
1E
  0
XRECORD
  5
10E
102
{ACAD_REACTORS
330
DD
102
}
330
DD
100
AcDbXrecord
280
     1
340
1A
  0
LAYOUT
  5
1D
102
{ACAD_REACTORS
330
19
102
}
330
19
100
AcDbPlotSettings
  1

  2
\\NT_WORK01\HP LaserJet 5000 PCL 6
  4

  6

 40
0.0
 41
0.0
 42
0.0
 43
0.0
 44
0.0
 45
0.0
 46
0.0
 47
0.0
 48
0.0
 49
0.0
140
0.0
141
0.0
142
1.0
143
1.0
 70
   688
 72
     0
 73
     0
 74
     5
  7

 75
    16
147
1.0
 76
     0
 77
     2
 78
   300
148
0.0
149
0.0
100
AcDbLayout
  1
Layout1
 70
     0
 71
     1
 10
0.0
 20
0.0
 11
12.0
 21
9.0
 12
0.0
 22
0.0
 32
0.0
 14
1.000000000000000E+20
 24
1.000000000000000E+20
 34
1.000000000000000E+20
 15
-1.000000000000000E+20
 25
-1.000000000000000E+20
 35
-1.000000000000000E+20
146
0.0
 13
0.0
 23
0.0
 33
0.0
 16
1.0
 26
0.0
 36
0.0
 17
0.0
 27
1.0
 37
0.0
 76
     0
330
1A
  0
LAYOUT
  5
21
102
{ACAD_REACTORS
330
19
102
}
330
19
100
AcDbPlotSettings
  1

  2
none_device
  4
Letter_(8.50_x_11.00_Inches)
  6

 40
6.349999904632568
 41
6.349999904632568
 42
6.350006103515625
 43
6.350006103515625
 44
215.8999938964844
 45
279.3999938964844
 46
0.0
 47
0.0
 48
0.0
 49
0.0
140
0.0
141
0.0
142
1.0
143
1.0
 70
 11952
 72
     0
 73
     1
 74
     0
  7

 75
     0
147
1.0
 76
     0
 77
     2
 78
   300
148
-2640.238557613358
149
484.122025555242
100
AcDbLayout
  1
Model
 70
     1
 71
     0
 10
0.0
 20
0.0
 11
12.0
 21
9.0
 12
0.0
 22
0.0
 32
0.0
 14
0.0
 24
0.0
 34
0.0
 15
0.0
 25
0.0
 35
0.0
146
0.0
 13
0.0
 23
0.0
 33
0.0
 16
1.0
 26
0.0
 36
0.0
 17
0.0
 27
1.0
 37
0.0
 76
     0
330
1E
  0
MLINESTYLE
  5
17
102
{ACAD_REACTORS
330
16
102
}
330
16
100
AcDbMlineStyle
  2
STANDARD
 70
     0
  3

 62
   256
 51
90.0
 52
90.0
 71
     2
 49
0.5
 62
   256
  6
BYLAYER
 49
-0.5
 62
   256
  6
BYLAYER
  0
ACDBPLACEHOLDER
  5
F
102
{ACAD_REACTORS
330
E
102
}
330
E
  0
DICTIONARYVAR
  5
126
102
{ACAD_REACTORS
330
125
102
}
330
125
100
DictionaryVariables
280
     0
  1
1
  0
DICTIONARYVAR
  5
127
102
{ACAD_REACTORS
330
125
102
}
330
125
100
DictionaryVariables
280
     0
  1

  0
ENDSEC
  0
EOF
