  0
SECTION
  2
HEADER
  9
$ACADVER
  1
AC1018
  9
$ACADMAINTVER
 70
     2
  9
$DWGCODEPAGE
  3
ANSI_1252
  9
$INSBASE
 10
0.0
 20
0.0
 30
0.0
  9
$EXTMIN
 10
-0.0512671842573127
 20
-0.0362532231533805
 30
-0.0000000349181948
  9
$EXTMAX
 10
840.051275007606
 20
594.0362587553784
 30
0.0000000814935746
  9
$LIMMIN
 10
0.0
 20
0.0
  9
$LIMMAX
 10
840.0
 20
594.0
  9
$ORTHOMODE
 70
     0
  9
$REGENMODE
 70
     1
  9
$FILLMODE
 70
     1
  9
$QTEXTMODE
 70
     0
  9
$MIRRTEXT
 70
     1
  9
$LTSCALE
 40
20.0
  9
$ATTMODE
 70
     1
  9
$TEXTSIZE
 40
3.5
  9
$TRACEWID
 40
1.0
  9
$TEXTSTYLE
  7
STANDARD
  9
$CLAYER
  8
BEM
  9
$CELTYPE
  6
ByLayer
  9
$CECOLOR
 62
   256
  9
$CELTSCALE
 40
1.0
  9
$DISPSILH
 70
     0
  9
$DIMSCALE
 40
2.0
  9
$DIMASZ
 40
3.5
  9
$DIMEXO
 40
1.0
  9
$DIMDLI
 40
7.0
  9
$DIMRND
 40
0.0
  9
$DIMDLE
 40
0.0
  9
$DIMEXE
 40
1.0
  9
$DIMTP
 40
0.0
  9
$DIMTM
 40
0.0
  9
$DIMTXT
 40
3.5
  9
$DIMCEN
 40
1.5
  9
$DIMTSZ
 40
0.0
  9
$DIMTOL
 70
     0
  9
$DIMLIM
 70
     0
  9
$DIMTIH
 70
     0
  9
$DIMTOH
 70
     0
  9
$DIMSE1
 70
     0
  9
$DIMSE2
 70
     0
  9
$DIMTAD
 70
     1
  9
$DIMZIN
 70
     8
  9
$DIMBLK
  1

  9
$DIMASO
 70
     1
  9
$DIMSHO
 70
     0
  9
$DIMPOST
  1

  9
$DIMAPOST
  1

  9
$DIMALT
 70
     0
  9
$DIMALTD
 70
     2
  9
$DIMALTF
 40
25.4
  9
$DIMLFAC
 40
1.0
  9
$DIMTOFL
 70
     1
  9
$DIMTVP
 40
0.0
  9
$DIMTIX
 70
     0
  9
$DIMSOXD
 70
     0
  9
$DIMSAH
 70
     0
  9
$DIMBLK1
  1

  9
$DIMBLK2
  1

  9
$DIMSTYLE
  2
Standard
  9
$DIMCLRD
 70
     0
  9
$DIMCLRE
 70
     0
  9
$DIMCLRT
 70
     1
  9
$DIMTFAC
 40
0.5
  9
$DIMGAP
 40
1.5
  9
$DIMJUST
 70
     0
  9
$DIMSD1
 70
     0
  9
$DIMSD2
 70
     0
  9
$DIMTOLJ
 70
     1
  9
$DIMTZIN
 70
     8
  9
$DIMALTZ
 70
     8
  9
$DIMALTTZ
 70
     8
  9
$DIMUPT
 70
     0
  9
$DIMDEC
 70
     2
  9
$DIMTDEC
 70
     2
  9
$DIMALTU
 70
     2
  9
$DIMALTTD
 70
     2
  9
$DIMTXSTY
  7
STANDARD
  9
$DIMAUNIT
 70
     0
  9
$DIMADEC
 70
     2
  9
$DIMALTRND
 40
0.0
  9
$DIMAZIN
 70
     2
  9
$DIMDSEP
 70
    46
  9
$DIMATFIT
 70
     3
  9
$DIMFRAC
 70
     0
  9
$DIMLDRBLK
  1

  9
$DIMLUNIT
 70
     2
  9
$DIMLWD
 70
    -2
  9
$DIMLWE
 70
    -2
  9
$DIMTMOVE
 70
     0
  9
$LUNITS
 70
     2
  9
$LUPREC
 70
     2
  9
$SKETCHINC
 40
1.0
  9
$FILLETRAD
 40
4.0
  9
$AUNITS
 70
     0
  9
$AUPREC
 70
     0
  9
$MENU
  1
ACAD
  9
$ELEVATION
 40
0.0
  9
$PELEVATION
 40
0.0
  9
$THICKNESS
 40
0.0
  9
$LIMCHECK
 70
     0
  9
$CHAMFERA
 40
0.0
  9
$CHAMFERB
 40
0.0
  9
$CHAMFERC
 40
0.0
  9
$CHAMFERD
 40
0.0
  9
$SKPOLY
 70
     0
  9
$TDCREATE
 40
2455397.867059838
  9
$TDUCREATE
 40
2455397.783726505
  9
$TDUPDATE
 40
2455460.532944619
  9
$TDUUPDATE
 40
2455460.449611285
  9
$TDINDWG
 40
0.1227495833
  9
$TDUSRTIMER
 40
0.1227495833
  9
$USRTIMER
 70
     1
  9
$ANGBASE
 50
0.0
  9
$ANGDIR
 70
     0
  9
$PDMODE
 70
     0
  9
$PDSIZE
 40
0.0
  9
$PLINEWID
 40
0.0
  9
$SPLFRAME
 70
     0
  9
$SPLINETYPE
 70
     6
  9
$SPLINESEGS
 70
     8
  9
$HANDSEED
  5
C9D
  9
$SURFTAB1
 70
     6
  9
$SURFTAB2
 70
     6
  9
$SURFTYPE
 70
     6
  9
$SURFU
 70
     6
  9
$SURFV
 70
     6
  9
$UCSBASE
  2

  9
$UCSNAME
  2

  9
$UCSORG
 10
0.0
 20
0.0
 30
0.0
  9
$UCSXDIR
 10
1.0
 20
0.0
 30
0.0
  9
$UCSYDIR
 10
0.0
 20
1.0
 30
0.0
  9
$UCSORTHOREF
  2

  9
$UCSORTHOVIEW
 70
     0
  9
$UCSORGTOP
 10
0.0
 20
0.0
 30
0.0
  9
$UCSORGBOTTOM
 10
0.0
 20
0.0
 30
0.0
  9
$UCSORGLEFT
 10
0.0
 20
0.0
 30
0.0
  9
$UCSORGRIGHT
 10
0.0
 20
0.0
 30
0.0
  9
$UCSORGFRONT
 10
0.0
 20
0.0
 30
0.0
  9
$UCSORGBACK
 10
0.0
 20
0.0
 30
0.0
  9
$PUCSBASE
  2

  9
$PUCSNAME
  2

  9
$PUCSORG
 10
0.0
 20
0.0
 30
0.0
  9
$PUCSXDIR
 10
1.0
 20
0.0
 30
0.0
  9
$PUCSYDIR
 10
0.0
 20
1.0
 30
0.0
  9
$PUCSORTHOREF
  2

  9
$PUCSORTHOVIEW
 70
     0
  9
$PUCSORGTOP
 10
0.0
 20
0.0
 30
0.0
  9
$PUCSORGBOTTOM
 10
0.0
 20
0.0
 30
0.0
  9
$PUCSORGLEFT
 10
0.0
 20
0.0
 30
0.0
  9
$PUCSORGRIGHT
 10
0.0
 20
0.0
 30
0.0
  9
$PUCSORGFRONT
 10
0.0
 20
0.0
 30
0.0
  9
$PUCSORGBACK
 10
0.0
 20
0.0
 30
0.0
  9
$USERI1
 70
     0
  9
$USERI2
 70
     0
  9
$USERI3
 70
     0
  9
$USERI4
 70
     0
  9
$USERI5
 70
     0
  9
$USERR1
 40
0.0
  9
$USERR2
 40
0.0
  9
$USERR3
 40
0.0
  9
$USERR4
 40
0.0
  9
$USERR5
 40
0.0
  9
$WORLDVIEW
 70
     1
  9
$SHADEDGE
 70
     3
  9
$SHADEDIF
 70
    70
  9
$TILEMODE
 70
     1
  9
$MAXACTVP
 70
    16
  9
$PINSBASE
 10
0.0
 20
0.0
 30
0.0
  9
$PLIMCHECK
 70
     0
  9
$PEXTMIN
 10
1.000000000000000E+20
 20
1.000000000000000E+20
 30
1.000000000000000E+20
  9
$PEXTMAX
 10
-1.000000000000000E+20
 20
-1.000000000000000E+20
 30
-1.000000000000000E+20
  9
$PLIMMIN
 10
0.0
 20
0.0
  9
$PLIMMAX
 10
12.0
 20
9.0
  9
$UNITMODE
 70
     0
  9
$VISRETAIN
 70
     0
  9
$PLINEGEN
 70
     0
  9
$PSLTSCALE
 70
     0
  9
$TREEDEPTH
 70
  3020
  9
$CMLSTYLE
  2
Standard
  9
$CMLJUST
 70
     0
  9
$CMLSCALE
 40
1.0
  9
$PROXYGRAPHICS
 70
     1
  9
$MEASUREMENT
 70
     0
  9
$CELWEIGHT
370
    -1
  9
$ENDCAPS
280
     0
  9
$JOINSTYLE
280
     0
  9
$LWDISPLAY
290
     0
  9
$INSUNITS
 70
     0
  9
$HYPERLINKBASE
  1

  9
$STYLESHEET
  1
monochrome 1.ctb
  9
$XEDIT
290
     1
  9
$CEPSNTYPE
380
     0
  9
$PSTYLEMODE
290
     1
  9
$FINGERPRINTGUID
  2
{D68B0D0D-A558-11D7-B632-000102183313}
  9
$VERSIONGUID
  2
{D498BAFD-7F0C-424B-A713-711413A6B2E6}
  9
$EXTNAMES
290
     1
  9
$PSVPSCALE
 40
0.0
  9
$OLESTARTUP
290
     0
  9
$SORTENTS
280
   127
  9
$INDEXCTL
280
     0
  9
$HIDETEXT
280
     0
  9
$XCLIPFRAME
290
     0
  9
$HALOGAP
280
     0
  9
$OBSCOLOR
 70
   257
  9
$OBSLTYPE
280
     0
  9
$INTERSECTIONDISPLAY
280
     0
  9
$INTERSECTIONCOLOR
 70
   257
  9
$DIMASSOC
280
     1
  9
$PROJECTNAME
  1

  0
ENDSEC
  0
SECTION
  2
CLASSES
  0
CLASS
  1
ACDBDICTIONARYWDFLT
  2
AcDbDictionaryWithDefault
  3
ObjectDBX Classes
 90
        0
 91
        1
280
     0
281
     0
  0
CLASS
  1
DICTIONARYVAR
  2
AcDbDictionaryVar
  3
ObjectDBX Classes
 90
        0
 91
        2
280
     0
281
     0
  0
ENDSEC
  0
SECTION
  2
TABLES
  0
TABLE
  2
VPORT
  5
8
330
0
100
AcDbSymbolTable
 70
     2
  0
VPORT
  5
C9C
330
8
100
AcDbSymbolTableRecord
100
AcDbViewportTableRecord
  2
*Active
 70
     0
 10
0.0
 20
0.0
 11
1.0
 21
1.0
 12
420.0000039116744
 22
297.0000027661125
 13
0.0
 23
0.0
 14
1.0
 24
1.0
 15
10.0
 25
10.0
 16
0.0
 26
0.0
 36
1.0
 17
0.0
 27
0.0
 37
0.0
 40
632.1787407146647
 41
1.336927223719676
 42
50.0
 43
0.0
 44
0.0
 50
0.0
 51
0.0
 71
     0
 72
  1500
 73
     1
 74
     0
 75
     0
 76
     0
 77
     0
 78
     0
281
     0
 65
     1
110
0.0
120
0.0
130
0.0
111
1.0
121
0.0
131
0.0
112
0.0
122
1.0
132
0.0
 79
     0
146
0.0
  0
ENDTAB
  0
TABLE
  2
LTYPE
  5
5
330
0
100
AcDbSymbolTable
 70
     2
  0
LTYPE
  5
13
330
5
100
AcDbSymbolTableRecord
100
AcDbLinetypeTableRecord
  2
ByBlock
 70
     0
  3

 72
    65
 73
     0
 40
0.0
  0
LTYPE
  5
14
330
5
100
AcDbSymbolTableRecord
100
AcDbLinetypeTableRecord
  2
ByLayer
 70
     0
  3

 72
    65
 73
     0
 40
0.0
  0
LTYPE
  5
15
330
5
100
AcDbSymbolTableRecord
100
AcDbLinetypeTableRecord
  2
Continuous
 70
     0
  3
Solid line
 72
    65
 73
     0
 40
0.0
  0
LTYPE
  5
25
330
5
100
AcDbSymbolTableRecord
100
AcDbLinetypeTableRecord
  2
STRICHPUNKT
 70
     0
  3
__ . __ . __ . __ . __ . __ . __ . __ . __ . __
 72
    65
 73
     4
 40
1.0
 49
0.5
 74
     0
 49
-0.25
 74
     0
 49
0.0
 74
     0
 49
-0.25
 74
     0
  0
ENDTAB
  0
TABLE
  2
LAYER
  5
2
330
0
100
AcDbSymbolTable
 70
     9
  0
LAYER
  5
10
330
2
100
AcDbSymbolTableRecord
100
AcDbLayerTableRecord
  2
0
 70
     0
 62
     7
  6
Continuous
370
    -3
390
F
  0
LAYER
  5
2B
330
2
100
AcDbSymbolTableRecord
100
AcDbLayerTableRecord
  2
VOLL
 70
     0
 62
     1
  6
Continuous
370
    -3
390
F
  0
LAYER
  5
2C
330
2
100
AcDbSymbolTableRecord
100
AcDbLayerTableRecord
  2
HILF
 70
     0
 62
     2
  6
Continuous
370
    -3
390
F
  0
LAYER
  5
2D
330
2
100
AcDbSymbolTableRecord
100
AcDbLayerTableRecord
  2
MITTEL
 70
     0
 62
     2
  6
STRICHPUNKT
370
    -3
390
F
  0
LAYER
  5
2F
330
2
100
AcDbSymbolTableRecord
100
AcDbLayerTableRecord
  2
BEM
 70
     0
 62
     7
  6
Continuous
370
    -3
390
F
  0
LAYER
  5
30
330
2
100
AcDbSymbolTableRecord
100
AcDbLayerTableRecord
  2
STEMPEL
 70
     0
 62
     3
  6
Continuous
370
    -3
390
F
  0
LAYER
  5
33
330
2
100
AcDbSymbolTableRecord
100
AcDbLayerTableRecord
  2
TEXT
 70
     0
 62
     7
  6
Continuous
370
    -3
390
F
  0
LAYER
  5
3FF
330
2
100
AcDbSymbolTableRecord
100
AcDbLayerTableRecord
  2
DEFPOINTS
 70
     0
 62
     7
  6
Continuous
290
     0
370
    -3
390
F
  0
LAYER
  5
400
330
2
100
AcDbSymbolTableRecord
100
AcDbLayerTableRecord
  2
SCHRAFF
 70
     0
 62
     7
  6
Continuous
370
    -3
390
F
  0
ENDTAB
  0
TABLE
  2
STYLE
  5
3
330
0
100
AcDbSymbolTable
 70
     2
  0
STYLE
  5
11
330
3
100
AcDbSymbolTableRecord
100
AcDbTextStyleTableRecord
  2
STANDARD
 70
     0
 40
0.0
 41
0.8
 50
0.0
 71
     0
 42
3.5
  3
simplex.shx
  4

  0
STYLE
  5
24
330
3
100
AcDbSymbolTableRecord
100
AcDbTextStyleTableRecord
  2
GREEKS
 70
     0
 40
0.0
 41
0.8
 50
0.0
 71
     0
 42
2.5
  3
SIMPLEX.shx
  4

  0
ENDTAB
  0
TABLE
  2
VIEW
  5
6
330
0
100
AcDbSymbolTable
 70
     0
  0
ENDTAB
  0
TABLE
  2
UCS
  5
7
330
0
100
AcDbSymbolTable
 70
     0
  0
ENDTAB
  0
TABLE
  2
APPID
  5
9
330
0
100
AcDbSymbolTable
 70
     1
  0
APPID
  5
12
330
9
100
AcDbSymbolTableRecord
100
AcDbRegAppTableRecord
  2
ACAD
 70
     0
  0
ENDTAB
  0
TABLE
  2
DIMSTYLE
  5
A
330
0
100
AcDbSymbolTable
 70
     1
100
AcDbDimStyleTable
 71
     1
340
A2
  0
DIMSTYLE
105
A2
102
{ACAD_REACTORS
330
B9F
330
BAC
330
BE7
330
C07
330
C14
330
C21
330
C37
102
}
330
A
100
AcDbSymbolTableRecord
100
AcDbDimStyleTableRecord
  2
Standard
 70
     0
340
11
  0
ENDTAB
  0
TABLE
  2
BLOCK_RECORD
  5
1
330
0
100
AcDbSymbolTable
 70
     9
  0
BLOCK_RECORD
  5
1E
102
{ACAD_XDICTIONARY
360
DB
102
}
330
1
100
AcDbSymbolTableRecord
100
AcDbBlockTableRecord
  2
*Model_Space
340
21
  0
BLOCK_RECORD
  5
1A
102
{ACAD_XDICTIONARY
360
DD
102
}
330
1
100
AcDbSymbolTableRecord
100
AcDbBlockTableRecord
  2
*Paper_Space
340
1D
  0
BLOCK_RECORD
  5
22
330
1
100
AcDbSymbolTableRecord
100
AcDbBlockTableRecord
  2
LOGO
340
0
102
{BLKREFS
331
56
102
}
  0
BLOCK_RECORD
  5
23
330
1
100
AcDbSymbolTableRecord
100
AcDbBlockTableRecord
  2
LORO
340
0
102
{BLKREFS
331
9B
102
}
  0
BLOCK_RECORD
  5
BA0
330
1
100
AcDbSymbolTableRecord
100
AcDbBlockTableRecord
  2
*D2
340
0
  0
BLOCK_RECORD
  5
BAD
330
1
100
AcDbSymbolTableRecord
100
AcDbBlockTableRecord
  2
*D3
340
0
  0
BLOCK_RECORD
  5
BE8
330
1
100
AcDbSymbolTableRecord
100
AcDbBlockTableRecord
  2
*D4
340
0
  0
BLOCK_RECORD
  5
C08
330
1
100
AcDbSymbolTableRecord
100
AcDbBlockTableRecord
  2
*D5
340
0
  0
BLOCK_RECORD
  5
C15
330
1
100
AcDbSymbolTableRecord
100
AcDbBlockTableRecord
  2
*D6
340
0
  0
BLOCK_RECORD
  5
C22
330
1
100
AcDbSymbolTableRecord
100
AcDbBlockTableRecord
  2
*D7
340
0
  0
BLOCK_RECORD
  5
C38
330
1
100
AcDbSymbolTableRecord
100
AcDbBlockTableRecord
  2
*D8
340
0
  0
ENDTAB
  0
ENDSEC
  0
SECTION
  2
BLOCKS
  0
BLOCK
  5
37
330
1E
100
AcDbEntity
  8
0
100
AcDbBlockBegin
  2
*Model_Space
 70
     0
 10
0.0
 20
0.0
 30
0.0
  3
*Model_Space
  1

  0
ENDBLK
  5
38
330
1E
100
AcDbEntity
  8
0
100
AcDbBlockEnd
  0
BLOCK
  5
35
330
1A
100
AcDbEntity
 67
     1
  8
0
100
AcDbBlockBegin
  2
*Paper_Space
 70
     0
 10
0.0
 20
0.0
 30
0.0
  3
*Paper_Space
  1

  0
ENDBLK
  5
36
330
1A
100
AcDbEntity
 67
     1
  8
0
100
AcDbBlockEnd
  0
BLOCK
  5
39
330
22
100
AcDbEntity
  8
0
100
AcDbBlockBegin
  2
LOGO
 70
     0
 10
0.0
 20
0.0
 30
0.0
  3
LOGO
  1

  0
ARC
  5
3A
330
22
100
AcDbEntity
  8
0
100
AcDbCircle
 10
11.59973089678112
 20
-9.271599258481501
 30
0.0
 40
4.5
100
AcDbArc
 50
270.0
 51
231.0575587310159
  0
LINE
  5
3B
330
22
100
AcDbEntity
  8
0
100
AcDbLine
 10
3.599730896781125
 20
-4.771599258481529
 30
0.0
 11
3.599730896781153
 21
-11.77159925848133
 31
0.0
  0
LINE
  5
3C
330
22
100
AcDbEntity
  8
0
100
AcDbLine
 10
2.599730896781125
 20
-4.771599258481529
 30
0.0
 11
2.599730896781153
 21
-11.77159925848133
 31
0.0
  0
CIRCLE
  5
3D
330
22
100
AcDbEntity
  8
0
100
AcDbCircle
 10
11.59973089678112
 20
-9.271599258481501
 30
0.0
 40
3.5
  0
ARC
  5
3E
330
22
100
AcDbEntity
  8
0
100
AcDbCircle
 10
31.59973089678115
 20
-9.271599258481472
 30
0.0
 40
4.5
100
AcDbArc
 50
270.0
 51
231.0575587310182
  0
LINE
  5
3F
330
22
100
AcDbEntity
  8
0
100
AcDbLine
 10
17.59973089678112
 20
-4.771599258481472
 30
0.0
 11
17.59973089678115
 21
-13.77159925848147
 31
0.0
  0
ARC
  5
40
330
22
100
AcDbEntity
  8
0
100
AcDbCircle
 10
22.59973089678116
 20
-7.271599258481472
 30
0.0
 40
2.5
100
AcDbArc
 50
293.1161887722295
 51
90.0
  0
CIRCLE
  5
41
330
22
100
AcDbEntity
  8
0
100
AcDbCircle
 10
31.59973089678115
 20
-9.271599258481472
 30
0.0
 40
3.5
  0
ARC
  5
42
330
22
100
AcDbEntity
  8
0
100
AcDbCircle
 10
4.599730896781153
 20
-11.77159925848133
 30
0.0
 40
1.0
100
AcDbArc
 50
180.0
 51
270.0
  0
ARC
  5
43
330
22
100
AcDbEntity
  8
0
100
AcDbCircle
 10
4.599730896781153
 20
-11.77159925848133
 30
0.0
 40
2.0
100
AcDbArc
 50
179.9999999999992
 51
270.0
  0
LINE
  5
44
330
22
100
AcDbEntity
  8
0
100
AcDbLine
 10
11.59973089678115
 20
-13.77159925848144
 30
0.0
 11
4.599730896781153
 21
-13.77159925848147
 31
0.0
  0
LINE
  5
45
330
22
100
AcDbEntity
  8
0
100
AcDbLine
 10
8.771303772034769
 20
-12.77159925848136
 30
0.0
 11
4.599730896781153
 21
-12.77159925848133
 31
0.0
  0
LINE
  5
46
330
22
100
AcDbEntity
  8
0
100
AcDbLine
 10
31.59973089678115
 20
-13.77159925848147
 30
0.0
 11
23.6715276665056
 21
-13.77159925848144
 31
0.0
  0
LINE
  5
47
330
22
100
AcDbEntity
  8
0
100
AcDbLine
 10
23.56565672307022
 20
-9.51278021337896
 30
0.0
 11
24.4388546544846
 21
-12.77159925848144
 31
0.0
  0
LINE
  5
48
330
22
100
AcDbEntity
  8
0
100
AcDbLine
 10
22.59973089678116
 20
-9.771599258481472
 30
0.0
 11
18.59973089678112
 21
-9.771599258481472
 31
0.0
  0
LINE
  5
49
330
22
100
AcDbEntity
  8
0
100
AcDbLine
 10
18.59973089678115
 20
-13.77159925848144
 30
0.0
 11
17.59973089678115
 21
-13.77159925848144
 31
0.0
  0
LINE
  5
4A
330
22
100
AcDbEntity
  8
0
100
AcDbLine
 10
18.59973089678115
 20
-9.771599258481472
 30
0.0
 11
18.59973089678115
 21
-13.77159925848144
 31
0.0
  0
LINE
  5
4B
330
22
100
AcDbEntity
  8
0
100
AcDbLine
 10
22.59973089678116
 20
-9.771599258481472
 30
0.0
 11
23.67152766650562
 21
-13.77159925848147
 31
0.0
  0
ARC
  5
4C
330
22
100
AcDbEntity
  8
0
100
AcDbCircle
 10
22.59973089678116
 20
-7.271599258481472
 30
0.0
 40
2.5
100
AcDbArc
 50
270.0
 51
270.0000000000007
  0
LINE
  5
4D
330
22
100
AcDbEntity
  8
0
100
AcDbLine
 10
28.77130377203494
 20
-12.77159925848147
 30
0.0
 11
24.43885465448463
 21
-12.77159925848144
 31
0.0
  0
LINE
  5
4E
330
22
100
AcDbEntity
  8
0
100
AcDbLine
 10
3.599730896781125
 20
-4.771599258481472
 30
0.0
 11
2.599730896781125
 21
-4.771599258481472
 31
0.0
  0
LINE
  5
4F
330
22
100
AcDbEntity
  8
0
100
AcDbLine
 10
22.59973089678116
 20
-8.771599258481472
 30
0.0
 11
18.59973089678115
 21
-8.771599258481472
 31
0.0
  0
LINE
  5
50
330
22
100
AcDbEntity
  8
0
100
AcDbLine
 10
22.59973089678116
 20
-5.771599258481472
 30
0.0
 11
18.59973089678115
 21
-5.771599258481472
 31
0.0
  0
LINE
  5
51
330
22
100
AcDbEntity
  8
0
100
AcDbLine
 10
22.59973089678116
 20
-4.771599258481472
 30
0.0
 11
17.59973089678115
 21
-4.771599258481472
 31
0.0
  0
LINE
  5
52
330
22
100
AcDbEntity
  8
0
100
AcDbLine
 10
18.59973089678115
 20
-5.771599258481472
 30
0.0
 11
18.59973089678115
 21
-8.771599258481472
 31
0.0
  0
ARC
  5
53
330
22
100
AcDbEntity
  8
0
100
AcDbCircle
 10
22.59973089678116
 20
-7.271599258481472
 30
0.0
 40
1.5
100
AcDbArc
 50
270.0
 51
90.0
  0
ENDBLK
  5
54
330
22
100
AcDbEntity
  8
0
100
AcDbBlockEnd
  0
BLOCK
  5
55
330
23
100
AcDbEntity
  8
0
100
AcDbBlockBegin
  2
LORO
 70
     0
 10
0.0
 20
0.0
 30
0.0
  3
LORO
  1

  0
INSERT
  5
56
330
23
100
AcDbEntity
  8
STEMPEL
100
AcDbBlockReference
  2
LOGO
 10
-1.748032802467321
 20
3.771489518552062
 30
0.0
  0
ENDBLK
  5
57
330
23
100
AcDbEntity
  8
0
100
AcDbBlockEnd
  0
BLOCK
  5
BAA
330
BA0
100
AcDbEntity
  8
0
100
AcDbBlockBegin
  2
*D2
 70
     1
 10
0.0
 20
0.0
 30
0.0
  3
*D2
  1

  0
LINE
  5
BCB
330
BA0
100
AcDbEntity
  8
BEM
 62
     0
370
    -2
100
AcDbLine
 10
238.7625622428923
 20
381.5314964055957
 30
0.0
 11
238.7625622428923
 21
397.0025094460377
 31
0.0
  0
LINE
  5
BCC
330
BA0
100
AcDbEntity
  8
BEM
 62
     0
370
    -2
100
AcDbLine
 10
468.7625622428922
 20
381.5314964055957
 30
0.0
 11
468.7625622428922
 21
397.0025094460377
 31
0.0
  0
LINE
  5
BCD
330
BA0
100
AcDbEntity
  8
BEM
 62
     0
370
    -2
100
AcDbLine
 10
245.7625622428923
 20
395.0025094460377
 30
0.0
 11
461.7625622428922
 21
395.0025094460377
 31
0.0
  0
SOLID
  5
BCE
330
BA0
100
AcDbEntity
  8
BEM
 62
     0
100
AcDbTrace
 10
245.7625622428923
 20
396.1691761127044
 30
0.0
 11
245.7625622428923
 21
393.835842779371
 31
0.0
 12
238.7625622428923
 22
395.0025094460377
 32
0.0
 13
238.7625622428923
 23
395.0025094460377
 33
0.0
  0
SOLID
  5
BCF
330
BA0
100
AcDbEntity
  8
BEM
 62
     0
100
AcDbTrace
 10
461.7625622428922
 20
396.1691761127044
 30
0.0
 11
461.7625622428922
 21
393.835842779371
 31
0.0
 12
468.7625622428922
 22
395.0025094460377
 32
0.0
 13
468.7625622428922
 23
395.0025094460377
 33
0.0
  0
MTEXT
  5
BD0
330
BA0
100
AcDbEntity
  8
BEM
 62
     1
100
AcDbMText
 10
353.7625622428923
 20
401.5025094460376
 30
0.0
 40
7.0
 41
0.0
 71
     5
 72
     1
  1
\A1;%%c230
 73
     1
 44
1.0
  0
POINT
  5
BD1
330
BA0
100
AcDbEntity
  8
DEFPOINTS
 62
     0
100
AcDbPoint
 10
238.7625622428923
 20
379.5314964055957
 30
0.0
  0
POINT
  5
BD2
330
BA0
100
AcDbEntity
  8
DEFPOINTS
 62
     0
100
AcDbPoint
 10
468.7625622428922
 20
379.5314964055957
 30
0.0
  0
POINT
  5
BD3
330
BA0
100
AcDbEntity
  8
DEFPOINTS
 62
     0
100
AcDbPoint
 10
468.7625622428922
 20
395.0025094460377
 30
0.0
  0
ENDBLK
  5
BAB
330
BA0
100
AcDbEntity
  8
0
100
AcDbBlockEnd
  0
BLOCK
  5
BB7
330
BAD
100
AcDbEntity
  8
0
100
AcDbBlockBegin
  2
*D3
 70
     1
 10
0.0
 20
0.0
 30
0.0
  3
*D3
  1

  0
LINE
  5
BDD
330
BAD
100
AcDbEntity
  8
BEM
 62
     0
370
    -2
100
AcDbLine
 10
183.7625622428922
 20
386.0314964055957
 30
0.0
 11
183.7625622428922
 21
410.8028361703514
 31
0.0
  0
LINE
  5
BDE
330
BAD
100
AcDbEntity
  8
BEM
 62
     0
370
    -2
100
AcDbLine
 10
523.7625622428923
 20
386.0314964055957
 30
0.0
 11
523.7625622428923
 21
410.8028361703514
 31
0.0
  0
LINE
  5
BDF
330
BAD
100
AcDbEntity
  8
BEM
 62
     0
370
    -2
100
AcDbLine
 10
190.7625622428922
 20
408.8028361703513
 30
0.0
 11
516.7625622428922
 21
408.8028361703513
 31
0.0
  0
SOLID
  5
BE0
330
BAD
100
AcDbEntity
  8
BEM
 62
     0
100
AcDbTrace
 10
190.7625622428922
 20
409.969502837018
 30
0.0
 11
190.7625622428922
 21
407.6361695036847
 31
0.0
 12
183.7625622428922
 22
408.8028361703513
 32
0.0
 13
183.7625622428922
 23
408.8028361703513
 33
0.0
  0
SOLID
  5
BE1
330
BAD
100
AcDbEntity
  8
BEM
 62
     0
100
AcDbTrace
 10
516.7625622428922
 20
409.969502837018
 30
0.0
 11
516.7625622428922
 21
407.6361695036847
 31
0.0
 12
523.7625622428923
 22
408.8028361703513
 32
0.0
 13
523.7625622428923
 23
408.8028361703513
 33
0.0
  0
MTEXT
  5
BE2
330
BAD
100
AcDbEntity
  8
BEM
 62
     1
100
AcDbMText
 10
356.9411691556382
 20
415.3028361703514
 30
0.0
 40
7.0
 41
0.0
 71
     5
 72
     1
  1
\A1;340
 73
     1
 44
1.0
  0
POINT
  5
BE3
330
BAD
100
AcDbEntity
  8
DEFPOINTS
 62
     0
100
AcDbPoint
 10
183.7625622428922
 20
384.0314964055957
 30
0.0
  0
POINT
  5
BE4
330
BAD
100
AcDbEntity
  8
DEFPOINTS
 62
     0
100
AcDbPoint
 10
523.7625622428923
 20
384.0314964055957
 30
0.0
  0
POINT
  5
BE5
330
BAD
100
AcDbEntity
  8
DEFPOINTS
 62
     0
100
AcDbPoint
 10
523.7625622428923
 20
408.8028361703513
 30
0.0
  0
ENDBLK
  5
BB8
330
BAD
100
AcDbEntity
  8
0
100
AcDbBlockEnd
  0
BLOCK
  5
BF2
330
BE8
100
AcDbEntity
  8
0
100
AcDbBlockBegin
  2
*D4
 70
     1
 10
0.0
 20
0.0
 30
0.0
  3
*D4
  1

  0
LINE
  5
BFD
330
BE8
100
AcDbEntity
  8
BEM
 62
     0
370
    -2
100
AcDbLine
 10
601.1549469443122
 20
337.7045229015639
 30
0.0
 11
624.5906313701832
 21
336.4763107248257
 31
0.0
  0
LINE
  5
BFE
330
BE8
100
AcDbEntity
  8
BEM
 62
     0
370
    -2
100
AcDbLine
 10
598.3811412634359
 20
284.7771575595713
 30
0.0
 11
621.816825689307
 21
283.5489453828332
 31
0.0
  0
LINE
  5
BFF
330
BE8
100
AcDbEntity
  8
BEM
 62
     0
370
    -2
100
AcDbLine
 10
622.2270206069735
 20
329.5905758940295
 30
0.0
 11
620.1859183134985
 21
290.644024038601
 31
0.0
  0
SOLID
  5
C00
330
BE8
100
AcDbEntity
  8
BEM
 62
     0
100
AcDbTrace
 10
621.0619528164265
 20
329.6516345096463
 30
0.0
 11
623.3920883975205
 21
329.5295172784128
 31
0.0
 12
622.5933723006741
 22
336.5809826373116
 32
0.0
 13
622.5933723006741
 23
336.5809826373116
 33
0.0
  0
SOLID
  5
C01
330
BE8
100
AcDbEntity
  8
BEM
 62
     0
100
AcDbTrace
 10
619.0208505229516
 20
290.7050826542178
 30
0.0
 11
621.3509861040455
 21
290.5829654229843
 31
0.0
 12
619.8195666197979
 22
283.653617295319
 32
0.0
 13
619.8195666197979
 23
283.653617295319
 33
0.0
  0
MTEXT
  5
C02
330
BE8
100
AcDbEntity
  8
BEM
 62
     1
100
AcDbMText
 10
614.7153774843312
 20
310.4574836818944
 30
0.0
 40
7.0
 41
0.0
 71
     5
 72
     1
  1
\A1;%%c53
 11
0.0523359562429469
 21
0.9986295347545738
 31
0.0
 73
     1
 44
1.0
  0
POINT
  5
C03
330
BE8
100
AcDbEntity
  8
DEFPOINTS
 62
     0
100
AcDbPoint
 10
599.1576878748031
 20
337.8091948140498
 30
0.0
  0
POINT
  5
C04
330
BE8
100
AcDbEntity
  8
DEFPOINTS
 62
     0
100
AcDbPoint
 10
596.3838821939268
 20
284.8818294720572
 30
0.0
  0
POINT
  5
C05
330
BE8
100
AcDbEntity
  8
DEFPOINTS
 62
     0
100
AcDbPoint
 10
619.8195666197979
 20
283.653617295319
 30
0.0
  0
ENDBLK
  5
BF3
330
BE8
100
AcDbEntity
  8
0
100
AcDbBlockEnd
  0
BLOCK
  5
C12
330
C08
100
AcDbEntity
  8
0
100
AcDbBlockBegin
  2
*D5
 70
     1
 10
0.0
 20
0.0
 30
0.0
  3
*D5
  1

  0
LINE
  5
C09
330
C08
100
AcDbEntity
  8
BEM
 62
     0
370
    -2
100
AcDbLine
 10
244.2683364646758
 20
383.0314964055958
 30
0.0
 11
225.2456748626912
 21
383.0314964055958
 31
0.0
  0
LINE
  5
C0A
330
C08
100
AcDbEntity
  8
BEM
 62
     0
370
    -2
100
AcDbLine
 10
351.7625622428923
 20
294.0314964055957
 30
0.0
 11
225.2456748626912
 21
294.0314964055957
 31
0.0
  0
LINE
  5
C0B
330
C08
100
AcDbEntity
  8
BEM
 62
     0
370
    -2
100
AcDbLine
 10
227.2456748626912
 20
376.0314964055958
 30
0.0
 11
227.2456748626912
 21
301.0314964055958
 31
0.0
  0
SOLID
  5
C0C
330
C08
100
AcDbEntity
  8
BEM
 62
     0
100
AcDbTrace
 10
226.0790081960246
 20
376.0314964055958
 30
0.0
 11
228.4123415293579
 21
376.0314964055958
 31
0.0
 12
227.2456748626912
 22
383.0314964055958
 32
0.0
 13
227.2456748626912
 23
383.0314964055958
 33
0.0
  0
SOLID
  5
C0D
330
C08
100
AcDbEntity
  8
BEM
 62
     0
100
AcDbTrace
 10
226.0790081960245
 20
301.0314964055958
 30
0.0
 11
228.4123415293579
 21
301.0314964055958
 31
0.0
 12
227.2456748626912
 22
294.0314964055957
 32
0.0
 13
227.2456748626912
 23
294.0314964055957
 33
0.0
  0
MTEXT
  5
C0E
330
C08
100
AcDbEntity
  8
BEM
 62
     1
100
AcDbMText
 10
220.7456748626912
 20
338.5314964055958
 30
0.0
 40
7.0
 41
0.0
 71
     5
 72
     1
  1
\A1;89
 11
0.0000000000000001
 21
1.0
 31
0.0
 73
     1
 44
1.0
  0
POINT
  5
C0F
330
C08
100
AcDbEntity
  8
DEFPOINTS
 62
     0
100
AcDbPoint
 10
246.2683364646758
 20
383.0314964055958
 30
0.0
  0
POINT
  5
C10
330
C08
100
AcDbEntity
  8
DEFPOINTS
 62
     0
100
AcDbPoint
 10
353.7625622428923
 20
294.0314964055957
 30
0.0
  0
POINT
  5
C11
330
C08
100
AcDbEntity
  8
DEFPOINTS
 62
     0
100
AcDbPoint
 10
227.2456748626912
 20
294.0314964055957
 30
0.0
  0
ENDBLK
  5
C13
330
C08
100
AcDbEntity
  8
0
100
AcDbBlockEnd
  0
BLOCK
  5
C1F
330
C15
100
AcDbEntity
  8
0
100
AcDbBlockBegin
  2
*D6
 70
     1
 10
0.0
 20
0.0
 30
0.0
  3
*D6
  1

  0
LINE
  5
C16
330
C15
100
AcDbEntity
  8
BEM
 62
     0
370
    -2
100
AcDbLine
 10
353.7625622428923
 20
287.0314964055958
 30
0.0
 11
353.7625622428923
 21
261.7971810677907
 31
0.0
  0
LINE
  5
C17
330
C15
100
AcDbEntity
  8
BEM
 62
     0
370
    -2
100
AcDbLine
 10
603.7625622428922
 20
309.0314964055957
 30
0.0
 11
603.7625622428922
 21
261.7971810677907
 31
0.0
  0
LINE
  5
C18
330
C15
100
AcDbEntity
  8
BEM
 62
     0
370
    -2
100
AcDbLine
 10
360.7625622428923
 20
263.7971810677907
 30
0.0
 11
596.7625622428922
 21
263.7971810677907
 31
0.0
  0
SOLID
  5
C19
330
C15
100
AcDbEntity
  8
BEM
 62
     0
100
AcDbTrace
 10
360.7625622428923
 20
264.9638477344574
 30
0.0
 11
360.7625622428923
 21
262.630514401124
 31
0.0
 12
353.7625622428923
 22
263.7971810677907
 32
0.0
 13
353.7625622428923
 23
263.7971810677907
 33
0.0
  0
SOLID
  5
C1A
330
C15
100
AcDbEntity
  8
BEM
 62
     0
100
AcDbTrace
 10
596.7625622428922
 20
264.9638477344574
 30
0.0
 11
596.7625622428922
 21
262.630514401124
 31
0.0
 12
603.7625622428922
 22
263.7971810677907
 32
0.0
 13
603.7625622428922
 23
263.7971810677907
 33
0.0
  0
MTEXT
  5
C1B
330
C15
100
AcDbEntity
  8
BEM
 62
     1
100
AcDbMText
 10
478.7625622428922
 20
270.2971810677907
 30
0.0
 40
7.0
 41
0.0
 71
     5
 72
     1
  1
\A1;250
 73
     1
 44
1.0
  0
POINT
  5
C1C
330
C15
100
AcDbEntity
  8
DEFPOINTS
 62
     0
100
AcDbPoint
 10
353.7625622428923
 20
289.0314964055958
 30
0.0
  0
POINT
  5
C1D
330
C15
100
AcDbEntity
  8
DEFPOINTS
 62
     0
100
AcDbPoint
 10
603.7625622428922
 20
311.0314964055957
 30
0.0
  0
POINT
  5
C1E
330
C15
100
AcDbEntity
  8
DEFPOINTS
 62
     0
100
AcDbPoint
 10
603.7625622428922
 20
263.7971810677907
 30
0.0
  0
ENDBLK
  5
C20
330
C15
100
AcDbEntity
  8
0
100
AcDbBlockEnd
  0
BLOCK
  5
C2C
330
C22
100
AcDbEntity
  8
0
100
AcDbBlockBegin
  2
*D7
 70
     1
 10
0.0
 20
0.0
 30
0.0
  3
*D7
  1

  0
LINE
  5
C2E
330
C22
100
AcDbEntity
  8
BEM
 62
     0
370
    -2
100
AcDbLine
 10
525.7625622428922
 20
383.0314964055956
 30
0.0
 11
639.697886830522
 21
383.0314964055956
 31
0.0
  0
LINE
  5
C2F
330
C22
100
AcDbEntity
  8
BEM
 62
     0
370
    -2
100
AcDbLine
 10
623.11263660822
 20
311.0314964055957
 30
0.0
 11
639.697886830522
 21
311.0314964055957
 31
0.0
  0
LINE
  5
C30
330
C22
100
AcDbEntity
  8
BEM
 62
     0
370
    -2
100
AcDbLine
 10
637.697886830522
 20
376.0314964055956
 30
0.0
 11
637.697886830522
 21
318.0314964055957
 31
0.0
  0
SOLID
  5
C31
330
C22
100
AcDbEntity
  8
BEM
 62
     0
100
AcDbTrace
 10
636.5312201638554
 20
376.0314964055956
 30
0.0
 11
638.8645534971886
 21
376.0314964055956
 31
0.0
 12
637.697886830522
 22
383.0314964055956
 32
0.0
 13
637.697886830522
 23
383.0314964055956
 33
0.0
  0
SOLID
  5
C32
330
C22
100
AcDbEntity
  8
BEM
 62
     0
100
AcDbTrace
 10
636.5312201638554
 20
318.0314964055957
 30
0.0
 11
638.8645534971886
 21
318.0314964055957
 31
0.0
 12
637.697886830522
 22
311.0314964055957
 32
0.0
 13
637.697886830522
 23
311.0314964055957
 33
0.0
  0
MTEXT
  5
C33
330
C22
100
AcDbEntity
  8
BEM
 62
     1
100
AcDbMText
 10
631.1978868305219
 20
347.0314964055958
 30
0.0
 40
7.0
 41
0.0
 71
     5
 72
     1
  1
\A1;72
 11
0.0000000000000001
 21
1.0
 31
0.0
 73
     1
 44
1.0
  0
POINT
  5
C34
330
C22
100
AcDbEntity
  8
DEFPOINTS
 62
     0
100
AcDbPoint
 10
523.7625622428923
 20
383.0314964055956
 30
0.0
  0
POINT
  5
C35
330
C22
100
AcDbEntity
  8
DEFPOINTS
 62
     0
100
AcDbPoint
 10
621.1126366082201
 20
311.0314964055957
 30
0.0
  0
POINT
  5
C36
330
C22
100
AcDbEntity
  8
DEFPOINTS
 62
     0
100
AcDbPoint
 10
637.697886830522
 20
311.0314964055957
 30
0.0
  0
ENDBLK
  5
C2D
330
C22
100
AcDbEntity
  8
0
100
AcDbBlockEnd
  0
BLOCK
  5
C42
330
C38
100
AcDbEntity
  8
0
100
AcDbBlockBegin
  2
*D8
 70
     1
 10
0.0
 20
0.0
 30
0.0
  3
*D8
  1

  0
ARC
  5
C4D
330
C38
100
AcDbEntity
  8
BEM
 62
     0
370
    -2
100
AcDbCircle
 10
353.7625622428923
 20
324.133441226356
 30
0.0
 40
30.93905689121398
100
AcDbArc
 50
9.991050948721364
 51
77.00894905127865
  0
SOLID
  5
C4E
330
C38
100
AcDbEntity
  8
BEM
 62
     0
100
AcDbTrace
 10
385.3969202600659
 20
329.5723253943088
 30
0.0
 11
383.0679279464545
 21
329.4300606847587
 31
0.0
 12
384.6592182319106
 22
322.5142160986995
 32
0.0
 13
384.6592182319106
 23
322.5142160986995
 33
0.0
  0
SOLID
  5
C4F
330
C38
100
AcDbEntity
  8
BEM
 62
     0
100
AcDbTrace
 10
360.5856472055541
 20
353.1214413005065
 30
0.0
 11
360.8496069860794
 21
355.4397962514812
 31
0.0
 12
353.7625622428923
 22
355.07249811757
 32
0.0
 13
353.7625622428923
 23
355.07249811757
 33
0.0
  0
MTEXT
  5
C50
330
C38
100
AcDbEntity
  8
BEM
 62
     1
100
AcDbMText
 10
383.4391914672971
 20
346.9584419663508
 30
0.0
 40
7.0
 41
0.0
 71
     5
 72
     1
  1
\A1;93°
 11
0.6096574709752172
 21
-0.7926649784644849
 31
0.0
 73
     1
 44
1.0
  0
POINT
  5
C51
330
C38
100
AcDbEntity
  8
DEFPOINTS
 62
     0
100
AcDbPoint
 10
369.6973545436758
 20
350.653389108067
 30
0.0
  0
POINT
  5
C52
330
C38
100
AcDbEntity
  8
DEFPOINTS
 62
     0
100
AcDbPoint
 10
353.7625622428923
 20
388.0314964055957
 30
0.0
  0
POINT
  5
C53
330
C38
100
AcDbEntity
  8
DEFPOINTS
 62
     0
100
AcDbPoint
 10
608.6877024930162
 20
310.7733807424292
 30
0.0
  0
POINT
  5
C54
330
C38
100
AcDbEntity
  8
DEFPOINTS
 62
     0
100
AcDbPoint
 10
353.7625622428922
 20
324.133441226356
 30
0.0
  0
POINT
  5
C55
330
C38
100
AcDbEntity
  8
DEFPOINTS
 62
     0
100
AcDbPoint
 10
353.7625622428923
 20
289.0314964055958
 30
0.0
  0
ENDBLK
  5
C43
330
C38
100
AcDbEntity
  8
0
100
AcDbBlockEnd
  0
ENDSEC
  0
SECTION
  2
ENTITIES
  0
LINE
  5
58
330
1E
100
AcDbEntity
  8
STEMPEL
100
AcDbLine
 10
830.0000000000002
 20
110.0
 30
0.0
 11
470.0000000000001
 21
110.0
 31
0.0
  0
LINE
  5
59
330
1E
100
AcDbEntity
  8
STEMPEL
100
AcDbLine
 10
470.0000000000001
 20
110.0
 30
0.0
 11
470.0000000000001
 21
10.0
 31
0.0
  0
LINE
  5
5A
330
1E
100
AcDbEntity
  8
STEMPEL
100
AcDbLine
 10
566.0000000000002
 20
109.9999999999999
 30
0.0
 11
566.0000000000001
 21
9.999999999999886
 31
0.0
  0
LINE
  5
5B
330
1E
100
AcDbEntity
  8
STEMPEL
100
AcDbLine
 10
650.0
 20
110.0
 30
0.0
 11
650.0
 21
10.0
 31
0.0
  0
LINE
  5
5C
330
1E
100
AcDbEntity
  8
STEMPEL
100
AcDbLine
 10
752.0000000000002
 20
109.9999999999997
 30
0.0
 11
752.0000000000002
 21
40.0
 31
0.0
  0
LINE
  5
5D
330
1E
100
AcDbEntity
  8
STEMPEL
100
AcDbLine
 10
566.0
 20
30.0
 30
0.0
 11
470.0000000000001
 21
30.0
 31
0.0
  0
LINE
  5
5E
330
1E
100
AcDbEntity
  8
STEMPEL
100
AcDbLine
 10
830.0000000000002
 20
40.0
 30
0.0
 11
566.0000000000001
 21
40.0
 31
0.0
  0
LINE
  5
5F
330
1E
100
AcDbEntity
  8
STEMPEL
100
AcDbLine
 10
830.0000000000002
 20
80.0
 30
0.0
 11
566.0000000000002
 21
80.0
 31
0.0
  0
LINE
  5
60
330
1E
100
AcDbEntity
  8
VOLL
100
AcDbLine
 10
484.0000000000002
 20
110.0
 30
0.0
 11
484.0000000000001
 21
9.999999999999985
 31
0.0
  0
LINE
  5
61
330
1E
100
AcDbEntity
  8
VOLL
100
AcDbLine
 10
524.0000000000001
 20
109.9999999999999
 30
0.0
 11
524.0000000000001
 21
9.999999999999943
 31
0.0
  0
LINE
  5
62
330
1E
100
AcDbEntity
  8
VOLL
100
AcDbLine
 10
544.0000000000002
 20
109.9999999999999
 30
0.0
 11
544.0000000000001
 21
9.999999999999914
 31
0.0
  0
LINE
  5
63
330
1E
100
AcDbEntity
  8
VOLL
100
AcDbLine
 10
584.0000000000002
 20
80.0
 30
0.0
 11
584.0000000000002
 21
40.0
 31
0.0
  0
LINE
  5
64
330
1E
100
AcDbEntity
  8
VOLL
100
AcDbLine
 10
610.0000000000002
 20
109.9999999999998
 30
0.0
 11
610.0000000000001
 21
40.0
 31
0.0
  0
LINE
  5
65
330
1E
100
AcDbEntity
  8
HILF
100
AcDbLine
 10
470.0000000000001
 20
100.0
 30
0.0
 11
566.0000000000002
 21
100.0
 31
0.0
  0
LINE
  5
66
330
1E
100
AcDbEntity
  8
HILF
100
AcDbLine
 10
470.0000000000001
 20
90.0
 30
0.0
 11
566.0000000000002
 21
90.0
 31
0.0
  0
LINE
  5
67
330
1E
100
AcDbEntity
  8
HILF
100
AcDbLine
 10
470.0000000000001
 20
80.0
 30
0.0
 11
566.0000000000002
 21
80.0
 31
0.0
  0
LINE
  5
68
330
1E
100
AcDbEntity
  8
HILF
100
AcDbLine
 10
470.0000000000001
 20
70.0
 30
0.0
 11
566.0000000000002
 21
70.0
 31
0.0
  0
LINE
  5
69
330
1E
100
AcDbEntity
  8
HILF
100
AcDbLine
 10
470.0000000000001
 20
60.0
 30
0.0
 11
566.0000000000002
 21
60.0
 31
0.0
  0
LINE
  5
6A
330
1E
100
AcDbEntity
  8
HILF
100
AcDbLine
 10
470.0000000000001
 20
50.0
 30
0.0
 11
566.0000000000002
 21
50.0
 31
0.0
  0
LINE
  5
6B
330
1E
100
AcDbEntity
  8
HILF
100
AcDbLine
 10
470.0000000000001
 20
40.0
 30
0.0
 11
566.0000000000002
 21
40.0
 31
0.0
  0
LINE
  5
6C
330
1E
100
AcDbEntity
  8
HILF
100
AcDbLine
 10
566.0000000000002
 20
70.0
 30
0.0
 11
650.0
 21
70.0
 31
0.0
  0
LINE
  5
6D
330
1E
100
AcDbEntity
  8
HILF
100
AcDbLine
 10
566.0000000000002
 20
60.0
 30
0.0
 11
650.0
 21
60.0
 31
0.0
  0
LINE
  5
6E
330
1E
100
AcDbEntity
  8
HILF
100
AcDbLine
 10
566.0000000000002
 20
50.0
 30
0.0
 11
650.0
 21
50.0
 31
0.0
  0
LINE
  5
6F
330
1E
100
AcDbEntity
  8
HILF
100
AcDbLine
 10
654.7736801096948
 20
84.03758247564136
 30
0.0
 11
746.6297842514811
 21
84.03758247564136
 31
0.0
  0
LINE
  5
70
330
1E
100
AcDbEntity
  8
HILF
100
AcDbLine
 10
654.7736801096948
 20
70.0
 30
0.0
 11
746.6297842514811
 21
70.0
 31
0.0
  0
LINE
  5
71
330
1E
100
AcDbEntity
  8
HILF
100
AcDbLine
 10
654.7736801096948
 20
60.0
 30
0.0
 11
746.6297842514811
 21
60.0
 31
0.0
  0
LINE
  5
72
330
1E
100
AcDbEntity
  8
HILF
100
AcDbLine
 10
654.7736801096948
 20
50.0
 30
0.0
 11
746.6297842514811
 21
50.0
 31
0.0
  0
LINE
  5
73
330
1E
100
AcDbEntity
  8
VOLL
100
AcDbLine
 10
752.0000000000002
 20
60.0
 30
0.0
 11
830.0000000000002
 21
60.0
 31
0.0
  0
LINE
  5
74
330
1E
100
AcDbEntity
  8
HILF
100
AcDbLine
 10
756.7238616296995
 20
83.77983636955823
 30
0.0
 11
824.858883932673
 21
83.77983636955823
 31
0.0
  0
LINE
  5
75
330
1E
100
AcDbEntity
  8
HILF
100
AcDbLine
 10
654.7736801096948
 20
14.89398258028305
 30
0.0
 11
824.858883932673
 21
14.89398258028305
 31
0.0
  0
TEXT
  5
76
330
1E
100
AcDbEntity
  8
TEXT
100
AcDbText
 10
492.3998239263297
 20
18.67381894984129
 30
0.0
 40
4.0
  1
Änderung
 41
0.8
  7
GREEKS
 72
     1
 11
503.1426810691868
 21
18.67381894984129
 31
0.0
100
AcDbText
  0
TEXT
  5
78
330
1E
100
AcDbEntity
  8
TEXT
100
AcDbText
 10
573.5163572150378
 20
102.4620895087088
 30
0.0
 40
5.0
  1
Maßstab
 41
0.8
  7
GREEKS
100
AcDbText
  0
TEXT
  5
79
330
1E
100
AcDbEntity
  8
TEXT
100
AcDbText
 10
654.8779403809011
 20
102.5489328011779
 30
0.0
 40
5.0
  1
Benennung
 41
0.8
  7
GREEKS
100
AcDbText
  0
TEXT
  5
7A
330
1E
100
AcDbEntity
  8
TEXT
100
AcDbText
 10
756.1787549576343
 20
102.3132034537135
 30
0.0
 40
5.0
  1
Zeichnungs Nr.
 41
0.8
  7
GREEKS
100
AcDbText
  0
TEXT
  5
7B
330
1E
100
AcDbEntity
  8
TEXT
100
AcDbText
 10
654.742238391136
 20
30.84560570193055
 30
0.0
 40
5.0
  1
Bauvorhaben
 41
0.8
  7
GREEKS
100
AcDbText
  0
TEXT
  5
7C
330
1E
100
AcDbEntity
  8
TEXT
100
AcDbText
 10
756.7238616296995
 20
73.18118237099965
 30
0.0
 40
5.0
  1
Ersatz für:
 41
0.8
  7
GREEKS
100
AcDbText
  0
TEXT
  5
7D
330
1E
100
AcDbEntity
  8
TEXT
100
AcDbText
 10
478.2664110704577
 20
13.65465846027187
 30
0.0
 40
4.0
  1
Index
 50
90.0
 41
0.8
  7
GREEKS
100
AcDbText
  0
TEXT
  5
7E
330
1E
100
AcDbEntity
  8
TEXT
100
AcDbText
 10
529.8990113186979
 20
18.67156269339808
 30
0.0
 40
4.0
  1
Tag
 41
0.8
  7
GREEKS
 72
     1
 11
533.6323446520313
 21
18.67156269339808
 31
0.0
100
AcDbText
  0
TEXT
  5
7F
330
1E
100
AcDbEntity
  8
TEXT
100
AcDbText
 10
548.9795678138293
 20
18.59324216966404
 30
0.0
 40
4.0
  1
Name
 41
0.8
  7
GREEKS
 72
     1
 11
555.3033773376388
 21
18.59324216966404
 31
0.0
100
AcDbText
  0
TEXT
  5
80
330
1E
100
AcDbEntity
  8
TEXT
100
AcDbText
 10
592.3311673153651
 20
73.31880501229919
 30
0.0
 40
4.0
  1
Tag
 41
0.8
  7
GREEKS
100
AcDbText
  0
TEXT
  5
81
330
1E
100
AcDbEntity
  8
TEXT
100
AcDbText
 10
622.4626584226296
 20
73.3096109191522
 30
0.0
 40
4.0
  1
Name
 41
0.8
  7
GREEKS
100
AcDbText
  0
TEXT
  5
82
330
1E
100
AcDbEntity
  8
TEXT
100
AcDbText
 10
567.5836127167616
 20
63.62990369617961
 30
0.0
 40
4.0
  1
Gez.
 41
0.8
  7
GREEKS
100
AcDbText
  0
TEXT
  5
83
330
1E
100
AcDbEntity
  8
TEXT
100
AcDbText
 10
567.5515086571673
 20
53.68926291428373
 30
0.0
 40
4.0
  1
Gepr.
 41
0.8
  7
GREEKS
100
AcDbText
  0
TEXT
  5
84
330
1E
100
AcDbEntity
  8
TEXT
100
AcDbText
 10
567.6006777387304
 20
43.52946389649804
 30
0.0
 40
4.0
  1
Norm.
 41
0.8
  7
GREEKS
100
AcDbText
  0
TEXT
  5
85
330
1E
100
AcDbEntity
  8
TEXT
100
AcDbText
 10
757.2400861497007
 20
52.07416177878596
 30
0.0
 40
5.0
  1
ersetzt durch:
 41
0.8
  7
GREEKS
100
AcDbText
  0
TEXT
  5
86
330
1E
100
AcDbEntity
  8
TEXT
100
AcDbText
 10
568.8693027807324
 20
72.96682596523723
 30
0.0
 40
4.0
  1
2008
 41
0.8
  7
GREEKS
100
AcDbText
  0
LINE
  5
87
330
1E
100
AcDbEntity
  8
HILF
100
AcDbLine
 10
0.0
 20
0.0
 30
0.0
 11
840.0
 21
0.0
 31
0.0
  0
LINE
  5
88
330
1E
100
AcDbEntity
  8
HILF
100
AcDbLine
 10
840.0
 20
0.0
 30
0.0
 11
840.0
 21
594.0
 31
0.0
  0
LINE
  5
89
330
1E
100
AcDbEntity
  8
HILF
100
AcDbLine
 10
840.0
 20
594.0
 30
0.0
 11
0.0
 21
594.0
 31
0.0
  0
LINE
  5
8B
330
1E
100
AcDbEntity
  8
STEMPEL
100
AcDbLine
 10
830.0
 20
584.0
 30
0.0
 11
40.0
 21
584.0
 31
0.0
  0
LINE
  5
8D
330
1E
100
AcDbEntity
  8
STEMPEL
100
AcDbLine
 10
40.0
 20
10.0
 30
0.0
 11
830.0
 21
10.0
 31
0.0
  0
LINE
  5
8E
330
1E
100
AcDbEntity
  8
STEMPEL
100
AcDbLine
 10
830.0
 20
10.0
 30
0.0
 11
830.0
 21
584.0
 31
0.0
  0
TEXT
  5
8F
330
1E
100
AcDbEntity
  8
TEXT
 62
     1
100
AcDbText
 10
655.0390572473189
 20
87.37343075652544
 30
0.0
 40
7.0
  1
Balkonablauf DN50
 41
0.8
  7
GREEKS
100
AcDbText
  0
TEXT
  5
90
330
1E
100
AcDbEntity
  8
TEXT
 62
     1
100
AcDbText
 10
766.6628088850802
 20
87.37343075652544
 30
0.0
 40
7.0
  1
15430050W
 41
0.8
  7
GREEKS
 72
     1
 11
790.1294755517469
 21
87.37343075652544
 31
0.0
100
AcDbText
  0
TEXT
  5
91
330
1E
100
AcDbEntity
  8
TEXT
100
AcDbText
 10
618.509022641583
 20
102.83989611379
 30
0.0
 40
5.0
  1
Zul.Abw.
 41
0.8
  7
GREEKS
100
AcDbText
  0
TEXT
  5
93
330
1E
100
AcDbEntity
  8
TEXT
100
AcDbText
 10
590.1565237511869
 20
63.1508587612022
 30
0.0
 40
4.0
  1
26.05.
 41
0.8
  7
GREEKS
 72
     1
 11
597.1660475607107
 21
63.1508587612022
 31
0.0
100
AcDbText
  0
TEXT
  5
94
330
1E
100
AcDbEntity
  8
TEXT
100
AcDbText
 10
624.023175322661
 20
62.94297655165468
 30
0.0
 40
4.0
  1
Koeh
 41
0.8
  7
GREEKS
 72
     1
 11
629.2803181798038
 21
62.94297655165468
 31
0.0
100
AcDbText
  0
TEXT
  5
95
330
1E
100
AcDbEntity
  8
TEXT
100
AcDbText
 10
654.3410940884992
 20
72.10021383107525
 30
0.0
 40
5.0
  1
Grundeinheit
 41
0.8
  7
GREEKS
100
AcDbText
  0
TEXT
  5
97
330
1E
100
AcDbEntity
  8
TEXT
100
AcDbText
 10
654.3410940884992
 20
52.59097337846058
 30
0.0
 40
5.0
  1
EDV-Art.Nr. 15430.050X
 41
0.8
  7
GREEKS
100
AcDbText
  0
TEXT
  5
98
330
1E
100
AcDbEntity
  8
TEXT
100
AcDbText
 10
654.1676050109348
 20
43.31127624791508
 30
0.0
 40
4.0
  1
15430050W.DWG
 41
0.8
  7
GREEKS
100
AcDbText
  0
TEXT
  5
99
330
1E
100
AcDbEntity
  8
TEXT
 62
     1
100
AcDbText
 10
582.7034912034222
 20
87.47077088414977
 30
0.0
 40
7.0
  1
1:2
 41
0.8
  7
GREEKS
100
AcDbText
  0
TEXT
  5
9A
330
1E
100
AcDbEntity
  8
TEXT
100
AcDbText
 10
470.0441139350127
 20
114.1143585051043
 30
0.0
 40
5.0
  1
Erstellt mit AUTOCAD 2004
 41
0.8
  7
GREEKS
100
AcDbText
  0
INSERT
  5
9B
330
1E
100
AcDbEntity
  8
HILF
100
AcDbBlockReference
  2
LORO
 10
573.0624985962354
 20
36.9805930029896
 30
0.0
 41
2.0
 42
2.0
 43
2.0
  0
LINE
  5
9C
330
1E
100
AcDbEntity
  8
BEM
100
AcDbLine
 10
456.0
 20
0.0
 30
0.0
 11
456.0
 21
10.0
 31
0.0
  0
LINE
  5
13E
330
1E
100
AcDbEntity
  8
HILF
100
AcDbLine
 10
0.0
 20
0.0
 30
0.0
 11
0.0
 21
594.0
 31
0.0
  0
LINE
  5
13F
330
1E
100
AcDbEntity
  8
STEMPEL
100
AcDbLine
 10
40.0
 20
10.0
 30
0.0
 11
40.0
 21
584.0
 31
0.0
  0
LINE
  5
14A
330
1E
100
AcDbEntity
  8
HILF
100
AcDbLine
 10
0.0
 20
297.0
 30
0.0
 11
40.0
 21
297.0
 31
0.0
  0
TEXT
  5
15B
330
1E
100
AcDbEntity
  8
BEM
100
AcDbText
 10
837.3022923857165
 20
10.16790107998861
 30
0.0
 40
4.0
  1
Diese Zeichnung ist urheberrechtlich geschützt und bleibt unser Eigentum. Sie darf weder ganz noch teilweise verfielfältigt und nicht an Dritte weitergegeben werden.
 50
90.0
 41
0.8
  7
GREEKS
100
AcDbText
  0
LINE
  5
4D8
330
1E
100
AcDbEntity
  8
STEMPEL
100
AcDbLine
 10
403.7625622428922
 20
355.7837959205618
 30
0.0
 11
405.2625622428922
 21
355.7837959205618
 31
0.0
  0
LINE
  5
4D9
330
1E
100
AcDbEntity
  8
STEMPEL
100
AcDbLine
 10
303.7625622428923
 20
355.7837959205618
 30
0.0
 11
302.2625622428923
 21
355.7837959205618
 31
0.0
  0
LINE
  5
4E0
102
{ACAD_REACTORS
330
81A
102
}
330
1E
100
AcDbEntity
  8
STEMPEL
100
AcDbLine
 10
599.0791839404384
 20
336.3112505119178
 30
0.0
 11
605.0434883317696
 21
335.473022194341
 31
0.0
  0
LINE
  5
4E1
102
{ACAD_REACTORS
330
81A
102
}
330
1E
100
AcDbEntity
  8
STEMPEL
100
AcDbLine
 10
599.1576878748028
 20
337.8091948140497
 30
0.0
 11
605.1219922661341
 21
336.9709664964728
 31
0.0
  0
LINE
  5
4E3
102
{ACAD_REACTORS
330
81A
102
}
330
1E
100
AcDbEntity
  8
STEMPEL
100
AcDbLine
 10
599.1576878748031
 20
337.8091948140497
 30
0.0
 11
561.0125622428922
 21
339.8082961388906
 31
0.0
  0
LINE
  5
4E7
102
{ACAD_REACTORS
330
81A
102
}
330
1E
100
AcDbEntity
  8
STEMPEL
100
AcDbLine
 10
596.4623861282912
 20
286.379773774189
 30
0.0
 11
602.4816361540149
 21
286.5899706168506
 31
0.0
  0
LINE
  5
4E8
102
{ACAD_REACTORS
330
81A
102
}
330
1E
100
AcDbEntity
  8
STEMPEL
100
AcDbLine
 10
596.3838821939268
 20
284.8818294720572
 30
0.0
 11
602.4031322196506
 21
285.0920263147188
 31
0.0
  0
LINE
  5
4E9
102
{ACAD_REACTORS
330
81A
102
}
330
1E
100
AcDbEntity
  8
STEMPEL
100
AcDbLine
 10
596.3838821939268
 20
284.8818294720572
 30
0.0
 11
561.0125622428922
 21
286.7355618010009
 31
0.0
  0
LINE
  5
4EB
102
{ACAD_REACTORS
330
81A
102
}
330
1E
100
AcDbEntity
  8
STEMPEL
100
AcDbLine
 10
605.1219922661339
 20
336.9709664964728
 30
0.0
 11
602.4031322196506
 21
285.0920263147188
 31
0.0
  0
LINE
  5
4EC
330
1E
100
AcDbEntity
  8
HILF
100
AcDbLine
 10
599.0003801337984
 20
334.8075843059028
 30
0.0
 11
596.5411899349314
 21
287.8834399802039
 31
0.0
  0
LINE
  5
4ED
330
1E
100
AcDbEntity
  8
STEMPEL
100
AcDbLine
 10
468.7625622428922
 20
379.5314964055957
 30
0.0
 11
468.1286348502812
 21
378.1720347250407
 31
0.0
  0
LINE
  5
4F0
330
1E
100
AcDbEntity
  8
STEMPEL
100
AcDbLine
 10
468.7625622428922
 20
379.5314964055957
 30
0.0
 11
461.2567880211087
 21
383.0314964055957
 31
0.0
  0
LINE
  5
4F1
330
1E
100
AcDbEntity
  8
STEMPEL
100
AcDbLine
 10
468.1286348502812
 20
378.1720347250407
 30
0.0
 11
460.9242460271444
 21
381.5314964055957
 31
0.0
  0
ARC
  5
4F2
330
1E
100
AcDbEntity
  8
STEMPEL
100
AcDbCircle
 10
424.7919200179873
 20
379.5314964055957
 30
0.0
 40
2.0
100
AcDbArc
 50
90.0
 51
134.9999999999997
  0
POINT
  5
4F3
330
1E
100
AcDbEntity
  8
STEMPEL
100
AcDbPoint
 10
418.0762707418769
 20
383.0314964055957
 30
0.0
  0
LINE
  5
4F4
330
1E
100
AcDbEntity
  8
STEMPEL
100
AcDbLine
 10
423.3777064556141
 20
380.9457099679688
 30
0.0
 11
421.4628327214613
 21
379.030836233816
 31
0.0
  0
LINE
  5
4F5
330
1E
100
AcDbEntity
  8
MITTEL
100
AcDbLine
 10
417.4021725496815
 20
388.0314964055957
 30
0.0
 11
417.4021725496815
 21
373.1720347250408
 31
0.0
  0
LINE
  5
4F7
330
1E
100
AcDbEntity
  8
STEMPEL
100
AcDbLine
 10
418.0762707418769
 20
381.5314964055957
 30
0.0
 11
460.9242460271444
 21
381.5314964055957
 31
0.0
  0
ARC
  5
4FB
330
1E
100
AcDbEntity
  8
STEMPEL
100
AcDbCircle
 10
418.0762707418769
 20
375.0314964055957
 30
0.0
 40
8.0
100
AcDbArc
 50
134.9999999999997
 51
134.9999999999997
  0
POINT
  5
4FC
330
1E
100
AcDbEntity
  8
STEMPEL
100
AcDbPoint
 10
412.4194164923846
 20
380.6883506550881
 30
0.0
  0
POINT
  5
4FD
330
1E
100
AcDbEntity
  8
STEMPEL
100
AcDbPoint
 10
410.7625622428922
 20
379.0314964055957
 30
0.0
  0
LINE
  5
4FE
330
1E
100
AcDbEntity
  8
STEMPEL
100
AcDbLine
 10
413.1123673962868
 20
379.2599812154306
 30
0.0
 11
413.3415123779014
 21
379.0308362338159
 31
0.0
  0
LINE
  5
4FF
330
1E
100
AcDbEntity
  8
STEMPEL
100
AcDbLine
 10
413.4800766641644
 20
379.6276904833082
 30
0.0
 11
411.3508214499364
 21
377.4984352690802
 31
0.0
  0
LINE
  5
500
330
1E
100
AcDbEntity
  8
STEMPEL
100
AcDbLine
 10
412.4194164923846
 20
380.6883506550881
 30
0.0
 11
410.7625622428922
 21
379.0314964055956
 31
0.0
  0
ARC
  5
501
330
1E
100
AcDbEntity
  8
STEMPEL
100
AcDbCircle
 10
383.7625622428923
 20
365.0314964055957
 30
0.0
 40
23.5
100
AcDbArc
 50
353.3741904351755
 51
16.65737706073938
  0
LINE
  5
502
102
{ACAD_REACTORS
330
B9E
102
}
330
1E
100
AcDbEntity
  8
STEMPEL
100
AcDbLine
 10
404.3674722420442
 20
372.9148766404216
 30
0.0
 11
404.8393542503542
 21
371.3377503391277
 31
0.0
  0
LINE
  5
503
102
{ACAD_REACTORS
330
B9E
102
}
330
1E
100
AcDbEntity
  8
STEMPEL
100
AcDbLine
 10
404.2625622428921
 20
373.7176370672328
 30
0.0
 11
404.2625622428921
 21
373.6314964055957
 31
0.0
  0
ARC
  5
504
102
{ACAD_REACTORS
330
B9E
102
}
330
1E
100
AcDbEntity
  8
STEMPEL
100
AcDbCircle
 10
406.7625622428922
 20
373.6314964055957
 30
0.0
 40
2.5
100
AcDbArc
 50
180.0
 51
196.6573770607382
  0
ARC
  5
505
102
{ACAD_REACTORS
330
B9E
102
}
330
1E
100
AcDbEntity
  8
STEMPEL
100
AcDbCircle
 10
406.7625622428922
 20
373.7176370672328
 30
0.0
 40
2.5
100
AcDbArc
 50
160.2500772043241
 51
180.0
  0
ARC
  5
506
330
1E
100
AcDbEntity
  8
STEMPEL
100
AcDbCircle
 10
406.7625622428922
 20
373.6314964055957
 30
0.0
 40
1.0
100
AcDbArc
 50
184.5397086345389
 51
196.6573770607393
  0
ARC
  5
507
330
1E
100
AcDbEntity
  8
STEMPEL
100
AcDbCircle
 10
408.2625622428921
 20
373.4271403293378
 30
0.0
 40
2.5
100
AcDbArc
 50
155.3800226712837
 51
177.1292868703559
  0
LINE
  5
508
330
1E
100
AcDbEntity
  8
STEMPEL
100
AcDbLine
 10
406.2764082508629
 20
371.7677221982321
 30
0.0
 11
405.804526242553
 21
373.344848499526
 31
0.0
  0
ARC
  5
509
102
{ACAD_REACTORS
330
B9E
102
}
330
1E
100
AcDbEntity
  8
STEMPEL
100
AcDbCircle
 10
383.7625622428923
 20
365.0314964055957
 30
0.0
 40
22.0
100
AcDbArc
 50
353.3741904351755
 51
16.65737706073938
  0
ARC
  5
50A
102
{ACAD_REACTORS
330
B9E
102
}
330
1E
100
AcDbEntity
  8
STEMPEL
100
AcDbCircle
 10
410.7625622428922
 20
372.2814964055957
 30
0.0
 40
6.75
100
AcDbArc
 50
90.0
 51
160.2500772043246
  0
ARC
  5
50B
330
1E
100
AcDbEntity
  8
STEMPEL
100
AcDbCircle
 10
410.7625622428922
 20
372.2814964055957
 30
0.0
 40
5.25
100
AcDbArc
 50
83.56653354842034
 51
155.3800226712831
  0
LINE
  5
50F
102
{ACAD_REACTORS
330
7FB
102
}
330
1E
100
AcDbEntity
  8
STEMPEL
100
AcDbLine
 10
405.2625622428922
 20
347.9708077622244
 30
0.0
 11
405.2625622428922
 21
357.4886181579203
 31
0.0
  0
LINE
  5
510
330
1E
100
AcDbEntity
  8
STEMPEL
100
AcDbLine
 10
403.7625622428922
 20
348.0494194311489
 30
0.0
 11
403.7625622428922
 21
355.7837959205619
 31
0.0
  0
POINT
  5
511
330
1E
100
AcDbEntity
  8
STEMPEL
100
AcDbPoint
 10
402.7690368053145
 20
356.9079279833401
 30
0.0
  0
LINE
  5
512
330
1E
100
AcDbEntity
  8
STEMPEL
100
AcDbLine
 10
402.7625622428923
 20
356.9019775945885
 30
0.0
 11
402.7625622428923
 21
354.9757661816169
 31
0.0
  0
POINT
  5
513
330
1E
100
AcDbEntity
  8
STEMPEL
100
AcDbPoint
 10
402.7690368053145
 20
356.9079279833401
 30
0.0
  0
LINE
  5
514
330
1E
100
AcDbEntity
  8
STEMPEL
100
AcDbLine
 10
402.7625622428923
 20
356.901977594588
 30
0.0
 11
402.7625622428923
 21
354.9757661816169
 31
0.0
  0
ARC
  5
515
102
{ACAD_REACTORS
330
7FB
102
}
330
1E
100
AcDbEntity
  8
SCHRAFF
100
AcDbCircle
 10
405.2625622428922
 20
347.9708077622243
 30
0.0
 40
3.0
100
AcDbArc
 50
357.000000000001
 51
90.0
  0
ARC
  5
517
330
1E
100
AcDbEntity
  8
SCHRAFF
100
AcDbCircle
 10
403.4172358695331
 20
357.7968084885139
 30
0.0
 40
3.214052882874523
100
AcDbArc
 50
305.0396469351304
 51
27.31704230804165
  0
ARC
  5
51B
330
1E
100
AcDbEntity
  8
STEMPEL
100
AcDbCircle
 10
396.675733813037
 20
363.5314964055957
 30
0.0
 40
10.5
100
AcDbArc
 50
305.4293005533256
 51
353.3741904351755
  0
ARC
  5
51C
102
{ACAD_REACTORS
330
B9E
102
}
330
1E
100
AcDbEntity
  8
STEMPEL
100
AcDbCircle
 10
396.675733813037
 20
363.5314964055957
 30
0.0
 40
9.0
100
AcDbArc
 50
312.5562941594319
 51
353.3741904351755
  0
LINE
  5
52D
330
1E
100
AcDbEntity
  8
STEMPEL
100
AcDbLine
 10
303.7625622428923
 20
345.5314964055958
 30
0.0
 11
303.7625622428923
 21
355.7837959205619
 31
0.0
  0
LINE
  5
52E
330
1E
100
AcDbEntity
  8
STEMPEL
100
AcDbLine
 10
302.2625622428923
 20
345.5314964055958
 30
0.0
 11
302.2625622428923
 21
357.4886181579204
 31
0.0
  0
LINE
  5
52F
330
1E
100
AcDbEntity
  8
STEMPEL
100
AcDbLine
 10
304.7625622428924
 20
356.901977594588
 30
0.0
 11
304.7625622428923
 21
354.9757661816169
 31
0.0
  0
ARC
  5
530
330
1E
100
AcDbEntity
  8
SCHRAFF
100
AcDbCircle
 10
304.496851017484
 20
357.7141751828814
 30
0.0
 40
3.458881841076094
100
AcDbArc
 50
156.3279041877065
 51
229.762537516556
  0
LINE
  5
533
330
1E
100
AcDbEntity
  8
STEMPEL
100
AcDbLine
 10
304.7625622428923
 20
356.901977594588
 30
0.0
 11
304.7625622428923
 21
354.9757661816168
 31
0.0
  0
LINE
  5
538
330
1E
100
AcDbEntity
  8
STEMPEL
100
AcDbLine
 10
402.7625622428923
 20
356.901977594588
 30
0.0
 11
304.7625622428924
 21
356.901977594588
 31
0.0
  0
LINE
  5
53B
330
1E
100
AcDbEntity
  8
STEMPEL
100
AcDbLine
 10
410.7625622428922
 20
379.0314964055957
 30
0.0
 11
408.9657612794216
 21
379.0314964055958
 31
0.0
  0
LINE
  5
53D
102
{ACAD_REACTORS
330
B9E
102
}
330
1E
100
AcDbEntity
  8
STEMPEL
100
AcDbLine
 10
402.7625622428923
 20
356.9019775945879
 30
0.0
 11
304.7625622428923
 21
356.9019775945879
 31
0.0
  0
LINE
  5
53E
330
1E
100
AcDbEntity
  8
STEMPEL
100
AcDbLine
 10
402.7625622428923
 20
354.9757661816169
 30
0.0
 11
304.7625622428923
 21
354.9757661816169
 31
0.0
  0
LINE
  5
53F
330
1E
100
AcDbEntity
  8
MITTEL
100
AcDbLine
 10
295.2625622428923
 20
365.0314964055957
 30
0.0
 11
412.2625622428921
 21
365.0314964055957
 31
0.0
  0
LINE
  5
540
330
1E
100
AcDbEntity
  8
STEMPEL
100
AcDbLine
 10
412.0244209058968
 20
378.1720347250407
 30
0.0
 11
468.1286348502812
 21
378.1720347250407
 31
0.0
  0
LINE
  5
541
330
1E
100
AcDbEntity
  8
STEMPEL
100
AcDbLine
 10
413.3421725496815
 20
379.0314964055958
 30
0.0
 11
421.4621725496814
 21
379.0314964055958
 31
0.0
  0
ARC
  5
542
102
{ACAD_REACTORS
330
B9E
102
}
330
1E
100
AcDbEntity
  8
STEMPEL
100
AcDbCircle
 10
418.0762707418769
 20
375.0314964055957
 30
0.0
 40
8.0
100
AcDbArc
 50
90.0
 51
135.0
  0
ARC
  5
543
330
1E
100
AcDbEntity
  8
STEMPEL
100
AcDbCircle
 10
418.0762707418769
 20
375.0314964055957
 30
0.0
 40
6.5
100
AcDbArc
 50
90.0
 51
135.0
  0
LINE
  5
551
330
1E
100
AcDbEntity
  8
MITTEL
100
AcDbLine
 10
263.7625622428923
 20
388.0314964055956
 30
0.0
 11
263.7625622428923
 21
373.1720347250407
 31
0.0
  0
LINE
  5
567
102
{ACAD_REACTORS
330
B9E
102
}
330
1E
100
AcDbEntity
  8
STEMPEL
100
AcDbLine
 10
523.7625622428923
 20
383.0314964055956
 30
0.0
 11
502.757837423128
 21
383.0314964055956
 31
0.0
  0
ARC
  5
568
102
{ACAD_REACTORS
330
7FB
102
}
330
1E
100
AcDbEntity
  8
SCHRAFF
100
AcDbCircle
 10
369.5867401932753
 20
298.5063049508276
 30
0.0
 40
3.688215779727094
100
AcDbArc
 50
227.4977429553032
 51
328.9182280035324
  0
ARC
  5
56A
102
{ACAD_REACTORS
330
7FB
102
}
330
1E
100
AcDbEntity
  8
STEMPEL
100
AcDbCircle
 10
353.7625622428923
 20
345.5314964055958
 30
0.0
 40
51.5
100
AcDbArc
 50
180.0
 51
288.6445610304392
  0
ARC
  5
56B
330
1E
100
AcDbEntity
  8
STEMPEL
100
AcDbCircle
 10
353.7625622428923
 20
345.5314964055958
 30
0.0
 40
50.0
100
AcDbArc
 50
180.0
 51
286.3446251865985
  0
LINE
  5
56D
102
{ACAD_REACTORS
330
81A
102
}
330
1E
100
AcDbEntity
  8
STEMPEL
100
AcDbLine
 10
367.3983474425995
 20
296.8824528363139
 30
0.0
 11
400.7297817511725
 21
348.2083607217728
 31
0.0
  0
LINE
  5
56E
330
1E
100
AcDbEntity
  8
MITTEL
100
AcDbLine
 10
353.7625622428923
 20
388.0314964055957
 30
0.0
 11
353.7625622428923
 21
289.0314964055958
 31
0.0
  0
LINE
  5
56F
102
{ACAD_REACTORS
330
81A
102
}
330
1E
100
AcDbEntity
  8
STEMPEL
100
AcDbLine
 10
370.2269230851153
 20
296.7342134683556
 30
0.0
 11
365.6799752610797
 21
296.9725089063291
 31
0.0
  0
LINE
  5
572
102
{ACAD_REACTORS
330
81A
102
}
330
1E
100
AcDbEntity
  8
STEMPEL
100
AcDbLine
 10
599.0791839404384
 20
336.3112505119178
 30
0.0
 11
399.7864392707413
 21
346.7557406872788
 31
0.0
  0
LINE
  5
573
102
{ACAD_REACTORS
330
81A
102
}
330
1E
100
AcDbEntity
  8
STEMPEL
100
AcDbLine
 10
596.4623861282912
 20
286.379773774189
 30
0.0
 11
368.3416899230309
 21
298.335072870808
 31
0.0
  0
LINE
  5
574
330
1E
100
AcDbEntity
  8
MITTEL
100
AcDbLine
 10
608.6877024930163
 20
310.7733807424292
 30
0.0
 11
353.7625622428923
 21
324.133441226356
 31
0.0
  0
LINE
  5
575
102
{ACAD_REACTORS
330
7FB
330
81A
102
}
330
1E
100
AcDbEntity
  8
STEMPEL
100
AcDbLine
 10
561.0125622428922
 20
339.8082961388906
 30
0.0
 11
400.7297817511725
 21
348.2083607217728
 31
0.0
  0
LINE
  5
576
102
{ACAD_REACTORS
330
7FB
330
81A
102
}
330
1E
100
AcDbEntity
  8
STEMPEL
100
AcDbLine
 10
561.0125622428922
 20
286.7355618010009
 30
0.0
 11
370.2269230851153
 21
296.7342134683556
 31
0.0
  0
HATCH
  5
7F4
330
1E
100
AcDbEntity
  8
SCHRAFF
100
AcDbHatch
 10
0.0
 20
0.0
 30
0.0
210
0.0
220
0.0
230
1.0
  2
_USER
 70
     0
 71
     0
 91
        4
 92
        7
 72
     1
 73
     1
 93
        3
 10
406.2728600516964
 20
359.2717818659544
 42
-0.0489139296699631
 10
405.2625622428922
 20
357.4886181579204
 42
0.0
 10
405.2625622428922
 20
355.1652867786093
 42
0.3752648671072384
 97
        0
 92
        7
 72
     1
 73
     1
 93
        3
 10
301.3290055775621
 20
359.1029224094463
 42
0.3318545218697995
 10
302.2625622428923
 20
355.073755280241
 42
0.0
 10
302.2625622428923
 20
357.4886181579203
 42
-0.0444880500239099
 97
        0
 92
        7
 72
     1
 73
     1
 93
        3
 10
303.7625622428923
 20
355.7837959205618
 42
-0.0542250436313249
 10
302.2625622428923
 20
357.4886181579203
 42
0.0
 10
302.2625622428923
 20
355.7837959205618
 42
0.0
 97
        0
 92
        7
 72
     1
 73
     1
 93
        3
 10
405.2625622428922
 20
357.4886181579203
 42
-0.0542250436313268
 10
403.7625622428921
 20
355.7837959205618
 42
0.0
 10
405.2625622428922
 20
355.7837959205617
 42
0.0
 97
        0
 75
     0
 76
     0
 52
0.0
 41
0.1
 77
     0
 78
     1
 53
0.0
 43
125.5137759301747
 44
-105.3097255781226
 45
0.0
 46
0.1
 79
     0
 47
0.1817110238822445
 98
        4
 10
406.0147154958335
 20
357.3140975690837
 10
301.820654395055
 20
357.8592306737862
 10
302.5480143518348
 20
356.0421203247779
 10
404.9236766522749
 20
356.2238313596788
  0
HATCH
  5
7FB
330
1E
100
AcDbEntity
  8
SCHRAFF
100
AcDbHatch
 10
0.0
 20
0.0
 30
0.0
210
0.0
220
0.0
230
1.0
  2
_USER
 70
     0
 71
     1
 91
        2
 92
        7
 72
     1
 73
     1
 93
        3
 10
405.2625622428922
 20
350.9708077622243
 42
0.0
 10
405.2625622428922
 20
347.9708077622243
 42
0.0
 10
408.2584508471559
 20
347.8137998934955
 42
0.4296339059668312
 97
        3
330
50F
330
575
330
515
 92
        7
 72
     1
 73
     1
 93
        3
 10
372.7454438881898
 20
296.6022233859883
 42
0.0
 10
370.2269230851153
 20
296.7342134683556
 42
-0.0158878150574418
 10
367.0949106122896
 20
295.7871652013567
 42
0.4738753808361825
 97
        3
330
576
330
56A
330
568
 75
     0
 76
     0
 52
0.0
 41
0.1
 77
     0
 78
     1
 53
0.0
 43
125.5137759301747
 44
-105.3097255781226
 45
0.0
 46
0.1
 79
     0
 47
0.1817110238822445
 98
        2
 10
407.287590507949
 20
348.9553899636458
 10
370.010483872496
 20
295.3506374666219
  0
HATCH
  5
80A
330
1E
100
AcDbEntity
  8
SCHRAFF
100
AcDbHatch
 10
0.0
 20
0.0
 30
0.0
210
0.0
220
0.0
230
1.0
  2
_USER
 70
     0
 71
     0
 91
        3
 92
        7
 72
     0
 73
     1
 93
        4
 10
403.7625622428922
 20
348.0494194311489
 10
405.2625622428922
 20
347.9708077622243
 10
405.2625622428922
 20
355.7837959205618
 10
403.7625622428922
 20
355.7837959205619
 97
        0
 92
        7
 72
     1
 73
     1
 93
        4
 10
370.2269230851152
 20
296.7342134683556
 42
0.0
 10
365.6799752610797
 20
296.9725089063291
 42
-0.0602388900209463
 10
353.7625622428923
 20
295.5314964055958
 42
0.0
 10
353.7625622428923
 20
294.0314964055957
 42
0.0815321889103924
 97
        0
 92
        7
 72
     1
 73
     1
 93
        6
 10
303.7625622428923
 20
345.5314964055957
 42
0.0
 10
303.7625622428923
 20
355.7837959205618
 42
0.0
 10
302.2625622428923
 20
355.7837959205618
 42
0.0
 10
302.2625622428923
 20
345.5314964055958
 42
0.4142135623730951
 10
353.7625622428923
 20
294.0314964055957
 42
0.0
 10
353.7625622428923
 20
295.5314964055958
 42
-0.4142135623730948
 97
        0
 75
     0
 76
     0
 52
45.0
 41
2.0
 77
     0
 78
     1
 53
45.0
 43
125.5137759301747
 44
-105.3097255781226
 45
-1.414213562373094
 46
1.414213562373095
 79
     0
 47
0.1817110238822445
 98
        3
 10
404.3781594137171
 20
353.3164548012655
 10
360.1911495630198
 20
294.8055043619195
 10
348.0078992146478
 20
295.168926431721
  0
HATCH
  5
81A
330
1E
100
AcDbEntity
  8
SCHRAFF
100
AcDbHatch
 10
0.0
 20
0.0
 30
0.0
210
0.0
220
0.0
230
1.0
  2
_USER
 70
     0
 71
     1
 91
        2
 92
        7
 72
     0
 73
     1
 93
        7
 10
400.7297817511725
 20
348.2083607217727
 10
399.7864392707412
 20
346.7557406872787
 10
599.0791839404387
 20
336.3112505119178
 10
605.0434883317694
 20
335.4730221943411
 10
605.1219922661338
 20
336.9709664964728
 10
599.1576878748021
 20
337.8091948140498
 10
561.0125622428922
 20
339.8082961388906
 97
        7
330
56D
330
572
330
4E0
330
4EB
330
4E1
330
4E3
330
575
 92
        7
 72
     0
 73
     1
 93
        8
 10
561.0125622428922
 20
286.7355618010009
 10
596.3838821939269
 20
284.8818294720572
 10
602.4031322196506
 20
285.0920263147188
 10
602.4816361540151
 20
286.5899706168506
 10
596.4623861282909
 20
286.379773774189
 10
368.3416899230308
 20
298.3350728708079
 10
367.3983474425995
 20
296.8824528363139
 10
370.2269230851153
 20
296.7342134683556
 97
        8
330
56D
330
56F
330
576
330
4E9
330
4E8
330
4EB
330
4E7
330
573
 75
     0
 76
     0
 52
135.0
 41
2.0
 77
     0
 78
     1
 53
135.0
 43
125.5137759301747
 44
-105.3097255781226
 45
-1.414213562373095
 46
-1.414213562373094
 79
     0
 47
0.5139078261329404
 98
        2
 10
504.8433215233813
 20
342.0785173552876
 10
399.9319760339472
 20
295.8268129317023
  0
LINE
  5
91A
330
1E
100
AcDbEntity
  8
STEMPEL
100
AcDbLine
 10
289.4488537439076
 20
381.5314964055957
 30
0.0
 11
271.1523097111981
 21
381.5314964055957
 31
0.0
  0
LINE
  5
91B
330
1E
100
AcDbEntity
  8
STEMPEL
100
AcDbLine
 10
239.3964896355033
 20
378.1720347250407
 30
0.0
 11
246.6008784586402
 21
381.5314964055957
 31
0.0
  0
LINE
  5
91C
330
1E
100
AcDbEntity
  8
STEMPEL
100
AcDbLine
 10
238.7625622428923
 20
379.5314964055957
 30
0.0
 11
246.2683364646758
 21
383.0314964055957
 31
0.0
  0
LINE
  5
91D
330
1E
100
AcDbEntity
  8
STEMPEL
100
AcDbLine
 10
238.7625622428923
 20
379.5314964055957
 30
0.0
 11
239.3964896355033
 21
378.1720347250407
 31
0.0
  0
ARC
  5
91E
330
1E
100
AcDbEntity
  8
STEMPEL
100
AcDbCircle
 10
289.4488537439076
 20
375.0314964055957
 30
0.0
 40
6.5
100
AcDbArc
 50
44.99999999999752
 51
90.00000000000024
  0
ARC
  5
91F
102
{ACAD_REACTORS
330
B9E
102
}
330
1E
100
AcDbEntity
  8
STEMPEL
100
AcDbCircle
 10
289.4488537439076
 20
375.0314964055957
 30
0.0
 40
8.0
100
AcDbArc
 50
45.00000000000001
 51
90.0
  0
LINE
  5
920
330
1E
100
AcDbEntity
  8
STEMPEL
100
AcDbLine
 10
295.1057079933999
 20
380.6883506550881
 30
0.0
 11
296.7625622428924
 21
379.0314964055956
 31
0.0
  0
POINT
  5
921
330
1E
100
AcDbEntity
  8
STEMPEL
100
AcDbPoint
 10
295.1057079933999
 20
380.6883506550881
 30
0.0
  0
ARC
  5
922
330
1E
100
AcDbEntity
  8
STEMPEL
100
AcDbCircle
 10
289.4488537439076
 20
375.0314964055957
 30
0.0
 40
8.0
100
AcDbArc
 50
45.00000000000029
 51
45.00000000000029
  0
ARC
  5
923
330
1E
100
AcDbEntity
  8
STEMPEL
100
AcDbCircle
 10
296.7625622428924
 20
372.2814964055957
 30
0.0
 40
5.25
100
AcDbArc
 50
24.61997732871691
 51
96.43346645157615
  0
ARC
  5
924
102
{ACAD_REACTORS
330
B9E
102
}
330
1E
100
AcDbEntity
  8
STEMPEL
100
AcDbCircle
 10
296.7625622428924
 20
372.2814964055957
 30
0.0
 40
6.75
100
AcDbArc
 50
19.74992279567537
 51
90.0
  0
LINE
  5
925
330
1E
100
AcDbEntity
  8
STEMPEL
100
AcDbLine
 10
301.2487162349216
 20
371.7677221982321
 30
0.0
 11
301.7205982432315
 21
373.344848499526
 31
0.0
  0
ARC
  5
926
330
1E
100
AcDbEntity
  8
STEMPEL
100
AcDbCircle
 10
299.2625622428923
 20
373.4271403293378
 30
0.0
 40
2.5
100
AcDbArc
 50
2.870713129644066
 51
24.61997732871628
  0
ARC
  5
927
330
1E
100
AcDbEntity
  8
STEMPEL
100
AcDbCircle
 10
300.7625622428923
 20
373.6314964055957
 30
0.0
 40
1.0
100
AcDbArc
 50
343.3426229392606
 51
355.4602913654612
  0
ARC
  5
928
102
{ACAD_REACTORS
330
B9E
102
}
330
1E
100
AcDbEntity
  8
STEMPEL
100
AcDbCircle
 10
300.7625622428923
 20
373.7176370672328
 30
0.0
 40
2.5
100
AcDbArc
 50
0.000000000000007
 51
19.74992279567586
  0
ARC
  5
929
102
{ACAD_REACTORS
330
B9E
102
}
330
1E
100
AcDbEntity
  8
STEMPEL
100
AcDbCircle
 10
300.7625622428923
 20
373.6314964055957
 30
0.0
 40
2.5
100
AcDbArc
 50
343.3426229392618
 51
0.000000000000007
  0
LINE
  5
92A
102
{ACAD_REACTORS
330
B9E
102
}
330
1E
100
AcDbEntity
  8
STEMPEL
100
AcDbLine
 10
303.2625622428923
 20
373.7176370672328
 30
0.0
 11
303.2625622428923
 21
373.6314964055957
 31
0.0
  0
LINE
  5
92B
102
{ACAD_REACTORS
330
B9E
102
}
330
1E
100
AcDbEntity
  8
STEMPEL
100
AcDbLine
 10
303.1576522437403
 20
372.9148766404216
 30
0.0
 11
302.6857702354303
 21
371.3377503391277
 31
0.0
  0
POINT
  5
92C
330
1E
100
AcDbEntity
  8
STEMPEL
100
AcDbPoint
 10
296.7625622428924
 20
379.0314964055957
 30
0.0
  0
ARC
  5
92D
102
{ACAD_REACTORS
330
B9E
102
}
330
1E
100
AcDbEntity
  8
STEMPEL
100
AcDbCircle
 10
323.7625622428923
 20
365.0314964055957
 30
0.0
 40
22.0
100
AcDbArc
 50
163.3426229392606
 51
186.6258095648245
  0
ARC
  5
92E
330
1E
100
AcDbEntity
  8
STEMPEL
100
AcDbCircle
 10
323.7625622428923
 20
365.0314964055957
 30
0.0
 40
23.5
100
AcDbArc
 50
163.3426229392606
 51
186.6258095648245
  0
ARC
  5
92F
102
{ACAD_REACTORS
330
B9E
102
}
330
1E
100
AcDbEntity
  8
STEMPEL
100
AcDbCircle
 10
310.8493906727476
 20
363.5314964055957
 30
0.0
 40
9.0
100
AcDbArc
 50
186.6258095648245
 51
227.4437058405681
  0
ARC
  5
930
330
1E
100
AcDbEntity
  8
STEMPEL
100
AcDbCircle
 10
310.8493906727476
 20
363.5314964055957
 30
0.0
 40
10.5
100
AcDbArc
 50
186.6258095648245
 51
234.5706994466745
  0
LINE
  5
931
330
1E
100
AcDbEntity
  8
STEMPEL
100
AcDbLine
 10
304.7625622428923
 20
356.901977594588
 30
0.0
 11
304.7625622428923
 21
354.9757661816169
 31
0.0
  0
POINT
  5
932
330
1E
100
AcDbEntity
  8
STEMPEL
100
AcDbPoint
 10
304.75608768047
 20
356.9079279833401
 30
0.0
  0
LINE
  5
933
330
1E
100
AcDbEntity
  8
STEMPEL
100
AcDbLine
 10
304.7625622428923
 20
356.9019775945885
 30
0.0
 11
304.7625622428923
 21
354.9757661816169
 31
0.0
  0
POINT
  5
934
330
1E
100
AcDbEntity
  8
STEMPEL
100
AcDbPoint
 10
304.7560876804699
 20
356.9079279833401
 30
0.0
  0
LINE
  5
936
330
1E
100
AcDbEntity
  8
STEMPEL
100
AcDbLine
 10
294.0450478216204
 20
379.627690483308
 30
0.0
 11
296.1743030358487
 21
377.4984352690796
 31
0.0
  0
LINE
  5
937
330
1E
100
AcDbEntity
  8
STEMPEL
100
AcDbLine
 10
259.7025622428923
 20
379.0314964055957
 30
0.0
 11
267.8225622428922
 21
379.0314964055957
 31
0.0
  0
LINE
  5
938
330
1E
100
AcDbEntity
  8
STEMPEL
100
AcDbLine
 10
269.738096148825
 20
380.9457099679688
 30
0.0
 11
267.8232224146721
 21
379.0308362338159
 31
0.0
  0
ARC
  5
939
330
1E
100
AcDbEntity
  8
STEMPEL
100
AcDbCircle
 10
271.1523097111981
 20
379.5314964055956
 30
0.0
 40
2.0
100
AcDbArc
 50
90.0
 51
134.9999999999977
  0
ARC
  5
93A
330
1E
100
AcDbEntity
  8
STEMPEL
100
AcDbCircle
 10
256.3728147745865
 20
379.5314964055956
 30
0.0
 40
2.0
100
AcDbArc
 50
45.00000000000029
 51
90.0
  0
LINE
  5
93B
330
1E
100
AcDbEntity
  8
STEMPEL
100
AcDbLine
 10
257.7870283369596
 20
380.9457099679687
 30
0.0
 11
259.7019020711125
 21
379.0308362338159
 31
0.0
  0
LINE
  5
93C
330
1E
100
AcDbEntity
  8
STEMPEL
100
AcDbLine
 10
268.6774359770452
 20
382.0063701397485
 30
0.0
 11
266.7625622428923
 21
380.0914964055957
 31
0.0
  0
ARC
  5
93D
330
1E
100
AcDbEntity
  8
STEMPEL
100
AcDbCircle
 10
271.1523097111981
 20
379.5314964055956
 30
0.0
 40
3.5
100
AcDbArc
 50
90.0
 51
134.9999999999997
  0
LINE
  5
93E
330
1E
100
AcDbEntity
  8
STEMPEL
100
AcDbLine
 10
258.8476885087394
 20
382.0063701397485
 30
0.0
 11
260.7625622428923
 21
380.0914964055957
 31
0.0
  0
ARC
  5
93F
330
1E
100
AcDbEntity
  8
STEMPEL
100
AcDbCircle
 10
256.3728147745865
 20
379.5314964055956
 30
0.0
 40
3.5
100
AcDbArc
 50
45.00000000000029
 51
90.0
  0
LINE
  5
940
330
1E
100
AcDbEntity
  8
STEMPEL
100
AcDbLine
 10
259.7019020711125
 20
379.0308362338159
 30
0.0
 11
260.7625622428923
 21
380.0914964055957
 31
0.0
  0
LINE
  5
941
330
1E
100
AcDbEntity
  8
STEMPEL
100
AcDbLine
 10
260.7625622428923
 20
380.0914964055957
 30
0.0
 11
266.7625622428923
 21
380.0914964055957
 31
0.0
  0
LINE
  5
942
330
1E
100
AcDbEntity
  8
STEMPEL
100
AcDbLine
 10
266.7625622428923
 20
380.0914964055957
 30
0.0
 11
267.8232224146721
 21
379.0308362338159
 31
0.0
  0
LINE
  5
944
330
1E
100
AcDbEntity
  8
STEMPEL
100
AcDbLine
 10
256.3728147745865
 20
381.5314964055957
 30
0.0
 11
246.6008784586402
 21
381.5314964055957
 31
0.0
  0
HATCH
  5
9A5
330
1E
100
AcDbEntity
  8
SCHRAFF
100
AcDbHatch
 10
0.0
 20
0.0
 30
0.0
210
0.0
220
0.0
230
1.0
  2
_USER
 70
     0
 71
     0
 91
        3
 92
        7
 72
     1
 73
     1
 93
        8
 10
461.2567880211088
 20
383.0314964055956
 42
0.0
 10
418.0762707418769
 20
383.0314964055957
 42
0.0210937042129262
 10
417.4021725496815
 20
383.0030452906794
 42
0.0
 10
417.4021725496815
 20
381.4964474206675
 42
-0.0259793971817303
 10
418.0762707418772
 20
381.5314964055957
 42
0.0
 10
460.924246027144
 20
381.5314964055957
 42
0.0
 10
468.1286348502812
 20
378.1720347250407
 42
0.0
 10
468.7625622428922
 20
379.5314964055957
 42
0.0
 97
        0
 92
        7
 72
     1
 73
     1
 93
       16
 10
417.4021725496815
 20
383.0030452906794
 42
0.1770756892303729
 10
412.4194164923844
 20
380.6883506550879
 42
0.0
 10
410.7625622428922
 20
379.0314964055956
 42
0.3164988464831926
 10
404.4096210664228
 20
374.5624256917247
 42
0.0907302820398373
 10
404.2629332811054
 20
373.6745667364161
 42
0.0771412373566204
 10
404.3674722420441
 20
372.9148766404219
 42
0.0
 10
404.8393542503542
 20
371.3377503391277
 42
-0.0728097721655519
 10
405.7625622428922
 20
365.0314964055957
 42
0.0
 10
407.2625622428923
 20
365.0314964055957
 42
0.0728097721655456
 10
406.2764082508631
 20
371.7677221982315
 42
0.0
 10
405.804526242553
 20
373.344848499526
 42
-0.0529226287086391
 10
405.765699524366
 20
373.5523464187819
 42
-0.0951853383424353
 10
405.9898364526985
 20
374.4686380406116
 42
-0.3240200234877804
 10
411.3508214499364
 20
377.4984352690802
 42
0.0
 10
413.4800766641644
 20
379.6276904833082
 42
-0.172043912052787
 10
417.4021725496815
 20
381.4964474206675
 42
0.0
 97
        0
 92
        7
 72
     1
 73
     1
 93
        6
 10
407.1056031581539
 20
362.319957944057
 42
0.0289186054923408
 10
407.2625622428921
 20
365.0314964055957
 42
0.0
 10
405.7625622428922
 20
365.0314964055957
 42
-0.0289186054923377
 10
405.6156218231378
 20
362.4930348671342
 42
-0.1800090156599683
 10
402.7625622428923
 20
356.901977594588
 42
0.0
 10
402.7625622428923
 20
354.9757661816169
 42
0.2123052470571922
 97
        0
 75
     0
 76
     0
 52
135.0
 41
2.0
 77
     0
 78
     1
 53
135.0
 43
125.5137759301747
 44
-105.3097255781226
 45
-1.414213562373095
 46
-1.414213562373094
 79
     0
 47
0.1180195295744155
 98
        3
 10
450.438949849497
 20
382.3284064762488
 10
415.9528716460754
 20
381.7383077513105
 10
405.7960134457298
 20
362.1470656270951
  0
LINE
  5
9A8
330
1E
100
AcDbEntity
  8
SCHRAFF
100
AcDbLine
 10
240.9391920998325
 20
378.8914086984119
 30
0.0
 11
239.8104611208739
 21
380.0201396773705
 31
0.0
  0
LINE
  5
9A9
330
1E
100
AcDbEntity
  8
SCHRAFF
100
AcDbLine
 10
242.868137303805
 20
379.7908906191856
 30
0.0
 11
241.7394063248463
 21
380.9196215981442
 31
0.0
  0
LINE
  5
9AA
330
1E
100
AcDbEntity
  8
SCHRAFF
100
AcDbLine
 10
244.7970825077774
 20
380.6903725399593
 30
0.0
 11
243.6683515288188
 21
381.8191035189179
 31
0.0
  0
LINE
  5
9AB
330
1E
100
AcDbEntity
  8
SCHRAFF
100
AcDbLine
 10
246.7843857668872
 20
381.5314964055957
 30
0.0
 11
245.5972967327912
 21
382.7185854396916
 31
0.0
  0
LINE
  5
9AC
330
1E
100
AcDbEntity
  8
SCHRAFF
100
AcDbLine
 10
249.6128128916335
 20
381.5314964055957
 30
0.0
 11
248.1128128916335
 21
383.0314964055956
 31
0.0
  0
LINE
  5
9AD
330
1E
100
AcDbEntity
  8
SCHRAFF
100
AcDbLine
 10
252.4412400163797
 20
381.5314964055957
 30
0.0
 11
250.9412400163797
 21
383.0314964055956
 31
0.0
  0
LINE
  5
9AE
330
1E
100
AcDbEntity
  8
SCHRAFF
100
AcDbLine
 10
255.2696671411258
 20
381.5314964055957
 30
0.0
 11
253.7696671411259
 21
383.0314964055956
 31
0.0
  0
LINE
  5
9AF
330
1E
100
AcDbEntity
  8
SCHRAFF
100
AcDbLine
 10
260.1503282543821
 20
379.4792624170855
 30
0.0
 11
256.5980942658721
 21
383.0314964055956
 31
0.0
  0
LINE
  5
9B2
330
1E
100
AcDbEntity
  8
SCHRAFF
100
AcDbLine
 10
268.4536291132813
 20
379.6612429324251
 30
0.0
 11
267.3929689415015
 21
380.7219031042049
 31
0.0
  0
LINE
  5
9B3
330
1E
100
AcDbEntity
  8
SCHRAFF
100
AcDbLine
 10
269.8738070275624
 20
381.0694921428901
 30
0.0
 11
268.8105858581168
 21
382.1327133123356
 31
0.0
  0
LINE
  5
9B4
330
1E
100
AcDbEntity
  8
SCHRAFF
100
AcDbLine
 10
272.2402298896029
 20
381.5314964055957
 30
0.0
 11
270.7402298896029
 21
383.0314964055956
 31
0.0
  0
LINE
  5
9B5
330
1E
100
AcDbEntity
  8
SCHRAFF
100
AcDbLine
 10
275.0686570143491
 20
381.5314964055957
 30
0.0
 11
273.5686570143491
 21
383.0314964055956
 31
0.0
  0
LINE
  5
9B6
330
1E
100
AcDbEntity
  8
SCHRAFF
100
AcDbLine
 10
277.8970841390953
 20
381.5314964055957
 30
0.0
 11
276.3970841390953
 21
383.0314964055956
 31
0.0
  0
LINE
  5
9B7
330
1E
100
AcDbEntity
  8
SCHRAFF
100
AcDbLine
 10
302.8502140133564
 20
359.4067936560808
 30
0.0
 11
300.5005071828483
 21
361.7565004865889
 31
0.0
  0
LINE
  5
9B8
330
1E
100
AcDbEntity
  8
SCHRAFF
100
AcDbLine
 10
280.7255112638415
 20
381.5314964055957
 30
0.0
 11
279.2255112638415
 21
383.0314964055957
 31
0.0
  0
LINE
  5
9B9
330
1E
100
AcDbEntity
  8
SCHRAFF
100
AcDbLine
 10
301.8347559501398
 20
363.2506788440436
 30
0.0
 11
300.2634966157354
 21
364.821938178448
 31
0.0
  0
LINE
  5
9BA
330
1E
100
AcDbEntity
  8
SCHRAFF
100
AcDbLine
 10
283.5539383885877
 20
381.5314964055957
 30
0.0
 11
282.0539383885878
 21
383.0314964055957
 31
0.0
  0
LINE
  5
9BB
330
1E
100
AcDbEntity
  8
SCHRAFF
100
AcDbLine
 10
301.789712856187
 20
366.1241490627425
 30
0.0
 11
300.3946123112929
 21
367.5192496076367
 31
0.0
  0
LINE
  5
9BC
330
1E
100
AcDbEntity
  8
SCHRAFF
100
AcDbLine
 10
286.3823655133338
 20
381.5314964055957
 30
0.0
 11
284.8823655133339
 21
383.0314964055956
 31
0.0
  0
LINE
  5
9BD
330
1E
100
AcDbEntity
  8
SCHRAFF
100
AcDbLine
 10
302.0664997174352
 20
368.6757893262405
 30
0.0
 11
300.7846738734821
 21
369.9576151701937
 31
0.0
  0
LINE
  5
9BE
330
1E
100
AcDbEntity
  8
SCHRAFF
100
AcDbLine
 10
289.21079263808
 20
381.5314964055957
 30
0.0
 11
287.7107926380801
 21
383.0314964055956
 31
0.0
  0
LINE
  5
9BF
330
1E
100
AcDbEntity
  8
SCHRAFF
100
AcDbLine
 10
302.5839288914043
 20
370.9867872770177
 30
0.0
 11
301.3763651515481
 21
372.1943510168738
 31
0.0
  0
LINE
  5
9C0
330
1E
100
AcDbEntity
  8
SCHRAFF
100
AcDbLine
 10
293.3111667726811
 20
380.2595493957408
 30
0.0
 11
290.6263503946746
 21
382.9443657737473
 31
0.0
  0
LINE
  5
9C1
330
1E
100
AcDbEntity
  8
SCHRAFF
100
AcDbLine
 10
303.2210952561082
 20
373.1780480370599
 30
0.0
 11
300.9469896285338
 21
375.4521536646344
 31
0.0
  0
LINE
  5
9C2
330
1E
100
AcDbEntity
  8
SCHRAFF
100
AcDbLine
 10
299.93321950193
 20
376.4659237912382
 30
0.0
 11
297.3975838229208
 21
379.0015594702475
 31
0.0
  0
TEXT
  5
A54
330
1E
100
AcDbEntity
  8
TEXT
100
AcDbText
 10
612.2898419893276
 20
90.20963860687919
 30
0.0
 40
4.0
  1
DIN EN1123-2
 41
0.8
  7
GREEKS
 72
     1
 11
629.2803181798038
 21
90.20963860687919
 31
0.0
100
AcDbText
  0
TEXT
  5
A71
330
1E
100
AcDbEntity
  8
TEXT
 62
     1
100
AcDbText
 10
499.8468909468328
 20
324.3751669263478
 30
0.0
 40
7.0
  1
DN50
 50
357.0
 41
0.8
  7
GREEKS
100
AcDbText
  0
LINE
  5
A7C
102
{ACAD_REACTORS
330
B9E
102
}
330
1E
100
AcDbEntity
  8
STEMPEL
100
AcDbLine
 10
308.7625622428922
 20
357.901977594588
 30
0.0
 11
308.7625622428922
 21
356.9019775945879
 31
0.0
  0
LINE
  5
A7D
102
{ACAD_REACTORS
330
B9E
102
}
330
1E
100
AcDbEntity
  8
STEMPEL
100
AcDbLine
 10
398.7625622428923
 20
357.901977594588
 30
0.0
 11
398.7625622428923
 21
356.9019775945879
 31
0.0
  0
LINE
  5
A7E
102
{ACAD_REACTORS
330
B9E
102
}
330
1E
100
AcDbEntity
  8
STEMPEL
100
AcDbLine
 10
523.7625622428923
 20
384.0314964055957
 30
0.0
 11
503.0257866155592
 21
384.0314964055957
 31
0.0
  0
LINE
  5
A7F
102
{ACAD_REACTORS
330
B9E
102
}
330
1E
100
AcDbEntity
  8
STEMPEL
100
AcDbLine
 10
183.7625622428922
 20
384.0314964055957
 30
0.0
 11
183.7625622428922
 21
383.0314964055956
 31
0.0
  0
LINE
  5
A80
102
{ACAD_REACTORS
330
B9E
102
}
330
1E
100
AcDbEntity
  8
STEMPEL
100
AcDbLine
 10
523.7625622428923
 20
384.0314964055957
 30
0.0
 11
523.7625622428923
 21
383.0314964055956
 31
0.0
  0
LINE
  5
A87
330
1E
100
AcDbEntity
  8
HILF
100
AcDbLine
 10
503.5616850004214
 20
386.0314964055957
 30
0.0
 11
502.2219390382658
 21
381.0314964055957
 31
0.0
  0
LINE
  5
A88
330
1E
100
AcDbEntity
  8
HILF
100
AcDbLine
 10
502.5616850004214
 20
386.0314964055957
 30
0.0
 11
501.2219390382658
 21
381.0314964055957
 31
0.0
  0
LINE
  5
A89
102
{ACAD_REACTORS
330
B9E
102
}
330
1E
100
AcDbEntity
  8
STEMPEL
100
AcDbLine
 10
502.0257866155592
 20
384.0314964055956
 30
0.0
 11
205.4609068247544
 21
384.0314964055957
 31
0.0
  0
LINE
  5
A8A
102
{ACAD_REACTORS
330
B9E
102
}
330
1E
100
AcDbEntity
  8
STEMPEL
100
AcDbLine
 10
501.757837423128
 20
383.0314964055956
 30
0.0
 11
418.0762707418769
 21
383.0314964055957
 31
0.0
  0
LINE
  5
A93
102
{ACAD_REACTORS
330
B9E
102
}
330
1E
100
AcDbEntity
  8
HILF
100
AcDbLine
 10
503.5616850004214
 20
386.0314964055957
 30
0.0
 11
502.2219390382658
 21
381.0314964055956
 31
0.0
  0
LINE
  5
A94
102
{ACAD_REACTORS
330
B9E
102
}
330
1E
100
AcDbEntity
  8
HILF
100
AcDbLine
 10
502.5616850004214
 20
386.0314964055957
 30
0.0
 11
501.2219390382658
 21
381.0314964055956
 31
0.0
  0
LINE
  5
A95
102
{ACAD_REACTORS
330
B9E
102
}
330
1E
100
AcDbEntity
  8
HILF
100
AcDbLine
 10
205.9968052096166
 20
386.0314964055957
 30
0.0
 11
204.6570592474611
 21
381.0314964055956
 31
0.0
  0
LINE
  5
A96
102
{ACAD_REACTORS
330
B9E
102
}
330
1E
100
AcDbEntity
  8
HILF
100
AcDbLine
 10
204.9968052096167
 20
386.0314964055957
 30
0.0
 11
203.6570592474611
 21
381.0314964055956
 31
0.0
  0
LINE
  5
A97
102
{ACAD_REACTORS
330
B9E
102
}
330
1E
100
AcDbEntity
  8
STEMPEL
100
AcDbLine
 10
204.4609068247545
 20
384.0314964055957
 30
0.0
 11
183.7625622428922
 21
384.0314964055957
 31
0.0
  0
LINE
  5
A98
102
{ACAD_REACTORS
330
B9E
102
}
330
1E
100
AcDbEntity
  8
STEMPEL
100
AcDbLine
 10
204.1929576323233
 20
383.0314964055958
 30
0.0
 11
183.7625622428922
 21
383.0314964055957
 31
0.0
  0
HATCH
  5
AEA
330
1E
100
AcDbEntity
  8
SCHRAFF
100
AcDbHatch
 10
0.0
 20
0.0
 30
0.0
210
0.0
220
0.0
230
1.0
  2
NET
 70
     0
 71
     1
 91
        2
 92
        7
 72
     1
 73
     1
 93
        2
 10
398.0125622428923
 20
364.0314964055956
 42
1.0
 10
405.0125622428923
 20
364.0314964055956
 42
1.0
 97
        1
330
B00
 92
        7
 72
     1
 73
     1
 93
        2
 10
302.5125622428923
 20
364.0314964055957
 42
1.0
 10
309.5125622428923
 20
364.0314964055957
 42
1.0
 97
        1
330
B26
 75
     0
 76
     1
 52
45.0
 41
10.0
 77
     0
 78
     2
 53
45.0
 43
241.2625622428923
 44
141.2693284523608
 45
-0.8838834764831842
 46
0.8838834764831844
 79
     0
 53
135.0
 43
241.2625622428923
 44
141.2693284523608
 45
-0.8838834764831844
 46
-0.8838834764831842
 79
     0
 47
0.1673277598288079
 98
        2
 10
401.3134610080753
 20
364.768021726723
 10
307.7110875058665
 20
365.1026772838656
  0
HATCH
  5
AEB
330
1E
100
AcDbEntity
  8
SCHRAFF
100
AcDbHatch
 10
0.0
 20
0.0
 30
0.0
210
0.0
220
0.0
230
1.0
  2
NET
 70
     0
 71
     1
 91
        3
 92
        7
 72
     1
 73
     1
 93
        5
 10
406.7625622428923
 20
384.0314964055957
 42
0.0
 10
405.7625622428922
 20
383.0314964055957
 42
0.0
 10
405.7625622428922
 20
379.4612808980592
 42
-0.222066610227725
 10
408.7625622428922
 20
381.0314964055956
 42
0.0
 10
411.7625622428922
 20
384.0314964055957
 42
0.0
 97
        5
330
AED
330
AEC
330
B12
330
AF6
330
B14
 92
        7
 72
     1
 73
     1
 93
       19
 10
392.2625622428922
 20
378.9314964055956
 42
0.0
 10
392.2625622428922
 20
377.9314964055955
 42
0.0
 10
394.2625622428923
 20
372.4365415666863
 42
0.0
 10
394.2625622428923
 20
358.0314964055956
 42
0.0
 10
400.0125622428923
 20
358.0314964055956
 42
0.4142135623730868
 10
402.0125622428922
 20
360.0314964055956
 42
0.0
 10
399.0125622428923
 20
360.0314964055957
 42
-0.4142135623730951
 10
398.0125622428923
 20
361.0314964055957
 42
0.0
 10
398.0125622428922
 20
367.0314964055956
 42
-0.4142135623730951
 10
399.0125622428922
 20
368.0314964055956
 42
0.0
 10
402.0125622428921
 20
368.0314964055956
 42
0.0
 10
402.0125622428922
 20
373.0314964055957
 42
0.0
 10
403.7625622428921
 20
376.0625853188411
 42
0.0
 10
403.7625622428922
 20
383.0314964055957
 42
0.0
 10
402.7625622428922
 20
384.0314964055957
 42
0.0
 10
398.8125622428922
 20
384.0314964055957
 42
0.0
 10
398.8125622428922
 20
383.0314964055956
 42
0.0
 10
399.0125622428923
 20
382.6850862440819
 42
0.0
 10
399.0125622428923
 20
378.9314964055957
 42
0.0
 97
       19
330
AEE
330
AF3
330
AF1
330
AF2
330
B15
330
B06
330
B04
330
B05
330
B0E
330
B0C
330
B0D
330
B02
330
AFE
330
AFF
330
AFA
330
B01
330
B03
330
AF7
330
B13
 92
        7
 72
     1
 73
     1
 93
       19
 10
315.2625622428922
 20
377.9314964055957
 42
0.0
 10
315.2625622428922
 20
378.9314964055957
 42
0.0
 10
308.5125622428923
 20
378.9314964055957
 42
0.0
 10
308.5125622428923
 20
382.685086244082
 42
0.0
 10
308.7125622428922
 20
383.0314964055957
 42
0.0
 10
308.7125622428922
 20
384.0314964055957
 42
0.0
 10
295.7625622428923
 20
384.0314964055957
 42
0.0
 10
298.7625622428922
 20
381.0314964055957
 42
-0.2558860185809181
 10
302.0461066606489
 20
379.0355735962219
 42
0.0
 10
305.5125622428923
 20
373.0314964055955
 42
0.0
 10
305.5125622428923
 20
368.0314964055957
 42
0.0
 10
308.5125622428923
 20
368.0314964055956
 42
-0.4142135623730951
 10
309.5125622428923
 20
367.0314964055956
 42
0.0
 10
309.5125622428923
 20
361.0314964055956
 42
-0.4142135623730784
 10
308.5125622428923
 20
360.0314964055956
 42
0.0
 10
305.5125622428923
 20
360.0314964055957
 42
0.4142135623731117
 10
307.5125622428923
 20
358.0314964055956
 42
0.0
 10
313.2625622428923
 20
358.0314964055955
 42
0.0
 10
313.2625622428923
 20
372.4365415666863
 42
0.0
 97
       19
330
B1A
330
B2F
330
B2D
330
B18
330
B19
330
B30
330
B2C
330
B2B
330
B20
330
B25
330
B22
330
B28
330
B1C
330
B27
330
B24
330
B29
330
B2E
330
B2A
330
B1B
 75
     0
 76
     1
 52
45.0
 41
15.0
 77
     0
 78
     2
 53
45.0
 43
241.2625622428923
 44
141.2693284523608
 45
-1.325825214724776
 46
1.325825214724776
 79
     0
 53
135.0
 43
241.2625622428923
 44
141.2693284523608
 45
-1.325825214724776
 46
-1.325825214724776
 79
     0
 47
0.1673277598288079
 98
        3
 10
408.8485358727369
 20
383.1740752709428
 10
397.6296465699452
 20
377.4849314990598
 10
309.8878867017333
 20
373.9710484988328
  0
LINE
  5
AEC
102
{ACAD_REACTORS
330
AEB
102
}
330
1E
100
AcDbEntity
  8
STEMPEL
100
AcDbLine
 10
405.7625622428922
 20
383.0314964055957
 30
0.0
 11
406.7625622428923
 21
384.0314964055957
 31
0.0
  0
LINE
  5
AED
102
{ACAD_REACTORS
330
AEB
102
}
330
1E
100
AcDbEntity
  8
STEMPEL
100
AcDbLine
 10
411.7625622428922
 20
384.0314964055957
 30
0.0
 11
406.7625622428923
 21
384.0314964055957
 31
0.0
  0
LINE
  5
AEE
102
{ACAD_REACTORS
330
AEB
102
}
330
1E
100
AcDbEntity
  8
STEMPEL
100
AcDbLine
 10
403.7625622428922
 20
383.0314964055957
 30
0.0
 11
402.7625622428923
 21
384.0314964055957
 31
0.0
  0
POINT
  5
AEF
330
1E
100
AcDbEntity
  8
STEMPEL
100
AcDbPoint
 10
399.0125622428923
 20
382.6850862440819
 30
0.0
  0
POINT
  5
AF0
330
1E
100
AcDbEntity
  8
STEMPEL
100
AcDbPoint
 10
398.8125622428922
 20
384.0314964055957
 30
0.0
  0
LINE
  5
AF1
102
{ACAD_REACTORS
330
AEB
102
}
330
1E
100
AcDbEntity
  8
STEMPEL
100
AcDbLine
 10
398.8125622428922
 20
384.0314964055957
 30
0.0
 11
398.8125622428922
 21
383.0314964055956
 31
0.0
  0
LINE
  5
AF2
102
{ACAD_REACTORS
330
AEB
102
}
330
1E
100
AcDbEntity
  8
STEMPEL
100
AcDbLine
 10
398.8125622428922
 20
383.0314964055956
 30
0.0
 11
399.0125622428923
 21
382.6850862440819
 31
0.0
  0
LINE
  5
AF3
102
{ACAD_REACTORS
330
AEB
102
}
330
1E
100
AcDbEntity
  8
STEMPEL
100
AcDbLine
 10
402.7625622428923
 20
384.0314964055957
 30
0.0
 11
398.8125622428922
 21
384.0314964055957
 31
0.0
  0
LINE
  5
AF4
330
1E
100
AcDbEntity
  8
STEMPEL
100
AcDbLine
 10
406.7625622428923
 20
384.0314964055957
 30
0.0
 11
402.7625622428923
 21
384.0314964055957
 31
0.0
  0
LINE
  5
AF5
330
1E
100
AcDbEntity
  8
STEMPEL
100
AcDbLine
 10
405.7625622428922
 20
383.0314964055957
 30
0.0
 11
403.7625622428922
 21
383.0314964055957
 31
0.0
  0
ARC
  5
AF6
102
{ACAD_REACTORS
330
AEB
102
}
330
1E
100
AcDbEntity
  8
STEMPEL
100
AcDbCircle
 10
408.9431194402733
 20
377.0355735962219
 30
0.0
 40
4.0
100
AcDbArc
 50
92.58717043466431
 51
142.6684147984943
  0
LINE
  5
AF7
102
{ACAD_REACTORS
330
AEB
102
}
330
1E
100
AcDbEntity
  8
STEMPEL
100
AcDbLine
 10
402.0125622428922
 20
373.0314964055957
 30
0.0
 11
403.7625622428922
 21
376.0625853188411
 31
0.0
  0
LINE
  5
AF8
330
1E
100
AcDbEntity
  8
STEMPEL
100
AcDbLine
 10
403.7625622428922
 20
376.0625853188411
 30
0.0
 11
405.3897979991694
 21
378.881040324606
 31
0.0
  0
POINT
  5
AF9
330
1E
100
AcDbEntity
  8
STEMPEL
100
AcDbPoint
 10
402.0125622428922
 20
360.0314964055956
 30
0.0
  0
ARC
  5
AFA
102
{ACAD_REACTORS
330
AEB
102
}
330
1E
100
AcDbEntity
  8
STEMPEL
100
AcDbCircle
 10
399.0125622428922
 20
367.0314964055956
 30
0.0
 40
1.0
100
AcDbArc
 50
90.0
 51
180.0
  0
POINT
  5
AFB
330
1E
100
AcDbEntity
  8
STEMPEL
100
AcDbPoint
 10
400.0125622428923
 20
360.0314964055957
 30
0.0
  0
POINT
  5
AFC
330
1E
100
AcDbEntity
  8
STEMPEL
100
AcDbPoint
 10
400.0125622428923
 20
360.0314964055956
 30
0.0
  0
POINT
  5
AFD
330
1E
100
AcDbEntity
  8
STEMPEL
100
AcDbPoint
 10
400.0125622428923
 20
360.0314964055956
 30
0.0
  0
ARC
  5
AFE
102
{ACAD_REACTORS
330
AEB
102
}
330
1E
100
AcDbEntity
  8
STEMPEL
100
AcDbCircle
 10
399.0125622428923
 20
361.0314964055957
 30
0.0
 40
1.0
100
AcDbArc
 50
180.0
 51
270.0
  0
LINE
  5
AFF
102
{ACAD_REACTORS
330
AEB
102
}
330
1E
100
AcDbEntity
  8
STEMPEL
100
AcDbLine
 10
398.0125622428922
 20
367.0314964055956
 30
0.0
 11
398.0125622428923
 21
361.0314964055957
 31
0.0
  0
CIRCLE
  5
B00
102
{ACAD_REACTORS
330
AEA
330
B9E
102
}
330
1E
100
AcDbEntity
  8
STEMPEL
100
AcDbCircle
 10
401.5125622428922
 20
364.0314964055956
 30
0.0
 40
3.5
  0
LINE
  5
B01
102
{ACAD_REACTORS
330
AEB
102
}
330
1E
100
AcDbEntity
  8
STEMPEL
100
AcDbLine
 10
402.0125622428922
 20
368.0314964055956
 30
0.0
 11
399.0125622428922
 21
368.0314964055956
 31
0.0
  0
LINE
  5
B02
102
{ACAD_REACTORS
330
AEB
102
}
330
1E
100
AcDbEntity
  8
STEMPEL
100
AcDbLine
 10
402.0125622428922
 20
360.0314964055956
 30
0.0
 11
399.0125622428923
 21
360.0314964055957
 31
0.0
  0
LINE
  5
B03
102
{ACAD_REACTORS
330
AEB
102
}
330
1E
100
AcDbEntity
  8
STEMPEL
100
AcDbLine
 10
402.0125622428922
 20
373.0314964055957
 30
0.0
 11
402.0125622428922
 21
368.0314964055956
 31
0.0
  0
LINE
  5
B04
102
{ACAD_REACTORS
330
AEB
102
}
330
1E
100
AcDbEntity
  8
STEMPEL
100
AcDbLine
 10
392.2625622428923
 20
378.9314964055957
 30
0.0
 11
392.2625622428922
 21
377.9314964055957
 31
0.0
  0
LINE
  5
B05
102
{ACAD_REACTORS
330
AEB
102
}
330
1E
100
AcDbEntity
  8
STEMPEL
100
AcDbLine
 10
392.2625622428922
 20
377.9314964055957
 30
0.0
 11
394.2625622428923
 21
372.4365415666863
 31
0.0
  0
LINE
  5
B06
102
{ACAD_REACTORS
330
AEB
102
}
330
1E
100
AcDbEntity
  8
STEMPEL
100
AcDbLine
 10
399.0125622428923
 20
378.9314964055957
 30
0.0
 11
392.2625622428923
 21
378.9314964055957
 31
0.0
  0
POINT
  5
B07
330
1E
100
AcDbEntity
  8
STEMPEL
100
AcDbPoint
 10
401.3714414393005
 20
358.5640335169443
 30
0.0
  0
POINT
  5
B08
330
1E
100
AcDbEntity
  8
STEMPEL
100
AcDbPoint
 10
401.4660959786458
 20
358.6577279829616
 30
0.0
  0
POINT
  5
B09
330
1E
100
AcDbEntity
  8
STEMPEL
100
AcDbPoint
 10
401.4159056268325
 20
358.6064955821744
 30
0.0
  0
POINT
  5
B0A
330
1E
100
AcDbEntity
  8
STEMPEL
100
AcDbPoint
 10
400.0125622428923
 20
358.0314964055956
 30
0.0
  0
POINT
  5
B0B
330
1E
100
AcDbEntity
  8
STEMPEL
100
AcDbPoint
 10
400.0125622428923
 20
358.0314964055956
 30
0.0
  0
LINE
  5
B0C
102
{ACAD_REACTORS
330
AEB
102
}
330
1E
100
AcDbEntity
  8
STEMPEL
100
AcDbLine
 10
400.0125622428923
 20
358.0314964055956
 30
0.0
 11
394.2625622428922
 21
358.0314964055956
 31
0.0
  0
ARC
  5
B0D
102
{ACAD_REACTORS
330
AEB
102
}
330
1E
100
AcDbEntity
  8
STEMPEL
100
AcDbCircle
 10
400.0125622428923
 20
360.0314964055956
 30
0.0
 40
2.0
100
AcDbArc
 50
270.0
 51
0.0
  0
LINE
  5
B0E
102
{ACAD_REACTORS
330
AEB
102
}
330
1E
100
AcDbEntity
  8
STEMPEL
100
AcDbLine
 10
394.2625622428923
 20
372.4365415666863
 30
0.0
 11
394.2625622428922
 21
358.0314964055956
 31
0.0
  0
ARC
  5
B0F
330
1E
100
AcDbEntity
  8
STEMPEL
100
AcDbCircle
 10
408.9431194402733
 20
377.0355735962219
 30
0.0
 40
4.0
100
AcDbArc
 50
142.6684147984943
 51
152.5871704346633
  0
LINE
  5
B10
330
1E
100
AcDbEntity
  8
MITTEL
100
AcDbLine
 10
404.7625622428922
 20
387.0314964055957
 30
0.0
 11
404.7625622428922
 21
375.5478063833634
 31
0.0
  0
LINE
  5
B12
102
{ACAD_REACTORS
330
AEB
102
}
330
1E
100
AcDbEntity
  8
STEMPEL
100
AcDbLine
 10
405.7625622428922
 20
383.0314964055957
 30
0.0
 11
405.7625622428922
 21
379.4612808980592
 31
0.0
  0
LINE
  5
B13
102
{ACAD_REACTORS
330
AEB
102
}
330
1E
100
AcDbEntity
  8
STEMPEL
100
AcDbLine
 10
403.7625622428922
 20
383.0314964055957
 30
0.0
 11
403.7625622428922
 21
376.0625853188411
 31
0.0
  0
LINE
  5
B14
102
{ACAD_REACTORS
330
AEB
102
}
330
1E
100
AcDbEntity
  8
STEMPEL
100
AcDbLine
 10
411.7625622428922
 20
384.0314964055957
 30
0.0
 11
408.7625622428922
 21
381.0314964055956
 31
0.0
  0
LINE
  5
B15
102
{ACAD_REACTORS
330
AEB
102
}
330
1E
100
AcDbEntity
  8
STEMPEL
100
AcDbLine
 10
399.0125622428923
 20
382.6850862440819
 30
0.0
 11
399.0125622428923
 21
378.9314964055957
 31
0.0
  0
POINT
  5
B16
330
1E
100
AcDbEntity
  8
STEMPEL
100
AcDbPoint
 10
308.7125622428922
 20
384.0314964055957
 30
0.0
  0
POINT
  5
B17
330
1E
100
AcDbEntity
  8
STEMPEL
100
AcDbPoint
 10
308.5125622428923
 20
382.6850862440819
 30
0.0
  0
LINE
  5
B18
102
{ACAD_REACTORS
330
AEB
102
}
330
1E
100
AcDbEntity
  8
STEMPEL
100
AcDbLine
 10
308.7125622428922
 20
383.0314964055957
 30
0.0
 11
308.5125622428923
 21
382.6850862440819
 31
0.0
  0
LINE
  5
B19
102
{ACAD_REACTORS
330
AEB
102
}
330
1E
100
AcDbEntity
  8
STEMPEL
100
AcDbLine
 10
308.7125622428922
 20
384.0314964055957
 30
0.0
 11
308.7125622428922
 21
383.0314964055957
 31
0.0
  0
LINE
  5
B1A
102
{ACAD_REACTORS
330
AEB
102
}
330
1E
100
AcDbEntity
  8
STEMPEL
100
AcDbLine
 10
315.2625622428922
 20
378.9314964055957
 30
0.0
 11
315.2625622428922
 21
377.9314964055957
 31
0.0
  0
LINE
  5
B1B
102
{ACAD_REACTORS
330
AEB
102
}
330
1E
100
AcDbEntity
  8
STEMPEL
100
AcDbLine
 10
315.2625622428922
 20
377.9314964055957
 30
0.0
 11
313.2625622428923
 21
372.4365415666864
 31
0.0
  0
LINE
  5
B1C
102
{ACAD_REACTORS
330
AEB
102
}
330
1E
100
AcDbEntity
  8
STEMPEL
100
AcDbLine
 10
309.5125622428923
 20
367.0314964055956
 30
0.0
 11
309.5125622428923
 21
361.0314964055956
 31
0.0
  0
POINT
  5
B1D
330
1E
100
AcDbEntity
  8
STEMPEL
100
AcDbPoint
 10
305.5125622428923
 20
373.0314964055957
 30
0.0
  0
POINT
  5
B1E
330
1E
100
AcDbEntity
  8
STEMPEL
100
AcDbPoint
 10
305.5125622428923
 20
373.0314964055957
 30
0.0
  0
POINT
  5
B1F
330
1E
100
AcDbEntity
  8
STEMPEL
100
AcDbPoint
 10
302.135326486615
 20
378.881040324606
 30
0.0
  0
LINE
  5
B20
102
{ACAD_REACTORS
330
AEB
102
}
330
1E
100
AcDbEntity
  8
STEMPEL
100
AcDbLine
 10
305.5125622428923
 20
373.0314964055956
 30
0.0
 11
302.0461066606489
 21
379.0355735962219
 31
0.0
  0
POINT
  5
B21
330
1E
100
AcDbEntity
  8
STEMPEL
100
AcDbPoint
 10
305.5125622428923
 20
368.0314964055956
 30
0.0
  0
LINE
  5
B22
102
{ACAD_REACTORS
330
AEB
102
}
330
1E
100
AcDbEntity
  8
STEMPEL
100
AcDbLine
 10
308.5125622428923
 20
368.0314964055956
 30
0.0
 11
305.5125622428923
 21
368.0314964055956
 31
0.0
  0
POINT
  5
B23
330
1E
100
AcDbEntity
  8
STEMPEL
100
AcDbPoint
 10
305.5125622428923
 20
360.0314964055957
 30
0.0
  0
LINE
  5
B24
102
{ACAD_REACTORS
330
AEB
102
}
330
1E
100
AcDbEntity
  8
STEMPEL
100
AcDbLine
 10
308.5125622428922
 20
360.0314964055956
 30
0.0
 11
305.5125622428923
 21
360.0314964055957
 31
0.0
  0
LINE
  5
B25
102
{ACAD_REACTORS
330
AEB
102
}
330
1E
100
AcDbEntity
  8
STEMPEL
100
AcDbLine
 10
305.5125622428923
 20
373.0314964055956
 30
0.0
 11
305.5125622428923
 21
368.0314964055956
 31
0.0
  0
CIRCLE
  5
B26
102
{ACAD_REACTORS
330
AEA
330
B9E
102
}
330
1E
100
AcDbEntity
  8
STEMPEL
100
AcDbCircle
 10
306.0125622428923
 20
364.0314964055957
 30
0.0
 40
3.5
  0
ARC
  5
B27
102
{ACAD_REACTORS
330
AEB
102
}
330
1E
100
AcDbEntity
  8
STEMPEL
100
AcDbCircle
 10
308.5125622428923
 20
361.0314964055957
 30
0.0
 40
1.0
100
AcDbArc
 50
270.0
 51
0.0
  0
ARC
  5
B28
102
{ACAD_REACTORS
330
AEB
102
}
330
1E
100
AcDbEntity
  8
STEMPEL
100
AcDbCircle
 10
308.5125622428923
 20
367.0314964055956
 30
0.0
 40
1.0
100
AcDbArc
 50
0.0
 51
90.0
  0
ARC
  5
B29
102
{ACAD_REACTORS
330
AEB
102
}
330
1E
100
AcDbEntity
  8
STEMPEL
100
AcDbCircle
 10
307.5125622428923
 20
360.0314964055956
 30
0.0
 40
2.0
100
AcDbArc
 50
179.9999999999967
 51
270.0
  0
LINE
  5
B2A
102
{ACAD_REACTORS
330
AEB
102
}
330
1E
100
AcDbEntity
  8
STEMPEL
100
AcDbLine
 10
313.2625622428923
 20
372.4365415666864
 30
0.0
 11
313.2625622428923
 21
358.0314964055956
 31
0.0
  0
ARC
  5
B2B
102
{ACAD_REACTORS
330
AEB
102
}
330
1E
100
AcDbEntity
  8
STEMPEL
100
AcDbCircle
 10
298.5820050455112
 20
377.0355735962219
 30
0.0
 40
4.0
100
AcDbArc
 50
30.00000000000055
 51
87.41282956533897
  0
LINE
  5
B2C
102
{ACAD_REACTORS
330
AEB
102
}
330
1E
100
AcDbEntity
  8
STEMPEL
100
AcDbLine
 10
295.7625622428923
 20
384.0314964055957
 30
0.0
 11
298.7625622428922
 21
381.0314964055957
 31
0.0
  0
LINE
  5
B2D
102
{ACAD_REACTORS
330
AEB
102
}
330
1E
100
AcDbEntity
  8
STEMPEL
100
AcDbLine
 10
308.5125622428923
 20
382.6850862440819
 30
0.0
 11
308.5125622428923
 21
378.9314964055957
 31
0.0
  0
LINE
  5
B2E
102
{ACAD_REACTORS
330
AEB
102
}
330
1E
100
AcDbEntity
  8
STEMPEL
100
AcDbLine
 10
394.2625622428922
 20
358.0314964055956
 30
0.0
 11
307.5125622428923
 21
358.0314964055956
 31
0.0
  0
LINE
  5
B2F
102
{ACAD_REACTORS
330
AEB
102
}
330
1E
100
AcDbEntity
  8
STEMPEL
100
AcDbLine
 10
392.2625622428923
 20
378.9314964055957
 30
0.0
 11
308.5125622428923
 21
378.9314964055957
 31
0.0
  0
LINE
  5
B30
102
{ACAD_REACTORS
330
AEB
102
}
330
1E
100
AcDbEntity
  8
STEMPEL
100
AcDbLine
 10
398.8125622428922
 20
384.0314964055957
 30
0.0
 11
295.7625622428923
 21
384.0314964055957
 31
0.0
  0
LINE
  5
B31
330
1E
100
AcDbEntity
  8
STEMPEL
100
AcDbLine
 10
313.2625622428923
 20
372.4365415666864
 30
0.0
 11
394.2625622428923
 21
372.4365415666863
 31
0.0
  0
LINE
  5
B32
330
1E
100
AcDbEntity
  8
STEMPEL
100
AcDbLine
 10
392.2625622428922
 20
377.9314964055957
 30
0.0
 11
315.2625622428922
 21
377.9314964055957
 31
0.0
  0
LINE
  5
B33
330
1E
100
AcDbEntity
  8
STEMPEL
100
AcDbLine
 10
308.5125622428923
 20
382.6850862440819
 30
0.0
 11
399.0125622428923
 21
382.6850862440819
 31
0.0
  0
LINE
  5
B34
330
1E
100
AcDbEntity
  8
STEMPEL
100
AcDbLine
 10
398.8125622428922
 20
383.0314964055956
 30
0.0
 11
308.7125622428922
 21
383.0314964055956
 31
0.0
  0
LINE
  5
B35
102
{ACAD_REACTORS
330
B9E
102
}
330
1E
100
AcDbEntity
  8
STEMPEL
100
AcDbLine
 10
289.4488537439076
 20
383.0314964055957
 30
0.0
 11
205.1929576323233
 21
383.0314964055958
 31
0.0
  0
ARC
  5
B36
102
{ACAD_REACTORS
330
B9E
102
}
330
1E
100
AcDbEntity
  8
STEMPEL
100
AcDbCircle
 10
383.7625622428923
 20
365.0314964055957
 30
0.0
 40
21.0
100
AcDbArc
 50
0.8309537544566484
 51
16.65737706073938
  0
LINE
  5
B37
102
{ACAD_REACTORS
330
B9E
102
}
330
1E
100
AcDbEntity
  8
STEMPEL
100
AcDbLine
 10
403.409436241705
 20
372.6282287343519
 30
0.0
 11
403.881318250015
 21
371.051102433058
 31
0.0
  0
ARC
  5
B38
102
{ACAD_REACTORS
330
B9E
102
}
330
1E
100
AcDbEntity
  8
STEMPEL
100
AcDbCircle
 10
406.7625622428922
 20
373.6314964055957
 30
0.0
 40
3.5
100
AcDbArc
 50
180.0
 51
196.6573770607382
  0
ARC
  5
B39
102
{ACAD_REACTORS
330
B9E
102
}
330
1E
100
AcDbEntity
  8
STEMPEL
100
AcDbCircle
 10
406.7625622428922
 20
373.7176370672328
 30
0.0
 40
3.5
100
AcDbArc
 50
160.2500772043241
 51
180.0
  0
ARC
  5
B3A
102
{ACAD_REACTORS
330
B9E
102
}
330
1E
100
AcDbEntity
  8
STEMPEL
100
AcDbCircle
 10
410.7625622428922
 20
372.2814964055957
 30
0.0
 40
7.75
100
AcDbArc
 50
119.8121253911327
 51
160.2500772043246
  0
ARC
  5
B3B
102
{ACAD_REACTORS
330
B9E
102
}
330
1E
100
AcDbEntity
  8
STEMPEL
100
AcDbCircle
 10
418.0762707418769
 20
375.0314964055957
 30
0.0
 40
9.0
100
AcDbArc
 50
90.0
 51
119.8121253911325
  0
LINE
  5
B3C
102
{ACAD_REACTORS
330
B9E
102
}
330
1E
100
AcDbEntity
  8
STEMPEL
100
AcDbLine
 10
413.6018524016073
 20
382.8404387485932
 30
0.0
 11
406.9095908943267
 21
379.0058634231769
 31
0.0
  0
LINE
  5
B3D
102
{ACAD_REACTORS
330
B9E
102
}
330
1E
100
AcDbEntity
  8
STEMPEL
100
AcDbLine
 10
414.0990099949706
 20
381.9727784882601
 30
0.0
 11
407.4067484876899
 21
378.1382031628438
 31
0.0
  0
LINE
  5
B3E
330
1E
100
AcDbEntity
  8
STEMPEL
100
AcDbLine
 10
298.5593632063631
 20
379.0314964055957
 30
0.0
 11
296.7625622428922
 21
379.0314964055957
 31
0.0
  0
ARC
  5
B3F
102
{ACAD_REACTORS
330
B9E
102
}
330
1E
100
AcDbEntity
  8
STEMPEL
100
AcDbCircle
 10
396.675733813037
 20
363.5314964055957
 30
0.0
 40
8.0
100
AcDbArc
 50
335.9596622329144
 51
353.3741904351755
  0
LINE
  5
B40
102
{ACAD_REACTORS
330
B9E
102
}
330
1E
100
AcDbEntity
  8
STEMPEL
100
AcDbLine
 10
400.3287693240293
 20
357.901977594588
 30
0.0
 11
307.1963551617551
 21
357.901977594588
 31
0.0
  0
ARC
  5
B41
102
{ACAD_REACTORS
330
B9E
102
}
330
1E
100
AcDbEntity
  8
STEMPEL
100
AcDbCircle
 10
400.3287693240293
 20
361.901977594588
 30
0.0
 40
4.0
100
AcDbArc
 50
270.0
 51
335.9596622329146
  0
ARC
  5
B42
102
{ACAD_REACTORS
330
B9E
102
}
330
1E
100
AcDbEntity
  8
STEMPEL
100
AcDbCircle
 10
400.3287693240293
 20
361.901977594588
 30
0.0
 40
5.0
100
AcDbArc
 50
270.0
 51
335.9596622329146
  0
ARC
  5
B43
102
{ACAD_REACTORS
330
B9E
102
}
330
1E
100
AcDbEntity
  8
STEMPEL
100
AcDbCircle
 10
289.4488537439076
 20
375.0314964055957
 30
0.0
 40
9.0
100
AcDbArc
 50
60.18787460886742
 51
90.0
  0
ARC
  5
B45
102
{ACAD_REACTORS
330
B9E
102
}
330
1E
100
AcDbEntity
  8
STEMPEL
100
AcDbCircle
 10
296.7625622428924
 20
372.2814964055957
 30
0.0
 40
7.75
100
AcDbArc
 50
19.74992279567537
 51
60.18787460886752
  0
LINE
  5
B46
102
{ACAD_REACTORS
330
B9E
102
}
330
1E
100
AcDbEntity
  8
STEMPEL
100
AcDbLine
 10
293.9232720841772
 20
382.8404387485932
 30
0.0
 11
300.6155335914578
 21
379.0058634231769
 31
0.0
  0
LINE
  5
B47
102
{ACAD_REACTORS
330
B9E
102
}
330
1E
100
AcDbEntity
  8
STEMPEL
100
AcDbLine
 10
293.4261144908139
 20
381.9727784882601
 30
0.0
 11
300.1183759980946
 21
378.1382031628438
 31
0.0
  0
LINE
  5
B48
102
{ACAD_REACTORS
330
B9E
102
}
330
1E
100
AcDbEntity
  8
STEMPEL
100
AcDbLine
 10
502.0257866155593
 20
384.0314964055957
 30
0.0
 11
418.0762707418769
 21
384.0314964055957
 31
0.0
  0
ARC
  5
B49
102
{ACAD_REACTORS
330
B9E
102
}
330
1E
100
AcDbEntity
  8
STEMPEL
100
AcDbCircle
 10
300.7625622428923
 20
373.7176370672328
 30
0.0
 40
3.5
100
AcDbArc
 50
0.000000000000007
 51
19.74992279567586
  0
ARC
  5
B4A
102
{ACAD_REACTORS
330
B9E
102
}
330
1E
100
AcDbEntity
  8
STEMPEL
100
AcDbCircle
 10
300.7625622428923
 20
373.6314964055957
 30
0.0
 40
3.5
100
AcDbArc
 50
343.3426229392618
 51
0.000000000000007
  0
LINE
  5
B4B
102
{ACAD_REACTORS
330
B9E
102
}
330
1E
100
AcDbEntity
  8
STEMPEL
100
AcDbLine
 10
304.1156882440795
 20
372.6282287343519
 30
0.0
 11
303.6438062357695
 21
371.051102433058
 31
0.0
  0
ARC
  5
B4C
102
{ACAD_REACTORS
330
B9E
102
}
330
1E
100
AcDbEntity
  8
STEMPEL
100
AcDbCircle
 10
323.7625622428923
 20
365.0314964055957
 30
0.0
 40
21.0
100
AcDbArc
 50
163.3426229392606
 51
179.169046245543
  0
ARC
  5
B4D
102
{ACAD_REACTORS
330
B9E
102
}
330
1E
100
AcDbEntity
  8
STEMPEL
100
AcDbCircle
 10
310.8493906727476
 20
363.5314964055957
 30
0.0
 40
8.0
100
AcDbArc
 50
186.6258095648245
 51
204.0403377670855
  0
ARC
  5
B4E
102
{ACAD_REACTORS
330
B9E
102
}
330
1E
100
AcDbEntity
  8
STEMPEL
100
AcDbCircle
 10
307.1963551617551
 20
361.901977594588
 30
0.0
 40
4.0
100
AcDbArc
 50
204.0403377670857
 51
270.0
  0
ARC
  5
B4F
102
{ACAD_REACTORS
330
B9E
102
}
330
1E
100
AcDbEntity
  8
STEMPEL
100
AcDbCircle
 10
307.1963551617551
 20
361.901977594588
 30
0.0
 40
5.0
100
AcDbArc
 50
204.0403377670857
 51
270.0
  0
HATCH
  5
B9E
330
1E
100
AcDbEntity
  8
SCHRAFF
100
AcDbHatch
 10
0.0
 20
0.0
 30
0.0
210
0.0
220
0.0
230
1.0
  2
NET
 70
     0
 71
     1
 91
        4
 92
        7
 72
     0
 73
     1
 93
        4
 10
523.7625622428923
 20
383.0314964055956
 10
523.7625622428923
 20
384.0314964055957
 10
503.0257866155591
 20
384.0314964055957
 10
502.757837423128
 20
383.0314964055957
 97
        4
330
A7E
330
A93
330
567
330
A80
 92
        7
 72
     1
 73
     1
 93
       27
 10
501.7578374231281
 20
383.0314964055956
 42
0.0
 10
502.0257866155592
 20
384.0314964055957
 42
0.0
 10
418.0762707418769
 20
384.0314964055957
 42
0.1308186214179442
 10
413.6018524016074
 20
382.8404387485932
 42
0.0
 10
406.9095908943267
 20
379.0058634231769
 42
0.178297985477242
 10
403.4684445958348
 20
374.9003411415216
 42
0.0894895723998248
 10
403.2628272605538
 20
373.6745667364132
 42
0.0759033142298033
 10
403.409436241705
 20
372.6282287343519
 42
0.0
 10
403.881318250015
 20
371.051102433058
 42
-0.0691657775375908
 10
404.7603537798757
 20
365.3360461870523
 42
-0.0957781917611653
 10
405.0125622428923
 20
364.0314964055956
 42
-0.1247310581123101
 10
404.5901875191955
 20
362.364696280008
 42
-0.0684091467547773
 10
403.9818048350218
 20
360.2724587835804
 42
-0.2960220549713827
 10
400.3287693240292
 20
357.901977594588
 42
0.0
 10
398.7625622428923
 20
357.901977594588
 42
0.0
 10
398.7625622428923
 20
356.9019775945879
 42
0.0
 10
400.3287693240294
 20
356.9019775945879
 42
0.2960220549713651
 10
404.8950637127699
 20
359.8650790808282
 42
0.0761317921794737
 10
405.6156218231373
 20
362.4930348671339
 42
0.1019430245146344
 10
404.8393542503542
 20
371.3377503391277
 42
0.0
 10
404.3674722420442
 20
372.9148766404216
 42
-0.0728097721655565
 10
404.2625622428921
 20
373.6314964055957
 42
0.0
 10
404.2625622428921
 20
373.7176370672328
 42
-0.0863895110096339
 10
404.4096219475587
 20
374.5624281459002
 42
-0.1782978858307108
 10
407.40674848769
 20
378.1382031628439
 42
0.0
 10
414.0990099949707
 20
381.9727784882601
 42
-0.1308186214179428
 10
418.0762707418769
 20
383.0314964055957
 42
0.0
 97
       26
330
B48
330
B3B
330
B3C
330
B3A
330
B39
330
B38
330
B37
330
B36
330
B00
330
B3F
330
B41
330
B40
330
A7D
330
53D
330
B42
330
51C
330
509
330
502
330
504
330
503
330
505
330
50A
330
B3D
330
542
330
A8A
330
A94
 92
        7
 72
     1
 73
     1
 93
       27
 10
289.4488537439076
 20
383.0314964055957
 42
-0.1308186214179428
 10
293.4261144908138
 20
381.9727784882601
 42
0.0
 10
300.1183759980945
 20
378.1382031628439
 42
-0.1782978828563625
 10
303.1155025119248
 20
374.5624282191549
 42
-0.0863895188510103
 10
303.2625622428923
 20
373.717637067233
 42
0.0
 10
303.2625622428923
 20
373.6314964055957
 42
-0.0728097721655507
 10
303.1576522437403
 20
372.9148766404216
 42
0.0
 10
302.6857702354303
 20
371.3377503391277
 42
0.1019430245146386
 10
301.909502662647
 20
362.4930348671336
 42
0.076131792179475
 10
302.6300607730146
 20
359.8650790808278
 42
0.2960220549713463
 10
307.196355161755
 20
356.9019775945879
 42
0.0
 10
308.7625622428923
 20
356.9019775945879
 42
0.0
 10
308.7625622428922
 20
357.901977594588
 42
0.0
 10
307.1963551617551
 20
357.901977594588
 42
-0.2960220549713771
 10
303.5433196507627
 20
360.2724587835804
 42
-0.0684091467547823
 10
302.9349369665889
 20
362.3646962800082
 42
-0.1247310581123008
 10
302.5125622428923
 20
364.0314964055957
 42
-0.0957781917611702
 10
302.7647707059089
 20
365.3360461870524
 42
-0.0691657775375887
 10
303.6438062357695
 20
371.051102433058
 42
0.0
 10
304.1156882440795
 20
372.6282287343519
 42
0.0759033142297424
 10
304.2622972252308
 20
373.6745667364124
 42
0.0894893294871543
 10
304.0566810299946
 20
374.9003379662178
 42
0.1782980977679703
 10
300.6155335914578
 20
379.0058634231769
 42
0.0
 10
293.9232720841772
 20
382.8404387485932
 42
0.130818621417948
 10
289.4488537439075
 20
384.0314964055957
 42
0.0
 10
205.4609068247545
 20
384.0314964055958
 42
0.0
 10
205.1929576323233
 20
383.0314964055957
 42
0.0
 97
       26
330
A89
330
A95
330
B35
330
91F
330
B47
330
924
330
928
330
92A
330
929
330
92B
330
92D
330
92F
330
B4F
330
53D
330
A7C
330
B40
330
B4E
330
B4D
330
B26
330
B4C
330
B4B
330
B4A
330
B49
330
B45
330
B46
330
B43
 92
        7
 72
     0
 73
     1
 93
        4
 10
204.1929576323233
 20
383.0314964055958
 10
204.4609068247545
 20
384.0314964055957
 10
183.7625622428923
 20
384.0314964055958
 10
183.7625622428922
 20
383.0314964055956
 97
        4
330
A97
330
A7F
330
A98
330
A96
 75
     0
 76
     1
 52
45.0
 41
8.0
 77
     0
 78
     2
 53
45.0
 43
0.0
 44
0.0
 45
-0.7071067811865475
 46
0.7071067811865476
 79
     0
 53
135.0
 43
0.0
 44
0.0
 45
-0.7071067811865476
 46
-0.7071067811865475
 79
     0
 47
0.4361338005267785
 98
        4
 10
515.3322991372986
 20
383.4005930171036
 10
496.1288391198584
 20
383.4005930171036
 10
218.5515575816992
 20
383.4005930171036
 10
195.856557989777
 20
383.4005930171036
  0
DIMENSION
  5
B9F
330
1E
100
AcDbEntity
  8
BEM
100
AcDbDimension
  2
*D2
 10
468.7625622428922
 20
395.0025094460377
 30
0.0
 11
353.7625622428923
 21
401.5025094460376
 31
0.0
 70
    32
  1
%%c<>
 71
     5
 42
229.9999999999999
  3
Standard
100
AcDbAlignedDimension
 13
238.7625622428923
 23
379.5314964055957
 33
0.0
 14
468.7625622428922
 24
379.5314964055957
 34
0.0
100
AcDbRotatedDimension
1001
ACAD
1000
DSTYLE
1002
{
1070
    40
1040
2.0
1070
    41
1040
3.5
1070
    42
1040
1.0
1070
    43
1040
7.0
1070
    44
1040
1.0
1070
    73
1070
     0
1070
    74
1070
     0
1070
    77
1070
     1
1070
    78
1070
     8
1070
    79
1070
     2
1070
   140
1040
3.5
1070
   141
1040
1.5
1070
   146
1040
0.5
1070
   147
1040
1.5
1070
   172
1070
     1
1070
   178
1070
     1
1070
   179
1070
     2
1070
   271
1070
     2
1070
   272
1070
     2
1070
   284
1070
     8
1070
   285
1070
     8
1070
   286
1070
     8
1002
}
  0
DIMENSION
  5
BAC
330
1E
100
AcDbEntity
  8
BEM
100
AcDbDimension
  2
*D3
 10
523.7625622428923
 20
408.8028361703513
 30
0.0
 11
356.9411691556382
 21
408.8028361703513
 31
0.0
 70
   160
 71
     5
 42
340.0
  3
Standard
100
AcDbAlignedDimension
 13
183.7625622428922
 23
384.0314964055957
 33
0.0
 14
523.7625622428923
 24
384.0314964055957
 34
0.0
100
AcDbRotatedDimension
1001
ACAD
1000
DSTYLE
1002
{
1070
    40
1040
2.0
1070
    41
1040
3.5
1070
    42
1040
1.0
1070
    43
1040
7.0
1070
    44
1040
1.0
1070
    73
1070
     0
1070
    74
1070
     0
1070
    77
1070
     1
1070
    78
1070
     8
1070
    79
1070
     2
1070
   140
1040
3.5
1070
   141
1040
1.5
1070
   146
1040
0.5
1070
   147
1040
1.5
1070
   172
1070
     1
1070
   178
1070
     1
1070
   179
1070
     2
1070
   271
1070
     2
1070
   272
1070
     2
1070
   284
1070
     8
1070
   285
1070
     8
1070
   286
1070
     8
1002
}
  0
LWPOLYLINE
  5
BE6
330
1E
100
AcDbEntity
  8
VOLL
100
AcDbPolyline
 90
        4
 70
     1
 43
0.0
 10
341.9060367590744
 20
418.8395023086391
 10
341.9060367590744
 20
411.8395023086391
 10
348.9060367590744
 20
411.8395023086391
 10
348.9060367590744
 20
418.8395023086391
  0
DIMENSION
  5
BE7
330
1E
100
AcDbEntity
  8
BEM
100
AcDbDimension
  2
*D4
 10
619.8195666197979
 20
283.653617295319
 30
0.0
 11
614.7153774843312
 21
310.4574836818944
 31
0.0
 70
    33
  1
%%c<>
 71
     5
 42
53.00000000000017
  3
Standard
100
AcDbAlignedDimension
 13
599.1576878748031
 23
337.8091948140497
 33
0.0
 14
596.3838821939268
 24
284.8818294720572
 34
0.0
1001
ACAD
1000
DSTYLE
1002
{
1070
    40
1040
2.0
1070
    41
1040
3.5
1070
    42
1040
1.0
1070
    43
1040
7.0
1070
    44
1040
1.0
1070
    73
1070
     0
1070
    74
1070
     0
1070
    77
1070
     1
1070
    78
1070
     8
1070
    79
1070
     2
1070
   140
1040
3.5
1070
   141
1040
1.5
1070
   146
1040
0.5
1070
   147
1040
1.5
1070
   172
1070
     1
1070
   178
1070
     1
1070
   179
1070
     2
1070
   271
1070
     2
1070
   272
1070
     2
1070
   284
1070
     8
1070
   285
1070
     8
1070
   286
1070
     8
1002
}
  0
LINE
  5
C06
330
1E
100
AcDbEntity
  8
STEMPEL
100
AcDbLine
 10
239.3964896355033
 20
378.1720347250407
 30
0.0
 11
295.5007035798875
 21
378.1720347250407
 31
0.0
  0
DIMENSION
  5
C07
330
1E
100
AcDbEntity
  8
BEM
100
AcDbDimension
  2
*D5
 10
227.2456748626912
 20
294.0314964055957
 30
0.0
 11
220.7456748626912
 21
338.5314964055958
 31
0.0
 70
    32
 71
     5
 42
89.0
  3
Standard
100
AcDbAlignedDimension
 13
246.2683364646758
 23
383.0314964055958
 33
0.0
 14
353.7625622428923
 24
294.0314964055957
 34
0.0
 50
90.0
100
AcDbRotatedDimension
1001
ACAD
1000
DSTYLE
1002
{
1070
    40
1040
2.0
1070
    41
1040
3.5
1070
    42
1040
1.0
1070
    43
1040
7.0
1070
    44
1040
1.0
1070
    73
1070
     0
1070
    74
1070
     0
1070
    77
1070
     1
1070
    78
1070
     8
1070
    79
1070
     2
1070
   140
1040
3.5
1070
   141
1040
1.5
1070
   146
1040
0.5
1070
   147
1040
1.5
1070
   172
1070
     1
1070
   178
1070
     1
1070
   179
1070
     2
1070
   271
1070
     2
1070
   272
1070
     2
1070
   284
1070
     8
1070
   285
1070
     8
1070
   286
1070
     8
1002
}
  0
DIMENSION
  5
C14
330
1E
100
AcDbEntity
  8
BEM
100
AcDbDimension
  2
*D6
 10
603.7625622428922
 20
263.7971810677907
 30
0.0
 11
478.7625622428922
 21
270.2971810677907
 31
0.0
 70
    32
 71
     5
 42
250.0
  3
Standard
100
AcDbAlignedDimension
 13
353.7625622428923
 23
289.0314964055958
 33
0.0
 14
603.7625622428922
 24
311.0314964055957
 34
0.0
100
AcDbRotatedDimension
1001
ACAD
1000
DSTYLE
1002
{
1070
    40
1040
2.0
1070
    41
1040
3.5
1070
    42
1040
1.0
1070
    43
1040
7.0
1070
    44
1040
1.0
1070
    73
1070
     0
1070
    74
1070
     0
1070
    77
1070
     1
1070
    78
1070
     8
1070
    79
1070
     2
1070
   140
1040
3.5
1070
   141
1040
1.5
1070
   146
1040
0.5
1070
   147
1040
1.5
1070
   172
1070
     1
1070
   178
1070
     1
1070
   179
1070
     2
1070
   271
1070
     2
1070
   272
1070
     2
1070
   284
1070
     8
1070
   285
1070
     8
1070
   286
1070
     8
1002
}
  0
DIMENSION
  5
C21
330
1E
100
AcDbEntity
  8
BEM
100
AcDbDimension
  2
*D7
 10
637.697886830522
 20
311.0314964055957
 30
0.0
 11
631.1978868305219
 21
347.0314964055958
 31
0.0
 70
    32
 71
     5
 42
71.99999999999994
  3
Standard
100
AcDbAlignedDimension
 13
523.7625622428923
 23
383.0314964055956
 33
0.0
 14
621.1126366082201
 24
311.0314964055957
 34
0.0
 50
90.0
100
AcDbRotatedDimension
1001
ACAD
1000
DSTYLE
1002
{
1070
    40
1040
2.0
1070
    41
1040
3.5
1070
    42
1040
1.0
1070
    43
1040
7.0
1070
    44
1040
1.0
1070
    73
1070
     0
1070
    74
1070
     0
1070
    77
1070
     1
1070
    78
1070
     8
1070
    79
1070
     2
1070
   140
1040
3.5
1070
   141
1040
1.5
1070
   146
1040
0.5
1070
   147
1040
1.5
1070
   172
1070
     1
1070
   178
1070
     1
1070
   179
1070
     2
1070
   271
1070
     2
1070
   272
1070
     2
1070
   284
1070
     8
1070
   285
1070
     8
1070
   286
1070
     8
1002
}
  0
DIMENSION
  5
C37
330
1E
100
AcDbEntity
  8
BEM
100
AcDbDimension
  2
*D8
 10
353.7625622428923
 20
289.0314964055958
 30
0.0
 11
378.2868691072778
 21
342.9956684050119
 31
0.0
 70
   162
 71
     5
 42
1.623156204354726
  3
Standard
100
AcDb2LineAngularDimension
 13
608.6877024930163
 23
310.7733807424292
 33
0.0
 14
353.7625622428923
 24
324.133441226356
 34
0.0
 15
353.7625622428923
 25
388.0314964055957
 35
0.0
 16
369.6973545436758
 26
350.653389108067
 36
0.0
1001
ACAD
1000
DSTYLE
1002
{
1070
    40
1040
2.0
1070
    41
1040
3.5
1070
    42
1040
1.0
1070
    43
1040
7.0
1070
    44
1040
1.0
1070
    73
1070
     0
1070
    74
1070
     0
1070
    77
1070
     1
1070
    78
1070
     8
1070
    79
1070
     2
1070
   140
1040
3.5
1070
   141
1040
1.5
1070
   146
1040
0.5
1070
   147
1040
1.5
1070
   172
1070
     1
1070
   178
1070
     1
1070
   179
1070
     2
1070
   271
1070
     2
1070
   272
1070
     2
1070
   284
1070
     8
1070
   285
1070
     8
1070
   286
1070
     8
1002
}
  0
TEXT
  5
C6E
330
1E
100
AcDbEntity
  8
TEXT
 62
     1
100
AcDbText
 10
414.2916438354755
 20
442.7171032298537
 30
0.0
 40
7.0
  1
Klemmring
 41
0.8
  7
GREEKS
100
AcDbText
  0
LINE
  5
C6F
330
1E
100
AcDbEntity
  8
TEXT
 62
     2
100
AcDbLine
 10
414.086206604175
 20
439.7605648656419
 30
0.0
 11
407.4419090616478
 21
410.6109391464118
 31
0.0
  0
LINE
  5
C70
330
1E
100
AcDbEntity
  8
TEXT
 62
     2
100
AcDbLine
 10
414.086206604175
 20
439.7605648656419
 30
0.0
 11
519.1037450363685
 21
439.7605648656419
 31
0.0
  0
TEXT
  5
C71
330
1E
100
AcDbEntity
  8
TEXT
 62
     1
100
AcDbText
 10
414.2916438354755
 20
430.4862887008946
 30
0.0
 40
7.0
  1
EDV-Art.Nr. 15592.000X
 41
0.8
  7
GREEKS
100
AcDbText
  0
LINE
  5
C72
330
1E
100
AcDbEntity
  8
TEXT
 62
     2
100
AcDbLine
 10
217.2376761331009
 20
439.7605648656419
 30
0.0
 11
213.1987230490381
 21
410.58544315938
 31
0.0
  0
LINE
  5
C73
330
1E
100
AcDbEntity
  8
TEXT
 62
     2
100
AcDbLine
 10
217.2376761331009
 20
439.7605648656419
 30
0.0
 11
322.2552145652942
 21
439.7605648656419
 31
0.0
  0
TEXT
  5
C74
330
1E
100
AcDbEntity
  8
TEXT
 62
     1
100
AcDbText
 10
217.4431133644014
 20
442.7171032298537
 30
0.0
 40
7.0
  1
Anschlußmanschette
 41
0.8
  7
GREEKS
100
AcDbText
  0
TEXT
  5
C75
330
1E
100
AcDbEntity
  8
TEXT
 62
     1
100
AcDbText
 10
217.4431133644014
 20
430.4862887008946
 30
0.0
 40
7.0
  1
EDV-Art.Nr. 15004.000X
 41
0.8
  7
GREEKS
100
AcDbText
  0
TEXT
  5
C76
330
1E
100
AcDbEntity
  8
TEXT
 62
     1
100
AcDbText
 10
190.8130826386284
 20
250.6767192579494
 30
0.0
 40
7.0
  1
Ablauftopf DN50
 41
0.8
  7
GREEKS
100
AcDbText
  0
LINE
  5
C77
330
1E
100
AcDbEntity
  8
TEXT
 62
     2
100
AcDbLine
 10
190.6076454073279
 20
247.7201808937375
 30
0.0
 11
295.6251838395215
 21
247.7201808937375
 31
0.0
  0
TEXT
  5
C78
330
1E
100
AcDbEntity
  8
TEXT
 62
     1
100
AcDbText
 10
190.8130826386284
 20
238.4459047289902
 30
0.0
 40
7.0
  1
EDV-Art.Nr. 15479.050X
 41
0.8
  7
GREEKS
100
AcDbText
  0
LINE
  5
C79
330
1E
100
AcDbEntity
  8
TEXT
 62
     2
100
AcDbLine
 10
335.7957863744027
 20
298.1687189286329
 30
0.0
 11
295.6251838395215
 21
247.7201808937375
 31
0.0
  0
LINE
  5
C7A
330
1E
100
AcDbEntity
  8
TEXT
 62
     2
100
AcDbLine
 10
406.5474978262943
 20
406.6870100052567
 30
0.0
 11
404.2944566908752
 21
396.8025481178805
 31
0.0
  0
LINE
  5
C7B
330
1E
100
AcDbEntity
  8
TEXT
 62
     2
100
AcDbLine
 10
403.4700789592674
 20
393.1858674719841
 30
0.0
 11
400.9511695814003
 21
382.134997893143
 31
0.0
  0
LINE
  5
C7C
330
1E
100
AcDbEntity
  8
TEXT
 62
     2
100
AcDbLine
 10
212.6624867845608
 20
406.7119744773177
 30
0.0
 11
209.4517401703222
 21
383.5193497330489
 31
0.0
  0
TEXT
  5
C7D
330
1E
100
AcDbEntity
  8
TEXT
100
AcDbText
 10
654.3410940884992
 20
62.10021383107525
 30
0.0
 40
5.0
  1
Auslauf seitlich
 41
0.8
  7
GREEKS
100
AcDbText
  0
ENDSEC
  0
SECTION
  2
OBJECTS
  0
DICTIONARY
  5
C
330
0
100
AcDbDictionary
281
     1
  3
ACAD_COLOR
350
11A
  3
ACAD_GROUP
350
D
  3
ACAD_LAYOUT
350
19
  3
ACAD_MATERIAL
350
119
  3
ACAD_MLINESTYLE
350
16
  3
ACAD_PLOTSETTINGS
350
18
  3
ACAD_PLOTSTYLENAME
350
E
  3
AcDbVariableDictionary
350
125
  0
DICTIONARY
  5
DB
330
1E
100
AcDbDictionary
280
     1
281
     1
  3
ACAD_LAYOUTSELFREF
360
10F
  0
DICTIONARY
  5
DD
330
1A
100
AcDbDictionary
280
     1
281
     1
  3
ACAD_LAYOUTSELFREF
360
10E
  0
DICTIONARY
  5
11A
102
{ACAD_REACTORS
330
C
102
}
330
C
100
AcDbDictionary
281
     1
  0
DICTIONARY
  5
D
102
{ACAD_REACTORS
330
C
102
}
330
C
100
AcDbDictionary
281
     1
  0
DICTIONARY
  5
19
102
{ACAD_REACTORS
330
C
102
}
330
C
100
AcDbDictionary
281
     1
  3
Layout1
350
1D
  3
Model
350
21
  0
DICTIONARY
  5
119
102
{ACAD_REACTORS
330
C
102
}
330
C
100
AcDbDictionary
281
     1
  0
DICTIONARY
  5
16
102
{ACAD_REACTORS
330
C
102
}
330
C
100
AcDbDictionary
281
     1
  3
Standard
350
17
  0
DICTIONARY
  5
18
102
{ACAD_REACTORS
330
C
102
}
330
C
100
AcDbDictionary
281
     1
  0
ACDBDICTIONARYWDFLT
  5
E
102
{ACAD_REACTORS
330
C
102
}
330
C
100
AcDbDictionary
281
     1
  3
Normal
350
F
100
AcDbDictionaryWithDefault
340
F
  0
DICTIONARY
  5
125
102
{ACAD_REACTORS
330
C
102
}
330
C
100
AcDbDictionary
281
     1
  3
DIMASSOC
350
126
  3
PROJECTNAME
350
127
  0
XRECORD
  5
10F
102
{ACAD_REACTORS
330
DB
102
}
330
DB
100
AcDbXrecord
280
     1
340
1E
  0
XRECORD
  5
10E
102
{ACAD_REACTORS
330
DD
102
}
330
DD
100
AcDbXrecord
280
     1
340
1A
  0
LAYOUT
  5
1D
102
{ACAD_REACTORS
330
19
102
}
330
19
100
AcDbPlotSettings
  1

  2
\\NT_WORK01\HP LaserJet 5000 PCL 6
  4

  6

 40
0.0
 41
0.0
 42
0.0
 43
0.0
 44
0.0
 45
0.0
 46
0.0
 47
0.0
 48
0.0
 49
0.0
140
0.0
141
0.0
142
1.0
143
1.0
 70
   688
 72
     0
 73
     0
 74
     5
  7

 75
    16
147
1.0
 76
     0
 77
     2
 78
   300
148
0.0
149
0.0
100
AcDbLayout
  1
Layout1
 70
     0
 71
     1
 10
0.0
 20
0.0
 11
12.0
 21
9.0
 12
0.0
 22
0.0
 32
0.0
 14
1.000000000000000E+20
 24
1.000000000000000E+20
 34
1.000000000000000E+20
 15
-1.000000000000000E+20
 25
-1.000000000000000E+20
 35
-1.000000000000000E+20
146
0.0
 13
0.0
 23
0.0
 33
0.0
 16
1.0
 26
0.0
 36
0.0
 17
0.0
 27
1.0
 37
0.0
 76
     0
330
1A
  0
LAYOUT
  5
21
102
{ACAD_REACTORS
330
19
102
}
330
19
100
AcDbPlotSettings
  1

  2
none_device
  4
Letter_(8.50_x_11.00_Inches)
  6

 40
6.349999904632568
 41
6.349999904632568
 42
6.350006103515625
 43
6.350006103515625
 44
215.8999938964844
 45
279.3999938964844
 46
0.0
 47
0.0
 48
0.0
 49
0.0
140
0.0
141
0.0
142
1.0
143
1.0
 70
 11952
 72
     0
 73
     1
 74
     0
  7

 75
     0
147
1.0
 76
     0
 77
     2
 78
   300
148
-2639.330092280289
149
484.8699368169828
100
AcDbLayout
  1
Model
 70
     1
 71
     0
 10
0.0
 20
0.0
 11
12.0
 21
9.0
 12
0.0
 22
0.0
 32
0.0
 14
0.0
 24
0.0
 34
0.0
 15
0.0
 25
0.0
 35
0.0
146
0.0
 13
0.0
 23
0.0
 33
0.0
 16
1.0
 26
0.0
 36
0.0
 17
0.0
 27
1.0
 37
0.0
 76
     0
330
1E
  0
MLINESTYLE
  5
17
102
{ACAD_REACTORS
330
16
102
}
330
16
100
AcDbMlineStyle
  2
STANDARD
 70
     0
  3

 62
   256
 51
90.0
 52
90.0
 71
     2
 49
0.5
 62
   256
  6
BYLAYER
 49
-0.5
 62
   256
  6
BYLAYER
  0
ACDBPLACEHOLDER
  5
F
102
{ACAD_REACTORS
330
E
102
}
330
E
  0
DICTIONARYVAR
  5
126
102
{ACAD_REACTORS
330
125
102
}
330
125
100
DictionaryVariables
280
     0
  1
1
  0
DICTIONARYVAR
  5
127
102
{ACAD_REACTORS
330
125
102
}
330
125
100
DictionaryVariables
280
     0
  1

  0
ENDSEC
  0
EOF
