  0
SECTION
  2
HEADER
  9
$ACADVER
  1
AC1018
  9
$ACADMAINTVER
 70
     2
  9
$DWGCODEPAGE
  3
ANSI_1252
  9
$INSBASE
 10
0.0
 20
0.0
 30
0.0
  9
$EXTMIN
 10
-0.0160093571523703
 20
-0.0226418051154269
 30
-0.0000000000000053
  9
$EXTMAX
 10
420.0224338426425
 20
594.0317278631664
 30
0.0000000000000099
  9
$LIMMIN
 10
0.0
 20
0.0
  9
$LIMMAX
 10
419.9999999999999
 20
594.0
  9
$ORTHOMODE
 70
     0
  9
$REGENMODE
 70
     1
  9
$FILLMODE
 70
     1
  9
$QTEXTMODE
 70
     0
  9
$MIRRTEXT
 70
     1
  9
$LTSCALE
 40
20.0
  9
$ATTMODE
 70
     1
  9
$TEXTSIZE
 40
3.5
  9
$TRACEWID
 40
0.5
  9
$TEXTSTYLE
  7
STANDARD
  9
$CLAYER
  8
BEM
  9
$CELTYPE
  6
ByLayer
  9
$CECOLOR
 62
   256
  9
$CELTSCALE
 40
1.0
  9
$DISPSILH
 70
     0
  9
$DIMSCALE
 40
2.0
  9
$DIMASZ
 40
3.5
  9
$DIMEXO
 40
1.0
  9
$DIMDLI
 40
7.0
  9
$DIMRND
 40
0.0
  9
$DIMDLE
 40
0.0
  9
$DIMEXE
 40
1.0
  9
$DIMTP
 40
0.0
  9
$DIMTM
 40
0.0
  9
$DIMTXT
 40
3.5
  9
$DIMCEN
 40
1.5
  9
$DIMTSZ
 40
0.0
  9
$DIMTOL
 70
     0
  9
$DIMLIM
 70
     0
  9
$DIMTIH
 70
     0
  9
$DIMTOH
 70
     0
  9
$DIMSE1
 70
     0
  9
$DIMSE2
 70
     0
  9
$DIMTAD
 70
     1
  9
$DIMZIN
 70
     8
  9
$DIMBLK
  1

  9
$DIMASO
 70
     1
  9
$DIMSHO
 70
     0
  9
$DIMPOST
  1

  9
$DIMAPOST
  1

  9
$DIMALT
 70
     0
  9
$DIMALTD
 70
     2
  9
$DIMALTF
 40
25.4
  9
$DIMLFAC
 40
1.0
  9
$DIMTOFL
 70
     1
  9
$DIMTVP
 40
0.0
  9
$DIMTIX
 70
     0
  9
$DIMSOXD
 70
     0
  9
$DIMSAH
 70
     0
  9
$DIMBLK1
  1

  9
$DIMBLK2
  1

  9
$DIMSTYLE
  2
Standard
  9
$DIMCLRD
 70
     0
  9
$DIMCLRE
 70
     0
  9
$DIMCLRT
 70
     1
  9
$DIMTFAC
 40
0.5142857142857144
  9
$DIMGAP
 40
1.5
  9
$DIMJUST
 70
     0
  9
$DIMSD1
 70
     0
  9
$DIMSD2
 70
     0
  9
$DIMTOLJ
 70
     1
  9
$DIMTZIN
 70
     8
  9
$DIMALTZ
 70
     8
  9
$DIMALTTZ
 70
     8
  9
$DIMUPT
 70
     0
  9
$DIMDEC
 70
     2
  9
$DIMTDEC
 70
     2
  9
$DIMALTU
 70
     2
  9
$DIMALTTD
 70
     2
  9
$DIMTXSTY
  7
STANDARD
  9
$DIMAUNIT
 70
     0
  9
$DIMADEC
 70
     2
  9
$DIMALTRND
 40
0.0
  9
$DIMAZIN
 70
     2
  9
$DIMDSEP
 70
    46
  9
$DIMATFIT
 70
     3
  9
$DIMFRAC
 70
     0
  9
$DIMLDRBLK
  1

  9
$DIMLUNIT
 70
     2
  9
$DIMLWD
 70
    -2
  9
$DIMLWE
 70
    -2
  9
$DIMTMOVE
 70
     0
  9
$LUNITS
 70
     2
  9
$LUPREC
 70
     2
  9
$SKETCHINC
 40
1.0
  9
$FILLETRAD
 40
0.0
  9
$AUNITS
 70
     0
  9
$AUPREC
 70
     0
  9
$MENU
  1
ACAD
  9
$ELEVATION
 40
0.0
  9
$PELEVATION
 40
0.0
  9
$THICKNESS
 40
0.0
  9
$LIMCHECK
 70
     0
  9
$CHAMFERA
 40
0.0
  9
$CHAMFERB
 40
0.0
  9
$CHAMFERC
 40
0.0
  9
$CHAMFERD
 40
0.0
  9
$SKPOLY
 70
     0
  9
$TDCREATE
 40
2455397.864709028
  9
$TDUCREATE
 40
2455397.781375695
  9
$TDUPDATE
 40
2455460.457765914
  9
$TDUUPDATE
 40
2455460.374432581
  9
$TDINDWG
 40
0.0859161921
  9
$TDUSRTIMER
 40
0.0859161921
  9
$USRTIMER
 70
     1
  9
$ANGBASE
 50
0.0
  9
$ANGDIR
 70
     0
  9
$PDMODE
 70
     0
  9
$PDSIZE
 40
0.0
  9
$PLINEWID
 40
0.0
  9
$SPLFRAME
 70
     0
  9
$SPLINETYPE
 70
     6
  9
$SPLINESEGS
 70
     8
  9
$HANDSEED
  5
1361
  9
$SURFTAB1
 70
     6
  9
$SURFTAB2
 70
     6
  9
$SURFTYPE
 70
     6
  9
$SURFU
 70
     6
  9
$SURFV
 70
     6
  9
$UCSBASE
  2

  9
$UCSNAME
  2

  9
$UCSORG
 10
0.0
 20
0.0
 30
0.0
  9
$UCSXDIR
 10
1.0
 20
0.0
 30
0.0
  9
$UCSYDIR
 10
0.0
 20
1.0
 30
0.0
  9
$UCSORTHOREF
  2

  9
$UCSORTHOVIEW
 70
     0
  9
$UCSORGTOP
 10
0.0
 20
0.0
 30
0.0
  9
$UCSORGBOTTOM
 10
0.0
 20
0.0
 30
0.0
  9
$UCSORGLEFT
 10
0.0
 20
0.0
 30
0.0
  9
$UCSORGRIGHT
 10
0.0
 20
0.0
 30
0.0
  9
$UCSORGFRONT
 10
0.0
 20
0.0
 30
0.0
  9
$UCSORGBACK
 10
0.0
 20
0.0
 30
0.0
  9
$PUCSBASE
  2

  9
$PUCSNAME
  2

  9
$PUCSORG
 10
0.0
 20
0.0
 30
0.0
  9
$PUCSXDIR
 10
1.0
 20
0.0
 30
0.0
  9
$PUCSYDIR
 10
0.0
 20
1.0
 30
0.0
  9
$PUCSORTHOREF
  2

  9
$PUCSORTHOVIEW
 70
     0
  9
$PUCSORGTOP
 10
0.0
 20
0.0
 30
0.0
  9
$PUCSORGBOTTOM
 10
0.0
 20
0.0
 30
0.0
  9
$PUCSORGLEFT
 10
0.0
 20
0.0
 30
0.0
  9
$PUCSORGRIGHT
 10
0.0
 20
0.0
 30
0.0
  9
$PUCSORGFRONT
 10
0.0
 20
0.0
 30
0.0
  9
$PUCSORGBACK
 10
0.0
 20
0.0
 30
0.0
  9
$USERI1
 70
     0
  9
$USERI2
 70
     0
  9
$USERI3
 70
     0
  9
$USERI4
 70
     0
  9
$USERI5
 70
     0
  9
$USERR1
 40
0.0
  9
$USERR2
 40
0.0
  9
$USERR3
 40
0.0
  9
$USERR4
 40
0.0
  9
$USERR5
 40
0.0
  9
$WORLDVIEW
 70
     1
  9
$SHADEDGE
 70
     3
  9
$SHADEDIF
 70
    70
  9
$TILEMODE
 70
     1
  9
$MAXACTVP
 70
    16
  9
$PINSBASE
 10
0.0
 20
0.0
 30
0.0
  9
$PLIMCHECK
 70
     0
  9
$PEXTMIN
 10
1.000000000000000E+20
 20
1.000000000000000E+20
 30
1.000000000000000E+20
  9
$PEXTMAX
 10
-1.000000000000000E+20
 20
-1.000000000000000E+20
 30
-1.000000000000000E+20
  9
$PLIMMIN
 10
0.0
 20
0.0
  9
$PLIMMAX
 10
12.0
 20
9.0
  9
$UNITMODE
 70
     0
  9
$VISRETAIN
 70
     0
  9
$PLINEGEN
 70
     0
  9
$PSLTSCALE
 70
     0
  9
$TREEDEPTH
 70
  3020
  9
$CMLSTYLE
  2
Standard
  9
$CMLJUST
 70
     0
  9
$CMLSCALE
 40
1.0
  9
$PROXYGRAPHICS
 70
     1
  9
$MEASUREMENT
 70
     0
  9
$CELWEIGHT
370
    -1
  9
$ENDCAPS
280
     0
  9
$JOINSTYLE
280
     0
  9
$LWDISPLAY
290
     0
  9
$INSUNITS
 70
     0
  9
$HYPERLINKBASE
  1

  9
$STYLESHEET
  1
monochrome 1.ctb
  9
$XEDIT
290
     1
  9
$CEPSNTYPE
380
     0
  9
$PSTYLEMODE
290
     1
  9
$FINGERPRINTGUID
  2
{D68B0D02-A558-11D7-B632-000102183313}
  9
$VERSIONGUID
  2
{45C84E64-749B-4D1E-825D-85E16F84DC1A}
  9
$EXTNAMES
290
     1
  9
$PSVPSCALE
 40
0.0
  9
$OLESTARTUP
290
     0
  9
$SORTENTS
280
   127
  9
$INDEXCTL
280
     0
  9
$HIDETEXT
280
     0
  9
$XCLIPFRAME
290
     0
  9
$HALOGAP
280
     0
  9
$OBSCOLOR
 70
   257
  9
$OBSLTYPE
280
     0
  9
$INTERSECTIONDISPLAY
280
     0
  9
$INTERSECTIONCOLOR
 70
   257
  9
$DIMASSOC
280
     1
  9
$PROJECTNAME
  1

  0
ENDSEC
  0
SECTION
  2
CLASSES
  0
CLASS
  1
ACDBDICTIONARYWDFLT
  2
AcDbDictionaryWithDefault
  3
ObjectDBX Classes
 90
        0
 91
        1
280
     0
281
     0
  0
CLASS
  1
DICTIONARYVAR
  2
AcDbDictionaryVar
  3
ObjectDBX Classes
 90
        0
 91
        2
280
     0
281
     0
  0
ENDSEC
  0
SECTION
  2
TABLES
  0
TABLE
  2
VPORT
  5
8
330
0
100
AcDbSymbolTable
 70
     2
  0
VPORT
  5
1360
330
8
100
AcDbSymbolTableRecord
100
AcDbViewportTableRecord
  2
*Active
 70
     0
 10
0.0
 20
0.0
 11
1.0
 21
1.0
 12
210.0032122427451
 22
297.0045430290255
 13
0.0
 23
0.0
 14
1.0
 24
1.0
 15
10.0
 25
10.0
 16
0.0
 26
0.0
 36
1.0
 17
0.0
 27
0.0
 37
0.0
 40
598.8515785754282
 41
1.336927223719676
 42
50.0
 43
0.0
 44
0.0
 50
0.0
 51
0.0
 71
     0
 72
  1500
 73
     1
 74
     0
 75
     0
 76
     0
 77
     0
 78
     0
281
     0
 65
     1
110
0.0
120
0.0
130
0.0
111
1.0
121
0.0
131
0.0
112
0.0
122
1.0
132
0.0
 79
     0
146
0.0
  0
ENDTAB
  0
TABLE
  2
LTYPE
  5
5
330
0
100
AcDbSymbolTable
 70
     2
  0
LTYPE
  5
13
330
5
100
AcDbSymbolTableRecord
100
AcDbLinetypeTableRecord
  2
ByBlock
 70
     0
  3

 72
    65
 73
     0
 40
0.0
  0
LTYPE
  5
14
330
5
100
AcDbSymbolTableRecord
100
AcDbLinetypeTableRecord
  2
ByLayer
 70
     0
  3

 72
    65
 73
     0
 40
0.0
  0
LTYPE
  5
15
330
5
100
AcDbSymbolTableRecord
100
AcDbLinetypeTableRecord
  2
Continuous
 70
     0
  3
Solid line
 72
    65
 73
     0
 40
0.0
  0
LTYPE
  5
25
330
5
100
AcDbSymbolTableRecord
100
AcDbLinetypeTableRecord
  2
STRICHPUNKT
 70
     0
  3
__ . __ . __ . __ . __ . __ . __ . __ . __ . __
 72
    65
 73
     4
 40
1.0
 49
0.5
 74
     0
 49
-0.25
 74
     0
 49
0.0
 74
     0
 49
-0.25
 74
     0
  0
ENDTAB
  0
TABLE
  2
LAYER
  5
2
330
0
100
AcDbSymbolTable
 70
     9
  0
LAYER
  5
10
330
2
100
AcDbSymbolTableRecord
100
AcDbLayerTableRecord
  2
0
 70
     0
 62
     7
  6
Continuous
370
    -3
390
F
  0
LAYER
  5
2A
330
2
100
AcDbSymbolTableRecord
100
AcDbLayerTableRecord
  2
VOLL
 70
     0
 62
     1
  6
Continuous
370
    -3
390
F
  0
LAYER
  5
2B
330
2
100
AcDbSymbolTableRecord
100
AcDbLayerTableRecord
  2
HILF
 70
     0
 62
     2
  6
Continuous
370
    -3
390
F
  0
LAYER
  5
2C
330
2
100
AcDbSymbolTableRecord
100
AcDbLayerTableRecord
  2
MITTEL
 70
     0
 62
     2
  6
STRICHPUNKT
370
    -3
390
F
  0
LAYER
  5
2F
330
2
100
AcDbSymbolTableRecord
100
AcDbLayerTableRecord
  2
BEM
 70
     0
 62
     7
  6
Continuous
370
    -3
390
F
  0
LAYER
  5
30
330
2
100
AcDbSymbolTableRecord
100
AcDbLayerTableRecord
  2
STEMPEL
 70
     0
 62
     3
  6
Continuous
370
    -3
390
F
  0
LAYER
  5
31
330
2
100
AcDbSymbolTableRecord
100
AcDbLayerTableRecord
  2
TEXT
 70
     0
 62
     7
  6
Continuous
370
    -3
390
F
  0
LAYER
  5
430
330
2
100
AcDbSymbolTableRecord
100
AcDbLayerTableRecord
  2
DEFPOINTS
 70
     0
 62
     7
  6
Continuous
290
     0
370
    -3
390
F
  0
LAYER
  5
431
330
2
100
AcDbSymbolTableRecord
100
AcDbLayerTableRecord
  2
SCHRAFF
 70
     0
 62
     7
  6
Continuous
370
    -3
390
F
  0
ENDTAB
  0
TABLE
  2
STYLE
  5
3
330
0
100
AcDbSymbolTable
 70
     2
  0
STYLE
  5
11
330
3
100
AcDbSymbolTableRecord
100
AcDbTextStyleTableRecord
  2
STANDARD
 70
     0
 40
0.0
 41
0.8
 50
0.0
 71
     0
 42
3.5
  3
simplex.shx
  4

  0
STYLE
  5
24
330
3
100
AcDbSymbolTableRecord
100
AcDbTextStyleTableRecord
  2
GREEKS
 70
     0
 40
0.0
 41
0.8
 50
0.0
 71
     0
 42
2.5
  3
SIMPLEX.shx
  4

  0
ENDTAB
  0
TABLE
  2
VIEW
  5
6
330
0
100
AcDbSymbolTable
 70
     0
  0
ENDTAB
  0
TABLE
  2
UCS
  5
7
330
0
100
AcDbSymbolTable
 70
     0
  0
ENDTAB
  0
TABLE
  2
APPID
  5
9
330
0
100
AcDbSymbolTable
 70
     1
  0
APPID
  5
12
330
9
100
AcDbSymbolTableRecord
100
AcDbRegAppTableRecord
  2
ACAD
 70
     0
  0
ENDTAB
  0
TABLE
  2
DIMSTYLE
  5
A
330
0
100
AcDbSymbolTable
 70
     1
100
AcDbDimStyleTable
 71
     1
340
9D
  0
DIMSTYLE
105
9D
102
{ACAD_REACTORS
330
62B
330
62A
330
614
330
A6E
330
A70
330
103D
330
11FA
102
}
330
A
100
AcDbSymbolTableRecord
100
AcDbDimStyleTableRecord
  2
Standard
 70
     0
340
11
  0
ENDTAB
  0
TABLE
  2
BLOCK_RECORD
  5
1
330
0
100
AcDbSymbolTable
 70
     8
  0
BLOCK_RECORD
  5
1E
102
{ACAD_XDICTIONARY
360
A0
102
}
330
1
100
AcDbSymbolTableRecord
100
AcDbBlockTableRecord
  2
*Model_Space
340
21
  0
BLOCK_RECORD
  5
1A
102
{ACAD_XDICTIONARY
360
A2
102
}
330
1
100
AcDbSymbolTableRecord
100
AcDbBlockTableRecord
  2
*Paper_Space
340
1D
  0
BLOCK_RECORD
  5
22
330
1
100
AcDbSymbolTableRecord
100
AcDbBlockTableRecord
  2
LOGO
340
0
102
{BLKREFS
331
9B
102
}
  0
BLOCK_RECORD
  5
62C
330
1
100
AcDbSymbolTableRecord
100
AcDbBlockTableRecord
  2
*D1
340
0
  0
BLOCK_RECORD
  5
646
330
1
100
AcDbSymbolTableRecord
100
AcDbBlockTableRecord
  2
*D2
340
0
  0
BLOCK_RECORD
  5
653
330
1
100
AcDbSymbolTableRecord
100
AcDbBlockTableRecord
  2
*D3
340
0
  0
BLOCK_RECORD
  5
B21
330
1
100
AcDbSymbolTableRecord
100
AcDbBlockTableRecord
  2
*D4
340
0
  0
BLOCK_RECORD
  5
B39
330
1
100
AcDbSymbolTableRecord
100
AcDbBlockTableRecord
  2
*D5
340
0
  0
BLOCK_RECORD
  5
103E
330
1
100
AcDbSymbolTableRecord
100
AcDbBlockTableRecord
  2
*D6
340
0
  0
BLOCK_RECORD
  5
12DB
330
1
100
AcDbSymbolTableRecord
100
AcDbBlockTableRecord
  2
*D7
340
0
  0
ENDTAB
  0
ENDSEC
  0
SECTION
  2
BLOCKS
  0
BLOCK
  5
35
330
1E
100
AcDbEntity
  8
0
100
AcDbBlockBegin
  2
*Model_Space
 70
     0
 10
0.0
 20
0.0
 30
0.0
  3
*Model_Space
  1

  0
ENDBLK
  5
36
330
1E
100
AcDbEntity
  8
0
100
AcDbBlockEnd
  0
BLOCK
  5
33
330
1A
100
AcDbEntity
 67
     1
  8
0
100
AcDbBlockBegin
  2
*Paper_Space
 70
     0
 10
0.0
 20
0.0
 30
0.0
  3
*Paper_Space
  1

  0
ENDBLK
  5
34
330
1A
100
AcDbEntity
 67
     1
  8
0
100
AcDbBlockEnd
  0
BLOCK
  5
37
330
22
100
AcDbEntity
  8
0
100
AcDbBlockBegin
  2
LOGO
 70
     0
 10
0.0
 20
0.0
 30
0.0
  3
LOGO
  1

  0
ARC
  5
38
330
22
100
AcDbEntity
  8
0
100
AcDbCircle
 10
11.59973089678112
 20
-9.271599258481501
 30
0.0
 40
4.5
100
AcDbArc
 50
270.0
 51
231.0575587310159
  0
LINE
  5
39
330
22
100
AcDbEntity
  8
0
100
AcDbLine
 10
3.599730896781125
 20
-4.771599258481529
 30
0.0
 11
3.599730896781153
 21
-11.77159925848133
 31
0.0
  0
LINE
  5
3A
330
22
100
AcDbEntity
  8
0
100
AcDbLine
 10
2.599730896781125
 20
-4.771599258481529
 30
0.0
 11
2.599730896781153
 21
-11.77159925848133
 31
0.0
  0
CIRCLE
  5
3B
330
22
100
AcDbEntity
  8
0
100
AcDbCircle
 10
11.59973089678112
 20
-9.271599258481501
 30
0.0
 40
3.5
  0
ARC
  5
3C
330
22
100
AcDbEntity
  8
0
100
AcDbCircle
 10
31.59973089678115
 20
-9.271599258481472
 30
0.0
 40
4.5
100
AcDbArc
 50
270.0
 51
231.0575587310182
  0
LINE
  5
3D
330
22
100
AcDbEntity
  8
0
100
AcDbLine
 10
17.59973089678112
 20
-4.771599258481472
 30
0.0
 11
17.59973089678115
 21
-13.77159925848147
 31
0.0
  0
ARC
  5
3E
330
22
100
AcDbEntity
  8
0
100
AcDbCircle
 10
22.59973089678116
 20
-7.271599258481472
 30
0.0
 40
2.5
100
AcDbArc
 50
293.1161887722295
 51
90.0
  0
CIRCLE
  5
3F
330
22
100
AcDbEntity
  8
0
100
AcDbCircle
 10
31.59973089678115
 20
-9.271599258481472
 30
0.0
 40
3.5
  0
ARC
  5
40
330
22
100
AcDbEntity
  8
0
100
AcDbCircle
 10
4.599730896781153
 20
-11.77159925848133
 30
0.0
 40
1.0
100
AcDbArc
 50
180.0
 51
270.0
  0
ARC
  5
41
330
22
100
AcDbEntity
  8
0
100
AcDbCircle
 10
4.599730896781153
 20
-11.77159925848133
 30
0.0
 40
2.0
100
AcDbArc
 50
179.9999999999992
 51
270.0
  0
LINE
  5
42
330
22
100
AcDbEntity
  8
0
100
AcDbLine
 10
11.59973089678115
 20
-13.77159925848144
 30
0.0
 11
4.599730896781153
 21
-13.77159925848147
 31
0.0
  0
LINE
  5
43
330
22
100
AcDbEntity
  8
0
100
AcDbLine
 10
8.771303772034769
 20
-12.77159925848136
 30
0.0
 11
4.599730896781153
 21
-12.77159925848133
 31
0.0
  0
LINE
  5
44
330
22
100
AcDbEntity
  8
0
100
AcDbLine
 10
31.59973089678115
 20
-13.77159925848147
 30
0.0
 11
23.6715276665056
 21
-13.77159925848144
 31
0.0
  0
LINE
  5
45
330
22
100
AcDbEntity
  8
0
100
AcDbLine
 10
23.56565672307022
 20
-9.51278021337896
 30
0.0
 11
24.4388546544846
 21
-12.77159925848144
 31
0.0
  0
LINE
  5
46
330
22
100
AcDbEntity
  8
0
100
AcDbLine
 10
22.59973089678116
 20
-9.771599258481472
 30
0.0
 11
18.59973089678112
 21
-9.771599258481472
 31
0.0
  0
LINE
  5
47
330
22
100
AcDbEntity
  8
0
100
AcDbLine
 10
18.59973089678115
 20
-13.77159925848144
 30
0.0
 11
17.59973089678115
 21
-13.77159925848144
 31
0.0
  0
LINE
  5
48
330
22
100
AcDbEntity
  8
0
100
AcDbLine
 10
18.59973089678115
 20
-9.771599258481472
 30
0.0
 11
18.59973089678115
 21
-13.77159925848144
 31
0.0
  0
LINE
  5
49
330
22
100
AcDbEntity
  8
0
100
AcDbLine
 10
22.59973089678116
 20
-9.771599258481472
 30
0.0
 11
23.67152766650562
 21
-13.77159925848147
 31
0.0
  0
ARC
  5
4A
330
22
100
AcDbEntity
  8
0
100
AcDbCircle
 10
22.59973089678116
 20
-7.271599258481472
 30
0.0
 40
2.5
100
AcDbArc
 50
270.0
 51
270.0000000000007
  0
LINE
  5
4B
330
22
100
AcDbEntity
  8
0
100
AcDbLine
 10
28.77130377203494
 20
-12.77159925848147
 30
0.0
 11
24.43885465448463
 21
-12.77159925848144
 31
0.0
  0
LINE
  5
4C
330
22
100
AcDbEntity
  8
0
100
AcDbLine
 10
3.599730896781125
 20
-4.771599258481472
 30
0.0
 11
2.599730896781125
 21
-4.771599258481472
 31
0.0
  0
LINE
  5
4D
330
22
100
AcDbEntity
  8
0
100
AcDbLine
 10
22.59973089678116
 20
-8.771599258481472
 30
0.0
 11
18.59973089678115
 21
-8.771599258481472
 31
0.0
  0
LINE
  5
4E
330
22
100
AcDbEntity
  8
0
100
AcDbLine
 10
22.59973089678116
 20
-5.771599258481472
 30
0.0
 11
18.59973089678115
 21
-5.771599258481472
 31
0.0
  0
LINE
  5
4F
330
22
100
AcDbEntity
  8
0
100
AcDbLine
 10
22.59973089678116
 20
-4.771599258481472
 30
0.0
 11
17.59973089678115
 21
-4.771599258481472
 31
0.0
  0
LINE
  5
50
330
22
100
AcDbEntity
  8
0
100
AcDbLine
 10
18.59973089678115
 20
-5.771599258481472
 30
0.0
 11
18.59973089678115
 21
-8.771599258481472
 31
0.0
  0
ARC
  5
51
330
22
100
AcDbEntity
  8
0
100
AcDbCircle
 10
22.59973089678116
 20
-7.271599258481472
 30
0.0
 40
1.5
100
AcDbArc
 50
270.0
 51
90.0
  0
ENDBLK
  5
52
330
22
100
AcDbEntity
  8
0
100
AcDbBlockEnd
  0
BLOCK
  5
637
330
62C
100
AcDbEntity
  8
0
100
AcDbBlockBegin
  2
*D1
 70
     1
 10
0.0
 20
0.0
 30
0.0
  3
*D1
  1

  0
LINE
  5
133F
330
62C
100
AcDbEntity
  8
BEM
 62
     0
370
    -2
100
AcDbLine
 10
184.2069055710294
 20
150.023715503556
 30
0.0
 11
80.57387203666815
 21
150.023715503556
 31
0.0
  0
LINE
  5
1340
330
62C
100
AcDbEntity
  8
BEM
 62
     0
370
    -2
100
AcDbLine
 10
112.7741882741625
 20
400.0017733127874
 30
0.0
 11
80.5738720366682
 21
400.0017733127874
 31
0.0
  0
LINE
  5
1341
330
62C
100
AcDbEntity
  8
BEM
 62
     0
370
    -2
100
AcDbLine
 10
82.57387203666814
 20
157.023715503556
 30
0.0
 11
82.57387203666821
 21
393.0017733127874
 31
0.0
  0
SOLID
  5
1342
330
62C
100
AcDbEntity
  8
BEM
 62
     0
100
AcDbTrace
 10
81.40720537000147
 20
157.023715503556
 30
0.0
 11
83.74053870333481
 21
157.023715503556
 31
0.0
 12
82.57387203666814
 22
150.023715503556
 32
0.0
 13
82.57387203666814
 23
150.023715503556
 33
0.0
  0
SOLID
  5
1343
330
62C
100
AcDbEntity
  8
BEM
 62
     0
100
AcDbTrace
 10
81.40720537000154
 20
393.0017733127874
 30
0.0
 11
83.74053870333488
 21
393.0017733127874
 31
0.0
 12
82.57387203666821
 22
400.0017733127874
 32
0.0
 13
82.57387203666821
 23
400.0017733127874
 33
0.0
  0
MTEXT
  5
1344
330
62C
100
AcDbEntity
  8
BEM
 62
     1
100
AcDbMText
 10
76.07387203666814
 20
275.0127444081717
 30
0.0
 40
7.0
 41
0.0
 71
     5
 72
     1
  1
\A1;250
 11
0.0000000000000001
 21
1.0
 31
0.0
 73
     1
 44
1.0
  0
POINT
  5
1345
330
62C
100
AcDbEntity
  8
DEFPOINTS
 62
     0
100
AcDbPoint
 10
186.2069055710294
 20
150.023715503556
 30
0.0
  0
POINT
  5
1346
330
62C
100
AcDbEntity
  8
DEFPOINTS
 62
     0
100
AcDbPoint
 10
114.7741882741625
 20
400.0017733127874
 30
0.0
  0
POINT
  5
1347
330
62C
100
AcDbEntity
  8
DEFPOINTS
 62
     0
100
AcDbPoint
 10
82.57387203666821
 20
400.0017733127874
 30
0.0
  0
ENDBLK
  5
638
330
62C
100
AcDbEntity
  8
0
100
AcDbBlockEnd
  0
BLOCK
  5
651
330
646
100
AcDbEntity
  8
0
100
AcDbBlockBegin
  2
*D2
 70
     1
 10
0.0
 20
0.0
 30
0.0
  3
*D2
  1

  0
LINE
  5
1022
330
646
100
AcDbEntity
  8
BEM
 62
     0
370
    -2
100
AcDbLine
 10
107.182827778199
 20
398.5017733127874
 30
0.0
 11
107.182827778199
 21
511.4993617443515
 31
0.0
  0
LINE
  5
1023
330
646
100
AcDbEntity
  8
BEM
 62
     0
370
    -2
100
AcDbLine
 10
337.1828277781991
 20
398.5017733127874
 30
0.0
 11
337.1828277781991
 21
511.4993617443515
 31
0.0
  0
LINE
  5
1024
330
646
100
AcDbEntity
  8
BEM
 62
     0
370
    -2
100
AcDbLine
 10
114.182827778199
 20
509.4993617443515
 30
0.0
 11
330.1828277781991
 21
509.4993617443515
 31
0.0
  0
SOLID
  5
1025
330
646
100
AcDbEntity
  8
BEM
 62
     0
100
AcDbTrace
 10
114.182827778199
 20
510.6660284110182
 30
0.0
 11
114.182827778199
 21
508.3326950776848
 31
0.0
 12
107.182827778199
 22
509.4993617443515
 32
0.0
 13
107.182827778199
 23
509.4993617443515
 33
0.0
  0
SOLID
  5
1026
330
646
100
AcDbEntity
  8
BEM
 62
     0
100
AcDbTrace
 10
330.1828277781991
 20
510.6660284110182
 30
0.0
 11
330.1828277781991
 21
508.3326950776848
 31
0.0
 12
337.1828277781991
 22
509.4993617443515
 32
0.0
 13
337.1828277781991
 23
509.4993617443515
 33
0.0
  0
MTEXT
  5
1027
330
646
100
AcDbEntity
  8
BEM
 62
     1
100
AcDbMText
 10
222.1828277781991
 20
515.9993617443515
 30
0.0
 40
7.0
 41
0.0
 71
     5
 72
     1
  1
\A1;%%c230
 73
     1
 44
1.0
  0
POINT
  5
1028
330
646
100
AcDbEntity
  8
DEFPOINTS
 62
     0
100
AcDbPoint
 10
107.182827778199
 20
396.5017733127874
 30
0.0
  0
POINT
  5
1029
330
646
100
AcDbEntity
  8
DEFPOINTS
 62
     0
100
AcDbPoint
 10
337.1828277781991
 20
396.5017733127874
 30
0.0
  0
POINT
  5
102A
330
646
100
AcDbEntity
  8
DEFPOINTS
 62
     0
100
AcDbPoint
 10
337.1828277781991
 20
509.4993617443515
 30
0.0
  0
ENDBLK
  5
652
330
646
100
AcDbEntity
  8
0
100
AcDbBlockEnd
  0
BLOCK
  5
65E
330
653
100
AcDbEntity
  8
0
100
AcDbBlockBegin
  2
*D3
 70
     1
 10
0.0
 20
0.0
 30
0.0
  3
*D3
  1

  0
LINE
  5
102B
330
653
100
AcDbEntity
  8
BEM
 62
     0
370
    -2
100
AcDbLine
 10
52.18282777819904
 20
403.0017733127873
 30
0.0
 11
52.18282777819905
 21
526.1934167131141
 31
0.0
  0
LINE
  5
102C
330
653
100
AcDbEntity
  8
BEM
 62
     0
370
    -2
100
AcDbLine
 10
392.1828277781991
 20
403.0017733127873
 30
0.0
 11
392.1828277781991
 21
526.1934167131141
 31
0.0
  0
LINE
  5
102D
330
653
100
AcDbEntity
  8
BEM
 62
     0
370
    -2
100
AcDbLine
 10
59.18282777819905
 20
524.1934167131141
 30
0.0
 11
385.182827778199
 21
524.1934167131141
 31
0.0
  0
SOLID
  5
102E
330
653
100
AcDbEntity
  8
BEM
 62
     0
100
AcDbTrace
 10
59.18282777819905
 20
525.3600833797808
 30
0.0
 11
59.18282777819905
 21
523.0267500464475
 31
0.0
 12
52.18282777819905
 22
524.1934167131141
 32
0.0
 13
52.18282777819905
 23
524.1934167131141
 33
0.0
  0
SOLID
  5
102F
330
653
100
AcDbEntity
  8
BEM
 62
     0
100
AcDbTrace
 10
385.182827778199
 20
525.3600833797808
 30
0.0
 11
385.182827778199
 21
523.0267500464475
 31
0.0
 12
392.1828277781991
 22
524.1934167131141
 32
0.0
 13
392.1828277781991
 23
524.1934167131141
 33
0.0
  0
MTEXT
  5
1030
330
653
100
AcDbEntity
  8
BEM
 62
     1
100
AcDbMText
 10
227.424811064139
 20
530.6934167131141
 30
0.0
 40
7.0
 41
0.0
 71
     5
 72
     1
  1
\A1;500
 73
     1
 44
1.0
  0
POINT
  5
1031
330
653
100
AcDbEntity
  8
DEFPOINTS
 62
     0
100
AcDbPoint
 10
52.18282777819904
 20
401.0017733127874
 30
0.0
  0
POINT
  5
1032
330
653
100
AcDbEntity
  8
DEFPOINTS
 62
     0
100
AcDbPoint
 10
392.1828277781991
 20
401.0017733127872
 30
0.0
  0
POINT
  5
1033
330
653
100
AcDbEntity
  8
DEFPOINTS
 62
     0
100
AcDbPoint
 10
392.1828277781991
 20
524.1934167131141
 30
0.0
  0
ENDBLK
  5
65F
330
653
100
AcDbEntity
  8
0
100
AcDbBlockEnd
  0
BLOCK
  5
B2B
330
B21
100
AcDbEntity
  8
0
100
AcDbBlockBegin
  2
*D4
 70
     1
 10
0.0
 20
0.0
 30
0.0
  3
*D4
  1

  0
LINE
  5
1017
330
B21
100
AcDbEntity
  8
BEM
 62
     0
370
    -2
100
AcDbLine
 10
171.682827778199
 20
483.0017733127872
 30
0.0
 11
171.682827778199
 21
497.205467117811
 31
0.0
  0
LINE
  5
1018
330
B21
100
AcDbEntity
  8
BEM
 62
     0
370
    -2
100
AcDbLine
 10
272.682827778199
 20
483.0017733127872
 30
0.0
 11
272.682827778199
 21
497.205467117811
 31
0.0
  0
LINE
  5
1019
330
B21
100
AcDbEntity
  8
BEM
 62
     0
370
    -2
100
AcDbLine
 10
178.682827778199
 20
495.2054671178109
 30
0.0
 11
265.6828277781991
 21
495.2054671178109
 31
0.0
  0
SOLID
  5
101A
330
B21
100
AcDbEntity
  8
BEM
 62
     0
100
AcDbTrace
 10
178.682827778199
 20
496.3721337844776
 30
0.0
 11
178.682827778199
 21
494.0388004511443
 31
0.0
 12
171.682827778199
 22
495.2054671178109
 32
0.0
 13
171.682827778199
 23
495.2054671178109
 33
0.0
  0
SOLID
  5
101B
330
B21
100
AcDbEntity
  8
BEM
 62
     0
100
AcDbTrace
 10
265.6828277781991
 20
496.3721337844776
 30
0.0
 11
265.6828277781991
 21
494.0388004511443
 31
0.0
 12
272.682827778199
 22
495.2054671178109
 32
0.0
 13
272.682827778199
 23
495.2054671178109
 33
0.0
  0
MTEXT
  5
101C
330
B21
100
AcDbEntity
  8
BEM
 62
     1
100
AcDbMText
 10
224.939074850546
 20
501.705467117811
 30
0.0
 40
7.0
 41
0.0
 71
     5
 72
     1
  1
\A1;101
 73
     1
 44
1.0
  0
POINT
  5
101D
330
B21
100
AcDbEntity
  8
DEFPOINTS
 62
     0
100
AcDbPoint
 10
171.682827778199
 20
481.0017733127873
 30
0.0
  0
POINT
  5
101E
330
B21
100
AcDbEntity
  8
DEFPOINTS
 62
     0
100
AcDbPoint
 10
272.682827778199
 20
481.0017733127873
 30
0.0
  0
POINT
  5
101F
330
B21
100
AcDbEntity
  8
DEFPOINTS
 62
     0
100
AcDbPoint
 10
272.682827778199
 20
495.2054671178109
 30
0.0
  0
ENDBLK
  5
B2C
330
B21
100
AcDbEntity
  8
0
100
AcDbBlockEnd
  0
BLOCK
  5
B45
330
B39
100
AcDbEntity
  8
0
100
AcDbBlockBegin
  2
*D5
 70
     1
 10
0.0
 20
0.0
 30
0.0
  3
*D5
  1

  0
LINE
  5
100C
330
B39
100
AcDbEntity
  8
BEM
 62
     0
370
    -2
100
AcDbLine
 10
169.682827778199
 20
481.0017733127873
 30
0.0
 11
157.1005891570549
 21
481.0017733127873
 31
0.0
  0
LINE
  5
100D
330
B39
100
AcDbEntity
  8
BEM
 62
     0
370
    -2
100
AcDbLine
 10
169.682827778199
 20
472.0017733127871
 30
0.0
 11
157.1005891570549
 21
472.0017733127871
 31
0.0
  0
LINE
  5
100E
330
B39
100
AcDbEntity
  8
BEM
 62
     0
370
    -2
100
AcDbLine
 10
159.1005891570549
 20
488.0017733127872
 30
0.0
 11
159.1005891570549
 21
495.0017733127872
 31
0.0
  0
LINE
  5
100F
330
B39
100
AcDbEntity
  8
BEM
 62
     0
370
    -2
100
AcDbLine
 10
159.1005891570549
 20
465.0017733127872
 30
0.0
 11
159.1005891570549
 21
448.5351066461205
 31
0.0
  0
LINE
  5
1010
330
B39
100
AcDbEntity
  8
BEM
 62
     0
370
    -2
100
AcDbLine
 10
159.1005891570549
 20
481.0017733127873
 30
0.0
 11
159.1005891570549
 21
472.0017733127871
 31
0.0
  0
SOLID
  5
1011
330
B39
100
AcDbEntity
  8
BEM
 62
     0
100
AcDbTrace
 10
157.9339224903882
 20
488.0017733127872
 30
0.0
 11
160.2672558237215
 21
488.0017733127872
 31
0.0
 12
159.1005891570549
 22
481.0017733127873
 32
0.0
 13
159.1005891570549
 23
481.0017733127873
 33
0.0
  0
SOLID
  5
1012
330
B39
100
AcDbEntity
  8
BEM
 62
     0
100
AcDbTrace
 10
157.9339224903882
 20
465.0017733127872
 30
0.0
 11
160.2672558237215
 21
465.0017733127872
 31
0.0
 12
159.1005891570549
 22
472.0017733127871
 32
0.0
 13
159.1005891570549
 23
472.0017733127871
 33
0.0
  0
MTEXT
  5
1013
330
B39
100
AcDbEntity
  8
BEM
 62
     1
100
AcDbMText
 10
152.6005891570548
 20
453.2684399794539
 30
0.0
 40
7.0
 41
0.0
 71
     5
 72
     1
  1
\A1;9
 11
0.0000000000000001
 21
1.0
 31
0.0
 73
     1
 44
1.0
  0
POINT
  5
1014
330
B39
100
AcDbEntity
  8
DEFPOINTS
 62
     0
100
AcDbPoint
 10
171.682827778199
 20
481.0017733127873
 30
0.0
  0
POINT
  5
1015
330
B39
100
AcDbEntity
  8
DEFPOINTS
 62
     0
100
AcDbPoint
 10
171.682827778199
 20
472.0017733127871
 30
0.0
  0
POINT
  5
1016
330
B39
100
AcDbEntity
  8
DEFPOINTS
 62
     0
100
AcDbPoint
 10
159.1005891570549
 20
472.0017733127871
 30
0.0
  0
ENDBLK
  5
B46
330
B39
100
AcDbEntity
  8
0
100
AcDbBlockEnd
  0
BLOCK
  5
1048
330
103E
100
AcDbEntity
  8
0
100
AcDbBlockBegin
  2
*D6
 70
     1
 10
0.0
 20
0.0
 30
0.0
  3
*D6
  1

  0
LINE
  5
108C
330
103E
100
AcDbEntity
  8
BEM
 62
     0
370
    -2
100
AcDbLine
 10
169.682827778199
 20
481.0017733127873
 30
0.0
 11
80.57387203666824
 21
481.0017733127873
 31
0.0
  0
LINE
  5
108D
330
103E
100
AcDbEntity
  8
BEM
 62
     0
370
    -2
100
AcDbLine
 10
112.6886019999823
 20
400.0017733127873
 30
0.0
 11
80.5738720366682
 21
400.0017733127873
 31
0.0
  0
LINE
  5
108E
330
103E
100
AcDbEntity
  8
BEM
 62
     0
370
    -2
100
AcDbLine
 10
82.57387203666821
 20
474.0017733127873
 30
0.0
 11
82.57387203666821
 21
407.0017733127873
 31
0.0
  0
SOLID
  5
108F
330
103E
100
AcDbEntity
  8
BEM
 62
     0
100
AcDbTrace
 10
81.40720537000154
 20
474.0017733127873
 30
0.0
 11
83.74053870333488
 21
474.0017733127873
 31
0.0
 12
82.57387203666823
 22
481.0017733127873
 32
0.0
 13
82.57387203666823
 23
481.0017733127873
 33
0.0
  0
SOLID
  5
1090
330
103E
100
AcDbEntity
  8
BEM
 62
     0
100
AcDbTrace
 10
81.40720537000154
 20
407.0017733127873
 30
0.0
 11
83.74053870333488
 21
407.0017733127873
 31
0.0
 12
82.57387203666821
 22
400.0017733127873
 32
0.0
 13
82.57387203666821
 23
400.0017733127873
 33
0.0
  0
MTEXT
  5
1091
330
103E
100
AcDbEntity
  8
BEM
 62
     1
100
AcDbMText
 10
76.07387203666815
 20
440.5017733127873
 30
0.0
 40
7.0
 41
0.0
 71
     5
 72
     1
  1
\A1;min.15-max.130
 11
0.0000000000000001
 21
1.0
 31
0.0
 73
     1
 44
1.0
  0
POINT
  5
1092
330
103E
100
AcDbEntity
  8
DEFPOINTS
 62
     0
100
AcDbPoint
 10
171.682827778199
 20
481.0017733127873
 30
0.0
  0
POINT
  5
1093
330
103E
100
AcDbEntity
  8
DEFPOINTS
 62
     0
100
AcDbPoint
 10
114.6886019999823
 20
400.0017733127873
 30
0.0
  0
POINT
  5
1094
330
103E
100
AcDbEntity
  8
DEFPOINTS
 62
     0
100
AcDbPoint
 10
82.57387203666821
 20
400.0017733127873
 30
0.0
  0
ENDBLK
  5
1049
330
103E
100
AcDbEntity
  8
0
100
AcDbBlockEnd
  0
BLOCK
  5
12E5
330
12DB
100
AcDbEntity
  8
0
100
AcDbBlockBegin
  2
*D7
 70
     1
 10
0.0
 20
0.0
 30
0.0
  3
*D7
  1

  0
LINE
  5
132D
330
12DB
100
AcDbEntity
  8
BEM
 62
     0
370
    -2
100
AcDbLine
 10
185.682827778199
 20
158.0237155035561
 30
0.0
 11
185.682827778199
 21
122.5580755371805
 31
0.0
  0
LINE
  5
132E
330
12DB
100
AcDbEntity
  8
BEM
 62
     0
370
    -2
100
AcDbLine
 10
258.682827778199
 20
158.0237155035561
 30
0.0
 11
258.682827778199
 21
122.5580755371805
 31
0.0
  0
LINE
  5
132F
330
12DB
100
AcDbEntity
  8
BEM
 62
     0
370
    -2
100
AcDbLine
 10
192.682827778199
 20
124.5580755371805
 30
0.0
 11
251.6828277781991
 21
124.5580755371805
 31
0.0
  0
SOLID
  5
1330
330
12DB
100
AcDbEntity
  8
BEM
 62
     0
100
AcDbTrace
 10
192.682827778199
 20
125.7247422038472
 30
0.0
 11
192.682827778199
 21
123.3914088705139
 31
0.0
 12
185.682827778199
 22
124.5580755371805
 32
0.0
 13
185.682827778199
 23
124.5580755371805
 33
0.0
  0
SOLID
  5
1331
330
12DB
100
AcDbEntity
  8
BEM
 62
     0
100
AcDbTrace
 10
251.6828277781991
 20
125.7247422038472
 30
0.0
 11
251.6828277781991
 21
123.3914088705139
 31
0.0
 12
258.682827778199
 22
124.5580755371805
 32
0.0
 13
258.682827778199
 23
124.5580755371805
 33
0.0
  0
MTEXT
  5
1332
330
12DB
100
AcDbEntity
  8
BEM
 62
     1
100
AcDbMText
 10
222.1828277781991
 20
131.0580755371805
 30
0.0
 40
7.0
 41
0.0
 71
     5
 72
     1
  1
\A1;%%C73
 73
     1
 44
1.0
  0
POINT
  5
1333
330
12DB
100
AcDbEntity
  8
DEFPOINTS
 62
     0
100
AcDbPoint
 10
185.682827778199
 20
160.0237155035561
 30
0.0
  0
POINT
  5
1334
330
12DB
100
AcDbEntity
  8
DEFPOINTS
 62
     0
100
AcDbPoint
 10
258.682827778199
 20
160.0237155035561
 30
0.0
  0
POINT
  5
1335
330
12DB
100
AcDbEntity
  8
DEFPOINTS
 62
     0
100
AcDbPoint
 10
258.682827778199
 20
124.5580755371805
 30
0.0
  0
ENDBLK
  5
12E6
330
12DB
100
AcDbEntity
  8
0
100
AcDbBlockEnd
  0
ENDSEC
  0
SECTION
  2
ENTITIES
  0
LINE
  5
57
330
1E
100
AcDbEntity
  8
STEMPEL
100
AcDbLine
 10
410.0
 20
110.0
 30
0.0
 11
39.99999999999997
 21
110.0
 31
0.0
  0
LINE
  5
58
330
1E
100
AcDbEntity
  8
STEMPEL
100
AcDbLine
 10
136.0000000000001
 20
109.9999999999999
 30
0.0
 11
136.0
 21
9.999999999999971
 31
0.0
  0
LINE
  5
59
330
1E
100
AcDbEntity
  8
STEMPEL
100
AcDbLine
 10
220.0
 20
110.0
 30
0.0
 11
220.0
 21
9.999999999999971
 31
0.0
  0
LINE
  5
5A
330
1E
100
AcDbEntity
  8
STEMPEL
100
AcDbLine
 10
332.0
 20
109.9999999999997
 30
0.0
 11
332.0
 21
40.0
 31
0.0
  0
LINE
  5
5B
330
1E
100
AcDbEntity
  8
STEMPEL
100
AcDbLine
 10
135.9999999999999
 20
29.99999999999997
 30
0.0
 11
39.99999999999997
 21
29.99999999999997
 31
0.0
  0
LINE
  5
5C
330
1E
100
AcDbEntity
  8
STEMPEL
100
AcDbLine
 10
410.0
 20
40.0
 30
0.0
 11
136.0000000000001
 21
39.99999999999997
 31
0.0
  0
LINE
  5
5D
330
1E
100
AcDbEntity
  8
STEMPEL
100
AcDbLine
 10
410.0
 20
80.0
 30
0.0
 11
136.0000000000001
 21
79.99999999999994
 31
0.0
  0
LINE
  5
5E
330
1E
100
AcDbEntity
  8
VOLL
100
AcDbLine
 10
54.00000000000009
 20
110.0
 30
0.0
 11
53.99999999999997
 21
9.999999999999971
 31
0.0
  0
LINE
  5
5F
330
1E
100
AcDbEntity
  8
VOLL
100
AcDbLine
 10
94.00000000000011
 20
109.9999999999999
 30
0.0
 11
94.0
 21
9.999999999999971
 31
0.0
  0
LINE
  5
60
330
1E
100
AcDbEntity
  8
VOLL
100
AcDbLine
 10
114.0000000000001
 20
109.9999999999999
 30
0.0
 11
114.0
 21
9.999999999999971
 31
0.0
  0
LINE
  5
61
330
1E
100
AcDbEntity
  8
VOLL
100
AcDbLine
 10
154.0000000000001
 20
79.99999999999994
 30
0.0
 11
154.0000000000001
 21
39.99999999999997
 31
0.0
  0
LINE
  5
62
330
1E
100
AcDbEntity
  8
VOLL
100
AcDbLine
 10
180.0000000000001
 20
109.9999999999998
 30
0.0
 11
180.0
 21
39.99999999999997
 31
0.0
  0
LINE
  5
63
330
1E
100
AcDbEntity
  8
HILF
100
AcDbLine
 10
40.00000000000008
 20
100.0
 30
0.0
 11
136.0000000000001
 21
100.0
 31
0.0
  0
LINE
  5
64
330
1E
100
AcDbEntity
  8
HILF
100
AcDbLine
 10
40.00000000000008
 20
90.00000000000005
 30
0.0
 11
136.0000000000001
 21
90.00000000000005
 31
0.0
  0
LINE
  5
65
330
1E
100
AcDbEntity
  8
HILF
100
AcDbLine
 10
40.00000000000008
 20
79.99999999999994
 30
0.0
 11
136.0000000000001
 21
79.99999999999994
 31
0.0
  0
LINE
  5
66
330
1E
100
AcDbEntity
  8
HILF
100
AcDbLine
 10
40.00000000000008
 20
69.99999999999994
 30
0.0
 11
136.0000000000001
 21
69.99999999999994
 31
0.0
  0
LINE
  5
67
330
1E
100
AcDbEntity
  8
HILF
100
AcDbLine
 10
40.00000000000008
 20
59.99999999999997
 30
0.0
 11
136.0000000000001
 21
59.99999999999997
 31
0.0
  0
LINE
  5
68
330
1E
100
AcDbEntity
  8
HILF
100
AcDbLine
 10
40.00000000000008
 20
49.99999999999997
 30
0.0
 11
136.0000000000001
 21
49.99999999999997
 31
0.0
  0
LINE
  5
69
330
1E
100
AcDbEntity
  8
HILF
100
AcDbLine
 10
40.00000000000008
 20
39.99999999999997
 30
0.0
 11
136.0000000000001
 21
39.99999999999997
 31
0.0
  0
LINE
  5
6A
330
1E
100
AcDbEntity
  8
HILF
100
AcDbLine
 10
136.0000000000001
 20
69.99999999999994
 30
0.0
 11
220.0
 21
69.99999999999994
 31
0.0
  0
LINE
  5
6B
330
1E
100
AcDbEntity
  8
HILF
100
AcDbLine
 10
136.0000000000001
 20
59.99999999999997
 30
0.0
 11
220.0
 21
59.99999999999997
 31
0.0
  0
LINE
  5
6C
330
1E
100
AcDbEntity
  8
HILF
100
AcDbLine
 10
136.0000000000001
 20
49.99999999999997
 30
0.0
 11
220.0
 21
49.99999999999997
 31
0.0
  0
LINE
  5
6D
330
1E
100
AcDbEntity
  8
HILF
100
AcDbLine
 10
224.7736801096948
 20
84.03758247564139
 30
0.0
 11
324.8353916556311
 21
84.03758247564139
 31
0.0
  0
LINE
  5
6E
330
1E
100
AcDbEntity
  8
HILF
100
AcDbLine
 10
224.7736801096948
 20
69.99999999999994
 30
0.0
 11
324.835391655631
 21
69.99999999999994
 31
0.0
  0
LINE
  5
6F
330
1E
100
AcDbEntity
  8
HILF
100
AcDbLine
 10
224.7736801096948
 20
59.99999999999997
 30
0.0
 11
324.835391655631
 21
59.99999999999997
 31
0.0
  0
LINE
  5
70
330
1E
100
AcDbEntity
  8
HILF
100
AcDbLine
 10
224.7736801096948
 20
49.99999999999997
 30
0.0
 11
324.835391655631
 21
49.99999999999997
 31
0.0
  0
LINE
  5
71
330
1E
100
AcDbEntity
  8
VOLL
100
AcDbLine
 10
332.0
 20
60.0
 30
0.0
 11
410.0
 21
60.0
 31
0.0
  0
LINE
  5
72
330
1E
100
AcDbEntity
  8
HILF
100
AcDbLine
 10
336.7238616296993
 20
83.77983636955827
 30
0.0
 11
404.8588839326728
 21
83.77983636955827
 31
0.0
  0
LINE
  5
73
330
1E
100
AcDbEntity
  8
HILF
100
AcDbLine
 10
223.4909699289885
 20
14.89398258028314
 30
0.0
 11
404.8588839326728
 21
14.89398258028314
 31
0.0
  0
TEXT
  5
74
330
1E
100
AcDbEntity
  8
TEXT
100
AcDbText
 10
63.86165979631819
 20
18.67381894984132
 30
0.0
 40
4.0
  1
Änderung
 41
0.8
  7
GREEKS
 72
     1
 11
74.60451693917534
 21
18.67381894984132
 31
0.0
100
AcDbText
  0
TEXT
  5
75
330
1E
100
AcDbEntity
  8
TEXT
100
AcDbText
 10
143.5163572150377
 20
102.4620895087088
 30
0.0
 40
5.0
  1
Maßstab
 41
0.8
  7
GREEKS
100
AcDbText
  0
TEXT
  5
76
330
1E
100
AcDbEntity
  8
TEXT
100
AcDbText
 10
184.2858954734051
 20
102.4184168434819
 30
0.0
 40
5.0
  1
Zul. Abw.
 41
0.8
  7
GREEKS
100
AcDbText
  0
TEXT
  5
77
330
1E
100
AcDbEntity
  8
TEXT
100
AcDbText
 10
224.877940380901
 20
102.5489328011779
 30
0.0
 40
5.0
  1
Benennung
 41
0.8
  7
GREEKS
100
AcDbText
  0
TEXT
  5
78
330
1E
100
AcDbEntity
  8
TEXT
100
AcDbText
 10
336.178754957634
 20
102.3132034537136
 30
0.0
 40
5.0
  1
Zeichnungs Nr.
 41
0.8
  7
GREEKS
100
AcDbText
  0
TEXT
  5
79
330
1E
100
AcDbEntity
  8
TEXT
100
AcDbText
 10
224.742238391136
 20
30.84560570193057
 30
0.0
 40
5.0
  1
Bauvorhaben
 41
0.8
  7
GREEKS
100
AcDbText
  0
TEXT
  5
7A
330
1E
100
AcDbEntity
  8
TEXT
100
AcDbText
 10
336.7238616296993
 20
73.1811823709997
 30
0.0
 40
5.0
  1
Ersatz für:
 41
0.8
  7
GREEKS
100
AcDbText
  0
TEXT
  5
7B
330
1E
100
AcDbEntity
  8
TEXT
100
AcDbText
 10
48.26641107045756
 20
13.65465846027192
 30
0.0
 40
4.0
  1
Index
 50
90.0
 41
0.8
  7
GREEKS
100
AcDbText
  0
TEXT
  5
7C
330
1E
100
AcDbEntity
  8
TEXT
100
AcDbText
 10
100.0934676075481
 20
18.6715626933981
 30
0.0
 40
4.0
  1
Tag
 41
0.8
  7
GREEKS
 72
     1
 11
103.8268009408814
 21
18.6715626933981
 31
0.0
100
AcDbText
  0
TEXT
  5
7D
330
1E
100
AcDbEntity
  8
TEXT
100
AcDbText
 10
119.0122744386592
 20
18.59324216966408
 30
0.0
 40
4.0
  1
Name
 41
0.8
  7
GREEKS
 72
     1
 11
125.3360839624688
 21
18.59324216966408
 31
0.0
100
AcDbText
  0
TEXT
  5
7E
330
1E
100
AcDbEntity
  8
TEXT
100
AcDbText
 10
162.3311673153651
 20
73.31880501229926
 30
0.0
 40
4.0
  1
Tag
 41
0.8
  7
GREEKS
100
AcDbText
  0
TEXT
  5
7F
330
1E
100
AcDbEntity
  8
TEXT
100
AcDbText
 10
192.4626584226295
 20
73.30961091915225
 30
0.0
 40
4.0
  1
Name
 41
0.8
  7
GREEKS
100
AcDbText
  0
TEXT
  5
80
330
1E
100
AcDbEntity
  8
TEXT
100
AcDbText
 10
137.5836127167615
 20
63.62990369617964
 30
0.0
 40
4.0
  1
Gez.
 41
0.8
  7
GREEKS
100
AcDbText
  0
TEXT
  5
81
330
1E
100
AcDbEntity
  8
TEXT
100
AcDbText
 10
137.5515086571672
 20
53.68926291428377
 30
0.0
 40
4.0
  1
Gepr.
 41
0.8
  7
GREEKS
100
AcDbText
  0
TEXT
  5
82
330
1E
100
AcDbEntity
  8
TEXT
100
AcDbText
 10
137.6006777387304
 20
43.52946389649807
 30
0.0
 40
4.0
  1
Norm.
 41
0.8
  7
GREEKS
100
AcDbText
  0
LINE
  5
83
330
1E
100
AcDbEntity
  8
STEMPEL
100
AcDbLine
 10
49.99999999999989
 20
10.0
 30
0.0
 11
410.0
 21
10.0
 31
0.0
  0
TEXT
  5
84
330
1E
100
AcDbEntity
  8
TEXT
100
AcDbText
 10
337.2400861497006
 20
52.07416177878602
 30
0.0
 40
5.0
  1
ersetzt durch:
 41
0.8
  7
GREEKS
100
AcDbText
  0
LINE
  5
85
330
1E
100
AcDbEntity
  8
STEMPEL
100
AcDbLine
 10
410.0
 20
10.0
 30
0.0
 11
39.99999999999989
 21
10.0
 31
0.0
  0
LINE
  5
86
330
1E
100
AcDbEntity
  8
STEMPEL
100
AcDbLine
 10
410.0
 20
10.0
 30
0.0
 11
410.0
 21
584.0
 31
0.0
  0
LINE
  5
87
330
1E
100
AcDbEntity
  8
STEMPEL
100
AcDbLine
 10
40.0
 20
10.0
 30
0.0
 11
39.99999999999989
 21
584.0
 31
0.0
  0
LINE
  5
88
330
1E
100
AcDbEntity
  8
STEMPEL
100
AcDbLine
 10
410.0
 20
584.0
 30
0.0
 11
39.99999999999989
 21
584.0
 31
0.0
  0
LINE
  5
89
330
1E
100
AcDbEntity
  8
HILF
100
AcDbLine
 10
0.0
 20
0.0
 30
0.0
 11
-0.0000000000001137
 21
594.0
 31
0.0
  0
LINE
  5
8A
330
1E
100
AcDbEntity
  8
HILF
100
AcDbLine
 10
419.9999999999999
 20
594.0000000000002
 30
0.0
 11
0.0
 21
594.0
 31
0.0
  0
LINE
  5
8B
330
1E
100
AcDbEntity
  8
HILF
100
AcDbLine
 10
420.0
 20
0.0
 30
0.0
 11
0.0
 21
0.0
 31
0.0
  0
LINE
  5
8C
330
1E
100
AcDbEntity
  8
HILF
100
AcDbLine
 10
31.08767135713856
 20
297.0
 30
0.0
 11
0.0000000000001137
 21
297.0
 31
0.0
  0
TEXT
  5
8D
330
1E
100
AcDbEntity
  8
TEXT
100
AcDbText
 10
138.622109822104
 20
73.14025471151666
 30
0.0
 40
4.0
  1
2008
 41
0.8
  7
GREEKS
100
AcDbText
  0
LINE
  5
8E
330
1E
100
AcDbEntity
  8
HILF
100
AcDbLine
 10
420.0
 20
-0.0000000000001137
 30
0.0
 11
419.9999999999999
 21
594.0
 31
0.0
  0
TEXT
  5
8F
330
1E
100
AcDbEntity
  8
VOLL
100
AcDbText
 10
78.07675471698113
 20
31.02594776470585
 30
0.0
 40
1.8
  1

  7
GREEKS
100
AcDbText
  0
TEXT
  5
90
330
1E
100
AcDbEntity
  8
TEXT
100
AcDbText
 10
41.85509950977674
 20
111.6719999999999
 30
0.0
 40
5.0
  1
Erstellt mit AUTOCAD 2004
 41
0.8
  7
GREEKS
100
AcDbText
  0
TEXT
  5
93
330
1E
100
AcDbEntity
  8
TEXT
 62
     1
100
AcDbText
 10
150.5006306481887
 20
88.14901428913959
 30
0.0
 40
7.0
  1
1:2
 41
0.8
  7
GREEKS
100
AcDbText
  0
INSERT
  5
9B
330
1E
100
AcDbEntity
  8
STEMPEL
100
AcDbBlockReference
  2
LOGO
 10
140.9955485457794
 20
45.02105276448322
 30
0.0
 41
2.0
 42
2.0
 43
2.0
  0
TEXT
  5
118
330
1E
100
AcDbEntity
  8
BEM
100
AcDbText
 10
417.3022923857165
 20
10.16790107998849
 30
0.0
 40
4.0
  1
Diese Zeichnung ist urheberrechtlich geschützt und bleibt unser Eigentum. Sie darf weder ganz noch teilweise verfielfältigt und nicht an Dritte weitergegeben werden.
 50
90.0
 41
0.8
  7
GREEKS
100
AcDbText
  0
LINE
  5
531
330
1E
100
AcDbEntity
  8
STEMPEL
100
AcDbLine
 10
392.182827778199
 20
401.0017733127872
 30
0.0
 11
392.182827778199
 21
400.0017733127872
 31
0.0
  0
LINE
  5
532
330
1E
100
AcDbEntity
  8
HILF
100
AcDbLine
 10
371.9819505357281
 20
403.0017733127873
 30
0.0
 11
370.6422045735725
 21
398.0017733127873
 31
0.0
  0
LINE
  5
533
330
1E
100
AcDbEntity
  8
HILF
100
AcDbLine
 10
370.9819505357281
 20
403.0017733127873
 30
0.0
 11
369.6422045735725
 21
398.0017733127873
 31
0.0
  0
LINE
  5
534
330
1E
100
AcDbEntity
  8
STEMPEL
100
AcDbLine
 10
392.1828277781991
 20
400.0017733127872
 30
0.0
 11
371.1781029584348
 21
400.0017733127872
 31
0.0
  0
LINE
  5
535
330
1E
100
AcDbEntity
  8
STEMPEL
100
AcDbLine
 10
392.1828277781991
 20
401.0017733127872
 30
0.0
 11
371.4460521508659
 21
401.0017733127872
 31
0.0
  0
LINE
  5
537
330
1E
100
AcDbEntity
  8
STEMPEL
100
AcDbLine
 10
337.1828277781991
 20
396.5017733127874
 30
0.0
 11
336.5489003855881
 21
395.1423116322324
 31
0.0
  0
LINE
  5
53A
330
1E
100
AcDbEntity
  8
BEM
 62
     1
100
AcDbLine
 10
217.1251153896301
 20
534.6843977001434
 30
0.0
 11
217.1251153896301
 21
527.6843977001434
 31
0.0
  0
LINE
  5
53B
330
1E
100
AcDbEntity
  8
BEM
 62
     1
100
AcDbLine
 10
210.1251153896301
 20
527.6843977001434
 30
0.0
 11
210.1251153896301
 21
534.6843977001434
 31
0.0
  0
LINE
  5
53C
330
1E
100
AcDbEntity
  8
BEM
 62
     1
100
AcDbLine
 10
210.1251153896301
 20
534.6843977001434
 30
0.0
 11
217.1251153896301
 21
534.6843977001434
 31
0.0
  0
LINE
  5
53D
330
1E
100
AcDbEntity
  8
BEM
 62
     1
100
AcDbLine
 10
217.1251153896301
 20
527.6843977001434
 30
0.0
 11
210.1251153896301
 21
527.6843977001434
 31
0.0
  0
LINE
  5
53E
330
1E
100
AcDbEntity
  8
STEMPEL
100
AcDbLine
 10
274.1828277781991
 20
400.0017733127872
 30
0.0
 11
275.182827778199
 21
401.0017733127872
 31
0.0
  0
LINE
  5
53F
330
1E
100
AcDbEntity
  8
STEMPEL
100
AcDbLine
 10
280.1828277781991
 20
401.0017733127872
 30
0.0
 11
275.182827778199
 21
401.0017733127872
 31
0.0
  0
LINE
  5
540
330
1E
100
AcDbEntity
  8
STEMPEL
100
AcDbLine
 10
272.1828277781991
 20
400.0017733127872
 30
0.0
 11
271.182827778199
 21
401.0017733127872
 31
0.0
  0
LINE
  5
541
330
1E
100
AcDbEntity
  8
STEMPEL
100
AcDbLine
 10
267.232827778199
 20
401.0017733127872
 30
0.0
 11
267.232827778199
 21
400.0017733127872
 31
0.0
  0
LINE
  5
542
330
1E
100
AcDbEntity
  8
STEMPEL
100
AcDbLine
 10
267.232827778199
 20
400.0017733127872
 30
0.0
 11
267.4328277781991
 21
399.6553631512735
 31
0.0
  0
LINE
  5
543
330
1E
100
AcDbEntity
  8
STEMPEL
100
AcDbLine
 10
271.182827778199
 20
401.0017733127872
 30
0.0
 11
267.232827778199
 21
401.0017733127872
 31
0.0
  0
LINE
  5
544
330
1E
100
AcDbEntity
  8
STEMPEL
100
AcDbLine
 10
274.1828277781991
 20
400.0017733127872
 30
0.0
 11
272.1828277781991
 21
400.0017733127872
 31
0.0
  0
LINE
  5
545
330
1E
100
AcDbEntity
  8
STEMPEL
100
AcDbLine
 10
275.182827778199
 20
401.0017733127872
 30
0.0
 11
271.182827778199
 21
401.0017733127872
 31
0.0
  0
LINE
  5
546
330
1E
100
AcDbEntity
  8
STEMPEL
100
AcDbLine
 10
281.9003421994712
 20
396.5979673905
 30
0.0
 11
279.7710869852433
 21
394.4687121762719
 31
0.0
  0
ARC
  5
547
330
1E
100
AcDbEntity
  8
STEMPEL
100
AcDbCircle
 10
286.4965362771839
 20
392.0017733127874
 30
0.0
 40
8.0
100
AcDbArc
 50
134.9999999999997
 51
134.9999999999997
  0
LINE
  5
548
330
1E
100
AcDbEntity
  8
STEMPEL
100
AcDbLine
 10
280.1325752465049
 20
398.3657343434664
 30
0.0
 11
278.7569012752527
 21
396.9900603722141
 31
0.0
  0
LINE
  5
549
330
1E
100
AcDbEntity
  8
STEMPEL
100
AcDbLine
 10
280.8396820276915
 20
397.6586275622798
 30
0.0
 11
279.1828277781993
 21
396.0017733127876
 31
0.0
  0
ARC
  5
54A
330
1E
100
AcDbEntity
  8
STEMPEL
100
AcDbCircle
 10
275.182827778199
 20
390.6017733127874
 30
0.0
 40
1.0
100
AcDbArc
 50
184.5397086345421
 51
196.6573770607393
  0
LINE
  5
54B
330
1E
100
AcDbEntity
  8
STEMPEL
100
AcDbLine
 10
274.6966737861699
 20
388.7379991054234
 30
0.0
 11
274.2247917778599
 21
390.3151254067179
 31
0.0
  0
ARC
  5
54C
330
1E
100
AcDbEntity
  8
STEMPEL
100
AcDbCircle
 10
276.6828277781991
 20
390.3974172365295
 30
0.0
 40
2.5
100
AcDbArc
 50
155.3800226712869
 51
177.1292868703572
  0
ARC
  5
54D
330
1E
100
AcDbEntity
  8
STEMPEL
100
AcDbCircle
 10
277.3633849755801
 20
394.0058505034135
 30
0.0
 40
4.0
100
AcDbArc
 50
92.58717043466333
 51
142.6684147984907
  0
ARC
  5
54E
330
1E
100
AcDbEntity
  8
STEMPEL
100
AcDbCircle
 10
279.182827778199
 20
389.2517733127874
 30
0.0
 40
5.25
100
AcDbArc
 50
83.56653354842034
 51
155.3800226712869
  0
ARC
  5
54F
330
1E
100
AcDbEntity
  8
STEMPEL
100
AcDbCircle
 10
268.4138028032515
 20
381.0017733127872
 30
0.0
 40
5.745201938350518
100
AcDbArc
 50
340.7988568646108
 51
353.195025239607
  0
ARC
  5
550
330
1E
100
AcDbEntity
  8
STEMPEL
100
AcDbCircle
 10
252.182827778199
 20
382.0017733127874
 30
0.0
 40
23.5
100
AcDbArc
 50
353.3741904351755
 51
16.65737706073268
  0
LINE
  5
551
330
1E
100
AcDbEntity
  8
STEMPEL
100
AcDbLine
 10
272.682827778199
 20
390.6879139744245
 30
0.0
 11
272.682827778199
 21
390.6017733127874
 31
0.0
  0
ARC
  5
552
330
1E
100
AcDbEntity
  8
STEMPEL
100
AcDbCircle
 10
275.182827778199
 20
390.6879139744245
 30
0.0
 40
2.5
100
AcDbArc
 50
160.2500772043228
 51
180.9871481076939
  0
ARC
  5
553
330
1E
100
AcDbEntity
  8
STEMPEL
100
AcDbCircle
 10
275.182827778199
 20
390.6017733127874
 30
0.0
 40
2.5
100
AcDbArc
 50
179.012851892306
 51
196.6573770607326
  0
ARC
  5
554
330
1E
100
AcDbEntity
  8
STEMPEL
100
AcDbCircle
 10
275.182827778199
 20
390.6879139744245
 30
0.0
 40
3.5
100
AcDbArc
 50
160.2500772043228
 51
180.7050887044108
  0
ARC
  5
555
330
1E
100
AcDbEntity
  8
STEMPEL
100
AcDbCircle
 10
275.182827778199
 20
390.6017733127874
 30
0.0
 40
3.5
100
AcDbArc
 50
179.2949112955892
 51
196.6573770607326
  0
LINE
  5
556
330
1E
100
AcDbEntity
  8
STEMPEL
100
AcDbLine
 10
271.829701777012
 20
389.5985056415439
 30
0.0
 11
272.3015837853222
 21
388.0213793402488
 31
0.0
  0
LINE
  5
557
330
1E
100
AcDbEntity
  8
STEMPEL
100
AcDbLine
 10
272.7877377773511
 20
389.8851535476135
 30
0.0
 11
273.2596197856614
 21
388.3080272463184
 31
0.0
  0
LINE
  5
558
330
1E
100
AcDbEntity
  8
STEMPEL
100
AcDbLine
 10
272.1828277781991
 20
393.0328622260328
 30
0.0
 11
273.8100635344762
 21
395.8513172317978
 31
0.0
  0
LINE
  5
559
330
1E
100
AcDbEntity
  8
STEMPEL
100
AcDbLine
 10
270.4328277781991
 20
390.0017733127873
 30
0.0
 11
272.1828277781991
 21
393.0328622260328
 31
0.0
  0
LWPOLYLINE
  5
55A
102
{ACAD_REACTORS
330
73B
102
}
330
1E
100
AcDbEntity
  8
STEMPEL
100
AcDbPolyline
 90
        5
 70
     0
 43
0.0
 10
269.7959162599005
 20
385.0017733127873
 42
-0.1149415123267204
 10
271.0526112953173
 20
384.7090126342687
 42
-0.1038526577300335
 10
272.1739789310421
 20
383.8302004375335
 42
-0.0912492981546976
 10
272.895028249893
 20
382.5624013697242
 42
-0.0839773692119132
 10
273.1590047416021
 20
381.0017733127872
 42
-0.0839773692119072
  0
ARC
  5
55B
102
{ACAD_REACTORS
330
73B
102
}
330
1E
100
AcDbEntity
  8
STEMPEL
100
AcDbCircle
 10
269.7959162599005
 20
379.845377917329
 30
0.0
 40
2.843604604541721
100
AcDbArc
 50
270.0
 51
296.2275560863342
  0
ARC
  5
55C
102
{ACAD_REACTORS
330
73B
102
}
330
1E
100
AcDbEntity
  8
STEMPEL
100
AcDbCircle
 10
269.5205853620175
 20
380.404245525393
 30
0.0
 40
3.466613518340057
100
AcDbArc
 50
296.227556086347
 51
319.9438129476444
  0
ARC
  5
55D
102
{ACAD_REACTORS
330
73B
102
}
330
1E
100
AcDbEntity
  8
STEMPEL
100
AcDbCircle
 10
269.0899762147885
 20
380.7662896911833
 30
0.0
 40
4.029197037170963
100
AcDbArc
 50
319.9438129476444
 51
340.7988568646108
  0
ARC
  5
55E
102
{ACAD_REACTORS
330
73B
102
}
330
1E
100
AcDbEntity
  8
STEMPEL
100
AcDbCircle
 10
268.4138028032515
 20
381.0017733127872
 30
0.0
 40
4.745201938350518
100
AcDbArc
 50
340.7988568646108
 51
352.9488587834631
  0
ARC
  5
55F
330
1E
100
AcDbEntity
  8
STEMPEL
100
AcDbCircle
 10
267.4328277781991
 20
378.0017733127873
 30
0.0
 40
1.0
100
AcDbArc
 50
180.0
 51
270.0
  0
LINE
  5
560
330
1E
100
AcDbEntity
  8
STEMPEL
100
AcDbLine
 10
266.432827778199
 20
384.0017733127873
 30
0.0
 11
266.432827778199
 21
378.0017733127873
 31
0.0
  0
ARC
  5
561
330
1E
100
AcDbEntity
  8
STEMPEL
100
AcDbCircle
 10
267.4328277781991
 20
384.0017733127873
 30
0.0
 40
1.0
100
AcDbArc
 50
90.0
 51
180.0
  0
ARC
  5
562
102
{ACAD_REACTORS
330
73B
102
}
330
1E
100
AcDbEntity
  8
STEMPEL
100
AcDbCircle
 10
270.0712471577829
 20
381.5993011001821
 30
0.0
 40
3.466613518339271
100
AcDbArc
 50
116.2275560863386
 51
139.9438129476443
  0
ARC
  5
563
102
{ACAD_REACTORS
330
73B
102
}
330
1E
100
AcDbEntity
  8
STEMPEL
100
AcDbCircle
 10
270.5018563050123
 20
381.2372569343914
 30
0.0
 40
4.029197037170673
100
AcDbArc
 50
139.9438129476443
 51
160.7988568646108
  0
ARC
  5
564
102
{ACAD_REACTORS
330
73B
102
}
330
1E
100
AcDbEntity
  8
STEMPEL
100
AcDbCircle
 10
271.1780297165491
 20
381.0017733127873
 30
0.0
 40
4.745201938350191
100
AcDbArc
 50
160.7988568646108
 51
180.0
  0
ARC
  5
565
102
{ACAD_REACTORS
330
73B
102
}
330
1E
100
AcDbEntity
  8
STEMPEL
100
AcDbCircle
 10
271.1780297165491
 20
381.0017733127873
 30
0.0
 40
4.745201938350191
100
AcDbArc
 50
180.0
 51
199.2011431353891
  0
ARC
  5
566
102
{ACAD_REACTORS
330
73B
102
}
330
1E
100
AcDbEntity
  8
STEMPEL
100
AcDbCircle
 10
270.5018563050123
 20
380.7662896911832
 30
0.0
 40
4.029197037170677
100
AcDbArc
 50
199.2011431353891
 51
220.0561870523557
  0
ARC
  5
567
102
{ACAD_REACTORS
330
73B
102
}
330
1E
100
AcDbEntity
  8
STEMPEL
100
AcDbCircle
 10
270.0712471577828
 20
380.4042455253924
 30
0.0
 40
3.466613518339158
100
AcDbArc
 50
220.0561870523557
 51
243.7724439136628
  0
LINE
  5
568
330
1E
100
AcDbEntity
  8
STEMPEL
100
AcDbLine
 10
270.4328277781991
 20
377.0017733127873
 30
0.0
 11
267.4328277781991
 21
377.0017733127873
 31
0.0
  0
LINE
  5
569
330
1E
100
AcDbEntity
  8
STEMPEL
100
AcDbLine
 10
270.4328277781991
 20
385.0017733127873
 30
0.0
 11
267.4328277781991
 21
385.0017733127873
 31
0.0
  0
ARC
  5
56B
102
{ACAD_REACTORS
330
73B
102
}
330
1E
100
AcDbEntity
  8
STEMPEL
100
AcDbCircle
 10
269.7959162599005
 20
382.1581687082462
 30
0.0
 40
2.843604604541096
100
AcDbArc
 50
90.0
 51
116.2275560863379
  0
ARC
  5
56C
102
{ACAD_REACTORS
330
73B
102
}
330
1E
100
AcDbEntity
  8
STEMPEL
100
AcDbCircle
 10
269.7959162599005
 20
379.8453779173283
 30
0.0
 40
2.843604604540985
100
AcDbArc
 50
243.7724439136617
 51
270.0
  0
LINE
  5
56D
330
1E
100
AcDbEntity
  8
STEMPEL
100
AcDbLine
 10
270.4328277781991
 20
390.0017733127873
 30
0.0
 11
270.4328277781991
 21
385.0017733127873
 31
0.0
  0
ARC
  5
56E
102
{ACAD_REACTORS
330
73B
102
}
330
1E
100
AcDbEntity
  8
STEMPEL
100
AcDbCircle
 10
252.182827778199
 20
382.0017733127874
 30
0.0
 40
21.0
100
AcDbArc
 50
355.6782614202369
 51
16.65737706073268
  0
ARC
  5
56F
330
1E
100
AcDbEntity
  8
STEMPEL
100
AcDbCircle
 10
279.182827778199
 20
389.2517733127874
 30
0.0
 40
6.75
100
AcDbArc
 50
89.99999999999797
 51
160.2500772043228
  0
ARC
  5
570
330
1E
100
AcDbEntity
  8
STEMPEL
100
AcDbCircle
 10
279.182827778199
 20
389.2517733127874
 30
0.0
 40
7.75
100
AcDbArc
 50
93.15046356630897
 51
160.2500772043228
  0
ARC
  5
571
330
1E
100
AcDbEntity
  8
STEMPEL
100
AcDbCircle
 10
252.182827778199
 20
382.0017733127874
 30
0.0
 40
22.0
100
AcDbArc
 50
353.3741904351755
 51
16.65737706073268
  0
ARC
  5
572
330
1E
100
AcDbEntity
  8
STEMPEL
100
AcDbCircle
 10
277.3633849755801
 20
394.0058505034135
 30
0.0
 40
4.0
100
AcDbArc
 50
142.6684147984907
 51
152.5871704346632
  0
ARC
  5
573
330
1E
100
AcDbEntity
  8
STEMPEL
100
AcDbCircle
 10
269.0899762147885
 20
380.7662896911833
 30
0.0
 40
5.029197037170963
100
AcDbArc
 50
317.1673057240913
 51
340.7988568646108
  0
LINE
  5
574
330
1E
100
AcDbEntity
  8
MITTEL
100
AcDbLine
 10
273.182827778199
 20
404.0017733127873
 30
0.0
 11
273.182827778199
 21
392.518083290555
 31
0.0
  0
LINE
  5
575
330
1E
100
AcDbEntity
  8
STEMPEL
100
AcDbLine
 10
267.4328277781991
 20
399.6553631512735
 30
0.0
 11
267.4328277781991
 21
395.9017733127873
 31
0.0
  0
LINE
  5
576
330
1E
100
AcDbEntity
  8
STEMPEL
100
AcDbLine
 10
272.1828277781991
 20
400.0017733127872
 30
0.0
 11
272.1828277781991
 21
393.0328622260327
 31
0.0
  0
LINE
  5
577
330
1E
100
AcDbEntity
  8
STEMPEL
100
AcDbLine
 10
280.1828277781991
 20
401.0017733127872
 30
0.0
 11
277.182827778199
 21
398.0017733127873
 31
0.0
  0
LINE
  5
578
330
1E
100
AcDbEntity
  8
STEMPEL
100
AcDbLine
 10
274.1828277781991
 20
400.0017733127872
 30
0.0
 11
274.1828277781991
 21
396.4315578052509
 31
0.0
  0
ARC
  5
57B
330
1E
100
AcDbEntity
  8
STEMPEL
100
AcDbCircle
 10
286.4965362771839
 20
392.0017733127874
 30
0.0
 40
8.0
100
AcDbArc
 50
90.0
 51
134.9999999999997
  0
ARC
  5
57C
330
1E
100
AcDbEntity
  8
STEMPEL
100
AcDbCircle
 10
286.4965362771839
 20
392.0017733127874
 30
0.0
 40
9.0
100
AcDbArc
 50
90.0
 51
134.9999999999997
  0
ARC
  5
57D
330
1E
100
AcDbEntity
  8
STEMPEL
100
AcDbCircle
 10
286.4965362771839
 20
392.0017733127874
 30
0.0
 40
6.5
100
AcDbArc
 50
90.0
 51
134.9999999999997
  0
LINE
  5
57E
330
1E
100
AcDbEntity
  8
STEMPEL
100
AcDbLine
 10
267.182827778199
 20
375.0017733127874
 30
0.0
 11
267.182827778199
 21
374.0017733127873
 31
0.0
  0
ARC
  5
57F
330
1E
100
AcDbEntity
  8
STEMPEL
100
AcDbCircle
 10
268.4328277781991
 20
377.0017733127873
 30
0.0
 40
3.0
100
AcDbArc
 50
270.0
 51
318.0349709299679
  0
ARC
  5
580
330
1E
100
AcDbEntity
  8
STEMPEL
100
AcDbCircle
 10
268.4328277781991
 20
377.0017733127873
 30
0.0
 40
2.0
100
AcDbArc
 50
270.0
 51
0.0
  0
LINE
  5
581
330
1E
100
AcDbEntity
  8
STEMPEL
100
AcDbLine
 10
272.0693668540853
 20
378.0545386944818
 30
0.0
 11
269.9199339705182
 21
375.6644195178751
 31
0.0
  0
LINE
  5
582
330
1E
100
AcDbEntity
  8
STEMPEL
100
AcDbLine
 10
272.7780978315803
 20
377.3471404141778
 30
0.0
 11
270.6634870666779
 21
374.9957426204191
 31
0.0
  0
LINE
  5
583
330
1E
100
AcDbEntity
  8
STEMPEL
100
AcDbLine
 10
286.4965362771839
 20
398.5017733127874
 30
0.0
 11
329.3445115624511
 21
398.5017733127874
 31
0.0
  0
LINE
  5
584
102
{ACAD_REACTORS
330
FF6
102
}
330
1E
100
AcDbEntity
  8
STEMPEL
100
AcDbLine
 10
260.682827778199
 20
395.9017733127873
 30
0.0
 11
260.682827778199
 21
394.9017733127874
 31
0.0
  0
LINE
  5
585
330
1E
100
AcDbEntity
  8
STEMPEL
100
AcDbLine
 10
260.682827778199
 20
394.9017733127874
 30
0.0
 11
262.682827778199
 21
389.406818473878
 31
0.0
  0
LINE
  5
588
330
1E
100
AcDbEntity
  8
STEMPEL
100
AcDbLine
 10
260.682827778199
 20
371.5017733127874
 30
0.0
 11
260.682827778199
 21
370.0017733127874
 31
0.0
  0
LINE
  5
58A
102
{ACAD_REACTORS
330
FF6
102
}
330
1E
100
AcDbEntity
  8
STEMPEL
100
AcDbLine
 10
262.682827778199
 20
389.406818473878
 30
0.0
 11
262.682827778199
 21
375.0017733127873
 31
0.0
  0
ARC
  5
595
330
1E
100
AcDbEntity
  8
STEMPEL
100
AcDbCircle
 10
265.0959993483438
 20
380.5017733127874
 30
0.0
 40
10.5
100
AcDbArc
 50
270.0
 51
353.3741904351755
  0
ARC
  5
597
330
1E
100
AcDbEntity
  8
STEMPEL
100
AcDbCircle
 10
265.0959993483438
 20
380.5017733127874
 30
0.0
 40
9.0
100
AcDbArc
 50
270.0
 51
353.3741904351755
  0
LINE
  5
59A
102
{ACAD_REACTORS
330
FF6
102
}
330
1E
100
AcDbEntity
  8
STEMPEL
100
AcDbLine
 10
267.4328277781991
 20
395.9017733127873
 30
0.0
 11
260.682827778199
 21
395.9017733127873
 31
0.0
  0
LINE
  5
59D
330
1E
100
AcDbEntity
  8
STEMPEL
100
AcDbLine
 10
280.4446864412037
 20
395.1423116322324
 30
0.0
 11
336.5489003855881
 21
395.1423116322324
 31
0.0
  0
LINE
  5
59F
330
1E
100
AcDbEntity
  8
STEMPEL
100
AcDbLine
 10
337.1828277781991
 20
396.5017733127874
 30
0.0
 11
329.6770535564156
 21
400.0017733127874
 31
0.0
  0
LINE
  5
5A0
330
1E
100
AcDbEntity
  8
STEMPEL
100
AcDbLine
 10
336.5489003855881
 20
395.1423116322324
 30
0.0
 11
329.3445115624511
 21
398.5017733127874
 31
0.0
  0
LINE
  5
5A1
330
1E
100
AcDbEntity
  8
STEMPEL
100
AcDbLine
 10
370.1781029584347
 20
400.0017733127872
 30
0.0
 11
286.4965362771839
 21
400.0017733127872
 31
0.0
  0
LINE
  5
5A9
330
1E
100
AcDbEntity
  8
TEXT
 62
     2
100
AcDbLine
 10
283.8830352896291
 20
236.0656151220279
 30
0.0
 11
388.9005737218226
 21
236.0656151220279
 31
0.0
  0
TEXT
  5
5AA
330
1E
100
AcDbEntity
  8
TEXT
 62
     1
100
AcDbText
 10
284.0884725209297
 20
226.7913389572806
 30
0.0
 40
7.0
  1
EDV-Art.Nr. 15230.070X
 41
0.8
  7
GREEKS
100
AcDbText
  0
LINE
  5
5AD
330
1E
100
AcDbEntity
  8
MITTEL
100
AcDbLine
 10
222.1828277781991
 20
486.0017733127872
 30
0.0
 11
222.1828277781991
 21
142.1745241050247
 31
0.0
  0
LINE
  5
5B2
102
{ACAD_REACTORS
330
FF6
102
}
330
1E
100
AcDbEntity
  8
STEMPEL
100
AcDbLine
 10
183.682827778199
 20
395.9017733127873
 30
0.0
 11
183.682827778199
 21
394.9017733127872
 31
0.0
  0
LINE
  5
5B3
330
1E
100
AcDbEntity
  8
STEMPEL
100
AcDbLine
 10
177.132827778199
 20
401.0017733127872
 30
0.0
 11
177.132827778199
 21
400.0017733127872
 31
0.0
  0
LINE
  5
5B4
330
1E
100
AcDbEntity
  8
STEMPEL
100
AcDbLine
 10
177.132827778199
 20
400.0017733127872
 30
0.0
 11
176.932827778199
 21
399.6553631512735
 31
0.0
  0
ARC
  5
5B5
102
{ACAD_REACTORS
330
73B
102
}
330
1E
100
AcDbEntity
  8
STEMPEL
100
AcDbCircle
 10
174.2944083986153
 20
380.4042455253924
 30
0.0
 40
3.466613518339158
100
AcDbArc
 50
296.2275560863372
 51
319.9438129476444
  0
ARC
  5
5B6
102
{ACAD_REACTORS
330
73B
102
}
330
1E
100
AcDbEntity
  8
STEMPEL
100
AcDbCircle
 10
173.8637992513858
 20
380.7662896911832
 30
0.0
 40
4.029197037170677
100
AcDbArc
 50
319.9438129476444
 51
340.7988568646108
  0
ARC
  5
5B7
102
{ACAD_REACTORS
330
73B
102
}
330
1E
100
AcDbEntity
  8
STEMPEL
100
AcDbCircle
 10
173.187625839849
 20
381.0017733127873
 30
0.0
 40
4.745201938350191
100
AcDbArc
 50
340.7988568646108
 51
0.0
  0
ARC
  5
5B8
102
{ACAD_REACTORS
330
73B
102
}
330
1E
100
AcDbEntity
  8
STEMPEL
100
AcDbCircle
 10
173.187625839849
 20
381.0017733127873
 30
0.0
 40
4.745201938350191
100
AcDbArc
 50
0.0
 51
19.20114313538914
  0
ARC
  5
5B9
102
{ACAD_REACTORS
330
73B
102
}
330
1E
100
AcDbEntity
  8
STEMPEL
100
AcDbCircle
 10
173.8637992513858
 20
381.2372569343914
 30
0.0
 40
4.029197037170673
100
AcDbArc
 50
19.20114313538914
 51
40.05618705235565
  0
ARC
  5
5BA
102
{ACAD_REACTORS
330
73B
102
}
330
1E
100
AcDbEntity
  8
STEMPEL
100
AcDbCircle
 10
174.2944083986152
 20
381.5993011001821
 30
0.0
 40
3.466613518339271
100
AcDbArc
 50
40.05618705235565
 51
63.77244391366136
  0
ARC
  5
5BB
330
1E
100
AcDbEntity
  8
STEMPEL
100
AcDbCircle
 10
176.932827778199
 20
378.0017733127873
 30
0.0
 40
1.0
100
AcDbArc
 50
270.0
 51
0.0
  0
LINE
  5
5BC
330
1E
100
AcDbEntity
  8
STEMPEL
100
AcDbLine
 10
177.932827778199
 20
384.0017733127873
 30
0.0
 11
177.932827778199
 21
378.0017733127873
 31
0.0
  0
ARC
  5
5BD
330
1E
100
AcDbEntity
  8
STEMPEL
100
AcDbCircle
 10
176.932827778199
 20
384.0017733127873
 30
0.0
 40
1.0
100
AcDbArc
 50
0.0
 51
90.0
  0
ARC
  5
5BE
330
1E
100
AcDbEntity
  8
STEMPEL
100
AcDbCircle
 10
169.182827778199
 20
390.6017733127874
 30
0.0
 40
2.5
100
AcDbArc
 50
343.3426229392605
 51
0.9871481076926741
  0
LINE
  5
5BF
330
1E
100
AcDbEntity
  8
STEMPEL
100
AcDbLine
 10
171.682827778199
 20
390.6879139744245
 30
0.0
 11
171.682827778199
 21
390.6017733127874
 31
0.0
  0
ARC
  5
5C0
330
1E
100
AcDbEntity
  8
STEMPEL
100
AcDbCircle
 10
169.182827778199
 20
390.6879139744245
 30
0.0
 40
2.5
100
AcDbArc
 50
359.0128518923073
 51
19.7499227956744
  0
ARC
  5
5C1
330
1E
100
AcDbEntity
  8
STEMPEL
100
AcDbCircle
 10
169.182827778199
 20
390.6879139744245
 30
0.0
 40
3.5
100
AcDbArc
 50
359.2949112955901
 51
19.74992279567432
  0
ARC
  5
5C2
330
1E
100
AcDbEntity
  8
STEMPEL
100
AcDbCircle
 10
169.182827778199
 20
390.6017733127874
 30
0.0
 40
3.5
100
AcDbArc
 50
343.3426229392606
 51
0.7050887044098836
  0
LINE
  5
5C3
330
1E
100
AcDbEntity
  8
STEMPEL
100
AcDbLine
 10
172.5359537793861
 20
389.5985056415435
 30
0.0
 11
172.0640717710765
 21
388.0213793402506
 31
0.0
  0
ARC
  5
5C4
330
1E
100
AcDbEntity
  8
STEMPEL
100
AcDbCircle
 10
167.682827778199
 20
390.3974172365295
 30
0.0
 40
2.5
100
AcDbArc
 50
2.870713129642757
 51
24.619977328706
  0
ARC
  5
5C5
330
1E
100
AcDbEntity
  8
STEMPEL
100
AcDbCircle
 10
169.182827778199
 20
390.6017733127874
 30
0.0
 40
1.0
100
AcDbArc
 50
343.3426229392606
 51
355.4602913654644
  0
LINE
  5
5C6
330
1E
100
AcDbEntity
  8
STEMPEL
100
AcDbLine
 10
169.6689817702284
 20
388.7379991054239
 30
0.0
 11
170.1408637785383
 21
390.3151254067178
 31
0.0
  0
LINE
  5
5C7
330
1E
100
AcDbEntity
  8
STEMPEL
100
AcDbLine
 10
173.932827778199
 20
390.0017733127874
 30
0.0
 11
170.4663721959557
 21
396.0058505034135
 31
0.0
  0
LINE
  5
5C8
330
1E
100
AcDbEntity
  8
STEMPEL
100
AcDbLine
 10
171.577917779047
 20
389.8851535476132
 30
0.0
 11
171.1060357707371
 21
388.3080272463195
 31
0.0
  0
ARC
  5
5C9
102
{ACAD_REACTORS
330
73B
102
}
330
1E
100
AcDbEntity
  8
STEMPEL
100
AcDbCircle
 10
174.5697392964976
 20
379.845377917329
 30
0.0
 40
2.843604604541721
100
AcDbArc
 50
243.7724439136657
 51
270.0
  0
ARC
  5
5CA
102
{ACAD_REACTORS
330
73B
102
}
330
1E
100
AcDbEntity
  8
STEMPEL
100
AcDbCircle
 10
175.2756793416097
 20
380.7662896911833
 30
0.0
 40
4.029197037170963
100
AcDbArc
 50
199.2011431353826
 51
222.9344073501441
  0
ARC
  5
5CB
102
{ACAD_REACTORS
330
73B
102
}
330
1E
100
AcDbEntity
  8
STEMPEL
100
AcDbCircle
 10
174.8450701943806
 20
380.404245525393
 30
0.0
 40
3.466613518340057
100
AcDbArc
 50
220.0561870523557
 51
243.772443913653
  0
ARC
  5
5CC
330
1E
100
AcDbEntity
  8
STEMPEL
100
AcDbCircle
 10
175.9518527531465
 20
381.0017733127872
 30
0.0
 40
5.745201938350518
100
AcDbArc
 50
186.8049747603929
 51
199.2011431353824
  0
ARC
  5
5CD
330
1E
100
AcDbEntity
  8
STEMPEL
100
AcDbCircle
 10
175.2756793416097
 20
380.7662896911833
 30
0.0
 40
5.029197037170963
100
AcDbArc
 50
199.2011431353824
 51
222.8326942765032
  0
LWPOLYLINE
  5
5CE
102
{ACAD_REACTORS
330
73B
102
}
330
1E
100
AcDbEntity
  8
STEMPEL
100
AcDbPolyline
 90
        5
 70
     0
 43
0.0
 10
174.5697392964976
 20
385.0017733127873
 42
0.1149415123267204
 10
173.3130442610808
 20
384.7090126342687
 42
0.1038526577300335
 10
172.191676625356
 20
383.8302004375335
 42
0.0912492981546976
 10
171.4706273065051
 20
382.5624013697242
 42
0.0839773692119132
 10
171.206650814796
 20
381.0017733127872
 42
0.0839773692119072
  0
ARC
  5
5CF
102
{ACAD_REACTORS
330
73B
102
}
330
1E
100
AcDbEntity
  8
STEMPEL
100
AcDbCircle
 10
175.9518527531465
 20
381.0017733127872
 30
0.0
 40
4.745201938350518
100
AcDbArc
 50
187.0511412165368
 51
199.2011431353824
  0
ARC
  5
5D0
330
1E
100
AcDbEntity
  8
STEMPEL
100
AcDbCircle
 10
192.182827778199
 20
382.0017733127874
 30
0.0
 40
23.5
100
AcDbArc
 50
163.3426229392606
 51
186.6258095648245
  0
ARC
  5
5D1
330
1E
100
AcDbEntity
  8
STEMPEL
100
AcDbCircle
 10
192.182827778199
 20
382.0017733127874
 30
0.0
 40
22.0
100
AcDbArc
 50
163.3426229392626
 51
186.6258095648231
  0
LINE
  5
5D2
330
1E
100
AcDbEntity
  8
STEMPEL
100
AcDbLine
 10
173.932827778199
 20
390.0017733127874
 30
0.0
 11
173.932827778199
 21
385.0017733127873
 31
0.0
  0
ARC
  5
5D3
102
{ACAD_REACTORS
330
73B
102
}
330
1E
100
AcDbEntity
  8
STEMPEL
100
AcDbCircle
 10
192.182827778199
 20
382.0017733127874
 30
0.0
 40
21.0
100
AcDbArc
 50
163.3426229392604
 51
184.3217385797609
  0
ARC
  5
5D5
102
{ACAD_REACTORS
330
73B
102
}
330
1E
100
AcDbEntity
  8
STEMPEL
100
AcDbCircle
 10
174.5697392964976
 20
379.8453779173283
 30
0.0
 40
2.843604604540985
100
AcDbArc
 50
270.0
 51
296.2275560863383
  0
ARC
  5
5D6
102
{ACAD_REACTORS
330
73B
102
}
330
1E
100
AcDbEntity
  8
STEMPEL
100
AcDbCircle
 10
174.5697392964976
 20
382.1581687082462
 30
0.0
 40
2.843604604541096
100
AcDbArc
 50
63.77244391366208
 51
90.0
  0
LINE
  5
5D7
330
1E
100
AcDbEntity
  8
STEMPEL
100
AcDbLine
 10
176.932827778199
 20
377.0017733127873
 30
0.0
 11
173.932827778199
 21
377.0017733127873
 31
0.0
  0
LINE
  5
5D8
330
1E
100
AcDbEntity
  8
STEMPEL
100
AcDbLine
 10
176.932827778199
 20
385.0017733127874
 30
0.0
 11
173.932827778199
 21
385.0017733127873
 31
0.0
  0
LINE
  5
5D9
330
1E
100
AcDbEntity
  8
STEMPEL
100
AcDbLine
 10
176.932827778199
 20
399.6553631512735
 30
0.0
 11
176.932827778199
 21
395.9017733127873
 31
0.0
  0
LINE
  5
5DA
102
{ACAD_REACTORS
330
FF6
102
}
330
1E
100
AcDbEntity
  8
STEMPEL
100
AcDbLine
 10
183.682827778199
 20
395.9017733127873
 30
0.0
 11
176.932827778199
 21
395.9017733127873
 31
0.0
  0
LINE
  5
5DB
330
1E
100
AcDbEntity
  8
STEMPEL
100
AcDbLine
 10
183.682827778199
 20
394.9017733127872
 30
0.0
 11
181.682827778199
 21
389.4068184738781
 31
0.0
  0
LINE
  5
5DC
330
1E
100
AcDbEntity
  8
STEMPEL
100
AcDbLine
 10
183.682827778199
 20
371.5017733127874
 30
0.0
 11
183.682827778199
 21
370.0017733127874
 31
0.0
  0
LINE
  5
5DF
330
1E
100
AcDbEntity
  8
STEMPEL
100
AcDbLine
 10
177.182827778199
 20
375.0017733127873
 30
0.0
 11
177.182827778199
 21
374.0017733127873
 31
0.0
  0
ARC
  5
5E2
330
1E
100
AcDbEntity
  8
STEMPEL
100
AcDbCircle
 10
175.932827778199
 20
377.0017733127873
 30
0.0
 40
3.0
100
AcDbArc
 50
221.9650290700304
 51
270.0
  0
ARC
  5
5E3
330
1E
100
AcDbEntity
  8
STEMPEL
100
AcDbCircle
 10
179.2696562080544
 20
380.5017733127874
 30
0.0
 40
9.0
100
AcDbArc
 50
186.6258095648231
 51
270.0
  0
LINE
  5
5E4
330
1E
100
AcDbEntity
  8
STEMPEL
100
AcDbLine
 10
171.5875577248526
 20
377.3471404141393
 30
0.0
 11
173.7021684897201
 21
374.9957426204192
 31
0.0
  0
LINE
  5
5E5
102
{ACAD_REACTORS
330
FF6
102
}
330
1E
100
AcDbEntity
  8
STEMPEL
100
AcDbLine
 10
181.682827778199
 20
389.4068184738781
 30
0.0
 11
181.682827778199
 21
375.0017733127873
 31
0.0
  0
LINE
  5
5E6
330
1E
100
AcDbEntity
  8
STEMPEL
100
AcDbLine
 10
172.3257672819026
 20
378.0217592023118
 30
0.0
 11
174.4457215858798
 21
375.6644195178751
 31
0.0
  0
ARC
  5
5E7
330
1E
100
AcDbEntity
  8
STEMPEL
100
AcDbCircle
 10
175.932827778199
 20
377.0017733127873
 30
0.0
 40
2.0
100
AcDbArc
 50
180.0
 51
270.0
  0
ARC
  5
5E8
330
1E
100
AcDbEntity
  8
STEMPEL
100
AcDbCircle
 10
157.8691192792143
 20
392.0017733127874
 30
0.0
 40
8.0
100
AcDbArc
 50
45.00000000000029
 51
45.00000000000029
  0
LINE
  5
5E9
330
1E
100
AcDbEntity
  8
STEMPEL
100
AcDbLine
 10
163.5259735287066
 20
397.65862756228
 30
0.0
 11
165.1828277781992
 21
396.0017733127874
 31
0.0
  0
LINE
  5
5EA
330
1E
100
AcDbEntity
  8
STEMPEL
100
AcDbLine
 10
164.2330803098931
 20
398.3657343434665
 30
0.0
 11
165.6087542811457
 21
396.9900603722138
 31
0.0
  0
LINE
  5
5EB
330
1E
100
AcDbEntity
  8
STEMPEL
100
AcDbLine
 10
162.4653133569268
 20
396.5979673905
 30
0.0
 11
164.5945685711549
 21
394.4687121762719
 31
0.0
  0
ARC
  5
5EC
330
1E
100
AcDbEntity
  8
STEMPEL
100
AcDbCircle
 10
157.8691192792143
 20
392.0017733127874
 30
0.0
 40
6.5
100
AcDbArc
 50
45.00000000000029
 51
90.0
  0
LINE
  5
5ED
330
1E
100
AcDbEntity
  8
STEMPEL
100
AcDbLine
 10
164.1828277781991
 20
401.0017733127871
 30
0.0
 11
167.1828277781991
 21
398.0017733127872
 31
0.0
  0
ARC
  5
5EE
330
1E
100
AcDbEntity
  8
STEMPEL
100
AcDbCircle
 10
157.8691192792143
 20
392.0017733127874
 30
0.0
 40
8.0
100
AcDbArc
 50
45.00000000000101
 51
90.0
  0
ARC
  5
5EF
330
1E
100
AcDbEntity
  8
STEMPEL
100
AcDbCircle
 10
157.8691192792143
 20
392.0017733127874
 30
0.0
 40
9.0
100
AcDbArc
 50
45.00000000000102
 51
90.0
  0
ARC
  5
5F0
330
1E
100
AcDbEntity
  8
STEMPEL
100
AcDbCircle
 10
179.2696562080544
 20
380.5017733127874
 30
0.0
 40
10.5
100
AcDbArc
 50
186.6258095648245
 51
270.0
  0
ARC
  5
5F1
330
1E
100
AcDbEntity
  8
STEMPEL
100
AcDbCircle
 10
165.182827778199
 20
389.2517733127874
 30
0.0
 40
5.25
100
AcDbArc
 50
24.61997732871293
 51
96.43346645157965
  0
ARC
  5
5F3
330
1E
100
AcDbEntity
  8
STEMPEL
100
AcDbCircle
 10
167.0022705808179
 20
394.0058505034135
 30
0.0
 40
4.0
100
AcDbArc
 50
29.99999999999993
 51
87.41282956533574
  0
ARC
  5
5F5
330
1E
100
AcDbEntity
  8
STEMPEL
100
AcDbCircle
 10
165.182827778199
 20
389.2517733127874
 30
0.0
 40
6.75
100
AcDbArc
 50
19.74992279567491
 51
89.99999999999904
  0
ARC
  5
5F6
330
1E
100
AcDbEntity
  8
STEMPEL
100
AcDbCircle
 10
165.182827778199
 20
389.2517733127874
 30
0.0
 40
7.75
100
AcDbArc
 50
19.74992279567481
 51
86.84953643368809
  0
LINE
  5
601
330
1E
100
AcDbEntity
  8
STEMPEL
100
AcDbLine
 10
107.182827778199
 20
396.5017733127874
 30
0.0
 11
107.81675517081
 21
395.1423116322324
 31
0.0
  0
LINE
  5
602
330
1E
100
AcDbEntity
  8
STEMPEL
100
AcDbLine
 10
107.81675517081
 20
395.1423116322324
 30
0.0
 11
115.0211439939469
 21
398.5017733127874
 31
0.0
  0
LINE
  5
603
330
1E
100
AcDbEntity
  8
STEMPEL
100
AcDbLine
 10
107.182827778199
 20
396.5017733127874
 30
0.0
 11
114.6886019999825
 21
400.0017733127874
 31
0.0
  0
LINE
  5
604
330
1E
100
AcDbEntity
  8
HILF
100
AcDbLine
 10
74.41707074492348
 20
403.0017733127873
 30
0.0
 11
73.0773247827679
 21
398.0017733127873
 31
0.0
  0
LINE
  5
605
330
1E
100
AcDbEntity
  8
HILF
100
AcDbLine
 10
73.41707074492347
 20
403.0017733127873
 30
0.0
 11
72.0773247827679
 21
398.0017733127873
 31
0.0
  0
LINE
  5
606
330
1E
100
AcDbEntity
  8
STEMPEL
100
AcDbLine
 10
163.9209691151945
 20
395.1423116322325
 30
0.0
 11
107.81675517081
 21
395.1423116322324
 31
0.0
  0
LINE
  5
607
330
1E
100
AcDbEntity
  8
STEMPEL
100
AcDbLine
 10
157.8691192792143
 20
398.5017733127874
 30
0.0
 11
115.0211439939469
 21
398.5017733127874
 31
0.0
  0
LINE
  5
609
330
1E
100
AcDbEntity
  8
STEMPEL
100
AcDbLine
 10
157.8691192792143
 20
400.0017733127872
 30
0.0
 11
73.61322316763017
 21
400.0017733127873
 31
0.0
  0
LINE
  5
60B
330
1E
100
AcDbEntity
  8
STEMPEL
100
AcDbLine
 10
52.18282777819905
 20
401.0017733127874
 30
0.0
 11
52.18282777819905
 21
400.0017733127874
 31
0.0
  0
LINE
  5
60C
330
1E
100
AcDbEntity
  8
STEMPEL
100
AcDbLine
 10
72.61322316763017
 20
400.0017733127873
 30
0.0
 11
52.18282777819905
 21
400.0017733127874
 31
0.0
  0
LINE
  5
60D
330
1E
100
AcDbEntity
  8
STEMPEL
100
AcDbLine
 10
72.88117236006127
 20
401.0017733127873
 30
0.0
 11
52.18282777819905
 21
401.0017733127874
 31
0.0
  0
DIMENSION
  5
614
330
1E
100
AcDbEntity
  8
BEM
100
AcDbDimension
  2
*D1
 10
82.57387203666821
 20
400.0017733127874
 30
0.0
 11
76.07387203666814
 21
275.0127444081717
 31
0.0
 70
    32
  1
250
 71
     5
 42
249.9780578092313
  3
Standard
100
AcDbAlignedDimension
 13
186.2069055710294
 23
150.023715503556
 33
0.0
 14
114.7741882741625
 24
400.0017733127874
 34
0.0
 50
90.0
100
AcDbRotatedDimension
1001
ACAD
1000
DSTYLE
1002
{
1070
    40
1040
2.0
1070
    41
1040
3.5
1070
    42
1040
1.0
1070
    43
1040
7.0
1070
    44
1040
1.0
1070
    73
1070
     0
1070
    74
1070
     0
1070
    77
1070
     1
1070
    78
1070
     8
1070
    79
1070
     2
1070
   140
1040
3.5
1070
   141
1040
1.5
1070
   146
1040
0.5142857142857144
1070
   147
1040
1.5
1070
   172
1070
     1
1070
   178
1070
     1
1070
   179
1070
     2
1070
   271
1070
     2
1070
   272
1070
     2
1070
   284
1070
     8
1070
   285
1070
     8
1070
   286
1070
     8
1002
}
  0
LINE
  5
61A
330
1E
100
AcDbEntity
  8
STEMPEL
100
AcDbLine
 10
265.0959993483438
 20
370.0017733127874
 30
0.0
 11
258.682827778199
 21
370.0017733127875
 31
0.0
  0
LINE
  5
61F
330
1E
100
AcDbEntity
  8
STEMPEL
100
AcDbLine
 10
265.0959993483438
 20
371.5017733127874
 30
0.0
 11
258.682827778199
 21
371.5017733127875
 31
0.0
  0
LINE
  5
620
330
1E
100
AcDbEntity
  8
STEMPEL
100
AcDbLine
 10
267.232827778199
 20
401.0017733127872
 30
0.0
 11
258.682827778199
 21
401.0017733127872
 31
0.0
  0
LINE
  5
621
330
1E
100
AcDbEntity
  8
STEMPEL
100
AcDbLine
 10
176.932827778199
 20
399.6553631512735
 30
0.0
 11
182.4988953753531
 21
399.6553631512735
 31
0.0
  0
LINE
  5
622
330
1E
100
AcDbEntity
  8
STEMPEL
100
AcDbLine
 10
267.232827778199
 20
400.0017733127872
 30
0.0
 11
261.6714731758992
 21
400.0017733127872
 31
0.0
  0
LINE
  5
624
330
1E
100
AcDbEntity
  8
STEMPEL
100
AcDbLine
 10
181.682827778199
 20
389.4068184738781
 30
0.0
 11
182.1828277781991
 21
389.4068184738781
 31
0.0
  0
LINE
  5
625
330
1E
100
AcDbEntity
  8
STEMPEL
100
AcDbLine
 10
260.682827778199
 20
394.9017733127874
 30
0.0
 11
260.5467980124652
 21
394.9017733127874
 31
0.0
  0
LINE
  5
627
330
1E
100
AcDbEntity
  8
STEMPEL
100
AcDbLine
 10
268.4328277781991
 20
375.0017733127873
 30
0.0
 11
258.182827778199
 21
375.0017733127873
 31
0.0
  0
LINE
  5
628
330
1E
100
AcDbEntity
  8
STEMPEL
100
AcDbLine
 10
268.4328277781991
 20
374.0017733127873
 30
0.0
 11
258.682827778199
 21
374.0017733127874
 31
0.0
  0
LINE
  5
629
330
1E
100
AcDbEntity
  8
STEMPEL
100
AcDbLine
 10
370.4460521508659
 20
401.0017733127872
 30
0.0
 11
258.682827778199
 21
401.0017733127872
 31
0.0
  0
DIMENSION
  5
62A
330
1E
100
AcDbEntity
  8
BEM
100
AcDbDimension
  2
*D2
 10
337.1828277781991
 20
509.4993617443515
 30
0.0
 11
222.1828277781991
 21
515.9993617443515
 31
0.0
 70
    32
  1
%%c<>
 71
     5
 42
230.0
  3
Standard
100
AcDbAlignedDimension
 13
107.182827778199
 23
396.5017733127874
 33
0.0
 14
337.1828277781991
 24
396.5017733127874
 34
0.0
100
AcDbRotatedDimension
1001
ACAD
1000
DSTYLE
1002
{
1070
    40
1040
2.0
1070
    41
1040
3.5
1070
    42
1040
1.0
1070
    43
1040
7.0
1070
    44
1040
1.0
1070
    73
1070
     0
1070
    74
1070
     0
1070
    77
1070
     1
1070
    78
1070
     8
1070
    79
1070
     2
1070
   140
1040
3.5
1070
   141
1040
1.5
1070
   146
1040
0.5142857142857144
1070
   147
1040
1.5
1070
   172
1070
     1
1070
   178
1070
     1
1070
   179
1070
     2
1070
   271
1070
     2
1070
   272
1070
     2
1070
   284
1070
     8
1070
   285
1070
     8
1070
   286
1070
     8
1002
}
  0
DIMENSION
  5
62B
330
1E
100
AcDbEntity
  8
BEM
100
AcDbDimension
  2
*D3
 10
392.1828277781991
 20
524.1934167131141
 30
0.0
 11
227.424811064139
 21
524.1934167131141
 31
0.0
 70
   160
  1
500
 71
     5
 42
340.0
  3
Standard
100
AcDbAlignedDimension
 13
52.18282777819904
 23
401.0017733127874
 33
0.0
 14
392.1828277781991
 24
401.0017733127872
 34
0.0
100
AcDbRotatedDimension
1001
ACAD
1000
DSTYLE
1002
{
1070
    40
1040
2.0
1070
    41
1040
3.5
1070
    42
1040
1.0
1070
    43
1040
7.0
1070
    44
1040
1.0
1070
    73
1070
     0
1070
    74
1070
     0
1070
    77
1070
     1
1070
    78
1070
     8
1070
    79
1070
     2
1070
   140
1040
3.5
1070
   141
1040
1.5
1070
   146
1040
0.5142857142857144
1070
   147
1040
1.5
1070
   172
1070
     1
1070
   178
1070
     1
1070
   179
1070
     2
1070
   271
1070
     2
1070
   272
1070
     2
1070
   284
1070
     8
1070
   285
1070
     8
1070
   286
1070
     8
1002
}
  0
HATCH
  5
717
330
1E
100
AcDbEntity
  8
SCHRAFF
100
AcDbHatch
 10
0.0
 20
0.0
 30
0.0
210
0.0
220
0.0
230
1.0
  2
NET
 70
     0
 71
     0
 91
        3
 92
        7
 72
     1
 73
     1
 93
        5
 10
277.182827778199
 20
398.0017733127873
 42
0.0
 10
280.182827778199
 20
401.0017733127872
 42
0.0
 10
275.182827778199
 20
401.0017733127872
 42
0.0
 10
274.1828277781991
 20
400.0017733127873
 42
0.0
 10
274.1828277781991
 20
396.4315578052509
 42
-0.222066610227726
 97
        0
 92
        7
 72
     1
 73
     1
 93
       19
 10
267.4328277781992
 20
395.9017733127874
 42
0.0
 10
260.682827778199
 20
395.9017733127873
 42
0.0
 10
260.682827778199
 20
394.9017733127874
 42
0.0
 10
262.6828277781991
 20
389.406818473878
 42
0.0
 10
262.682827778199
 20
375.0017733127872
 42
0.0
 10
268.4328277781991
 20
375.0017733127873
 42
0.4142135623730951
 10
270.4328277781991
 20
377.0017733127873
 42
0.0
 10
267.4328277781991
 20
377.0017733127873
 42
-0.4142135623730951
 10
266.432827778199
 20
378.0017733127873
 42
0.0
 10
266.432827778199
 20
384.0017733127873
 42
-0.4142135623730951
 10
267.4328277781991
 20
385.0017733127873
 42
0.0
 10
270.4328277781991
 20
385.0017733127873
 42
0.0
 10
270.432827778199
 20
390.0017733127872
 42
0.0
 10
272.182827778199
 20
393.0328622260328
 42
0.0
 10
272.1828277781991
 20
400.0017733127872
 42
0.0
 10
271.1828277781991
 20
401.0017733127872
 42
0.0
 10
267.232827778199
 20
401.0017733127872
 42
0.0
 10
267.232827778199
 20
400.0017733127872
 42
0.0
 10
267.4328277781991
 20
399.6553631512735
 42
0.0
 97
        0
 92
        7
 72
     1
 73
     1
 93
       19
 10
183.682827778199
 20
394.9017733127872
 42
0.0
 10
183.682827778199
 20
395.9017733127873
 42
0.0
 10
176.932827778199
 20
395.9017733127873
 42
0.0
 10
176.9328277781991
 20
399.6553631512735
 42
0.0
 10
177.132827778199
 20
400.0017733127873
 42
0.0
 10
177.132827778199
 20
401.0017733127873
 42
0.0
 10
164.182827778199
 20
401.0017733127872
 42
0.0
 10
167.1828277781991
 20
398.0017733127872
 42
-0.2558860185809108
 10
170.4663721959557
 20
396.0058505034135
 42
0.0
 10
173.932827778199
 20
390.0017733127873
 42
0.0
 10
173.932827778199
 20
385.0017733127874
 42
0.0
 10
176.932827778199
 20
385.0017733127874
 42
-0.4142135623730866
 10
177.932827778199
 20
384.0017733127874
 42
0.0
 10
177.932827778199
 20
378.0017733127873
 42
-0.4142135623730866
 10
176.932827778199
 20
377.0017733127873
 42
0.0
 10
173.932827778199
 20
377.0017733127873
 42
0.4142135623730868
 10
175.932827778199
 20
375.0017733127874
 42
0.0
 10
181.682827778199
 20
375.0017733127873
 42
0.0
 10
181.682827778199
 20
389.4068184738782
 42
0.0
 97
        0
 75
     0
 76
     1
 52
45.0
 41
15.0
 77
     0
 78
     2
 53
45.0
 43
0.0
 44
-60.34279756864589
 45
-1.325825214724776
 46
1.325825214724776
 79
     0
 53
135.0
 43
0.0
 44
-60.34279756864589
 45
-1.325825214724776
 46
-1.325825214724776
 79
     0
 47
0.2330565478989036
 98
        3
 10
275.9241282439429
 20
398.5912209822538
 10
269.3939301933924
 20
394.8623155767791
 10
178.9040323170165
 20
391.5995250962282
  0
HATCH
  5
73B
330
1E
100
AcDbEntity
  8
SCHRAFF
100
AcDbHatch
 10
0.0
 20
0.0
 30
0.0
210
0.0
220
0.0
230
1.0
  2
NET
 70
     0
 71
     1
 91
        2
 92
        7
 72
     1
 73
     1
 93
       17
 10
171.4706273065051
 20
382.5624013697242
 42
0.0839773692119223
 10
171.206650814796
 20
381.001773312787
 42
0.0069479880511166
 10
171.2425388823218
 20
380.4192749850788
 42
0.0530641063839868
 10
171.4706273065049
 20
379.4411452558509
 42
0.0912492981547759
 10
172.1916766253564
 20
378.1733461880405
 42
0.1038526577299481
 10
173.3130442610805
 20
377.2945339913059
 42
0.1149415123267219
 10
174.5697392964976
 20
377.0017733127873
 42
0.1149415123267309
 10
175.8264343319144
 20
377.2945339913059
 42
0.1038526577300389
 10
176.9478019676392
 20
378.1733461880411
 42
0.091249298154702
 10
177.6688512864901
 20
379.4411452558504
 42
0.083977369211914
 10
177.9328277781992
 20
381.0017733127873
 42
0.0839773692119045
 10
177.6688512864902
 20
382.562401369724
 42
0.0912492981547172
 10
176.9478019676391
 20
383.8302004375335
 42
0.1038526577300353
 10
175.8264343319145
 20
384.7090126342687
 42
0.1149415123267294
 10
174.5697392964976
 20
385.0017733127873
 42
0.1149415123267204
 10
173.3130442610808
 20
384.7090126342687
 42
0.1038526577300335
 10
172.191676625356
 20
383.8302004375335
 42
0.0912492981546977
 97
       14
330
5B9
330
5BA
330
5D6
330
5CE
330
5D3
330
5CF
330
5CA
330
5CB
330
5C9
330
5D5
330
5B5
330
5B6
330
5B7
330
5B8
 92
        7
 72
     1
 73
     1
 93
       17
 10
266.6968042699079
 20
382.562401369724
 42
0.0839773692119045
 10
266.4328277781989
 20
381.0017733127873
 42
0.0839773692119043
 10
266.6968042699079
 20
379.4411452558506
 42
0.0912492981547174
 10
267.4178535887589
 20
378.173346188041
 42
0.1038526577300397
 10
268.5392212244837
 20
377.2945339913059
 42
0.1149415123267309
 10
269.7959162599005
 20
377.0017733127873
 42
0.1149415123267131
 10
271.0526112953175
 20
377.2945339913059
 42
0.1038526577300018
 10
272.173978931042
 20
378.173346188041
 42
0.091249298154706
 10
272.8950282498931
 20
379.4411452558505
 42
0.0530641063840123
 10
273.1231166740763
 20
380.4192749850788
 42
0.0069479880511193
 10
273.1590047416021
 20
381.0017733127872
 42
0.0839773692119132
 10
272.895028249893
 20
382.5624013697242
 42
0.0912492981546946
 10
272.1739789310425
 20
383.8302004375337
 42
0.1038526577303974
 10
271.0526112953131
 20
384.709012634271
 42
0.1149415123262985
 10
269.7959162599005
 20
385.0017733127873
 42
0.1149415123267293
 10
268.5392212244836
 20
384.7090126342687
 42
0.1038526577300292
 10
267.4178535887589
 20
383.8302004375336
 42
0.0912492981547204
 97
       14
330
55A
330
56B
330
562
330
563
330
564
330
565
330
566
330
567
330
56C
330
55B
330
55C
330
55D
330
55E
330
56E
 75
     0
 76
     1
 52
45.0
 41
10.0
 77
     0
 78
     2
 53
45.0
 43
0.0
 44
-60.34279756864589
 45
-0.8838834764831842
 46
0.8838834764831844
 79
     0
 53
135.0
 43
0.0
 44
-60.34279756864589
 45
-0.8838834764831844
 46
-0.8838834764831842
 79
     0
 47
0.1497800312408136
 98
        2
 10
174.0777925885509
 20
381.4852521623523
 10
269.5551538833579
 20
381.4852521623523
  0
HATCH
  5
7A0
330
1E
100
AcDbEntity
  8
SCHRAFF
100
AcDbHatch
 10
0.0
 20
0.0
 30
0.0
210
0.0
220
0.0
230
1.0
  2
_USER
 70
     0
 71
     0
 91
        1
 92
        7
 72
     1
 73
     1
 93
       27
 10
329.677053556416
 20
400.0017733127872
 42
0.0
 10
286.4965362771839
 20
400.0017733127872
 42
0.1989123673796641
 10
280.8396820276913
 20
397.6586275622797
 42
0.0
 10
279.1828277781993
 20
396.0017733127876
 42
0.3164989533024039
 10
272.8298857158792
 20
391.5327001316064
 42
0.0907300177303428
 10
272.6831988164123
 20
390.6448436436059
 42
0.0771412373564627
 10
272.7877377773512
 20
389.8851535476133
 42
0.0
 10
273.2596197856614
 20
388.3080272463184
 42
-0.1019430245146214
 10
274.0358873584444
 20
379.4633117743258
 42
-0.3807343387517906
 10
265.0959993483441
 20
371.5017733127874
 42
0.0
 10
260.6828277781991
 20
371.5017733127874
 42
0.0
 10
260.682827778199
 20
370.0017733127873
 42
0.0
 10
265.0959993483438
 20
370.0017733127874
 42
0.3807343387517859
 10
275.5258686934608
 20
379.2902348512487
 42
0.1019430245146287
 10
274.69667378617
 20
388.7379991054232
 42
0.0
 10
274.1834522240915
 20
390.453290660709
 42
-0.1021909725621817
 10
274.410101961506
 20
391.438914889977
 42
0.0
 10
274.4101020167812
 20
391.4389150105971
 42
0.0
 10
274.4100990093232
 20
391.4389084477858
 42
0.0
 10
274.4100990227623
 20
391.4389084771125
 42
0.0
 10
274.4101005054728
 20
391.4389117126581
 42
-0.3240202107393197
 10
279.7710869852433
 20
394.4687121762719
 42
0.0
 10
281.9003421994712
 20
396.5979673905
 42
-0.19891236737966
 10
286.4965362771838
 20
398.5017733127874
 42
0.0
 10
329.3445115624509
 20
398.5017733127875
 42
0.0
 10
336.5489003855881
 20
395.1423116322325
 42
0.0
 10
337.1828277781991
 20
396.5017733127874
 42
0.0
 97
        0
 75
     0
 76
     0
 52
45.0
 41
2.0
 77
     0
 78
     1
 53
45.0
 43
0.0
 44
-60.34279756864589
 45
-1.414213562373094
 46
1.414213562373095
 79
     0
 47
0.3002843991019585
 98
        1
 10
293.5480400877009
 20
398.7099901393076
  0
HATCH
  5
7A1
330
1E
100
AcDbEntity
  8
SCHRAFF
100
AcDbHatch
 10
0.0
 20
0.0
 30
0.0
210
0.0
220
0.0
230
1.0
  2
_USER
 70
     0
 71
     0
 91
        1
 92
        7
 72
     1
 73
     1
 93
       27
 10
114.6886019999821
 20
400.0017733127872
 42
0.0
 10
157.8691192792142
 20
400.0017733127872
 42
-0.1989123673796641
 10
163.5259735287068
 20
397.6586275622797
 42
0.0
 10
165.1828277781988
 20
396.0017733127876
 42
-0.3164989533024039
 10
171.5357698405188
 20
391.5327001316064
 42
-0.0907300177303428
 10
171.6824567399858
 20
390.6448436436059
 42
-0.0771412373564627
 10
171.5779177790469
 20
389.8851535476133
 42
0.0
 10
171.1060357707367
 20
388.3080272463184
 42
0.1019430245146214
 10
170.3297681979537
 20
379.4633117743258
 42
0.3807343387517906
 10
179.269656208054
 20
371.5017733127874
 42
0.0
 10
183.682827778199
 20
371.5017733127874
 42
0.0
 10
183.682827778199
 20
370.0017733127873
 42
0.0
 10
179.2696562080543
 20
370.0017733127874
 42
-0.3807343387517859
 10
168.8397868629373
 20
379.2902348512487
 42
-0.1019430245146287
 10
169.6689817702281
 20
388.7379991054232
 42
0.0
 10
170.1822033323066
 20
390.453290660709
 42
0.1021909725621817
 10
169.9555535948921
 20
391.438914889977
 42
0.0
 10
169.9555535396168
 20
391.4389150105971
 42
0.0
 10
169.9555565470749
 20
391.4389084477858
 42
0.0
 10
169.9555565336358
 20
391.4389084771125
 42
0.0
 10
169.9555550509252
 20
391.4389117126581
 42
0.3240202107393197
 10
164.5945685711548
 20
394.4687121762719
 42
0.0
 10
162.4653133569268
 20
396.5979673905
 42
0.19891236737966
 10
157.8691192792142
 20
398.5017733127874
 42
0.0
 10
115.0211439939472
 20
398.5017733127875
 42
0.0
 10
107.81675517081
 20
395.1423116322325
 42
0.0
 10
107.182827778199
 20
396.5017733127874
 42
0.0
 97
        0
 75
     0
 76
     0
 52
45.0
 41
2.0
 77
     0
 78
     1
 53
45.0
 43
0.0
 44
-60.34279756864589
 45
-1.414213562373094
 46
1.414213562373095
 79
     0
 47
0.3002843991019585
 98
        1
 10
150.8176154686972
 20
398.7099901393076
  0
HATCH
  5
868
330
1E
100
AcDbEntity
  8
SCHRAFF
100
AcDbHatch
 10
0.0
 20
0.0
 30
0.0
210
0.0
220
0.0
230
1.0
  2
NET
 70
     0
 71
     0
 91
        2
 92
        7
 72
     0
 73
     1
 93
        4
 10
392.182827778199
 20
400.0017733127871
 10
392.1828277781989
 20
401.0017733127872
 10
371.446052150866
 20
401.0017733127872
 10
371.1781029584348
 20
400.0017733127872
 97
        0
 92
        7
 72
     1
 73
     1
 93
       30
 10
370.1781029584348
 20
400.0017733127871
 42
0.0
 10
370.4460521508659
 20
401.0017733127871
 42
0.0
 10
286.4965362771838
 20
401.0017733127871
 42
0.1989123673796656
 10
280.1325752465047
 20
398.3657343434661
 42
0.0
 10
278.7569012752527
 20
396.9900603722141
 42
0.3014400341973414
 10
271.8887090166489
 20
391.8706149445786
 42
0.0894893349315028
 10
271.6830927958607
 20
390.6448436436059
 42
0.0759033142298633
 10
271.829701777012
 20
389.5985056415438
 42
0.0
 10
272.3015837853222
 20
388.0213793402488
 42
-0.0917951978364162
 10
273.1231166740764
 20
380.4192749850793
 42
-0.0530641063839932
 10
272.8950282498932
 20
379.4411452558514
 42
-0.091249298154599
 10
272.1739789310439
 20
378.1733461880429
 42
-0.011417532515279
 10
272.0693668540766
 20
378.0545386944721
 42
0.0
 10
269.9199339705182
 20
375.6644195178751
 42
-0.2127160503483894
 10
268.4328277781991
 20
375.0017733127873
 42
0.0
 10
267.182827778199
 20
375.0017733127874
 42
0.0
 10
267.182827778199
 20
374.0017733127874
 42
0.0
 10
268.4328277781991
 20
374.0017733127873
 42
0.2127160503483908
 10
270.6634870666779
 20
374.9957426204191
 42
0.0
 10
272.7780978315803
 20
377.3471404141778
 42
0.1034790873638338
 10
273.8393980585675
 20
379.1122597674745
 42
0.054141296446952
 10
274.118531079877
 20
380.3210232835576
 42
0.0920583212816501
 10
273.2596197856614
 20
388.3080272463184
 42
0.0
 10
272.7877377773511
 20
389.8851535476135
 42
-0.0728097721655578
 10
272.682827778199
 20
390.6017733127876
 42
0.0
 10
272.682827778199
 20
390.6879139744246
 42
-0.0863895238122648
 10
272.8298875258072
 20
391.5327051726947
 42
-0.3164987350546036
 10
279.1828277781993
 20
396.0017733127876
 42
0.0
 10
280.8396820276915
 20
397.6586275622798
 42
-0.1989123673796563
 10
286.4965362771839
 20
400.0017733127872
 42
0.0
 97
        0
 75
     0
 76
     1
 52
45.0
 41
8.0
 77
     0
 78
     2
 53
45.0
 43
0.0
 44
-60.34279756864589
 45
-0.7071067811865475
 46
0.7071067811865476
 79
     0
 53
135.0
 43
0.0
 44
-60.34279756864589
 45
-0.7071067811865476
 46
-0.7071067811865475
 79
     0
 47
0.1935347259984943
 98
        2
 10
380.9762991091547
 20
400.4615819159869
 10
366.644599248812
 20
400.4615819159869
  0
HATCH
  5
90A
330
1E
100
AcDbEntity
  8
SCHRAFF
100
AcDbHatch
 10
0.0
 20
0.0
 30
0.0
210
0.0
220
0.0
230
1.0
  2
NET
 70
     0
 71
     0
 91
        2
 92
        7
 72
     1
 73
     1
 93
       29
 10
157.8691192792143
 20
401.0017733127872
 42
0.0
 10
73.88117236006127
 20
401.0017733127872
 42
0.0
 10
73.61322316763015
 20
400.0017733127874
 42
0.0
 10
157.8691192792143
 20
400.0017733127872
 42
-0.1989123673796669
 10
163.525973528707
 20
397.6586275622797
 42
0.0
 10
165.1828277781992
 20
396.0017733127874
 42
-0.3164987420617896
 10
171.5357680887017
 20
391.5327050108422
 42
-0.0863895064870966
 10
171.682827778199
 20
390.6879139744245
 42
0.0
 10
171.682827778199
 20
390.6017733127874
 42
-0.0728097721655454
 10
171.577917779047
 20
389.8851535476134
 42
0.0
 10
171.1060357707371
 20
388.3080272463195
 42
0.0920583212816758
 10
170.2471244765212
 20
380.3210232835565
 42
0.0541412964468781
 10
170.5262574978305
 20
379.1122597674751
 42
0.1034790873624477
 10
171.5875577247991
 20
377.3471404141988
 42
0.0
 10
173.7021684897201
 20
374.9957426204192
 42
0.2127160503484011
 10
175.932827778199
 20
374.0017733127873
 42
0.0
 10
177.182827778199
 20
374.0017733127873
 42
0.0
 10
177.1828277781991
 20
375.0017733127874
 42
0.0
 10
175.932827778199
 20
375.0017733127874
 42
-0.2127160503484005
 10
174.4457215858798
 20
375.6644195178752
 42
0.0
 10
172.3257672819026
 20
378.0217592023118
 42
-0.1039276672539049
 10
171.4706273065066
 20
379.4411452558451
 42
-0.0530641063843038
 10
171.2425388823218
 20
380.4192749850786
 42
-0.0917951978364477
 10
172.0640717710765
 20
388.0213793402506
 42
0.0
 10
172.5359537793861
 20
389.5985056415435
 42
0.0759033142298867
 10
172.6825627605374
 20
390.6448436436059
 42
0.0894895723997546
 10
172.4769454252572
 20
391.8706180487135
 42
0.301439918138241
 10
165.6087542811457
 20
396.9900603722138
 42
0.0
 10
164.2330803098931
 20
398.3657343434665
 42
0.1989123673796529
 97
        0
 92
        7
 72
     0
 73
     1
 93
        4
 10
72.88117236006124
 20
401.0017733127872
 10
52.18282777819904
 20
401.0017733127874
 10
52.18282777819904
 20
400.0017733127874
 10
72.61322316763017
 20
400.0017733127874
 97
        0
 75
     0
 76
     1
 52
45.0
 41
8.0
 77
     0
 78
     2
 53
45.0
 43
0.0
 44
-60.34279756864589
 45
-0.7071067811865475
 46
0.7071067811865476
 79
     0
 53
135.0
 43
0.0
 44
-60.34279756864589
 45
-0.7071067811865476
 46
-0.7071067811865475
 79
     0
 47
0.1972016964950016
 98
        2
 10
140.6377876355423
 20
400.6349483331791
 10
69.20028126661964
 20
400.4377474796247
  0
TEXT
  5
924
330
1E
100
AcDbEntity
  8
TEXT
100
AcDbText
 10
182.626132208084
 20
90.76363841023022
 30
0.0
 40
4.0
  1
DIN EN1123-2
 41
0.8
  7
GREEKS
 72
     1
 11
199.6166083985602
 21
90.76363841023022
 31
0.0
100
AcDbText
  0
TEXT
  5
925
330
1E
100
AcDbEntity
  8
TEXT
 62
     1
100
AcDbText
 10
226.8935731057402
 20
87.41748789253779
 30
0.0
 40
7.0
  1
Balkonablauf DN70
 41
0.8
  7
GREEKS
100
AcDbText
  0
TEXT
  5
926
330
1E
100
AcDbEntity
  8
TEXT
100
AcDbText
 10
225.1296391125315
 20
71.50334417585288
 30
0.0
 40
5.0
  1
Kompletteinheitt
 41
0.8
  7
GREEKS
100
AcDbText
  0
TEXT
  5
927
330
1E
100
AcDbEntity
  8
TEXT
100
AcDbText
 10
225.1296391125315
 20
51.64011943042158
 30
0.0
 40
5.0
  1
EDV-Art.Nr. 15276.070X
 41
0.8
  7
GREEKS
100
AcDbText
  0
TEXT
  5
928
330
1E
100
AcDbEntity
  8
TEXT
100
AcDbText
 10
224.9837501577827
 20
42.62974153022632
 30
0.0
 40
4.0
  1
15276070W.DWG
 41
0.8
  7
GREEKS
100
AcDbText
  0
TEXT
  5
92A
330
1E
100
AcDbEntity
  8
TEXT
 62
     1
100
AcDbText
 10
345.0002769697991
 20
88.14901428913959
 30
0.0
 40
7.0
  1
15276070W
 41
0.8
  7
GREEKS
 72
     1
 11
368.4669436364658
 21
88.14901428913959
 31
0.0
100
AcDbText
  0
TEXT
  5
92B
330
1E
100
AcDbEntity
  8
TEXT
100
AcDbText
 10
194.4216048581257
 20
63.0896391972351
 30
0.0
 40
4.0
  1
Koeh
 41
0.8
  7
GREEKS
 72
     1
 11
199.6787477152685
 21
63.0896391972351
 31
0.0
100
AcDbText
  0
TEXT
  5
92C
330
1E
100
AcDbEntity
  8
TEXT
100
AcDbText
 10
160.398997108236
 20
63.10765040825732
 30
0.0
 40
4.0
  1
26.05.
 41
0.8
  7
GREEKS
 72
     1
 11
167.4085209177598
 21
63.10765040825732
 31
0.0
100
AcDbText
  0
HATCH
  5
A63
330
1E
100
AcDbEntity
  8
SCHRAFF
100
AcDbHatch
 10
0.0
 20
0.0
 30
0.0
210
0.0
220
0.0
230
1.0
  2
_USER
 70
     0
 71
     0
 91
        7
 92
        7
 72
     1
 73
     1
 93
       11
 10
265.1828277781991
 20
479.5017733127871
 42
-0.4142135623730951
 10
267.6828277781991
 20
477.0017733127871
 42
0.0
 10
267.6828277781991
 20
475.0017733127871
 42
0.0
 10
269.182827778199
 20
475.0017733127871
 42
0.0
 10
269.182827778199
 20
477.0017733127872
 42
0.4142135623730992
 10
265.1828277781991
 20
481.0017733127873
 42
0.0
 10
255.8813125880338
 20
481.0017733127873
 42
0.4142135623731076
 10
251.8813125880338
 20
477.0017733127871
 42
0.0
 10
252.7579031178948
 20
477.0017733127871
 42
0.0
 10
253.3813125880341
 20
477.0017733127871
 42
-0.4142135623730984
 10
255.8813125880341
 20
479.5017733127871
 42
0.0
 97
        0
 92
        7
 72
     1
 73
     1
 93
        8
 10
239.3960312137955
 20
481.0017733127873
 42
0.0
 10
238.910749839557
 20
481.0017733127873
 42
0.4142135623731074
 10
234.910749839557
 20
477.0017733127871
 42
0.0
 10
236.410749839557
 20
477.0017733127871
 42
-0.4142135623730251
 10
238.9107498395564
 20
479.501773312787
 42
0.0
 10
239.3960312137957
 20
479.5017733127872
 42
-0.4142135623731084
 10
241.8960312137957
 20
477.0017733127871
 42
0.0
 10
243.3960312137957
 20
477.0017733127871
 42
0.4142135623731097
 97
        0
 92
        7
 72
     1
 73
     1
 93
        6
 10
223.6681091524377
 20
481.0017733127873
 42
0.0
 10
222.1828277781991
 20
481.0017733127873
 42
0.0
 10
222.1828277781991
 20
479.5017733127872
 42
0.0
 10
223.6681091524375
 20
479.5017733127872
 42
-0.4142135623731084
 10
226.1681091524375
 20
477.0017733127871
 42
0.0
 10
227.6681091524377
 20
477.0017733127871
 42
0.4142135623731011
 97
        0
 92
        7
 72
     1
 73
     1
 93
        6
 10
216.6975464039604
 20
477.0017733127871
 42
0.0
 10
218.1975464039604
 20
477.0017733127871
 42
-0.4142135623731017
 10
220.6975464039604
 20
479.5017733127872
 42
0.0
 10
222.1828277781991
 20
479.5017733127872
 42
0.0
 10
222.1828277781991
 20
481.0017733127873
 42
0.0
 10
220.6975464039604
 20
481.0017733127873
 42
0.4142135623731034
 97
        0
 92
        7
 72
     1
 73
     1
 93
        8
 10
205.4549057168412
 20
481.0017733127873
 42
0.0
 10
204.9696243426027
 20
481.0017733127873
 42
0.4142135623731036
 10
200.9696243426027
 20
477.0017733127871
 42
0.0
 10
202.4696243426027
 20
477.0017733127871
 42
-0.4142135623730618
 10
204.9696243426023
 20
479.5017733127871
 42
0.0
 10
205.4549057168413
 20
479.5017733127872
 42
-0.4142135623731017
 10
207.9549057168413
 20
477.0017733127871
 42
0.0
 10
209.4549057168413
 20
477.0017733127871
 42
0.4142135623731054
 97
        0
 92
        7
 72
     1
 73
     1
 93
        6
 10
188.4843429683644
 20
481.0017733127873
 42
0.0
 10
187.182827778199
 20
481.0017733127873
 42
0.0
 10
187.182827778199
 20
479.501773312787
 42
0.0
 10
188.484342968364
 20
479.501773312787
 42
-0.4142135623730885
 10
190.984342968364
 20
477.0017733127871
 42
0.0
 10
192.484342968364
 20
477.0017733127871
 42
0.4142135623730847
 97
        0
 92
        7
 72
     1
 73
     1
 93
        8
 10
179.182827778199
 20
481.0017733127873
 42
0.4142135623731077
 10
175.182827778199
 20
477.0017733127871
 42
0.0
 10
175.182827778199
 20
475.0017733127872
 42
0.0
 10
176.682827778199
 20
475.0017733127872
 42
0.0
 10
176.682827778199
 20
477.0017733127871
 42
-0.4142135623730951
 10
179.182827778199
 20
479.501773312787
 42
0.0
 10
187.182827778199
 20
479.501773312787
 42
0.0
 10
187.182827778199
 20
481.0017733127872
 42
0.0
 97
        0
 75
     0
 76
     0
 52
45.0
 41
2.0
 77
     0
 78
     1
 53
45.0
 43
21.30886164663463
 44
29.9309745036972
 45
-1.414213562373094
 46
1.414213562373095
 79
     0
 47
0.164329733208832
 98
        7
 10
259.6757927187876
 20
480.1355863338684
 10
239.9422756913539
 20
480.4642454862565
 10
224.6488024512171
 20
480.4642454862565
 10
220.3732076410782
 20
480.4642454862565
 10
206.8886382181375
 20
480.1355863338684
 10
188.7995825804062
 20
480.2999159100625
 10
185.0173259688561
 20
480.2999159100625
  0
HATCH
  5
A64
330
1E
100
AcDbEntity
  8
SCHRAFF
100
AcDbHatch
 10
0.0
 20
0.0
 30
0.0
210
0.0
220
0.0
230
1.0
  2
NET
 70
     0
 71
     0
 91
        2
 92
        7
 72
     0
 73
     1
 93
       43
 10
258.182827778199
 20
438.0017733127873
 10
258.682827778199
 20
438.0017733127873
 10
258.682827778199
 20
450.0017733127873
 10
258.182827778199
 20
450.0017733127873
 10
258.182827778199
 20
453.0017733127875
 10
258.682827778199
 20
453.0017733127873
 10
258.682827778199
 20
465.0017733127874
 10
265.6828277781988
 20
472.0017733127872
 10
272.682827778199
 20
472.0017733127872
 10
272.682827778199
 20
481.0017733127873
 10
269.8450681374596
 20
481.0017733127873
 10
269.6828277781991
 20
480.9232927890345
 10
269.6828277781991
 20
475.0017733127871
 10
264.1828277781989
 20
475.0017733127871
 10
254.182827778199
 20
465.0017733127872
 10
256.682827778199
 20
331.0017733127874
 10
258.682827778199
 20
331.0017733127873
 10
258.682827778199
 20
345.0017733127873
 10
258.182827778199
 20
345.0017733127873
 10
258.182827778199
 20
348.0017733127874
 10
258.682827778199
 20
348.0017733127874
 10
258.682827778199
 20
360.0017733127874
 10
258.182827778199
 20
360.0017733127874
 10
258.182827778199
 20
363.0017733127874
 10
258.682827778199
 20
363.0017733127874
 10
258.682827778199
 20
375.0017733127874
 10
258.182827778199
 20
375.0017733127874
 10
258.182827778199
 20
378.0017733127873
 10
258.682827778199
 20
378.0017733127873
 10
258.682827778199
 20
390.0017733127874
 10
258.182827778199
 20
390.0017733127874
 10
258.182827778199
 20
393.0017733127873
 10
258.682827778199
 20
393.0017733127873
 10
258.682827778199
 20
405.0017733127873
 10
258.182827778199
 20
405.0017733127874
 10
258.182827778199
 20
408.0017733127873
 10
258.682827778199
 20
408.0017733127873
 10
258.682827778199
 20
420.0017733127873
 10
258.182827778199
 20
420.0017733127873
 10
258.182827778199
 20
423.0017733127873
 10
258.682827778199
 20
423.0017733127873
 10
258.682827778199
 20
435.0017733127873
 10
258.182827778199
 20
435.0017733127873
 97
        0
 92
        7
 72
     0
 73
     1
 93
       42
 10
190.182827778199
 20
465.0017733127872
 10
180.1828277781991
 20
475.0017733127872
 10
174.682827778199
 20
475.0017733127871
 10
174.682827778199
 20
481.0017733127873
 10
171.682827778199
 20
481.0017733127873
 10
171.682827778199
 20
472.0017733127871
 10
178.6828277781994
 20
472.0017733127872
 10
185.6828277781991
 20
465.0017733127874
 10
185.6828277781992
 20
453.0017733127873
 10
186.1828277781991
 20
453.0017733127873
 10
186.1828277781991
 20
450.0017733127873
 10
185.6828277781992
 20
450.0017733127874
 10
185.6828277781992
 20
438.0017733127873
 10
186.182827778199
 20
438.0017733127873
 10
186.1828277781991
 20
435.0017733127873
 10
185.6828277781992
 20
435.0017733127873
 10
185.6828277781992
 20
423.0017733127873
 10
186.182827778199
 20
423.0017733127873
 10
186.1828277781991
 20
420.0017733127872
 10
185.6828277781992
 20
420.0017733127873
 10
185.6828277781992
 20
408.0017733127873
 10
186.1828277781991
 20
408.0017733127873
 10
186.1828277781991
 20
405.0017733127873
 10
185.6828277781992
 20
405.0017733127873
 10
185.6828277781992
 20
393.0017733127873
 10
186.182827778199
 20
393.0017733127873
 10
186.1828277781991
 20
390.0017733127874
 10
185.6828277781991
 20
390.0017733127873
 10
185.6828277781991
 20
378.0017733127873
 10
186.1828277781991
 20
378.0017733127873
 10
186.1828277781991
 20
375.0017733127874
 10
185.682827778199
 20
375.0017733127874
 10
185.682827778199
 20
363.0017733127874
 10
186.1828277781991
 20
363.0017733127873
 10
186.1828277781991
 20
360.0017733127873
 10
185.682827778199
 20
360.0017733127874
 10
185.682827778199
 20
348.0017733127873
 10
186.1828277781991
 20
348.0017733127874
 10
186.1828277781991
 20
345.0017733127873
 10
185.682827778199
 20
345.0017733127873
 10
185.682827778199
 20
331.0017733127873
 10
187.682827778199
 20
331.0017733127874
 97
        0
 75
     0
 76
     1
 52
45.0
 41
15.0
 77
     0
 78
     2
 53
45.0
 43
21.30886164663463
 44
29.9309745036972
 45
-1.325825214724776
 46
1.325825214724776
 79
     0
 53
135.0
 43
21.30886164663463
 44
29.9309745036972
 45
-1.325825214724776
 46
-1.325825214724776
 79
     0
 47
0.356349673968721
 98
        2
 10
257.2114312231978
 20
437.6404353915122
 10
188.0306999948077
 20
454.0325205207871
  0
LINE
  5
A67
330
1E
100
AcDbEntity
  8
STEMPEL
100
AcDbLine
 10
252.7579031178948
 20
477.0017733127871
 30
0.0
 11
183.1959076789365
 21
477.0017733127871
 31
0.0
  0
LINE
  5
A68
330
1E
100
AcDbEntity
  8
STEMPEL
100
AcDbLine
 10
183.1959076789365
 20
477.0017733127872
 30
0.0
 11
188.9175914432865
 21
477.0017733127871
 31
0.0
  0
LINE
  5
A69
330
1E
100
AcDbEntity
  8
STEMPEL
100
AcDbLine
 10
179.182827778199
 20
479.501773312787
 30
0.0
 11
188.484342968364
 21
479.501773312787
 31
0.0
  0
LINE
  5
A6A
330
1E
100
AcDbEntity
  8
STEMPEL
100
AcDbLine
 10
185.6828277781992
 20
465.0017733127874
 30
0.0
 11
178.6828277781993
 21
472.0017733127872
 31
0.0
  0
LINE
  5
A6B
330
1E
100
AcDbEntity
  8
STEMPEL
100
AcDbLine
 10
180.182827778199
 20
475.0017733127872
 30
0.0
 11
190.182827778199
 21
465.0017733127872
 31
0.0
  0
LINE
  5
A6C
330
1E
100
AcDbEntity
  8
STEMPEL
100
AcDbLine
 10
171.682827778199
 20
481.0017733127873
 30
0.0
 11
272.682827778199
 21
481.0017733127873
 31
0.0
  0
LINE
  5
A6D
330
1E
100
AcDbEntity
  8
STEMPEL
100
AcDbLine
 10
174.682827778199
 20
475.0017733127872
 30
0.0
 11
269.6828277781991
 21
475.0017733127871
 31
0.0
  0
DIMENSION
  5
A6E
330
1E
100
AcDbEntity
  8
BEM
100
AcDbDimension
  2
*D4
 10
272.682827778199
 20
495.2054671178109
 30
0.0
 11
224.939074850546
 21
495.2054671178109
 31
0.0
 70
   160
 71
     5
 42
101.0
  3
Standard
100
AcDbAlignedDimension
 13
171.682827778199
 23
481.0017733127873
 33
0.0
 14
272.682827778199
 24
481.0017733127873
 34
0.0
100
AcDbRotatedDimension
1001
ACAD
1000
DSTYLE
1002
{
1070
    40
1040
2.0
1070
    41
1040
3.5
1070
    42
1040
1.0
1070
    43
1040
7.0
1070
    44
1040
1.0
1070
    73
1070
     0
1070
    74
1070
     0
1070
    77
1070
     1
1070
    78
1070
     8
1070
    79
1070
     2
1070
   140
1040
3.5
1070
   141
1040
1.5
1070
   146
1040
0.5142857142857144
1070
   147
1040
1.5
1070
   172
1070
     1
1070
   178
1070
     1
1070
   179
1070
     2
1070
   271
1070
     2
1070
   272
1070
     2
1070
   284
1070
     8
1070
   285
1070
     8
1070
   286
1070
     8
1002
}
  0
DIMENSION
  5
A70
330
1E
100
AcDbEntity
  8
BEM
100
AcDbDimension
  2
*D5
 10
159.1005891570549
 20
472.0017733127871
 30
0.0
 11
152.6005891570548
 21
453.2684399794539
 31
0.0
 70
    32
 71
     5
 42
9.000000000000113
  3
Standard
100
AcDbAlignedDimension
 13
171.682827778199
 23
481.0017733127873
 33
0.0
 14
171.682827778199
 24
472.0017733127871
 34
0.0
 50
90.0
100
AcDbRotatedDimension
1001
ACAD
1000
DSTYLE
1002
{
1070
    40
1040
2.0
1070
    41
1040
3.5
1070
    42
1040
1.0
1070
    43
1040
7.0
1070
    44
1040
1.0
1070
    73
1070
     0
1070
    74
1070
     0
1070
    77
1070
     1
1070
    78
1070
     8
1070
    79
1070
     2
1070
   140
1040
3.5
1070
   141
1040
1.5
1070
   146
1040
0.5142857142857144
1070
   147
1040
1.5
1070
   172
1070
     1
1070
   178
1070
     1
1070
   179
1070
     2
1070
   271
1070
     2
1070
   272
1070
     2
1070
   284
1070
     8
1070
   285
1070
     8
1070
   286
1070
     8
1002
}
  0
LINE
  5
A71
330
1E
100
AcDbEntity
  8
STEMPEL
100
AcDbLine
 10
183.1959076789365
 20
477.0017733127871
 30
0.0
 11
183.1959076789365
 21
479.5017733127871
 31
0.0
  0
ARC
  5
A72
330
1E
100
AcDbEntity
  8
STEMPEL
100
AcDbCircle
 10
179.182827778199
 20
477.0017733127871
 30
0.0
 40
4.0
100
AcDbArc
 50
90.0
 51
180.0
  0
ARC
  5
A73
330
1E
100
AcDbEntity
  8
STEMPEL
100
AcDbCircle
 10
179.182827778199
 20
477.0017733127871
 30
0.0
 40
2.5
100
AcDbArc
 50
90.0
 51
180.0
  0
LINE
  5
A74
330
1E
100
AcDbEntity
  8
STEMPEL
100
AcDbLine
 10
182.9328277781991
 20
475.0017733127871
 30
0.0
 11
182.9328277781991
 21
479.5017733127872
 31
0.0
  0
LINE
  5
A75
330
1E
100
AcDbEntity
  8
STEMPEL
100
AcDbLine
 10
174.682827778199
 20
481.0017733127873
 30
0.0
 11
174.682827778199
 21
475.0017733127872
 31
0.0
  0
LINE
  5
A76
330
1E
100
AcDbEntity
  8
STEMPEL
100
AcDbLine
 10
171.682827778199
 20
481.0017733127873
 30
0.0
 11
171.682827778199
 21
472.0017733127871
 31
0.0
  0
LINE
  5
A77
330
1E
100
AcDbEntity
  8
STEMPEL
100
AcDbLine
 10
178.6828277781993
 20
472.0017733127872
 30
0.0
 11
171.682827778199
 21
472.0017733127871
 31
0.0
  0
LINE
  5
A78
330
1E
100
AcDbEntity
  8
STEMPEL
100
AcDbLine
 10
176.682827778199
 20
475.0017733127871
 30
0.0
 11
176.682827778199
 21
477.0017733127871
 31
0.0
  0
LINE
  5
A79
330
1E
100
AcDbEntity
  8
STEMPEL
100
AcDbLine
 10
175.182827778199
 20
475.0017733127871
 30
0.0
 11
175.182827778199
 21
477.0017733127871
 31
0.0
  0
LINE
  5
A7A
330
1E
100
AcDbEntity
  8
STEMPEL
100
AcDbLine
 10
175.182827778199
 20
475.0017733127871
 30
0.0
 11
176.682827778199
 21
475.0017733127871
 31
0.0
  0
LINE
  5
A7B
330
1E
100
AcDbEntity
  8
STEMPEL
100
AcDbLine
 10
175.4828277781991
 20
478.5216417281443
 30
0.0
 11
175.4828277781991
 21
481.0017733127873
 31
0.0
  0
LINE
  5
A7F
330
1E
100
AcDbEntity
  8
TEXT
 62
     2
100
AcDbLine
 10
295.4140194840277
 20
543.7400818618296
 30
0.0
 11
400.921374170091
 21
543.7400818618296
 31
0.0
  0
TEXT
  5
A80
330
1E
100
AcDbEntity
  8
TEXT
 62
     1
100
AcDbText
 10
296.0023255983042
 20
534.9076422941955
 30
0.0
 40
7.0
  1
EDV-Art.Nr. 15087.000X
 41
0.8
  7
GREEKS
100
AcDbText
  0
TEXT
  5
A81
330
1E
100
AcDbEntity
  8
TEXT
 62
     1
100
AcDbText
 10
296.0023255983042
 20
545.6925718660397
 30
0.0
 40
7.0
  1
Siebeinheit
 41
0.8
  7
GREEKS
100
AcDbText
  0
LINE
  5
A82
330
1E
100
AcDbEntity
  8
TEXT
 62
     2
100
AcDbLine
 10
295.4140194840277
 20
543.7400818618296
 30
0.0
 11
289.1549268437472
 21
526.0935554703994
 31
0.0
  0
LINE
  5
A83
330
1E
100
AcDbEntity
  8
STEMPEL
100
AcDbLine
 10
258.682827778199
 20
420.0017733127873
 30
0.0
 11
258.682827778199
 21
408.0017733127873
 31
0.0
  0
LINE
  5
A84
330
1E
100
AcDbEntity
  8
STEMPEL
100
AcDbLine
 10
185.6828277781992
 20
420.0017733127873
 30
0.0
 11
185.6828277781992
 21
408.0017733127873
 31
0.0
  0
LINE
  5
A85
330
1E
100
AcDbEntity
  8
STEMPEL
100
AcDbLine
 10
190.182827778199
 20
465.0017733127872
 30
0.0
 11
187.682827778199
 21
331.0017733127874
 31
0.0
  0
LINE
  5
A86
330
1E
100
AcDbEntity
  8
STEMPEL
100
AcDbLine
 10
254.182827778199
 20
465.0017733127872
 30
0.0
 11
256.682827778199
 21
331.0017733127874
 31
0.0
  0
LINE
  5
A87
330
1E
100
AcDbEntity
  8
STEMPEL
100
AcDbLine
 10
187.682827778199
 20
331.0017733127872
 30
0.0
 11
256.682827778199
 21
331.0017733127874
 31
0.0
  0
LINE
  5
A88
330
1E
100
AcDbEntity
  8
STEMPEL
100
AcDbLine
 10
185.682827778199
 20
375.0017733127874
 30
0.0
 11
185.682827778199
 21
363.0017733127874
 31
0.0
  0
LINE
  5
A89
330
1E
100
AcDbEntity
  8
STEMPEL
100
AcDbLine
 10
185.682827778199
 20
360.0017733127874
 30
0.0
 11
185.682827778199
 21
348.0017733127873
 31
0.0
  0
LINE
  5
A8A
330
1E
100
AcDbEntity
  8
STEMPEL
100
AcDbLine
 10
185.682827778199
 20
345.0017733127873
 30
0.0
 11
185.682827778199
 21
331.0017733127874
 31
0.0
  0
LINE
  5
A8B
330
1E
100
AcDbEntity
  8
STEMPEL
100
AcDbLine
 10
187.682827778199
 20
331.0017733127874
 30
0.0
 11
185.682827778199
 21
331.0017733127874
 31
0.0
  0
LINE
  5
A8C
330
1E
100
AcDbEntity
  8
STEMPEL
100
AcDbLine
 10
186.1828277781991
 20
348.0017733127874
 30
0.0
 11
185.682827778199
 21
348.0017733127874
 31
0.0
  0
LINE
  5
A8D
330
1E
100
AcDbEntity
  8
STEMPEL
100
AcDbLine
 10
186.1828277781991
 20
345.0017733127873
 30
0.0
 11
185.682827778199
 21
345.0017733127873
 31
0.0
  0
LINE
  5
A8E
330
1E
100
AcDbEntity
  8
STEMPEL
100
AcDbLine
 10
186.1828277781991
 20
348.0017733127874
 30
0.0
 11
186.1828277781991
 21
345.0017733127873
 31
0.0
  0
LINE
  5
A8F
330
1E
100
AcDbEntity
  8
STEMPEL
100
AcDbLine
 10
186.1828277781991
 20
363.0017733127873
 30
0.0
 11
186.1828277781991
 21
360.0017733127874
 31
0.0
  0
LINE
  5
A90
330
1E
100
AcDbEntity
  8
STEMPEL
100
AcDbLine
 10
186.1828277781991
 20
360.0017733127874
 30
0.0
 11
185.682827778199
 21
360.0017733127874
 31
0.0
  0
LINE
  5
A91
330
1E
100
AcDbEntity
  8
STEMPEL
100
AcDbLine
 10
186.1828277781991
 20
363.0017733127874
 30
0.0
 11
185.682827778199
 21
363.0017733127874
 31
0.0
  0
LINE
  5
A92
330
1E
100
AcDbEntity
  8
STEMPEL
100
AcDbLine
 10
185.6828277781992
 20
405.0017733127874
 30
0.0
 11
185.6828277781992
 21
393.0017733127873
 31
0.0
  0
LINE
  5
A93
330
1E
100
AcDbEntity
  8
STEMPEL
100
AcDbLine
 10
185.6828277781992
 20
390.0017733127874
 30
0.0
 11
185.682827778199
 21
378.0017733127874
 31
0.0
  0
LINE
  5
A94
330
1E
100
AcDbEntity
  8
STEMPEL
100
AcDbLine
 10
186.1828277781991
 20
375.0017733127874
 30
0.0
 11
185.682827778199
 21
375.0017733127874
 31
0.0
  0
LINE
  5
A95
330
1E
100
AcDbEntity
  8
STEMPEL
100
AcDbLine
 10
186.1828277781991
 20
378.0017733127873
 30
0.0
 11
185.682827778199
 21
378.0017733127873
 31
0.0
  0
LINE
  5
A96
330
1E
100
AcDbEntity
  8
STEMPEL
100
AcDbLine
 10
186.1828277781991
 20
378.0017733127873
 30
0.0
 11
186.1828277781991
 21
375.0017733127874
 31
0.0
  0
LINE
  5
A97
330
1E
100
AcDbEntity
  8
STEMPEL
100
AcDbLine
 10
186.1828277781991
 20
393.0017733127873
 30
0.0
 11
185.682827778199
 21
393.0017733127873
 31
0.0
  0
LINE
  5
A98
330
1E
100
AcDbEntity
  8
STEMPEL
100
AcDbLine
 10
186.1828277781991
 20
390.0017733127874
 30
0.0
 11
185.682827778199
 21
390.0017733127874
 31
0.0
  0
LINE
  5
A99
330
1E
100
AcDbEntity
  8
STEMPEL
100
AcDbLine
 10
186.1828277781991
 20
393.0017733127873
 30
0.0
 11
186.1828277781991
 21
390.0017733127874
 31
0.0
  0
LINE
  5
A9A
330
1E
100
AcDbEntity
  8
STEMPEL
100
AcDbLine
 10
186.1828277781991
 20
408.0017733127873
 30
0.0
 11
185.682827778199
 21
408.0017733127873
 31
0.0
  0
LINE
  5
A9B
330
1E
100
AcDbEntity
  8
STEMPEL
100
AcDbLine
 10
186.1828277781991
 20
405.0017733127874
 30
0.0
 11
185.682827778199
 21
405.0017733127873
 31
0.0
  0
LINE
  5
A9C
330
1E
100
AcDbEntity
  8
STEMPEL
100
AcDbLine
 10
186.1828277781991
 20
408.0017733127873
 30
0.0
 11
186.1828277781991
 21
405.0017733127873
 31
0.0
  0
LINE
  5
A9D
330
1E
100
AcDbEntity
  8
STEMPEL
100
AcDbLine
 10
258.682827778199
 20
375.0017733127874
 30
0.0
 11
258.682827778199
 21
363.0017733127874
 31
0.0
  0
LINE
  5
A9E
330
1E
100
AcDbEntity
  8
STEMPEL
100
AcDbLine
 10
258.682827778199
 20
360.0017733127874
 30
0.0
 11
258.682827778199
 21
348.0017733127873
 31
0.0
  0
LINE
  5
A9F
330
1E
100
AcDbEntity
  8
STEMPEL
100
AcDbLine
 10
258.682827778199
 20
345.0017733127873
 30
0.0
 11
258.682827778199
 21
331.0017733127874
 31
0.0
  0
LINE
  5
AA0
330
1E
100
AcDbEntity
  8
STEMPEL
100
AcDbLine
 10
256.682827778199
 20
331.0017733127874
 30
0.0
 11
258.682827778199
 21
331.0017733127874
 31
0.0
  0
LINE
  5
AA1
330
1E
100
AcDbEntity
  8
STEMPEL
100
AcDbLine
 10
258.182827778199
 20
348.0017733127874
 30
0.0
 11
258.682827778199
 21
348.0017733127874
 31
0.0
  0
LINE
  5
AA2
330
1E
100
AcDbEntity
  8
STEMPEL
100
AcDbLine
 10
258.182827778199
 20
345.0017733127873
 30
0.0
 11
258.682827778199
 21
345.0017733127873
 31
0.0
  0
LINE
  5
AA3
330
1E
100
AcDbEntity
  8
STEMPEL
100
AcDbLine
 10
258.182827778199
 20
348.0017733127874
 30
0.0
 11
258.182827778199
 21
345.0017733127873
 31
0.0
  0
LINE
  5
AA4
330
1E
100
AcDbEntity
  8
STEMPEL
100
AcDbLine
 10
258.182827778199
 20
363.0017733127873
 30
0.0
 11
258.182827778199
 21
360.0017733127874
 31
0.0
  0
LINE
  5
AA5
330
1E
100
AcDbEntity
  8
STEMPEL
100
AcDbLine
 10
258.182827778199
 20
360.0017733127874
 30
0.0
 11
258.682827778199
 21
360.0017733127874
 31
0.0
  0
LINE
  5
AA6
330
1E
100
AcDbEntity
  8
STEMPEL
100
AcDbLine
 10
258.182827778199
 20
363.0017733127874
 30
0.0
 11
258.682827778199
 21
363.0017733127874
 31
0.0
  0
LINE
  5
AA7
330
1E
100
AcDbEntity
  8
STEMPEL
100
AcDbLine
 10
258.682827778199
 20
405.0017733127874
 30
0.0
 11
258.682827778199
 21
393.0017733127873
 31
0.0
  0
LINE
  5
AA8
330
1E
100
AcDbEntity
  8
STEMPEL
100
AcDbLine
 10
258.682827778199
 20
390.0017733127874
 30
0.0
 11
258.682827778199
 21
378.0017733127874
 31
0.0
  0
LINE
  5
AA9
330
1E
100
AcDbEntity
  8
STEMPEL
100
AcDbLine
 10
258.182827778199
 20
378.0017733127873
 30
0.0
 11
258.182827778199
 21
375.0017733127874
 31
0.0
  0
LINE
  5
AAA
330
1E
100
AcDbEntity
  8
STEMPEL
100
AcDbLine
 10
258.182827778199
 20
378.0017733127873
 30
0.0
 11
258.682827778199
 21
378.0017733127873
 31
0.0
  0
LINE
  5
AAB
330
1E
100
AcDbEntity
  8
STEMPEL
100
AcDbLine
 10
258.182827778199
 20
375.0017733127874
 30
0.0
 11
258.682827778199
 21
375.0017733127874
 31
0.0
  0
LINE
  5
AAC
330
1E
100
AcDbEntity
  8
STEMPEL
100
AcDbLine
 10
258.182827778199
 20
393.0017733127873
 30
0.0
 11
258.682827778199
 21
393.0017733127873
 31
0.0
  0
LINE
  5
AAD
330
1E
100
AcDbEntity
  8
STEMPEL
100
AcDbLine
 10
258.182827778199
 20
390.0017733127874
 30
0.0
 11
258.682827778199
 21
390.0017733127874
 31
0.0
  0
LINE
  5
AAE
330
1E
100
AcDbEntity
  8
STEMPEL
100
AcDbLine
 10
258.182827778199
 20
393.0017733127873
 30
0.0
 11
258.182827778199
 21
390.0017733127874
 31
0.0
  0
LINE
  5
AAF
330
1E
100
AcDbEntity
  8
STEMPEL
100
AcDbLine
 10
258.182827778199
 20
408.0017733127873
 30
0.0
 11
258.182827778199
 21
405.0017733127873
 31
0.0
  0
LINE
  5
AB0
330
1E
100
AcDbEntity
  8
STEMPEL
100
AcDbLine
 10
258.182827778199
 20
405.0017733127874
 30
0.0
 11
258.682827778199
 21
405.0017733127873
 31
0.0
  0
LINE
  5
AB1
330
1E
100
AcDbEntity
  8
STEMPEL
100
AcDbLine
 10
258.182827778199
 20
408.0017733127873
 30
0.0
 11
258.682827778199
 21
408.0017733127873
 31
0.0
  0
LINE
  5
AB2
330
1E
100
AcDbEntity
  8
STEMPEL
100
AcDbLine
 10
190.182827778199
 20
465.0017733127872
 30
0.0
 11
254.182827778199
 21
465.0017733127872
 31
0.0
  0
LINE
  5
AB3
330
1E
100
AcDbEntity
  8
STEMPEL
100
AcDbLine
 10
185.6828277781992
 20
450.0017733127872
 30
0.0
 11
185.6828277781992
 21
438.0017733127872
 31
0.0
  0
LINE
  5
AB4
330
1E
100
AcDbEntity
  8
STEMPEL
100
AcDbLine
 10
185.6828277781992
 20
435.0017733127873
 30
0.0
 11
185.6828277781992
 21
423.0017733127873
 31
0.0
  0
LINE
  5
AB5
330
1E
100
AcDbEntity
  8
STEMPEL
100
AcDbLine
 10
186.1828277781991
 20
423.0017733127873
 30
0.0
 11
185.682827778199
 21
423.0017733127873
 31
0.0
  0
LINE
  5
AB6
330
1E
100
AcDbEntity
  8
STEMPEL
100
AcDbLine
 10
186.1828277781991
 20
420.0017733127873
 30
0.0
 11
185.682827778199
 21
420.0017733127873
 31
0.0
  0
LINE
  5
AB7
330
1E
100
AcDbEntity
  8
STEMPEL
100
AcDbLine
 10
186.1828277781991
 20
423.0017733127874
 30
0.0
 11
186.1828277781991
 21
420.0017733127873
 31
0.0
  0
LINE
  5
AB8
330
1E
100
AcDbEntity
  8
STEMPEL
100
AcDbLine
 10
186.1828277781991
 20
438.0017733127873
 30
0.0
 11
185.682827778199
 21
438.0017733127873
 31
0.0
  0
LINE
  5
AB9
330
1E
100
AcDbEntity
  8
STEMPEL
100
AcDbLine
 10
186.1828277781991
 20
435.0017733127873
 30
0.0
 11
185.682827778199
 21
435.0017733127873
 31
0.0
  0
LINE
  5
ABA
330
1E
100
AcDbEntity
  8
STEMPEL
100
AcDbLine
 10
186.1828277781991
 20
435.0017733127873
 30
0.0
 11
186.1828277781991
 21
438.0017733127873
 31
0.0
  0
LINE
  5
ABB
330
1E
100
AcDbEntity
  8
STEMPEL
100
AcDbLine
 10
185.6828277781992
 20
465.0017733127874
 30
0.0
 11
185.6828277781992
 21
453.0017733127873
 31
0.0
  0
LINE
  5
ABC
330
1E
100
AcDbEntity
  8
STEMPEL
100
AcDbLine
 10
186.1828277781991
 20
450.0017733127872
 30
0.0
 11
185.682827778199
 21
450.0017733127873
 31
0.0
  0
LINE
  5
ABD
330
1E
100
AcDbEntity
  8
STEMPEL
100
AcDbLine
 10
186.1828277781991
 20
453.0017733127873
 30
0.0
 11
185.682827778199
 21
453.0017733127873
 31
0.0
  0
LINE
  5
ABE
330
1E
100
AcDbEntity
  8
STEMPEL
100
AcDbLine
 10
186.1828277781991
 20
453.0017733127873
 30
0.0
 11
186.1828277781991
 21
450.0017733127873
 31
0.0
  0
LINE
  5
ABF
330
1E
100
AcDbEntity
  8
STEMPEL
100
AcDbLine
 10
216.6975464039604
 20
477.0017733127871
 30
0.0
 11
218.1975464039604
 21
477.0017733127871
 31
0.0
  0
ARC
  5
AC0
330
1E
100
AcDbEntity
  8
STEMPEL
100
AcDbCircle
 10
220.6975464039604
 20
477.0017733127871
 30
0.0
 40
4.0
100
AcDbArc
 50
90.0
 51
180.0
  0
LINE
  5
AC1
330
1E
100
AcDbEntity
  8
BEM
 62
     1
100
AcDbLine
 10
210.5008242654565
 20
498.2335789222082
 30
0.0
 11
217.5008242654565
 21
498.2335789222083
 31
0.0
  0
LINE
  5
AC2
330
1E
100
AcDbEntity
  8
BEM
 62
     1
100
AcDbLine
 10
210.5008242654565
 20
505.2335789222083
 30
0.0
 11
217.5008242654565
 21
505.2335789222083
 31
0.0
  0
ARC
  5
AC3
330
1E
100
AcDbEntity
  8
STEMPEL
100
AcDbCircle
 10
188.484342968364
 20
477.0017733127871
 30
0.0
 40
4.0
100
AcDbArc
 50
0.0
 51
90.0
  0
ARC
  5
AC4
330
1E
100
AcDbEntity
  8
STEMPEL
100
AcDbCircle
 10
188.484342968364
 20
477.0017733127871
 30
0.0
 40
2.5
100
AcDbArc
 50
0.0
 51
90.0
  0
LINE
  5
AC5
330
1E
100
AcDbEntity
  8
STEMPEL
100
AcDbLine
 10
191.432827778199
 20
475.0017733127871
 30
0.0
 11
191.432827778199
 21
477.0017733127872
 31
0.0
  0
LINE
  5
AC6
330
1E
100
AcDbEntity
  8
MITTEL
100
AcDbLine
 10
187.182827778199
 20
470.0017733127872
 30
0.0
 11
187.182827778199
 21
484.5017733127873
 31
0.0
  0
LINE
  5
AC7
330
1E
100
AcDbEntity
  8
STEMPEL
100
AcDbLine
 10
190.984342968364
 20
477.0017733127871
 30
0.0
 11
192.484342968364
 21
477.0017733127871
 31
0.0
  0
ARC
  5
AC8
330
1E
100
AcDbEntity
  8
STEMPEL
100
AcDbCircle
 10
204.9696243426027
 20
477.0017733127871
 30
0.0
 40
4.0
100
AcDbArc
 50
90.0
 51
180.0
  0
ARC
  5
AC9
330
1E
100
AcDbEntity
  8
STEMPEL
100
AcDbCircle
 10
204.9696243426027
 20
477.0017733127871
 30
0.0
 40
2.5
100
AcDbArc
 50
90.0
 51
180.0
  0
ARC
  5
ACA
330
1E
100
AcDbEntity
  8
STEMPEL
100
AcDbCircle
 10
205.4549057168413
 20
477.0017733127871
 30
0.0
 40
4.0
100
AcDbArc
 50
0.0
 51
90.0
  0
ARC
  5
ACB
330
1E
100
AcDbEntity
  8
STEMPEL
100
AcDbCircle
 10
205.4549057168413
 20
477.0017733127872
 30
0.0
 40
2.5
100
AcDbArc
 50
0.0
 51
90.0
  0
LINE
  5
ACC
330
1E
100
AcDbEntity
  8
STEMPEL
100
AcDbLine
 10
207.9549057168413
 20
477.0017733127871
 30
0.0
 11
209.4549057168413
 21
477.0017733127871
 31
0.0
  0
LINE
  5
ACD
330
1E
100
AcDbEntity
  8
STEMPEL
100
AcDbLine
 10
200.9696243426027
 20
477.0017733127871
 30
0.0
 11
202.4696243426027
 21
477.0017733127871
 31
0.0
  0
LINE
  5
ACE
330
1E
100
AcDbEntity
  8
STEMPEL
100
AcDbLine
 10
204.9696243426027
 20
479.5017733127871
 30
0.0
 11
205.4549057168413
 21
479.5017733127872
 31
0.0
  0
LINE
  5
ACF
330
1E
100
AcDbEntity
  8
BEM
 62
     1
100
AcDbLine
 10
210.5008242654565
 20
505.2335789222083
 30
0.0
 11
210.5008242654565
 21
498.2335789222082
 31
0.0
  0
ARC
  5
AD0
330
1E
100
AcDbEntity
  8
STEMPEL
100
AcDbCircle
 10
223.6681091524375
 20
477.0017733127872
 30
0.0
 40
2.5
100
AcDbArc
 50
0.0
 51
90.0
  0
ARC
  5
AD1
330
1E
100
AcDbEntity
  8
STEMPEL
100
AcDbCircle
 10
220.6975464039604
 20
477.0017733127872
 30
0.0
 40
2.5
100
AcDbArc
 50
90.0
 51
180.0
  0
ARC
  5
AD2
330
1E
100
AcDbEntity
  8
STEMPEL
100
AcDbCircle
 10
223.6681091524377
 20
477.0017733127871
 30
0.0
 40
4.0
100
AcDbArc
 50
0.0
 51
90.0
  0
LINE
  5
AD3
330
1E
100
AcDbEntity
  8
STEMPEL
100
AcDbLine
 10
226.1681091524375
 20
477.0017733127871
 30
0.0
 11
227.6681091524377
 21
477.0017733127871
 31
0.0
  0
LINE
  5
AD4
330
1E
100
AcDbEntity
  8
STEMPEL
100
AcDbLine
 10
220.6975464039604
 20
479.5017733127872
 30
0.0
 11
223.6681091524375
 21
479.5017733127872
 31
0.0
  0
ARC
  5
AD5
330
1E
100
AcDbEntity
  8
STEMPEL
100
AcDbCircle
 10
238.910749839557
 20
477.0017733127872
 30
0.0
 40
4.0
100
AcDbArc
 50
90.0
 51
180.0
  0
ARC
  5
AD6
330
1E
100
AcDbEntity
  8
STEMPEL
100
AcDbCircle
 10
238.910749839557
 20
477.0017733127871
 30
0.0
 40
2.5
100
AcDbArc
 50
90.0
 51
180.0
  0
ARC
  5
AD7
330
1E
100
AcDbEntity
  8
STEMPEL
100
AcDbCircle
 10
239.3960312137957
 20
477.0017733127872
 30
0.0
 40
2.5
100
AcDbArc
 50
0.0
 51
90.0
  0
ARC
  5
AD8
330
1E
100
AcDbEntity
  8
STEMPEL
100
AcDbCircle
 10
239.3960312137957
 20
477.0017733127872
 30
0.0
 40
4.0
100
AcDbArc
 50
0.0
 51
90.0
  0
LINE
  5
AD9
330
1E
100
AcDbEntity
  8
STEMPEL
100
AcDbLine
 10
241.8960312137957
 20
477.0017733127871
 30
0.0
 11
243.3960312137957
 21
477.0017733127871
 31
0.0
  0
LINE
  5
ADA
330
1E
100
AcDbEntity
  8
STEMPEL
100
AcDbLine
 10
234.910749839557
 20
477.0017733127871
 30
0.0
 11
236.410749839557
 21
477.0017733127871
 31
0.0
  0
LINE
  5
ADB
330
1E
100
AcDbEntity
  8
STEMPEL
100
AcDbLine
 10
238.910749839557
 20
479.501773312787
 30
0.0
 11
239.3960312137957
 21
479.5017733127872
 31
0.0
  0
LINE
  5
ADC
330
1E
100
AcDbEntity
  8
BEM
 62
     1
100
AcDbLine
 10
217.5008242654565
 20
505.2335789222083
 30
0.0
 11
217.5008242654565
 21
498.2335789222083
 31
0.0
  0
LINE
  5
ADD
330
1E
100
AcDbEntity
  8
STEMPEL
100
AcDbLine
 10
258.682827778199
 20
465.0017733127874
 30
0.0
 11
265.6828277781989
 21
472.0017733127872
 31
0.0
  0
LINE
  5
ADE
330
1E
100
AcDbEntity
  8
STEMPEL
100
AcDbLine
 10
264.1828277781991
 20
475.0017733127872
 30
0.0
 11
254.182827778199
 21
465.0017733127872
 31
0.0
  0
LINE
  5
ADF
330
1E
100
AcDbEntity
  8
STEMPEL
100
AcDbLine
 10
258.682827778199
 20
450.0017733127872
 30
0.0
 11
258.682827778199
 21
438.0017733127872
 31
0.0
  0
LINE
  5
AE0
330
1E
100
AcDbEntity
  8
STEMPEL
100
AcDbLine
 10
258.682827778199
 20
435.0017733127873
 30
0.0
 11
258.682827778199
 21
423.0017733127873
 31
0.0
  0
LINE
  5
AE1
330
1E
100
AcDbEntity
  8
STEMPEL
100
AcDbLine
 10
258.182827778199
 20
423.0017733127874
 30
0.0
 11
258.182827778199
 21
420.0017733127873
 31
0.0
  0
LINE
  5
AE2
330
1E
100
AcDbEntity
  8
STEMPEL
100
AcDbLine
 10
258.182827778199
 20
420.0017733127873
 30
0.0
 11
258.682827778199
 21
420.0017733127873
 31
0.0
  0
LINE
  5
AE3
330
1E
100
AcDbEntity
  8
STEMPEL
100
AcDbLine
 10
258.182827778199
 20
423.0017733127873
 30
0.0
 11
258.682827778199
 21
423.0017733127873
 31
0.0
  0
LINE
  5
AE4
330
1E
100
AcDbEntity
  8
STEMPEL
100
AcDbLine
 10
258.182827778199
 20
435.0017733127873
 30
0.0
 11
258.182827778199
 21
438.0017733127873
 31
0.0
  0
LINE
  5
AE5
330
1E
100
AcDbEntity
  8
STEMPEL
100
AcDbLine
 10
258.182827778199
 20
435.0017733127873
 30
0.0
 11
258.682827778199
 21
435.0017733127873
 31
0.0
  0
LINE
  5
AE6
330
1E
100
AcDbEntity
  8
STEMPEL
100
AcDbLine
 10
258.182827778199
 20
438.0017733127873
 30
0.0
 11
258.682827778199
 21
438.0017733127873
 31
0.0
  0
LINE
  5
AE7
330
1E
100
AcDbEntity
  8
STEMPEL
100
AcDbLine
 10
258.682827778199
 20
465.0017733127874
 30
0.0
 11
258.682827778199
 21
453.0017733127873
 31
0.0
  0
LINE
  5
AE8
330
1E
100
AcDbEntity
  8
STEMPEL
100
AcDbLine
 10
258.182827778199
 20
453.0017733127873
 30
0.0
 11
258.182827778199
 21
450.0017733127873
 31
0.0
  0
LINE
  5
AE9
330
1E
100
AcDbEntity
  8
STEMPEL
100
AcDbLine
 10
258.182827778199
 20
453.0017733127873
 30
0.0
 11
258.682827778199
 21
453.0017733127873
 31
0.0
  0
LINE
  5
AEA
330
1E
100
AcDbEntity
  8
STEMPEL
100
AcDbLine
 10
258.182827778199
 20
450.0017733127872
 30
0.0
 11
258.682827778199
 21
450.0017733127873
 31
0.0
  0
ARC
  5
AEC
330
1E
100
AcDbEntity
  8
STEMPEL
100
AcDbCircle
 10
265.1828277781991
 20
477.0017733127871
 30
0.0
 40
2.500000000000002
100
AcDbArc
 50
0.0
 51
90.0
  0
ARC
  5
AED
330
1E
100
AcDbEntity
  8
STEMPEL
100
AcDbCircle
 10
265.1828277781991
 20
477.0017733127871
 30
0.0
 40
2.5
100
AcDbArc
 50
0.0
 51
90.0
  0
ARC
  5
AEE
330
1E
100
AcDbEntity
  8
STEMPEL
100
AcDbCircle
 10
265.1828277781991
 20
477.0017733127872
 30
0.0
 40
4.0
100
AcDbArc
 50
0.0
 51
90.0
  0
ARC
  5
AEF
330
1E
100
AcDbEntity
  8
STEMPEL
100
AcDbCircle
 10
265.1828277781991
 20
477.0017733127872
 30
0.0
 40
4.0
100
AcDbArc
 50
0.0
 51
90.0
  0
ARC
  5
AF0
330
1E
100
AcDbEntity
  8
STEMPEL
100
AcDbCircle
 10
265.1828277781991
 20
477.0017733127871
 30
0.0
 40
2.5
100
AcDbArc
 50
0.0
 51
90.0
  0
ARC
  5
AF1
330
1E
100
AcDbEntity
  8
STEMPEL
100
AcDbCircle
 10
265.1828277781991
 20
477.0017733127872
 30
0.0
 40
4.0
100
AcDbArc
 50
0.0
 51
90.0
  0
LINE
  5
AF2
330
1E
100
AcDbEntity
  8
STEMPEL
100
AcDbLine
 10
265.6828277781989
 20
472.0017733127872
 30
0.0
 11
272.682827778199
 21
472.0017733127872
 31
0.0
  0
LINE
  5
AF3
330
1E
100
AcDbEntity
  8
STEMPEL
100
AcDbLine
 10
261.2293717993064
 20
477.0017733127871
 30
0.0
 11
261.2293717993064
 21
479.5017733127872
 31
0.0
  0
ARC
  5
AF4
330
1E
100
AcDbEntity
  8
STEMPEL
100
AcDbCircle
 10
255.8813125880341
 20
477.0017733127871
 30
0.0
 40
2.5
100
AcDbArc
 50
90.0
 51
180.0
  0
ARC
  5
AF5
330
1E
100
AcDbEntity
  8
STEMPEL
100
AcDbCircle
 10
255.8813125880341
 20
477.0017733127871
 30
0.0
 40
2.5
100
AcDbArc
 50
90.0
 51
180.0
  0
ARC
  5
AF6
330
1E
100
AcDbEntity
  8
STEMPEL
100
AcDbCircle
 10
255.8813125880338
 20
477.0017733127871
 30
0.0
 40
4.000000000000002
100
AcDbArc
 50
90.0
 51
180.0
  0
ARC
  5
AF7
330
1E
100
AcDbEntity
  8
STEMPEL
100
AcDbCircle
 10
255.8813125880338
 20
477.0017733127871
 30
0.0
 40
4.0
100
AcDbArc
 50
90.0
 51
180.0
  0
ARC
  5
AF8
330
1E
100
AcDbEntity
  8
STEMPEL
100
AcDbCircle
 10
255.881312588034
 20
477.0017733127871
 30
0.0
 40
4.0
100
AcDbArc
 50
90.0
 51
180.0
  0
ARC
  5
AF9
330
1E
100
AcDbEntity
  8
STEMPEL
100
AcDbCircle
 10
255.8813125880341
 20
477.0017733127871
 30
0.0
 40
2.500000000000028
100
AcDbArc
 50
90.0
 51
180.0
  0
LINE
  5
AFA
330
1E
100
AcDbEntity
  8
STEMPEL
100
AcDbLine
 10
253.3813125880341
 20
477.0017733127871
 30
0.0
 11
261.2293717993064
 21
477.0017733127871
 31
0.0
  0
LINE
  5
AFB
330
1E
100
AcDbEntity
  8
STEMPEL
100
AcDbLine
 10
251.8813125880338
 20
477.0017733127871
 30
0.0
 11
253.3813125880341
 21
477.0017733127871
 31
0.0
  0
LINE
  5
AFC
330
1E
100
AcDbEntity
  8
STEMPEL
100
AcDbLine
 10
251.8813125880338
 20
477.0017733127871
 30
0.0
 11
253.3813125880341
 21
477.0017733127871
 31
0.0
  0
LINE
  5
AFD
330
1E
100
AcDbEntity
  8
STEMPEL
100
AcDbLine
 10
251.8813125880338
 20
477.0017733127871
 30
0.0
 11
253.3813125880341
 21
477.0017733127871
 31
0.0
  0
LINE
  5
AFE
330
1E
100
AcDbEntity
  8
STEMPEL
100
AcDbLine
 10
255.8813125880341
 20
479.5017733127871
 30
0.0
 11
265.1828277781991
 21
479.5017733127871
 31
0.0
  0
LINE
  5
AFF
330
1E
100
AcDbEntity
  8
STEMPEL
100
AcDbLine
 10
255.8813125880341
 20
479.5017733127871
 30
0.0
 11
265.1828277781991
 21
479.5017733127871
 31
0.0
  0
LINE
  5
B00
330
1E
100
AcDbEntity
  8
STEMPEL
100
AcDbLine
 10
255.8813125880341
 20
479.5017733127871
 30
0.0
 11
265.1828277781991
 21
479.5017733127871
 31
0.0
  0
LINE
  5
B01
330
1E
100
AcDbEntity
  8
STEMPEL
100
AcDbLine
 10
269.6828277781991
 20
481.0017733127873
 30
0.0
 11
269.6828277781991
 21
475.0017733127871
 31
0.0
  0
LINE
  5
B02
330
1E
100
AcDbEntity
  8
STEMPEL
100
AcDbLine
 10
272.682827778199
 20
481.0017733127873
 30
0.0
 11
272.682827778199
 21
472.0017733127872
 31
0.0
  0
LINE
  5
B03
330
1E
100
AcDbEntity
  8
STEMPEL
100
AcDbLine
 10
269.182827778199
 20
475.0017733127871
 30
0.0
 11
269.182827778199
 21
477.0017733127872
 31
0.0
  0
LINE
  5
B04
330
1E
100
AcDbEntity
  8
STEMPEL
100
AcDbLine
 10
269.182827778199
 20
475.0017733127871
 30
0.0
 11
269.182827778199
 21
477.0017733127872
 31
0.0
  0
LINE
  5
B05
330
1E
100
AcDbEntity
  8
STEMPEL
100
AcDbLine
 10
269.182827778199
 20
475.0017733127871
 30
0.0
 11
269.182827778199
 21
477.0017733127872
 31
0.0
  0
LINE
  5
B06
330
1E
100
AcDbEntity
  8
STEMPEL
100
AcDbLine
 10
267.6828277781991
 20
475.0017733127871
 30
0.0
 11
267.6828277781991
 21
477.0017733127871
 31
0.0
  0
LINE
  5
B07
330
1E
100
AcDbEntity
  8
STEMPEL
100
AcDbLine
 10
267.6828277781991
 20
477.0017733127871
 30
0.0
 11
267.6828277781991
 21
475.0017733127871
 31
0.0
  0
LINE
  5
B08
330
1E
100
AcDbEntity
  8
STEMPEL
100
AcDbLine
 10
267.6828277781991
 20
477.0017733127871
 30
0.0
 11
267.6828277781991
 21
475.0017733127871
 31
0.0
  0
LINE
  5
B09
330
1E
100
AcDbEntity
  8
STEMPEL
100
AcDbLine
 10
267.6828277781991
 20
475.0017733127871
 30
0.0
 11
269.182827778199
 21
475.0017733127871
 31
0.0
  0
LINE
  5
B0A
330
1E
100
AcDbEntity
  8
STEMPEL
100
AcDbLine
 10
267.6828277781991
 20
475.0017733127871
 30
0.0
 11
269.182827778199
 21
475.0017733127871
 31
0.0
  0
LINE
  5
B0B
330
1E
100
AcDbEntity
  8
STEMPEL
100
AcDbLine
 10
267.6828277781991
 20
475.0017733127871
 30
0.0
 11
269.182827778199
 21
475.0017733127871
 31
0.0
  0
LINE
  5
B0C
330
1E
100
AcDbEntity
  8
STEMPEL
100
AcDbLine
 10
268.882827778199
 20
478.5216417281442
 30
0.0
 11
268.8828277781991
 21
481.0017733127873
 31
0.0
  0
LINE
  5
DD8
102
{ACAD_REACTORS
330
FF6
102
}
330
1E
100
AcDbEntity
  8
STEMPEL
100
AcDbLine
 10
259.842979587122
 20
376.7759527075266
 30
0.0
 11
258.182827778199
 21
376.7759527075265
 31
0.0
  0
LINE
  5
DDB
330
1E
100
AcDbEntity
  8
STEMPEL
100
AcDbLine
 10
260.5798892936271
 20
400.9017733127873
 30
0.0
 11
258.6828277781991
 21
400.9017733127873
 31
0.0
  0
LINE
  5
DE0
330
1E
100
AcDbEntity
  8
STEMPEL
100
AcDbLine
 10
183.785766262771
 20
400.9017733127873
 30
0.0
 11
185.6828277781992
 21
400.9017733127873
 31
0.0
  0
ARC
  5
DF1
102
{ACAD_REACTORS
330
FF6
102
}
330
1E
100
AcDbEntity
  8
STEMPEL
100
AcDbCircle
 10
183.785766262771
 20
399.9017733127873
 30
0.0
 40
1.0
100
AcDbArc
 50
10.00000000000021
 51
150.5880863344699
  0
LINE
  5
DF4
102
{ACAD_REACTORS
330
FF6
102
}
330
1E
100
AcDbEntity
  8
STEMPEL
100
AcDbLine
 10
180.3828277781991
 20
395.9017733127873
 30
0.0
 11
182.9146545454218
 21
400.3928582096196
 31
0.0
  0
LINE
  5
DF5
102
{ACAD_REACTORS
330
FF6
102
}
330
1E
100
AcDbEntity
  8
STEMPEL
100
AcDbLine
 10
180.3828277781991
 20
395.9017733127873
 30
0.0
 11
183.468753774828
 21
395.9017733127873
 31
0.0
  0
LINE
  5
DF6
102
{ACAD_REACTORS
330
FF6
102
}
330
1E
100
AcDbEntity
  8
STEMPEL
100
AcDbLine
 10
185.682827778199
 20
394.9017733127872
 30
0.0
 11
184.7705740157832
 21
400.0754214904541
 31
0.0
  0
LINE
  5
DFB
102
{ACAD_REACTORS
330
FF6
102
}
330
1E
100
AcDbEntity
  8
STEMPEL
100
AcDbLine
 10
262.1828277781991
 20
390.4068184738781
 30
0.0
 11
262.1828277781991
 21
389.3017733127873
 31
0.0
  0
LINE
  5
DFC
102
{ACAD_REACTORS
330
FF6
102
}
330
1E
100
AcDbEntity
  8
STEMPEL
100
AcDbLine
 10
258.682827778199
 20
394.9017733127872
 30
0.0
 11
258.682827778199
 21
376.7759527075266
 31
0.0
  0
LINE
  5
DFD
102
{ACAD_REACTORS
330
FF6
102
}
330
1E
100
AcDbEntity
  8
STEMPEL
100
AcDbLine
 10
262.682827778199
 20
382.5529905716639
 30
0.0
 11
262.1828277781992
 21
384.9017733127873
 31
0.0
  0
ARC
  5
DFF
102
{ACAD_REACTORS
330
FF6
102
}
330
1E
100
AcDbEntity
  8
STEMPEL
100
AcDbCircle
 10
260.7064188806661
 20
382.3082375995703
 30
0.0
 40
0.5853139609491022
100
AcDbArc
 50
11.92816014014766
 51
203.4574703319647
  0
ARC
  5
E00
102
{ACAD_REACTORS
330
FF6
102
}
330
1E
100
AcDbEntity
  8
STEMPEL
100
AcDbCircle
 10
165.0203733318935
 20
385.2778353552734
 30
0.0
 40
95.20298664217497
100
AcDbArc
 50
354.8765074563743
 51
358.0722278299036
  0
LINE
  5
E01
102
{ACAD_REACTORS
330
FF6
102
}
330
1E
100
AcDbEntity
  8
STEMPEL
100
AcDbLine
 10
262.682827778199
 20
380.9017733127872
 30
0.0
 11
261.2343326726207
 21
380.9017733127873
 31
0.0
  0
LINE
  5
E02
102
{ACAD_REACTORS
330
FF6
102
}
330
1E
100
AcDbEntity
  8
STEMPEL
100
AcDbLine
 10
261.2343326726207
 20
380.9017733127873
 30
0.0
 11
261.2790944617434
 21
382.4292132653861
 31
0.0
  0
LINE
  5
E03
102
{ACAD_REACTORS
330
FF6
102
}
330
1E
100
AcDbEntity
  8
STEMPEL
100
AcDbLine
 10
262.682827778199
 20
386.0017733127871
 30
0.0
 11
262.1828277781992
 21
385.5017733127873
 31
0.0
  0
LINE
  5
E05
102
{ACAD_REACTORS
330
FF6
102
}
330
1E
100
AcDbEntity
  8
STEMPEL
100
AcDbLine
 10
262.1828277781992
 20
385.5017733127873
 30
0.0
 11
262.1828277781992
 21
384.9017733127873
 31
0.0
  0
LINE
  5
E06
102
{ACAD_REACTORS
330
FF6
102
}
330
1E
100
AcDbEntity
  8
STEMPEL
100
AcDbLine
 10
262.682827778199
 20
388.8017733127873
 30
0.0
 11
262.1828277781991
 21
389.3017733127873
 31
0.0
  0
LINE
  5
E07
102
{ACAD_REACTORS
330
FF6
102
}
330
1E
100
AcDbEntity
  8
STEMPEL
100
AcDbLine
 10
258.682827778199
 20
394.9017733127872
 30
0.0
 11
259.5950815406149
 21
400.0754214904541
 31
0.0
  0
ARC
  5
E08
102
{ACAD_REACTORS
330
FF6
102
}
330
1E
100
AcDbEntity
  8
STEMPEL
100
AcDbCircle
 10
260.8969017815702
 20
395.4017733127873
 30
0.0
 40
0.5
100
AcDbArc
 50
115.3500852942889
 51
199.9999999999989
  0
LINE
  5
E09
102
{ACAD_REACTORS
330
FF6
102
}
330
1E
100
AcDbEntity
  8
STEMPEL
100
AcDbLine
 10
260.4270554711772
 20
395.2307632411244
 30
0.0
 11
262.1828277781991
 21
390.4068184738781
 31
0.0
  0
ARC
  5
E0A
102
{ACAD_REACTORS
330
FF6
102
}
330
1E
100
AcDbEntity
  8
STEMPEL
100
AcDbCircle
 10
260.5798892936271
 20
399.9017733127873
 30
0.0
 40
1.0
100
AcDbArc
 50
29.41191366553006
 51
169.9999999999997
  0
LINE
  5
E0B
102
{ACAD_REACTORS
330
FF6
102
}
330
1E
100
AcDbEntity
  8
STEMPEL
100
AcDbLine
 10
263.9828277781991
 20
395.9017733127873
 30
0.0
 11
261.4510010109764
 21
400.3928582096196
 31
0.0
  0
LINE
  5
E0C
330
1E
100
AcDbEntity
  8
STEMPEL
100
AcDbLine
 10
263.9828277781991
 20
395.9017733127873
 30
0.0
 11
260.8969017815702
 21
395.9017733127873
 31
0.0
  0
LINE
  5
FBC
330
1E
100
AcDbEntity
  8
STEMPEL
100
AcDbLine
 10
262.1828277781991
 20
389.406818473878
 30
0.0
 11
262.682827778199
 21
389.406818473878
 31
0.0
  0
LINE
  5
FBD
330
1E
100
AcDbEntity
  8
STEMPEL
100
AcDbLine
 10
182.182827778199
 20
389.406818473878
 30
0.0
 11
181.682827778199
 21
389.406818473878
 31
0.0
  0
LINE
  5
FBE
102
{ACAD_REACTORS
330
FF6
102
}
330
1E
100
AcDbEntity
  8
STEMPEL
100
AcDbLine
 10
181.682827778199
 20
388.8017733127873
 30
0.0
 11
182.182827778199
 21
389.3017733127873
 31
0.0
  0
LINE
  5
FBF
102
{ACAD_REACTORS
330
FF6
102
}
330
1E
100
AcDbEntity
  8
STEMPEL
100
AcDbLine
 10
182.1828277781989
 20
385.5017733127873
 30
0.0
 11
182.1828277781989
 21
384.9017733127873
 31
0.0
  0
LINE
  5
FC0
102
{ACAD_REACTORS
330
FF6
102
}
330
1E
100
AcDbEntity
  8
STEMPEL
100
AcDbLine
 10
181.6828277781991
 20
386.0017733127871
 30
0.0
 11
182.1828277781989
 21
385.5017733127873
 31
0.0
  0
LINE
  5
FC1
102
{ACAD_REACTORS
330
FF6
102
}
330
1E
100
AcDbEntity
  8
STEMPEL
100
AcDbLine
 10
183.1313228837774
 20
380.9017733127873
 30
0.0
 11
183.0865610946546
 21
382.4292132653861
 31
0.0
  0
LINE
  5
FC2
102
{ACAD_REACTORS
330
FF6
102
}
330
1E
100
AcDbEntity
  8
STEMPEL
100
AcDbLine
 10
181.682827778199
 20
380.9017733127872
 30
0.0
 11
183.1313228837774
 21
380.9017733127873
 31
0.0
  0
ARC
  5
FC3
102
{ACAD_REACTORS
330
FF6
102
}
330
1E
100
AcDbEntity
  8
STEMPEL
100
AcDbCircle
 10
279.3452822245046
 20
385.2778353552734
 30
0.0
 40
95.20298664217497
100
AcDbArc
 50
181.9277721700964
 51
185.1234925436257
  0
ARC
  5
FC4
102
{ACAD_REACTORS
330
FF6
102
}
330
1E
100
AcDbEntity
  8
STEMPEL
100
AcDbCircle
 10
183.659236675732
 20
382.3082375995703
 30
0.0
 40
0.5853139609491022
100
AcDbArc
 50
336.5425296680353
 51
168.0718398598523
  0
LINE
  5
FC5
102
{ACAD_REACTORS
330
FF6
102
}
330
1E
100
AcDbEntity
  8
STEMPEL
100
AcDbLine
 10
181.682827778199
 20
382.5529905716639
 30
0.0
 11
182.1828277781989
 21
384.9017733127873
 31
0.0
  0
LINE
  5
FC6
102
{ACAD_REACTORS
330
FF6
102
}
330
1E
100
AcDbEntity
  8
STEMPEL
100
AcDbLine
 10
182.182827778199
 20
390.4068184738781
 30
0.0
 11
182.182827778199
 21
389.3017733127873
 31
0.0
  0
ARC
  5
FC7
102
{ACAD_REACTORS
330
FF6
102
}
330
1E
100
AcDbEntity
  8
STEMPEL
100
AcDbCircle
 10
183.4687537748279
 20
395.4017733127873
 30
0.0
 40
0.5
100
AcDbArc
 50
340.000000000001
 51
64.64991470571111
  0
LINE
  5
FC8
102
{ACAD_REACTORS
330
FF6
102
}
330
1E
100
AcDbEntity
  8
STEMPEL
100
AcDbLine
 10
183.9386000852209
 20
395.2307632411244
 30
0.0
 11
182.182827778199
 21
390.4068184738781
 31
0.0
  0
LINE
  5
FC9
330
1E
100
AcDbEntity
  8
STEMPEL
100
AcDbLine
 10
183.682827778199
 20
394.9017733127874
 30
0.0
 11
183.8188575439329
 21
394.9017733127874
 31
0.0
  0
LINE
  5
FCA
102
{ACAD_REACTORS
330
FF6
102
}
330
1E
100
AcDbEntity
  8
STEMPEL
100
AcDbLine
 10
185.682827778199
 20
394.9017733127872
 30
0.0
 11
185.682827778199
 21
376.7759527075266
 31
0.0
  0
LINE
  5
FCB
330
1E
100
AcDbEntity
  8
STEMPEL
100
AcDbLine
 10
182.694182380499
 20
400.0017733127872
 30
0.0
 11
177.132827778199
 21
400.0017733127872
 31
0.0
  0
LINE
  5
FCC
330
1E
100
AcDbEntity
  8
STEMPEL
100
AcDbLine
 10
261.8667601810452
 20
399.6553631512735
 30
0.0
 11
267.4328277781991
 21
399.6553631512735
 31
0.0
  0
HATCH
  5
FF6
330
1E
100
AcDbEntity
  8
SCHRAFF
100
AcDbHatch
 10
0.0
 20
0.0
 30
0.0
210
0.0
220
0.0
230
1.0
  2
NET
 70
     0
 71
     1
 91
        2
 92
        7
 72
     1
 73
     1
 93
       20
 10
260.4270554711772
 20
395.2307632411244
 42
-0.3871212351546697
 10
260.682827778199
 20
395.8536276267876
 42
0.0
 10
260.682827778199
 20
395.9017733127873
 42
0.0
 10
263.9828277781991
 20
395.9017733127874
 42
0.0
 10
261.4510010109764
 20
400.3928582096196
 42
0.7040385315424583
 10
259.5950815406149
 20
400.0754214904541
 42
0.0
 10
258.682827778199
 20
394.9017733127872
 42
0.0
 10
258.682827778199
 20
376.7759527075266
 42
0.0
 10
259.842979587122
 20
376.7759527075266
 42
0.0139448644199352
 10
260.1694777201011
 20
382.0752427005425
 42
-1.106035930005297
 10
261.2790944617434
 20
382.4292132653861
 42
0.0
 10
261.2343326726207
 20
380.9017733127872
 42
0.0
 10
262.682827778199
 20
380.9017733127872
 42
0.0
 10
262.682827778199
 20
382.5529905716642
 42
0.0
 10
262.1828277781992
 20
384.9017733127874
 42
0.0
 10
262.1828277781992
 20
385.5017733127873
 42
0.0
 10
262.682827778199
 20
386.0017733127873
 42
0.0
 10
262.682827778199
 20
388.8017733127873
 42
0.0
 10
262.1828277781991
 20
389.3017733127873
 42
0.0
 10
262.1828277781991
 20
390.4068184738782
 42
0.0
 97
       19
330
E08
330
584
330
59A
330
E0B
330
E0A
330
E07
330
DFC
330
DD8
330
E00
330
DFF
330
E02
330
E01
330
58A
330
DFD
330
E05
330
E03
330
E06
330
DFB
330
E09
 92
        7
 72
     1
 73
     1
 93
       21
 10
185.682827778199
 20
394.9017733127872
 42
0.0
 10
184.7705740157832
 20
400.0754214904541
 42
0.7040385315423344
 10
182.9146545454218
 20
400.3928582096196
 42
0.0
 10
180.382827778199
 20
395.9017733127873
 42
0.0
 10
183.468753774828
 20
395.9017733127873
 42
0.0
 10
183.682827778199
 20
395.9017733127873
 42
0.0
 10
183.682827778199
 20
395.8536276267876
 42
-0.3871212351546698
 10
183.9386000852209
 20
395.2307632411245
 42
0.0
 10
182.182827778199
 20
390.4068184738781
 42
0.0
 10
182.182827778199
 20
389.3017733127873
 42
0.0
 10
181.682827778199
 20
388.8017733127873
 42
0.0
 10
181.6828277781991
 20
386.0017733127873
 42
0.0
 10
182.1828277781989
 20
385.5017733127872
 42
0.0
 10
182.1828277781989
 20
384.9017733127873
 42
0.0
 10
181.682827778199
 20
382.5529905716639
 42
0.0
 10
181.682827778199
 20
380.9017733127872
 42
0.0
 10
183.1313228837774
 20
380.9017733127872
 42
0.0
 10
183.0865610946546
 20
382.4292132653861
 42
-1.106035930005132
 10
184.196177836297
 20
382.0752427005424
 42
0.0139448644199352
 10
184.5226759692761
 20
376.7759527075265
 42
0.0
 10
185.6828277781991
 20
376.7759527075266
 42
0.0
 97
       20
330
DF6
330
DF1
330
DF4
330
DF5
330
5DA
330
5B2
330
FC7
330
FC8
330
FC6
330
FBE
330
5E5
330
FC0
330
FBF
330
FC5
330
FC2
330
FC1
330
FC4
330
FC3
330
DD8
330
FCA
 75
     0
 76
     1
 52
45.0
 41
10.0
 77
     0
 78
     2
 53
45.0
 43
0.0
 44
0.0
 45
-0.8838834764831842
 46
0.8838834764831844
 79
     0
 53
135.0
 43
0.0
 44
0.0
 45
-0.8838834764831844
 46
-0.8838834764831842
 79
     0
 47
0.1254958182284075
 98
        2
 10
260.350626321268
 20
391.8524858481926
 10
185.2510487107611
 20
390.9740156040411
  0
LINE
  5
1020
330
1E
100
AcDbEntity
  8
STEMPEL
100
AcDbLine
 10
185.6828277781992
 20
401.0017733127873
 30
0.0
 11
73.88117236006127
 21
401.0017733127873
 31
0.0
  0
LINE
  5
1021
330
1E
100
AcDbEntity
  8
STEMPEL
100
AcDbLine
 10
185.6828277781991
 20
401.0017733127872
 30
0.0
 11
177.132827778199
 21
401.0017733127872
 31
0.0
  0
LINE
  5
1034
330
1E
100
AcDbEntity
  8
TEXT
 62
     2
100
AcDbLine
 10
287.7902926635047
 20
522.2461842202407
 30
0.0
 11
283.9648542509703
 21
511.460962817518
 31
0.0
  0
LINE
  5
1035
330
1E
100
AcDbEntity
  8
TEXT
 62
     2
100
AcDbLine
 10
282.5363158238766
 20
507.4334236031834
 30
0.0
 11
271.8994268575612
 21
477.4443896242289
 31
0.0
  0
LINE
  5
1037
330
1E
100
AcDbEntity
  8
STEMPEL
100
AcDbLine
 10
186.1828277781991
 20
376.7759527075265
 30
0.0
 11
184.5226759692761
 21
376.7759527075265
 31
0.0
  0
LINE
  5
1038
330
1E
100
AcDbEntity
  8
STEMPEL
100
AcDbLine
 10
186.1828277781991
 20
375.0017733127874
 30
0.0
 11
175.932827778199
 21
375.0017733127874
 31
0.0
  0
LINE
  5
1039
330
1E
100
AcDbEntity
  8
STEMPEL
100
AcDbLine
 10
185.6828277781991
 20
370.0017733127874
 30
0.0
 11
179.2696562080544
 21
370.0017733127873
 31
0.0
  0
LINE
  5
103A
330
1E
100
AcDbEntity
  8
STEMPEL
100
AcDbLine
 10
185.6828277781991
 20
371.5017733127875
 30
0.0
 11
179.2696562080544
 21
371.5017733127875
 31
0.0
  0
LINE
  5
103B
330
1E
100
AcDbEntity
  8
STEMPEL
100
AcDbLine
 10
185.6828277781991
 20
374.0017733127873
 30
0.0
 11
175.932827778199
 21
374.0017733127873
 31
0.0
  0
DIMENSION
  5
103D
330
1E
100
AcDbEntity
  8
BEM
100
AcDbDimension
  2
*D6
 10
82.57387203666821
 20
400.0017733127873
 30
0.0
 11
82.57387203666814
 21
440.5017733127873
 31
0.0
 70
   160
  1
min.15-max.130
 71
     5
 42
81.0
  3
Standard
100
AcDbAlignedDimension
 13
171.682827778199
 23
481.0017733127873
 33
0.0
 14
114.6886019999823
 24
400.0017733127873
 34
0.0
 50
90.0
100
AcDbRotatedDimension
1001
ACAD
1000
DSTYLE
1002
{
1070
    40
1040
2.0
1070
    41
1040
3.5
1070
    42
1040
1.0
1070
    43
1040
7.0
1070
    44
1040
1.0
1070
    73
1070
     0
1070
    74
1070
     0
1070
    77
1070
     1
1070
    78
1070
     8
1070
    79
1070
     2
1070
   140
1040
3.5
1070
   141
1040
1.5
1070
   146
1040
0.5142857142857144
1070
   147
1040
1.5
1070
   172
1070
     1
1070
   178
1070
     1
1070
   179
1070
     2
1070
   271
1070
     2
1070
   272
1070
     2
1070
   284
1070
     8
1070
   285
1070
     8
1070
   286
1070
     8
1002
}
  0
TEXT
  5
10A1
330
1E
100
AcDbEntity
  8
TEXT
 62
     1
100
AcDbText
 10
215.9256926909558
 20
218.372783419942
 30
0.0
 40
7.0
  1
DN70
 50
90.0
 41
0.8
  7
GREEKS
100
AcDbText
  0
HATCH
  5
11D9
330
1E
100
AcDbEntity
  8
SCHRAFF
100
AcDbHatch
 10
0.0
 20
0.0
 30
0.0
210
0.0
220
0.0
230
1.0
  2
_USER
 70
     0
 71
     0
 91
        2
 92
        7
 72
     1
 73
     1
 93
        5
 10
267.2377097734628
 20
370.2444608391878
 42
-0.0513986771324457
 10
265.0959993483437
 20
370.023715503556
 42
0.0
 10
263.8087225260767
 20
370.023715503556
 42
0.0
 10
265.1818989330275
 20
369.2025050826569
 42
0.0
 10
264.1385954764162
 20
367.4579586723221
 42
0.3642267551591511
 97
        0
 92
        7
 72
     1
 73
     1
 93
        6
 10
180.5569330303215
 20
370.023715503556
 42
0.0
 10
179.2696562080544
 20
370.023715503556
 42
-0.0484392373546936
 10
177.2494730605495
 20
370.2198880568963
 42
0.3717086428493946
 10
180.6727336349855
 20
366.6871157814794
 42
0.0143356972973194
 10
180.4487098129538
 20
367.0873299318942
 42
0.0
 10
179.1837566233706
 20
369.202505082657
 42
0.0
 97
        0
 75
     0
 76
     0
 52
0.0
 41
0.1
 77
     0
 78
     1
 53
0.0
 43
-10.00000000000062
 44
-60.32085537787725
 45
0.0
 46
0.1
 79
     0
 47
0.1434194138797327
 98
        2
 10
265.6819379273614
 20
368.4144131277321
 10
178.5647798234279
 20
369.2749297597647
  0
HATCH
  5
11DA
330
1E
100
AcDbEntity
  8
SCHRAFF
100
AcDbHatch
 10
0.0
 20
0.0
 30
0.0
210
0.0
220
0.0
230
1.0
  2
_USER
 70
     0
 71
     1
 91
        2
 92
        7
 72
     1
 73
     1
 93
       18
 10
258.682827778199
 20
319.8801219641072
 42
-0.1316524975874019
 10
259.7546245479236
 20
323.8801219641073
 42
0.0
 10
261.4966716545296
 20
326.8974360619272
 42
0.1316524975873967
 10
262.7828277781991
 20
331.6974360619272
 42
0.0
 10
262.7828277781991
 20
362.9812778273988
 42
-0.1355651627426997
 10
263.9169457434443
 20
367.0873299318942
 42
0.0
 10
265.1818989330275
 20
369.2025050826569
 42
0.0
 10
263.8087225260767
 20
370.023715503556
 42
0.0
 10
262.5437693364934
 20
367.9085403527934
 42
0.1355651627427074
 10
261.1828277781991
 20
362.9812778273987
 42
0.0
 10
261.1828277781991
 20
331.6974360619272
 42
-0.1316524975873964
 10
260.1110310084745
 20
327.6974360619272
 42
0.0
 10
258.3689839018685
 20
324.6801219641072
 42
0.1316524975873998
 10
257.082827778199
 20
319.8801219641071
 42
0.0
 10
257.0828277781991
 20
160.0656129780665
 42
0.0
 10
256.5565542317721
 20
150.023715503556
 42
0.0
 10
258.1587499853687
 20
150.0237155035561
 42
0.0
 10
258.682827778199
 20
160.0237155035568
 42
0.0
 97
       18
330
11E5
330
121F
330
11DF
330
1218
330
11E6
330
127F
330
1280
330
1281
330
11E0
330
1217
330
11E4
330
1220
330
11DE
330
11F0
330
11F7
330
11FB
330
11F6
330
11EF
 92
        7
 72
     1
 73
     1
 93
       18
 10
187.2828277781991
 20
319.8801219641072
 42
0.1316524975873869
 10
185.9966716545297
 20
324.6801219641068
 42
0.0
 10
184.2546245479235
 20
327.6974360619273
 42
-0.1316524975873982
 10
183.182827778199
 20
331.6974360619274
 42
0.0
 10
183.182827778199
 20
362.9812778273988
 42
0.1355651627427037
 10
181.8218862199048
 20
367.9085403527934
 42
0.0
 10
180.5569330303215
 20
370.023715503556
 42
0.0
 10
179.1837566233705
 20
369.202505082657
 42
0.0
 10
180.4487098129538
 20
367.0873299318942
 42
-0.1355651627426995
 10
181.582827778199
 20
362.9812778273988
 42
0.0
 10
181.582827778199
 20
331.6974360619274
 42
0.1316524975873976
 10
182.8689839018684
 20
326.8974360619273
 42
0.0
 10
184.6110310084745
 20
323.8801219641071
 42
-0.1316524975873983
 10
185.682827778199
 20
319.8801219641071
 42
0.0
 10
185.682827778199
 20
160.0237155035555
 42
0.0
 10
186.2069055710294
 20
150.023715503556
 42
0.0
 10
187.809101324626
 20
150.023715503556
 42
0.0
 10
187.2828277781991
 20
160.0656129780657
 42
0.0
 97
       18
330
11DB
330
121E
330
11E2
330
1219
330
11DD
330
1239
330
1237
330
1236
330
11E3
330
121A
330
11DC
330
121D
330
11E1
330
11EE
330
11F8
330
11FB
330
11F9
330
11F1
 75
     0
 76
     0
 52
135.0
 41
2.0
 77
     0
 78
     1
 53
135.0
 43
-10.00000000000062
 44
-60.32085537787725
 45
-1.414213562373095
 46
-1.414213562373094
 79
     0
 47
0.4704890839850381
 98
        2
 10
258.1963227663967
 20
273.607757751096
 10
186.6314006679543
 20
271.2553120364171
  0
ARC
  5
11DB
102
{ACAD_REACTORS
330
11DA
102
}
330
1E
100
AcDbEntity
  8
STEMPEL
100
AcDbCircle
 10
177.682827778199
 20
319.8801219641072
 30
0.0
 40
9.599999999999999
100
AcDbArc
 50
0.0
 51
30.00000000000055
  0
ARC
  5
11DC
102
{ACAD_REACTORS
330
11DA
102
}
330
1E
100
AcDbEntity
  8
STEMPEL
100
AcDbCircle
 10
191.182827778199
 20
331.6974360619274
 30
0.0
 40
9.599999999999999
100
AcDbArc
 50
180.0
 51
210.0000000000005
  0
ARC
  5
11DD
102
{ACAD_REACTORS
330
11DA
102
}
330
1E
100
AcDbEntity
  8
STEMPEL
100
AcDbCircle
 10
173.582827778199
 20
362.9812778273988
 30
0.0
 40
9.599999999999999
100
AcDbArc
 50
0.0
 51
30.88098894007179
  0
ARC
  5
11DE
102
{ACAD_REACTORS
330
11DA
102
}
330
1E
100
AcDbEntity
  8
STEMPEL
100
AcDbCircle
 10
266.682827778199
 20
319.8801219641072
 30
0.0
 40
9.599999999999999
100
AcDbArc
 50
149.9999999999994
 51
180.0
  0
ARC
  5
11DF
102
{ACAD_REACTORS
330
11DA
102
}
330
1E
100
AcDbEntity
  8
STEMPEL
100
AcDbCircle
 10
253.1828277781991
 20
331.6974360619272
 30
0.0
 40
9.599999999999999
100
AcDbArc
 50
329.9999999999995
 51
0.0
  0
ARC
  5
11E0
102
{ACAD_REACTORS
330
11DA
102
}
330
1E
100
AcDbEntity
  8
STEMPEL
100
AcDbCircle
 10
270.7828277781991
 20
362.9812778273988
 30
0.0
 40
9.599999999999999
100
AcDbArc
 50
149.1190110599282
 51
180.0
  0
ARC
  5
11E1
102
{ACAD_REACTORS
330
11DA
102
}
330
1E
100
AcDbEntity
  8
STEMPEL
100
AcDbCircle
 10
177.682827778199
 20
319.8801219641072
 30
0.0
 40
8.0
100
AcDbArc
 50
0.0
 51
30.00000000000055
  0
ARC
  5
11E2
102
{ACAD_REACTORS
330
11DA
102
}
330
1E
100
AcDbEntity
  8
STEMPEL
100
AcDbCircle
 10
191.182827778199
 20
331.6974360619274
 30
0.0
 40
8.0
100
AcDbArc
 50
180.0
 51
210.0000000000005
  0
ARC
  5
11E3
102
{ACAD_REACTORS
330
11DA
102
}
330
1E
100
AcDbEntity
  8
STEMPEL
100
AcDbCircle
 10
173.582827778199
 20
362.9812778273988
 30
0.0
 40
8.0
100
AcDbArc
 50
0.0
 51
30.88098894007179
  0
ARC
  5
11E4
102
{ACAD_REACTORS
330
11DA
102
}
330
1E
100
AcDbEntity
  8
STEMPEL
100
AcDbCircle
 10
253.1828277781991
 20
331.6974360619272
 30
0.0
 40
8.0
100
AcDbArc
 50
329.9999999999995
 51
0.0
  0
ARC
  5
11E5
102
{ACAD_REACTORS
330
11DA
102
}
330
1E
100
AcDbEntity
  8
STEMPEL
100
AcDbCircle
 10
266.682827778199
 20
319.8801219641072
 30
0.0
 40
8.0
100
AcDbArc
 50
149.9999999999994
 51
180.0
  0
ARC
  5
11E6
102
{ACAD_REACTORS
330
11DA
102
}
330
1E
100
AcDbEntity
  8
STEMPEL
100
AcDbCircle
 10
270.7828277781991
 20
362.9812778273988
 30
0.0
 40
8.0
100
AcDbArc
 50
149.1190110599282
 51
180.0
  0
LINE
  5
11EE
102
{ACAD_REACTORS
330
11DA
102
}
330
1E
100
AcDbEntity
  8
STEMPEL
100
AcDbLine
 10
185.682827778199
 20
319.8801219641072
 30
0.0
 11
185.682827778199
 21
160.0237155035561
 31
0.0
  0
LINE
  5
11EF
102
{ACAD_REACTORS
330
11DA
102
}
330
1E
100
AcDbEntity
  8
STEMPEL
100
AcDbLine
 10
258.682827778199
 20
319.8801219641072
 30
0.0
 11
258.682827778199
 21
160.0237155035561
 31
0.0
  0
LINE
  5
11F0
102
{ACAD_REACTORS
330
11DA
102
}
330
1E
100
AcDbEntity
  8
STEMPEL
100
AcDbLine
 10
257.082827778199
 20
319.8801219641072
 30
0.0
 11
257.082827778199
 21
160.0656129780659
 31
0.0
  0
LINE
  5
11F1
102
{ACAD_REACTORS
330
11DA
102
}
330
1E
100
AcDbEntity
  8
STEMPEL
100
AcDbLine
 10
187.2828277781991
 20
319.8801219641072
 30
0.0
 11
187.2828277781991
 21
160.065612978066
 31
0.0
  0
TEXT
  5
11F3
330
1E
100
AcDbEntity
  8
TEXT
 62
     1
100
AcDbText
 10
284.0884725209297
 20
239.0440956770084
 30
0.0
 40
7.0
  1
Ablauftopf DN70
 41
0.8
  7
GREEKS
100
AcDbText
  0
LINE
  5
11F5
330
1E
100
AcDbEntity
  8
TEXT
 62
     2
100
AcDbLine
 10
283.8830352896291
 20
236.0875573127966
 30
0.0
 11
388.9005737218226
 21
236.0875573127966
 31
0.0
  0
LINE
  5
11F6
102
{ACAD_REACTORS
330
11DA
102
}
330
1E
100
AcDbEntity
  8
STEMPEL
100
AcDbLine
 10
258.682827778199
 20
160.0237155035561
 30
0.0
 11
258.1587499853687
 21
150.023715503556
 31
0.0
  0
LINE
  5
11F7
102
{ACAD_REACTORS
330
11DA
102
}
330
1E
100
AcDbEntity
  8
STEMPEL
100
AcDbLine
 10
257.082827778199
 20
160.0656129780659
 30
0.0
 11
256.556554231772
 21
150.023715503556
 31
0.0
  0
LINE
  5
11F8
102
{ACAD_REACTORS
330
11DA
102
}
330
1E
100
AcDbEntity
  8
STEMPEL
100
AcDbLine
 10
185.682827778199
 20
160.0237155035561
 30
0.0
 11
186.2069055710294
 21
150.023715503556
 31
0.0
  0
LINE
  5
11F9
102
{ACAD_REACTORS
330
11DA
102
}
330
1E
100
AcDbEntity
  8
STEMPEL
100
AcDbLine
 10
187.2828277781991
 20
160.065612978066
 30
0.0
 11
187.809101324626
 21
150.023715503556
 31
0.0
  0
DIMENSION
  5
11FA
330
1E
100
AcDbEntity
  8
BEM
100
AcDbDimension
  2
*D7
 10
258.682827778199
 20
124.5580755371805
 30
0.0
 11
222.1828277781991
 21
131.0580755371805
 31
0.0
 70
    32
  1
%%C<>
 71
     5
 42
73.0
  3
Standard
100
AcDbAlignedDimension
 13
185.682827778199
 23
160.0237155035561
 33
0.0
 14
258.682827778199
 24
160.0237155035561
 34
0.0
100
AcDbRotatedDimension
1001
ACAD
1000
DSTYLE
1002
{
1070
    40
1040
2.0
1070
    41
1040
3.5
1070
    42
1040
1.0
1070
    43
1040
7.0
1070
    44
1040
1.0
1070
    73
1070
     0
1070
    74
1070
     0
1070
    77
1070
     1
1070
    78
1070
     8
1070
    79
1070
     2
1070
   140
1040
3.5
1070
   141
1040
1.5
1070
   146
1040
0.5142857142857144
1070
   147
1040
1.5
1070
   172
1070
     1
1070
   178
1070
     1
1070
   179
1070
     2
1070
   271
1070
     2
1070
   272
1070
     2
1070
   284
1070
     8
1070
   285
1070
     8
1070
   286
1070
     8
1002
}
  0
LINE
  5
11FB
102
{ACAD_REACTORS
330
11DA
102
}
330
1E
100
AcDbEntity
  8
STEMPEL
100
AcDbLine
 10
258.1587499853687
 20
150.023715503556
 30
0.0
 11
186.2069055710294
 21
150.023715503556
 31
0.0
  0
LINE
  5
11FC
330
1E
100
AcDbEntity
  8
HILF
100
AcDbLine
 10
255.482827778199
 20
160.023715503556
 30
0.0
 11
188.8828277781989
 21
160.023715503556
 31
0.0
  0
LINE
  5
11FD
330
1E
100
AcDbEntity
  8
TEXT
 62
     2
100
AcDbLine
 10
283.8830352896291
 20
236.0875573127966
 30
0.0
 11
258.0857426959746
 21
228.6865174536664
 31
0.0
  0
LINE
  5
1217
102
{ACAD_REACTORS
330
11DA
102
}
330
1E
100
AcDbEntity
  8
STEMPEL
100
AcDbLine
 10
261.1828277781991
 20
362.9812778273988
 30
0.0
 11
261.1828277781991
 21
331.6974360619272
 31
0.0
  0
LINE
  5
1218
102
{ACAD_REACTORS
330
11DA
102
}
330
1E
100
AcDbEntity
  8
STEMPEL
100
AcDbLine
 10
262.7828277781991
 20
362.9812778273988
 30
0.0
 11
262.7828277781991
 21
331.6974360619272
 31
0.0
  0
LINE
  5
1219
102
{ACAD_REACTORS
330
11DA
102
}
330
1E
100
AcDbEntity
  8
STEMPEL
100
AcDbLine
 10
183.182827778199
 20
362.9812778273988
 30
0.0
 11
183.182827778199
 21
331.6974360619274
 31
0.0
  0
LINE
  5
121A
102
{ACAD_REACTORS
330
11DA
102
}
330
1E
100
AcDbEntity
  8
STEMPEL
100
AcDbLine
 10
181.582827778199
 20
362.9812778273988
 30
0.0
 11
181.582827778199
 21
331.6974360619274
 31
0.0
  0
LINE
  5
121B
330
1E
100
AcDbEntity
  8
HILF
100
AcDbLine
 10
185.1524872623052
 20
329.5538425224781
 30
0.0
 11
259.2131682940931
 21
329.5538425224782
 31
0.0
  0
LINE
  5
121C
330
1E
100
AcDbEntity
  8
HILF
100
AcDbLine
 10
188.5834337109989
 20
322.4524342114457
 30
0.0
 11
255.7822218453992
 21
322.4524342114458
 31
0.0
  0
LINE
  5
121D
102
{ACAD_REACTORS
330
11DA
102
}
330
1E
100
AcDbEntity
  8
STEMPEL
100
AcDbLine
 10
184.6110310084745
 20
323.8801219641071
 30
0.0
 11
182.8689839018684
 21
326.8974360619273
 31
0.0
  0
LINE
  5
121E
102
{ACAD_REACTORS
330
11DA
102
}
330
1E
100
AcDbEntity
  8
STEMPEL
100
AcDbLine
 10
185.9966716545296
 20
324.6801219641071
 30
0.0
 11
184.2546245479235
 21
327.6974360619273
 31
0.0
  0
LINE
  5
121F
102
{ACAD_REACTORS
330
11DA
102
}
330
1E
100
AcDbEntity
  8
STEMPEL
100
AcDbLine
 10
259.7546245479235
 20
323.8801219641071
 30
0.0
 11
261.4966716545296
 21
326.8974360619272
 31
0.0
  0
LINE
  5
1220
102
{ACAD_REACTORS
330
11DA
102
}
330
1E
100
AcDbEntity
  8
STEMPEL
100
AcDbLine
 10
258.3689839018685
 20
324.6801219641072
 30
0.0
 11
260.1110310084745
 21
327.6974360619272
 31
0.0
  0
LINE
  5
1221
330
1E
100
AcDbEntity
  8
HILF
100
AcDbLine
 10
185.682827778199
 20
365.8386092563352
 30
0.0
 11
184.4122163622887
 21
365.8386092563352
 31
0.0
  0
LINE
  5
1236
102
{ACAD_REACTORS
330
11DA
102
}
330
1E
100
AcDbEntity
  8
STEMPEL
100
AcDbLine
 10
179.1837566233706
 20
369.2025050826569
 30
0.0
 11
180.4487098129538
 21
367.0873299318942
 31
0.0
  0
LINE
  5
1237
102
{ACAD_REACTORS
330
11DA
102
}
330
1E
100
AcDbEntity
  8
STEMPEL
100
AcDbLine
 10
180.5569330303215
 20
370.023715503556
 30
0.0
 11
179.1837566233706
 21
369.2025050826569
 31
0.0
  0
ARC
  5
1238
330
1E
100
AcDbEntity
  8
SCHRAFF
100
AcDbCircle
 10
181.0088487214559
 20
370.4377696437199
 30
0.0
 40
3.76568423340195
100
AcDbArc
 50
183.3169725564745
 51
265.1259979645868
  0
LINE
  5
1239
102
{ACAD_REACTORS
330
11DA
102
}
330
1E
100
AcDbEntity
  8
STEMPEL
100
AcDbLine
 10
180.5569330303215
 20
370.023715503556
 30
0.0
 11
181.8218862199048
 21
367.9085403527934
 31
0.0
  0
LINE
  5
1279
330
1E
100
AcDbEntity
  8
HILF
100
AcDbLine
 10
258.682827778199
 20
365.8386092563353
 30
0.0
 11
259.9534391941094
 21
365.8386092563353
 31
0.0
  0
ARC
  5
127D
330
1E
100
AcDbEntity
  8
SCHRAFF
100
AcDbCircle
 10
264.0292673229055
 20
370.696202096987
 30
0.0
 40
3.240088443628633
100
AcDbArc
 50
271.9336604989976
 51
351.985569322834
  0
LINE
  5
127F
102
{ACAD_REACTORS
330
11DA
102
}
330
1E
100
AcDbEntity
  8
STEMPEL
100
AcDbLine
 10
265.1818989330275
 20
369.2025050826569
 30
0.0
 11
263.9169457434443
 21
367.0873299318942
 31
0.0
  0
LINE
  5
1280
102
{ACAD_REACTORS
330
11DA
102
}
330
1E
100
AcDbEntity
  8
STEMPEL
100
AcDbLine
 10
263.8087225260767
 20
370.023715503556
 30
0.0
 11
265.1818989330275
 21
369.2025050826569
 31
0.0
  0
LINE
  5
1281
102
{ACAD_REACTORS
330
11DA
102
}
330
1E
100
AcDbEntity
  8
STEMPEL
100
AcDbLine
 10
263.8087225260767
 20
370.023715503556
 30
0.0
 11
262.5437693364934
 21
367.9085403527934
 31
0.0
  0
ENDSEC
  0
SECTION
  2
OBJECTS
  0
DICTIONARY
  5
C
330
0
100
AcDbDictionary
281
     1
  3
ACAD_COLOR
350
DF
  3
ACAD_GROUP
350
D
  3
ACAD_LAYOUT
350
19
  3
ACAD_MATERIAL
350
DE
  3
ACAD_MLINESTYLE
350
16
  3
ACAD_PLOTSETTINGS
350
18
  3
ACAD_PLOTSTYLENAME
350
E
  3
AcDbVariableDictionary
350
EA
  0
DICTIONARY
  5
A0
330
1E
100
AcDbDictionary
280
     1
281
     1
  3
ACAD_LAYOUTSELFREF
360
D4
  0
DICTIONARY
  5
A2
330
1A
100
AcDbDictionary
280
     1
281
     1
  3
ACAD_LAYOUTSELFREF
360
D3
  0
DICTIONARY
  5
DF
102
{ACAD_REACTORS
330
C
102
}
330
C
100
AcDbDictionary
281
     1
  0
DICTIONARY
  5
D
102
{ACAD_REACTORS
330
C
102
}
330
C
100
AcDbDictionary
281
     1
  0
DICTIONARY
  5
19
102
{ACAD_REACTORS
330
C
102
}
330
C
100
AcDbDictionary
281
     1
  3
Layout1
350
1D
  3
Model
350
21
  0
DICTIONARY
  5
DE
102
{ACAD_REACTORS
330
C
102
}
330
C
100
AcDbDictionary
281
     1
  0
DICTIONARY
  5
16
102
{ACAD_REACTORS
330
C
102
}
330
C
100
AcDbDictionary
281
     1
  3
Standard
350
17
  0
DICTIONARY
  5
18
102
{ACAD_REACTORS
330
C
102
}
330
C
100
AcDbDictionary
281
     1
  0
ACDBDICTIONARYWDFLT
  5
E
102
{ACAD_REACTORS
330
C
102
}
330
C
100
AcDbDictionary
281
     1
  3
Normal
350
F
100
AcDbDictionaryWithDefault
340
F
  0
DICTIONARY
  5
EA
102
{ACAD_REACTORS
330
C
102
}
330
C
100
AcDbDictionary
281
     1
  3
DIMASSOC
350
EB
  3
PROJECTNAME
350
EC
  0
XRECORD
  5
D4
102
{ACAD_REACTORS
330
A0
102
}
330
A0
100
AcDbXrecord
280
     1
340
1E
  0
XRECORD
  5
D3
102
{ACAD_REACTORS
330
A2
102
}
330
A2
100
AcDbXrecord
280
     1
340
1A
  0
LAYOUT
  5
1D
102
{ACAD_REACTORS
330
19
102
}
330
19
100
AcDbPlotSettings
  1

  2
\\NT_WORK01\HP LaserJet 5000 PCL 6
  4

  6

 40
0.0
 41
0.0
 42
0.0
 43
0.0
 44
0.0
 45
0.0
 46
0.0
 47
0.0
 48
0.0
 49
0.0
140
0.0
141
0.0
142
1.0
143
1.0
 70
   688
 72
     0
 73
     0
 74
     5
  7

 75
    16
147
1.0
 76
     0
 77
     2
 78
   300
148
0.0
149
0.0
100
AcDbLayout
  1
Layout1
 70
     0
 71
     1
 10
0.0
 20
0.0
 11
12.0
 21
9.0
 12
0.0
 22
0.0
 32
0.0
 14
1.000000000000000E+20
 24
1.000000000000000E+20
 34
1.000000000000000E+20
 15
-1.000000000000000E+20
 25
-1.000000000000000E+20
 35
-1.000000000000000E+20
146
0.0
 13
0.0
 23
0.0
 33
0.0
 16
1.0
 26
0.0
 36
0.0
 17
0.0
 27
1.0
 37
0.0
 76
     0
330
1A
  0
LAYOUT
  5
21
102
{ACAD_REACTORS
330
19
102
}
330
19
100
AcDbPlotSettings
  1

  2
none_device
  4
Letter_(8.50_x_11.00_Inches)
  6

 40
6.349999904632568
 41
6.349999904632568
 42
6.350006103515625
 43
6.350006103515625
 44
215.8999938964844
 45
279.3999938964844
 46
0.0
 47
0.0
 48
0.0
 49
0.0
140
0.0
141
0.0
142
1.0
143
1.0
 70
 11952
 72
     0
 73
     1
 74
     0
  7

 75
     0
147
1.0
 76
     0
 77
     2
 78
   300
148
2271.333456942212
149
61.49965497069038
100
AcDbLayout
  1
Model
 70
     1
 71
     0
 10
0.0
 20
0.0
 11
12.0
 21
9.0
 12
0.0
 22
0.0
 32
0.0
 14
0.0
 24
0.0
 34
0.0
 15
0.0
 25
0.0
 35
0.0
146
0.0
 13
0.0
 23
0.0
 33
0.0
 16
1.0
 26
0.0
 36
0.0
 17
0.0
 27
1.0
 37
0.0
 76
     0
330
1E
  0
MLINESTYLE
  5
17
102
{ACAD_REACTORS
330
16
102
}
330
16
100
AcDbMlineStyle
  2
STANDARD
 70
     0
  3

 62
   256
 51
90.0
 52
90.0
 71
     2
 49
0.5
 62
   256
  6
BYLAYER
 49
-0.5
 62
   256
  6
BYLAYER
  0
ACDBPLACEHOLDER
  5
F
102
{ACAD_REACTORS
330
E
102
}
330
E
  0
DICTIONARYVAR
  5
EB
102
{ACAD_REACTORS
330
EA
102
}
330
EA
100
DictionaryVariables
280
     0
  1
1
  0
DICTIONARYVAR
  5
EC
102
{ACAD_REACTORS
330
EA
102
}
330
EA
100
DictionaryVariables
280
     0
  1

  0
ENDSEC
  0
EOF
