  0
SECTION
  2
HEADER
  9
$ACADVER
  1
AC1018
  9
$ACADMAINTVER
 70
     2
  9
$DWGCODEPAGE
  3
ANSI_1252
  9
$INSBASE
 10
0.0
 20
0.0
 30
0.0
  9
$EXTMIN
 10
-0.0224219603363736
 20
-0.0317110581900124
 30
-0.0000000000000053
  9
$EXTMAX
 10
420.0288425339736
 20
594.0407915837629
 30
0.0000000000000099
  9
$LIMMIN
 10
0.0
 20
0.0
  9
$LIMMAX
 10
419.9999999999999
 20
594.0
  9
$ORTHOMODE
 70
     1
  9
$REGENMODE
 70
     1
  9
$FILLMODE
 70
     1
  9
$QTEXTMODE
 70
     0
  9
$MIRRTEXT
 70
     1
  9
$LTSCALE
 40
20.0
  9
$ATTMODE
 70
     1
  9
$TEXTSIZE
 40
3.5
  9
$TRACEWID
 40
0.5
  9
$TEXTSTYLE
  7
STANDARD
  9
$CLAYER
  8
VOLL
  9
$CELTYPE
  6
ByLayer
  9
$CECOLOR
 62
   256
  9
$CELTSCALE
 40
1.0
  9
$DISPSILH
 70
     0
  9
$DIMSCALE
 40
2.0
  9
$DIMASZ
 40
3.5
  9
$DIMEXO
 40
1.0
  9
$DIMDLI
 40
7.0
  9
$DIMRND
 40
0.0
  9
$DIMDLE
 40
0.0
  9
$DIMEXE
 40
1.0
  9
$DIMTP
 40
0.0
  9
$DIMTM
 40
0.0
  9
$DIMTXT
 40
3.5
  9
$DIMCEN
 40
1.5
  9
$DIMTSZ
 40
0.0
  9
$DIMTOL
 70
     0
  9
$DIMLIM
 70
     0
  9
$DIMTIH
 70
     0
  9
$DIMTOH
 70
     0
  9
$DIMSE1
 70
     0
  9
$DIMSE2
 70
     0
  9
$DIMTAD
 70
     1
  9
$DIMZIN
 70
     8
  9
$DIMBLK
  1

  9
$DIMASO
 70
     1
  9
$DIMSHO
 70
     0
  9
$DIMPOST
  1

  9
$DIMAPOST
  1

  9
$DIMALT
 70
     0
  9
$DIMALTD
 70
     2
  9
$DIMALTF
 40
25.4
  9
$DIMLFAC
 40
1.0
  9
$DIMTOFL
 70
     1
  9
$DIMTVP
 40
0.0
  9
$DIMTIX
 70
     0
  9
$DIMSOXD
 70
     0
  9
$DIMSAH
 70
     0
  9
$DIMBLK1
  1

  9
$DIMBLK2
  1

  9
$DIMSTYLE
  2
Standard
  9
$DIMCLRD
 70
     0
  9
$DIMCLRE
 70
     0
  9
$DIMCLRT
 70
     1
  9
$DIMTFAC
 40
0.5142857142857144
  9
$DIMGAP
 40
1.5
  9
$DIMJUST
 70
     0
  9
$DIMSD1
 70
     0
  9
$DIMSD2
 70
     0
  9
$DIMTOLJ
 70
     1
  9
$DIMTZIN
 70
     8
  9
$DIMALTZ
 70
     8
  9
$DIMALTTZ
 70
     8
  9
$DIMUPT
 70
     0
  9
$DIMDEC
 70
     2
  9
$DIMTDEC
 70
     2
  9
$DIMALTU
 70
     2
  9
$DIMALTTD
 70
     2
  9
$DIMTXSTY
  7
STANDARD
  9
$DIMAUNIT
 70
     0
  9
$DIMADEC
 70
     2
  9
$DIMALTRND
 40
0.0
  9
$DIMAZIN
 70
     2
  9
$DIMDSEP
 70
    46
  9
$DIMATFIT
 70
     3
  9
$DIMFRAC
 70
     0
  9
$DIMLDRBLK
  1

  9
$DIMLUNIT
 70
     2
  9
$DIMLWD
 70
    -2
  9
$DIMLWE
 70
    -2
  9
$DIMTMOVE
 70
     0
  9
$LUNITS
 70
     2
  9
$LUPREC
 70
     2
  9
$SKETCHINC
 40
1.0
  9
$FILLETRAD
 40
0.0
  9
$AUNITS
 70
     0
  9
$AUPREC
 70
     0
  9
$MENU
  1
ACAD
  9
$ELEVATION
 40
0.0
  9
$PELEVATION
 40
0.0
  9
$THICKNESS
 40
0.0
  9
$LIMCHECK
 70
     0
  9
$CHAMFERA
 40
0.0
  9
$CHAMFERB
 40
0.0
  9
$CHAMFERC
 40
0.0
  9
$CHAMFERD
 40
0.0
  9
$SKPOLY
 70
     0
  9
$TDCREATE
 40
2455397.864709028
  9
$TDUCREATE
 40
2455397.781375695
  9
$TDUPDATE
 40
2455460.452920405
  9
$TDUUPDATE
 40
2455460.369587072
  9
$TDINDWG
 40
0.0325885648
  9
$TDUSRTIMER
 40
0.0325885648
  9
$USRTIMER
 70
     1
  9
$ANGBASE
 50
0.0
  9
$ANGDIR
 70
     0
  9
$PDMODE
 70
     0
  9
$PDSIZE
 40
0.0
  9
$PLINEWID
 40
0.0
  9
$SPLFRAME
 70
     0
  9
$SPLINETYPE
 70
     6
  9
$SPLINESEGS
 70
     8
  9
$HANDSEED
  5
942
  9
$SURFTAB1
 70
     6
  9
$SURFTAB2
 70
     6
  9
$SURFTYPE
 70
     6
  9
$SURFU
 70
     6
  9
$SURFV
 70
     6
  9
$UCSBASE
  2

  9
$UCSNAME
  2

  9
$UCSORG
 10
0.0
 20
0.0
 30
0.0
  9
$UCSXDIR
 10
1.0
 20
0.0
 30
0.0
  9
$UCSYDIR
 10
0.0
 20
1.0
 30
0.0
  9
$UCSORTHOREF
  2

  9
$UCSORTHOVIEW
 70
     0
  9
$UCSORGTOP
 10
0.0
 20
0.0
 30
0.0
  9
$UCSORGBOTTOM
 10
0.0
 20
0.0
 30
0.0
  9
$UCSORGLEFT
 10
0.0
 20
0.0
 30
0.0
  9
$UCSORGRIGHT
 10
0.0
 20
0.0
 30
0.0
  9
$UCSORGFRONT
 10
0.0
 20
0.0
 30
0.0
  9
$UCSORGBACK
 10
0.0
 20
0.0
 30
0.0
  9
$PUCSBASE
  2

  9
$PUCSNAME
  2

  9
$PUCSORG
 10
0.0
 20
0.0
 30
0.0
  9
$PUCSXDIR
 10
1.0
 20
0.0
 30
0.0
  9
$PUCSYDIR
 10
0.0
 20
1.0
 30
0.0
  9
$PUCSORTHOREF
  2

  9
$PUCSORTHOVIEW
 70
     0
  9
$PUCSORGTOP
 10
0.0
 20
0.0
 30
0.0
  9
$PUCSORGBOTTOM
 10
0.0
 20
0.0
 30
0.0
  9
$PUCSORGLEFT
 10
0.0
 20
0.0
 30
0.0
  9
$PUCSORGRIGHT
 10
0.0
 20
0.0
 30
0.0
  9
$PUCSORGFRONT
 10
0.0
 20
0.0
 30
0.0
  9
$PUCSORGBACK
 10
0.0
 20
0.0
 30
0.0
  9
$USERI1
 70
     0
  9
$USERI2
 70
     0
  9
$USERI3
 70
     0
  9
$USERI4
 70
     0
  9
$USERI5
 70
     0
  9
$USERR1
 40
0.0
  9
$USERR2
 40
0.0
  9
$USERR3
 40
0.0
  9
$USERR4
 40
0.0
  9
$USERR5
 40
0.0
  9
$WORLDVIEW
 70
     1
  9
$SHADEDGE
 70
     3
  9
$SHADEDIF
 70
    70
  9
$TILEMODE
 70
     1
  9
$MAXACTVP
 70
    16
  9
$PINSBASE
 10
0.0
 20
0.0
 30
0.0
  9
$PLIMCHECK
 70
     0
  9
$PEXTMIN
 10
1.000000000000000E+20
 20
1.000000000000000E+20
 30
1.000000000000000E+20
  9
$PEXTMAX
 10
-1.000000000000000E+20
 20
-1.000000000000000E+20
 30
-1.000000000000000E+20
  9
$PLIMMIN
 10
0.0
 20
0.0
  9
$PLIMMAX
 10
12.0
 20
9.0
  9
$UNITMODE
 70
     0
  9
$VISRETAIN
 70
     0
  9
$PLINEGEN
 70
     0
  9
$PSLTSCALE
 70
     0
  9
$TREEDEPTH
 70
  3020
  9
$CMLSTYLE
  2
Standard
  9
$CMLJUST
 70
     0
  9
$CMLSCALE
 40
1.0
  9
$PROXYGRAPHICS
 70
     1
  9
$MEASUREMENT
 70
     0
  9
$CELWEIGHT
370
    -1
  9
$ENDCAPS
280
     0
  9
$JOINSTYLE
280
     0
  9
$LWDISPLAY
290
     0
  9
$INSUNITS
 70
     0
  9
$HYPERLINKBASE
  1

  9
$STYLESHEET
  1
monochrome 1.ctb
  9
$XEDIT
290
     1
  9
$CEPSNTYPE
380
     0
  9
$PSTYLEMODE
290
     1
  9
$FINGERPRINTGUID
  2
{D68B0D02-A558-11D7-B632-000102183313}
  9
$VERSIONGUID
  2
{5CF8C61F-D9BE-48F3-AF5A-D7F7BB1B2843}
  9
$EXTNAMES
290
     1
  9
$PSVPSCALE
 40
0.0
  9
$OLESTARTUP
290
     0
  9
$SORTENTS
280
   127
  9
$INDEXCTL
280
     0
  9
$HIDETEXT
280
     0
  9
$XCLIPFRAME
290
     0
  9
$HALOGAP
280
     0
  9
$OBSCOLOR
 70
   257
  9
$OBSLTYPE
280
     0
  9
$INTERSECTIONDISPLAY
280
     0
  9
$INTERSECTIONCOLOR
 70
   257
  9
$DIMASSOC
280
     1
  9
$PROJECTNAME
  1

  0
ENDSEC
  0
SECTION
  2
CLASSES
  0
CLASS
  1
ACDBDICTIONARYWDFLT
  2
AcDbDictionaryWithDefault
  3
ObjectDBX Classes
 90
        0
 91
        1
280
     0
281
     0
  0
CLASS
  1
DICTIONARYVAR
  2
AcDbDictionaryVar
  3
ObjectDBX Classes
 90
        0
 91
        2
280
     0
281
     0
  0
ENDSEC
  0
SECTION
  2
TABLES
  0
TABLE
  2
VPORT
  5
8
330
0
100
AcDbSymbolTable
 70
     2
  0
VPORT
  5
941
330
8
100
AcDbSymbolTableRecord
100
AcDbViewportTableRecord
  2
*Active
 70
     0
 10
0.0
 20
0.0
 11
1.0
 21
1.0
 12
210.0032102868186
 22
297.0045402627865
 13
0.0
 23
0.0
 14
1.0
 24
1.0
 15
10.0
 25
10.0
 16
0.0
 26
0.0
 36
1.0
 17
0.0
 27
0.0
 37
0.0
 40
598.8698579795729
 41
1.336927223719676
 42
50.0
 43
0.0
 44
0.0
 50
0.0
 51
0.0
 71
     0
 72
  1500
 73
     1
 74
     0
 75
     0
 76
     0
 77
     0
 78
     0
281
     0
 65
     1
110
0.0
120
0.0
130
0.0
111
1.0
121
0.0
131
0.0
112
0.0
122
1.0
132
0.0
 79
     0
146
0.0
  0
ENDTAB
  0
TABLE
  2
LTYPE
  5
5
330
0
100
AcDbSymbolTable
 70
     2
  0
LTYPE
  5
13
330
5
100
AcDbSymbolTableRecord
100
AcDbLinetypeTableRecord
  2
ByBlock
 70
     0
  3

 72
    65
 73
     0
 40
0.0
  0
LTYPE
  5
14
330
5
100
AcDbSymbolTableRecord
100
AcDbLinetypeTableRecord
  2
ByLayer
 70
     0
  3

 72
    65
 73
     0
 40
0.0
  0
LTYPE
  5
15
330
5
100
AcDbSymbolTableRecord
100
AcDbLinetypeTableRecord
  2
Continuous
 70
     0
  3
Solid line
 72
    65
 73
     0
 40
0.0
  0
LTYPE
  5
25
330
5
100
AcDbSymbolTableRecord
100
AcDbLinetypeTableRecord
  2
STRICHPUNKT
 70
     0
  3
__ . __ . __ . __ . __ . __ . __ . __ . __ . __
 72
    65
 73
     4
 40
1.0
 49
0.5
 74
     0
 49
-0.25
 74
     0
 49
0.0
 74
     0
 49
-0.25
 74
     0
  0
ENDTAB
  0
TABLE
  2
LAYER
  5
2
330
0
100
AcDbSymbolTable
 70
     9
  0
LAYER
  5
10
330
2
100
AcDbSymbolTableRecord
100
AcDbLayerTableRecord
  2
0
 70
     0
 62
     7
  6
Continuous
370
    -3
390
F
  0
LAYER
  5
2A
330
2
100
AcDbSymbolTableRecord
100
AcDbLayerTableRecord
  2
VOLL
 70
     0
 62
     1
  6
Continuous
370
    -3
390
F
  0
LAYER
  5
2B
330
2
100
AcDbSymbolTableRecord
100
AcDbLayerTableRecord
  2
HILF
 70
     0
 62
     2
  6
Continuous
370
    -3
390
F
  0
LAYER
  5
2C
330
2
100
AcDbSymbolTableRecord
100
AcDbLayerTableRecord
  2
MITTEL
 70
     0
 62
     2
  6
STRICHPUNKT
370
    -3
390
F
  0
LAYER
  5
2F
330
2
100
AcDbSymbolTableRecord
100
AcDbLayerTableRecord
  2
BEM
 70
     0
 62
     7
  6
Continuous
370
    -3
390
F
  0
LAYER
  5
30
330
2
100
AcDbSymbolTableRecord
100
AcDbLayerTableRecord
  2
STEMPEL
 70
     0
 62
     3
  6
Continuous
370
    -3
390
F
  0
LAYER
  5
31
330
2
100
AcDbSymbolTableRecord
100
AcDbLayerTableRecord
  2
TEXT
 70
     0
 62
     7
  6
Continuous
370
    -3
390
F
  0
LAYER
  5
430
330
2
100
AcDbSymbolTableRecord
100
AcDbLayerTableRecord
  2
DEFPOINTS
 70
     0
 62
     7
  6
Continuous
290
     0
370
    -3
390
F
  0
LAYER
  5
431
330
2
100
AcDbSymbolTableRecord
100
AcDbLayerTableRecord
  2
SCHRAFF
 70
     0
 62
     7
  6
Continuous
370
    -3
390
F
  0
ENDTAB
  0
TABLE
  2
STYLE
  5
3
330
0
100
AcDbSymbolTable
 70
     2
  0
STYLE
  5
11
330
3
100
AcDbSymbolTableRecord
100
AcDbTextStyleTableRecord
  2
STANDARD
 70
     0
 40
0.0
 41
0.8
 50
0.0
 71
     0
 42
3.5
  3
simplex.shx
  4

  0
STYLE
  5
24
330
3
100
AcDbSymbolTableRecord
100
AcDbTextStyleTableRecord
  2
GREEKS
 70
     0
 40
0.0
 41
0.8
 50
0.0
 71
     0
 42
2.5
  3
SIMPLEX.shx
  4

  0
ENDTAB
  0
TABLE
  2
VIEW
  5
6
330
0
100
AcDbSymbolTable
 70
     0
  0
ENDTAB
  0
TABLE
  2
UCS
  5
7
330
0
100
AcDbSymbolTable
 70
     0
  0
ENDTAB
  0
TABLE
  2
APPID
  5
9
330
0
100
AcDbSymbolTable
 70
     1
  0
APPID
  5
12
330
9
100
AcDbSymbolTableRecord
100
AcDbRegAppTableRecord
  2
ACAD
 70
     0
  0
ENDTAB
  0
TABLE
  2
DIMSTYLE
  5
A
330
0
100
AcDbSymbolTable
 70
     1
100
AcDbDimStyleTable
 71
     1
340
9D
  0
DIMSTYLE
105
9D
102
{ACAD_REACTORS
330
62B
330
62A
330
618
330
614
102
}
330
A
100
AcDbSymbolTableRecord
100
AcDbDimStyleTableRecord
  2
Standard
 70
     0
340
11
  0
ENDTAB
  0
TABLE
  2
BLOCK_RECORD
  5
1
330
0
100
AcDbSymbolTable
 70
     5
  0
BLOCK_RECORD
  5
1E
102
{ACAD_XDICTIONARY
360
A0
102
}
330
1
100
AcDbSymbolTableRecord
100
AcDbBlockTableRecord
  2
*Model_Space
340
21
  0
BLOCK_RECORD
  5
1A
102
{ACAD_XDICTIONARY
360
A2
102
}
330
1
100
AcDbSymbolTableRecord
100
AcDbBlockTableRecord
  2
*Paper_Space
340
1D
  0
BLOCK_RECORD
  5
22
330
1
100
AcDbSymbolTableRecord
100
AcDbBlockTableRecord
  2
LOGO
340
0
102
{BLKREFS
331
9B
102
}
  0
BLOCK_RECORD
  5
62C
330
1
100
AcDbSymbolTableRecord
100
AcDbBlockTableRecord
  2
*D1
340
0
  0
BLOCK_RECORD
  5
639
330
1
100
AcDbSymbolTableRecord
100
AcDbBlockTableRecord
  2
*D2
340
0
  0
BLOCK_RECORD
  5
646
330
1
100
AcDbSymbolTableRecord
100
AcDbBlockTableRecord
  2
*D3
340
0
  0
BLOCK_RECORD
  5
653
330
1
100
AcDbSymbolTableRecord
100
AcDbBlockTableRecord
  2
*D4
340
0
  0
ENDTAB
  0
ENDSEC
  0
SECTION
  2
BLOCKS
  0
BLOCK
  5
35
330
1E
100
AcDbEntity
  8
0
100
AcDbBlockBegin
  2
*Model_Space
 70
     0
 10
0.0
 20
0.0
 30
0.0
  3
*Model_Space
  1

  0
ENDBLK
  5
36
330
1E
100
AcDbEntity
  8
0
100
AcDbBlockEnd
  0
BLOCK
  5
33
330
1A
100
AcDbEntity
 67
     1
  8
0
100
AcDbBlockBegin
  2
*Paper_Space
 70
     0
 10
0.0
 20
0.0
 30
0.0
  3
*Paper_Space
  1

  0
ENDBLK
  5
34
330
1A
100
AcDbEntity
 67
     1
  8
0
100
AcDbBlockEnd
  0
BLOCK
  5
37
330
22
100
AcDbEntity
  8
0
100
AcDbBlockBegin
  2
LOGO
 70
     0
 10
0.0
 20
0.0
 30
0.0
  3
LOGO
  1

  0
ARC
  5
38
330
22
100
AcDbEntity
  8
0
100
AcDbCircle
 10
11.59973089678112
 20
-9.271599258481501
 30
0.0
 40
4.5
100
AcDbArc
 50
270.0
 51
231.0575587310159
  0
LINE
  5
39
330
22
100
AcDbEntity
  8
0
100
AcDbLine
 10
3.599730896781125
 20
-4.771599258481529
 30
0.0
 11
3.599730896781153
 21
-11.77159925848133
 31
0.0
  0
LINE
  5
3A
330
22
100
AcDbEntity
  8
0
100
AcDbLine
 10
2.599730896781125
 20
-4.771599258481529
 30
0.0
 11
2.599730896781153
 21
-11.77159925848133
 31
0.0
  0
CIRCLE
  5
3B
330
22
100
AcDbEntity
  8
0
100
AcDbCircle
 10
11.59973089678112
 20
-9.271599258481501
 30
0.0
 40
3.5
  0
ARC
  5
3C
330
22
100
AcDbEntity
  8
0
100
AcDbCircle
 10
31.59973089678115
 20
-9.271599258481472
 30
0.0
 40
4.5
100
AcDbArc
 50
270.0
 51
231.0575587310182
  0
LINE
  5
3D
330
22
100
AcDbEntity
  8
0
100
AcDbLine
 10
17.59973089678112
 20
-4.771599258481472
 30
0.0
 11
17.59973089678115
 21
-13.77159925848147
 31
0.0
  0
ARC
  5
3E
330
22
100
AcDbEntity
  8
0
100
AcDbCircle
 10
22.59973089678116
 20
-7.271599258481472
 30
0.0
 40
2.5
100
AcDbArc
 50
293.1161887722295
 51
90.0
  0
CIRCLE
  5
3F
330
22
100
AcDbEntity
  8
0
100
AcDbCircle
 10
31.59973089678115
 20
-9.271599258481472
 30
0.0
 40
3.5
  0
ARC
  5
40
330
22
100
AcDbEntity
  8
0
100
AcDbCircle
 10
4.599730896781153
 20
-11.77159925848133
 30
0.0
 40
1.0
100
AcDbArc
 50
180.0
 51
270.0
  0
ARC
  5
41
330
22
100
AcDbEntity
  8
0
100
AcDbCircle
 10
4.599730896781153
 20
-11.77159925848133
 30
0.0
 40
2.0
100
AcDbArc
 50
179.9999999999992
 51
270.0
  0
LINE
  5
42
330
22
100
AcDbEntity
  8
0
100
AcDbLine
 10
11.59973089678115
 20
-13.77159925848144
 30
0.0
 11
4.599730896781153
 21
-13.77159925848147
 31
0.0
  0
LINE
  5
43
330
22
100
AcDbEntity
  8
0
100
AcDbLine
 10
8.771303772034769
 20
-12.77159925848136
 30
0.0
 11
4.599730896781153
 21
-12.77159925848133
 31
0.0
  0
LINE
  5
44
330
22
100
AcDbEntity
  8
0
100
AcDbLine
 10
31.59973089678115
 20
-13.77159925848147
 30
0.0
 11
23.6715276665056
 21
-13.77159925848144
 31
0.0
  0
LINE
  5
45
330
22
100
AcDbEntity
  8
0
100
AcDbLine
 10
23.56565672307022
 20
-9.51278021337896
 30
0.0
 11
24.4388546544846
 21
-12.77159925848144
 31
0.0
  0
LINE
  5
46
330
22
100
AcDbEntity
  8
0
100
AcDbLine
 10
22.59973089678116
 20
-9.771599258481472
 30
0.0
 11
18.59973089678112
 21
-9.771599258481472
 31
0.0
  0
LINE
  5
47
330
22
100
AcDbEntity
  8
0
100
AcDbLine
 10
18.59973089678115
 20
-13.77159925848144
 30
0.0
 11
17.59973089678115
 21
-13.77159925848144
 31
0.0
  0
LINE
  5
48
330
22
100
AcDbEntity
  8
0
100
AcDbLine
 10
18.59973089678115
 20
-9.771599258481472
 30
0.0
 11
18.59973089678115
 21
-13.77159925848144
 31
0.0
  0
LINE
  5
49
330
22
100
AcDbEntity
  8
0
100
AcDbLine
 10
22.59973089678116
 20
-9.771599258481472
 30
0.0
 11
23.67152766650562
 21
-13.77159925848147
 31
0.0
  0
ARC
  5
4A
330
22
100
AcDbEntity
  8
0
100
AcDbCircle
 10
22.59973089678116
 20
-7.271599258481472
 30
0.0
 40
2.5
100
AcDbArc
 50
270.0
 51
270.0000000000007
  0
LINE
  5
4B
330
22
100
AcDbEntity
  8
0
100
AcDbLine
 10
28.77130377203494
 20
-12.77159925848147
 30
0.0
 11
24.43885465448463
 21
-12.77159925848144
 31
0.0
  0
LINE
  5
4C
330
22
100
AcDbEntity
  8
0
100
AcDbLine
 10
3.599730896781125
 20
-4.771599258481472
 30
0.0
 11
2.599730896781125
 21
-4.771599258481472
 31
0.0
  0
LINE
  5
4D
330
22
100
AcDbEntity
  8
0
100
AcDbLine
 10
22.59973089678116
 20
-8.771599258481472
 30
0.0
 11
18.59973089678115
 21
-8.771599258481472
 31
0.0
  0
LINE
  5
4E
330
22
100
AcDbEntity
  8
0
100
AcDbLine
 10
22.59973089678116
 20
-5.771599258481472
 30
0.0
 11
18.59973089678115
 21
-5.771599258481472
 31
0.0
  0
LINE
  5
4F
330
22
100
AcDbEntity
  8
0
100
AcDbLine
 10
22.59973089678116
 20
-4.771599258481472
 30
0.0
 11
17.59973089678115
 21
-4.771599258481472
 31
0.0
  0
LINE
  5
50
330
22
100
AcDbEntity
  8
0
100
AcDbLine
 10
18.59973089678115
 20
-5.771599258481472
 30
0.0
 11
18.59973089678115
 21
-8.771599258481472
 31
0.0
  0
ARC
  5
51
330
22
100
AcDbEntity
  8
0
100
AcDbCircle
 10
22.59973089678116
 20
-7.271599258481472
 30
0.0
 40
1.5
100
AcDbArc
 50
270.0
 51
90.0
  0
ENDBLK
  5
52
330
22
100
AcDbEntity
  8
0
100
AcDbBlockEnd
  0
BLOCK
  5
637
330
62C
100
AcDbEntity
  8
0
100
AcDbBlockBegin
  2
*D1
 70
     1
 10
0.0
 20
0.0
 30
0.0
  3
*D1
  1

  0
LINE
  5
6A3
330
62C
100
AcDbEntity
  8
BEM
 62
     0
370
    -2
100
AcDbLine
 10
194.1202710958287
 20
210.3445708814333
 30
0.0
 11
80.57387203666815
 21
210.3445708814333
 31
0.0
  0
LINE
  5
6A4
330
62C
100
AcDbEntity
  8
BEM
 62
     0
370
    -2
100
AcDbLine
 10
112.7741882741625
 20
460.3445708814333
 30
0.0
 11
80.5738720366682
 21
460.3445708814333
 31
0.0
  0
LINE
  5
6A5
330
62C
100
AcDbEntity
  8
BEM
 62
     0
370
    -2
100
AcDbLine
 10
82.57387203666814
 20
217.3445708814333
 30
0.0
 11
82.57387203666821
 21
453.3445708814332
 31
0.0
  0
SOLID
  5
6A6
330
62C
100
AcDbEntity
  8
BEM
 62
     0
100
AcDbTrace
 10
81.40720537000147
 20
217.3445708814333
 30
0.0
 11
83.74053870333481
 21
217.3445708814333
 31
0.0
 12
82.57387203666814
 22
210.3445708814333
 32
0.0
 13
82.57387203666814
 23
210.3445708814333
 33
0.0
  0
SOLID
  5
6A7
330
62C
100
AcDbEntity
  8
BEM
 62
     0
100
AcDbTrace
 10
81.40720537000154
 20
453.3445708814332
 30
0.0
 11
83.74053870333488
 21
453.3445708814332
 31
0.0
 12
82.57387203666821
 22
460.3445708814333
 32
0.0
 13
82.57387203666821
 23
460.3445708814333
 33
0.0
  0
MTEXT
  5
6A8
330
62C
100
AcDbEntity
  8
BEM
 62
     1
100
AcDbMText
 10
76.07387203666812
 20
335.3445708814334
 30
0.0
 40
7.0
 41
0.0
 71
     5
 72
     1
  1
\A1;250
 11
0.0000000000000001
 21
1.0
 31
0.0
 73
     1
 44
1.0
  0
POINT
  5
6A9
330
62C
100
AcDbEntity
  8
DEFPOINTS
 62
     0
100
AcDbPoint
 10
196.1202710958287
 20
210.3445708814333
 30
0.0
  0
POINT
  5
6AA
330
62C
100
AcDbEntity
  8
DEFPOINTS
 62
     0
100
AcDbPoint
 10
114.7741882741625
 20
460.3445708814333
 30
0.0
  0
POINT
  5
6AB
330
62C
100
AcDbEntity
  8
DEFPOINTS
 62
     0
100
AcDbPoint
 10
82.57387203666821
 20
460.3445708814333
 30
0.0
  0
ENDBLK
  5
638
330
62C
100
AcDbEntity
  8
0
100
AcDbBlockEnd
  0
BLOCK
  5
644
330
639
100
AcDbEntity
  8
0
100
AcDbBlockBegin
  2
*D2
 70
     1
 10
0.0
 20
0.0
 30
0.0
  3
*D2
  1

  0
LINE
  5
69A
330
639
100
AcDbEntity
  8
BEM
 62
     0
370
    -2
100
AcDbLine
 10
195.682827778199
 20
213.3445708814333
 30
0.0
 11
195.682827778199
 21
184.3656635950417
 31
0.0
  0
LINE
  5
69B
330
639
100
AcDbEntity
  8
BEM
 62
     0
370
    -2
100
AcDbLine
 10
248.6828277781991
 20
213.3445708814333
 30
0.0
 11
248.6828277781991
 21
184.3656635950417
 31
0.0
  0
LINE
  5
69C
330
639
100
AcDbEntity
  8
BEM
 62
     0
370
    -2
100
AcDbLine
 10
202.682827778199
 20
186.3656635950417
 30
0.0
 11
241.682827778199
 21
186.3656635950417
 31
0.0
  0
SOLID
  5
69D
330
639
100
AcDbEntity
  8
BEM
 62
     0
100
AcDbTrace
 10
202.682827778199
 20
187.5323302617084
 30
0.0
 11
202.682827778199
 21
185.198996928375
 31
0.0
 12
195.682827778199
 22
186.3656635950417
 32
0.0
 13
195.682827778199
 23
186.3656635950417
 33
0.0
  0
SOLID
  5
69E
330
639
100
AcDbEntity
  8
BEM
 62
     0
100
AcDbTrace
 10
241.682827778199
 20
187.5323302617084
 30
0.0
 11
241.682827778199
 21
185.198996928375
 31
0.0
 12
248.6828277781991
 22
186.3656635950417
 32
0.0
 13
248.6828277781991
 23
186.3656635950417
 33
0.0
  0
MTEXT
  5
69F
330
639
100
AcDbEntity
  8
BEM
 62
     1
100
AcDbMText
 10
222.1828277781991
 20
192.8656635950417
 30
0.0
 40
7.0
 41
0.0
 71
     5
 72
     1
  1
\A1;%%C53
 73
     1
 44
1.0
  0
POINT
  5
6A0
330
639
100
AcDbEntity
  8
DEFPOINTS
 62
     0
100
AcDbPoint
 10
195.682827778199
 20
215.3445708814333
 30
0.0
  0
POINT
  5
6A1
330
639
100
AcDbEntity
  8
DEFPOINTS
 62
     0
100
AcDbPoint
 10
248.6828277781991
 20
215.3445708814333
 30
0.0
  0
POINT
  5
6A2
330
639
100
AcDbEntity
  8
DEFPOINTS
 62
     0
100
AcDbPoint
 10
248.6828277781991
 20
186.3656635950417
 30
0.0
  0
ENDBLK
  5
645
330
639
100
AcDbEntity
  8
0
100
AcDbBlockEnd
  0
BLOCK
  5
651
330
646
100
AcDbEntity
  8
0
100
AcDbBlockBegin
  2
*D3
 70
     1
 10
0.0
 20
0.0
 30
0.0
  3
*D3
  1

  0
LINE
  5
691
330
646
100
AcDbEntity
  8
BEM
 62
     0
370
    -2
100
AcDbLine
 10
107.182827778199
 20
458.8445708814332
 30
0.0
 11
107.182827778199
 21
478.4518145480944
 31
0.0
  0
LINE
  5
692
330
646
100
AcDbEntity
  8
BEM
 62
     0
370
    -2
100
AcDbLine
 10
337.1828277781991
 20
458.8445708814332
 30
0.0
 11
337.1828277781991
 21
478.4518145480944
 31
0.0
  0
LINE
  5
693
330
646
100
AcDbEntity
  8
BEM
 62
     0
370
    -2
100
AcDbLine
 10
114.182827778199
 20
476.4518145480945
 30
0.0
 11
330.1828277781991
 21
476.4518145480945
 31
0.0
  0
SOLID
  5
694
330
646
100
AcDbEntity
  8
BEM
 62
     0
100
AcDbTrace
 10
114.182827778199
 20
477.6184812147612
 30
0.0
 11
114.182827778199
 21
475.2851478814277
 31
0.0
 12
107.182827778199
 22
476.4518145480945
 32
0.0
 13
107.182827778199
 23
476.4518145480945
 33
0.0
  0
SOLID
  5
695
330
646
100
AcDbEntity
  8
BEM
 62
     0
100
AcDbTrace
 10
330.1828277781991
 20
477.6184812147612
 30
0.0
 11
330.1828277781991
 21
475.2851478814277
 31
0.0
 12
337.1828277781991
 22
476.4518145480945
 32
0.0
 13
337.1828277781991
 23
476.4518145480945
 33
0.0
  0
MTEXT
  5
696
330
646
100
AcDbEntity
  8
BEM
 62
     1
100
AcDbMText
 10
222.1828277781991
 20
482.9518145480944
 30
0.0
 40
7.0
 41
0.0
 71
     5
 72
     1
  1
\A1;%%c230
 73
     1
 44
1.0
  0
POINT
  5
697
330
646
100
AcDbEntity
  8
DEFPOINTS
 62
     0
100
AcDbPoint
 10
107.182827778199
 20
456.8445708814333
 30
0.0
  0
POINT
  5
698
330
646
100
AcDbEntity
  8
DEFPOINTS
 62
     0
100
AcDbPoint
 10
337.1828277781991
 20
456.8445708814333
 30
0.0
  0
POINT
  5
699
330
646
100
AcDbEntity
  8
DEFPOINTS
 62
     0
100
AcDbPoint
 10
337.1828277781991
 20
476.4518145480945
 30
0.0
  0
ENDBLK
  5
652
330
646
100
AcDbEntity
  8
0
100
AcDbBlockEnd
  0
BLOCK
  5
65E
330
653
100
AcDbEntity
  8
0
100
AcDbBlockBegin
  2
*D4
 70
     1
 10
0.0
 20
0.0
 30
0.0
  3
*D4
  1

  0
LINE
  5
6AC
330
653
100
AcDbEntity
  8
BEM
 62
     0
370
    -2
100
AcDbLine
 10
52.18282777819904
 20
463.3445708814333
 30
0.0
 11
52.18282777819904
 21
495.6199301437761
 31
0.0
  0
LINE
  5
6AD
330
653
100
AcDbEntity
  8
BEM
 62
     0
370
    -2
100
AcDbLine
 10
392.1828277781991
 20
463.3445708814331
 30
0.0
 11
392.1828277781991
 21
495.6199301437761
 31
0.0
  0
LINE
  5
6AE
330
653
100
AcDbEntity
  8
BEM
 62
     0
370
    -2
100
AcDbLine
 10
59.18282777819904
 20
493.6199301437762
 30
0.0
 11
385.182827778199
 21
493.6199301437762
 31
0.0
  0
SOLID
  5
6AF
330
653
100
AcDbEntity
  8
BEM
 62
     0
100
AcDbTrace
 10
59.18282777819904
 20
494.7865968104428
 30
0.0
 11
59.18282777819904
 21
492.4532634771095
 31
0.0
 12
52.18282777819904
 22
493.6199301437762
 32
0.0
 13
52.18282777819904
 23
493.6199301437762
 33
0.0
  0
SOLID
  5
6B0
330
653
100
AcDbEntity
  8
BEM
 62
     0
100
AcDbTrace
 10
385.182827778199
 20
494.7865968104428
 30
0.0
 11
385.182827778199
 21
492.4532634771095
 31
0.0
 12
392.1828277781991
 22
493.6199301437762
 32
0.0
 13
392.1828277781991
 23
493.6199301437762
 33
0.0
  0
MTEXT
  5
6B1
330
653
100
AcDbEntity
  8
BEM
 62
     1
100
AcDbMText
 10
227.424811064139
 20
500.1199301437761
 30
0.0
 40
7.0
 41
0.0
 71
     5
 72
     1
  1
\A1;500
 73
     1
 44
1.0
  0
POINT
  5
6B2
330
653
100
AcDbEntity
  8
DEFPOINTS
 62
     0
100
AcDbPoint
 10
52.18282777819904
 20
461.3445708814333
 30
0.0
  0
POINT
  5
6B3
330
653
100
AcDbEntity
  8
DEFPOINTS
 62
     0
100
AcDbPoint
 10
392.1828277781991
 20
461.3445708814332
 30
0.0
  0
POINT
  5
6B4
330
653
100
AcDbEntity
  8
DEFPOINTS
 62
     0
100
AcDbPoint
 10
392.1828277781991
 20
493.6199301437762
 30
0.0
  0
ENDBLK
  5
65F
330
653
100
AcDbEntity
  8
0
100
AcDbBlockEnd
  0
ENDSEC
  0
SECTION
  2
ENTITIES
  0
LINE
  5
57
330
1E
100
AcDbEntity
  8
STEMPEL
100
AcDbLine
 10
410.0
 20
110.0
 30
0.0
 11
39.99999999999997
 21
110.0
 31
0.0
  0
LINE
  5
58
330
1E
100
AcDbEntity
  8
STEMPEL
100
AcDbLine
 10
136.0000000000001
 20
109.9999999999999
 30
0.0
 11
136.0
 21
9.999999999999971
 31
0.0
  0
LINE
  5
59
330
1E
100
AcDbEntity
  8
STEMPEL
100
AcDbLine
 10
220.0
 20
110.0
 30
0.0
 11
220.0
 21
9.999999999999971
 31
0.0
  0
LINE
  5
5A
330
1E
100
AcDbEntity
  8
STEMPEL
100
AcDbLine
 10
332.0
 20
109.9999999999997
 30
0.0
 11
332.0
 21
40.0
 31
0.0
  0
LINE
  5
5B
330
1E
100
AcDbEntity
  8
STEMPEL
100
AcDbLine
 10
135.9999999999999
 20
29.99999999999997
 30
0.0
 11
39.99999999999997
 21
29.99999999999997
 31
0.0
  0
LINE
  5
5C
330
1E
100
AcDbEntity
  8
STEMPEL
100
AcDbLine
 10
410.0
 20
40.0
 30
0.0
 11
136.0000000000001
 21
39.99999999999997
 31
0.0
  0
LINE
  5
5D
330
1E
100
AcDbEntity
  8
STEMPEL
100
AcDbLine
 10
410.0
 20
80.0
 30
0.0
 11
136.0000000000001
 21
79.99999999999994
 31
0.0
  0
LINE
  5
5E
330
1E
100
AcDbEntity
  8
VOLL
100
AcDbLine
 10
54.00000000000009
 20
110.0
 30
0.0
 11
53.99999999999997
 21
9.999999999999971
 31
0.0
  0
LINE
  5
5F
330
1E
100
AcDbEntity
  8
VOLL
100
AcDbLine
 10
94.00000000000011
 20
109.9999999999999
 30
0.0
 11
94.0
 21
9.999999999999971
 31
0.0
  0
LINE
  5
60
330
1E
100
AcDbEntity
  8
VOLL
100
AcDbLine
 10
114.0000000000001
 20
109.9999999999999
 30
0.0
 11
114.0
 21
9.999999999999971
 31
0.0
  0
LINE
  5
61
330
1E
100
AcDbEntity
  8
VOLL
100
AcDbLine
 10
154.0000000000001
 20
79.99999999999994
 30
0.0
 11
154.0000000000001
 21
39.99999999999997
 31
0.0
  0
LINE
  5
62
330
1E
100
AcDbEntity
  8
VOLL
100
AcDbLine
 10
180.0000000000001
 20
109.9999999999998
 30
0.0
 11
180.0
 21
39.99999999999997
 31
0.0
  0
LINE
  5
63
330
1E
100
AcDbEntity
  8
HILF
100
AcDbLine
 10
40.00000000000008
 20
100.0
 30
0.0
 11
136.0000000000001
 21
100.0
 31
0.0
  0
LINE
  5
64
330
1E
100
AcDbEntity
  8
HILF
100
AcDbLine
 10
40.00000000000008
 20
90.00000000000005
 30
0.0
 11
136.0000000000001
 21
90.00000000000005
 31
0.0
  0
LINE
  5
65
330
1E
100
AcDbEntity
  8
HILF
100
AcDbLine
 10
40.00000000000008
 20
79.99999999999994
 30
0.0
 11
136.0000000000001
 21
79.99999999999994
 31
0.0
  0
LINE
  5
66
330
1E
100
AcDbEntity
  8
HILF
100
AcDbLine
 10
40.00000000000008
 20
69.99999999999994
 30
0.0
 11
136.0000000000001
 21
69.99999999999994
 31
0.0
  0
LINE
  5
67
330
1E
100
AcDbEntity
  8
HILF
100
AcDbLine
 10
40.00000000000008
 20
59.99999999999997
 30
0.0
 11
136.0000000000001
 21
59.99999999999997
 31
0.0
  0
LINE
  5
68
330
1E
100
AcDbEntity
  8
HILF
100
AcDbLine
 10
40.00000000000008
 20
49.99999999999997
 30
0.0
 11
136.0000000000001
 21
49.99999999999997
 31
0.0
  0
LINE
  5
69
330
1E
100
AcDbEntity
  8
HILF
100
AcDbLine
 10
40.00000000000008
 20
39.99999999999997
 30
0.0
 11
136.0000000000001
 21
39.99999999999997
 31
0.0
  0
LINE
  5
6A
330
1E
100
AcDbEntity
  8
HILF
100
AcDbLine
 10
136.0000000000001
 20
69.99999999999994
 30
0.0
 11
220.0
 21
69.99999999999994
 31
0.0
  0
LINE
  5
6B
330
1E
100
AcDbEntity
  8
HILF
100
AcDbLine
 10
136.0000000000001
 20
59.99999999999997
 30
0.0
 11
220.0
 21
59.99999999999997
 31
0.0
  0
LINE
  5
6C
330
1E
100
AcDbEntity
  8
HILF
100
AcDbLine
 10
136.0000000000001
 20
49.99999999999997
 30
0.0
 11
220.0
 21
49.99999999999997
 31
0.0
  0
LINE
  5
6D
330
1E
100
AcDbEntity
  8
HILF
100
AcDbLine
 10
224.7736801096948
 20
84.03758247564139
 30
0.0
 11
324.8353916556311
 21
84.03758247564139
 31
0.0
  0
LINE
  5
6E
330
1E
100
AcDbEntity
  8
HILF
100
AcDbLine
 10
224.7736801096948
 20
69.99999999999994
 30
0.0
 11
324.835391655631
 21
69.99999999999994
 31
0.0
  0
LINE
  5
6F
330
1E
100
AcDbEntity
  8
HILF
100
AcDbLine
 10
224.7736801096948
 20
59.99999999999997
 30
0.0
 11
324.835391655631
 21
59.99999999999997
 31
0.0
  0
LINE
  5
70
330
1E
100
AcDbEntity
  8
HILF
100
AcDbLine
 10
224.7736801096948
 20
49.99999999999997
 30
0.0
 11
324.835391655631
 21
49.99999999999997
 31
0.0
  0
LINE
  5
71
330
1E
100
AcDbEntity
  8
VOLL
100
AcDbLine
 10
332.0
 20
60.0
 30
0.0
 11
410.0
 21
60.0
 31
0.0
  0
LINE
  5
72
330
1E
100
AcDbEntity
  8
HILF
100
AcDbLine
 10
336.7238616296993
 20
83.77983636955827
 30
0.0
 11
404.8588839326728
 21
83.77983636955827
 31
0.0
  0
LINE
  5
73
330
1E
100
AcDbEntity
  8
HILF
100
AcDbLine
 10
223.4909699289885
 20
14.89398258028314
 30
0.0
 11
404.8588839326728
 21
14.89398258028314
 31
0.0
  0
TEXT
  5
74
330
1E
100
AcDbEntity
  8
TEXT
100
AcDbText
 10
63.86165979631819
 20
18.67381894984132
 30
0.0
 40
4.0
  1
Änderung
 41
0.8
  7
GREEKS
 72
     1
 11
74.60451693917534
 21
18.67381894984132
 31
0.0
100
AcDbText
  0
TEXT
  5
75
330
1E
100
AcDbEntity
  8
TEXT
100
AcDbText
 10
143.5163572150377
 20
102.4620895087088
 30
0.0
 40
5.0
  1
Maßstab
 41
0.8
  7
GREEKS
100
AcDbText
  0
TEXT
  5
76
330
1E
100
AcDbEntity
  8
TEXT
100
AcDbText
 10
184.2858954734051
 20
102.4184168434819
 30
0.0
 40
5.0
  1
Zul. Abw.
 41
0.8
  7
GREEKS
100
AcDbText
  0
TEXT
  5
77
330
1E
100
AcDbEntity
  8
TEXT
100
AcDbText
 10
224.877940380901
 20
102.5489328011779
 30
0.0
 40
5.0
  1
Benennung
 41
0.8
  7
GREEKS
100
AcDbText
  0
TEXT
  5
78
330
1E
100
AcDbEntity
  8
TEXT
100
AcDbText
 10
336.178754957634
 20
102.3132034537136
 30
0.0
 40
5.0
  1
Zeichnungs Nr.
 41
0.8
  7
GREEKS
100
AcDbText
  0
TEXT
  5
79
330
1E
100
AcDbEntity
  8
TEXT
100
AcDbText
 10
224.742238391136
 20
30.84560570193057
 30
0.0
 40
5.0
  1
Bauvorhaben
 41
0.8
  7
GREEKS
100
AcDbText
  0
TEXT
  5
7A
330
1E
100
AcDbEntity
  8
TEXT
100
AcDbText
 10
336.7238616296993
 20
73.1811823709997
 30
0.0
 40
5.0
  1
Ersatz für:
 41
0.8
  7
GREEKS
100
AcDbText
  0
TEXT
  5
7B
330
1E
100
AcDbEntity
  8
TEXT
100
AcDbText
 10
48.26641107045756
 20
13.65465846027192
 30
0.0
 40
4.0
  1
Index
 50
90.0
 41
0.8
  7
GREEKS
100
AcDbText
  0
TEXT
  5
7C
330
1E
100
AcDbEntity
  8
TEXT
100
AcDbText
 10
100.0934676075481
 20
18.6715626933981
 30
0.0
 40
4.0
  1
Tag
 41
0.8
  7
GREEKS
 72
     1
 11
103.8268009408814
 21
18.6715626933981
 31
0.0
100
AcDbText
  0
TEXT
  5
7D
330
1E
100
AcDbEntity
  8
TEXT
100
AcDbText
 10
119.0122744386592
 20
18.59324216966408
 30
0.0
 40
4.0
  1
Name
 41
0.8
  7
GREEKS
 72
     1
 11
125.3360839624688
 21
18.59324216966408
 31
0.0
100
AcDbText
  0
TEXT
  5
7E
330
1E
100
AcDbEntity
  8
TEXT
100
AcDbText
 10
162.3311673153651
 20
73.31880501229926
 30
0.0
 40
4.0
  1
Tag
 41
0.8
  7
GREEKS
100
AcDbText
  0
TEXT
  5
7F
330
1E
100
AcDbEntity
  8
TEXT
100
AcDbText
 10
192.4626584226295
 20
73.30961091915225
 30
0.0
 40
4.0
  1
Name
 41
0.8
  7
GREEKS
100
AcDbText
  0
TEXT
  5
80
330
1E
100
AcDbEntity
  8
TEXT
100
AcDbText
 10
137.5836127167615
 20
63.62990369617964
 30
0.0
 40
4.0
  1
Gez.
 41
0.8
  7
GREEKS
100
AcDbText
  0
TEXT
  5
81
330
1E
100
AcDbEntity
  8
TEXT
100
AcDbText
 10
137.5515086571672
 20
53.68926291428377
 30
0.0
 40
4.0
  1
Gepr.
 41
0.8
  7
GREEKS
100
AcDbText
  0
TEXT
  5
82
330
1E
100
AcDbEntity
  8
TEXT
100
AcDbText
 10
137.6006777387304
 20
43.52946389649807
 30
0.0
 40
4.0
  1
Norm.
 41
0.8
  7
GREEKS
100
AcDbText
  0
LINE
  5
83
330
1E
100
AcDbEntity
  8
STEMPEL
100
AcDbLine
 10
49.99999999999989
 20
10.0
 30
0.0
 11
410.0
 21
10.0
 31
0.0
  0
TEXT
  5
84
330
1E
100
AcDbEntity
  8
TEXT
100
AcDbText
 10
337.2400861497006
 20
52.07416177878602
 30
0.0
 40
5.0
  1
ersetzt durch:
 41
0.8
  7
GREEKS
100
AcDbText
  0
LINE
  5
85
330
1E
100
AcDbEntity
  8
STEMPEL
100
AcDbLine
 10
410.0
 20
10.0
 30
0.0
 11
39.99999999999989
 21
10.0
 31
0.0
  0
LINE
  5
86
330
1E
100
AcDbEntity
  8
STEMPEL
100
AcDbLine
 10
410.0
 20
10.0
 30
0.0
 11
410.0
 21
584.0
 31
0.0
  0
LINE
  5
87
330
1E
100
AcDbEntity
  8
STEMPEL
100
AcDbLine
 10
40.0
 20
10.0
 30
0.0
 11
39.99999999999989
 21
584.0
 31
0.0
  0
LINE
  5
88
330
1E
100
AcDbEntity
  8
STEMPEL
100
AcDbLine
 10
410.0
 20
584.0
 30
0.0
 11
39.99999999999989
 21
584.0
 31
0.0
  0
LINE
  5
89
330
1E
100
AcDbEntity
  8
HILF
100
AcDbLine
 10
0.0
 20
0.0
 30
0.0
 11
-0.0000000000001137
 21
594.0
 31
0.0
  0
LINE
  5
8A
330
1E
100
AcDbEntity
  8
HILF
100
AcDbLine
 10
419.9999999999999
 20
594.0000000000002
 30
0.0
 11
0.0
 21
594.0
 31
0.0
  0
LINE
  5
8B
330
1E
100
AcDbEntity
  8
HILF
100
AcDbLine
 10
420.0
 20
0.0
 30
0.0
 11
0.0
 21
0.0
 31
0.0
  0
LINE
  5
8C
330
1E
100
AcDbEntity
  8
HILF
100
AcDbLine
 10
31.08767135713856
 20
297.0
 30
0.0
 11
0.0000000000001137
 21
297.0
 31
0.0
  0
TEXT
  5
8D
330
1E
100
AcDbEntity
  8
TEXT
100
AcDbText
 10
138.622109822104
 20
73.14025471151666
 30
0.0
 40
4.0
  1
2008
 41
0.8
  7
GREEKS
100
AcDbText
  0
LINE
  5
8E
330
1E
100
AcDbEntity
  8
HILF
100
AcDbLine
 10
420.0
 20
-0.0000000000001137
 30
0.0
 11
419.9999999999999
 21
594.0
 31
0.0
  0
TEXT
  5
8F
330
1E
100
AcDbEntity
  8
VOLL
100
AcDbText
 10
78.07675471698113
 20
31.02594776470585
 30
0.0
 40
1.8
  1

  7
GREEKS
100
AcDbText
  0
TEXT
  5
90
330
1E
100
AcDbEntity
  8
TEXT
100
AcDbText
 10
41.85509950977674
 20
111.6719999999999
 30
0.0
 40
5.0
  1
Erstellt mit AUTOCAD 2004
 41
0.8
  7
GREEKS
100
AcDbText
  0
TEXT
  5
93
330
1E
100
AcDbEntity
  8
TEXT
 62
     1
100
AcDbText
 10
150.5006306481887
 20
88.14901428913959
 30
0.0
 40
7.0
  1
1:2
 41
0.8
  7
GREEKS
100
AcDbText
  0
INSERT
  5
9B
330
1E
100
AcDbEntity
  8
STEMPEL
100
AcDbBlockReference
  2
LOGO
 10
140.9955485457794
 20
45.02105276448322
 30
0.0
 41
2.0
 42
2.0
 43
2.0
  0
TEXT
  5
118
330
1E
100
AcDbEntity
  8
BEM
100
AcDbText
 10
417.3022923857165
 20
10.16790107998849
 30
0.0
 40
4.0
  1
Diese Zeichnung ist urheberrechtlich geschützt und bleibt unser Eigentum. Sie darf weder ganz noch teilweise verfielfältigt und nicht an Dritte weitergegeben werden.
 50
90.0
 41
0.8
  7
GREEKS
100
AcDbText
  0
LINE
  5
531
102
{ACAD_REACTORS
330
868
102
}
330
1E
100
AcDbEntity
  8
STEMPEL
100
AcDbLine
 10
392.182827778199
 20
461.3445708814332
 30
0.0
 11
392.182827778199
 21
460.3445708814331
 31
0.0
  0
LINE
  5
532
102
{ACAD_REACTORS
330
868
102
}
330
1E
100
AcDbEntity
  8
HILF
100
AcDbLine
 10
371.9819505357281
 20
463.3445708814331
 30
0.0
 11
370.6422045735725
 21
458.3445708814331
 31
0.0
  0
LINE
  5
533
102
{ACAD_REACTORS
330
868
102
}
330
1E
100
AcDbEntity
  8
HILF
100
AcDbLine
 10
370.9819505357281
 20
463.3445708814331
 30
0.0
 11
369.6422045735725
 21
458.3445708814331
 31
0.0
  0
LINE
  5
534
102
{ACAD_REACTORS
330
868
102
}
330
1E
100
AcDbEntity
  8
STEMPEL
100
AcDbLine
 10
392.1828277781991
 20
460.3445708814332
 30
0.0
 11
371.1781029584348
 21
460.3445708814331
 31
0.0
  0
LINE
  5
535
102
{ACAD_REACTORS
330
868
102
}
330
1E
100
AcDbEntity
  8
STEMPEL
100
AcDbLine
 10
392.1828277781991
 20
461.3445708814332
 30
0.0
 11
371.4460521508659
 21
461.3445708814331
 31
0.0
  0
LINE
  5
537
330
1E
100
AcDbEntity
  8
STEMPEL
100
AcDbLine
 10
337.1828277781991
 20
456.8445708814333
 30
0.0
 11
336.5489003855881
 21
455.4851092008783
 31
0.0
  0
LINE
  5
538
330
1E
100
AcDbEntity
  8
TEXT
 62
     2
100
AcDbLine
 10
282.5064721394818
 20
517.0736393414795
 30
0.0
 11
278.3258962474391
 21
498.1355828812827
 31
0.0
  0
TEXT
  5
539
330
1E
100
AcDbEntity
  8
TEXT
 62
     1
100
AcDbText
 10
282.7119093707823
 20
520.0301777056913
 30
0.0
 40
7.0
  1
Klemmring
 41
0.8
  7
GREEKS
100
AcDbText
  0
LINE
  5
53A
330
1E
100
AcDbEntity
  8
BEM
 62
     1
100
AcDbLine
 10
217.1251153896301
 20
504.1109111308054
 30
0.0
 11
217.1251153896301
 21
497.1109111308054
 31
0.0
  0
LINE
  5
53B
330
1E
100
AcDbEntity
  8
BEM
 62
     1
100
AcDbLine
 10
210.1251153896301
 20
497.1109111308054
 30
0.0
 11
210.1251153896301
 21
504.1109111308054
 31
0.0
  0
LINE
  5
53C
330
1E
100
AcDbEntity
  8
BEM
 62
     1
100
AcDbLine
 10
210.1251153896301
 20
504.1109111308054
 30
0.0
 11
217.1251153896301
 21
504.1109111308054
 31
0.0
  0
LINE
  5
53D
330
1E
100
AcDbEntity
  8
BEM
 62
     1
100
AcDbLine
 10
217.1251153896301
 20
497.1109111308054
 30
0.0
 11
210.1251153896301
 21
497.1109111308054
 31
0.0
  0
LINE
  5
53E
102
{ACAD_REACTORS
330
717
102
}
330
1E
100
AcDbEntity
  8
STEMPEL
100
AcDbLine
 10
274.1828277781991
 20
460.3445708814332
 30
0.0
 11
275.182827778199
 21
461.3445708814332
 31
0.0
  0
LINE
  5
53F
330
1E
100
AcDbEntity
  8
STEMPEL
100
AcDbLine
 10
280.1828277781991
 20
461.3445708814332
 30
0.0
 11
275.182827778199
 21
461.3445708814332
 31
0.0
  0
LINE
  5
540
102
{ACAD_REACTORS
330
717
102
}
330
1E
100
AcDbEntity
  8
STEMPEL
100
AcDbLine
 10
272.1828277781991
 20
460.3445708814332
 30
0.0
 11
271.182827778199
 21
461.3445708814332
 31
0.0
  0
LINE
  5
541
102
{ACAD_REACTORS
330
717
102
}
330
1E
100
AcDbEntity
  8
STEMPEL
100
AcDbLine
 10
267.232827778199
 20
461.3445708814332
 30
0.0
 11
267.232827778199
 21
460.3445708814332
 31
0.0
  0
LINE
  5
542
102
{ACAD_REACTORS
330
717
102
}
330
1E
100
AcDbEntity
  8
STEMPEL
100
AcDbLine
 10
267.232827778199
 20
460.3445708814332
 30
0.0
 11
267.4328277781991
 21
459.9981607199193
 31
0.0
  0
LINE
  5
543
330
1E
100
AcDbEntity
  8
STEMPEL
100
AcDbLine
 10
271.182827778199
 20
461.3445708814332
 30
0.0
 11
267.232827778199
 21
461.3445708814332
 31
0.0
  0
LINE
  5
544
330
1E
100
AcDbEntity
  8
STEMPEL
100
AcDbLine
 10
274.1828277781991
 20
460.3445708814332
 30
0.0
 11
272.1828277781991
 21
460.3445708814332
 31
0.0
  0
LINE
  5
545
330
1E
100
AcDbEntity
  8
STEMPEL
100
AcDbLine
 10
275.182827778199
 20
461.3445708814332
 30
0.0
 11
271.182827778199
 21
461.3445708814332
 31
0.0
  0
LINE
  5
546
330
1E
100
AcDbEntity
  8
STEMPEL
100
AcDbLine
 10
281.9003421994712
 20
456.9407649591458
 30
0.0
 11
279.7710869852433
 21
454.8115097449178
 31
0.0
  0
ARC
  5
547
330
1E
100
AcDbEntity
  8
STEMPEL
100
AcDbCircle
 10
286.4965362771839
 20
452.3445708814333
 30
0.0
 40
8.0
100
AcDbArc
 50
134.9999999999997
 51
134.9999999999997
  0
LINE
  5
548
102
{ACAD_REACTORS
330
868
102
}
330
1E
100
AcDbEntity
  8
STEMPEL
100
AcDbLine
 10
280.1325752465049
 20
458.7085319121122
 30
0.0
 11
278.7569012752527
 21
457.33285794086
 31
0.0
  0
LINE
  5
549
102
{ACAD_REACTORS
330
868
102
}
330
1E
100
AcDbEntity
  8
STEMPEL
100
AcDbLine
 10
280.8396820276915
 20
458.0014251309257
 30
0.0
 11
279.1828277781993
 21
456.3445708814334
 31
0.0
  0
ARC
  5
54A
330
1E
100
AcDbEntity
  8
STEMPEL
100
AcDbCircle
 10
275.182827778199
 20
450.9445708814332
 30
0.0
 40
1.0
100
AcDbArc
 50
184.5397086345421
 51
196.6573770607394
  0
LINE
  5
54B
330
1E
100
AcDbEntity
  8
STEMPEL
100
AcDbLine
 10
274.6966737861699
 20
449.0807966740693
 30
0.0
 11
274.2247917778599
 21
450.6579229753637
 31
0.0
  0
ARC
  5
54C
330
1E
100
AcDbEntity
  8
STEMPEL
100
AcDbCircle
 10
276.6828277781991
 20
450.7402148051753
 30
0.0
 40
2.5
100
AcDbArc
 50
155.3800226712869
 51
177.1292868703572
  0
ARC
  5
54D
102
{ACAD_REACTORS
330
717
102
}
330
1E
100
AcDbEntity
  8
STEMPEL
100
AcDbCircle
 10
277.3633849755801
 20
454.3486480720593
 30
0.0
 40
4.0
100
AcDbArc
 50
92.58717043466333
 51
142.6684147984907
  0
ARC
  5
54E
330
1E
100
AcDbEntity
  8
STEMPEL
100
AcDbCircle
 10
279.182827778199
 20
449.5945708814333
 30
0.0
 40
5.25
100
AcDbArc
 50
83.56653354842034
 51
155.3800226712869
  0
ARC
  5
54F
102
{ACAD_REACTORS
330
868
102
}
330
1E
100
AcDbEntity
  8
STEMPEL
100
AcDbCircle
 10
268.4138028032515
 20
441.3445708814331
 30
0.0
 40
5.745201938350518
100
AcDbArc
 50
340.7988568646108
 51
353.195025239607
  0
ARC
  5
550
330
1E
100
AcDbEntity
  8
STEMPEL
100
AcDbCircle
 10
252.182827778199
 20
442.3445708814333
 30
0.0
 40
23.5
100
AcDbArc
 50
353.3741904351755
 51
16.65737706073268
  0
LINE
  5
551
102
{ACAD_REACTORS
330
868
102
}
330
1E
100
AcDbEntity
  8
STEMPEL
100
AcDbLine
 10
272.682827778199
 20
451.0307115430704
 30
0.0
 11
272.682827778199
 21
450.9445708814332
 31
0.0
  0
ARC
  5
552
102
{ACAD_REACTORS
330
868
102
}
330
1E
100
AcDbEntity
  8
STEMPEL
100
AcDbCircle
 10
275.182827778199
 20
451.0307115430704
 30
0.0
 40
2.5
100
AcDbArc
 50
160.2500772043228
 51
180.9871481076939
  0
ARC
  5
553
102
{ACAD_REACTORS
330
868
102
}
330
1E
100
AcDbEntity
  8
STEMPEL
100
AcDbCircle
 10
275.182827778199
 20
450.9445708814332
 30
0.0
 40
2.5
100
AcDbArc
 50
179.012851892306
 51
196.6573770607326
  0
ARC
  5
554
102
{ACAD_REACTORS
330
868
102
}
330
1E
100
AcDbEntity
  8
STEMPEL
100
AcDbCircle
 10
275.182827778199
 20
451.0307115430704
 30
0.0
 40
3.5
100
AcDbArc
 50
160.2500772043228
 51
180.7050887044108
  0
ARC
  5
555
102
{ACAD_REACTORS
330
868
102
}
330
1E
100
AcDbEntity
  8
STEMPEL
100
AcDbCircle
 10
275.182827778199
 20
450.9445708814332
 30
0.0
 40
3.5
100
AcDbArc
 50
179.2949112955892
 51
196.6573770607326
  0
LINE
  5
556
102
{ACAD_REACTORS
330
868
102
}
330
1E
100
AcDbEntity
  8
STEMPEL
100
AcDbLine
 10
271.829701777012
 20
449.9413032101897
 30
0.0
 11
272.3015837853222
 21
448.3641769088946
 31
0.0
  0
LINE
  5
557
102
{ACAD_REACTORS
330
868
102
}
330
1E
100
AcDbEntity
  8
STEMPEL
100
AcDbLine
 10
272.7877377773511
 20
450.2279511162593
 30
0.0
 11
273.2596197856614
 21
448.6508248149642
 31
0.0
  0
LINE
  5
558
330
1E
100
AcDbEntity
  8
STEMPEL
100
AcDbLine
 10
272.1828277781991
 20
453.3756597946787
 30
0.0
 11
273.8100635344762
 21
456.1941148004436
 31
0.0
  0
LINE
  5
559
102
{ACAD_REACTORS
330
717
102
}
330
1E
100
AcDbEntity
  8
STEMPEL
100
AcDbLine
 10
270.4328277781991
 20
450.3445708814331
 30
0.0
 11
272.1828277781991
 21
453.3756597946787
 31
0.0
  0
LWPOLYLINE
  5
55A
102
{ACAD_REACTORS
330
73B
102
}
330
1E
100
AcDbEntity
  8
STEMPEL
100
AcDbPolyline
 90
        5
 70
     0
 43
0.0
 10
269.7959162599005
 20
445.3445708814331
 42
-0.1149415123267204
 10
271.0526112953173
 20
445.0518102029146
 42
-0.1038526577300335
 10
272.1739789310421
 20
444.1729980061793
 42
-0.0912492981546976
 10
272.895028249893
 20
442.90519893837
 42
-0.0839773692119132
 10
273.1590047416021
 20
441.3445708814331
 42
-0.0839773692119072
  0
ARC
  5
55B
102
{ACAD_REACTORS
330
73B
102
}
330
1E
100
AcDbEntity
  8
STEMPEL
100
AcDbCircle
 10
269.7959162599005
 20
440.1881754859749
 30
0.0
 40
2.843604604541721
100
AcDbArc
 50
270.0
 51
296.2275560863342
  0
ARC
  5
55C
102
{ACAD_REACTORS
330
73B
330
868
102
}
330
1E
100
AcDbEntity
  8
STEMPEL
100
AcDbCircle
 10
269.5205853620175
 20
440.7470430940389
 30
0.0
 40
3.466613518340057
100
AcDbArc
 50
296.227556086347
 51
319.9438129476444
  0
ARC
  5
55D
102
{ACAD_REACTORS
330
73B
330
868
102
}
330
1E
100
AcDbEntity
  8
STEMPEL
100
AcDbCircle
 10
269.0899762147885
 20
441.1090872598292
 30
0.0
 40
4.029197037170963
100
AcDbArc
 50
319.9438129476444
 51
340.7988568646108
  0
ARC
  5
55E
102
{ACAD_REACTORS
330
73B
330
868
102
}
330
1E
100
AcDbEntity
  8
STEMPEL
100
AcDbCircle
 10
268.4138028032515
 20
441.3445708814331
 30
0.0
 40
4.745201938350518
100
AcDbArc
 50
340.7988568646108
 51
352.9488587834631
  0
ARC
  5
55F
102
{ACAD_REACTORS
330
717
102
}
330
1E
100
AcDbEntity
  8
STEMPEL
100
AcDbCircle
 10
267.4328277781991
 20
438.3445708814331
 30
0.0
 40
1.0
100
AcDbArc
 50
180.0
 51
270.0
  0
LINE
  5
560
102
{ACAD_REACTORS
330
717
102
}
330
1E
100
AcDbEntity
  8
STEMPEL
100
AcDbLine
 10
266.432827778199
 20
444.3445708814332
 30
0.0
 11
266.432827778199
 21
438.3445708814331
 31
0.0
  0
ARC
  5
561
102
{ACAD_REACTORS
330
717
102
}
330
1E
100
AcDbEntity
  8
STEMPEL
100
AcDbCircle
 10
267.4328277781991
 20
444.3445708814332
 30
0.0
 40
1.0
100
AcDbArc
 50
90.0
 51
180.0
  0
ARC
  5
562
102
{ACAD_REACTORS
330
73B
102
}
330
1E
100
AcDbEntity
  8
STEMPEL
100
AcDbCircle
 10
270.0712471577829
 20
441.942098668828
 30
0.0
 40
3.466613518339271
100
AcDbArc
 50
116.2275560863386
 51
139.9438129476443
  0
ARC
  5
563
102
{ACAD_REACTORS
330
73B
102
}
330
1E
100
AcDbEntity
  8
STEMPEL
100
AcDbCircle
 10
270.5018563050123
 20
441.5800545030373
 30
0.0
 40
4.029197037170673
100
AcDbArc
 50
139.9438129476443
 51
160.7988568646108
  0
ARC
  5
564
102
{ACAD_REACTORS
330
73B
102
}
330
1E
100
AcDbEntity
  8
STEMPEL
100
AcDbCircle
 10
271.1780297165491
 20
441.3445708814331
 30
0.0
 40
4.745201938350191
100
AcDbArc
 50
160.7988568646108
 51
180.0
  0
ARC
  5
565
102
{ACAD_REACTORS
330
73B
102
}
330
1E
100
AcDbEntity
  8
STEMPEL
100
AcDbCircle
 10
271.1780297165491
 20
441.3445708814331
 30
0.0
 40
4.745201938350191
100
AcDbArc
 50
180.0
 51
199.2011431353891
  0
ARC
  5
566
102
{ACAD_REACTORS
330
73B
102
}
330
1E
100
AcDbEntity
  8
STEMPEL
100
AcDbCircle
 10
270.5018563050123
 20
441.109087259829
 30
0.0
 40
4.029197037170677
100
AcDbArc
 50
199.2011431353891
 51
220.0561870523557
  0
ARC
  5
567
102
{ACAD_REACTORS
330
73B
102
}
330
1E
100
AcDbEntity
  8
STEMPEL
100
AcDbCircle
 10
270.0712471577828
 20
440.7470430940382
 30
0.0
 40
3.466613518339158
100
AcDbArc
 50
220.0561870523557
 51
243.7724439136628
  0
LINE
  5
568
102
{ACAD_REACTORS
330
717
102
}
330
1E
100
AcDbEntity
  8
STEMPEL
100
AcDbLine
 10
270.4328277781991
 20
437.3445708814331
 30
0.0
 11
267.4328277781991
 21
437.3445708814331
 31
0.0
  0
LINE
  5
569
102
{ACAD_REACTORS
330
717
102
}
330
1E
100
AcDbEntity
  8
STEMPEL
100
AcDbLine
 10
270.4328277781991
 20
445.3445708814331
 30
0.0
 11
267.4328277781991
 21
445.3445708814331
 31
0.0
  0
ARC
  5
56B
102
{ACAD_REACTORS
330
73B
102
}
330
1E
100
AcDbEntity
  8
STEMPEL
100
AcDbCircle
 10
269.7959162599005
 20
442.500966276892
 30
0.0
 40
2.843604604541096
100
AcDbArc
 50
90.0
 51
116.2275560863379
  0
ARC
  5
56C
102
{ACAD_REACTORS
330
73B
102
}
330
1E
100
AcDbEntity
  8
STEMPEL
100
AcDbCircle
 10
269.7959162599005
 20
440.1881754859742
 30
0.0
 40
2.843604604540985
100
AcDbArc
 50
243.7724439136617
 51
270.0
  0
LINE
  5
56D
102
{ACAD_REACTORS
330
717
102
}
330
1E
100
AcDbEntity
  8
STEMPEL
100
AcDbLine
 10
270.4328277781991
 20
450.3445708814331
 30
0.0
 11
270.4328277781991
 21
445.3445708814331
 31
0.0
  0
ARC
  5
56E
102
{ACAD_REACTORS
330
73B
330
868
102
}
330
1E
100
AcDbEntity
  8
STEMPEL
100
AcDbCircle
 10
252.182827778199
 20
442.3445708814333
 30
0.0
 40
21.0
100
AcDbArc
 50
355.6782614202369
 51
16.65737706073268
  0
ARC
  5
56F
102
{ACAD_REACTORS
330
868
102
}
330
1E
100
AcDbEntity
  8
STEMPEL
100
AcDbCircle
 10
279.182827778199
 20
449.5945708814333
 30
0.0
 40
6.75
100
AcDbArc
 50
89.99999999999797
 51
160.2500772043228
  0
ARC
  5
570
102
{ACAD_REACTORS
330
868
102
}
330
1E
100
AcDbEntity
  8
STEMPEL
100
AcDbCircle
 10
279.182827778199
 20
449.5945708814333
 30
0.0
 40
7.75
100
AcDbArc
 50
93.15046356630897
 51
160.2500772043228
  0
ARC
  5
571
102
{ACAD_REACTORS
330
868
102
}
330
1E
100
AcDbEntity
  8
STEMPEL
100
AcDbCircle
 10
252.182827778199
 20
442.3445708814333
 30
0.0
 40
22.0
100
AcDbArc
 50
353.3741904351755
 51
16.65737706073268
  0
ARC
  5
572
330
1E
100
AcDbEntity
  8
STEMPEL
100
AcDbCircle
 10
277.3633849755801
 20
454.3486480720593
 30
0.0
 40
4.0
100
AcDbArc
 50
142.6684147984907
 51
152.5871704346632
  0
ARC
  5
573
102
{ACAD_REACTORS
330
868
102
}
330
1E
100
AcDbEntity
  8
STEMPEL
100
AcDbCircle
 10
269.0899762147885
 20
441.1090872598292
 30
0.0
 40
5.029197037170963
100
AcDbArc
 50
317.1673057240913
 51
340.7988568646108
  0
LINE
  5
574
330
1E
100
AcDbEntity
  8
MITTEL
100
AcDbLine
 10
273.182827778199
 20
464.3445708814332
 30
0.0
 11
273.182827778199
 21
452.8608808592009
 31
0.0
  0
LINE
  5
575
102
{ACAD_REACTORS
330
717
102
}
330
1E
100
AcDbEntity
  8
STEMPEL
100
AcDbLine
 10
267.4328277781991
 20
459.9981607199193
 30
0.0
 11
267.4328277781991
 21
456.2445708814331
 31
0.0
  0
LINE
  5
576
102
{ACAD_REACTORS
330
717
102
}
330
1E
100
AcDbEntity
  8
STEMPEL
100
AcDbLine
 10
272.1828277781991
 20
460.3445708814332
 30
0.0
 11
272.1828277781991
 21
453.3756597946786
 31
0.0
  0
LINE
  5
577
102
{ACAD_REACTORS
330
717
102
}
330
1E
100
AcDbEntity
  8
STEMPEL
100
AcDbLine
 10
280.1828277781991
 20
461.3445708814332
 30
0.0
 11
277.182827778199
 21
458.3445708814331
 31
0.0
  0
LINE
  5
578
102
{ACAD_REACTORS
330
717
102
}
330
1E
100
AcDbEntity
  8
STEMPEL
100
AcDbLine
 10
274.1828277781991
 20
460.3445708814332
 30
0.0
 11
274.1828277781991
 21
456.7743553738967
 31
0.0
  0
LINE
  5
579
330
1E
100
AcDbEntity
  8
TEXT
 62
     2
100
AcDbLine
 10
272.8711380519148
 20
473.4254660573821
 30
0.0
 11
269.7333508710265
 21
459.2112543491698
 31
0.0
  0
ARC
  5
57B
102
{ACAD_REACTORS
330
868
102
}
330
1E
100
AcDbEntity
  8
STEMPEL
100
AcDbCircle
 10
286.4965362771839
 20
452.3445708814333
 30
0.0
 40
8.0
100
AcDbArc
 50
90.0
 51
134.9999999999997
  0
ARC
  5
57C
102
{ACAD_REACTORS
330
868
102
}
330
1E
100
AcDbEntity
  8
STEMPEL
100
AcDbCircle
 10
286.4965362771839
 20
452.3445708814333
 30
0.0
 40
9.0
100
AcDbArc
 50
90.0
 51
134.9999999999997
  0
ARC
  5
57D
330
1E
100
AcDbEntity
  8
STEMPEL
100
AcDbCircle
 10
286.4965362771839
 20
452.3445708814333
 30
0.0
 40
6.5
100
AcDbArc
 50
90.0
 51
134.9999999999997
  0
LINE
  5
57E
102
{ACAD_REACTORS
330
868
102
}
330
1E
100
AcDbEntity
  8
STEMPEL
100
AcDbLine
 10
267.182827778199
 20
435.3445708814332
 30
0.0
 11
267.182827778199
 21
434.3445708814332
 31
0.0
  0
ARC
  5
57F
102
{ACAD_REACTORS
330
868
102
}
330
1E
100
AcDbEntity
  8
STEMPEL
100
AcDbCircle
 10
268.4328277781991
 20
437.3445708814331
 30
0.0
 40
3.0
100
AcDbArc
 50
270.0
 51
318.0349709299679
  0
ARC
  5
580
102
{ACAD_REACTORS
330
717
330
868
102
}
330
1E
100
AcDbEntity
  8
STEMPEL
100
AcDbCircle
 10
268.4328277781991
 20
437.3445708814331
 30
0.0
 40
2.0
100
AcDbArc
 50
270.0
 51
0.0
  0
LINE
  5
581
102
{ACAD_REACTORS
330
868
102
}
330
1E
100
AcDbEntity
  8
STEMPEL
100
AcDbLine
 10
272.0693668540853
 20
438.3973362631277
 30
0.0
 11
269.9199339705182
 21
436.007217086521
 31
0.0
  0
LINE
  5
582
102
{ACAD_REACTORS
330
868
102
}
330
1E
100
AcDbEntity
  8
STEMPEL
100
AcDbLine
 10
272.7780978315803
 20
437.6899379828237
 30
0.0
 11
270.6634870666779
 21
435.3385401890649
 31
0.0
  0
LINE
  5
583
330
1E
100
AcDbEntity
  8
STEMPEL
100
AcDbLine
 10
286.4965362771839
 20
458.8445708814332
 30
0.0
 11
329.3445115624511
 21
458.8445708814332
 31
0.0
  0
LINE
  5
584
102
{ACAD_REACTORS
330
717
102
}
330
1E
100
AcDbEntity
  8
STEMPEL
100
AcDbLine
 10
260.682827778199
 20
456.2445708814331
 30
0.0
 11
260.682827778199
 21
455.2445708814332
 31
0.0
  0
LINE
  5
585
102
{ACAD_REACTORS
330
717
102
}
330
1E
100
AcDbEntity
  8
STEMPEL
100
AcDbLine
 10
260.682827778199
 20
455.2445708814332
 30
0.0
 11
262.682827778199
 21
449.7496160425239
 31
0.0
  0
LINE
  5
586
102
{ACAD_REACTORS
330
754
330
782
102
}
330
1E
100
AcDbEntity
  8
STEMPEL
100
AcDbLine
 10
263.1828277781991
 20
430.3445708814333
 30
0.0
 11
262.682827778199
 21
426.3445708814333
 31
0.0
  0
LINE
  5
588
330
1E
100
AcDbEntity
  8
STEMPEL
100
AcDbLine
 10
260.682827778199
 20
431.8445708814333
 30
0.0
 11
260.682827778199
 21
430.3445708814333
 31
0.0
  0
LINE
  5
589
102
{ACAD_REACTORS
330
782
102
}
330
1E
100
AcDbEntity
  8
STEMPEL
100
AcDbLine
 10
261.6828277781991
 20
430.3445708814333
 30
0.0
 11
261.1828277781991
 21
426.3445708814333
 31
0.0
  0
LINE
  5
58A
102
{ACAD_REACTORS
330
717
102
}
330
1E
100
AcDbEntity
  8
STEMPEL
100
AcDbLine
 10
262.682827778199
 20
449.7496160425239
 30
0.0
 11
262.682827778199
 21
435.3445708814332
 31
0.0
  0
LINE
  5
58B
102
{ACAD_REACTORS
330
782
102
}
330
1E
100
AcDbEntity
  8
STEMPEL
100
AcDbLine
 10
262.682827778199
 20
389.1190194406575
 30
0.0
 11
258.5548092345792
 21
375.7029591738927
 31
0.0
  0
LINE
  5
58C
102
{ACAD_REACTORS
330
782
102
}
330
1E
100
AcDbEntity
  8
STEMPEL
100
AcDbLine
 10
261.1828277781991
 20
389.3445708814333
 30
0.0
 11
257.1828277781991
 21
376.3445708814333
 31
0.0
  0
LINE
  5
58D
102
{ACAD_REACTORS
330
782
102
}
330
1E
100
AcDbEntity
  8
STEMPEL
100
AcDbLine
 10
257.1828277781991
 20
376.3445708814333
 30
0.0
 11
250.6828277781991
 21
366.3445708814333
 31
0.0
  0
LINE
  5
58E
102
{ACAD_REACTORS
330
74A
330
782
102
}
330
1E
100
AcDbEntity
  8
STEMPEL
100
AcDbLine
 10
258.5548092345792
 20
375.7029591738927
 30
0.0
 11
252.4718568444805
 21
366.3445708814333
 31
0.0
  0
ARC
  5
58F
102
{ACAD_REACTORS
330
74A
102
}
330
1E
100
AcDbEntity
  8
SCHRAFF
100
AcDbCircle
 10
251.657788947265
 20
366.6990692706842
 30
0.0
 40
2.267667341516224
100
AcDbArc
 50
277.646451843945
 51
34.25857580097011
  0
LINE
  5
591
102
{ACAD_REACTORS
330
76B
102
}
330
1E
100
AcDbEntity
  8
STEMPEL
100
AcDbLine
 10
247.7619143451032
 20
354.6609171490497
 30
0.0
 11
250.6828277781991
 21
366.3445708814333
 31
0.0
  0
LINE
  5
592
102
{ACAD_REACTORS
330
74A
330
76B
102
}
330
1E
100
AcDbEntity
  8
STEMPEL
100
AcDbLine
 10
249.0995608475892
 20
353.8843487161775
 30
0.0
 11
252.4718568444805
 21
366.3445708814333
 31
0.0
  0
LINE
  5
593
102
{ACAD_REACTORS
330
782
102
}
330
1E
100
AcDbEntity
  8
STEMPEL
100
AcDbLine
 10
261.1828277781991
 20
426.3445708814333
 30
0.0
 11
261.1828277781991
 21
389.3445708814333
 31
0.0
  0
LINE
  5
594
102
{ACAD_REACTORS
330
782
102
}
330
1E
100
AcDbEntity
  8
STEMPEL
100
AcDbLine
 10
262.682827778199
 20
426.3445708814332
 30
0.0
 11
262.682827778199
 21
389.1190194406575
 31
0.0
  0
ARC
  5
595
102
{ACAD_REACTORS
330
754
102
}
330
1E
100
AcDbEntity
  8
STEMPEL
100
AcDbCircle
 10
265.0959993483438
 20
440.8445708814332
 30
0.0
 40
10.5
100
AcDbArc
 50
270.0
 51
353.3741904351755
  0
ARC
  5
597
330
1E
100
AcDbEntity
  8
STEMPEL
100
AcDbCircle
 10
265.0959993483438
 20
440.8445708814332
 30
0.0
 40
9.0
100
AcDbArc
 50
270.0
 51
353.3741904351755
  0
ARC
  5
599
102
{ACAD_REACTORS
330
754
102
}
330
1E
100
AcDbEntity
  8
SCHRAFF
100
AcDbCircle
 10
263.0685807926807
 20
430.2946362893236
 30
0.0
 40
2.295463697551729
100
AcDbArc
 50
265.5509948566177
 51
1.331526652514848
  0
LINE
  5
59A
102
{ACAD_REACTORS
330
717
102
}
330
1E
100
AcDbEntity
  8
STEMPEL
100
AcDbLine
 10
267.4328277781991
 20
456.2445708814331
 30
0.0
 11
260.682827778199
 21
456.2445708814331
 31
0.0
  0
LINE
  5
59C
330
1E
100
AcDbEntity
  8
TEXT
 62
     2
100
AcDbLine
 10
276.2331228684206
 20
488.6552956113674
 30
0.0
 11
274.3706238530496
 21
480.218153834491
 31
0.0
  0
LINE
  5
59D
330
1E
100
AcDbEntity
  8
STEMPEL
100
AcDbLine
 10
280.4446864412037
 20
455.4851092008783
 30
0.0
 11
336.5489003855881
 21
455.4851092008783
 31
0.0
  0
LINE
  5
59F
330
1E
100
AcDbEntity
  8
STEMPEL
100
AcDbLine
 10
337.1828277781991
 20
456.8445708814333
 30
0.0
 11
329.6770535564156
 21
460.3445708814333
 31
0.0
  0
LINE
  5
5A0
330
1E
100
AcDbEntity
  8
STEMPEL
100
AcDbLine
 10
336.5489003855881
 20
455.4851092008783
 30
0.0
 11
329.3445115624511
 21
458.8445708814332
 31
0.0
  0
LINE
  5
5A1
102
{ACAD_REACTORS
330
868
102
}
330
1E
100
AcDbEntity
  8
STEMPEL
100
AcDbLine
 10
370.1781029584347
 20
460.3445708814331
 30
0.0
 11
286.4965362771839
 21
460.3445708814331
 31
0.0
  0
TEXT
  5
5A3
330
1E
100
AcDbEntity
  8
TEXT
 62
     1
100
AcDbText
 10
284.0884725209297
 20
299.3649510548856
 30
0.0
 40
7.0
  1
Ablauftopf DN50
 41
0.8
  7
GREEKS
100
AcDbText
  0
LINE
  5
5A4
330
1E
100
AcDbEntity
  8
TEXT
 62
     2
100
AcDbLine
 10
282.5064721394818
 20
517.0736393414795
 30
0.0
 11
387.5240105716752
 21
517.0736393414795
 31
0.0
  0
TEXT
  5
5A5
330
1E
100
AcDbEntity
  8
TEXT
 62
     1
100
AcDbText
 10
282.7119093707823
 20
507.7993631767322
 30
0.0
 40
7.0
  1
EDV-Art.Nr. 15592.000X
 41
0.8
  7
GREEKS
100
AcDbText
  0
LINE
  5
5A6
102
{ACAD_REACTORS
330
76B
102
}
330
1E
100
AcDbEntity
  8
STEMPEL
100
AcDbLine
 10
248.6828277781991
 20
215.3445708814333
 30
0.0
 11
248.2453844605694
 21
210.3445708814333
 31
0.0
  0
LINE
  5
5A7
102
{ACAD_REACTORS
330
76B
102
}
330
1E
100
AcDbEntity
  8
STEMPEL
100
AcDbLine
 10
247.1828277781991
 20
215.3445708814333
 30
0.0
 11
246.7453844605695
 21
210.3445708814333
 31
0.0
  0
LINE
  5
5A8
330
1E
100
AcDbEntity
  8
TEXT
 62
     2
100
AcDbLine
 10
283.8830352896291
 20
296.4084126906738
 30
0.0
 11
248.3786449816583
 21
289.2622144298099
 31
0.0
  0
LINE
  5
5A9
330
1E
100
AcDbEntity
  8
TEXT
 62
     2
100
AcDbLine
 10
283.8830352896291
 20
296.4084126906738
 30
0.0
 11
388.9005737218226
 21
296.4084126906738
 31
0.0
  0
TEXT
  5
5AA
330
1E
100
AcDbEntity
  8
TEXT
 62
     1
100
AcDbText
 10
284.0884725209297
 20
287.1341365259265
 30
0.0
 40
7.0
  1
EDV-Art.Nr. 15279.050X
 41
0.8
  7
GREEKS
100
AcDbText
  0
LINE
  5
5AB
102
{ACAD_REACTORS
330
76B
102
}
330
1E
100
AcDbEntity
  8
STEMPEL
100
AcDbLine
 10
248.6828277781991
 20
350.749396210279
 30
0.0
 11
248.6828277781991
 21
215.3445708814333
 31
0.0
  0
LINE
  5
5AC
102
{ACAD_REACTORS
330
76B
102
}
330
1E
100
AcDbEntity
  8
STEMPEL
100
AcDbLine
 10
247.1828277781991
 20
350.749396210279
 30
0.0
 11
247.1828277781991
 21
215.3445708814333
 31
0.0
  0
LINE
  5
5AD
330
1E
100
AcDbEntity
  8
MITTEL
100
AcDbLine
 10
222.1828277781991
 20
465.3445708814333
 30
0.0
 11
222.1828277781991
 21
202.5173216736706
 31
0.0
  0
LINE
  5
5AE
330
1E
100
AcDbEntity
  8
TEXT
 62
     2
100
AcDbLine
 10
85.65794166840763
 20
517.0736393414795
 30
0.0
 11
77.34527192729588
 21
496.6249515697175
 31
0.0
  0
LINE
  5
5AF
330
1E
100
AcDbEntity
  8
TEXT
 62
     2
100
AcDbLine
 10
85.65794166840763
 20
517.0736393414795
 30
0.0
 11
190.675480100601
 21
517.0736393414795
 31
0.0
  0
TEXT
  5
5B0
330
1E
100
AcDbEntity
  8
TEXT
 62
     1
100
AcDbText
 10
85.86337889970812
 20
520.0301777056913
 30
0.0
 40
7.0
  1
Anschlußmanschette
 41
0.8
  7
GREEKS
100
AcDbText
  0
TEXT
  5
5B1
330
1E
100
AcDbEntity
  8
TEXT
 62
     1
100
AcDbText
 10
85.86337889970812
 20
507.7993631767322
 30
0.0
 40
7.0
  1
EDV-Art.Nr. 15004.000X
 41
0.8
  7
GREEKS
100
AcDbText
  0
LINE
  5
5B2
102
{ACAD_REACTORS
330
717
102
}
330
1E
100
AcDbEntity
  8
STEMPEL
100
AcDbLine
 10
183.682827778199
 20
456.2445708814331
 30
0.0
 11
183.682827778199
 21
455.2445708814331
 31
0.0
  0
LINE
  5
5B3
102
{ACAD_REACTORS
330
717
102
}
330
1E
100
AcDbEntity
  8
STEMPEL
100
AcDbLine
 10
177.132827778199
 20
461.3445708814332
 30
0.0
 11
177.132827778199
 21
460.3445708814332
 31
0.0
  0
LINE
  5
5B4
102
{ACAD_REACTORS
330
717
102
}
330
1E
100
AcDbEntity
  8
STEMPEL
100
AcDbLine
 10
177.132827778199
 20
460.3445708814332
 30
0.0
 11
176.932827778199
 21
459.9981607199194
 31
0.0
  0
ARC
  5
5B5
102
{ACAD_REACTORS
330
73B
102
}
330
1E
100
AcDbEntity
  8
STEMPEL
100
AcDbCircle
 10
174.2944083986153
 20
440.7470430940382
 30
0.0
 40
3.466613518339158
100
AcDbArc
 50
296.2275560863372
 51
319.9438129476444
  0
ARC
  5
5B6
102
{ACAD_REACTORS
330
73B
102
}
330
1E
100
AcDbEntity
  8
STEMPEL
100
AcDbCircle
 10
173.8637992513858
 20
441.109087259829
 30
0.0
 40
4.029197037170677
100
AcDbArc
 50
319.9438129476444
 51
340.7988568646108
  0
ARC
  5
5B7
102
{ACAD_REACTORS
330
73B
102
}
330
1E
100
AcDbEntity
  8
STEMPEL
100
AcDbCircle
 10
173.187625839849
 20
441.3445708814331
 30
0.0
 40
4.745201938350191
100
AcDbArc
 50
340.7988568646108
 51
0.0
  0
ARC
  5
5B8
102
{ACAD_REACTORS
330
73B
102
}
330
1E
100
AcDbEntity
  8
STEMPEL
100
AcDbCircle
 10
173.187625839849
 20
441.3445708814331
 30
0.0
 40
4.745201938350191
100
AcDbArc
 50
0.0
 51
19.20114313538914
  0
ARC
  5
5B9
102
{ACAD_REACTORS
330
73B
102
}
330
1E
100
AcDbEntity
  8
STEMPEL
100
AcDbCircle
 10
173.8637992513858
 20
441.5800545030373
 30
0.0
 40
4.029197037170673
100
AcDbArc
 50
19.20114313538914
 51
40.05618705235565
  0
ARC
  5
5BA
102
{ACAD_REACTORS
330
73B
102
}
330
1E
100
AcDbEntity
  8
STEMPEL
100
AcDbCircle
 10
174.2944083986152
 20
441.942098668828
 30
0.0
 40
3.466613518339271
100
AcDbArc
 50
40.05618705235565
 51
63.77244391366136
  0
ARC
  5
5BB
102
{ACAD_REACTORS
330
717
102
}
330
1E
100
AcDbEntity
  8
STEMPEL
100
AcDbCircle
 10
176.932827778199
 20
438.3445708814331
 30
0.0
 40
1.0
100
AcDbArc
 50
270.0
 51
0.0
  0
LINE
  5
5BC
102
{ACAD_REACTORS
330
717
102
}
330
1E
100
AcDbEntity
  8
STEMPEL
100
AcDbLine
 10
177.932827778199
 20
444.3445708814332
 30
0.0
 11
177.932827778199
 21
438.3445708814331
 31
0.0
  0
ARC
  5
5BD
102
{ACAD_REACTORS
330
717
102
}
330
1E
100
AcDbEntity
  8
STEMPEL
100
AcDbCircle
 10
176.932827778199
 20
444.3445708814332
 30
0.0
 40
1.0
100
AcDbArc
 50
0.0
 51
90.0
  0
ARC
  5
5BE
102
{ACAD_REACTORS
330
90A
102
}
330
1E
100
AcDbEntity
  8
STEMPEL
100
AcDbCircle
 10
169.182827778199
 20
450.9445708814332
 30
0.0
 40
2.5
100
AcDbArc
 50
343.3426229392605
 51
0.9871481076926741
  0
LINE
  5
5BF
102
{ACAD_REACTORS
330
90A
102
}
330
1E
100
AcDbEntity
  8
STEMPEL
100
AcDbLine
 10
171.682827778199
 20
451.0307115430704
 30
0.0
 11
171.682827778199
 21
450.9445708814332
 31
0.0
  0
ARC
  5
5C0
102
{ACAD_REACTORS
330
90A
102
}
330
1E
100
AcDbEntity
  8
STEMPEL
100
AcDbCircle
 10
169.182827778199
 20
451.0307115430704
 30
0.0
 40
2.5
100
AcDbArc
 50
359.0128518923073
 51
19.7499227956744
  0
ARC
  5
5C1
102
{ACAD_REACTORS
330
90A
102
}
330
1E
100
AcDbEntity
  8
STEMPEL
100
AcDbCircle
 10
169.182827778199
 20
451.0307115430704
 30
0.0
 40
3.5
100
AcDbArc
 50
359.2949112955901
 51
19.74992279567432
  0
ARC
  5
5C2
102
{ACAD_REACTORS
330
90A
102
}
330
1E
100
AcDbEntity
  8
STEMPEL
100
AcDbCircle
 10
169.182827778199
 20
450.9445708814332
 30
0.0
 40
3.5
100
AcDbArc
 50
343.3426229392606
 51
0.7050887044098836
  0
LINE
  5
5C3
102
{ACAD_REACTORS
330
90A
102
}
330
1E
100
AcDbEntity
  8
STEMPEL
100
AcDbLine
 10
172.5359537793861
 20
449.9413032101894
 30
0.0
 11
172.0640717710765
 21
448.3641769088965
 31
0.0
  0
ARC
  5
5C4
330
1E
100
AcDbEntity
  8
STEMPEL
100
AcDbCircle
 10
167.682827778199
 20
450.7402148051753
 30
0.0
 40
2.5
100
AcDbArc
 50
2.870713129642757
 51
24.619977328706
  0
ARC
  5
5C5
330
1E
100
AcDbEntity
  8
STEMPEL
100
AcDbCircle
 10
169.182827778199
 20
450.9445708814332
 30
0.0
 40
1.0
100
AcDbArc
 50
343.3426229392606
 51
355.4602913654644
  0
LINE
  5
5C6
330
1E
100
AcDbEntity
  8
STEMPEL
100
AcDbLine
 10
169.6689817702284
 20
449.0807966740697
 30
0.0
 11
170.1408637785383
 21
450.6579229753636
 31
0.0
  0
LINE
  5
5C7
102
{ACAD_REACTORS
330
717
102
}
330
1E
100
AcDbEntity
  8
STEMPEL
100
AcDbLine
 10
173.932827778199
 20
450.3445708814332
 30
0.0
 11
170.4663721959557
 21
456.3486480720594
 31
0.0
  0
LINE
  5
5C8
102
{ACAD_REACTORS
330
90A
102
}
330
1E
100
AcDbEntity
  8
STEMPEL
100
AcDbLine
 10
171.577917779047
 20
450.2279511162591
 30
0.0
 11
171.1060357707371
 21
448.6508248149654
 31
0.0
  0
ARC
  5
5C9
102
{ACAD_REACTORS
330
73B
102
}
330
1E
100
AcDbEntity
  8
STEMPEL
100
AcDbCircle
 10
174.5697392964976
 20
440.1881754859749
 30
0.0
 40
2.843604604541721
100
AcDbArc
 50
243.7724439136657
 51
270.0
  0
ARC
  5
5CA
102
{ACAD_REACTORS
330
73B
330
90A
102
}
330
1E
100
AcDbEntity
  8
STEMPEL
100
AcDbCircle
 10
175.2756793416097
 20
441.1090872598292
 30
0.0
 40
4.029197037170963
100
AcDbArc
 50
199.2011431353826
 51
222.9344073501441
  0
ARC
  5
5CB
102
{ACAD_REACTORS
330
73B
102
}
330
1E
100
AcDbEntity
  8
STEMPEL
100
AcDbCircle
 10
174.8450701943806
 20
440.7470430940389
 30
0.0
 40
3.466613518340057
100
AcDbArc
 50
220.0561870523557
 51
243.772443913653
  0
ARC
  5
5CC
102
{ACAD_REACTORS
330
90A
102
}
330
1E
100
AcDbEntity
  8
STEMPEL
100
AcDbCircle
 10
175.9518527531465
 20
441.3445708814331
 30
0.0
 40
5.745201938350518
100
AcDbArc
 50
186.8049747603929
 51
199.2011431353824
  0
ARC
  5
5CD
102
{ACAD_REACTORS
330
90A
102
}
330
1E
100
AcDbEntity
  8
STEMPEL
100
AcDbCircle
 10
175.2756793416097
 20
441.1090872598292
 30
0.0
 40
5.029197037170963
100
AcDbArc
 50
199.2011431353824
 51
222.8326942765032
  0
LWPOLYLINE
  5
5CE
102
{ACAD_REACTORS
330
73B
102
}
330
1E
100
AcDbEntity
  8
STEMPEL
100
AcDbPolyline
 90
        5
 70
     0
 43
0.0
 10
174.5697392964976
 20
445.3445708814331
 42
0.1149415123267204
 10
173.3130442610808
 20
445.0518102029146
 42
0.1038526577300335
 10
172.191676625356
 20
444.1729980061793
 42
0.0912492981546976
 10
171.4706273065051
 20
442.90519893837
 42
0.0839773692119132
 10
171.206650814796
 20
441.3445708814331
 42
0.0839773692119072
  0
ARC
  5
5CF
102
{ACAD_REACTORS
330
73B
330
90A
102
}
330
1E
100
AcDbEntity
  8
STEMPEL
100
AcDbCircle
 10
175.9518527531465
 20
441.3445708814331
 30
0.0
 40
4.745201938350518
100
AcDbArc
 50
187.0511412165368
 51
199.2011431353824
  0
ARC
  5
5D0
330
1E
100
AcDbEntity
  8
STEMPEL
100
AcDbCircle
 10
192.182827778199
 20
442.3445708814333
 30
0.0
 40
23.5
100
AcDbArc
 50
163.3426229392606
 51
186.6258095648245
  0
ARC
  5
5D1
102
{ACAD_REACTORS
330
90A
102
}
330
1E
100
AcDbEntity
  8
STEMPEL
100
AcDbCircle
 10
192.182827778199
 20
442.3445708814333
 30
0.0
 40
22.0
100
AcDbArc
 50
163.3426229392626
 51
186.6258095648231
  0
LINE
  5
5D2
102
{ACAD_REACTORS
330
717
102
}
330
1E
100
AcDbEntity
  8
STEMPEL
100
AcDbLine
 10
173.932827778199
 20
450.3445708814332
 30
0.0
 11
173.932827778199
 21
445.3445708814331
 31
0.0
  0
ARC
  5
5D3
102
{ACAD_REACTORS
330
73B
330
90A
102
}
330
1E
100
AcDbEntity
  8
STEMPEL
100
AcDbCircle
 10
192.182827778199
 20
442.3445708814333
 30
0.0
 40
21.0
100
AcDbArc
 50
163.3426229392604
 51
184.3217385797609
  0
ARC
  5
5D5
102
{ACAD_REACTORS
330
73B
102
}
330
1E
100
AcDbEntity
  8
STEMPEL
100
AcDbCircle
 10
174.5697392964976
 20
440.1881754859742
 30
0.0
 40
2.843604604540985
100
AcDbArc
 50
270.0
 51
296.2275560863383
  0
ARC
  5
5D6
102
{ACAD_REACTORS
330
73B
102
}
330
1E
100
AcDbEntity
  8
STEMPEL
100
AcDbCircle
 10
174.5697392964976
 20
442.500966276892
 30
0.0
 40
2.843604604541096
100
AcDbArc
 50
63.77244391366208
 51
90.0
  0
LINE
  5
5D7
102
{ACAD_REACTORS
330
717
102
}
330
1E
100
AcDbEntity
  8
STEMPEL
100
AcDbLine
 10
176.932827778199
 20
437.3445708814331
 30
0.0
 11
173.932827778199
 21
437.3445708814331
 31
0.0
  0
LINE
  5
5D8
102
{ACAD_REACTORS
330
717
102
}
330
1E
100
AcDbEntity
  8
STEMPEL
100
AcDbLine
 10
176.932827778199
 20
445.3445708814332
 30
0.0
 11
173.932827778199
 21
445.3445708814331
 31
0.0
  0
LINE
  5
5D9
102
{ACAD_REACTORS
330
717
102
}
330
1E
100
AcDbEntity
  8
STEMPEL
100
AcDbLine
 10
176.932827778199
 20
459.9981607199194
 30
0.0
 11
176.932827778199
 21
456.2445708814331
 31
0.0
  0
LINE
  5
5DA
102
{ACAD_REACTORS
330
717
102
}
330
1E
100
AcDbEntity
  8
STEMPEL
100
AcDbLine
 10
183.682827778199
 20
456.2445708814331
 30
0.0
 11
176.932827778199
 21
456.2445708814331
 31
0.0
  0
LINE
  5
5DB
102
{ACAD_REACTORS
330
717
102
}
330
1E
100
AcDbEntity
  8
STEMPEL
100
AcDbLine
 10
183.682827778199
 20
455.2445708814331
 30
0.0
 11
181.682827778199
 21
449.749616042524
 31
0.0
  0
LINE
  5
5DC
330
1E
100
AcDbEntity
  8
STEMPEL
100
AcDbLine
 10
183.682827778199
 20
431.8445708814333
 30
0.0
 11
183.682827778199
 21
430.3445708814333
 31
0.0
  0
LINE
  5
5DD
102
{ACAD_REACTORS
330
754
330
782
102
}
330
1E
100
AcDbEntity
  8
STEMPEL
100
AcDbLine
 10
181.682827778199
 20
426.3445708814332
 30
0.0
 11
181.182827778199
 21
430.3445708814333
 31
0.0
  0
LINE
  5
5DE
102
{ACAD_REACTORS
330
782
102
}
330
1E
100
AcDbEntity
  8
STEMPEL
100
AcDbLine
 10
183.182827778199
 20
426.3445708814332
 30
0.0
 11
182.682827778199
 21
430.3445708814333
 31
0.0
  0
LINE
  5
5DF
102
{ACAD_REACTORS
330
90A
102
}
330
1E
100
AcDbEntity
  8
STEMPEL
100
AcDbLine
 10
177.182827778199
 20
435.3445708814332
 30
0.0
 11
177.182827778199
 21
434.3445708814331
 31
0.0
  0
ARC
  5
5E2
102
{ACAD_REACTORS
330
90A
102
}
330
1E
100
AcDbEntity
  8
STEMPEL
100
AcDbCircle
 10
175.932827778199
 20
437.3445708814331
 30
0.0
 40
3.0
100
AcDbArc
 50
221.9650290700304
 51
270.0
  0
ARC
  5
5E3
330
1E
100
AcDbEntity
  8
STEMPEL
100
AcDbCircle
 10
179.2696562080544
 20
440.8445708814332
 30
0.0
 40
9.0
100
AcDbArc
 50
186.6258095648231
 51
270.0
  0
LINE
  5
5E4
102
{ACAD_REACTORS
330
90A
102
}
330
1E
100
AcDbEntity
  8
STEMPEL
100
AcDbLine
 10
171.5875577248526
 20
437.6899379827851
 30
0.0
 11
173.7021684897201
 21
435.338540189065
 31
0.0
  0
LINE
  5
5E5
102
{ACAD_REACTORS
330
717
102
}
330
1E
100
AcDbEntity
  8
STEMPEL
100
AcDbLine
 10
181.682827778199
 20
449.749616042524
 30
0.0
 11
181.682827778199
 21
435.3445708814332
 31
0.0
  0
LINE
  5
5E6
102
{ACAD_REACTORS
330
90A
102
}
330
1E
100
AcDbEntity
  8
STEMPEL
100
AcDbLine
 10
172.3257672819026
 20
438.3645567709577
 30
0.0
 11
174.4457215858798
 21
436.007217086521
 31
0.0
  0
ARC
  5
5E7
102
{ACAD_REACTORS
330
717
330
90A
102
}
330
1E
100
AcDbEntity
  8
STEMPEL
100
AcDbCircle
 10
175.932827778199
 20
437.3445708814331
 30
0.0
 40
2.0
100
AcDbArc
 50
180.0
 51
270.0
  0
ARC
  5
5E8
330
1E
100
AcDbEntity
  8
STEMPEL
100
AcDbCircle
 10
157.8691192792143
 20
452.3445708814333
 30
0.0
 40
8.0
100
AcDbArc
 50
45.00000000000029
 51
45.00000000000029
  0
LINE
  5
5E9
102
{ACAD_REACTORS
330
90A
102
}
330
1E
100
AcDbEntity
  8
STEMPEL
100
AcDbLine
 10
163.5259735287066
 20
458.0014251309258
 30
0.0
 11
165.1828277781992
 21
456.3445708814333
 31
0.0
  0
LINE
  5
5EA
102
{ACAD_REACTORS
330
90A
102
}
330
1E
100
AcDbEntity
  8
STEMPEL
100
AcDbLine
 10
164.2330803098931
 20
458.7085319121124
 30
0.0
 11
165.6087542811457
 21
457.3328579408596
 31
0.0
  0
LINE
  5
5EB
330
1E
100
AcDbEntity
  8
STEMPEL
100
AcDbLine
 10
162.4653133569268
 20
456.9407649591458
 30
0.0
 11
164.5945685711549
 21
454.8115097449178
 31
0.0
  0
ARC
  5
5EC
330
1E
100
AcDbEntity
  8
STEMPEL
100
AcDbCircle
 10
157.8691192792143
 20
452.3445708814333
 30
0.0
 40
6.5
100
AcDbArc
 50
45.00000000000029
 51
90.0
  0
LINE
  5
5ED
102
{ACAD_REACTORS
330
717
102
}
330
1E
100
AcDbEntity
  8
STEMPEL
100
AcDbLine
 10
164.1828277781991
 20
461.3445708814331
 30
0.0
 11
167.1828277781991
 21
458.344570881433
 31
0.0
  0
ARC
  5
5EE
102
{ACAD_REACTORS
330
90A
102
}
330
1E
100
AcDbEntity
  8
STEMPEL
100
AcDbCircle
 10
157.8691192792143
 20
452.3445708814333
 30
0.0
 40
8.0
100
AcDbArc
 50
45.00000000000101
 51
90.0
  0
ARC
  5
5EF
102
{ACAD_REACTORS
330
90A
102
}
330
1E
100
AcDbEntity
  8
STEMPEL
100
AcDbCircle
 10
157.8691192792143
 20
452.3445708814333
 30
0.0
 40
9.0
100
AcDbArc
 50
45.00000000000102
 51
90.0
  0
ARC
  5
5F0
102
{ACAD_REACTORS
330
754
102
}
330
1E
100
AcDbEntity
  8
STEMPEL
100
AcDbCircle
 10
179.2696562080544
 20
440.8445708814332
 30
0.0
 40
10.5
100
AcDbArc
 50
186.6258095648245
 51
270.0
  0
ARC
  5
5F1
330
1E
100
AcDbEntity
  8
STEMPEL
100
AcDbCircle
 10
165.182827778199
 20
449.5945708814333
 30
0.0
 40
5.25
100
AcDbArc
 50
24.61997732871293
 51
96.43346645157965
  0
ARC
  5
5F3
102
{ACAD_REACTORS
330
717
102
}
330
1E
100
AcDbEntity
  8
STEMPEL
100
AcDbCircle
 10
167.0022705808179
 20
454.3486480720593
 30
0.0
 40
4.0
100
AcDbArc
 50
29.99999999999993
 51
87.41282956533574
  0
ARC
  5
5F5
102
{ACAD_REACTORS
330
90A
102
}
330
1E
100
AcDbEntity
  8
STEMPEL
100
AcDbCircle
 10
165.182827778199
 20
449.5945708814333
 30
0.0
 40
6.75
100
AcDbArc
 50
19.74992279567491
 51
89.99999999999904
  0
ARC
  5
5F6
102
{ACAD_REACTORS
330
90A
102
}
330
1E
100
AcDbEntity
  8
STEMPEL
100
AcDbCircle
 10
165.182827778199
 20
449.5945708814333
 30
0.0
 40
7.75
100
AcDbArc
 50
19.74992279567481
 51
86.84953643368809
  0
LINE
  5
5F7
102
{ACAD_REACTORS
330
74A
330
76B
102
}
330
1E
100
AcDbEntity
  8
STEMPEL
100
AcDbLine
 10
195.2635596346249
 20
353.8887699949377
 30
0.0
 11
191.8729587597082
 21
366.3766323463708
 31
0.0
  0
LINE
  5
5F8
102
{ACAD_REACTORS
330
76B
102
}
330
1E
100
AcDbEntity
  8
STEMPEL
100
AcDbLine
 10
196.919479090961
 20
353.3979656303854
 30
0.0
 11
193.682827778199
 21
366.3445708814333
 31
0.0
  0
LINE
  5
5F9
102
{ACAD_REACTORS
330
782
102
}
330
1E
100
AcDbEntity
  8
STEMPEL
100
AcDbLine
 10
187.182827778199
 20
376.3445708814333
 30
0.0
 11
193.682827778199
 21
366.3445708814333
 31
0.0
  0
LINE
  5
5FA
102
{ACAD_REACTORS
330
74A
330
782
102
}
330
1E
100
AcDbEntity
  8
STEMPEL
100
AcDbLine
 10
185.8108463218191
 20
375.7029591738926
 30
0.0
 11
191.8937987119175
 21
366.3445708814332
 31
0.0
  0
ARC
  5
5FB
102
{ACAD_REACTORS
330
74A
102
}
330
1E
100
AcDbEntity
  8
SCHRAFF
100
AcDbCircle
 10
192.3971997522045
 20
366.5123840433785
 30
0.0
 40
2.105669639426855
100
AcDbArc
 50
137.1394914393004
 51
270.2886350654313
  0
LINE
  5
5FD
102
{ACAD_REACTORS
330
782
102
}
330
1E
100
AcDbEntity
  8
STEMPEL
100
AcDbLine
 10
181.682827778199
 20
389.1190194406576
 30
0.0
 11
185.8108463218191
 21
375.7029591738926
 31
0.0
  0
LINE
  5
5FE
102
{ACAD_REACTORS
330
782
102
}
330
1E
100
AcDbEntity
  8
STEMPEL
100
AcDbLine
 10
183.182827778199
 20
389.3445708814333
 30
0.0
 11
187.182827778199
 21
376.3445708814333
 31
0.0
  0
LINE
  5
5FF
102
{ACAD_REACTORS
330
782
102
}
330
1E
100
AcDbEntity
  8
STEMPEL
100
AcDbLine
 10
183.182827778199
 20
426.3445708814332
 30
0.0
 11
183.182827778199
 21
389.3445708814333
 31
0.0
  0
LINE
  5
600
102
{ACAD_REACTORS
330
782
102
}
330
1E
100
AcDbEntity
  8
STEMPEL
100
AcDbLine
 10
181.682827778199
 20
426.3445708814332
 30
0.0
 11
181.682827778199
 21
389.1190194406576
 31
0.0
  0
LINE
  5
601
330
1E
100
AcDbEntity
  8
STEMPEL
100
AcDbLine
 10
107.182827778199
 20
456.8445708814333
 30
0.0
 11
107.81675517081
 21
455.4851092008783
 31
0.0
  0
LINE
  5
602
330
1E
100
AcDbEntity
  8
STEMPEL
100
AcDbLine
 10
107.81675517081
 20
455.4851092008783
 30
0.0
 11
115.0211439939469
 21
458.8445708814332
 31
0.0
  0
LINE
  5
603
330
1E
100
AcDbEntity
  8
STEMPEL
100
AcDbLine
 10
107.182827778199
 20
456.8445708814333
 30
0.0
 11
114.6886019999825
 21
460.3445708814333
 31
0.0
  0
LINE
  5
604
102
{ACAD_REACTORS
330
90A
102
}
330
1E
100
AcDbEntity
  8
HILF
100
AcDbLine
 10
74.41707074492348
 20
463.3445708814331
 30
0.0
 11
73.0773247827679
 21
458.3445708814331
 31
0.0
  0
LINE
  5
605
102
{ACAD_REACTORS
330
90A
102
}
330
1E
100
AcDbEntity
  8
HILF
100
AcDbLine
 10
73.41707074492347
 20
463.3445708814331
 30
0.0
 11
72.0773247827679
 21
458.3445708814331
 31
0.0
  0
LINE
  5
606
330
1E
100
AcDbEntity
  8
STEMPEL
100
AcDbLine
 10
163.9209691151945
 20
455.4851092008783
 30
0.0
 11
107.81675517081
 21
455.4851092008783
 31
0.0
  0
LINE
  5
607
330
1E
100
AcDbEntity
  8
STEMPEL
100
AcDbLine
 10
157.8691192792143
 20
458.8445708814332
 30
0.0
 11
115.0211439939469
 21
458.8445708814332
 31
0.0
  0
LINE
  5
609
102
{ACAD_REACTORS
330
90A
102
}
330
1E
100
AcDbEntity
  8
STEMPEL
100
AcDbLine
 10
157.8691192792143
 20
460.3445708814332
 30
0.0
 11
73.61322316763015
 21
460.3445708814332
 31
0.0
  0
LINE
  5
60B
102
{ACAD_REACTORS
330
90A
102
}
330
1E
100
AcDbEntity
  8
STEMPEL
100
AcDbLine
 10
52.18282777819904
 20
461.3445708814333
 30
0.0
 11
52.18282777819904
 21
460.3445708814333
 31
0.0
  0
LINE
  5
60C
102
{ACAD_REACTORS
330
90A
102
}
330
1E
100
AcDbEntity
  8
STEMPEL
100
AcDbLine
 10
72.61322316763015
 20
460.3445708814332
 30
0.0
 11
52.18282777819904
 21
460.3445708814333
 31
0.0
  0
LINE
  5
60D
102
{ACAD_REACTORS
330
90A
102
}
330
1E
100
AcDbEntity
  8
STEMPEL
100
AcDbLine
 10
72.88117236006127
 20
461.3445708814332
 30
0.0
 11
52.18282777819904
 21
461.3445708814333
 31
0.0
  0
LINE
  5
60F
330
1E
100
AcDbEntity
  8
TEXT
 62
     2
100
AcDbLine
 10
74.29365671899771
 20
489.1181542906878
 30
0.0
 11
62.91500549541297
 21
461.1273290346199
 31
0.0
  0
LINE
  5
610
102
{ACAD_REACTORS
330
76B
102
}
330
1E
100
AcDbEntity
  8
STEMPEL
100
AcDbLine
 10
197.182827778199
 20
215.3445708814333
 30
0.0
 11
197.6202710958287
 21
210.3445708814333
 31
0.0
  0
LINE
  5
611
102
{ACAD_REACTORS
330
76B
102
}
330
1E
100
AcDbEntity
  8
STEMPEL
100
AcDbLine
 10
195.682827778199
 20
215.3445708814333
 30
0.0
 11
196.1202710958287
 21
210.3445708814333
 31
0.0
  0
LINE
  5
612
102
{ACAD_REACTORS
330
76B
102
}
330
1E
100
AcDbEntity
  8
STEMPEL
100
AcDbLine
 10
195.682827778199
 20
350.7444656729038
 30
0.0
 11
195.682827778199
 21
215.3445708814333
 31
0.0
  0
LINE
  5
613
102
{ACAD_REACTORS
330
76B
102
}
330
1E
100
AcDbEntity
  8
STEMPEL
100
AcDbLine
 10
197.182827778199
 20
350.7444656729038
 30
0.0
 11
197.182827778199
 21
215.3445708814333
 31
0.0
  0
DIMENSION
  5
614
330
1E
100
AcDbEntity
  8
BEM
100
AcDbDimension
  2
*D1
 10
82.57387203666821
 20
460.3445708814333
 30
0.0
 11
76.07387203666812
 21
335.3445708814334
 31
0.0
 70
    32
 71
     5
 42
250.0
  3
Standard
100
AcDbAlignedDimension
 13
196.1202710958287
 23
210.3445708814333
 33
0.0
 14
114.7741882741625
 24
460.3445708814333
 34
0.0
 50
90.0
100
AcDbRotatedDimension
1001
ACAD
1000
DSTYLE
1002
{
1070
    40
1040
2.0
1070
    41
1040
3.5
1070
    42
1040
1.0
1070
    43
1040
7.0
1070
    44
1040
1.0
1070
    73
1070
     0
1070
    74
1070
     0
1070
    77
1070
     1
1070
    78
1070
     8
1070
    79
1070
     2
1070
   140
1040
3.5
1070
   141
1040
1.5
1070
   146
1040
0.5142857142857144
1070
   147
1040
1.5
1070
   172
1070
     1
1070
   178
1070
     1
1070
   179
1070
     2
1070
   271
1070
     2
1070
   272
1070
     2
1070
   284
1070
     8
1070
   285
1070
     8
1070
   286
1070
     8
1002
}
  0
LINE
  5
616
102
{ACAD_REACTORS
330
76B
102
}
330
1E
100
AcDbEntity
  8
STEMPEL
100
AcDbLine
 10
248.2453844605694
 20
210.3445708814333
 30
0.0
 11
196.1202710958287
 21
210.3445708814333
 31
0.0
  0
LINE
  5
617
330
1E
100
AcDbEntity
  8
HILF
100
AcDbLine
 10
245.6770980218841
 20
215.3445708814333
 30
0.0
 11
198.6885575345141
 21
215.3445708814333
 31
0.0
  0
DIMENSION
  5
618
330
1E
100
AcDbEntity
  8
BEM
100
AcDbDimension
  2
*D2
 10
248.6828277781991
 20
186.3656635950417
 30
0.0
 11
222.1828277781991
 21
192.8656635950417
 31
0.0
 70
    32
  1
%%C<>
 71
     5
 42
53.0
  3
Standard
100
AcDbAlignedDimension
 13
195.682827778199
 23
215.3445708814333
 33
0.0
 14
248.6828277781991
 24
215.3445708814333
 34
0.0
100
AcDbRotatedDimension
1001
ACAD
1000
DSTYLE
1002
{
1070
    40
1040
2.0
1070
    41
1040
3.5
1070
    42
1040
1.0
1070
    43
1040
7.0
1070
    44
1040
1.0
1070
    73
1070
     0
1070
    74
1070
     0
1070
    77
1070
     1
1070
    78
1070
     8
1070
    79
1070
     2
1070
   140
1040
3.5
1070
   141
1040
1.5
1070
   146
1040
0.5142857142857144
1070
   147
1040
1.5
1070
   172
1070
     1
1070
   178
1070
     1
1070
   179
1070
     2
1070
   271
1070
     2
1070
   272
1070
     2
1070
   284
1070
     8
1070
   285
1070
     8
1070
   286
1070
     8
1002
}
  0
LINE
  5
619
330
1E
100
AcDbEntity
  8
HILF
100
AcDbLine
 10
259.7917983110825
 20
389.3445708814333
 30
0.0
 11
184.3649970868817
 21
389.3445708814333
 31
0.0
  0
LINE
  5
61A
102
{ACAD_REACTORS
330
754
330
782
102
}
330
1E
100
AcDbEntity
  8
STEMPEL
100
AcDbLine
 10
265.0959993483438
 20
430.3445708814333
 30
0.0
 11
179.2696562080544
 21
430.3445708814332
 31
0.0
  0
LINE
  5
61B
102
{ACAD_REACTORS
330
76B
330
782
102
}
330
1E
100
AcDbEntity
  8
STEMPEL
100
AcDbLine
 10
252.4718568444805
 20
366.3445708814333
 30
0.0
 11
191.8937987119175
 21
366.3445708814333
 31
0.0
  0
LINE
  5
61C
330
1E
100
AcDbEntity
  8
HILF
100
AcDbLine
 10
255.8992340057584
 20
376.3445708814333
 30
0.0
 11
188.4781353368828
 21
376.3445708814333
 31
0.0
  0
LINE
  5
61D
330
1E
100
AcDbEntity
  8
HILF
100
AcDbLine
 10
245.7678883626833
 20
352.3445708814332
 30
0.0
 11
198.5972390411902
 21
352.3445708814332
 31
0.0
  0
LINE
  5
61E
330
1E
100
AcDbEntity
  8
HILF
100
AcDbLine
 10
260.4381713926855
 20
426.3445708814333
 30
0.0
 11
184.0868052395381
 21
426.3445708814332
 31
0.0
  0
LINE
  5
61F
330
1E
100
AcDbEntity
  8
STEMPEL
100
AcDbLine
 10
265.0959993483438
 20
431.8445708814333
 30
0.0
 11
179.2696562080544
 21
431.8445708814333
 31
0.0
  0
LINE
  5
620
330
1E
100
AcDbEntity
  8
STEMPEL
100
AcDbLine
 10
267.232827778199
 20
461.3445708814332
 30
0.0
 11
177.132827778199
 21
461.3445708814332
 31
0.0
  0
LINE
  5
621
330
1E
100
AcDbEntity
  8
STEMPEL
100
AcDbLine
 10
176.932827778199
 20
459.9981607199194
 30
0.0
 11
267.4328277781991
 21
459.9981607199193
 31
0.0
  0
LINE
  5
622
330
1E
100
AcDbEntity
  8
STEMPEL
100
AcDbLine
 10
267.232827778199
 20
460.3445708814332
 30
0.0
 11
177.132827778199
 21
460.3445708814332
 31
0.0
  0
LINE
  5
623
330
1E
100
AcDbEntity
  8
STEMPEL
100
AcDbLine
 10
260.682827778199
 20
456.2445708814331
 30
0.0
 11
183.682827778199
 21
456.2445708814331
 31
0.0
  0
LINE
  5
624
330
1E
100
AcDbEntity
  8
STEMPEL
100
AcDbLine
 10
181.682827778199
 20
449.749616042524
 30
0.0
 11
262.682827778199
 21
449.7496160425239
 31
0.0
  0
LINE
  5
625
330
1E
100
AcDbEntity
  8
STEMPEL
100
AcDbLine
 10
260.682827778199
 20
455.2445708814332
 30
0.0
 11
183.682827778199
 21
455.2445708814331
 31
0.0
  0
LINE
  5
627
102
{ACAD_REACTORS
330
717
330
868
330
90A
102
}
330
1E
100
AcDbEntity
  8
STEMPEL
100
AcDbLine
 10
268.4328277781991
 20
435.3445708814332
 30
0.0
 11
175.932827778199
 21
435.3445708814332
 31
0.0
  0
LINE
  5
628
102
{ACAD_REACTORS
330
868
330
90A
102
}
330
1E
100
AcDbEntity
  8
STEMPEL
100
AcDbLine
 10
268.4328277781991
 20
434.3445708814332
 30
0.0
 11
175.932827778199
 21
434.3445708814331
 31
0.0
  0
LINE
  5
629
102
{ACAD_REACTORS
330
717
330
868
330
90A
102
}
330
1E
100
AcDbEntity
  8
STEMPEL
100
AcDbLine
 10
370.4460521508659
 20
461.3445708814331
 30
0.0
 11
73.88117236006127
 21
461.3445708814332
 31
0.0
  0
DIMENSION
  5
62A
330
1E
100
AcDbEntity
  8
BEM
100
AcDbDimension
  2
*D3
 10
337.1828277781991
 20
476.4518145480945
 30
0.0
 11
222.1828277781991
 21
482.9518145480944
 31
0.0
 70
    32
  1
%%c<>
 71
     5
 42
230.0
  3
Standard
100
AcDbAlignedDimension
 13
107.182827778199
 23
456.8445708814333
 33
0.0
 14
337.1828277781991
 24
456.8445708814333
 34
0.0
100
AcDbRotatedDimension
1001
ACAD
1000
DSTYLE
1002
{
1070
    40
1040
2.0
1070
    41
1040
3.5
1070
    42
1040
1.0
1070
    43
1040
7.0
1070
    44
1040
1.0
1070
    73
1070
     0
1070
    74
1070
     0
1070
    77
1070
     1
1070
    78
1070
     8
1070
    79
1070
     2
1070
   140
1040
3.5
1070
   141
1040
1.5
1070
   146
1040
0.5142857142857144
1070
   147
1040
1.5
1070
   172
1070
     1
1070
   178
1070
     1
1070
   179
1070
     2
1070
   271
1070
     2
1070
   272
1070
     2
1070
   284
1070
     8
1070
   285
1070
     8
1070
   286
1070
     8
1002
}
  0
DIMENSION
  5
62B
330
1E
100
AcDbEntity
  8
BEM
100
AcDbDimension
  2
*D4
 10
392.1828277781991
 20
493.6199301437762
 30
0.0
 11
227.424811064139
 21
493.6199301437762
 31
0.0
 70
   160
  1
500
 71
     5
 42
340.0
  3
Standard
100
AcDbAlignedDimension
 13
52.18282777819904
 23
461.3445708814333
 33
0.0
 14
392.1828277781991
 24
461.3445708814332
 34
0.0
100
AcDbRotatedDimension
1001
ACAD
1000
DSTYLE
1002
{
1070
    40
1040
2.0
1070
    41
1040
3.5
1070
    42
1040
1.0
1070
    43
1040
7.0
1070
    44
1040
1.0
1070
    73
1070
     0
1070
    74
1070
     0
1070
    77
1070
     1
1070
    78
1070
     8
1070
    79
1070
     2
1070
   140
1040
3.5
1070
   141
1040
1.5
1070
   146
1040
0.5142857142857144
1070
   147
1040
1.5
1070
   172
1070
     1
1070
   178
1070
     1
1070
   179
1070
     2
1070
   271
1070
     2
1070
   272
1070
     2
1070
   284
1070
     8
1070
   285
1070
     8
1070
   286
1070
     8
1002
}
  0
HATCH
  5
717
330
1E
100
AcDbEntity
  8
SCHRAFF
100
AcDbHatch
 10
0.0
 20
0.0
 30
0.0
210
0.0
220
0.0
230
1.0
  2
NET
 70
     0
 71
     1
 91
        3
 92
        7
 72
     1
 73
     1
 93
        5
 10
280.182827778199
 20
461.3445708814332
 42
0.0
 10
275.182827778199
 20
461.3445708814332
 42
0.0
 10
274.1828277781991
 20
460.3445708814332
 42
0.0
 10
274.1828277781991
 20
456.7743553738967
 42
-0.222066610227726
 10
277.182827778199
 20
458.3445708814331
 42
0.0
 97
        5
330
629
330
53E
330
578
330
54D
330
577
 92
        7
 72
     1
 73
     1
 93
       19
 10
272.1828277781991
 20
460.3445708814331
 42
0.0
 10
271.1828277781991
 20
461.344570881433
 42
0.0
 10
267.232827778199
 20
461.344570881433
 42
0.0
 10
267.232827778199
 20
460.3445708814332
 42
0.0
 10
267.4328277781991
 20
459.9981607199193
 42
0.0
 10
267.4328277781991
 20
456.2445708814331
 42
0.0
 10
260.682827778199
 20
456.2445708814331
 42
0.0
 10
260.6828277781991
 20
455.2445708814332
 42
0.0
 10
262.6828277781991
 20
449.7496160425239
 42
0.0
 10
262.682827778199
 20
435.3445708814332
 42
0.0
 10
268.4328277781991
 20
435.3445708814332
 42
0.4142135623730951
 10
270.4328277781991
 20
437.3445708814331
 42
0.0
 10
267.4328277781991
 20
437.3445708814331
 42
-0.4142135623730951
 10
266.432827778199
 20
438.3445708814331
 42
0.0
 10
266.432827778199
 20
444.3445708814332
 42
-0.4142135623730951
 10
267.4328277781991
 20
445.3445708814331
 42
0.0
 10
270.4328277781991
 20
445.3445708814331
 42
0.0
 10
270.432827778199
 20
450.3445708814331
 42
0.0
 10
272.182827778199
 20
453.3756597946787
 42
0.0
 97
       19
330
540
330
629
330
541
330
542
330
575
330
59A
330
584
330
585
330
58A
330
627
330
580
330
568
330
55F
330
560
330
561
330
569
330
56D
330
559
330
576
 92
        7
 72
     1
 73
     1
 93
       19
 10
183.682827778199
 20
455.2445708814332
 42
0.0
 10
183.6828277781991
 20
456.2445708814331
 42
0.0
 10
176.932827778199
 20
456.2445708814331
 42
0.0
 10
176.932827778199
 20
459.9981607199194
 42
0.0
 10
177.132827778199
 20
460.3445708814332
 42
0.0
 10
177.132827778199
 20
461.3445708814331
 42
0.0
 10
164.1828277781991
 20
461.3445708814331
 42
0.0
 10
167.1828277781991
 20
458.344570881433
 42
-0.2558860185809108
 10
170.4663721959557
 20
456.3486480720594
 42
0.0
 10
173.932827778199
 20
450.3445708814332
 42
0.0
 10
173.932827778199
 20
445.3445708814331
 42
0.0
 10
176.932827778199
 20
445.3445708814332
 42
-0.4142135623730866
 10
177.932827778199
 20
444.3445708814332
 42
0.0
 10
177.932827778199
 20
438.3445708814331
 42
-0.4142135623730866
 10
176.932827778199
 20
437.3445708814331
 42
0.0
 10
173.932827778199
 20
437.3445708814331
 42
0.4142135623730868
 10
175.932827778199
 20
435.3445708814332
 42
0.0
 10
181.682827778199
 20
435.3445708814332
 42
0.0
 10
181.682827778199
 20
449.749616042524
 42
0.0
 97
       19
330
5B2
330
5DA
330
5D9
330
5B4
330
5B3
330
629
330
5ED
330
5F3
330
5C7
330
5D2
330
5D8
330
5BD
330
5BC
330
5BB
330
5D7
330
5E7
330
627
330
5E5
330
5DB
 75
     0
 76
     1
 52
45.0
 41
15.0
 77
     0
 78
     2
 53
45.0
 43
0.0
 44
0.0
 45
-1.325825214724776
 46
1.325825214724776
 79
     0
 53
135.0
 43
0.0
 44
0.0
 45
-1.325825214724776
 46
-1.325825214724776
 79
     0
 47
0.2330565478989036
 98
        3
 10
275.9241282439429
 20
458.9340185508997
 10
269.3939301933924
 20
455.2051131454249
 10
178.9040323170165
 20
451.9423226648741
  0
HATCH
  5
73B
330
1E
100
AcDbEntity
  8
SCHRAFF
100
AcDbHatch
 10
0.0
 20
0.0
 30
0.0
210
0.0
220
0.0
230
1.0
  2
NET
 70
     0
 71
     1
 91
        2
 92
        7
 72
     1
 73
     1
 93
       17
 10
171.206650814796
 20
441.3445708814329
 42
0.0069479880511166
 10
171.2425388823218
 20
440.7620725537246
 42
0.0530641063839868
 10
171.4706273065049
 20
439.7839428244968
 42
0.0912492981547759
 10
172.1916766253564
 20
438.5161437566863
 42
0.1038526577299481
 10
173.3130442610805
 20
437.6373315599518
 42
0.1149415123267219
 10
174.5697392964976
 20
437.3445708814331
 42
0.1149415123267309
 10
175.8264343319144
 20
437.6373315599518
 42
0.1038526577300389
 10
176.9478019676392
 20
438.5161437566869
 42
0.091249298154702
 10
177.6688512864901
 20
439.7839428244963
 42
0.083977369211914
 10
177.9328277781992
 20
441.3445708814331
 42
0.0839773692119045
 10
177.6688512864902
 20
442.9051989383698
 42
0.0912492981547172
 10
176.9478019676391
 20
444.1729980061793
 42
0.1038526577300353
 10
175.8264343319145
 20
445.0518102029145
 42
0.1149415123267294
 10
174.5697392964976
 20
445.3445708814331
 42
0.1149415123267204
 10
173.3130442610808
 20
445.0518102029146
 42
0.1038526577300335
 10
172.191676625356
 20
444.1729980061793
 42
0.0912492981546977
 10
171.4706273065051
 20
442.90519893837
 42
0.0839773692119223
 97
       14
330
5B9
330
5BA
330
5D6
330
5CE
330
5D3
330
5CF
330
5CA
330
5CB
330
5C9
330
5D5
330
5B5
330
5B6
330
5B7
330
5B8
 92
        7
 72
     1
 73
     1
 93
       17
 10
266.4328277781989
 20
441.3445708814331
 42
0.0839773692119045
 10
266.6968042699079
 20
439.7839428244965
 42
0.0912492981547172
 10
267.4178535887589
 20
438.5161437566869
 42
0.1038526577300397
 10
268.5392212244837
 20
437.6373315599518
 42
0.1149415123267309
 10
269.7959162599005
 20
437.3445708814331
 42
0.1149415123267131
 10
271.0526112953175
 20
437.6373315599517
 42
0.1038526577300018
 10
272.173978931042
 20
438.5161437566869
 42
0.091249298154706
 10
272.8950282498931
 20
439.7839428244963
 42
0.0530641063840123
 10
273.1231166740763
 20
440.7620725537246
 42
0.0069479880511193
 10
273.1590047416021
 20
441.3445708814331
 42
0.0839773692119132
 10
272.895028249893
 20
442.9051989383701
 42
0.0912492981546946
 10
272.1739789310425
 20
444.1729980061796
 42
0.1038526577303974
 10
271.0526112953131
 20
445.0518102029168
 42
0.1149415123262985
 10
269.7959162599005
 20
445.3445708814331
 42
0.1149415123267293
 10
268.5392212244836
 20
445.0518102029145
 42
0.1038526577300292
 10
267.4178535887589
 20
444.1729980061794
 42
0.0912492981547092
 10
266.696804269908
 20
442.90519893837
 42
0.083977369211914
 97
       14
330
55A
330
56B
330
562
330
563
330
564
330
565
330
566
330
567
330
56C
330
55B
330
55C
330
55D
330
55E
330
56E
 75
     0
 76
     1
 52
45.0
 41
10.0
 77
     0
 78
     2
 53
45.0
 43
0.0
 44
0.0
 45
-0.8838834764831842
 46
0.8838834764831844
 79
     0
 53
135.0
 43
0.0
 44
0.0
 45
-0.8838834764831844
 46
-0.8838834764831842
 79
     0
 47
0.1497800312408136
 98
        2
 10
174.0777925885509
 20
441.8280497309981
 10
269.5551538833579
 20
441.8280497309981
  0
ARC
  5
73C
102
{ACAD_REACTORS
330
76B
102
}
330
1E
100
AcDbEntity
  8
STEMPEL
100
AcDbCircle
 10
260.6828277781991
 20
350.749396210279
 30
0.0
 40
12.0
100
AcDbArc
 50
164.8559892772289
 51
180.0
  0
ARC
  5
73D
102
{ACAD_REACTORS
330
76B
102
}
330
1E
100
AcDbEntity
  8
STEMPEL
100
AcDbCircle
 10
183.682827778199
 20
350.7444656729038
 30
0.0
 40
12.0
100
AcDbArc
 50
0.0
 51
15.19027385472482
  0
ARC
  5
73E
102
{ACAD_REACTORS
330
76B
102
}
330
1E
100
AcDbEntity
  8
STEMPEL
100
AcDbCircle
 10
260.6828277781991
 20
350.749396210279
 30
0.0
 40
13.5
100
AcDbArc
 50
163.1574719620121
 51
180.0
  0
ARC
  5
742
102
{ACAD_REACTORS
330
76B
102
}
330
1E
100
AcDbEntity
  8
STEMPEL
100
AcDbCircle
 10
183.682827778199
 20
350.7444656729038
 30
0.0
 40
13.5
100
AcDbArc
 50
0.0
 51
15.19027385472482
  0
HATCH
  5
74A
330
1E
100
AcDbEntity
  8
SCHRAFF
100
AcDbHatch
 10
0.0
 20
0.0
 30
0.0
210
0.0
220
0.0
230
1.0
  2
_USER
 70
     0
 71
     1
 91
        2
 92
        7
 72
     1
 73
     1
 93
        3
 10
253.5320284805979
 20
367.9756041677676
 42
0.0
 10
252.4718568444805
 20
366.3445708814333
 42
0.0
 10
251.959524678535
 20
364.4515660514976
 42
0.5578057864477325
 97
        3
330
58E
330
592
330
58F
 92
        7
 72
     1
 73
     1
 93
        3
 10
191.8729587597081
 20
366.3766323463709
 42
0.0
 10
190.8537188165156
 20
367.9446937974362
 42
0.6565596175763525
 10
192.4078072965764
 20
364.4067411224618
 42
0.0
 97
        3
330
5FA
330
5FB
330
5F7
 75
     0
 76
     0
 52
0.0
 41
0.1
 77
     0
 78
     1
 53
0.0
 43
0.0
 44
0.0
 45
0.0
 46
0.1
 79
     0
 47
0.1093996523413275
 98
        2
 10
253.1909067780389
 20
365.9601252566474
 10
190.7889986638515
 20
365.9601252566474
  0
ARC
  5
74B
102
{ACAD_REACTORS
330
754
102
}
330
1E
100
AcDbEntity
  8
SCHRAFF
100
AcDbCircle
 10
181.2970747637173
 20
430.2946362893236
 30
0.0
 40
2.295463697551729
100
AcDbArc
 50
178.6684733474851
 51
274.4490051433822
  0
HATCH
  5
754
330
1E
100
AcDbEntity
  8
SCHRAFF
100
AcDbHatch
 10
0.0
 20
0.0
 30
0.0
210
0.0
220
0.0
230
1.0
  2
_USER
 70
     0
 71
     1
 91
        2
 92
        7
 72
     1
 73
     1
 93
        4
 10
265.3634246562965
 20
430.3479769717563
 42
-0.0063680438950428
 10
265.0959993483436
 20
430.3445708814333
 42
0.0
 10
263.182827778199
 20
430.3445708814333
 42
0.0
 10
262.8905175870947
 20
428.0060893525984
 42
0.4440817374648224
 97
        4
330
595
330
61A
330
586
330
599
 92
        7
 72
     1
 73
     1
 93
        4
 10
181.1828277781991
 20
430.3445708814333
 42
0.0
 10
179.2696562080544
 20
430.3445708814332
 42
-0.0063680438950408
 10
179.0022309001015
 20
430.3479769717563
 42
0.4440817374648187
 10
181.4751379693034
 20
428.0060893525984
 42
0.0
 97
        4
330
61A
330
5F0
330
74B
330
5DD
 75
     0
 76
     0
 52
0.0
 41
0.1
 77
     0
 78
     1
 53
0.0
 43
0.0
 44
0.0
 45
0.0
 46
0.1
 79
     0
 47
0.1314677976633342
 98
        2
 10
263.5484475930871
 20
429.8527456066506
 10
180.5335912934047
 20
429.5898097358531
  0
HATCH
  5
76B
330
1E
100
AcDbEntity
  8
SCHRAFF
100
AcDbHatch
 10
0.0
 20
0.0
 30
0.0
210
0.0
220
0.0
230
1.0
  2
_USER
 70
     0
 71
     1
 91
        2
 92
        7
 72
     1
 73
     1
 93
       10
 10
248.6828277781991
 20
350.749396210279
 42
-0.0661745536307289
 10
249.0995608475892
 20
353.8843487161776
 42
0.0
 10
252.4718568444805
 20
366.3445708814333
 42
0.0
 10
250.6828277781991
 20
366.3445708814332
 42
0.0
 10
247.7619143451032
 20
354.6609171490497
 42
0.073621976408617
 10
247.1828277781991
 20
350.7493962102791
 42
0.0
 10
247.1828277781991
 20
215.3445708814332
 42
0.0
 10
246.7453844605695
 20
210.3445708814333
 42
0.0
 10
248.2453844605693
 20
210.3445708814333
 42
0.0
 10
248.6828277781991
 20
215.3445708814334
 42
0.0
 97
       10
330
73C
330
592
330
61B
330
591
330
73E
330
5AC
330
5A7
330
616
330
5A6
330
5AB
 92
        7
 72
     1
 73
     1
 93
       10
 10
197.182827778199
 20
350.7444656729038
 42
0.0495012978123289
 10
196.9194790909612
 20
353.3979656303847
 42
0.0
 10
193.682827778199
 20
366.3445708814333
 42
0.0
 10
191.8816638229134
 20
366.3445708814333
 42
0.0
 10
195.2635596346249
 20
353.8887699949377
 42
-0.066377301299252
 10
195.682827778199
 20
350.7444656729037
 42
0.0
 10
195.682827778199
 20
215.3445708814339
 42
0.0
 10
196.1202710958287
 20
210.3445708814333
 42
0.0
 10
197.6202710958287
 20
210.3445708814333
 42
0.0
 10
197.1828277781991
 20
215.3445708814335
 42
0.0
 97
       10
330
742
330
5F8
330
61B
330
5F7
330
73D
330
612
330
611
330
616
330
610
330
613
 75
     0
 76
     0
 52
45.0
 41
2.0
 77
     0
 78
     1
 53
45.0
 43
0.0
 44
0.0
 45
-1.414213562373094
 46
1.414213562373095
 79
     0
 47
0.3470439290360377
 98
        2
 10
248.103650382142
 20
296.3092844835048
 10
196.7048219079824
 20
299.4326801753939
  0
HATCH
  5
782
330
1E
100
AcDbEntity
  8
SCHRAFF
100
AcDbHatch
 10
0.0
 20
0.0
 30
0.0
210
0.0
220
0.0
230
1.0
  2
_USER
 70
     0
 71
     1
 91
        2
 92
        7
 72
     0
 73
     1
 93
       10
 10
262.682827778199
 20
426.3445708814333
 10
263.1828277781991
 20
430.3445708814333
 10
261.6828277781991
 20
430.3445708814333
 10
261.1828277781991
 20
426.3445708814335
 10
261.1828277781991
 20
389.3445708814332
 10
257.182827778199
 20
376.3445708814333
 10
250.6828277781991
 20
366.3445708814334
 10
252.4718568444805
 20
366.3445708814333
 10
258.5548092345791
 20
375.7029591738926
 10
262.682827778199
 20
389.1190194406574
 97
       10
330
586
330
61A
330
589
330
593
330
58C
330
58D
330
61B
330
58E
330
58B
330
594
 92
        7
 72
     0
 73
     1
 93
       10
 10
183.182827778199
 20
426.3445708814335
 10
182.682827778199
 20
430.3445708814331
 10
181.1828277781991
 20
430.3445708814332
 10
181.682827778199
 20
426.3445708814329
 10
181.682827778199
 20
389.1190194406576
 10
185.8108463218192
 20
375.7029591738925
 10
191.8937987119175
 20
366.3445708814333
 10
193.682827778199
 20
366.3445708814334
 10
187.182827778199
 20
376.3445708814332
 10
183.182827778199
 20
389.3445708814334
 97
       10
330
5DE
330
61A
330
5DD
330
600
330
5FD
330
5FA
330
61B
330
5F9
330
5FE
330
5FF
 75
     0
 76
     0
 52
135.0
 41
2.0
 77
     0
 78
     1
 53
135.0
 43
0.0
 44
0.0
 45
-1.414213562373095
 46
-1.414213562373094
 79
     0
 47
0.3002843991019585
 98
        2
 10
261.9958795057633
 20
414.0101278591878
 10
182.6647285332051
 20
408.0044404391092
  0
HATCH
  5
7A0
330
1E
100
AcDbEntity
  8
SCHRAFF
100
AcDbHatch
 10
0.0
 20
0.0
 30
0.0
210
0.0
220
0.0
230
1.0
  2
_USER
 70
     0
 71
     0
 91
        1
 92
        7
 72
     1
 73
     1
 93
       27
 10
329.677053556416
 20
460.3445708814332
 42
0.0
 10
286.4965362771839
 20
460.3445708814331
 42
0.1989123673796641
 10
280.8396820276913
 20
458.0014251309255
 42
0.0
 10
279.1828277781993
 20
456.3445708814334
 42
0.3164989533024039
 10
272.8298857158792
 20
451.8754977002522
 42
0.0907300177303428
 10
272.6831988164123
 20
450.9876412122517
 42
0.0771412373564627
 10
272.7877377773512
 20
450.2279511162591
 42
0.0
 10
273.2596197856614
 20
448.6508248149642
 42
-0.1019430245146214
 10
274.0358873584444
 20
439.8061093429716
 42
-0.3807343387517906
 10
265.0959993483441
 20
431.8445708814333
 42
0.0
 10
260.6828277781991
 20
431.8445708814333
 42
0.0
 10
260.682827778199
 20
430.3445708814332
 42
0.0
 10
265.0959993483438
 20
430.3445708814333
 42
0.3807343387517859
 10
275.5258686934608
 20
439.6330324198945
 42
0.1019430245146287
 10
274.69667378617
 20
449.0807966740691
 42
0.0
 10
274.1834522240915
 20
450.7960882293549
 42
-0.1021909725621817
 10
274.410101961506
 20
451.7817124586229
 42
0.0
 10
274.4101020167812
 20
451.781712579243
 42
0.0
 10
274.4100990093232
 20
451.7817060164317
 42
0.0
 10
274.4100990227623
 20
451.7817060457583
 42
0.0
 10
274.4101005054728
 20
451.7817092813039
 42
-0.3240202107393197
 10
279.7710869852433
 20
454.8115097449178
 42
0.0
 10
281.9003421994712
 20
456.9407649591458
 42
-0.19891236737966
 10
286.4965362771838
 20
458.8445708814332
 42
0.0
 10
329.3445115624509
 20
458.8445708814333
 42
0.0
 10
336.5489003855881
 20
455.4851092008783
 42
0.0
 10
337.1828277781991
 20
456.8445708814333
 42
0.0
 97
        0
 75
     0
 76
     0
 52
45.0
 41
2.0
 77
     0
 78
     1
 53
45.0
 43
0.0
 44
0.0
 45
-1.414213562373094
 46
1.414213562373095
 79
     0
 47
0.3002843991019585
 98
        1
 10
293.5480400877009
 20
459.0527877079535
  0
HATCH
  5
7A1
330
1E
100
AcDbEntity
  8
SCHRAFF
100
AcDbHatch
 10
0.0
 20
0.0
 30
0.0
210
0.0
220
0.0
230
1.0
  2
_USER
 70
     0
 71
     0
 91
        1
 92
        7
 72
     1
 73
     1
 93
       27
 10
114.6886019999821
 20
460.3445708814332
 42
0.0
 10
157.8691192792142
 20
460.3445708814331
 42
-0.1989123673796641
 10
163.5259735287068
 20
458.0014251309255
 42
0.0
 10
165.1828277781988
 20
456.3445708814334
 42
-0.3164989533024039
 10
171.5357698405188
 20
451.8754977002522
 42
-0.0907300177303428
 10
171.6824567399858
 20
450.9876412122517
 42
-0.0771412373564627
 10
171.5779177790469
 20
450.2279511162591
 42
0.0
 10
171.1060357707367
 20
448.6508248149642
 42
0.1019430245146214
 10
170.3297681979537
 20
439.8061093429716
 42
0.3807343387517906
 10
179.269656208054
 20
431.8445708814333
 42
0.0
 10
183.682827778199
 20
431.8445708814333
 42
0.0
 10
183.682827778199
 20
430.3445708814332
 42
0.0
 10
179.2696562080543
 20
430.3445708814333
 42
-0.3807343387517859
 10
168.8397868629373
 20
439.6330324198945
 42
-0.1019430245146287
 10
169.6689817702281
 20
449.0807966740691
 42
0.0
 10
170.1822033323066
 20
450.7960882293549
 42
0.1021909725621817
 10
169.9555535948921
 20
451.7817124586229
 42
0.0
 10
169.9555535396168
 20
451.781712579243
 42
0.0
 10
169.9555565470749
 20
451.7817060164317
 42
0.0
 10
169.9555565336358
 20
451.7817060457583
 42
0.0
 10
169.9555550509252
 20
451.7817092813039
 42
0.3240202107393197
 10
164.5945685711548
 20
454.8115097449178
 42
0.0
 10
162.4653133569268
 20
456.9407649591458
 42
0.19891236737966
 10
157.8691192792142
 20
458.8445708814332
 42
0.0
 10
115.0211439939472
 20
458.8445708814333
 42
0.0
 10
107.81675517081
 20
455.4851092008783
 42
0.0
 10
107.182827778199
 20
456.8445708814333
 42
0.0
 97
        0
 75
     0
 76
     0
 52
45.0
 41
2.0
 77
     0
 78
     1
 53
45.0
 43
0.0
 44
0.0
 45
-1.414213562373094
 46
1.414213562373095
 79
     0
 47
0.3002843991019585
 98
        1
 10
150.8176154686972
 20
459.0527877079535
  0
HATCH
  5
868
330
1E
100
AcDbEntity
  8
SCHRAFF
100
AcDbHatch
 10
0.0
 20
0.0
 30
0.0
210
0.0
220
0.0
230
1.0
  2
NET
 70
     0
 71
     1
 91
        2
 92
        7
 72
     0
 73
     1
 93
        4
 10
392.182827778199
 20
460.344570881433
 10
392.1828277781989
 20
461.3445708814331
 10
371.446052150866
 20
461.3445708814332
 10
371.1781029584348
 20
460.3445708814332
 97
        4
330
535
330
532
330
534
330
531
 92
        7
 72
     1
 73
     1
 93
       30
 10
370.1781029584348
 20
460.344570881433
 42
0.0
 10
370.4460521508659
 20
461.344570881433
 42
0.0
 10
286.4965362771838
 20
461.3445708814331
 42
0.1989123673796656
 10
280.1325752465047
 20
458.7085319121119
 42
0.0
 10
278.7569012752527
 20
457.33285794086
 42
0.3014400341973414
 10
271.8887090166489
 20
452.2134125132244
 42
0.0894893349315028
 10
271.6830927958607
 20
450.9876412122517
 42
0.0759033142298633
 10
271.829701777012
 20
449.9413032101896
 42
0.0
 10
272.3015837853222
 20
448.3641769088946
 42
-0.0917951978364162
 10
273.1231166740764
 20
440.7620725537252
 42
-0.0530641063839932
 10
272.8950282498932
 20
439.7839428244973
 42
-0.091249298154599
 10
272.1739789310439
 20
438.5161437566887
 42
-0.011417532515279
 10
272.0693668540766
 20
438.3973362631179
 42
0.0
 10
269.9199339705182
 20
436.007217086521
 42
-0.2127160503483894
 10
268.4328277781991
 20
435.3445708814332
 42
0.0
 10
267.182827778199
 20
435.3445708814332
 42
0.0
 10
267.182827778199
 20
434.3445708814333
 42
0.0
 10
268.4328277781991
 20
434.3445708814332
 42
0.2127160503483908
 10
270.6634870666779
 20
435.3385401890649
 42
0.0
 10
272.7780978315803
 20
437.6899379828237
 42
0.1034790873638338
 10
273.8393980585675
 20
439.4550573361204
 42
0.054141296446952
 10
274.118531079877
 20
440.6638208522035
 42
0.0920583212816501
 10
273.2596197856614
 20
448.6508248149642
 42
0.0
 10
272.7877377773511
 20
450.2279511162593
 42
-0.0728097721655578
 10
272.682827778199
 20
450.9445708814334
 42
0.0
 10
272.682827778199
 20
451.0307115430704
 42
-0.0863895238122648
 10
272.8298875258072
 20
451.8755027413405
 42
-0.3164987350546036
 10
279.1828277781993
 20
456.3445708814334
 42
0.0
 10
280.8396820276915
 20
458.0014251309257
 42
-0.1989123673796563
 10
286.4965362771839
 20
460.3445708814331
 42
0.0
 97
       30
330
629
330
57C
330
548
330
570
330
554
330
555
330
556
330
56E
330
55E
330
55D
330
581
330
55C
330
580
330
627
330
57E
330
628
330
57F
330
582
330
573
330
54F
330
571
330
557
330
553
330
551
330
552
330
56F
330
549
330
57B
330
5A1
330
533
 75
     0
 76
     1
 52
45.0
 41
8.0
 77
     0
 78
     2
 53
45.0
 43
0.0
 44
0.0
 45
-0.7071067811865475
 46
0.7071067811865476
 79
     0
 53
135.0
 43
0.0
 44
0.0
 45
-0.7071067811865476
 46
-0.7071067811865475
 79
     0
 47
0.1935347259984943
 98
        2
 10
380.9762991091547
 20
460.8043794846328
 10
366.644599248812
 20
460.8043794846328
  0
HATCH
  5
90A
330
1E
100
AcDbEntity
  8
SCHRAFF
100
AcDbHatch
 10
0.0
 20
0.0
 30
0.0
210
0.0
220
0.0
230
1.0
  2
NET
 70
     0
 71
     1
 91
        2
 92
        7
 72
     1
 73
     1
 93
       29
 10
157.8691192792143
 20
461.3445708814332
 42
0.0
 10
73.88117236006127
 20
461.3445708814332
 42
0.0
 10
73.61322316763015
 20
460.3445708814333
 42
0.0
 10
157.8691192792143
 20
460.3445708814332
 42
-0.1989123673796669
 10
163.525973528707
 20
458.0014251309255
 42
0.0
 10
165.1828277781992
 20
456.3445708814333
 42
-0.3164987420617896
 10
171.5357680887017
 20
451.875502579488
 42
-0.0863895064870966
 10
171.682827778199
 20
451.0307115430704
 42
0.0
 10
171.682827778199
 20
450.9445708814332
 42
-0.0728097721655454
 10
171.577917779047
 20
450.2279511162592
 42
0.0
 10
171.1060357707371
 20
448.6508248149654
 42
0.0920583212816758
 10
170.2471244765212
 20
440.6638208522024
 42
0.0541412964468781
 10
170.5262574978305
 20
439.4550573361209
 42
0.1034790873624477
 10
171.5875577247991
 20
437.6899379828446
 42
0.0
 10
173.7021684897201
 20
435.338540189065
 42
0.2127160503484011
 10
175.932827778199
 20
434.3445708814331
 42
0.0
 10
177.182827778199
 20
434.3445708814332
 42
0.0
 10
177.1828277781991
 20
435.3445708814332
 42
0.0
 10
175.932827778199
 20
435.3445708814332
 42
-0.2127160503484005
 10
174.4457215858798
 20
436.0072170865211
 42
0.0
 10
172.3257672819026
 20
438.3645567709577
 42
-0.1039276672539049
 10
171.4706273065066
 20
439.783942824491
 42
-0.0530641063843038
 10
171.2425388823218
 20
440.7620725537245
 42
-0.0917951978364477
 10
172.0640717710765
 20
448.3641769088965
 42
0.0
 10
172.5359537793861
 20
449.9413032101894
 42
0.0759033142298867
 10
172.6825627605374
 20
450.9876412122518
 42
0.0894895723997546
 10
172.4769454252572
 20
452.2134156173594
 42
0.301439918138241
 10
165.6087542811457
 20
457.3328579408596
 42
0.0
 10
164.2330803098931
 20
458.7085319121124
 42
0.1989123673796529
 97
       29
330
629
330
604
330
609
330
5EE
330
5E9
330
5F5
330
5C0
330
5BF
330
5BE
330
5C8
330
5D1
330
5CC
330
5CD
330
5E4
330
5E2
330
628
330
5DF
330
627
330
5E7
330
5E6
330
5CA
330
5CF
330
5D3
330
5C3
330
5C2
330
5C1
330
5F6
330
5EA
330
5EF
 92
        7
 72
     0
 73
     1
 93
        4
 10
72.88117236006124
 20
461.3445708814332
 10
52.18282777819904
 20
461.3445708814333
 10
52.18282777819904
 20
460.3445708814333
 10
72.61322316763017
 20
460.3445708814333
 97
        4
330
60D
330
60B
330
60C
330
605
 75
     0
 76
     1
 52
45.0
 41
8.0
 77
     0
 78
     2
 53
45.0
 43
0.0
 44
0.0
 45
-0.7071067811865475
 46
0.7071067811865476
 79
     0
 53
135.0
 43
0.0
 44
0.0
 45
-0.7071067811865476
 46
-0.7071067811865475
 79
     0
 47
0.1972016964950016
 98
        2
 10
140.6377876355423
 20
460.9777459018251
 10
69.20028126661964
 20
460.7805450482706
  0
TEXT
  5
924
330
1E
100
AcDbEntity
  8
TEXT
100
AcDbText
 10
182.626132208084
 20
90.76363841023022
 30
0.0
 40
4.0
  1
DIN EN1123-2
 41
0.8
  7
GREEKS
 72
     1
 11
199.6166083985602
 21
90.76363841023022
 31
0.0
100
AcDbText
  0
TEXT
  5
925
330
1E
100
AcDbEntity
  8
TEXT
 62
     1
100
AcDbText
 10
226.8935731057402
 20
87.41748789253779
 30
0.0
 40
7.0
  1
Balkonablauf DN50
 41
0.8
  7
GREEKS
100
AcDbText
  0
TEXT
  5
926
330
1E
100
AcDbEntity
  8
TEXT
100
AcDbText
 10
225.1296391125315
 20
71.50334417585288
 30
0.0
 40
5.0
  1
Grundeinheit
 41
0.8
  7
GREEKS
100
AcDbText
  0
TEXT
  5
927
330
1E
100
AcDbEntity
  8
TEXT
100
AcDbText
 10
225.1296391125315
 20
51.64011943042158
 30
0.0
 40
5.0
  1
EDV-Art.Nr. 15230.050X
 41
0.8
  7
GREEKS
100
AcDbText
  0
TEXT
  5
928
330
1E
100
AcDbEntity
  8
TEXT
100
AcDbText
 10
224.9837501577827
 20
42.62974153022632
 30
0.0
 40
4.0
  1
15230050W.DWG
 41
0.8
  7
GREEKS
100
AcDbText
  0
TEXT
  5
92A
330
1E
100
AcDbEntity
  8
TEXT
 62
     1
100
AcDbText
 10
345.0002769697991
 20
88.14901428913959
 30
0.0
 40
7.0
  1
15230050W
 41
0.8
  7
GREEKS
 72
     1
 11
368.4669436364658
 21
88.14901428913959
 31
0.0
100
AcDbText
  0
TEXT
  5
92B
330
1E
100
AcDbEntity
  8
TEXT
100
AcDbText
 10
194.4216048581257
 20
63.0896391972351
 30
0.0
 40
4.0
  1
Koeh
 41
0.8
  7
GREEKS
 72
     1
 11
199.6787477152685
 21
63.0896391972351
 31
0.0
100
AcDbText
  0
TEXT
  5
92C
330
1E
100
AcDbEntity
  8
TEXT
100
AcDbText
 10
160.398997108236
 20
63.10765040825732
 30
0.0
 40
4.0
  1
20.05.
 41
0.8
  7
GREEKS
 72
     1
 11
167.4085209177598
 21
63.10765040825732
 31
0.0
100
AcDbText
  0
ENDSEC
  0
SECTION
  2
OBJECTS
  0
DICTIONARY
  5
C
330
0
100
AcDbDictionary
281
     1
  3
ACAD_COLOR
350
DF
  3
ACAD_GROUP
350
D
  3
ACAD_LAYOUT
350
19
  3
ACAD_MATERIAL
350
DE
  3
ACAD_MLINESTYLE
350
16
  3
ACAD_PLOTSETTINGS
350
18
  3
ACAD_PLOTSTYLENAME
350
E
  3
AcDbVariableDictionary
350
EA
  0
DICTIONARY
  5
A0
330
1E
100
AcDbDictionary
280
     1
281
     1
  3
ACAD_LAYOUTSELFREF
360
D4
  0
DICTIONARY
  5
A2
330
1A
100
AcDbDictionary
280
     1
281
     1
  3
ACAD_LAYOUTSELFREF
360
D3
  0
DICTIONARY
  5
DF
102
{ACAD_REACTORS
330
C
102
}
330
C
100
AcDbDictionary
281
     1
  0
DICTIONARY
  5
D
102
{ACAD_REACTORS
330
C
102
}
330
C
100
AcDbDictionary
281
     1
  0
DICTIONARY
  5
19
102
{ACAD_REACTORS
330
C
102
}
330
C
100
AcDbDictionary
281
     1
  3
Layout1
350
1D
  3
Model
350
21
  0
DICTIONARY
  5
DE
102
{ACAD_REACTORS
330
C
102
}
330
C
100
AcDbDictionary
281
     1
  0
DICTIONARY
  5
16
102
{ACAD_REACTORS
330
C
102
}
330
C
100
AcDbDictionary
281
     1
  3
Standard
350
17
  0
DICTIONARY
  5
18
102
{ACAD_REACTORS
330
C
102
}
330
C
100
AcDbDictionary
281
     1
  0
ACDBDICTIONARYWDFLT
  5
E
102
{ACAD_REACTORS
330
C
102
}
330
C
100
AcDbDictionary
281
     1
  3
Normal
350
F
100
AcDbDictionaryWithDefault
340
F
  0
DICTIONARY
  5
EA
102
{ACAD_REACTORS
330
C
102
}
330
C
100
AcDbDictionary
281
     1
  3
DIMASSOC
350
EB
  3
PROJECTNAME
350
EC
  0
XRECORD
  5
D4
102
{ACAD_REACTORS
330
A0
102
}
330
A0
100
AcDbXrecord
280
     1
340
1E
  0
XRECORD
  5
D3
102
{ACAD_REACTORS
330
A2
102
}
330
A2
100
AcDbXrecord
280
     1
340
1A
  0
LAYOUT
  5
1D
102
{ACAD_REACTORS
330
19
102
}
330
19
100
AcDbPlotSettings
  1

  2
\\NT_WORK01\HP LaserJet 5000 PCL 6
  4

  6

 40
0.0
 41
0.0
 42
0.0
 43
0.0
 44
0.0
 45
0.0
 46
0.0
 47
0.0
 48
0.0
 49
0.0
140
0.0
141
0.0
142
1.0
143
1.0
 70
   688
 72
     0
 73
     0
 74
     5
  7

 75
    16
147
1.0
 76
     0
 77
     2
 78
   300
148
0.0
149
0.0
100
AcDbLayout
  1
Layout1
 70
     0
 71
     1
 10
0.0
 20
0.0
 11
12.0
 21
9.0
 12
0.0
 22
0.0
 32
0.0
 14
1.000000000000000E+20
 24
1.000000000000000E+20
 34
1.000000000000000E+20
 15
-1.000000000000000E+20
 25
-1.000000000000000E+20
 35
-1.000000000000000E+20
146
0.0
 13
0.0
 23
0.0
 33
0.0
 16
1.0
 26
0.0
 36
0.0
 17
0.0
 27
1.0
 37
0.0
 76
     0
330
1A
  0
LAYOUT
  5
21
102
{ACAD_REACTORS
330
19
102
}
330
19
100
AcDbPlotSettings
  1

  2
none_device
  4
Letter_(8.50_x_11.00_Inches)
  6

 40
6.349999904632568
 41
6.349999904632568
 42
6.350006103515625
 43
6.350006103515625
 44
215.8999938964844
 45
279.3999938964844
 46
0.0
 47
0.0
 48
0.0
 49
0.0
140
0.0
141
0.0
142
1.0
143
1.0
 70
 11952
 72
     0
 73
     1
 74
     0
  7

 75
     0
147
1.0
 76
     0
 77
     2
 78
   300
148
2271.565655055384
149
61.73187366580091
100
AcDbLayout
  1
Model
 70
     1
 71
     0
 10
0.0
 20
0.0
 11
12.0
 21
9.0
 12
0.0
 22
0.0
 32
0.0
 14
0.0
 24
0.0
 34
0.0
 15
0.0
 25
0.0
 35
0.0
146
0.0
 13
0.0
 23
0.0
 33
0.0
 16
1.0
 26
0.0
 36
0.0
 17
0.0
 27
1.0
 37
0.0
 76
     0
330
1E
  0
MLINESTYLE
  5
17
102
{ACAD_REACTORS
330
16
102
}
330
16
100
AcDbMlineStyle
  2
STANDARD
 70
     0
  3

 62
   256
 51
90.0
 52
90.0
 71
     2
 49
0.5
 62
   256
  6
BYLAYER
 49
-0.5
 62
   256
  6
BYLAYER
  0
ACDBPLACEHOLDER
  5
F
102
{ACAD_REACTORS
330
E
102
}
330
E
  0
DICTIONARYVAR
  5
EB
102
{ACAD_REACTORS
330
EA
102
}
330
EA
100
DictionaryVariables
280
     0
  1
1
  0
DICTIONARYVAR
  5
EC
102
{ACAD_REACTORS
330
EA
102
}
330
EA
100
DictionaryVariables
280
     0
  1

  0
ENDSEC
  0
EOF
