  0
SECTION
  2
HEADER
  9
$ACADVER
  1
AC1018
  9
$ACADMAINTVER
 70
     2
  9
$DWGCODEPAGE
  3
ANSI_1252
  9
$INSBASE
 10
0.0
 20
0.0
 30
0.0
  9
$EXTMIN
 10
-0.0000000000001137
 20
-0.0000000000001137
 30
0.0
  9
$EXTMAX
 10
420.0
 20
594.0000000000002
 30
0.0
  9
$LIMMIN
 10
0.0
 20
0.0
  9
$LIMMAX
 10
419.9999999999999
 20
594.0
  9
$ORTHOMODE
 70
     0
  9
$REGENMODE
 70
     1
  9
$FILLMODE
 70
     1
  9
$QTEXTMODE
 70
     0
  9
$MIRRTEXT
 70
     1
  9
$LTSCALE
 40
20.0
  9
$ATTMODE
 70
     1
  9
$TEXTSIZE
 40
3.5
  9
$TRACEWID
 40
0.5
  9
$TEXTSTYLE
  7
STANDARD
  9
$CLAYER
  8
SCHRAFF
  9
$CELTYPE
  6
ByLayer
  9
$CECOLOR
 62
   256
  9
$CELTSCALE
 40
1.0
  9
$DISPSILH
 70
     0
  9
$DIMSCALE
 40
2.0
  9
$DIMASZ
 40
3.5
  9
$DIMEXO
 40
1.0
  9
$DIMDLI
 40
7.0
  9
$DIMRND
 40
0.0
  9
$DIMDLE
 40
0.0
  9
$DIMEXE
 40
1.0
  9
$DIMTP
 40
0.0
  9
$DIMTM
 40
0.0
  9
$DIMTXT
 40
3.5
  9
$DIMCEN
 40
1.5
  9
$DIMTSZ
 40
0.0
  9
$DIMTOL
 70
     0
  9
$DIMLIM
 70
     0
  9
$DIMTIH
 70
     0
  9
$DIMTOH
 70
     0
  9
$DIMSE1
 70
     0
  9
$DIMSE2
 70
     0
  9
$DIMTAD
 70
     1
  9
$DIMZIN
 70
     8
  9
$DIMBLK
  1

  9
$DIMASO
 70
     1
  9
$DIMSHO
 70
     0
  9
$DIMPOST
  1

  9
$DIMAPOST
  1

  9
$DIMALT
 70
     0
  9
$DIMALTD
 70
     2
  9
$DIMALTF
 40
25.4
  9
$DIMLFAC
 40
1.0
  9
$DIMTOFL
 70
     1
  9
$DIMTVP
 40
0.0
  9
$DIMTIX
 70
     0
  9
$DIMSOXD
 70
     0
  9
$DIMSAH
 70
     0
  9
$DIMBLK1
  1

  9
$DIMBLK2
  1

  9
$DIMSTYLE
  2
Standard
  9
$DIMCLRD
 70
     0
  9
$DIMCLRE
 70
     0
  9
$DIMCLRT
 70
     1
  9
$DIMTFAC
 40
0.5142857142857144
  9
$DIMGAP
 40
1.5
  9
$DIMJUST
 70
     0
  9
$DIMSD1
 70
     0
  9
$DIMSD2
 70
     0
  9
$DIMTOLJ
 70
     1
  9
$DIMTZIN
 70
     8
  9
$DIMALTZ
 70
     8
  9
$DIMALTTZ
 70
     8
  9
$DIMUPT
 70
     0
  9
$DIMDEC
 70
     2
  9
$DIMTDEC
 70
     2
  9
$DIMALTU
 70
     2
  9
$DIMALTTD
 70
     2
  9
$DIMTXSTY
  7
STANDARD
  9
$DIMAUNIT
 70
     0
  9
$DIMADEC
 70
     2
  9
$DIMALTRND
 40
0.0
  9
$DIMAZIN
 70
     2
  9
$DIMDSEP
 70
    46
  9
$DIMATFIT
 70
     3
  9
$DIMFRAC
 70
     0
  9
$DIMLDRBLK
  1

  9
$DIMLUNIT
 70
     2
  9
$DIMLWD
 70
    -2
  9
$DIMLWE
 70
    -2
  9
$DIMTMOVE
 70
     0
  9
$LUNITS
 70
     2
  9
$LUPREC
 70
     2
  9
$SKETCHINC
 40
1.0
  9
$FILLETRAD
 40
0.0
  9
$AUNITS
 70
     0
  9
$AUPREC
 70
     0
  9
$MENU
  1
ACAD
  9
$ELEVATION
 40
0.0
  9
$PELEVATION
 40
0.0
  9
$THICKNESS
 40
0.0
  9
$LIMCHECK
 70
     0
  9
$CHAMFERA
 40
0.0
  9
$CHAMFERB
 40
0.0
  9
$CHAMFERC
 40
0.0
  9
$CHAMFERD
 40
0.0
  9
$SKPOLY
 70
     0
  9
$TDCREATE
 40
2455397.823042361
  9
$TDUCREATE
 40
2455397.781375695
  9
$TDUPDATE
 40
2455583.407586574
  9
$TDUUPDATE
 40
2455583.365919908
  9
$TDINDWG
 40
0.0615762731
  9
$TDUSRTIMER
 40
0.0615762731
  9
$USRTIMER
 70
     1
  9
$ANGBASE
 50
0.0
  9
$ANGDIR
 70
     0
  9
$PDMODE
 70
     0
  9
$PDSIZE
 40
0.0
  9
$PLINEWID
 40
0.0
  9
$SPLFRAME
 70
     0
  9
$SPLINETYPE
 70
     6
  9
$SPLINESEGS
 70
     8
  9
$HANDSEED
  5
BA1
  9
$SURFTAB1
 70
     6
  9
$SURFTAB2
 70
     6
  9
$SURFTYPE
 70
     6
  9
$SURFU
 70
     6
  9
$SURFV
 70
     6
  9
$UCSBASE
  2

  9
$UCSNAME
  2

  9
$UCSORG
 10
0.0
 20
0.0
 30
0.0
  9
$UCSXDIR
 10
1.0
 20
0.0
 30
0.0
  9
$UCSYDIR
 10
0.0
 20
1.0
 30
0.0
  9
$UCSORTHOREF
  2

  9
$UCSORTHOVIEW
 70
     0
  9
$UCSORGTOP
 10
0.0
 20
0.0
 30
0.0
  9
$UCSORGBOTTOM
 10
0.0
 20
0.0
 30
0.0
  9
$UCSORGLEFT
 10
0.0
 20
0.0
 30
0.0
  9
$UCSORGRIGHT
 10
0.0
 20
0.0
 30
0.0
  9
$UCSORGFRONT
 10
0.0
 20
0.0
 30
0.0
  9
$UCSORGBACK
 10
0.0
 20
0.0
 30
0.0
  9
$PUCSBASE
  2

  9
$PUCSNAME
  2

  9
$PUCSORG
 10
0.0
 20
0.0
 30
0.0
  9
$PUCSXDIR
 10
1.0
 20
0.0
 30
0.0
  9
$PUCSYDIR
 10
0.0
 20
1.0
 30
0.0
  9
$PUCSORTHOREF
  2

  9
$PUCSORTHOVIEW
 70
     0
  9
$PUCSORGTOP
 10
0.0
 20
0.0
 30
0.0
  9
$PUCSORGBOTTOM
 10
0.0
 20
0.0
 30
0.0
  9
$PUCSORGLEFT
 10
0.0
 20
0.0
 30
0.0
  9
$PUCSORGRIGHT
 10
0.0
 20
0.0
 30
0.0
  9
$PUCSORGFRONT
 10
0.0
 20
0.0
 30
0.0
  9
$PUCSORGBACK
 10
0.0
 20
0.0
 30
0.0
  9
$USERI1
 70
     0
  9
$USERI2
 70
     0
  9
$USERI3
 70
     0
  9
$USERI4
 70
     0
  9
$USERI5
 70
     0
  9
$USERR1
 40
0.0
  9
$USERR2
 40
0.0
  9
$USERR3
 40
0.0
  9
$USERR4
 40
0.0
  9
$USERR5
 40
0.0
  9
$WORLDVIEW
 70
     1
  9
$SHADEDGE
 70
     3
  9
$SHADEDIF
 70
    70
  9
$TILEMODE
 70
     1
  9
$MAXACTVP
 70
    16
  9
$PINSBASE
 10
0.0
 20
0.0
 30
0.0
  9
$PLIMCHECK
 70
     0
  9
$PEXTMIN
 10
1.000000000000000E+20
 20
1.000000000000000E+20
 30
1.000000000000000E+20
  9
$PEXTMAX
 10
-1.000000000000000E+20
 20
-1.000000000000000E+20
 30
-1.000000000000000E+20
  9
$PLIMMIN
 10
0.0
 20
0.0
  9
$PLIMMAX
 10
12.0
 20
9.0
  9
$UNITMODE
 70
     0
  9
$VISRETAIN
 70
     0
  9
$PLINEGEN
 70
     0
  9
$PSLTSCALE
 70
     0
  9
$TREEDEPTH
 70
  3020
  9
$CMLSTYLE
  2
Standard
  9
$CMLJUST
 70
     0
  9
$CMLSCALE
 40
1.0
  9
$PROXYGRAPHICS
 70
     1
  9
$MEASUREMENT
 70
     0
  9
$CELWEIGHT
370
    -1
  9
$ENDCAPS
280
     0
  9
$JOINSTYLE
280
     0
  9
$LWDISPLAY
290
     0
  9
$INSUNITS
 70
     0
  9
$HYPERLINKBASE
  1

  9
$STYLESHEET
  1
monochrome1.ctb
  9
$XEDIT
290
     1
  9
$CEPSNTYPE
380
     0
  9
$PSTYLEMODE
290
     1
  9
$FINGERPRINTGUID
  2
{D68B0D02-A558-11D7-B632-000102183313}
  9
$VERSIONGUID
  2
{5075D732-D939-4C94-BFA4-A90A301C6FCF}
  9
$EXTNAMES
290
     1
  9
$PSVPSCALE
 40
0.0
  9
$OLESTARTUP
290
     0
  9
$SORTENTS
280
   127
  9
$INDEXCTL
280
     0
  9
$HIDETEXT
280
     0
  9
$XCLIPFRAME
290
     0
  9
$HALOGAP
280
     0
  9
$OBSCOLOR
 70
   257
  9
$OBSLTYPE
280
     0
  9
$INTERSECTIONDISPLAY
280
     0
  9
$INTERSECTIONCOLOR
 70
   257
  9
$DIMASSOC
280
     1
  9
$PROJECTNAME
  1

  0
ENDSEC
  0
SECTION
  2
CLASSES
  0
CLASS
  1
ACDBDICTIONARYWDFLT
  2
AcDbDictionaryWithDefault
  3
ObjectDBX Classes
 90
        0
 91
        1
280
     0
281
     0
  0
CLASS
  1
DICTIONARYVAR
  2
AcDbDictionaryVar
  3
ObjectDBX Classes
 90
        0
 91
        2
280
     0
281
     0
  0
ENDSEC
  0
SECTION
  2
TABLES
  0
TABLE
  2
VPORT
  5
8
330
0
100
AcDbSymbolTable
 70
     2
  0
VPORT
  5
BA0
330
8
100
AcDbSymbolTableRecord
100
AcDbViewportTableRecord
  2
*Active
 70
     0
 10
0.0
 20
0.0
 11
1.0
 21
1.0
 12
210.0
 22
297.0
 13
0.0
 23
0.0
 14
1.0
 24
1.0
 15
10.0
 25
10.0
 16
0.0
 26
0.0
 36
1.0
 17
0.0
 27
0.0
 37
0.0
 40
594.0
 41
1.336927223719676
 42
50.0
 43
0.0
 44
0.0
 50
0.0
 51
0.0
 71
     0
 72
  1500
 73
     1
 74
     0
 75
     0
 76
     0
 77
     0
 78
     0
281
     0
 65
     1
110
0.0
120
0.0
130
0.0
111
1.0
121
0.0
131
0.0
112
0.0
122
1.0
132
0.0
 79
     0
146
0.0
  0
ENDTAB
  0
TABLE
  2
LTYPE
  5
5
330
0
100
AcDbSymbolTable
 70
     3
  0
LTYPE
  5
13
330
5
100
AcDbSymbolTableRecord
100
AcDbLinetypeTableRecord
  2
ByBlock
 70
     0
  3

 72
    65
 73
     0
 40
0.0
  0
LTYPE
  5
14
330
5
100
AcDbSymbolTableRecord
100
AcDbLinetypeTableRecord
  2
ByLayer
 70
     0
  3

 72
    65
 73
     0
 40
0.0
  0
LTYPE
  5
15
330
5
100
AcDbSymbolTableRecord
100
AcDbLinetypeTableRecord
  2
Continuous
 70
     0
  3
Solid line
 72
    65
 73
     0
 40
0.0
  0
LTYPE
  5
25
330
5
100
AcDbSymbolTableRecord
100
AcDbLinetypeTableRecord
  2
STRICHPUNKT
 70
     0
  3
__ . __ . __ . __ . __ . __ . __ . __ . __ . __
 72
    65
 73
     4
 40
1.0
 49
0.5
 74
     0
 49
-0.25
 74
     0
 49
0.0
 74
     0
 49
-0.25
 74
     0
  0
LTYPE
  5
32
330
5
100
AcDbSymbolTableRecord
100
AcDbLinetypeTableRecord
  2
AUSGEZOGEN
 70
     0
  3
Ausgezogene Linie
 72
    65
 73
     0
 40
0.0
  0
ENDTAB
  0
TABLE
  2
LAYER
  5
2
330
0
100
AcDbSymbolTable
 70
     9
  0
LAYER
  5
10
330
2
100
AcDbSymbolTableRecord
100
AcDbLayerTableRecord
  2
0
 70
     0
 62
     7
  6
Continuous
370
    -3
390
F
  0
LAYER
  5
2A
330
2
100
AcDbSymbolTableRecord
100
AcDbLayerTableRecord
  2
VOLL
 70
     0
 62
     1
  6
Continuous
370
    -3
390
F
  0
LAYER
  5
2B
330
2
100
AcDbSymbolTableRecord
100
AcDbLayerTableRecord
  2
HILF
 70
     0
 62
     2
  6
Continuous
370
    -3
390
F
  0
LAYER
  5
2C
330
2
100
AcDbSymbolTableRecord
100
AcDbLayerTableRecord
  2
MITTEL
 70
     0
 62
     2
  6
STRICHPUNKT
370
    -3
390
F
  0
LAYER
  5
2F
330
2
100
AcDbSymbolTableRecord
100
AcDbLayerTableRecord
  2
BEM
 70
     0
 62
     7
  6
Continuous
370
    -3
390
F
  0
LAYER
  5
30
330
2
100
AcDbSymbolTableRecord
100
AcDbLayerTableRecord
  2
STEMPEL
 70
     0
 62
     3
  6
Continuous
370
    -3
390
F
  0
LAYER
  5
31
330
2
100
AcDbSymbolTableRecord
100
AcDbLayerTableRecord
  2
TEXT
 70
     0
 62
     7
  6
Continuous
370
    -3
390
F
  0
LAYER
  5
4B9
330
2
100
AcDbSymbolTableRecord
100
AcDbLayerTableRecord
  2
SCHRAFF
 70
     0
 62
     7
  6
AUSGEZOGEN
370
    -3
390
F
  0
LAYER
  5
5DB
330
2
100
AcDbSymbolTableRecord
100
AcDbLayerTableRecord
  2
Defpoints
 70
     0
 62
     7
  6
Continuous
290
     0
370
    -3
390
F
  0
ENDTAB
  0
TABLE
  2
STYLE
  5
3
330
0
100
AcDbSymbolTable
 70
     2
  0
STYLE
  5
11
330
3
100
AcDbSymbolTableRecord
100
AcDbTextStyleTableRecord
  2
STANDARD
 70
     0
 40
0.0
 41
0.8
 50
0.0
 71
     0
 42
3.5
  3
simplex.shx
  4

  0
STYLE
  5
24
330
3
100
AcDbSymbolTableRecord
100
AcDbTextStyleTableRecord
  2
GREEKS
 70
     0
 40
0.0
 41
0.8
 50
0.0
 71
     0
 42
2.5
  3
SIMPLEX.shx
  4

  0
ENDTAB
  0
TABLE
  2
VIEW
  5
6
330
0
100
AcDbSymbolTable
 70
     0
  0
ENDTAB
  0
TABLE
  2
UCS
  5
7
330
0
100
AcDbSymbolTable
 70
     0
  0
ENDTAB
  0
TABLE
  2
APPID
  5
9
330
0
100
AcDbSymbolTable
 70
     1
  0
APPID
  5
12
330
9
100
AcDbSymbolTableRecord
100
AcDbRegAppTableRecord
  2
ACAD
 70
     0
  0
ENDTAB
  0
TABLE
  2
DIMSTYLE
  5
A
330
0
100
AcDbSymbolTable
 70
     1
100
AcDbDimStyleTable
 71
     1
340
9D
  0
DIMSTYLE
105
9D
102
{ACAD_REACTORS
330
A84
330
A8C
102
}
330
A
100
AcDbSymbolTableRecord
100
AcDbDimStyleTableRecord
  2
Standard
 70
     0
340
11
  0
ENDTAB
  0
TABLE
  2
BLOCK_RECORD
  5
1
330
0
100
AcDbSymbolTable
 70
     4
  0
BLOCK_RECORD
  5
1E
102
{ACAD_XDICTIONARY
360
A0
102
}
330
1
100
AcDbSymbolTableRecord
100
AcDbBlockTableRecord
  2
*Model_Space
340
21
  0
BLOCK_RECORD
  5
1A
102
{ACAD_XDICTIONARY
360
A2
102
}
330
1
100
AcDbSymbolTableRecord
100
AcDbBlockTableRecord
  2
*Paper_Space
340
1D
  0
BLOCK_RECORD
  5
22
330
1
100
AcDbSymbolTableRecord
100
AcDbBlockTableRecord
  2
LOGO
340
0
102
{BLKREFS
331
9B
102
}
  0
BLOCK_RECORD
  5
81B
330
1
100
AcDbSymbolTableRecord
100
AcDbBlockTableRecord
  2
*X1
340
0
102
{BLKREFS
331
A8A
102
}
  0
BLOCK_RECORD
  5
AE7
330
1
100
AcDbSymbolTableRecord
100
AcDbBlockTableRecord
  2
*D2
340
0
  0
BLOCK_RECORD
  5
AFF
330
1
100
AcDbSymbolTableRecord
100
AcDbBlockTableRecord
  2
*D3
340
0
  0
ENDTAB
  0
ENDSEC
  0
SECTION
  2
BLOCKS
  0
BLOCK
  5
35
330
1E
100
AcDbEntity
  8
0
100
AcDbBlockBegin
  2
*Model_Space
 70
     0
 10
0.0
 20
0.0
 30
0.0
  3
*Model_Space
  1

  0
ENDBLK
  5
36
330
1E
100
AcDbEntity
  8
0
100
AcDbBlockEnd
  0
BLOCK
  5
33
330
1A
100
AcDbEntity
 67
     1
  8
0
100
AcDbBlockBegin
  2
*Paper_Space
 70
     0
 10
0.0
 20
0.0
 30
0.0
  3
*Paper_Space
  1

  0
ENDBLK
  5
34
330
1A
100
AcDbEntity
 67
     1
  8
0
100
AcDbBlockEnd
  0
BLOCK
  5
37
330
22
100
AcDbEntity
  8
0
100
AcDbBlockBegin
  2
LOGO
 70
     0
 10
0.0
 20
0.0
 30
0.0
  3
LOGO
  1

  0
ARC
  5
38
330
22
100
AcDbEntity
  8
0
100
AcDbCircle
 10
11.59973089678112
 20
-9.271599258481501
 30
0.0
 40
4.5
100
AcDbArc
 50
270.0
 51
231.0575587310159
  0
LINE
  5
39
330
22
100
AcDbEntity
  8
0
100
AcDbLine
 10
3.599730896781125
 20
-4.771599258481529
 30
0.0
 11
3.599730896781153
 21
-11.77159925848133
 31
0.0
  0
LINE
  5
3A
330
22
100
AcDbEntity
  8
0
100
AcDbLine
 10
2.599730896781125
 20
-4.771599258481529
 30
0.0
 11
2.599730896781153
 21
-11.77159925848133
 31
0.0
  0
CIRCLE
  5
3B
330
22
100
AcDbEntity
  8
0
100
AcDbCircle
 10
11.59973089678112
 20
-9.271599258481501
 30
0.0
 40
3.5
  0
ARC
  5
3C
330
22
100
AcDbEntity
  8
0
100
AcDbCircle
 10
31.59973089678115
 20
-9.271599258481472
 30
0.0
 40
4.5
100
AcDbArc
 50
270.0
 51
231.0575587310182
  0
LINE
  5
3D
330
22
100
AcDbEntity
  8
0
100
AcDbLine
 10
17.59973089678112
 20
-4.771599258481472
 30
0.0
 11
17.59973089678115
 21
-13.77159925848147
 31
0.0
  0
ARC
  5
3E
330
22
100
AcDbEntity
  8
0
100
AcDbCircle
 10
22.59973089678116
 20
-7.271599258481472
 30
0.0
 40
2.5
100
AcDbArc
 50
293.1161887722295
 51
90.0
  0
CIRCLE
  5
3F
330
22
100
AcDbEntity
  8
0
100
AcDbCircle
 10
31.59973089678115
 20
-9.271599258481472
 30
0.0
 40
3.5
  0
ARC
  5
40
330
22
100
AcDbEntity
  8
0
100
AcDbCircle
 10
4.599730896781153
 20
-11.77159925848133
 30
0.0
 40
1.0
100
AcDbArc
 50
180.0
 51
270.0
  0
ARC
  5
41
330
22
100
AcDbEntity
  8
0
100
AcDbCircle
 10
4.599730896781153
 20
-11.77159925848133
 30
0.0
 40
2.0
100
AcDbArc
 50
179.9999999999992
 51
270.0
  0
LINE
  5
42
330
22
100
AcDbEntity
  8
0
100
AcDbLine
 10
11.59973089678115
 20
-13.77159925848144
 30
0.0
 11
4.599730896781153
 21
-13.77159925848147
 31
0.0
  0
LINE
  5
43
330
22
100
AcDbEntity
  8
0
100
AcDbLine
 10
8.771303772034769
 20
-12.77159925848136
 30
0.0
 11
4.599730896781153
 21
-12.77159925848133
 31
0.0
  0
LINE
  5
44
330
22
100
AcDbEntity
  8
0
100
AcDbLine
 10
31.59973089678115
 20
-13.77159925848147
 30
0.0
 11
23.6715276665056
 21
-13.77159925848144
 31
0.0
  0
LINE
  5
45
330
22
100
AcDbEntity
  8
0
100
AcDbLine
 10
23.56565672307022
 20
-9.51278021337896
 30
0.0
 11
24.4388546544846
 21
-12.77159925848144
 31
0.0
  0
LINE
  5
46
330
22
100
AcDbEntity
  8
0
100
AcDbLine
 10
22.59973089678116
 20
-9.771599258481472
 30
0.0
 11
18.59973089678112
 21
-9.771599258481472
 31
0.0
  0
LINE
  5
47
330
22
100
AcDbEntity
  8
0
100
AcDbLine
 10
18.59973089678115
 20
-13.77159925848144
 30
0.0
 11
17.59973089678115
 21
-13.77159925848144
 31
0.0
  0
LINE
  5
48
330
22
100
AcDbEntity
  8
0
100
AcDbLine
 10
18.59973089678115
 20
-9.771599258481472
 30
0.0
 11
18.59973089678115
 21
-13.77159925848144
 31
0.0
  0
LINE
  5
49
330
22
100
AcDbEntity
  8
0
100
AcDbLine
 10
22.59973089678116
 20
-9.771599258481472
 30
0.0
 11
23.67152766650562
 21
-13.77159925848147
 31
0.0
  0
ARC
  5
4A
330
22
100
AcDbEntity
  8
0
100
AcDbCircle
 10
22.59973089678116
 20
-7.271599258481472
 30
0.0
 40
2.5
100
AcDbArc
 50
270.0
 51
270.0000000000007
  0
LINE
  5
4B
330
22
100
AcDbEntity
  8
0
100
AcDbLine
 10
28.77130377203494
 20
-12.77159925848147
 30
0.0
 11
24.43885465448463
 21
-12.77159925848144
 31
0.0
  0
LINE
  5
4C
330
22
100
AcDbEntity
  8
0
100
AcDbLine
 10
3.599730896781125
 20
-4.771599258481472
 30
0.0
 11
2.599730896781125
 21
-4.771599258481472
 31
0.0
  0
LINE
  5
4D
330
22
100
AcDbEntity
  8
0
100
AcDbLine
 10
22.59973089678116
 20
-8.771599258481472
 30
0.0
 11
18.59973089678115
 21
-8.771599258481472
 31
0.0
  0
LINE
  5
4E
330
22
100
AcDbEntity
  8
0
100
AcDbLine
 10
22.59973089678116
 20
-5.771599258481472
 30
0.0
 11
18.59973089678115
 21
-5.771599258481472
 31
0.0
  0
LINE
  5
4F
330
22
100
AcDbEntity
  8
0
100
AcDbLine
 10
22.59973089678116
 20
-4.771599258481472
 30
0.0
 11
17.59973089678115
 21
-4.771599258481472
 31
0.0
  0
LINE
  5
50
330
22
100
AcDbEntity
  8
0
100
AcDbLine
 10
18.59973089678115
 20
-5.771599258481472
 30
0.0
 11
18.59973089678115
 21
-8.771599258481472
 31
0.0
  0
ARC
  5
51
330
22
100
AcDbEntity
  8
0
100
AcDbCircle
 10
22.59973089678116
 20
-7.271599258481472
 30
0.0
 40
1.5
100
AcDbArc
 50
270.0
 51
90.0
  0
ENDBLK
  5
52
330
22
100
AcDbEntity
  8
0
100
AcDbBlockEnd
  0
BLOCK
  5
81C
330
81B
100
AcDbEntity
  8
0
100
AcDbBlockBegin
  2
*X1
 70
     1
 10
0.0
 20
0.0
 30
0.0
  3
*X1
  1

  0
LINE
  5
81D
330
81B
100
AcDbEntity
  8
0
 62
     0
100
AcDbLine
 10
271.0556667274603
 20
431.8
 30
0.0
 11
273.6015000399245
 21
431.8
 31
0.0
  0
LINE
  5
81E
330
81B
100
AcDbEntity
  8
0
 62
     0
100
AcDbLine
 10
343.9501300237567
 20
431.8
 30
0.0
 11
346.4959633362231
 21
431.8
 31
0.0
  0
LINE
  5
81F
330
81B
100
AcDbEntity
  8
0
 62
     0
100
AcDbLine
 10
271.0569832584374
 20
431.9
 30
0.0
 11
273.5651030164979
 21
431.9
 31
0.0
  0
LINE
  5
820
330
81B
100
AcDbEntity
  8
0
 62
     0
100
AcDbLine
 10
343.9865270471833
 20
431.9
 30
0.0
 11
346.494646805246
 21
431.9
 31
0.0
  0
LINE
  5
821
330
81B
100
AcDbEntity
  8
0
 62
     0
100
AcDbLine
 10
271.0596065244754
 20
432.0
 30
0.0
 11
273.5287059930713
 21
432.0
 31
0.0
  0
LINE
  5
822
330
81B
100
AcDbEntity
  8
0
 62
     0
100
AcDbLine
 10
344.0229240706099
 20
432.0
 30
0.0
 11
346.492023539208
 21
432.0
 31
0.0
  0
LINE
  5
823
330
81B
100
AcDbEntity
  8
0
 62
     0
100
AcDbLine
 10
271.0635378699591
 20
432.1
 30
0.0
 11
273.4923089696447
 21
432.1
 31
0.0
  0
LINE
  5
824
330
81B
100
AcDbEntity
  8
0
 62
     0
100
AcDbLine
 10
344.0593210940366
 20
432.1
 30
0.0
 11
346.4880921937243
 21
432.1
 31
0.0
  0
LINE
  5
825
330
81B
100
AcDbEntity
  8
0
 62
     0
100
AcDbLine
 10
271.0687793131002
 20
432.2
 30
0.0
 11
273.455911946218
 21
432.2
 31
0.0
  0
LINE
  5
826
330
81B
100
AcDbEntity
  8
0
 62
     0
100
AcDbLine
 10
344.0957181174632
 20
432.2
 30
0.0
 11
346.4828507505832
 21
432.2
 31
0.0
  0
LINE
  5
827
330
81B
100
AcDbEntity
  8
0
 62
     0
100
AcDbLine
 10
271.0753335511315
 20
432.3
 30
0.0
 11
273.4195149227915
 21
432.3
 31
0.0
  0
LINE
  5
828
330
81B
100
AcDbEntity
  8
0
 62
     0
100
AcDbLine
 10
344.1321151408898
 20
432.3
 30
0.0
 11
346.4762965125519
 21
432.3
 31
0.0
  0
LINE
  5
829
330
81B
100
AcDbEntity
  8
0
 62
     0
100
AcDbLine
 10
271.0832039672768
 20
432.4
 30
0.0
 11
273.3831178993648
 21
432.4
 31
0.0
  0
LINE
  5
82A
330
81B
100
AcDbEntity
  8
0
 62
     0
100
AcDbLine
 10
344.1685121643164
 20
432.4
 30
0.0
 11
346.4684260964067
 21
432.4
 31
0.0
  0
LINE
  5
82B
330
81B
100
AcDbEntity
  8
0
 62
     0
100
AcDbLine
 10
271.0923946395379
 20
432.5
 30
0.0
 11
273.3467208759382
 21
432.5
 31
0.0
  0
LINE
  5
82C
330
81B
100
AcDbEntity
  8
0
 62
     0
100
AcDbLine
 10
344.204909187743
 20
432.5
 30
0.0
 11
346.4592354241455
 21
432.5
 31
0.0
  0
LINE
  5
82D
330
81B
100
AcDbEntity
  8
0
 62
     0
100
AcDbLine
 10
271.1029103513539
 20
432.6
 30
0.0
 11
273.3103238525116
 21
432.6
 31
0.0
  0
LINE
  5
82E
330
81B
100
AcDbEntity
  8
0
 62
     0
100
AcDbLine
 10
344.2413062111697
 20
432.6
 30
0.0
 11
346.4487197123296
 21
432.6
 31
0.0
  0
LINE
  5
82F
330
81B
100
AcDbEntity
  8
0
 62
     0
100
AcDbLine
 10
271.1147566041957
 20
432.7
 30
0.0
 11
273.2739268290849
 21
432.7
 31
0.0
  0
LINE
  5
830
330
81B
100
AcDbEntity
  8
0
 62
     0
100
AcDbLine
 10
344.2777032345963
 20
432.7
 30
0.0
 11
346.4368734594877
 21
432.7
 31
0.0
  0
LINE
  5
831
330
81B
100
AcDbEntity
  8
0
 62
     0
100
AcDbLine
 10
271.1279396321771
 20
432.8
 30
0.0
 11
273.2375298056584
 21
432.8
 31
0.0
  0
LINE
  5
832
330
81B
100
AcDbEntity
  8
0
 62
     0
100
AcDbLine
 10
344.3141002580229
 20
432.8
 30
0.0
 11
346.4236904315063
 21
432.8
 31
0.0
  0
LINE
  5
833
330
81B
100
AcDbEntity
  8
0
 62
     0
100
AcDbLine
 10
271.1424664187723
 20
432.9
 30
0.0
 11
273.2011327822317
 21
432.9
 31
0.0
  0
LINE
  5
834
330
81B
100
AcDbEntity
  8
0
 62
     0
100
AcDbLine
 10
344.3504972814495
 20
432.9
 30
0.0
 11
346.4091636449111
 21
432.9
 31
0.0
  0
LINE
  5
835
330
81B
100
AcDbEntity
  8
0
 62
     0
100
AcDbLine
 10
271.1583447157468
 20
433.0
 30
0.0
 11
273.1647357588051
 21
433.0
 31
0.0
  0
LINE
  5
836
330
81B
100
AcDbEntity
  8
0
 62
     0
100
AcDbLine
 10
344.3868943048761
 20
433.0
 30
0.0
 11
346.3932853479367
 21
433.0
 31
0.0
  0
LINE
  5
837
330
81B
100
AcDbEntity
  8
0
 62
     0
100
AcDbLine
 10
271.1755830644251
 20
433.1
 30
0.0
 11
273.1283387353784
 21
433.1
 31
0.0
  0
LINE
  5
838
330
81B
100
AcDbEntity
  8
0
 62
     0
100
AcDbLine
 10
344.4232913283027
 20
433.1
 30
0.0
 11
346.3760469992583
 21
433.1
 31
0.0
  0
LINE
  5
839
330
81B
100
AcDbEntity
  8
0
 62
     0
100
AcDbLine
 10
271.1941908194337
 20
433.2
 30
0.0
 11
273.0919417119519
 21
433.2
 31
0.0
  0
LINE
  5
83A
330
81B
100
AcDbEntity
  8
0
 62
     0
100
AcDbLine
 10
344.4596883517294
 20
433.2
 30
0.0
 11
346.3574392442497
 21
433.2
 31
0.0
  0
LINE
  5
83B
330
81B
100
AcDbEntity
  8
0
 62
     0
100
AcDbLine
 10
271.2141781750796
 20
433.3
 30
0.0
 11
273.0555446885252
 21
433.3
 31
0.0
  0
LINE
  5
83C
330
81B
100
AcDbEntity
  8
0
 62
     0
100
AcDbLine
 10
344.496085375156
 20
433.3
 30
0.0
 11
346.3374518886039
 21
433.3
 31
0.0
  0
LINE
  5
83D
330
81B
100
AcDbEntity
  8
0
 62
     0
100
AcDbLine
 10
271.2355561945423
 20
433.4
 30
0.0
 11
273.0191476650986
 21
433.4
 31
0.0
  0
LINE
  5
83E
330
81B
100
AcDbEntity
  8
0
 62
     0
100
AcDbLine
 10
344.5324823985826
 20
433.4
 30
0.0
 11
346.3160738691411
 21
433.4
 31
0.0
  0
LINE
  5
83F
330
81B
100
AcDbEntity
  8
0
 62
     0
100
AcDbLine
 10
271.2583368420861
 20
433.4999999999999
 30
0.0
 11
272.9828568696651
 21
433.4999999999999
 31
0.0
  0
LINE
  5
840
330
81B
100
AcDbEntity
  8
0
 62
     0
100
AcDbLine
 10
344.5687731940149
 20
433.4999999999999
 30
0.0
 11
346.2932932215974
 21
433.4999999999999
 31
0.0
  0
LINE
  5
841
330
81B
100
AcDbEntity
  8
0
 62
     0
100
AcDbLine
 10
271.2825330185172
 20
433.6
 30
0.0
 11
272.9474194379645
 21
433.6
 31
0.0
  0
LINE
  5
842
330
81B
100
AcDbEntity
  8
0
 62
     0
100
AcDbLine
 10
344.6042106257155
 20
433.6
 30
0.0
 11
346.2690970451662
 21
433.6
 31
0.0
  0
LINE
  5
843
330
81B
100
AcDbEntity
  8
0
 62
     0
100
AcDbLine
 10
271.3081586001482
 20
433.7
 30
0.0
 11
272.9129725437104
 21
433.7
 31
0.0
  0
LINE
  5
844
330
81B
100
AcDbEntity
  8
0
 62
     0
100
AcDbLine
 10
344.6386575199696
 20
433.7
 30
0.0
 11
346.2434714635352
 21
433.7
 31
0.0
  0
LINE
  5
845
330
81B
100
AcDbEntity
  8
0
 62
     0
100
AcDbLine
 10
271.3352284815578
 20
433.8
 30
0.0
 11
272.8795072047959
 21
433.8
 31
0.0
  0
LINE
  5
846
330
81B
100
AcDbEntity
  8
0
 62
     0
100
AcDbLine
 10
344.6721228588841
 20
433.8
 30
0.0
 11
346.2164015821257
 21
433.8
 31
0.0
  0
LINE
  5
847
330
81B
100
AcDbEntity
  8
0
 62
     0
100
AcDbLine
 10
271.3637586224745
 20
433.9
 30
0.0
 11
272.8470147987687
 21
433.9
 31
0.0
  0
LINE
  5
848
330
81B
100
AcDbEntity
  8
0
 62
     0
100
AcDbLine
 10
344.7046152649114
 20
433.9
 30
0.0
 11
346.187871441209
 21
433.9
 31
0.0
  0
LINE
  5
849
330
81B
100
AcDbEntity
  8
0
 62
     0
100
AcDbLine
 10
271.3937660991533
 20
434.0
 30
0.0
 11
272.8154870502264
 21
434.0
 31
0.0
  0
LINE
  5
84A
330
81B
100
AcDbEntity
  8
0
 62
     0
100
AcDbLine
 10
344.7361430134536
 20
434.0
 30
0.0
 11
346.1578639645302
 21
434.0
 31
0.0
  0
LINE
  5
84B
330
81B
100
AcDbEntity
  8
0
 62
     0
100
AcDbLine
 10
271.4252691606598
 20
434.1
 30
0.0
 11
272.7849160189316
 21
434.1
 31
0.0
  0
LINE
  5
84C
330
81B
100
AcDbEntity
  8
0
 62
     0
100
AcDbLine
 10
344.7667140447484
 20
434.1
 30
0.0
 11
346.1263609030237
 21
434.1
 31
0.0
  0
LINE
  5
84D
330
81B
100
AcDbEntity
  8
0
 62
     0
100
AcDbLine
 10
271.4582872905332
 20
434.2
 30
0.0
 11
272.7552940886029
 21
434.2
 31
0.0
  0
LINE
  5
84E
330
81B
100
AcDbEntity
  8
0
 62
     0
100
AcDbLine
 10
344.7963359750771
 20
434.2
 30
0.0
 11
346.0933427731503
 21
434.2
 31
0.0
  0
LINE
  5
84F
330
81B
100
AcDbEntity
  8
0
 62
     0
100
AcDbLine
 10
271.4928412743549
 20
434.2999999999999
 30
0.0
 11
272.7266139563427
 21
434.2999999999999
 31
0.0
  0
LINE
  5
850
330
81B
100
AcDbEntity
  8
0
 62
     0
100
AcDbLine
 10
344.8250161073373
 20
434.2999999999999
 30
0.0
 11
346.0587887893286
 21
434.2999999999999
 31
0.0
  0
LINE
  5
851
330
81B
100
AcDbEntity
  8
0
 62
     0
100
AcDbLine
 10
271.5289532738262
 20
434.4
 30
0.0
 11
272.6988686226623
 21
434.4
 31
0.0
  0
LINE
  5
852
330
81B
100
AcDbEntity
  8
0
 62
     0
100
AcDbLine
 10
344.8527614410177
 20
434.4
 30
0.0
 11
346.0226767898574
 21
434.4
 31
0.0
  0
LINE
  5
853
330
81B
100
AcDbEntity
  8
0
 62
     0
100
AcDbLine
 10
271.566646908031
 20
434.4999999999999
 30
0.0
 11
272.672051382072
 21
434.4999999999999
 31
0.0
  0
LINE
  5
854
330
81B
100
AcDbEntity
  8
0
 62
     0
100
AcDbLine
 10
344.879578681608
 20
434.4999999999999
 30
0.0
 11
345.9849831556525
 21
434.4999999999999
 31
0.0
  0
LINE
  5
855
330
81B
100
AcDbEntity
  8
0
 62
     0
100
AcDbLine
 10
271.6059473426575
 20
434.6
 30
0.0
 11
272.6461558142025
 21
434.6
 31
0.0
  0
LINE
  5
856
330
81B
100
AcDbEntity
  8
0
 62
     0
100
AcDbLine
 10
344.9054742494776
 20
434.6
 30
0.0
 11
345.945682721026
 21
434.6
 31
0.0
  0
LINE
  5
857
330
81B
100
AcDbEntity
  8
0
 62
     0
100
AcDbLine
 10
271.6468813880551
 20
434.7
 30
0.0
 11
272.6211757754286
 21
434.7
 31
0.0
  0
LINE
  5
858
330
81B
100
AcDbEntity
  8
0
 62
     0
100
AcDbLine
 10
344.9304542882515
 20
434.7
 30
0.0
 11
345.9047486756284
 21
434.7
 31
0.0
  0
LINE
  5
859
330
81B
100
AcDbEntity
  8
0
 62
     0
100
AcDbLine
 10
271.6894776071271
 20
434.7999999999999
 30
0.0
 11
272.5971053909683
 21
434.7999999999999
 31
0.0
  0
LINE
  5
85A
330
81B
100
AcDbEntity
  8
0
 62
     0
100
AcDbLine
 10
344.9545246727118
 20
434.7999999999999
 30
0.0
 11
345.8621524565564
 21
434.7999999999999
 31
0.0
  0
LINE
  5
85B
330
81B
100
AcDbEntity
  8
0
 62
     0
100
AcDbLine
 10
271.7337664342037
 20
434.9
 30
0.0
 11
272.5739390474307
 21
434.9
 31
0.0
  0
LINE
  5
85C
330
81B
100
AcDbEntity
  8
0
 62
     0
100
AcDbLine
 10
344.9776910162493
 20
434.9
 30
0.0
 11
345.8178636294799
 21
434.9
 31
0.0
  0
LINE
  5
85D
330
81B
100
AcDbEntity
  8
0
 62
     0
100
AcDbLine
 10
271.7797803062033
 20
435.0
 30
0.0
 11
272.5516713857907
 21
435.0
 31
0.0
  0
LINE
  5
85E
330
81B
100
AcDbEntity
  8
0
 62
     0
100
AcDbLine
 10
344.9999586778894
 20
435.0
 30
0.0
 11
345.7718497574803
 21
435.0
 31
0.0
  0
LINE
  5
85F
330
81B
100
AcDbEntity
  8
0
 62
     0
100
AcDbLine
 10
271.8275538075889
 20
435.0999999999999
 30
0.0
 11
272.5302972947667
 21
435.0999999999999
 31
0.0
  0
LINE
  5
860
330
81B
100
AcDbEntity
  8
0
 62
     0
100
AcDbLine
 10
345.0213327689133
 20
435.0999999999999
 30
0.0
 11
345.7240762560947
 21
435.0999999999999
 31
0.0
  0
LINE
  5
861
330
81B
100
AcDbEntity
  8
0
 62
     0
100
AcDbLine
 10
271.8771238308509
 20
435.2
 30
0.0
 11
272.5098119045836
 21
435.2
 31
0.0
  0
LINE
  5
862
330
81B
100
AcDbEntity
  8
0
 62
     0
100
AcDbLine
 10
345.0418181590965
 20
435.2
 30
0.0
 11
345.6745062328328
 21
435.2
 31
0.0
  0
LINE
  5
863
330
81B
100
AcDbEntity
  8
0
 62
     0
100
AcDbLine
 10
271.9285297545201
 20
435.3
 30
0.0
 11
272.4902105810997
 21
435.3
 31
0.0
  0
LINE
  5
864
330
81B
100
AcDbEntity
  8
0
 62
     0
100
AcDbLine
 10
345.0614194825805
 20
435.3
 30
0.0
 11
345.6231003091636
 21
435.3
 31
0.0
  0
LINE
  5
865
330
81B
100
AcDbEntity
  8
0
 62
     0
100
AcDbLine
 10
271.9818136410331
 20
435.4
 30
0.0
 11
272.4714889202817
 21
435.4
 31
0.0
  0
LINE
  5
866
330
81B
100
AcDbEntity
  8
0
 62
     0
100
AcDbLine
 10
345.0801411433984
 20
435.4
 30
0.0
 11
345.5698164226505
 21
435.4
 31
0.0
  0
LINE
  5
867
330
81B
100
AcDbEntity
  8
0
 62
     0
100
AcDbLine
 10
272.0370204571477
 20
435.5
 30
0.0
 11
272.4536427430126
 21
435.5
 31
0.0
  0
LINE
  5
868
330
81B
100
AcDbEntity
  8
0
 62
     0
100
AcDbLine
 10
345.0979873206675
 20
435.5
 30
0.0
 11
345.514609606536
 21
435.5
 31
0.0
  0
LINE
  5
869
330
81B
100
AcDbEntity
  8
0
 62
     0
100
AcDbLine
 10
272.0941983200602
 20
435.6
 30
0.0
 11
272.4366680902134
 21
435.6
 31
0.0
  0
LINE
  5
86A
330
81B
100
AcDbEntity
  8
0
 62
     0
100
AcDbLine
 10
345.1149619734666
 20
435.6
 30
0.0
 11
345.4574317436235
 21
435.6
 31
0.0
  0
LINE
  5
86B
330
81B
100
AcDbEntity
  8
0
 62
     0
100
AcDbLine
 10
272.1533987729168
 20
435.7
 30
0.0
 11
272.4205612182716
 21
435.7
 31
0.0
  0
LINE
  5
86C
330
81B
100
AcDbEntity
  8
0
 62
     0
100
AcDbLine
 10
345.1310688454085
 20
435.7
 30
0.0
 11
345.398231290767
 21
435.7
 31
0.0
  0
LINE
  5
86D
330
81B
100
AcDbEntity
  8
0
 62
     0
100
AcDbLine
 10
272.2146770940565
 20
435.8
 30
0.0
 11
272.4053185947556
 21
435.8
 31
0.0
  0
LINE
  5
86E
330
81B
100
AcDbEntity
  8
0
 62
     0
100
AcDbLine
 10
345.1463114689245
 20
435.8
 30
0.0
 11
345.3369529696272
 21
435.8
 31
0.0
  0
LINE
  5
86F
330
81B
100
AcDbEntity
  8
0
 62
     0
100
AcDbLine
 10
272.2780926451154
 20
435.9
 30
0.0
 11
272.390936894411
 21
435.9
 31
0.0
  0
LINE
  5
870
330
81B
100
AcDbEntity
  8
0
 62
     0
100
AcDbLine
 10
345.160693169269
 20
435.9
 30
0.0
 11
345.2735374185684
 21
435.9
 31
0.0
  0
LINE
  5
871
330
81B
100
AcDbEntity
  8
0
 62
     0
100
AcDbLine
 10
272.3437092640675
 20
436.0
 30
0.0
 11
272.3774129954218
 21
436.0
 31
0.0
  0
LINE
  5
872
330
81B
100
AcDbEntity
  8
0
 62
     0
100
AcDbLine
 10
345.1742170682583
 20
436.0
 30
0.0
 11
345.2079207996163
 21
436.0
 31
0.0
  0
LINE
  5
873
330
81B
100
AcDbEntity
  8
0
 62
     0
100
AcDbLine
 10
271.055656257536
 20
431.7
 30
0.0
 11
273.6378970633511
 21
431.7
 31
0.0
  0
LINE
  5
874
330
81B
100
AcDbEntity
  8
0
 62
     0
100
AcDbLine
 10
343.9137330003301
 20
431.7
 30
0.0
 11
346.4959738061474
 21
431.7
 31
0.0
  0
LINE
  5
875
330
81B
100
AcDbEntity
  8
0
 62
     0
100
AcDbLine
 10
271.0569518433062
 20
431.6
 30
0.0
 11
273.6742940867777
 21
431.6
 31
0.0
  0
LINE
  5
876
330
81B
100
AcDbEntity
  8
0
 62
     0
100
AcDbLine
 10
343.8773359769034
 20
431.6
 30
0.0
 11
346.4946782203772
 21
431.6
 31
0.0
  0
LINE
  5
877
330
81B
100
AcDbEntity
  8
0
 62
     0
100
AcDbLine
 10
271.0595541480487
 20
431.5
 30
0.0
 11
273.7106911102044
 21
431.5
 31
0.0
  0
LINE
  5
878
330
81B
100
AcDbEntity
  8
0
 62
     0
100
AcDbLine
 10
343.8409389534768
 20
431.5
 30
0.0
 11
346.4920759156347
 21
431.5
 31
0.0
  0
LINE
  5
879
330
81B
100
AcDbEntity
  8
0
 62
     0
100
AcDbLine
 10
271.0634645053767
 20
431.4
 30
0.0
 11
273.747088133631
 21
431.4
 31
0.0
  0
LINE
  5
87A
330
81B
100
AcDbEntity
  8
0
 62
     0
100
AcDbLine
 10
343.8045419300502
 20
431.4
 30
0.0
 11
346.4881655583067
 21
431.4
 31
0.0
  0
LINE
  5
87B
330
81B
100
AcDbEntity
  8
0
 62
     0
100
AcDbLine
 10
271.0686849226613
 20
431.3
 30
0.0
 11
273.7834851570577
 21
431.3
 31
0.0
  0
LINE
  5
87C
330
81B
100
AcDbEntity
  8
0
 62
     0
100
AcDbLine
 10
343.7681449066236
 20
431.3
 30
0.0
 11
346.4829451410221
 21
431.3
 31
0.0
  0
LINE
  5
87D
330
81B
100
AcDbEntity
  8
0
 62
     0
100
AcDbLine
 10
271.0752180861977
 20
431.2
 30
0.0
 11
273.8198821804842
 21
431.2
 31
0.0
  0
LINE
  5
87E
330
81B
100
AcDbEntity
  8
0
 62
     0
100
AcDbLine
 10
343.731747883197
 20
431.2
 30
0.0
 11
346.4764119774857
 21
431.2
 31
0.0
  0
LINE
  5
87F
330
81B
100
AcDbEntity
  8
0
 62
     0
100
AcDbLine
 10
271.0830673681457
 20
431.0999999999999
 30
0.0
 11
273.8562792039109
 21
431.0999999999999
 31
0.0
  0
LINE
  5
880
330
81B
100
AcDbEntity
  8
0
 62
     0
100
AcDbLine
 10
343.6953508597704
 20
431.0999999999999
 30
0.0
 11
346.4685626955378
 21
431.0999999999999
 31
0.0
  0
LINE
  5
881
330
81B
100
AcDbEntity
  8
0
 62
     0
100
AcDbLine
 10
271.0922368352882
 20
431.0
 30
0.0
 11
273.8926762273375
 21
431.0
 31
0.0
  0
LINE
  5
882
330
81B
100
AcDbEntity
  8
0
 62
     0
100
AcDbLine
 10
343.6589538363437
 20
431.0
 30
0.0
 11
346.4593932283952
 21
431.0
 31
0.0
  0
LINE
  5
883
330
81B
100
AcDbEntity
  8
0
 62
     0
100
AcDbLine
 10
271.1027312596588
 20
430.9
 30
0.0
 11
273.9290732507641
 21
430.9
 31
0.0
  0
LINE
  5
884
330
81B
100
AcDbEntity
  8
0
 62
     0
100
AcDbLine
 10
343.6225568129172
 20
430.9
 30
0.0
 11
346.4488988040247
 21
430.9
 31
0.0
  0
LINE
  5
885
330
81B
100
AcDbEntity
  8
0
 62
     0
100
AcDbLine
 10
271.1145561311056
 20
430.7999999999999
 30
0.0
 11
273.9654702741908
 21
430.7999999999999
 31
0.0
  0
LINE
  5
886
330
81B
100
AcDbEntity
  8
0
 62
     0
100
AcDbLine
 10
343.5861597894905
 20
430.7999999999999
 30
0.0
 11
346.4370739325778
 21
430.7999999999999
 31
0.0
  0
LINE
  5
887
330
81B
100
AcDbEntity
  8
0
 62
     0
100
AcDbLine
 10
271.127717671869
 20
430.7
 30
0.0
 11
274.0018672976173
 21
430.7
 31
0.0
  0
LINE
  5
888
330
81B
100
AcDbEntity
  8
0
 62
     0
100
AcDbLine
 10
343.5497627660639
 20
430.7
 30
0.0
 11
346.4239123918144
 21
430.7
 31
0.0
  0
LINE
  5
889
330
81B
100
AcDbEntity
  8
0
 62
     0
100
AcDbLine
 10
271.1422228532644
 20
430.6
 30
0.0
 11
274.038264321044
 21
430.6
 31
0.0
  0
LINE
  5
88A
330
81B
100
AcDbEntity
  8
0
 62
     0
100
AcDbLine
 10
343.5133657426372
 20
430.6
 30
0.0
 11
346.409407210419
 21
430.6
 31
0.0
  0
LINE
  5
88B
330
81B
100
AcDbEntity
  8
0
 62
     0
100
AcDbLine
 10
271.1580794145772
 20
430.4999999999999
 30
0.0
 11
274.0746613444706
 21
430.4999999999999
 31
0.0
  0
LINE
  5
88C
330
81B
100
AcDbEntity
  8
0
 62
     0
100
AcDbLine
 10
343.4769687192106
 20
430.4999999999999
 30
0.0
 11
346.3935506491062
 21
430.4999999999999
 31
0.0
  0
LINE
  5
88D
330
81B
100
AcDbEntity
  8
0
 62
     0
100
AcDbLine
 10
271.1752958842913
 20
430.4
 30
0.0
 11
272.2758150318406
 21
430.4
 31
0.0
  0
LINE
  5
88E
330
81B
100
AcDbEntity
  8
0
 62
     0
100
AcDbLine
 10
345.2758150318406
 20
430.4
 30
0.0
 11
346.3763341793921
 21
430.4
 31
0.0
  0
LINE
  5
88F
330
81B
100
AcDbEntity
  8
0
 62
     0
100
AcDbLine
 10
271.1938816037918
 20
430.2999999999999
 30
0.0
 11
272.2758150318406
 21
430.2999999999999
 31
0.0
  0
LINE
  5
890
330
81B
100
AcDbEntity
  8
0
 62
     0
100
AcDbLine
 10
345.2758150318406
 20
430.2999999999999
 30
0.0
 11
346.3577484598916
 21
430.2999999999999
 31
0.0
  0
LINE
  5
891
330
81B
100
AcDbEntity
  8
0
 62
     0
100
AcDbLine
 10
271.2138467536993
 20
430.2
 30
0.0
 11
272.2758150318406
 21
430.2
 31
0.0
  0
LINE
  5
892
330
81B
100
AcDbEntity
  8
0
 62
     0
100
AcDbLine
 10
345.2758150318406
 20
430.2
 30
0.0
 11
346.3377833099841
 21
430.2
 31
0.0
  0
LINE
  5
893
330
81B
100
AcDbEntity
  8
0
 62
     0
100
AcDbLine
 10
271.2352023830163
 20
430.1
 30
0.0
 11
272.2758150318406
 21
430.1
 31
0.0
  0
LINE
  5
894
330
81B
100
AcDbEntity
  8
0
 62
     0
100
AcDbLine
 10
345.2758150318406
 20
430.1
 30
0.0
 11
346.3164276806672
 21
430.1
 31
0.0
  0
LINE
  5
895
330
81B
100
AcDbEntity
  8
0
 62
     0
100
AcDbLine
 10
271.2579604412878
 20
430.0
 30
0.0
 11
272.2758150318406
 21
430.0
 31
0.0
  0
LINE
  5
896
330
81B
100
AcDbEntity
  8
0
 62
     0
100
AcDbLine
 10
345.2758150318406
 20
430.0
 30
0.0
 11
346.2936696223957
 21
430.0
 31
0.0
  0
LINE
  5
897
330
81B
100
AcDbEntity
  8
0
 62
     0
100
AcDbLine
 10
271.2821338140058
 20
429.9
 30
0.0
 11
272.2758150318406
 21
429.9
 31
0.0
  0
LINE
  5
898
330
81B
100
AcDbEntity
  8
0
 62
     0
100
AcDbLine
 10
345.2758150318406
 20
429.9
 30
0.0
 11
346.2694962496776
 21
429.9
 31
0.0
  0
LINE
  5
899
330
81B
100
AcDbEntity
  8
0
 62
     0
100
AcDbLine
 10
271.3077363615147
 20
429.8
 30
0.0
 11
272.2758150318406
 21
429.8
 31
0.0
  0
LINE
  5
89A
330
81B
100
AcDbEntity
  8
0
 62
     0
100
AcDbLine
 10
345.2758150318406
 20
429.8
 30
0.0
 11
346.2438937021688
 21
429.8
 31
0.0
  0
LINE
  5
89B
330
81B
100
AcDbEntity
  8
0
 62
     0
100
AcDbLine
 10
271.3347829617075
 20
429.7
 30
0.0
 11
272.2758150318406
 21
429.7
 31
0.0
  0
LINE
  5
89C
330
81B
100
AcDbEntity
  8
0
 62
     0
100
AcDbLine
 10
345.2758150318406
 20
429.7
 30
0.0
 11
346.2168471019759
 21
429.7
 31
0.0
  0
LINE
  5
89D
330
81B
100
AcDbEntity
  8
0
 62
     0
100
AcDbLine
 10
271.3632895568414
 20
429.6
 30
0.0
 11
272.2758150318406
 21
429.6
 31
0.0
  0
LINE
  5
89E
330
81B
100
AcDbEntity
  8
0
 62
     0
100
AcDbLine
 10
345.2758150318406
 20
429.6
 30
0.0
 11
346.188340506842
 21
429.6
 31
0.0
  0
LINE
  5
89F
330
81B
100
AcDbEntity
  8
0
 62
     0
100
AcDbLine
 10
271.3932732048383
 20
429.4999999999999
 30
0.0
 11
272.2758150318406
 21
429.4999999999999
 31
0.0
  0
LINE
  5
8A0
330
81B
100
AcDbEntity
  8
0
 62
     0
100
AcDbLine
 10
345.2758150318406
 20
429.4999999999999
 30
0.0
 11
346.1583568588452
 21
429.4999999999999
 31
0.0
  0
LINE
  5
8A1
330
81B
100
AcDbEntity
  8
0
 62
     0
100
AcDbLine
 10
271.4247521354873
 20
429.4
 30
0.0
 11
272.2758150318406
 21
429.4
 31
0.0
  0
LINE
  5
8A2
330
81B
100
AcDbEntity
  8
0
 62
     0
100
AcDbLine
 10
345.2758150318406
 20
429.4
 30
0.0
 11
346.1268779281962
 21
429.4
 31
0.0
  0
LINE
  5
8A3
330
81B
100
AcDbEntity
  8
0
 62
     0
100
AcDbLine
 10
271.4577458120171
 20
429.3
 30
0.0
 11
272.2758150318406
 21
429.3
 31
0.0
  0
LINE
  5
8A4
330
81B
100
AcDbEntity
  8
0
 62
     0
100
AcDbLine
 10
345.2758150318406
 20
429.3
 30
0.0
 11
346.0938842516664
 21
429.3
 31
0.0
  0
LINE
  5
8A5
330
81B
100
AcDbEntity
  8
0
 62
     0
100
AcDbLine
 10
271.4922749985662
 20
429.2
 30
0.0
 11
272.2758150318406
 21
429.2
 31
0.0
  0
LINE
  5
8A6
330
81B
100
AcDbEntity
  8
0
 62
     0
100
AcDbLine
 10
345.2758150318406
 20
429.2
 30
0.0
 11
346.0593550651173
 21
429.2
 31
0.0
  0
LINE
  5
8A7
330
81B
100
AcDbEntity
  8
0
 62
     0
100
AcDbLine
 10
271.5283618341496
 20
429.1
 30
0.0
 11
272.2758150318406
 21
429.1
 31
0.0
  0
LINE
  5
8A8
330
81B
100
AcDbEntity
  8
0
 62
     0
100
AcDbLine
 10
345.2758150318406
 20
429.1
 30
0.0
 11
346.0232682295339
 21
429.1
 31
0.0
  0
LINE
  5
8A9
330
81B
100
AcDbEntity
  8
0
 62
     0
100
AcDbLine
 10
271.566029913802
 20
429.0
 30
0.0
 11
272.2758150318406
 21
429.0
 31
0.0
  0
LINE
  5
8AA
330
81B
100
AcDbEntity
  8
0
 62
     0
100
AcDbLine
 10
345.2758150318406
 20
429.0
 30
0.0
 11
345.9856001498815
 21
429.0
 31
0.0
  0
LINE
  5
8AB
330
81B
100
AcDbEntity
  8
0
 62
     0
100
AcDbLine
 10
271.6053043776641
 20
428.9
 30
0.0
 11
272.2758150318406
 21
428.9
 31
0.0
  0
LINE
  5
8AC
330
81B
100
AcDbEntity
  8
0
 62
     0
100
AcDbLine
 10
345.2758150318406
 20
428.9
 30
0.0
 11
345.9463256860194
 21
428.9
 31
0.0
  0
LINE
  5
8AD
330
81B
100
AcDbEntity
  8
0
 62
     0
100
AcDbLine
 10
271.6462120088912
 20
428.8
 30
0.0
 11
272.2758150318406
 21
428.8
 31
0.0
  0
LINE
  5
8AE
330
81B
100
AcDbEntity
  8
0
 62
     0
100
AcDbLine
 10
345.2758150318406
 20
428.8
 30
0.0
 11
345.9054180547924
 21
428.8
 31
0.0
  0
LINE
  5
8AF
330
81B
100
AcDbEntity
  8
0
 62
     0
100
AcDbLine
 10
271.6887813413788
 20
428.7
 30
0.0
 11
272.2758150318406
 21
428.7
 31
0.0
  0
LINE
  5
8B0
330
81B
100
AcDbEntity
  8
0
 62
     0
100
AcDbLine
 10
345.2758150318406
 20
428.7
 30
0.0
 11
345.8628487223048
 21
428.7
 31
0.0
  0
LINE
  5
8B1
330
81B
100
AcDbEntity
  8
0
 62
     0
100
AcDbLine
 10
271.7330427784504
 20
428.6
 30
0.0
 11
272.2758150318406
 21
428.6
 31
0.0
  0
LINE
  5
8B2
330
81B
100
AcDbEntity
  8
0
 62
     0
100
AcDbLine
 10
345.2758150318406
 20
428.6
 30
0.0
 11
345.8185872852332
 21
428.6
 31
0.0
  0
LINE
  5
8B3
330
81B
100
AcDbEntity
  8
0
 62
     0
100
AcDbLine
 10
271.77902872381
 20
428.5
 30
0.0
 11
272.2758150318406
 21
428.5
 31
0.0
  0
LINE
  5
8B4
330
81B
100
AcDbEntity
  8
0
 62
     0
100
AcDbLine
 10
345.2758150318406
 20
428.5
 30
0.0
 11
345.7726013398736
 21
428.5
 31
0.0
  0
LINE
  5
8B5
330
81B
100
AcDbEntity
  8
0
 62
     0
100
AcDbLine
 10
271.8267737262642
 20
428.4
 30
0.0
 11
272.2758150318406
 21
428.4
 31
0.0
  0
LINE
  5
8B6
330
81B
100
AcDbEntity
  8
0
 62
     0
100
AcDbLine
 10
345.2758150318406
 20
428.4
 30
0.0
 11
345.7248563374193
 21
428.4
 31
0.0
  0
LINE
  5
8B7
330
81B
100
AcDbEntity
  8
0
 62
     0
100
AcDbLine
 10
271.8763146399417
 20
428.3
 30
0.0
 11
272.2758150318406
 21
428.3
 31
0.0
  0
LINE
  5
8B8
330
81B
100
AcDbEntity
  8
0
 62
     0
100
AcDbLine
 10
345.2758150318406
 20
428.3
 30
0.0
 11
345.675315423742
 21
428.3
 31
0.0
  0
LINE
  5
8B9
330
81B
100
AcDbEntity
  8
0
 62
     0
100
AcDbLine
 10
271.9276908020069
 20
428.2
 30
0.0
 11
272.2758150318406
 21
428.2
 31
0.0
  0
LINE
  5
8BA
330
81B
100
AcDbEntity
  8
0
 62
     0
100
AcDbLine
 10
345.2758150318406
 20
428.2
 30
0.0
 11
345.6239392616768
 21
428.2
 31
0.0
  0
LINE
  5
8BB
330
81B
100
AcDbEntity
  8
0
 62
     0
100
AcDbLine
 10
271.9809442301876
 20
428.1
 30
0.0
 11
272.2758150318406
 21
428.1
 31
0.0
  0
LINE
  5
8BC
330
81B
100
AcDbEntity
  8
0
 62
     0
100
AcDbLine
 10
345.2758150318406
 20
428.1
 30
0.0
 11
345.5706858334961
 21
428.1
 31
0.0
  0
LINE
  5
8BD
330
81B
100
AcDbEntity
  8
0
 62
     0
100
AcDbLine
 10
272.0361198428045
 20
428.0
 30
0.0
 11
272.2758150318406
 21
428.0
 31
0.0
  0
LINE
  5
8BE
330
81B
100
AcDbEntity
  8
0
 62
     0
100
AcDbLine
 10
345.2758150318406
 20
428.0
 30
0.0
 11
345.5155102208792
 21
428.0
 31
0.0
  0
LINE
  5
8BF
330
81B
100
AcDbEntity
  8
0
 62
     0
100
AcDbLine
 10
272.0932657044499
 20
427.9
 30
0.0
 11
272.2758150318406
 21
427.9
 31
0.0
  0
LINE
  5
8C0
330
81B
100
AcDbEntity
  8
0
 62
     0
100
AcDbLine
 10
345.2758150318406
 20
427.9
 30
0.0
 11
345.4583643592338
 21
427.9
 31
0.0
  0
LINE
  5
8C1
330
81B
100
AcDbEntity
  8
0
 62
     0
100
AcDbLine
 10
272.1524333009942
 20
427.8
 30
0.0
 11
272.2758150318406
 21
427.8
 31
0.0
  0
LINE
  5
8C2
330
81B
100
AcDbEntity
  8
0
 62
     0
100
AcDbLine
 10
345.2758150318406
 20
427.8
 30
0.0
 11
345.3991967626895
 21
427.8
 31
0.0
  0
LINE
  5
8C3
330
81B
100
AcDbEntity
  8
0
 62
     0
100
AcDbLine
 10
272.2136778482512
 20
427.7
 30
0.0
 11
272.2758150318406
 21
427.7
 31
0.0
  0
LINE
  5
8C4
330
81B
100
AcDbEntity
  8
0
 62
     0
100
AcDbLine
 10
345.2758150318406
 20
427.7
 30
0.0
 11
345.3379522154326
 21
427.7
 31
0.0
  0
ENDBLK
  5
8C5
330
81B
100
AcDbEntity
  8
0
100
AcDbBlockEnd
  0
BLOCK
  5
AF1
330
AE7
100
AcDbEntity
  8
0
100
AcDbBlockBegin
  2
*D2
 70
     1
 10
0.0
 20
0.0
 30
0.0
  3
*D2
  1

  0
LINE
  5
B93
330
AE7
100
AcDbEntity
  8
BEM
 62
     0
370
    -2
100
AcDbLine
 10
162.8394254873839
 20
505.2749432264424
 30
0.0
 11
139.4142201403389
 21
505.2749432264424
 31
0.0
  0
LINE
  5
B94
330
AE7
100
AcDbEntity
  8
BEM
 62
     0
370
    -2
100
AcDbLine
 10
166.7986203837972
 20
290.2749432264424
 30
0.0
 11
139.4142201403389
 21
290.2749432264424
 31
0.0
  0
LINE
  5
B95
330
AE7
100
AcDbEntity
  8
BEM
 62
     0
370
    -2
100
AcDbLine
 10
141.4142201403389
 20
498.2749432264424
 30
0.0
 11
141.4142201403389
 21
297.2749432264424
 31
0.0
  0
SOLID
  5
B96
330
AE7
100
AcDbEntity
  8
BEM
 62
     0
100
AcDbTrace
 10
140.2475534736723
 20
498.2749432264424
 30
0.0
 11
142.5808868070056
 21
498.2749432264424
 31
0.0
 12
141.4142201403389
 22
505.2749432264424
 32
0.0
 13
141.4142201403389
 23
505.2749432264424
 33
0.0
  0
SOLID
  5
B97
330
AE7
100
AcDbEntity
  8
BEM
 62
     0
100
AcDbTrace
 10
140.2475534736722
 20
297.2749432264424
 30
0.0
 11
142.5808868070055
 21
297.2749432264424
 31
0.0
 12
141.4142201403389
 22
290.2749432264424
 32
0.0
 13
141.4142201403389
 23
290.2749432264424
 33
0.0
  0
MTEXT
  5
B98
330
AE7
100
AcDbEntity
  8
BEM
 62
     1
100
AcDbMText
 10
134.9142201403388
 20
397.7749432264425
 30
0.0
 40
7.0
 41
0.0
 71
     5
 72
     1
  1
\A1;215
 11
0.0000000000000001
 21
1.0
 31
0.0
 73
     1
 44
1.0
  0
POINT
  5
B99
330
AE7
100
AcDbEntity
  8
Defpoints
 62
     0
100
AcDbPoint
 10
164.8394254873839
 20
505.2749432264424
 30
0.0
  0
POINT
  5
B9A
330
AE7
100
AcDbEntity
  8
Defpoints
 62
     0
100
AcDbPoint
 10
168.7986203837972
 20
290.2749432264424
 30
0.0
  0
POINT
  5
B9B
330
AE7
100
AcDbEntity
  8
Defpoints
 62
     0
100
AcDbPoint
 10
141.4142201403389
 20
290.2749432264424
 30
0.0
  0
ENDBLK
  5
AF2
330
AE7
100
AcDbEntity
  8
0
100
AcDbBlockEnd
  0
BLOCK
  5
B09
330
AFF
100
AcDbEntity
  8
0
100
AcDbBlockBegin
  2
*D3
 70
     1
 10
0.0
 20
0.0
 30
0.0
  3
*D3
  1

  0
LINE
  5
B6E
330
AFF
100
AcDbEntity
  8
BEM
 62
     0
370
    -2
100
AcDbLine
 10
168.1048228156593
 20
296.2050857177885
 30
0.0
 11
168.1048228156593
 21
260.1144512919977
 31
0.0
  0
LINE
  5
B6F
330
AFF
100
AcDbEntity
  8
BEM
 62
     0
370
    -2
100
AcDbLine
 10
241.104822815659
 20
296.2050857177867
 30
0.0
 11
241.104822815659
 21
260.1144512919977
 31
0.0
  0
LINE
  5
B70
330
AFF
100
AcDbEntity
  8
BEM
 62
     0
370
    -2
100
AcDbLine
 10
175.1048228156593
 20
262.1144512919977
 30
0.0
 11
234.104822815659
 21
262.1144512919977
 31
0.0
  0
SOLID
  5
B71
330
AFF
100
AcDbEntity
  8
BEM
 62
     0
100
AcDbTrace
 10
175.1048228156593
 20
263.2811179586644
 30
0.0
 11
175.1048228156593
 21
260.9477846253311
 31
0.0
 12
168.1048228156593
 22
262.1144512919977
 32
0.0
 13
168.1048228156593
 23
262.1144512919977
 33
0.0
  0
SOLID
  5
B72
330
AFF
100
AcDbEntity
  8
BEM
 62
     0
100
AcDbTrace
 10
234.104822815659
 20
263.2811179586644
 30
0.0
 11
234.104822815659
 21
260.9477846253311
 31
0.0
 12
241.104822815659
 22
262.1144512919977
 32
0.0
 13
241.104822815659
 23
262.1144512919977
 33
0.0
  0
MTEXT
  5
B73
330
AFF
100
AcDbEntity
  8
BEM
 62
     1
100
AcDbMText
 10
204.6048228156591
 20
268.6144512919977
 30
0.0
 40
7.0
 41
0.0
 71
     5
 72
     1
  1
\A1;%%C73
 73
     1
 44
1.0
  0
POINT
  5
B74
330
AFF
100
AcDbEntity
  8
Defpoints
 62
     0
100
AcDbPoint
 10
168.1048228156593
 20
298.2050857177885
 30
0.0
  0
POINT
  5
B75
330
AFF
100
AcDbEntity
  8
Defpoints
 62
     0
100
AcDbPoint
 10
241.104822815659
 20
298.2050857177867
 30
0.0
  0
POINT
  5
B76
330
AFF
100
AcDbEntity
  8
Defpoints
 62
     0
100
AcDbPoint
 10
241.104822815659
 20
262.1144512919977
 30
0.0
  0
ENDBLK
  5
B0A
330
AFF
100
AcDbEntity
  8
0
100
AcDbBlockEnd
  0
ENDSEC
  0
SECTION
  2
ENTITIES
  0
LINE
  5
57
330
1E
100
AcDbEntity
  8
STEMPEL
100
AcDbLine
 10
410.0
 20
110.0
 30
0.0
 11
39.99999999999997
 21
110.0
 31
0.0
  0
LINE
  5
58
330
1E
100
AcDbEntity
  8
STEMPEL
100
AcDbLine
 10
146.0000000000001
 20
109.9999999999999
 30
0.0
 11
146.0
 21
9.999999999999971
 31
0.0
  0
LINE
  5
59
330
1E
100
AcDbEntity
  8
STEMPEL
100
AcDbLine
 10
230.0
 20
110.0
 30
0.0
 11
230.0
 21
9.999999999999971
 31
0.0
  0
LINE
  5
5A
330
1E
100
AcDbEntity
  8
STEMPEL
100
AcDbLine
 10
332.0
 20
109.9999999999997
 30
0.0
 11
332.0
 21
40.0
 31
0.0
  0
LINE
  5
5B
330
1E
100
AcDbEntity
  8
STEMPEL
100
AcDbLine
 10
145.9999999999999
 20
29.99999999999997
 30
0.0
 11
39.99999999999997
 21
29.99999999999997
 31
0.0
  0
LINE
  5
5C
330
1E
100
AcDbEntity
  8
STEMPEL
100
AcDbLine
 10
410.0
 20
40.0
 30
0.0
 11
146.0000000000001
 21
39.99999999999997
 31
0.0
  0
LINE
  5
5D
330
1E
100
AcDbEntity
  8
STEMPEL
100
AcDbLine
 10
410.0
 20
80.0
 30
0.0
 11
146.0000000000001
 21
79.99999999999994
 31
0.0
  0
LINE
  5
5E
330
1E
100
AcDbEntity
  8
VOLL
100
AcDbLine
 10
54.00000000000009
 20
110.0
 30
0.0
 11
53.99999999999997
 21
9.999999999999971
 31
0.0
  0
LINE
  5
5F
330
1E
100
AcDbEntity
  8
VOLL
100
AcDbLine
 10
104.0000000000001
 20
109.9999999999999
 30
0.0
 11
104.0
 21
9.999999999999971
 31
0.0
  0
LINE
  5
60
330
1E
100
AcDbEntity
  8
VOLL
100
AcDbLine
 10
124.0000000000001
 20
109.9999999999999
 30
0.0
 11
124.0
 21
9.999999999999971
 31
0.0
  0
LINE
  5
61
330
1E
100
AcDbEntity
  8
VOLL
100
AcDbLine
 10
164.0000000000001
 20
79.99999999999994
 30
0.0
 11
164.0000000000001
 21
39.99999999999997
 31
0.0
  0
LINE
  5
62
330
1E
100
AcDbEntity
  8
VOLL
100
AcDbLine
 10
190.0000000000001
 20
109.9999999999998
 30
0.0
 11
190.0
 21
39.99999999999997
 31
0.0
  0
LINE
  5
63
330
1E
100
AcDbEntity
  8
HILF
100
AcDbLine
 10
40.00000000000008
 20
100.0
 30
0.0
 11
146.0000000000001
 21
100.0
 31
0.0
  0
LINE
  5
64
330
1E
100
AcDbEntity
  8
HILF
100
AcDbLine
 10
40.00000000000008
 20
90.00000000000005
 30
0.0
 11
146.0000000000001
 21
90.00000000000005
 31
0.0
  0
LINE
  5
65
330
1E
100
AcDbEntity
  8
HILF
100
AcDbLine
 10
40.00000000000008
 20
79.99999999999994
 30
0.0
 11
146.0000000000001
 21
79.99999999999994
 31
0.0
  0
LINE
  5
66
330
1E
100
AcDbEntity
  8
HILF
100
AcDbLine
 10
40.00000000000008
 20
69.99999999999994
 30
0.0
 11
146.0000000000001
 21
69.99999999999994
 31
0.0
  0
LINE
  5
67
330
1E
100
AcDbEntity
  8
HILF
100
AcDbLine
 10
40.00000000000008
 20
59.99999999999997
 30
0.0
 11
146.0000000000001
 21
59.99999999999997
 31
0.0
  0
LINE
  5
68
330
1E
100
AcDbEntity
  8
HILF
100
AcDbLine
 10
40.00000000000008
 20
49.99999999999997
 30
0.0
 11
146.0000000000001
 21
49.99999999999997
 31
0.0
  0
LINE
  5
69
330
1E
100
AcDbEntity
  8
HILF
100
AcDbLine
 10
40.00000000000008
 20
39.99999999999997
 30
0.0
 11
146.0000000000001
 21
39.99999999999997
 31
0.0
  0
LINE
  5
6A
330
1E
100
AcDbEntity
  8
HILF
100
AcDbLine
 10
146.0000000000001
 20
69.99999999999994
 30
0.0
 11
230.0
 21
69.99999999999994
 31
0.0
  0
LINE
  5
6B
330
1E
100
AcDbEntity
  8
HILF
100
AcDbLine
 10
146.0000000000001
 20
59.99999999999997
 30
0.0
 11
230.0
 21
59.99999999999997
 31
0.0
  0
LINE
  5
6C
330
1E
100
AcDbEntity
  8
HILF
100
AcDbLine
 10
146.0000000000001
 20
49.99999999999997
 30
0.0
 11
230.0
 21
49.99999999999997
 31
0.0
  0
LINE
  5
6D
330
1E
100
AcDbEntity
  8
HILF
100
AcDbLine
 10
234.7736801096947
 20
84.03758247564139
 30
0.0
 11
324.8353916556311
 21
84.03758247564139
 31
0.0
  0
LINE
  5
6E
330
1E
100
AcDbEntity
  8
HILF
100
AcDbLine
 10
234.7736801096947
 20
69.99999999999994
 30
0.0
 11
324.835391655631
 21
69.99999999999994
 31
0.0
  0
LINE
  5
6F
330
1E
100
AcDbEntity
  8
HILF
100
AcDbLine
 10
234.7736801096947
 20
59.99999999999997
 30
0.0
 11
324.835391655631
 21
59.99999999999997
 31
0.0
  0
LINE
  5
70
330
1E
100
AcDbEntity
  8
HILF
100
AcDbLine
 10
234.7736801096947
 20
49.99999999999997
 30
0.0
 11
324.835391655631
 21
49.99999999999997
 31
0.0
  0
LINE
  5
71
330
1E
100
AcDbEntity
  8
VOLL
100
AcDbLine
 10
332.0
 20
60.0
 30
0.0
 11
410.0
 21
60.0
 31
0.0
  0
LINE
  5
72
330
1E
100
AcDbEntity
  8
HILF
100
AcDbLine
 10
336.7238616296993
 20
83.77983636955827
 30
0.0
 11
404.8588839326728
 21
83.77983636955827
 31
0.0
  0
LINE
  5
73
330
1E
100
AcDbEntity
  8
HILF
100
AcDbLine
 10
233.4909699289885
 20
14.89398258028314
 30
0.0
 11
404.8588839326728
 21
14.89398258028314
 31
0.0
  0
TEXT
  5
74
330
1E
100
AcDbEntity
  8
TEXT
100
AcDbText
 10
69.34071736793199
 20
18.67381894984132
 30
0.0
 40
4.0
  1
Änderung
 41
0.8
  7
GREEKS
 72
     1
 11
80.08357451078913
 21
18.67381894984132
 31
0.0
100
AcDbText
  0
TEXT
  5
75
330
1E
100
AcDbEntity
  8
TEXT
100
AcDbText
 10
153.5163572150377
 20
102.4620895087088
 30
0.0
 40
5.0
  1
Maßstab
 41
0.8
  7
GREEKS
100
AcDbText
  0
TEXT
  5
76
330
1E
100
AcDbEntity
  8
TEXT
100
AcDbText
 10
194.2858954734051
 20
102.4184168434819
 30
0.0
 40
5.0
  1
Zul. Abw.
 41
0.8
  7
GREEKS
100
AcDbText
  0
TEXT
  5
77
330
1E
100
AcDbEntity
  8
TEXT
100
AcDbText
 10
234.877940380901
 20
102.5489328011779
 30
0.0
 40
5.0
  1
Benennung
 41
0.8
  7
GREEKS
100
AcDbText
  0
TEXT
  5
78
330
1E
100
AcDbEntity
  8
TEXT
100
AcDbText
 10
336.178754957634
 20
102.3132034537136
 30
0.0
 40
5.0
  1
Zeichnungs Nr.
 41
0.8
  7
GREEKS
100
AcDbText
  0
TEXT
  5
79
330
1E
100
AcDbEntity
  8
TEXT
100
AcDbText
 10
234.742238391136
 20
30.84560570193057
 30
0.0
 40
5.0
  1
Bauvorhaben
 41
0.8
  7
GREEKS
100
AcDbText
  0
TEXT
  5
7A
330
1E
100
AcDbEntity
  8
TEXT
100
AcDbText
 10
336.7238616296993
 20
73.1811823709997
 30
0.0
 40
5.0
  1
Ersatz für:
 41
0.8
  7
GREEKS
100
AcDbText
  0
TEXT
  5
7B
330
1E
100
AcDbEntity
  8
TEXT
100
AcDbText
 10
48.26641107045756
 20
13.65465846027192
 30
0.0
 40
4.0
  1
Index
 50
90.0
 41
0.8
  7
GREEKS
100
AcDbText
  0
TEXT
  5
7C
330
1E
100
AcDbEntity
  8
TEXT
100
AcDbText
 10
110.0934676075481
 20
18.6715626933981
 30
0.0
 40
4.0
  1
Tag
 41
0.8
  7
GREEKS
 72
     1
 11
113.8268009408814
 21
18.6715626933981
 31
0.0
100
AcDbText
  0
TEXT
  5
7D
330
1E
100
AcDbEntity
  8
TEXT
100
AcDbText
 10
129.0122744386592
 20
18.59324216966408
 30
0.0
 40
4.0
  1
Name
 41
0.8
  7
GREEKS
 72
     1
 11
135.3360839624688
 21
18.59324216966408
 31
0.0
100
AcDbText
  0
TEXT
  5
7E
330
1E
100
AcDbEntity
  8
TEXT
100
AcDbText
 10
172.331167315365
 20
73.31880501229926
 30
0.0
 40
4.0
  1
Tag
 41
0.8
  7
GREEKS
100
AcDbText
  0
TEXT
  5
7F
330
1E
100
AcDbEntity
  8
TEXT
100
AcDbText
 10
202.4626584226295
 20
73.30961091915225
 30
0.0
 40
4.0
  1
Name
 41
0.8
  7
GREEKS
100
AcDbText
  0
TEXT
  5
80
330
1E
100
AcDbEntity
  8
TEXT
100
AcDbText
 10
147.5836127167615
 20
63.62990369617964
 30
0.0
 40
4.0
  1
Gez.
 41
0.8
  7
GREEKS
100
AcDbText
  0
TEXT
  5
81
330
1E
100
AcDbEntity
  8
TEXT
100
AcDbText
 10
147.5515086571672
 20
53.68926291428377
 30
0.0
 40
4.0
  1
Gepr.
 41
0.8
  7
GREEKS
100
AcDbText
  0
TEXT
  5
82
330
1E
100
AcDbEntity
  8
TEXT
100
AcDbText
 10
147.6006777387303
 20
43.52946389649807
 30
0.0
 40
4.0
  1
Norm.
 41
0.8
  7
GREEKS
100
AcDbText
  0
LINE
  5
83
330
1E
100
AcDbEntity
  8
STEMPEL
100
AcDbLine
 10
49.99999999999989
 20
10.0
 30
0.0
 11
410.0
 21
10.0
 31
0.0
  0
TEXT
  5
84
330
1E
100
AcDbEntity
  8
TEXT
100
AcDbText
 10
337.2400861497006
 20
52.07416177878602
 30
0.0
 40
5.0
  1
ersetzt durch:
 41
0.8
  7
GREEKS
100
AcDbText
  0
LINE
  5
85
330
1E
100
AcDbEntity
  8
STEMPEL
100
AcDbLine
 10
410.0
 20
10.0
 30
0.0
 11
40.0
 21
9.999999999999998
 31
0.0
  0
LINE
  5
86
330
1E
100
AcDbEntity
  8
STEMPEL
100
AcDbLine
 10
410.0
 20
10.0
 30
0.0
 11
410.0
 21
584.0
 31
0.0
  0
LINE
  5
88
330
1E
100
AcDbEntity
  8
STEMPEL
100
AcDbLine
 10
410.0
 20
584.0
 30
0.0
 11
39.99999999999987
 21
583.9999999999998
 31
0.0
  0
LINE
  5
89
330
1E
100
AcDbEntity
  8
HILF
100
AcDbLine
 10
0.0
 20
0.0
 30
0.0
 11
-0.0000000000001137
 21
594.0
 31
0.0
  0
LINE
  5
8A
330
1E
100
AcDbEntity
  8
HILF
100
AcDbLine
 10
419.9999999999999
 20
594.0000000000002
 30
0.0
 11
0.0
 21
594.0
 31
0.0
  0
LINE
  5
8B
330
1E
100
AcDbEntity
  8
HILF
100
AcDbLine
 10
420.0
 20
0.0
 30
0.0
 11
0.0
 21
0.0
 31
0.0
  0
LINE
  5
8C
330
1E
100
AcDbEntity
  8
HILF
100
AcDbLine
 10
31.08767135713856
 20
297.0
 30
0.0
 11
0.0000000000001137
 21
297.0
 31
0.0
  0
TEXT
  5
8D
330
1E
100
AcDbEntity
  8
TEXT
100
AcDbText
 10
148.622109822104
 20
73.14025471151666
 30
0.0
 40
4.0
  1
2011
 41
0.8
  7
GREEKS
100
AcDbText
  0
LINE
  5
8E
330
1E
100
AcDbEntity
  8
HILF
100
AcDbLine
 10
420.0
 20
-0.0000000000001137
 30
0.0
 11
419.9999999999999
 21
594.0
 31
0.0
  0
TEXT
  5
8F
330
1E
100
AcDbEntity
  8
VOLL
100
AcDbText
 10
78.07675471698113
 20
31.02594776470585
 30
0.0
 40
1.8
  1

  7
GREEKS
100
AcDbText
  0
TEXT
  5
90
330
1E
100
AcDbEntity
  8
TEXT
100
AcDbText
 10
41.85509950977674
 20
111.6719999999999
 30
0.0
 40
5.0
  1
Erstellt mit AUTOCAD 2004
 41
0.8
  7
GREEKS
100
AcDbText
  0
TEXT
  5
91
330
1E
100
AcDbEntity
  8
TEXT
100
AcDbText
 10
204.4216048581257
 20
63.0896391972351
 30
0.0
 40
4.0
  1
Koeh
 41
0.8
  7
GREEKS
 72
     1
 11
209.6787477152686
 21
63.0896391972351
 31
0.0
100
AcDbText
  0
TEXT
  5
92
330
1E
100
AcDbEntity
  8
TEXT
 62
     1
100
AcDbText
 10
346.6820981521566
 20
88.14901428913959
 30
0.0
 40
7.0
  1
15219070W
 41
0.8
  7
GREEKS
 72
     1
 11
369.6154314854899
 21
88.14901428913959
 31
0.0
100
AcDbText
  0
TEXT
  5
93
330
1E
100
AcDbEntity
  8
TEXT
 62
     1
100
AcDbText
 10
160.5006306481887
 20
88.14901428913959
 30
0.0
 40
7.0
  1
1:2
 41
0.8
  7
GREEKS
100
AcDbText
  0
TEXT
  5
94
330
1E
100
AcDbEntity
  8
TEXT
100
AcDbText
 10
171.0085209177598
 20
63.10765040825732
 30
0.0
 40
4.0
  1
21.01.
 41
0.8
  7
GREEKS
 72
     1
 11
177.4085209177598
 21
63.10765040825732
 31
0.0
100
AcDbText
  0
TEXT
  5
95
330
1E
100
AcDbEntity
  8
TEXT
 62
     1
100
AcDbText
 10
235.6822967199566
 20
87.41748789253779
 30
0.0
 40
7.0
  1
Rückstausicherung DN70
 41
0.7
  7
GREEKS
100
AcDbText
  0
TEXT
  5
96
330
1E
100
AcDbEntity
  8
TEXT
100
AcDbText
 10
235.1296391125315
 20
71.50334417585288
 30
0.0
 40
5.0
  1
für Balkonentwässerung
 41
0.8
  7
GREEKS
100
AcDbText
  0
TEXT
  5
98
330
1E
100
AcDbEntity
  8
TEXT
100
AcDbText
 10
235.1296391125315
 20
51.64011943042158
 30
0.0
 40
5.0
  1
EDV-Art.Nr. 15219.070X
 41
0.8
  7
GREEKS
100
AcDbText
  0
TEXT
  5
99
330
1E
100
AcDbEntity
  8
TEXT
100
AcDbText
 10
234.9837501577827
 20
42.62974153022632
 30
0.0
 40
4.0
  1
15219070W.DWG
 41
0.8
  7
GREEKS
100
AcDbText
  0
TEXT
  5
9A
330
1E
100
AcDbEntity
  8
TEXT
100
AcDbText
 10
192.626132208084
 20
90.76363841023022
 30
0.0
 40
4.0
  1
DIN EN1123-2
 41
0.8
  7
GREEKS
 72
     1
 11
209.6166083985602
 21
90.76363841023022
 31
0.0
100
AcDbText
  0
INSERT
  5
9B
330
1E
100
AcDbEntity
  8
STEMPEL
100
AcDbBlockReference
  2
LOGO
 10
150.9955485457794
 20
45.02105276448322
 30
0.0
 41
2.0
 42
2.0
 43
2.0
  0
TEXT
  5
118
330
1E
100
AcDbEntity
  8
BEM
100
AcDbText
 10
417.3022923857165
 20
10.16790107998849
 30
0.0
 40
4.0
  1
Diese Zeichnung ist urheberrechtlich geschützt und bleibt unser Eigentum. Sie darf weder ganz noch teilweise verfielfältigt und nicht an Dritte weitergegeben werden.
 50
90.0
 41
0.8
  7
GREEKS
100
AcDbText
  0
TEXT
  5
75E
330
1E
100
AcDbEntity
  8
TEXT
 62
     1
100
AcDbText
 10
234.6057658946468
 20
129.0783465745483
 30
0.0
 40
7.0
  1
und innen beschichtet
 41
0.8
  7
GREEKS
100
AcDbText
  0
TEXT
  5
75F
330
1E
100
AcDbEntity
  8
TEXT
 62
     1
100
AcDbText
 10
186.6560484572489
 20
139.8004583895517
 30
0.0
 40
7.0
  1
Werkstoff: E195 EN10305 feuerverzinkt
 41
0.8
  7
GREEKS
100
AcDbText
  0
HATCH
  5
9F2
330
1E
100
AcDbEntity
  8
SCHRAFF
100
AcDbHatch
 10
0.0
 20
0.0
 30
0.0
210
0.0
220
0.0
230
1.0
  2
_USER
 70
     0
 71
     0
 91
        1
 92
        7
 72
     0
 73
     1
 93
        7
 10
169.7048228156591
 20
347.4264656640538
 10
169.2083931802788
 20
347.4225046861935
 10
168.1048228156592
 20
347.41805895937
 10
168.1048228156593
 20
298.2050857177884
 10
168.7986203837972
 20
290.2749432264424
 10
170.4047321238665
 20
290.2749432264424
 10
169.7048228156591
 20
298.2749432264437
 97
        0
 75
     0
 76
     0
 52
45.0
 41
2.0
 77
     0
 78
     1
 53
45.0
 43
0.0
 44
0.0
 45
-1.414213562373094
 46
1.414213562373095
 79
     0
 47
0.3483171746042625
 98
        1
 10
169.2447351646756
 20
336.1881520427962
  0
HATCH
  5
9F3
330
1E
100
AcDbEntity
  8
SCHRAFF
100
AcDbHatch
 10
0.0
 20
0.0
 30
0.0
210
0.0
220
0.0
230
1.0
  2
_USER
 70
     0
 71
     0
 91
        2
 92
        7
 72
     1
 73
     1
 93
        7
 10
241.104822815659
 20
407.4345832142015
 42
0.3004462650509858
 10
241.0086572588688
 20
415.8747121385209
 42
-0.0556526050479316
 10
240.3811342650901
 20
413.2866252750361
 42
0.0
 10
239.2849716443282
 20
410.2749432264426
 42
0.0
 10
239.504822815659
 20
410.2749432264426
 42
0.0
 10
239.5048228156591
 20
331.8739788315425
 42
0.0
 10
241.104822815659
 20
330.2846872127394
 42
0.0
 97
        0
 92
        7
 72
     0
 73
     1
 93
        6
 10
241.104822815659
 20
330.2846872127395
 10
239.5048228156591
 20
331.8739788315424
 10
239.5048228156591
 20
298.2749432264429
 10
238.8049135074516
 20
290.2749432264424
 10
240.4110252475212
 20
290.2749432264424
 10
241.1048228156589
 20
298.2050857177865
 97
        0
 75
     0
 76
     0
 52
45.0
 41
2.0
 77
     0
 78
     1
 53
45.0
 43
0.0
 44
0.0
 45
-1.414213562373094
 46
1.414213562373095
 79
     0
 47
0.2975165755549348
 98
        2
 10
240.0041300621051
 20
351.990565484763
 10
240.0041300621051
 20
318.6687081865557
  0
HATCH
  5
9F4
330
1E
100
AcDbEntity
  8
SCHRAFF
100
AcDbHatch
 10
0.0
 20
0.0
 30
0.0
210
0.0
220
0.0
230
1.0
  2
_USER
 70
     0
 71
     0
 91
        1
 92
        7
 72
     1
 73
     1
 93
       12
 10
233.087281849372
 20
393.2469304620158
 42
0.0
 10
240.3811342650901
 20
413.2866252750361
 42
0.087488663525924
 10
241.1048228156592
 20
417.3908669949441
 42
0.0
 10
241.1048228156592
 20
423.2159197787405
 42
0.0
 10
239.5048228156592
 20
421.4343438823528
 42
0.0
 10
239.5048228156592
 20
417.3908669949441
 42
-0.0874886635259257
 10
238.8776260718326
 20
413.8338575043571
 42
0.0
 10
231.5837736561143
 20
393.7941626913369
 42
0.0874886635259124
 10
231.0048228156591
 20
390.5107693154109
 42
0.0
 10
231.004822815659
 20
345.2749432264424
 42
0.0
 10
232.6048228156591
 20
345.2749432264424
 42
0.0
 10
232.6048228156592
 20
390.5107693154105
 42
-0.0874886635259245
 97
        0
 75
     0
 76
     0
 52
135.0
 41
2.0
 77
     0
 78
     1
 53
135.0
 43
0.0
 44
0.0
 45
-1.414213562373095
 46
-1.414213562373094
 79
     0
 47
0.2975165755549348
 98
        1
 10
231.9660334990985
 20
390.9652383114299
  0
LINE
  5
9F6
330
1E
100
AcDbEntity
  8
HILF
100
AcDbLine
 10
237.8987110755898
 20
298.2749432264424
 30
0.0
 11
171.3109345557286
 21
298.2749432264424
 31
0.0
  0
LINE
  5
9F7
330
1E
100
AcDbEntity
  8
STEMPEL
100
AcDbLine
 10
240.4110252475212
 20
290.2749432264424
 30
0.0
 11
168.7986203837972
 21
290.2749432264424
 31
0.0
  0
LINE
  5
9F8
330
1E
100
AcDbEntity
  8
STEMPEL
100
AcDbLine
 10
169.7048228156591
 20
298.2749432264437
 30
0.0
 11
170.4047321238665
 21
290.2749432264424
 31
0.0
  0
LINE
  5
9F9
330
1E
100
AcDbEntity
  8
STEMPEL
100
AcDbLine
 10
168.1048228156592
 20
298.2050857177889
 30
0.0
 11
168.7986203837972
 21
290.2749432264424
 31
0.0
  0
LINE
  5
9FA
330
1E
100
AcDbEntity
  8
STEMPEL
100
AcDbLine
 10
239.5048228156591
 20
298.2749432264425
 30
0.0
 11
238.8049135074516
 21
290.2749432264424
 31
0.0
  0
LINE
  5
9FB
330
1E
100
AcDbEntity
  8
STEMPEL
100
AcDbLine
 10
241.1048228156592
 20
298.2050857177889
 30
0.0
 11
240.4110252475212
 21
290.2749432264424
 31
0.0
  0
LINE
  5
9FC
330
1E
100
AcDbEntity
  8
STEMPEL
100
AcDbLine
 10
239.5048228156592
 20
421.4343438823527
 30
0.0
 11
239.5048228156592
 21
417.3908669949441
 31
0.0
  0
POLYLINE
  5
9FD
330
1E
100
AcDbEntity
  8
HILF
100
AcDb2dPolyline
 66
     1
 10
0.0
 20
0.0
 30
0.0
  0
VERTEX
  5
9FE
330
9FD
100
AcDbEntity
  8
HILF
100
AcDbVertex
100
AcDb2dVertex
 10
241.1048228156592
 20
423.2159197787405
 30
0.0
  0
VERTEX
  5
9FF
330
9FD
100
AcDbEntity
  8
HILF
100
AcDbVertex
100
AcDb2dVertex
 10
235.7790090609367
 20
417.2857063949504
 30
0.0
  0
VERTEX
  5
A00
330
9FD
100
AcDbEntity
  8
HILF
100
AcDbVertex
100
AcDb2dVertex
 10
231.4999738257786
 20
413.7275807165961
 30
0.0
  0
VERTEX
  5
A01
330
9FD
100
AcDbEntity
  8
HILF
100
AcDbVertex
100
AcDb2dVertex
 10
227.0474123249278
 20
408.0551244741888
 30
0.0
  0
VERTEX
  5
A02
330
9FD
100
AcDbEntity
  8
HILF
100
AcDbVertex
100
AcDb2dVertex
 10
225.3384101067095
 20
403.9477093389765
 30
0.0
  0
VERTEX
  5
A03
330
9FD
100
AcDbEntity
  8
HILF
100
AcDbVertex
100
AcDb2dVertex
 10
223.5989128810881
 20
399.7378170543639
 30
0.0
  0
VERTEX
  5
A04
330
9FD
100
AcDbEntity
  8
HILF
100
AcDbVertex
100
AcDb2dVertex
 10
222.1623653675848
 20
395.5185395053095
 30
0.0
  0
VERTEX
  5
A05
330
9FD
100
AcDbEntity
  8
HILF
100
AcDbVertex
100
AcDb2dVertex
 10
221.1002831953447
 20
391.3829685767719
 30
0.0
  0
VERTEX
  5
A06
330
9FD
100
AcDbEntity
  8
HILF
100
AcDbVertex
100
AcDb2dVertex
 10
220.2782037287073
 20
387.4241961537097
 30
0.0
  0
VERTEX
  5
A07
330
9FD
100
AcDbEntity
  8
HILF
100
AcDbVertex
100
AcDb2dVertex
 10
219.5796772695893
 20
383.7172199661068
 30
0.0
  0
VERTEX
  5
A08
330
9FD
100
AcDbEntity
  8
HILF
100
AcDbVertex
100
AcDb2dVertex
 10
218.9603058702149
 20
380.2646611240493
 30
0.0
  0
VERTEX
  5
A09
330
9FD
100
AcDbEntity
  8
HILF
100
AcDbVertex
100
AcDb2dVertex
 10
218.3937045203852
 20
377.0510465826488
 30
0.0
  0
VERTEX
  5
A0A
330
9FD
100
AcDbEntity
  8
HILF
100
AcDbVertex
100
AcDb2dVertex
 10
217.8534882099011
 20
374.0609032970168
 30
0.0
  0
VERTEX
  5
A0B
330
9FD
100
AcDbEntity
  8
HILF
100
AcDbVertex
100
AcDb2dVertex
 10
217.3132719285638
 20
371.2787582222647
 30
0.0
  0
VERTEX
  5
A0C
330
9FD
100
AcDbEntity
  8
HILF
100
AcDbVertex
100
AcDb2dVertex
 10
216.7466706661742
 20
368.6891383135043
 30
0.0
  0
VERTEX
  5
A0D
330
9FD
100
AcDbEntity
  8
HILF
100
AcDbVertex
100
AcDb2dVertex
 10
216.1272994125334
 20
366.276570525847
 30
0.0
  0
VERTEX
  5
A0E
330
9FD
100
AcDbEntity
  8
HILF
100
AcDbVertex
100
AcDb2dVertex
 10
215.4287731574423
 20
364.0255818144043
 30
0.0
  0
VERTEX
  5
A0F
330
9FD
100
AcDbEntity
  8
HILF
100
AcDbVertex
100
AcDb2dVertex
 10
214.6279204477216
 20
361.9236161843179
 30
0.0
  0
VERTEX
  5
A10
330
9FD
100
AcDbEntity
  8
HILF
100
AcDbVertex
100
AcDb2dVertex
 10
213.7144240582691
 20
359.9697858408497
 30
0.0
  0
VERTEX
  5
A11
330
9FD
100
AcDbEntity
  8
HILF
100
AcDbVertex
100
AcDb2dVertex
 10
212.6811803210023
 20
358.1661200392916
 30
0.0
  0
VERTEX
  5
A12
330
9FD
100
AcDbEntity
  8
HILF
100
AcDbVertex
100
AcDb2dVertex
 10
211.5210855678388
 20
356.5146480349357
 30
0.0
  0
VERTEX
  5
A13
330
9FD
100
AcDbEntity
  8
HILF
100
AcDbVertex
100
AcDb2dVertex
 10
210.227036130696
 20
355.0173990830741
 30
0.0
  0
VERTEX
  5
A14
330
9FD
100
AcDbEntity
  8
HILF
100
AcDbVertex
100
AcDb2dVertex
 10
208.791928341491
 20
353.6764024389985
 30
0.0
  0
VERTEX
  5
A15
330
9FD
100
AcDbEntity
  8
HILF
100
AcDbVertex
100
AcDb2dVertex
 10
207.2086585321417
 20
352.4936873580011
 30
0.0
  0
VERTEX
  5
A16
330
9FD
100
AcDbEntity
  8
HILF
100
AcDbVertex
100
AcDb2dVertex
 10
205.4701230345654
 20
351.471283095374
 30
0.0
  0
VERTEX
  5
A17
330
9FD
100
AcDbEntity
  8
HILF
100
AcDbVertex
100
AcDb2dVertex
 10
203.5707621682961
 20
350.6082595814411
 30
0.0
  0
VERTEX
  5
A18
330
9FD
100
AcDbEntity
  8
HILF
100
AcDbVertex
100
AcDb2dVertex
 10
201.5111922033352
 20
349.8918494466558
 30
0.0
  0
VERTEX
  5
A19
330
9FD
100
AcDbEntity
  8
HILF
100
AcDbVertex
100
AcDb2dVertex
 10
199.2935733972999
 20
349.3063259965035
 30
0.0
  0
VERTEX
  5
A1A
330
9FD
100
AcDbEntity
  8
HILF
100
AcDbVertex
100
AcDb2dVertex
 10
196.9200660078083
 20
348.8359625364694
 30
0.0
  0
VERTEX
  5
A1B
330
9FD
100
AcDbEntity
  8
HILF
100
AcDbVertex
100
AcDb2dVertex
 10
194.3928302924782
 20
348.4650323720392
 30
0.0
  0
VERTEX
  5
A1C
330
9FD
100
AcDbEntity
  8
HILF
100
AcDbVertex
100
AcDb2dVertex
 10
191.7140265089272
 20
348.1778088086981
 30
0.0
  0
VERTEX
  5
A1D
330
9FD
100
AcDbEntity
  8
HILF
100
AcDbVertex
100
AcDb2dVertex
 10
188.8858149147729
 20
347.9585651519315
 30
0.0
  0
VERTEX
  5
A1E
330
9FD
100
AcDbEntity
  8
HILF
100
AcDbVertex
100
AcDb2dVertex
 10
185.9103557676333
 20
347.7915747072249
 30
0.0
  0
VERTEX
  5
A1F
330
9FD
100
AcDbEntity
  8
HILF
100
AcDbVertex
100
AcDb2dVertex
 10
182.792276824538
 20
347.6629709267006
 30
0.0
  0
VERTEX
  5
A20
330
9FD
100
AcDbEntity
  8
HILF
100
AcDbVertex
100
AcDb2dVertex
 10
179.5460758401652
 20
347.5663278490285
 30
0.0
  0
VERTEX
  5
A21
330
9FD
100
AcDbEntity
  8
HILF
100
AcDbVertex
100
AcDb2dVertex
 10
176.1887180686052
 20
347.4970796595154
 30
0.0
  0
VERTEX
  5
A22
330
9FD
100
AcDbEntity
  8
HILF
100
AcDbVertex
100
AcDb2dVertex
 10
172.7371687639481
 20
347.4506605434682
 30
0.0
  0
VERTEX
  5
A23
330
9FD
100
AcDbEntity
  8
HILF
100
AcDbVertex
100
AcDb2dVertex
 10
169.208393180284
 20
347.4225046861936
 30
0.0
  0
VERTEX
  5
A24
330
9FD
100
AcDbEntity
  8
HILF
100
AcDbVertex
100
AcDb2dVertex
 10
168.1048228156592
 20
347.4180589593701
 30
0.0
  0
SEQEND
  5
A25
330
9FD
100
AcDbEntity
  8
HILF
  0
LINE
  5
A26
330
1E
100
AcDbEntity
  8
STEMPEL
100
AcDbLine
 10
241.104822815659
 20
407.4345832142015
 30
0.0
 11
241.104822815659
 21
298.2050857177867
 31
0.0
  0
LINE
  5
A27
330
1E
100
AcDbEntity
  8
HILF
100
AcDbLine
 10
169.4429168396021
 20
447.1954493070057
 30
0.0
 11
239.7667287917161
 21
447.1954493070057
 31
0.0
  0
LINE
  5
A28
330
1E
100
AcDbEntity
  8
HILF
100
AcDbLine
 10
167.155965013863
 20
452.3230110261613
 30
0.0
 11
242.0536806174553
 21
452.3230110261613
 31
0.0
  0
TEXT
  5
A2A
330
1E
100
AcDbEntity
  8
TEXT
 62
     1
100
AcDbText
 10
200.0418884112293
 20
420.9070232768466
 30
0.0
 40
7.0
  1
DN70
 50
90.0
 41
0.8
  7
GREEKS
100
AcDbText
  0
LINE
  5
A2B
330
1E
100
AcDbEntity
  8
STEMPEL
100
AcDbLine
 10
246.7048228156591
 20
494.7260208193235
 30
0.0
 11
246.7048228156591
 21
485.5766631782486
 31
0.0
  0
ARC
  5
A2C
330
1E
100
AcDbEntity
  8
STEMPEL
100
AcDbCircle
 10
221.7048228156591
 20
494.7260208193237
 30
0.0
 40
25.0
100
AcDbArc
 50
0.0
 51
24.95819631230951
  0
ARC
  5
A2D
330
1E
100
AcDbEntity
  8
STEMPEL
100
AcDbCircle
 10
256.204822815659
 20
472.2749432264424
 30
0.0
 40
12.0
100
AcDbArc
 50
158.8168456069641
 51
180.0
  0
ARC
  5
A2E
330
1E
100
AcDbEntity
  8
STEMPEL
100
AcDbCircle
 10
221.7048228156591
 20
485.6449432264422
 30
0.0
 40
25.00009324312574
100
AcDbArc
 50
338.8168456069642
 51
0.1564859543343451
  0
ARC
  5
A2F
330
1E
100
AcDbEntity
  8
STEMPEL
100
AcDbCircle
 10
249.1048228156591
 20
444.9683435618737
 30
0.0
 40
8.0
100
AcDbArc
 50
147.6719358778346
 51
180.0
  0
ARC
  5
A30
330
1E
100
AcDbEntity
  8
STEMPEL
100
AcDbCircle
 10
232.2048228156591
 20
455.6636696438594
 30
0.0
 40
12.0
100
AcDbArc
 50
327.6719358778347
 51
0.0
  0
LINE
  5
A31
330
1E
100
AcDbEntity
  8
STEMPEL
100
AcDbLine
 10
244.204822815659
 20
472.2749432264424
 30
0.0
 11
244.204822815659
 21
455.6636696438594
 31
0.0
  0
ARC
  5
A32
330
1E
100
AcDbEntity
  8
STEMPEL
100
AcDbCircle
 10
229.1048228156592
 20
417.3908669949441
 30
0.0
 40
12.0
100
AcDbArc
 50
340.0000000000035
 51
0.0
  0
ARC
  5
A33
330
1E
100
AcDbEntity
  8
STEMPEL
100
AcDbCircle
 10
229.1048228156592
 20
417.3908669949441
 30
0.0
 40
10.4
100
AcDbArc
 50
340.0000000000035
 51
0.0
  0
LINE
  5
A34
330
1E
100
AcDbEntity
  8
STEMPEL
100
AcDbLine
 10
239.5048228156591
 20
417.8577854357969
 30
0.0
 11
239.5048228156591
 21
417.3908669949441
 31
0.0
  0
LINE
  5
A35
330
1E
100
AcDbEntity
  8
STEMPEL
100
AcDbLine
 10
241.1048228156592
 20
410.2749432264426
 30
0.0
 11
239.2849716443282
 21
410.2749432264426
 31
0.0
  0
LWPOLYLINE
  5
A36
330
1E
100
AcDbEntity
  8
STEMPEL
100
AcDbPolyline
 90
        4
 70
     0
 43
0.0
 10
237.2003740540508
 20
404.547558418506
 42
-0.0611600535747248
 10
237.6845283863477
 20
403.8167504782486
 42
-0.0648584830741578
 10
238.2095352467561
 20
402.3008439333244
 42
-0.0510111269016863
 10
238.4167614333812
 20
400.2749432264424
 42
-0.0510111269016738
  0
ARC
  5
A37
330
1E
100
AcDbEntity
  8
SCHRAFF
100
AcDbCircle
 10
234.6676976254569
 20
411.581851890136
 30
0.0
 40
7.657442013147875
100
AcDbArc
 50
327.2073927374725
 51
34.09818971891869
  0
ARC
  5
A38
330
1E
100
AcDbEntity
  8
STEMPEL
100
AcDbCircle
 10
240.6048228156592
 20
390.5107693154105
 30
0.0
 40
8.0
100
AcDbArc
 50
159.9999999999963
 51
180.0
  0
LINE
  5
A39
330
1E
100
AcDbEntity
  8
STEMPEL
100
AcDbLine
 10
238.8776260718326
 20
413.8338575043571
 30
0.0
 11
231.5837736561143
 21
393.7941626913369
 31
0.0
  0
LINE
  5
A3A
330
1E
100
AcDbEntity
  8
STEMPEL
100
AcDbLine
 10
240.3811342650901
 20
413.2866252750361
 30
0.0
 11
233.087281849372
 21
393.2469304620158
 31
0.0
  0
LWPOLYLINE
  5
A3B
330
1E
100
AcDbEntity
  8
STEMPEL
100
AcDbPolyline
 90
        5
 70
     0
 43
0.0
 10
234.8162026628879
 20
360.2749432264425
 42
0.0448625346001936
 10
234.9989659798404
 20
358.2421169435046
 42
0.058366107133556
 10
235.4571147664112
 20
356.7394093205097
 42
0.1004267118962066
 10
236.2852833691251
 20
355.561298621772
 42
0.0646530356134273
 10
236.5031792581403
 20
355.4028357326089
 42
0.1917760145803905
  0
LWPOLYLINE
  5
A3C
330
1E
100
AcDbEntity
  8
STEMPEL
100
AcDbPolyline
 90
        9
 70
     0
 43
0.0
 10
238.4167614333812
 20
360.2749432264425
 42
-0.0510111269016863
 10
238.2095352467561
 20
358.2490425195605
 42
-0.0648584830741578
 10
237.6845283863477
 20
356.7331359746363
 42
-0.1041619196622498
 10
236.7633210594646
 20
355.5715960333966
 42
-0.1749289434508429
 10
235.9167614333812
 20
355.2660713756268
 42
-0.174928943450854
 10
235.070201807298
 20
355.5715960333966
 42
-0.104161919662265
 10
234.1489944804148
 20
356.7331359746363
 42
-0.0648584830741701
 10
233.6239876200064
 20
358.2490425195608
 42
-0.051011126901681
 10
233.4167614333812
 20
360.2749432264425
 42
-0.0510111269017003
  0
LINE
  5
A3D
330
1E
100
AcDbEntity
  8
STEMPEL
100
AcDbLine
 10
233.4167614333812
 20
394.1521681792527
 30
0.0
 11
233.4167614333812
 21
360.2749432264425
 31
0.0
  0
LINE
  5
A3E
330
1E
100
AcDbEntity
  8
STEMPEL
100
AcDbLine
 10
234.8162026628879
 20
397.9971013571761
 30
0.0
 11
234.8162026628879
 21
360.2749432264425
 31
0.0
  0
LINE
  5
A3F
330
1E
100
AcDbEntity
  8
STEMPEL
100
AcDbLine
 10
232.6048228156592
 20
390.5107693154105
 30
0.0
 11
232.6048228156592
 21
345.2749432264424
 31
0.0
  0
LINE
  5
A40
330
1E
100
AcDbEntity
  8
STEMPEL
100
AcDbLine
 10
238.4167614333812
 20
400.2749432264425
 30
0.0
 11
238.4167614333812
 21
360.2749432264425
 31
0.0
  0
TEXT
  5
A43
330
1E
100
AcDbEntity
  8
TEXT
 62
     1
100
AcDbText
 10
260.8175554128544
 20
329.8669013712346
 30
0.0
 40
7.0
  1
12x auf Umfang verteilt
 41
0.8
  7
GREEKS
100
AcDbText
  0
LINE
  5
A44
330
1E
100
AcDbEntity
  8
TEXT
 62
     2
100
AcDbLine
 10
258.1324101785247
 20
325.7111385948375
 30
0.0
 11
370.7447786192763
 21
325.7111385948375
 31
0.0
  0
LINE
  5
A45
330
1E
100
AcDbEntity
  8
STEMPEL
100
AcDbLine
 10
239.5048228156591
 20
410.2749432264426
 30
0.0
 11
239.5048228156591
 21
298.274943226443
 31
0.0
  0
LINE
  5
A47
330
1E
100
AcDbEntity
  8
STEMPEL
100
AcDbLine
 10
241.1048228156591
 20
444.9683435618737
 30
0.0
 11
241.1048228156592
 21
417.3908669949441
 31
0.0
  0
LINE
  5
A48
330
1E
100
AcDbEntity
  8
STEMPEL
100
AcDbLine
 10
162.504822815659
 20
494.7260208193235
 30
0.0
 11
162.504822815659
 21
485.5766631782486
 31
0.0
  0
ARC
  5
A49
330
1E
100
AcDbEntity
  8
STEMPEL
100
AcDbCircle
 10
187.5048228156591
 20
494.7260208193237
 30
0.0
 40
25.0
100
AcDbArc
 50
155.0418036876905
 51
180.0
  0
ARC
  5
A4A
330
1E
100
AcDbEntity
  8
STEMPEL
100
AcDbCircle
 10
153.004822815659
 20
472.2749432264424
 30
0.0
 40
12.0
100
AcDbArc
 50
0.0
 51
21.18315439303582
  0
ARC
  5
A4B
330
1E
100
AcDbEntity
  8
STEMPEL
100
AcDbCircle
 10
187.5048228156591
 20
485.6449432264422
 30
0.0
 40
25.00009324312574
100
AcDbArc
 50
179.8435140456656
 51
201.1831543930358
  0
ARC
  5
A4C
330
1E
100
AcDbEntity
  8
STEMPEL
100
AcDbCircle
 10
177.0048228156591
 20
455.6636696438594
 30
0.0
 40
12.0
100
AcDbArc
 50
180.0
 51
212.3280641221653
  0
ARC
  5
A4D
330
1E
100
AcDbEntity
  8
STEMPEL
100
AcDbCircle
 10
160.1048228156592
 20
444.9683435618737
 30
0.0
 40
8.0
100
AcDbArc
 50
0.0
 51
32.32806412216532
  0
LINE
  5
A4E
330
1E
100
AcDbEntity
  8
STEMPEL
100
AcDbLine
 10
165.0048228156591
 20
472.2749432264424
 30
0.0
 11
165.0048228156591
 21
455.6636696438594
 31
0.0
  0
LWPOLYLINE
  5
A4F
330
1E
100
AcDbEntity
  8
STEMPEL
100
AcDbPolyline
 90
        3
 70
     0
 43
0.0
 10
222.8548228156592
 20
405.2749432264425
 42
-0.1160448091176071
 10
224.4060083325101
 20
404.9100149020681
 42
-0.0736225154350815
 10
225.4389888758206
 20
404.1894403058085
 42
-0.0736225154350815
  0
LWPOLYLINE
  5
A50
330
1E
100
AcDbEntity
  8
STEMPEL
100
AcDbPolyline
 90
        4
 70
     0
 43
0.0
 10
222.438829675186
 20
405.2536064327362
 42
-0.0881939002362184
 10
223.6025827414772
 20
404.9101952297742
 42
-0.1041583937666652
 10
224.9893975846767
 20
403.8104771323753
 42
-0.0153995530604293
 10
225.1804222469833
 20
403.5653506539914
 42
-0.0153995530604293
  0
ARC
  5
A51
330
1E
100
AcDbEntity
  8
SCHRAFF
100
AcDbCircle
 10
222.775412817959
 20
411.8168010459763
 30
0.0
 40
7.443040393312843
100
AcDbArc
 50
2.092966149206408
 51
36.80437641679989
  0
ARC
  5
A52
330
1E
100
AcDbEntity
  8
SCHRAFF
100
AcDbCircle
 10
216.7428814765452
 20
411.8168010459763
 30
0.0
 40
7.443040393312843
100
AcDbArc
 50
323.1956235832001
 51
36.80437641679989
  0
ARC
  5
A53
330
1E
100
AcDbEntity
  8
SCHRAFF
100
AcDbCircle
 10
204.6778187937178
 20
411.8168010459763
 30
0.0
 40
7.443040393312843
100
AcDbArc
 50
323.1956235832001
 51
36.80437641679989
  0
ARC
  5
A54
330
1E
100
AcDbEntity
  8
SCHRAFF
100
AcDbCircle
 10
210.7103501351314
 20
411.8168010459763
 30
0.0
 40
7.443040393312843
100
AcDbArc
 50
323.1956235832001
 51
36.80437641679989
  0
LWPOLYLINE
  5
A55
330
1E
100
AcDbEntity
  8
STEMPEL
100
AcDbPolyline
 90
        5
 70
     0
 43
0.0
 10
218.3526519865279
 20
400.2749432264425
 42
-0.0894856039465815
 10
218.7021036499221
 20
402.2118657779272
 42
-0.0942938265008356
 10
219.6713072923203
 20
403.8104771323752
 42
-0.1019990275861884
 10
221.1556231926571
 20
404.9028551101986
 42
-0.1082072415965859
 10
222.8548228156592
 20
405.2749432264425
 42
-0.1082072415965768
  0
LINE
  5
A56
330
1E
100
AcDbEntity
  8
STEMPEL
100
AcDbLine
 10
218.3526519865279
 20
400.2749432264425
 30
0.0
 11
218.3526519865279
 21
376.8238173115417
 31
0.0
  0
ARC
  5
A57
330
1E
100
AcDbEntity
  8
STEMPEL
100
AcDbCircle
 10
204.6048228156592
 20
400.2749432264425
 30
0.0
 40
5.0
100
AcDbArc
 50
90.0
 51
180.0
  0
ARC
  5
A58
330
1E
100
AcDbEntity
  8
SCHRAFF
100
AcDbCircle
 10
198.645287452304
 20
411.8168010459764
 30
0.0
 40
7.443040393312843
100
AcDbArc
 50
323.1956235832001
 51
36.80437641679989
  0
ARC
  5
A59
330
1E
100
AcDbEntity
  8
SCHRAFF
100
AcDbCircle
 10
192.6127561108904
 20
411.8168010459763
 30
0.0
 40
7.443040393312843
100
AcDbArc
 50
323.1956235832001
 51
36.80437641679989
  0
LWPOLYLINE
  5
A5A
330
1E
100
AcDbEntity
  8
STEMPEL
100
AcDbPolyline
 90
        5
 70
     0
 43
0.0
 10
190.8569936447902
 20
400.2749432264425
 42
0.0894856039465815
 10
190.5075419813961
 20
402.2118657779272
 42
0.0942938265008356
 10
189.538338338998
 20
403.8104771323752
 42
0.1019990275861884
 10
188.0540224386611
 20
404.9028551101986
 42
0.1082072415965859
 10
186.354822815659
 20
405.2749432264425
 42
0.1082072415965768
  0
ARC
  5
A5B
330
1E
100
AcDbEntity
  8
SCHRAFF
100
AcDbCircle
 10
186.5802247694766
 20
411.8168010459763
 30
0.0
 40
7.443040393312843
100
AcDbArc
 50
323.1956235832001
 51
36.80437641679989
  0
ARC
  5
A5C
330
1E
100
AcDbEntity
  8
SCHRAFF
100
AcDbCircle
 10
180.5476934280628
 20
411.8168010459763
 30
0.0
 40
7.443040393312843
100
AcDbArc
 50
323.1956235832001
 51
36.80437641679989
  0
ARC
  5
A5D
330
1E
100
AcDbEntity
  8
STEMPEL
100
AcDbCircle
 10
204.6048228156592
 20
400.2749432264425
 30
0.0
 40
5.0
100
AcDbArc
 50
0.0
 51
90.0
  0
ARC
  5
A5E
330
1E
100
AcDbEntity
  8
STEMPEL
100
AcDbCircle
 10
204.6048228156592
 20
360.2749432264425
 30
0.0
 40
5.0
100
AcDbArc
 50
180.0
 51
270.0
  0
LWPOLYLINE
  5
A5F
330
1E
100
AcDbEntity
  8
STEMPEL
100
AcDbPolyline
 90
        5
 70
     0
 43
0.0
 10
186.354822815659
 20
355.2749432264425
 42
0.1082072415965644
 10
188.0540224386611
 20
355.6470313426864
 42
0.1019990275861814
 10
189.538338338998
 20
356.7394093205098
 42
0.0942938265008525
 10
190.5075419813961
 20
358.3380206749577
 42
0.089485603946596
 10
190.8569936447903
 20
360.2749432264425
 42
0.0894856039465907
  0
ARC
  5
A60
330
1E
100
AcDbEntity
  8
STEMPEL
100
AcDbCircle
 10
204.6048228156592
 20
360.2749432264425
 30
0.0
 40
5.0
100
AcDbArc
 50
270.0
 51
0.0
  0
LINE
  5
A61
330
1E
100
AcDbEntity
  8
STEMPEL
100
AcDbLine
 10
231.0048228156591
 20
390.5107693154105
 30
0.0
 11
231.0048228156591
 21
345.2749432264424
 31
0.0
  0
LINE
  5
A62
330
1E
100
AcDbEntity
  8
STEMPEL
100
AcDbLine
 10
209.6048228156592
 20
400.2749432264425
 30
0.0
 11
209.6048228156592
 21
360.2749432264425
 31
0.0
  0
LINE
  5
A63
330
1E
100
AcDbEntity
  8
STEMPEL
100
AcDbLine
 10
190.8569936447902
 20
400.2749432264425
 30
0.0
 11
190.8569936447903
 21
360.2749432264425
 31
0.0
  0
LINE
  5
A64
330
1E
100
AcDbEntity
  8
STEMPEL
100
AcDbLine
 10
199.6048228156592
 20
400.2749432264425
 30
0.0
 11
199.6048228156592
 21
360.2749432264425
 31
0.0
  0
LINE
  5
A65
330
1E
100
AcDbEntity
  8
MITTEL
100
AcDbLine
 10
204.6048228156593
 20
510.2749432264425
 30
0.0
 11
204.6048228156591
 21
285.2749432264427
 31
0.0
  0
ARC
  5
A66
330
1E
100
AcDbEntity
  8
SCHRAFF
100
AcDbCircle
 10
174.5151620866491
 20
411.8168010459764
 30
0.0
 40
7.443040393312843
100
AcDbArc
 50
323.1956235832001
 51
36.80437641679989
  0
ARC
  5
A67
330
1E
100
AcDbEntity
  8
SCHRAFF
100
AcDbCircle
 10
168.4826307452355
 20
411.8168010459763
 30
0.0
 40
7.443040393312843
100
AcDbArc
 50
323.1956235832001
 51
36.80437641679989
  0
ARC
  5
A68
330
1E
100
AcDbEntity
  8
STEMPEL
100
AcDbCircle
 10
180.104822815659
 20
417.3908669949441
 30
0.0
 40
12.0
100
AcDbArc
 50
180.0
 51
199.9999999999964
  0
ARC
  5
A69
330
1E
100
AcDbEntity
  8
BEM
100
AcDbCircle
 10
162.4500994038217
 20
411.8168010459763
 30
0.0
 40
7.443040393312843
100
AcDbArc
 50
323.1956235832001
 51
36.80437641679989
  0
LINE
  5
A6A
330
1E
100
AcDbEntity
  8
STEMPEL
100
AcDbLine
 10
168.8285113662282
 20
413.2866252750361
 30
0.0
 11
169.9246739869901
 21
410.2749432264424
 31
0.0
  0
ARC
  5
A6B
330
1E
100
AcDbEntity
  8
BEM
100
AcDbCircle
 10
174.5419480058615
 20
411.581851890136
 30
0.0
 40
7.657442013147875
100
AcDbArc
 50
145.9018102810813
 51
212.7926072625275
  0
LWPOLYLINE
  5
A6C
330
1E
100
AcDbEntity
  8
STEMPEL
100
AcDbPolyline
 90
        5
 70
     0
 43
0.0
 10
173.9919549269188
 20
405.0844994478167
 42
0.0340277875279253
 10
173.8457973049139
 20
404.9791023341736
 42
0.1041580259530588
 10
172.9245584744772
 20
403.8173444253218
 42
0.0648500088297205
 10
172.3995538663312
 20
402.3011986561487
 42
0.0510027945188002
 10
172.1923254274436
 20
400.2749432264424
 42
0.0510027945188098
  0
LWPOLYLINE
  5
A6D
330
1E
100
AcDbEntity
  8
STEMPEL
100
AcDbPolyline
 90
        9
 70
     0
 43
0.0
 10
175.7928841979369
 20
400.2749432264424
 42
0.0510111269016906
 10
175.5856580113118
 20
402.3008439333242
 42
0.0648584830741748
 10
175.0606511509033
 20
403.8167504782486
 42
0.1041619196622654
 10
174.1394438240203
 20
404.9782904194882
 42
0.174928943450854
 10
173.2928841979369
 20
405.2838150772581
 42
0.174928943450854
 10
172.4463245718536
 20
404.9782904194882
 42
0.104161919662265
 10
171.5251172449706
 20
403.8167504782486
 42
0.0648584830741578
 10
171.000110384562
 20
402.3008439333244
 42
0.0510111269016863
 10
170.7928841979369
 20
400.2749432264424
 42
0.0510111269016738
  0
LINE
  5
A6E
330
1E
100
AcDbEntity
  8
STEMPEL
100
AcDbLine
 10
172.580139202445
 20
402.9791125088327
 30
0.0
 11
175.7928841979369
 21
394.1521681792527
 31
0.0
  0
LINE
  5
A6F
330
1E
100
AcDbEntity
  8
STEMPEL
100
AcDbLine
 10
178.2048228156591
 20
347.5498165653485
 30
0.0
 11
178.2048228156591
 21
345.2749432264424
 31
0.0
  0
LINE
  5
A70
330
1E
100
AcDbEntity
  8
STEMPEL
100
AcDbLine
 10
176.6048228156592
 20
347.504700316403
 30
0.0
 11
176.6048228156592
 21
345.2749432264424
 31
0.0
  0
LWPOLYLINE
  5
A71
330
1E
100
AcDbEntity
  8
STEMPEL
100
AcDbPolyline
 90
        5
 70
     0
 43
0.0
 10
172.1923254274436
 20
360.2749432264425
 42
0.0448625346001936
 10
172.3750887443961
 20
358.2421169435046
 42
0.058366107133556
 10
172.833237530967
 20
356.7394093205097
 42
0.1004267118962066
 10
173.6614061336809
 20
355.561298621772
 42
0.0646530356134273
 10
173.879302022696
 20
355.4028357326089
 42
0.1917760145803905
  0
LWPOLYLINE
  5
A72
330
1E
100
AcDbEntity
  8
STEMPEL
100
AcDbPolyline
 90
        9
 70
     0
 43
0.0
 10
170.7928841979369
 20
360.2749432264425
 42
0.0510111269016863
 10
171.000110384562
 20
358.2490425195605
 42
0.0648584830741578
 10
171.5251172449706
 20
356.7331359746363
 42
0.1041619196622498
 10
172.4463245718536
 20
355.5715960333966
 42
0.1749289434508429
 10
173.2928841979369
 20
355.2660713756268
 42
0.174928943450854
 10
174.1394438240203
 20
355.5715960333966
 42
0.104161919662265
 10
175.0606511509033
 20
356.7331359746363
 42
0.0648584830741701
 10
175.5856580113119
 20
358.2490425195608
 42
0.051011126901681
 10
175.7928841979369
 20
360.2749432264425
 42
0.0510111269017003
  0
LINE
  5
A73
330
1E
100
AcDbEntity
  8
STEMPEL
100
AcDbLine
 10
168.1048228156592
 20
410.2749432264424
 30
0.0
 11
168.1048228156593
 21
298.2050857177885
 31
0.0
  0
LINE
  5
A74
330
1E
100
AcDbEntity
  8
STEMPEL
100
AcDbLine
 10
183.0047073775167
 20
400.2749432264425
 30
0.0
 11
183.0047073775167
 21
360.2749432264425
 31
0.0
  0
LINE
  5
A75
330
1E
100
AcDbEntity
  8
STEMPEL
100
AcDbLine
 10
172.1923254274436
 20
400.2749432264425
 30
0.0
 11
172.1923254274436
 21
360.2749432264425
 31
0.0
  0
LINE
  5
A76
330
1E
100
AcDbEntity
  8
STEMPEL
100
AcDbLine
 10
170.7928841979369
 20
400.2749432264425
 30
0.0
 11
170.7928841979369
 21
360.2749432264425
 31
0.0
  0
LINE
  5
A77
330
1E
100
AcDbEntity
  8
STEMPEL
100
AcDbLine
 10
175.7928841979369
 20
400.2749432264424
 30
0.0
 11
175.7928841979369
 21
360.2749432264425
 31
0.0
  0
LINE
  5
A78
330
1E
100
AcDbEntity
  8
STEMPEL
100
AcDbLine
 10
182.196739606946
 20
400.2749432264425
 30
0.0
 11
182.196739606946
 21
360.2749432264425
 31
0.0
  0
LWPOLYLINE
  5
A79
330
1E
100
AcDbEntity
  8
STEMPEL
100
AcDbPolyline
 90
        5
 70
     0
 43
0.0
 10
186.7708159561323
 20
405.2536064327362
 42
0.0881939002362183
 10
185.607062889841
 20
404.9101952297742
 42
0.1041583937666652
 10
184.2202480466417
 20
403.8104771323753
 42
0.0906557867322456
 10
183.3311030578004
 20
402.2282005756268
 42
0.082976372916389
 10
183.0047073775167
 20
400.2749432264425
 42
0.0829763729163673
  0
LWPOLYLINE
  5
A7A
330
1E
100
AcDbEntity
  8
STEMPEL
100
AcDbPolyline
 90
        5
 70
     0
 43
0.0
 10
186.354822815659
 20
405.2749432264425
 42
0.116044809117607
 10
184.8036372988082
 20
404.9100149020681
 42
0.1041136907849951
 10
183.4146139820401
 20
403.8104771323752
 42
0.0907446640652515
 10
182.523666529582
 20
402.227834608773
 42
0.0831249348283856
 10
182.196739606946
 20
400.2749432264425
 42
0.0831249348283806
  0
LWPOLYLINE
  5
A7B
330
1E
100
AcDbEntity
  8
STEMPEL
100
AcDbPolyline
 90
        5
 70
     0
 43
0.0
 10
183.0047073775167
 20
360.2749432264425
 42
0.082976372916373
 10
183.3311030578004
 20
358.3216858772582
 42
0.0906557867322319
 10
184.2202480466417
 20
356.7394093205098
 42
0.1041583937666244
 10
185.607062889841
 20
355.6396912231106
 42
0.0881939002361597
 10
186.7708159561321
 20
355.2962800201487
 42
0.1162388648590112
  0
LWPOLYLINE
  5
A7C
330
1E
100
AcDbEntity
  8
STEMPEL
100
AcDbPolyline
 90
        5
 70
     0
 43
0.0
 10
182.196739606946
 20
360.2749432264425
 42
0.0831249348283902
 10
182.523666529582
 20
358.3220518441122
 42
0.0907446640652638
 10
183.4146139820402
 20
356.7394093205098
 42
0.1041136907849957
 10
184.8036372988083
 20
355.6398715508168
 42
0.1160448091175973
 10
186.354822815659
 20
355.2749432264425
 42
0.1160448091175801
  0
LINE
  5
A7D
330
1E
100
AcDbEntity
  8
STEMPEL
100
AcDbLine
 10
228.7898461301038
 20
410.2749432264426
 30
0.0
 11
168.1048228156592
 21
410.2749432264424
 31
0.0
  0
LINE
  5
A80
330
1E
100
AcDbEntity
  8
STEMPEL
100
AcDbLine
 10
169.7048228156591
 20
347.4149716469657
 30
0.0
 11
169.7048228156591
 21
298.2749432264436
 31
0.0
  0
LINE
  5
A83
330
1E
100
AcDbEntity
  8
STEMPEL
100
AcDbLine
 10
168.1048228156592
 20
444.9683435618737
 30
0.0
 11
168.1048228156592
 21
417.390866994944
 31
0.0
  0
DIMENSION
  5
A84
330
1E
100
AcDbEntity
  8
BEM
100
AcDbDimension
  2
*D2
 10
141.4142201403389
 20
290.2749432264424
 30
0.0
 11
134.9142201403388
 21
397.7749432264425
 31
0.0
 70
    32
 71
     5
 42
215.0
  3
Standard
100
AcDbAlignedDimension
 13
164.8394254873839
 23
505.2749432264424
 33
0.0
 14
168.7986203837972
 24
290.2749432264424
 34
0.0
 50
90.0
100
AcDbRotatedDimension
1001
ACAD
1000
DSTYLE
1002
{
1070
    40
1040
2.0
1070
    41
1040
3.5
1070
    42
1040
1.0
1070
    43
1040
7.0
1070
    44
1040
1.0
1070
    47
1040
0.3
1070
    48
1040
0.3
1070
    73
1070
     0
1070
    74
1070
     0
1070
    77
1070
     1
1070
    78
1070
     8
1070
    79
1070
     2
1070
   140
1040
3.5
1070
   141
1040
1.5
1070
   146
1040
0.5
1070
   147
1040
1.5
1070
   172
1070
     1
1070
   178
1070
     1
1070
   179
1070
     2
1070
   271
1070
     2
1070
   272
1070
     2
1070
   284
1070
     8
1070
   285
1070
     8
1070
   286
1070
     8
1002
}
  0
LINE
  5
A85
330
1E
100
AcDbEntity
  8
HILF
  6
Continuous
100
AcDbLine
 10
242.6548735032354
 20
473.4406505785461
 30
0.0
 11
166.5547721280828
 21
473.4406505785461
 31
0.0
  0
LINE
  5
A86
330
1E
100
AcDbEntity
  8
STEMPEL
100
AcDbLine
 10
164.8394254873839
 20
505.2749432264424
 30
0.0
 11
244.3702201439343
 21
505.2749432264424
 31
0.0
  0
ARC
  5
A87
330
1E
100
AcDbEntity
  8
STEMPEL
100
AcDbCircle
 10
240.6048228156592
 20
390.5107693154105
 30
0.0
 40
9.599999999999999
100
AcDbArc
 50
159.9999999999963
 51
180.0
  0
LINE
  5
A89
330
1E
100
AcDbEntity
  8
STEMPEL
100
AcDbLine
 10
176.6048228156592
 20
345.2749432264424
 30
0.0
 11
232.6048228156592
 21
345.2749432264424
 31
0.0
  0
INSERT
  5
A8A
330
1E
100
AcDbEntity
  8
SCHRAFF
100
AcDbBlockReference
  2
*X1
 10
-104.1709922161815
 20
-20.16734639857759
 30
0.0
1001
ACAD
1000
HATCH
1002
{
1070
    16
1000
_U,I
1040
0.1
1040
0.0
1070
     0
1002
}
  0
LINE
  5
A8B
330
1E
100
AcDbEntity
  8
HILF
  6
Continuous
100
AcDbLine
 10
169.9223444039024
 20
415.2749432264423
 30
0.0
 11
233.3608464592201
 21
415.2749432264425
 31
0.0
  0
DIMENSION
  5
A8C
330
1E
100
AcDbEntity
  8
BEM
100
AcDbDimension
  2
*D3
 10
241.104822815659
 20
262.1144512919977
 30
0.0
 11
204.6048228156591
 21
268.6144512919977
 31
0.0
 70
    32
  1
%%C<>
 71
     5
 42
72.99999999999972
  3
Standard
100
AcDbAlignedDimension
 13
168.1048228156593
 23
298.2050857177885
 33
0.0
 14
241.104822815659
 24
298.2050857177867
 34
0.0
100
AcDbRotatedDimension
1001
ACAD
1000
DSTYLE
1002
{
1070
    40
1040
2.0
1070
    41
1040
3.5
1070
    42
1040
1.0
1070
    43
1040
7.0
1070
    44
1040
1.0
1070
    47
1040
0.3
1070
    48
1040
0.3
1070
    73
1070
     0
1070
    74
1070
     0
1070
    77
1070
     1
1070
    78
1070
     8
1070
    79
1070
     2
1070
   140
1040
3.5
1070
   141
1040
1.5
1070
   146
1040
0.5
1070
   147
1040
1.5
1070
   172
1070
     1
1070
   178
1070
     1
1070
   179
1070
     2
1070
   271
1070
     2
1070
   272
1070
     2
1070
   284
1070
     8
1070
   285
1070
     8
1070
   286
1070
     8
1002
}
  0
LINE
  5
A8E
330
1E
100
AcDbEntity
  8
TEXT
 62
     2
100
AcDbLine
 10
207.4082009560807
 20
363.7557864023693
 30
0.0
 11
258.1324101785247
 21
325.7111385948375
 31
0.0
  0
LINE
  5
B86
330
1E
100
AcDbEntity
  8
STEMPEL
100
AcDbLine
 10
40.0
 20
9.999999999999998
 30
0.0
 11
39.99999999999987
 21
583.9999999999998
 31
0.0
  0
TEXT
  5
B87
330
1E
100
AcDbEntity
  8
TEXT
 62
     1
100
AcDbText
 10
260.8175554128544
 20
299.0167067803135
 30
0.0
 40
7.0
  1
Rohrenden eingezogen
 41
0.8
  7
GREEKS
100
AcDbText
  0
ENDSEC
  0
SECTION
  2
OBJECTS
  0
DICTIONARY
  5
C
330
0
100
AcDbDictionary
281
     1
  3
ACAD_COLOR
350
DF
  3
ACAD_GROUP
350
D
  3
ACAD_LAYOUT
350
19
  3
ACAD_MATERIAL
350
DE
  3
ACAD_MLINESTYLE
350
16
  3
ACAD_PLOTSETTINGS
350
18
  3
ACAD_PLOTSTYLENAME
350
E
  3
AcDbVariableDictionary
350
EA
  0
DICTIONARY
  5
A0
330
1E
100
AcDbDictionary
280
     1
281
     1
  3
ACAD_LAYOUTSELFREF
360
D4
  0
DICTIONARY
  5
A2
330
1A
100
AcDbDictionary
280
     1
281
     1
  3
ACAD_LAYOUTSELFREF
360
D3
  0
DICTIONARY
  5
DF
102
{ACAD_REACTORS
330
C
102
}
330
C
100
AcDbDictionary
281
     1
  0
DICTIONARY
  5
D
102
{ACAD_REACTORS
330
C
102
}
330
C
100
AcDbDictionary
281
     1
  0
DICTIONARY
  5
19
102
{ACAD_REACTORS
330
C
102
}
330
C
100
AcDbDictionary
281
     1
  3
Layout1
350
1D
  3
Model
350
21
  0
DICTIONARY
  5
DE
102
{ACAD_REACTORS
330
C
102
}
330
C
100
AcDbDictionary
281
     1
  0
DICTIONARY
  5
16
102
{ACAD_REACTORS
330
C
102
}
330
C
100
AcDbDictionary
281
     1
  3
Standard
350
17
  0
DICTIONARY
  5
18
102
{ACAD_REACTORS
330
C
102
}
330
C
100
AcDbDictionary
281
     1
  0
ACDBDICTIONARYWDFLT
  5
E
102
{ACAD_REACTORS
330
C
102
}
330
C
100
AcDbDictionary
281
     1
  3
Normal
350
F
100
AcDbDictionaryWithDefault
340
F
  0
DICTIONARY
  5
EA
102
{ACAD_REACTORS
330
C
102
}
330
C
100
AcDbDictionary
281
     1
  3
DIMASSOC
350
EB
  3
PROJECTNAME
350
EC
  0
XRECORD
  5
D4
102
{ACAD_REACTORS
330
A0
102
}
330
A0
100
AcDbXrecord
280
     1
340
1E
  0
XRECORD
  5
D3
102
{ACAD_REACTORS
330
A2
102
}
330
A2
100
AcDbXrecord
280
     1
340
1A
  0
LAYOUT
  5
1D
102
{ACAD_REACTORS
330
19
102
}
330
19
100
AcDbPlotSettings
  1

  2
\\NT_WORK01\HP LaserJet 5000 PCL 6
  4

  6

 40
0.0
 41
0.0
 42
0.0
 43
0.0
 44
0.0
 45
0.0
 46
0.0
 47
0.0
 48
0.0
 49
0.0
140
0.0
141
0.0
142
1.0
143
1.0
 70
   688
 72
     0
 73
     0
 74
     5
  7

 75
    16
147
1.0
 76
     0
 77
     2
 78
   300
148
0.0
149
0.0
100
AcDbLayout
  1
Layout1
 70
     0
 71
     1
 10
0.0
 20
0.0
 11
12.0
 21
9.0
 12
0.0
 22
0.0
 32
0.0
 14
1.000000000000000E+20
 24
1.000000000000000E+20
 34
1.000000000000000E+20
 15
-1.000000000000000E+20
 25
-1.000000000000000E+20
 35
-1.000000000000000E+20
146
0.0
 13
0.0
 23
0.0
 33
0.0
 16
1.0
 26
0.0
 36
0.0
 17
0.0
 27
1.0
 37
0.0
 76
     0
330
1A
  0
LAYOUT
  5
21
102
{ACAD_REACTORS
330
19
102
}
330
19
100
AcDbPlotSettings
  1

  2
none_device
  4
Letter_(8.50_x_11.00_Inches)
  6

 40
6.349999904632568
 41
6.349999904632568
 42
6.350006103515625
 43
6.350006103515625
 44
215.8999938964844
 45
279.3999938964844
 46
0.0
 47
0.0
 48
0.0
 49
0.0
140
0.0
141
0.0
142
1.0
143
1.0
 70
 11952
 72
     0
 73
     1
 74
     0
  7

 75
     0
147
1.0
 76
     0
 77
     2
 78
   300
148
2286.954945891457
149
77.15490472852401
100
AcDbLayout
  1
Model
 70
     1
 71
     0
 10
0.0
 20
0.0
 11
12.0
 21
9.0
 12
0.0
 22
0.0
 32
0.0
 14
0.0
 24
0.0
 34
0.0
 15
0.0
 25
0.0
 35
0.0
146
0.0
 13
0.0
 23
0.0
 33
0.0
 16
1.0
 26
0.0
 36
0.0
 17
0.0
 27
1.0
 37
0.0
 76
     0
330
1E
  0
MLINESTYLE
  5
17
102
{ACAD_REACTORS
330
16
102
}
330
16
100
AcDbMlineStyle
  2
STANDARD
 70
     0
  3

 62
   256
 51
90.0
 52
90.0
 71
     2
 49
0.5
 62
   256
  6
BYLAYER
 49
-0.5
 62
   256
  6
BYLAYER
  0
ACDBPLACEHOLDER
  5
F
102
{ACAD_REACTORS
330
E
102
}
330
E
  0
DICTIONARYVAR
  5
EB
102
{ACAD_REACTORS
330
EA
102
}
330
EA
100
DictionaryVariables
280
     0
  1
1
  0
DICTIONARYVAR
  5
EC
102
{ACAD_REACTORS
330
EA
102
}
330
EA
100
DictionaryVariables
280
     0
  1

  0
ENDSEC
  0
EOF
