  0
SECTION
  2
HEADER
  9
$ACADVER
  1
AC1018
  9
$ACADMAINTVER
 70
     2
  9
$DWGCODEPAGE
  3
ANSI_1252
  9
$INSBASE
 10
0.0
 20
0.0
 30
0.0
  9
$EXTMIN
 10
-0.0256073828611534
 20
-0.0181080778797878
 30
-0.000000000000013
  9
$EXTMAX
 10
840.0256484569924
 20
594.0181371231587
 30
0.0000000000000023
  9
$LIMMIN
 10
0.0
 20
0.0
  9
$LIMMAX
 10
840.0
 20
594.0
  9
$ORTHOMODE
 70
     0
  9
$REGENMODE
 70
     1
  9
$FILLMODE
 70
     1
  9
$QTEXTMODE
 70
     0
  9
$MIRRTEXT
 70
     1
  9
$LTSCALE
 40
20.0
  9
$ATTMODE
 70
     1
  9
$TEXTSIZE
 40
3.5
  9
$TRACEWID
 40
1.0
  9
$TEXTSTYLE
  7
STANDARD
  9
$CLAYER
  8
BEM
  9
$CELTYPE
  6
ByLayer
  9
$CECOLOR
 62
   256
  9
$CELTSCALE
 40
1.0
  9
$DISPSILH
 70
     0
  9
$DIMSCALE
 40
2.0
  9
$DIMASZ
 40
3.5
  9
$DIMEXO
 40
1.0
  9
$DIMDLI
 40
7.0
  9
$DIMRND
 40
0.0
  9
$DIMDLE
 40
0.0
  9
$DIMEXE
 40
1.0
  9
$DIMTP
 40
2.799999999999999
  9
$DIMTM
 40
2.799999999999999
  9
$DIMTXT
 40
3.5
  9
$DIMCEN
 40
1.5
  9
$DIMTSZ
 40
0.0
  9
$DIMTOL
 70
     0
  9
$DIMLIM
 70
     0
  9
$DIMTIH
 70
     0
  9
$DIMTOH
 70
     0
  9
$DIMSE1
 70
     0
  9
$DIMSE2
 70
     0
  9
$DIMTAD
 70
     1
  9
$DIMZIN
 70
     8
  9
$DIMBLK
  1

  9
$DIMASO
 70
     1
  9
$DIMSHO
 70
     0
  9
$DIMPOST
  1

  9
$DIMAPOST
  1

  9
$DIMALT
 70
     0
  9
$DIMALTD
 70
     2
  9
$DIMALTF
 40
25.4
  9
$DIMLFAC
 40
1.0
  9
$DIMTOFL
 70
     1
  9
$DIMTVP
 40
0.0
  9
$DIMTIX
 70
     0
  9
$DIMSOXD
 70
     0
  9
$DIMSAH
 70
     0
  9
$DIMBLK1
  1

  9
$DIMBLK2
  1

  9
$DIMSTYLE
  2
Standard
  9
$DIMCLRD
 70
     0
  9
$DIMCLRE
 70
     0
  9
$DIMCLRT
 70
     1
  9
$DIMTFAC
 40
0.5
  9
$DIMGAP
 40
1.5
  9
$DIMJUST
 70
     0
  9
$DIMSD1
 70
     0
  9
$DIMSD2
 70
     0
  9
$DIMTOLJ
 70
     1
  9
$DIMTZIN
 70
     8
  9
$DIMALTZ
 70
     8
  9
$DIMALTTZ
 70
     8
  9
$DIMUPT
 70
     0
  9
$DIMDEC
 70
     2
  9
$DIMTDEC
 70
     2
  9
$DIMALTU
 70
     2
  9
$DIMALTTD
 70
     2
  9
$DIMTXSTY
  7
STANDARD
  9
$DIMAUNIT
 70
     0
  9
$DIMADEC
 70
     2
  9
$DIMALTRND
 40
0.0
  9
$DIMAZIN
 70
     2
  9
$DIMDSEP
 70
    46
  9
$DIMATFIT
 70
     3
  9
$DIMFRAC
 70
     0
  9
$DIMLDRBLK
  1

  9
$DIMLUNIT
 70
     2
  9
$DIMLWD
 70
    -2
  9
$DIMLWE
 70
    -2
  9
$DIMTMOVE
 70
     0
  9
$LUNITS
 70
     2
  9
$LUPREC
 70
     2
  9
$SKETCHINC
 40
1.0
  9
$FILLETRAD
 40
0.0
  9
$AUNITS
 70
     0
  9
$AUPREC
 70
     0
  9
$MENU
  1
ACAD
  9
$ELEVATION
 40
0.0
  9
$PELEVATION
 40
0.0
  9
$THICKNESS
 40
0.0
  9
$LIMCHECK
 70
     0
  9
$CHAMFERA
 40
0.0
  9
$CHAMFERB
 40
0.0
  9
$CHAMFERC
 40
0.0
  9
$CHAMFERD
 40
0.0
  9
$SKPOLY
 70
     0
  9
$TDCREATE
 40
2451470.395905903
  9
$TDUCREATE
 40
2451470.312572570
  9
$TDUPDATE
 40
2455460.445737049
  9
$TDUUPDATE
 40
2455460.362403716
  9
$TDINDWG
 40
0.1620727894
  9
$TDUSRTIMER
 40
0.1620727894
  9
$USRTIMER
 70
     1
  9
$ANGBASE
 50
0.0
  9
$ANGDIR
 70
     0
  9
$PDMODE
 70
     0
  9
$PDSIZE
 40
0.0
  9
$PLINEWID
 40
0.0
  9
$SPLFRAME
 70
     0
  9
$SPLINETYPE
 70
     6
  9
$SPLINESEGS
 70
     8
  9
$HANDSEED
  5
1F1E
  9
$SURFTAB1
 70
     6
  9
$SURFTAB2
 70
     6
  9
$SURFTYPE
 70
     6
  9
$SURFU
 70
     6
  9
$SURFV
 70
     6
  9
$UCSBASE
  2

  9
$UCSNAME
  2

  9
$UCSORG
 10
0.0
 20
0.0
 30
0.0
  9
$UCSXDIR
 10
1.0
 20
0.0
 30
0.0
  9
$UCSYDIR
 10
0.0
 20
1.0
 30
0.0
  9
$UCSORTHOREF
  2

  9
$UCSORTHOVIEW
 70
     0
  9
$UCSORGTOP
 10
0.0
 20
0.0
 30
0.0
  9
$UCSORGBOTTOM
 10
0.0
 20
0.0
 30
0.0
  9
$UCSORGLEFT
 10
0.0
 20
0.0
 30
0.0
  9
$UCSORGRIGHT
 10
0.0
 20
0.0
 30
0.0
  9
$UCSORGFRONT
 10
0.0
 20
0.0
 30
0.0
  9
$UCSORGBACK
 10
0.0
 20
0.0
 30
0.0
  9
$PUCSBASE
  2

  9
$PUCSNAME
  2

  9
$PUCSORG
 10
0.0
 20
0.0
 30
0.0
  9
$PUCSXDIR
 10
1.0
 20
0.0
 30
0.0
  9
$PUCSYDIR
 10
0.0
 20
1.0
 30
0.0
  9
$PUCSORTHOREF
  2

  9
$PUCSORTHOVIEW
 70
     0
  9
$PUCSORGTOP
 10
0.0
 20
0.0
 30
0.0
  9
$PUCSORGBOTTOM
 10
0.0
 20
0.0
 30
0.0
  9
$PUCSORGLEFT
 10
0.0
 20
0.0
 30
0.0
  9
$PUCSORGRIGHT
 10
0.0
 20
0.0
 30
0.0
  9
$PUCSORGFRONT
 10
0.0
 20
0.0
 30
0.0
  9
$PUCSORGBACK
 10
0.0
 20
0.0
 30
0.0
  9
$USERI1
 70
     0
  9
$USERI2
 70
     0
  9
$USERI3
 70
     0
  9
$USERI4
 70
     0
  9
$USERI5
 70
     0
  9
$USERR1
 40
0.0
  9
$USERR2
 40
0.0
  9
$USERR3
 40
0.0
  9
$USERR4
 40
0.0
  9
$USERR5
 40
0.0
  9
$WORLDVIEW
 70
     1
  9
$SHADEDGE
 70
     3
  9
$SHADEDIF
 70
    70
  9
$TILEMODE
 70
     1
  9
$MAXACTVP
 70
    16
  9
$PINSBASE
 10
0.0
 20
0.0
 30
0.0
  9
$PLIMCHECK
 70
     0
  9
$PEXTMIN
 10
1.000000000000000E+20
 20
1.000000000000000E+20
 30
1.000000000000000E+20
  9
$PEXTMAX
 10
-1.000000000000000E+20
 20
-1.000000000000000E+20
 30
-1.000000000000000E+20
  9
$PLIMMIN
 10
0.0
 20
0.0
  9
$PLIMMAX
 10
12.0
 20
9.0
  9
$UNITMODE
 70
     0
  9
$VISRETAIN
 70
     0
  9
$PLINEGEN
 70
     0
  9
$PSLTSCALE
 70
     0
  9
$TREEDEPTH
 70
  3020
  9
$CMLSTYLE
  2
Standard
  9
$CMLJUST
 70
     0
  9
$CMLSCALE
 40
1.0
  9
$PROXYGRAPHICS
 70
     1
  9
$MEASUREMENT
 70
     0
  9
$CELWEIGHT
370
    -1
  9
$ENDCAPS
280
     0
  9
$JOINSTYLE
280
     0
  9
$LWDISPLAY
290
     0
  9
$INSUNITS
 70
     0
  9
$HYPERLINKBASE
  1

  9
$STYLESHEET
  1
monochrome 1.ctb
  9
$XEDIT
290
     1
  9
$CEPSNTYPE
380
     0
  9
$PSTYLEMODE
290
     1
  9
$FINGERPRINTGUID
  2
{CF1E820E-3DA8-4462-A35C-750FD741BFCE}
  9
$VERSIONGUID
  2
{3AA2851D-F138-4F1E-9E92-2A07F4BDE88E}
  9
$EXTNAMES
290
     1
  9
$PSVPSCALE
 40
0.0
  9
$OLESTARTUP
290
     0
  9
$SORTENTS
280
   127
  9
$INDEXCTL
280
     1
  9
$HIDETEXT
280
     1
  9
$XCLIPFRAME
290
     0
  9
$HALOGAP
280
     0
  9
$OBSCOLOR
 70
   257
  9
$OBSLTYPE
280
     0
  9
$INTERSECTIONDISPLAY
280
     0
  9
$INTERSECTIONCOLOR
 70
   257
  9
$DIMASSOC
280
     2
  9
$PROJECTNAME
  1

  0
ENDSEC
  0
SECTION
  2
CLASSES
  0
CLASS
  1
ACDBDICTIONARYWDFLT
  2
AcDbDictionaryWithDefault
  3
ObjectDBX Classes
 90
        0
 91
        1
280
     0
281
     0
  0
CLASS
  1
ACME_DOCUMENT
  2
AcMeDbDoc
  3
AcMeServices
 90
        0
 91
        0
280
     0
281
     0
  0
CLASS
  1
AMGSETTINGSOBJ
  2
AmgSettingsObj
  3
"AcadM|Product Description: AutoCAD Mechanical 2000|Company: Autodesk"
 90
        0
 91
        0
280
     0
281
     0
  0
CLASS
  1
ACMESCOPE
  2
AcMeScope
  3
AcMeServices
 90
        0
 91
        0
280
     0
281
     0
  0
CLASS
  1
ACMECOMMANDHISTORY
  2
AcMeCommandHistory
  3
AcMeServices
 90
        0
 91
        0
280
     0
281
     0
  0
CLASS
  1
ACIMSYSVARMAN
  2
AcImSysVarManager
  3
AcMeServices
 90
        0
 91
        0
280
     0
281
     0
  0
CLASS
  1
ACIMINTSYSVAR
  2
AcImIntSysVar
  3
AcMeServices
 90
        0
 91
        0
280
     0
281
     0
  0
CLASS
  1
ACMEDRAWINGMAN
  2
AcMeDrawingMan
  3
AcMeServices
 90
        0
 91
        0
280
     0
281
     0
  0
CLASS
  1
ACMEVIEW
  2
AcMeView
  3
AcMeServices
 90
        0
 91
        0
280
     0
281
     0
  0
CLASS
  1
ACDBENTITYCACHE
  2
AcMeEntityCache
  3
AcMeServices
 90
        0
 91
        0
280
     0
281
     0
  0
CLASS
  1
GSMANAGER
  2
AcMeGSManager
  3
AcMeServices
 90
        0
 91
        0
280
     0
281
     0
  0
CLASS
  1
AMDTINTERNALREACTOR
  2
AmdtInternalReactor
  3
AcMeServices
 90
        0
 91
        0
280
     0
281
     0
  0
CLASS
  1
ACMESTATEMGR
  2
AcMeStateMgr
  3
AcMeServices
 90
        0
 91
        0
280
     0
281
     0
  0
CLASS
  1
ACGREFMASTER
  2
AcGrefMaster
  3
AcAttribServices
 90
        0
 91
        0
280
     0
281
     0
  0
CLASS
  1
AM_DRAWING_MGR
  2
AcDmDwgMgr
  3
AcMechDwgViewMgmt
 90
        0
 91
        0
280
     0
281
     0
  0
CLASS
  1
AM_DWG_DOCUMENT
  2
AcDmDwgDocument
  3
AcMechDwgViewMgmt
 90
        0
 91
        0
280
     0
281
     0
  0
CLASS
  1
AM_DWG_SHEET
  2
AcDmSheet
  3
AcMechDwgViewMgmt
 90
        0
 91
        0
280
     0
281
     0
  0
CLASS
  1
AM_VIEWDIMPARMAP
  2
AcDmViewDimParMap
  3
AcMechDwgViewMgmt
 90
        0
 91
        0
280
     0
281
     0
  0
CLASS
  1
ACIMREALSYSVAR
  2
AcImRealSysVar
  3
AcMeServices
 90
        0
 91
        0
280
     0
281
     0
  0
CLASS
  1
AM_DWGMGR_NAME
  2
AcDmDwgMgrName
  3
AcMechDwgViewMgmt
 90
        0
 91
        0
280
     0
281
     0
  0
CLASS
  1
ACME_DATABASE
  2
AcMeDbDatabase
  3
AcMeServices
 90
        0
 91
        0
280
     0
281
     0
  0
CLASS
  1
ACRFINSADJUSTERMGR
  2
AcRfInsAdjusterMgr
  3
AcMeServices
 90
        0
 91
        0
280
     0
281
     0
  0
CLASS
  1
ACGREFACADMASTER
  2
AcGrefacadMaster
  3
AcGrefServices
 90
        0
 91
        0
280
     0
281
     0
  0
CLASS
  1
AMDTMENUSTATEMGR
  2
AmdtMenuStateMgr
  3
McadcomServices
 90
        0
 91
        0
280
     0
281
     0
  0
CLASS
  1
AMDTMCOMMENUSTATE
  2
AmdtMcomMenuState
  3
McadcomServices
 90
        0
 91
        0
280
     0
281
     0
  0
CLASS
  1
AMIMASTER
  2
AmiMaster
  3
AmiServices
 90
        0
 91
        0
280
     0
281
     0
  0
CLASS
  1
MAPIAMMOUDLE
  2
MApiAmModule
  3
MApiAmServices
 90
        0
 91
        0
280
     0
281
     0
  0
CLASS
  1
AMDTADMENUSTATE
  2
AmdtAdMenuState
  3
DesignerServices
 90
        0
 91
        0
280
     0
281
     0
  0
CLASS
  1
ADAPPL
  2
AcAdAppl
  3
DesignerServices
 90
        0
 91
        0
280
     0
281
     0
  0
CLASS
  1
DEPMGR
  2
AcAdDepMgr
  3
DesignerServices
 90
        0
 91
        0
280
     0
281
     0
  0
CLASS
  1
PARAMMGR
  2
AcAdParamMgr
  3
DesignerServices
 90
        0
 91
        0
280
     0
281
     0
  0
CLASS
  1
PARAMSCOPE
  2
AcAdParamScope
  3
DesignerServices
 90
        0
 91
        0
280
     0
281
     0
  0
CLASS
  1
NAMEDAPPL
  2
AcAdNamedAppl
  3
DesignerServices
 90
        0
 91
        0
280
     0
281
     0
  0
CLASS
  1
AMDTDMMENUSTATE
  2
AmdtDmMenuState
  3
AcMechDwgViewMgmt
 90
        0
 91
        0
280
     0
281
     0
  0
CLASS
  1
AMDTAMMENUSTATE
  2
AmdtAmMenuState
  3
DesignerAssemblies
 90
        0
 91
        0
280
     0
281
     0
  0
CLASS
  1
ACIMSTRSYSVAR
  2
AcImStrSysVar
  3
AcMeServices
 90
        0
 91
        0
280
     0
281
     0
  0
CLASS
  1
ACAMPROJECT
  2
AcAmProject
  3
DesignerAssemblies
 90
        0
 91
        0
280
     0
281
     0
  0
CLASS
  1
ACAMGRCOMPDEF
  2
AcAmGrCompDef
  3
DesignerAssemblies
 90
        0
 91
        0
280
     0
281
     0
  0
CLASS
  1
ACCMCONTEXT
  2
AcCmContext
  3
DesignerAssemblies
 90
        0
 91
        0
280
     0
281
     0
  0
CLASS
  1
ACAMCOMPDEF
  2
AcAmCompDef
  3
DesignerAssemblies
 90
        0
 91
        0
280
     0
281
     0
  0
CLASS
  1
ACAMCOMPDEFMGR
  2
AcAmCompDefMgr
  3
DesignerAssemblies
 90
        0
 91
        0
280
     0
281
     0
  0
CLASS
  1
AMCONTEXTMGR
  2
AcAmContextMgr
  3
DesignerAssemblies
 90
        0
 91
        0
280
     0
281
     0
  0
CLASS
  1
ACAMCONTEXTMODELER
  2
AcAmContextModeler
  3
DesignerAssemblies
 90
        0
 91
        0
280
     0
281
     0
  0
CLASS
  1
ACMDATADICTIONARY
  2
AcmDataDictionary
  3
"AcmSymBB|Product Description: AutoCAD Mechanical 2004 DX|Company: Autodesk"
 90
        0
 91
        0
280
     0
281
     0
  0
CLASS
  1
CATALOGSTATE
  2
AcAmCatalogState
  3
DesignerAssemblies
 90
        0
 91
        0
280
     0
281
     0
  0
CLASS
  1
ACAMGRCOMPDEFSET
  2
AcAmGrCompDefSet
  3
DesignerAssemblies
 90
        0
 91
        0
280
     0
281
     0
  0
CLASS
  1
AMDTBROWSERDBTAB
  2
AmdtBrowserDbTab
  3
McadcomServices
 90
        0
 91
        0
280
     0
281
     0
  0
CLASS
  1
CBROWSERAPPOBJECT
  2
CBrowserAppObject
  3
McadcomServices
 90
        0
 91
        0
280
     0
281
     0
  0
CLASS
  1
DM_PLACEHOLDER
  2
AcDmSelsetPlaceholder
  3
AcMechDwgViewMgmt
 90
        0
 91
        0
280
     0
281
     0
  0
CLASS
  1
ACMSTANDARDANSI
  2
AcmStandardANSI
  3
"Amdt_StdImp|Product Description: AutoCAD Mechanical 2004 DX|Company: Autodesk"
 90
        0
 91
        0
280
     0
281
     0
  0
CLASS
  1
AMGOBJPROPCFG
  2
AmgObjPropCfg
  3
"AmgLay|Product Description: AutoCAD Mechanical 2000|Company: Autodesk"
 90
        1
 91
        0
280
     0
281
     0
  0
CLASS
  1
ACMSURFSTANDARDANSI
  2
AcmSurfTextStdANSI
  3
"Amdt_StdImp|Product Description: AutoCAD Mechanical 2004 DX|Company: Autodesk"
 90
        0
 91
        0
280
     0
281
     0
  0
CLASS
  1
ACMFCFSTANDARDANSI
  2
AcmFCFStdANSI
  3
"Amdt_StdImp|Product Description: AutoCAD Mechanical 2004 DX|Company: Autodesk"
 90
        0
 91
        0
280
     0
281
     0
  0
CLASS
  1
ACMWELDSTANDARDANSI
  2
AcmWeldingStdANSI
  3
"Amdt_StdImp|Product Description: AutoCAD Mechanical 2004 DX|Company: Autodesk"
 90
        0
 91
        0
280
     0
281
     0
  0
CLASS
  1
ACMIDSTANDARDANSI
  2
AcmIdStdANSI
  3
"Amdt_StdImp|Product Description: AutoCAD Mechanical 2004 DX|Company: Autodesk"
 90
        0
 91
        0
280
     0
281
     0
  0
CLASS
  1
ACMDATUMSTANDARDANSI
  2
AcmDatumStdANSI
  3
"Amdt_StdImp|Product Description: AutoCAD Mechanical 2004 DX|Company: Autodesk"
 90
        0
 91
        0
280
     0
281
     0
  0
CLASS
  1
ACMBOMSTANDARDANSI
  2
AcmBOMStdANSI
  3
"Amdt_StdImp|Product Description: AutoCAD Mechanical 2004 DX|Company: Autodesk"
 90
        0
 91
        0
280
     0
281
     0
  0
CLASS
  1
ACMDETAILSTANDARDANSI
  2
AmdtDetailSymStdANSI
  3
"Amdt_StdImp|Product Description: AutoCAD Mechanical 2004 DX|Company: Autodesk"
 90
        0
 91
        0
280
     0
281
     0
  0
CLASS
  1
ACMSECTIONSTANDARDANSI
  2
AmdtSectionSymStdANSI
  3
"Amdt_StdImp|Product Description: AutoCAD Mechanical 2004 DX|Company: Autodesk"
 90
        0
 91
        0
280
     0
281
     0
  0
CLASS
  1
ACMCENTERLINESTANDARDANSI
  2
AmdtCenterLineStdANSI
  3
"Amdt_StdImp|Product Description: AutoCAD Mechanical 2004 DX|Company: Autodesk"
 90
        0
 91
        0
280
     0
281
     0
  0
CLASS
  1
ACMTHREADLINESTANDARDANSI
  2
AmdtThreadLineStdANSI
  3
"Amdt_StdImp|Product Description: AutoCAD Mechanical 2004 DX|Company: Autodesk"
 90
        0
 91
        0
280
     0
281
     0
  0
CLASS
  1
ACMNOTESTANDARDANSI
  2
AmdtNoteStdANSI
  3
"Amdt_StdImp|Product Description: AutoCAD Mechanical 2004 DX|Company: Autodesk"
 90
        0
 91
        0
280
     0
281
     0
  0
CLASS
  1
AMDTNOTETEMPLATEDB
  2
AmdtNoteTemplateDB
  3
AMDT_STDIMP_MODULE_NAME
 90
        0
 91
        0
280
     0
281
     0
  0
CLASS
  1
ACAMGLAYSTD
  2
AcAmgLayStd
  3
"AcAmgLayStd|Product Description: AutoCAD Mechanical 2000|Company: Autodesk"
 90
        0
 91
        0
280
     0
281
     0
  0
CLASS
  1
ACAMGDIMSTD
  2
AcAmgDimStd
  3
"AcAmgDimStd|Product Description: AutoCAD Mechanical 2000|Company: Autodesk"
 90
        0
 91
        0
280
     0
281
     0
  0
CLASS
  1
ACAMGHOLECHARTSTDANSI
  2
AcAmgHoleChartStdANSI
  3
ACMSYMBB_MODULE_NAME
 90
        0
 91
        0
280
     0
281
     0
  0
CLASS
  1
ACAMGTITLESTD
  2
AcAmgTitleStd
  3
"TITLEAPP"
 90
        0
 91
        0
280
     0
281
     0
  0
CLASS
  1
ACAMGFILTERDAT
  2
AcAmgFilterDat
  3
"AcadM|Product Description: AutoCAD Mechanical 2000|Company: Autodesk"
 90
        0
 91
        0
280
     0
281
     0
  0
CLASS
  1
LAYER_INDEX
  2
AcDbLayerIndex
  3
ObjectDBX Classes
 90
        0
 91
        1
280
     0
281
     0
  0
CLASS
  1
IDBUFFER
  2
AcDbIdBuffer
  3
ObjectDBX Classes
 90
        0
 91
        9
280
     0
281
     0
  0
CLASS
  1
DICTIONARYVAR
  2
AcDbDictionaryVar
  3
ObjectDBX Classes
 90
        0
 91
        4
280
     0
281
     0
  0
CLASS
  1
DIMASSOC
  2
AcDbDimAssoc
  3
"AcDbDimAssoc|Product Desc:     AcDim ARX App For Dimension|Company:          Autodesk, Inc.|WEB Address:      www.autodesk.com"
 90
        0
 91
        4
280
     0
281
     0
  0
CLASS
  1
ACRFATTGENMGR
  2
AcRfAttGeneralMgr
  3
AcAttribServices
 90
        0
 91
        0
280
     0
281
     0
  0
ENDSEC
  0
SECTION
  2
TABLES
  0
TABLE
  2
VPORT
  5
8
330
0
100
AcDbSymbolTable
 70
     2
  0
VPORT
  5
1F1D
330
8
100
AcDbSymbolTableRecord
100
AcDbViewportTableRecord
  2
*Active
 70
     0
 10
0.0
 20
0.0
 11
1.0
 21
1.0
 12
420.0000205370655
 22
297.0000145226395
 13
0.0
 23
0.0
 14
1.0
 24
1.0
 15
10.0
 25
10.0
 16
0.0
 26
0.0
 36
1.0
 17
0.0
 27
0.0
 37
0.0
 40
632.1401476384612
 41
1.336927223719676
 42
50.0
 43
0.0
 44
0.0
 50
0.0
 51
0.0
 71
     0
 72
  1500
 73
     1
 74
     0
 75
     0
 76
     0
 77
     0
 78
     0
281
     0
 65
     1
110
0.0
120
0.0
130
0.0
111
1.0
121
0.0
131
0.0
112
0.0
122
1.0
132
0.0
 79
     0
146
0.0
  0
ENDTAB
  0
TABLE
  2
LTYPE
  5
5
330
0
100
AcDbSymbolTable
 70
     3
  0
LTYPE
  5
13
330
5
100
AcDbSymbolTableRecord
100
AcDbLinetypeTableRecord
  2
ByBlock
 70
     0
  3

 72
    65
 73
     0
 40
0.0
  0
LTYPE
  5
14
330
5
100
AcDbSymbolTableRecord
100
AcDbLinetypeTableRecord
  2
ByLayer
 70
     0
  3

 72
    65
 73
     0
 40
0.0
  0
LTYPE
  5
15
330
5
100
AcDbSymbolTableRecord
100
AcDbLinetypeTableRecord
  2
Continuous
 70
     0
  3
Solid line
 72
    65
 73
     0
 40
0.0
  0
LTYPE
  5
46
330
5
100
AcDbSymbolTableRecord
100
AcDbLinetypeTableRecord
  2
STRICHPUNKT
 70
     0
  3
__ . __ . __ . __ . __ . __ . __ . __ . __ . __
 72
    65
 73
     4
 40
1.0
 49
0.5
 74
     0
 49
-0.25
 74
     0
 49
0.0
 74
     0
 49
-0.25
 74
     0
  0
LTYPE
  5
51
330
5
100
AcDbSymbolTableRecord
100
AcDbLinetypeTableRecord
  2
AUSGEZOGEN
 70
     0
  3
Ausgezogene Linie
 72
    65
 73
     0
 40
0.0
  0
ENDTAB
  0
TABLE
  2
LAYER
  5
2
330
0
100
AcDbSymbolTable
 70
     9
  0
LAYER
  5
10
330
2
100
AcDbSymbolTableRecord
100
AcDbLayerTableRecord
  2
0
 70
     0
 62
     7
  6
Continuous
370
    -3
390
F
  0
LAYER
  5
49
330
2
100
AcDbSymbolTableRecord
100
AcDbLayerTableRecord
  2
VOLL
 70
     0
 62
     1
  6
AUSGEZOGEN
370
    -3
390
F
  0
LAYER
  5
4A
330
2
100
AcDbSymbolTableRecord
100
AcDbLayerTableRecord
  2
HILF
 70
     0
 62
     2
  6
Continuous
370
    -3
390
F
  0
LAYER
  5
4B
330
2
100
AcDbSymbolTableRecord
100
AcDbLayerTableRecord
  2
MITTEL
 70
     0
 62
     2
  6
STRICHPUNKT
370
    -3
390
F
  0
LAYER
  5
4C
330
2
100
AcDbSymbolTableRecord
100
AcDbLayerTableRecord
  2
BEM
 70
     0
 62
     7
  6
Continuous
370
    -3
390
F
  0
LAYER
  5
4D
330
2
100
AcDbSymbolTableRecord
100
AcDbLayerTableRecord
  2
DEFPOINTS
 70
     0
 62
     7
  6
Continuous
290
     0
370
    -3
390
F
  0
LAYER
  5
4E
330
2
100
AcDbSymbolTableRecord
100
AcDbLayerTableRecord
  2
STEMPEL
 70
     0
 62
     3
  6
Continuous
370
    -3
390
F
  0
LAYER
  5
4F
330
2
100
AcDbSymbolTableRecord
100
AcDbLayerTableRecord
  2
SCHRAFF
 70
     0
 62
     7
  6
Continuous
370
    -3
390
F
  0
LAYER
  5
50
330
2
100
AcDbSymbolTableRecord
100
AcDbLayerTableRecord
  2
TEXT
 70
     0
 62
     7
  6
Continuous
370
    -3
390
F
  0
ENDTAB
  0
TABLE
  2
STYLE
  5
3
330
0
100
AcDbSymbolTable
 70
     2
  0
STYLE
  5
11
330
3
100
AcDbSymbolTableRecord
100
AcDbTextStyleTableRecord
  2
STANDARD
 70
     0
 40
0.0
 41
0.8
 50
0.0
 71
     0
 42
3.5
  3
simplex.shx
  4

  0
STYLE
  5
45
330
3
100
AcDbSymbolTableRecord
100
AcDbTextStyleTableRecord
  2
GREEKS
 70
     0
 40
0.0
 41
0.8
 50
0.0
 71
     0
 42
7.0
  3
SIMPLEX.shx
  4

  0
ENDTAB
  0
TABLE
  2
VIEW
  5
6
330
0
100
AcDbSymbolTable
 70
     0
  0
ENDTAB
  0
TABLE
  2
UCS
  5
7
330
0
100
AcDbSymbolTable
 70
     0
  0
ENDTAB
  0
TABLE
  2
APPID
  5
9
330
0
100
AcDbSymbolTable
 70
     8
  0
APPID
  5
12
330
9
100
AcDbSymbolTableRecord
100
AcDbRegAppTableRecord
  2
ACAD
 70
     0
  0
APPID
  5
4D9
330
9
100
AcDbSymbolTableRecord
100
AcDbRegAppTableRecord
  2
MCAD_NO_VIS
 70
     0
  0
APPID
  5
4DA
330
9
100
AcDbSymbolTableRecord
100
AcDbRegAppTableRecord
  2
ACAD_TEMP_GRAPHIC
 70
     0
  0
APPID
  5
50A
330
9
100
AcDbSymbolTableRecord
100
AcDbRegAppTableRecord
  2
AD_DRAW
 70
     0
  0
APPID
  5
50D
330
9
100
AcDbSymbolTableRecord
100
AcDbRegAppTableRecord
  2
ACATTRIBSERVICES
 70
     0
  0
APPID
  5
52B
330
9
100
AcDbSymbolTableRecord
100
AcDbRegAppTableRecord
  2
DESIGNERASSEMBLIES
 70
     0
  0
APPID
  5
531
330
9
100
AcDbSymbolTableRecord
100
AcDbRegAppTableRecord
  2
ACADM_DIM_EDIT
 70
     0
  0
APPID
  5
532
330
9
100
AcDbSymbolTableRecord
100
AcDbRegAppTableRecord
  2
AMDT_DM_ADJ
 70
     0
  0
ENDTAB
  0
TABLE
  2
DIMSTYLE
  5
A
330
0
100
AcDbSymbolTable
 70
     1
100
AcDbDimStyleTable
 71
     1
340
4D1
  0
DIMSTYLE
105
4D1
102
{ACAD_REACTORS
330
B8F
330
B8E
330
BB6
330
D87
330
DFD
330
F0F
330
C42
330
1DFB
330
1E1A
102
}
330
A
100
AcDbSymbolTableRecord
100
AcDbDimStyleTableRecord
  2
Standard
 70
     0
340
11
  0
ENDTAB
  0
TABLE
  2
BLOCK_RECORD
  5
1
330
0
100
AcDbSymbolTable
 70
    10
  0
BLOCK_RECORD
  5
20
102
{ACAD_XDICTIONARY
360
6A3
102
}
330
1
100
AcDbSymbolTableRecord
100
AcDbBlockTableRecord
  2
*Model_Space
340
23
  0
BLOCK_RECORD
  5
1C
330
1
100
AcDbSymbolTableRecord
100
AcDbBlockTableRecord
  2
*Paper_Space
340
1F
  0
BLOCK_RECORD
  5
24
330
1
100
AcDbSymbolTableRecord
100
AcDbBlockTableRecord
  2
LOGO
340
0
102
{BLKREFS
331
4B6
102
}
  0
BLOCK_RECORD
  5
C50
330
1
100
AcDbSymbolTableRecord
100
AcDbBlockTableRecord
  2
*D1
340
0
  0
BLOCK_RECORD
  5
C5D
330
1
100
AcDbSymbolTableRecord
100
AcDbBlockTableRecord
  2
*D2
340
0
  0
BLOCK_RECORD
  5
C6A
330
1
100
AcDbSymbolTableRecord
100
AcDbBlockTableRecord
  2
*D3
340
0
  0
BLOCK_RECORD
  5
CB4
330
1
100
AcDbSymbolTableRecord
100
AcDbBlockTableRecord
  2
*D4
340
0
  0
BLOCK_RECORD
  5
D88
330
1
100
AcDbSymbolTableRecord
100
AcDbBlockTableRecord
  2
*D5
340
0
  0
BLOCK_RECORD
  5
DFE
330
1
100
AcDbSymbolTableRecord
100
AcDbBlockTableRecord
  2
*D6
340
0
  0
BLOCK_RECORD
  5
F10
330
1
100
AcDbSymbolTableRecord
100
AcDbBlockTableRecord
  2
*D7
340
0
  0
BLOCK_RECORD
  5
1DFC
330
1
100
AcDbSymbolTableRecord
100
AcDbBlockTableRecord
  2
*D8
340
0
  0
BLOCK_RECORD
  5
1E1B
330
1
100
AcDbSymbolTableRecord
100
AcDbBlockTableRecord
  2
*D9
340
0
  0
ENDTAB
  0
ENDSEC
  0
SECTION
  2
BLOCKS
  0
BLOCK
  5
54
330
20
100
AcDbEntity
  8
0
100
AcDbBlockBegin
  2
*Model_Space
 70
     0
 10
0.0
 20
0.0
 30
0.0
  3
*Model_Space
  1

  0
ENDBLK
  5
55
330
20
100
AcDbEntity
  8
0
100
AcDbBlockEnd
  0
BLOCK
  5
52
330
1C
100
AcDbEntity
 67
     1
  8
0
100
AcDbBlockBegin
  2
*Paper_Space
 70
     0
 10
0.0
 20
0.0
 30
0.0
  3
*Paper_Space
  1

  0
ENDBLK
  5
53
330
1C
100
AcDbEntity
 67
     1
  8
0
100
AcDbBlockEnd
  0
BLOCK
  5
56
330
24
100
AcDbEntity
  8
0
100
AcDbBlockBegin
  2
LOGO
 70
     0
 10
0.0
 20
0.0
 30
0.0
  3
LOGO
  1

  0
ARC
  5
57
330
24
100
AcDbEntity
  8
0
100
AcDbCircle
 10
11.59973089678112
 20
-9.271599258481501
 30
0.0
 40
4.5
100
AcDbArc
 50
270.0
 51
231.0575587310159
  0
LINE
  5
58
330
24
100
AcDbEntity
  8
0
100
AcDbLine
 10
3.599730896781125
 20
-4.771599258481529
 30
0.0
 11
3.599730896781153
 21
-11.77159925848133
 31
0.0
  0
LINE
  5
59
330
24
100
AcDbEntity
  8
0
100
AcDbLine
 10
2.599730896781125
 20
-4.771599258481529
 30
0.0
 11
2.599730896781153
 21
-11.77159925848133
 31
0.0
  0
CIRCLE
  5
5A
330
24
100
AcDbEntity
  8
0
100
AcDbCircle
 10
11.59973089678112
 20
-9.271599258481501
 30
0.0
 40
3.5
  0
ARC
  5
5B
330
24
100
AcDbEntity
  8
0
100
AcDbCircle
 10
31.59973089678115
 20
-9.271599258481472
 30
0.0
 40
4.5
100
AcDbArc
 50
270.0
 51
231.0575587310182
  0
LINE
  5
5C
330
24
100
AcDbEntity
  8
0
100
AcDbLine
 10
17.59973089678112
 20
-4.771599258481472
 30
0.0
 11
17.59973089678115
 21
-13.77159925848147
 31
0.0
  0
ARC
  5
5D
330
24
100
AcDbEntity
  8
0
100
AcDbCircle
 10
22.59973089678116
 20
-7.271599258481472
 30
0.0
 40
2.5
100
AcDbArc
 50
293.1161887722295
 51
90.0
  0
CIRCLE
  5
5E
330
24
100
AcDbEntity
  8
0
100
AcDbCircle
 10
31.59973089678115
 20
-9.271599258481472
 30
0.0
 40
3.5
  0
ARC
  5
5F
330
24
100
AcDbEntity
  8
0
100
AcDbCircle
 10
4.599730896781153
 20
-11.77159925848133
 30
0.0
 40
1.0
100
AcDbArc
 50
180.0
 51
270.0
  0
ARC
  5
60
330
24
100
AcDbEntity
  8
0
100
AcDbCircle
 10
4.599730896781153
 20
-11.77159925848133
 30
0.0
 40
2.0
100
AcDbArc
 50
179.9999999999992
 51
270.0
  0
LINE
  5
61
330
24
100
AcDbEntity
  8
0
100
AcDbLine
 10
11.59973089678115
 20
-13.77159925848144
 30
0.0
 11
4.599730896781153
 21
-13.77159925848147
 31
0.0
  0
LINE
  5
62
330
24
100
AcDbEntity
  8
0
100
AcDbLine
 10
8.771303772034769
 20
-12.77159925848136
 30
0.0
 11
4.599730896781153
 21
-12.77159925848133
 31
0.0
  0
LINE
  5
63
330
24
100
AcDbEntity
  8
0
100
AcDbLine
 10
31.59973089678115
 20
-13.77159925848147
 30
0.0
 11
23.6715276665056
 21
-13.77159925848144
 31
0.0
  0
LINE
  5
64
330
24
100
AcDbEntity
  8
0
100
AcDbLine
 10
23.56565672307022
 20
-9.51278021337896
 30
0.0
 11
24.4388546544846
 21
-12.77159925848144
 31
0.0
  0
LINE
  5
65
330
24
100
AcDbEntity
  8
0
100
AcDbLine
 10
22.59973089678116
 20
-9.771599258481472
 30
0.0
 11
18.59973089678112
 21
-9.771599258481472
 31
0.0
  0
LINE
  5
66
330
24
100
AcDbEntity
  8
0
100
AcDbLine
 10
18.59973089678115
 20
-13.77159925848144
 30
0.0
 11
17.59973089678115
 21
-13.77159925848144
 31
0.0
  0
LINE
  5
67
330
24
100
AcDbEntity
  8
0
100
AcDbLine
 10
18.59973089678115
 20
-9.771599258481472
 30
0.0
 11
18.59973089678115
 21
-13.77159925848144
 31
0.0
  0
LINE
  5
68
330
24
100
AcDbEntity
  8
0
100
AcDbLine
 10
22.59973089678116
 20
-9.771599258481472
 30
0.0
 11
23.67152766650562
 21
-13.77159925848147
 31
0.0
  0
ARC
  5
69
330
24
100
AcDbEntity
  8
0
100
AcDbCircle
 10
22.59973089678116
 20
-7.271599258481472
 30
0.0
 40
2.5
100
AcDbArc
 50
270.0
 51
270.0000000000007
  0
LINE
  5
6A
330
24
100
AcDbEntity
  8
0
100
AcDbLine
 10
28.77130377203494
 20
-12.77159925848147
 30
0.0
 11
24.43885465448463
 21
-12.77159925848144
 31
0.0
  0
LINE
  5
6B
330
24
100
AcDbEntity
  8
0
100
AcDbLine
 10
3.599730896781125
 20
-4.771599258481472
 30
0.0
 11
2.599730896781125
 21
-4.771599258481472
 31
0.0
  0
LINE
  5
6C
330
24
100
AcDbEntity
  8
0
100
AcDbLine
 10
22.59973089678116
 20
-8.771599258481472
 30
0.0
 11
18.59973089678115
 21
-8.771599258481472
 31
0.0
  0
LINE
  5
6D
330
24
100
AcDbEntity
  8
0
100
AcDbLine
 10
22.59973089678116
 20
-5.771599258481472
 30
0.0
 11
18.59973089678115
 21
-5.771599258481472
 31
0.0
  0
LINE
  5
6E
330
24
100
AcDbEntity
  8
0
100
AcDbLine
 10
22.59973089678116
 20
-4.771599258481472
 30
0.0
 11
17.59973089678115
 21
-4.771599258481472
 31
0.0
  0
LINE
  5
6F
330
24
100
AcDbEntity
  8
0
100
AcDbLine
 10
18.59973089678115
 20
-5.771599258481472
 30
0.0
 11
18.59973089678115
 21
-8.771599258481472
 31
0.0
  0
ARC
  5
70
330
24
100
AcDbEntity
  8
0
100
AcDbCircle
 10
22.59973089678116
 20
-7.271599258481472
 30
0.0
 40
1.5
100
AcDbArc
 50
270.0
 51
90.0
  0
ENDBLK
  5
71
330
24
100
AcDbEntity
  8
0
100
AcDbBlockEnd
  0
BLOCK
  5
C5B
330
C50
100
AcDbEntity
  8
0
100
AcDbBlockBegin
  2
*D1
 70
     1
 10
0.0
 20
0.0
 30
0.0
  3
*D1
  1

  0
LINE
  5
1E96
330
C50
100
AcDbEntity
  8
BEM
 62
     0
370
    -2
100
AcDbLine
 10
540.4631419516537
 20
518.2115969181082
 30
0.0
 11
594.1082746005652
 21
518.2115969181082
 31
0.0
  0
LINE
  5
1E97
330
C50
100
AcDbEntity
  8
BEM
 62
     0
370
    -2
100
AcDbLine
 10
536.8311651213066
 20
150.2115969181083
 30
0.0
 11
594.108274600565
 21
150.2115969181083
 31
0.0
  0
LINE
  5
1E98
330
C50
100
AcDbEntity
  8
BEM
 62
     0
370
    -2
100
AcDbLine
 10
592.1082746005652
 20
511.2115969181083
 30
0.0
 11
592.1082746005651
 21
157.2115969181083
 31
0.0
  0
SOLID
  5
1E99
330
C50
100
AcDbEntity
  8
BEM
 62
     0
100
AcDbTrace
 10
590.9416079338986
 20
511.2115969181083
 30
0.0
 11
593.2749412672318
 21
511.2115969181083
 31
0.0
 12
592.1082746005652
 22
518.2115969181082
 32
0.0
 13
592.1082746005652
 23
518.2115969181082
 33
0.0
  0
SOLID
  5
1E9A
330
C50
100
AcDbEntity
  8
BEM
 62
     0
100
AcDbTrace
 10
590.9416079338984
 20
157.2115969181083
 30
0.0
 11
593.2749412672317
 21
157.2115969181083
 31
0.0
 12
592.1082746005651
 22
150.2115969181083
 32
0.0
 13
592.1082746005651
 23
150.2115969181083
 33
0.0
  0
MTEXT
  5
1E9B
330
C50
100
AcDbEntity
  8
BEM
 62
     1
100
AcDbMText
 10
585.608274600565
 20
334.2115969181084
 30
0.0
 40
7.0
 41
0.0
 71
     5
 72
     1
  1
\A1;368
 11
0.0000000000000001
 21
1.0
 31
0.0
 73
     1
 44
1.0
  0
POINT
  5
1E9C
330
C50
100
AcDbEntity
  8
DEFPOINTS
 62
     0
100
AcDbPoint
 10
538.4631419516536
 20
518.2115969181082
 30
0.0
  0
POINT
  5
1E9D
330
C50
100
AcDbEntity
  8
DEFPOINTS
 62
     0
100
AcDbPoint
 10
534.8311651213066
 20
150.2115969181083
 30
0.0
  0
POINT
  5
1E9E
330
C50
100
AcDbEntity
  8
DEFPOINTS
 62
     0
100
AcDbPoint
 10
592.1082746005651
 20
150.2115969181083
 30
0.0
  0
ENDBLK
  5
C5C
330
C50
100
AcDbEntity
  8
0
100
AcDbBlockEnd
  0
BLOCK
  5
C68
330
C5D
100
AcDbEntity
  8
0
100
AcDbBlockBegin
  2
*D2
 70
     1
 10
0.0
 20
0.0
 30
0.0
  3
*D2
  1

  0
LINE
  5
1E8D
330
C5D
100
AcDbEntity
  8
BEM
 62
     0
370
    -2
100
AcDbLine
 10
540.4631419516537
 20
518.2115969181082
 30
0.0
 11
573.6633426034492
 21
518.2115969181082
 31
0.0
  0
LINE
  5
1E8E
330
C5D
100
AcDbEntity
  8
BEM
 62
     0
370
    -2
100
AcDbLine
 10
510.8560971024624
 20
341.2115787928973
 30
0.0
 11
573.6633426034492
 21
341.2115787928973
 31
0.0
  0
LINE
  5
1E8F
330
C5D
100
AcDbEntity
  8
BEM
 62
     0
370
    -2
100
AcDbLine
 10
571.6633426034491
 20
511.2115969181083
 30
0.0
 11
571.6633426034491
 21
348.2115787928973
 31
0.0
  0
SOLID
  5
1E90
330
C5D
100
AcDbEntity
  8
BEM
 62
     0
100
AcDbTrace
 10
570.4966759367826
 20
511.2115969181083
 30
0.0
 11
572.8300092701158
 21
511.2115969181083
 31
0.0
 12
571.6633426034491
 22
518.2115969181082
 32
0.0
 13
571.6633426034491
 23
518.2115969181082
 33
0.0
  0
SOLID
  5
1E91
330
C5D
100
AcDbEntity
  8
BEM
 62
     0
100
AcDbTrace
 10
570.4966759367826
 20
348.2115787928973
 30
0.0
 11
572.8300092701158
 21
348.2115787928973
 31
0.0
 12
571.6633426034491
 22
341.2115787928973
 32
0.0
 13
571.6633426034491
 23
341.2115787928973
 33
0.0
  0
MTEXT
  5
1E92
330
C5D
100
AcDbEntity
  8
BEM
 62
     1
100
AcDbMText
 10
565.1633426034491
 20
429.7115878555028
 30
0.0
 40
7.0
 41
0.0
 71
     5
 72
     1
  1
\A1;177
 11
0.0000000000000001
 21
1.0
 31
0.0
 73
     1
 44
1.0
  0
POINT
  5
1E93
330
C5D
100
AcDbEntity
  8
DEFPOINTS
 62
     0
100
AcDbPoint
 10
538.4631419516536
 20
518.2115969181082
 30
0.0
  0
POINT
  5
1E94
330
C5D
100
AcDbEntity
  8
DEFPOINTS
 62
     0
100
AcDbPoint
 10
508.8560971024624
 20
341.2115787928973
 30
0.0
  0
POINT
  5
1E95
330
C5D
100
AcDbEntity
  8
DEFPOINTS
 62
     0
100
AcDbPoint
 10
571.6633426034491
 20
341.2115787928973
 30
0.0
  0
ENDBLK
  5
C69
330
C5D
100
AcDbEntity
  8
0
100
AcDbBlockEnd
  0
BLOCK
  5
C75
330
C6A
100
AcDbEntity
  8
0
100
AcDbBlockBegin
  2
*D3
 70
     1
 10
0.0
 20
0.0
 30
0.0
  3
*D3
  1

  0
LINE
  5
1E84
330
C6A
100
AcDbEntity
  8
BEM
 62
     0
370
    -2
100
AcDbLine
 10
482.3560971024623
 20
154.2115969181017
 30
0.0
 11
482.3560971024623
 21
127.0684270627441
 31
0.0
  0
LINE
  5
1E85
330
C6A
100
AcDbEntity
  8
BEM
 62
     0
370
    -2
100
AcDbLine
 10
535.3560971024624
 20
154.211596918112
 30
0.0
 11
535.3560971024624
 21
127.0684270627441
 31
0.0
  0
LINE
  5
1E86
330
C6A
100
AcDbEntity
  8
BEM
 62
     0
370
    -2
100
AcDbLine
 10
489.3560971024624
 20
129.0684270627441
 30
0.0
 11
528.3560971024623
 21
129.0684270627441
 31
0.0
  0
SOLID
  5
1E87
330
C6A
100
AcDbEntity
  8
BEM
 62
     0
100
AcDbTrace
 10
489.3560971024624
 20
130.2350937294108
 30
0.0
 11
489.3560971024624
 21
127.9017603960775
 31
0.0
 12
482.3560971024623
 22
129.0684270627441
 32
0.0
 13
482.3560971024623
 23
129.0684270627441
 33
0.0
  0
SOLID
  5
1E88
330
C6A
100
AcDbEntity
  8
BEM
 62
     0
100
AcDbTrace
 10
528.3560971024623
 20
130.2350937294108
 30
0.0
 11
528.3560971024623
 21
127.9017603960775
 31
0.0
 12
535.3560971024624
 22
129.0684270627441
 32
0.0
 13
535.3560971024624
 23
129.0684270627441
 33
0.0
  0
MTEXT
  5
1E89
330
C6A
100
AcDbEntity
  8
BEM
 62
     1
100
AcDbMText
 10
508.8560971024624
 20
135.5684270627441
 30
0.0
 40
7.0
 41
0.0
 71
     5
 72
     1
  1
\A1;%%c53
 73
     1
 44
1.0
  0
POINT
  5
1E8A
330
C6A
100
AcDbEntity
  8
DEFPOINTS
 62
     0
100
AcDbPoint
 10
482.3560971024623
 20
156.2115969181017
 30
0.0
  0
POINT
  5
1E8B
330
C6A
100
AcDbEntity
  8
DEFPOINTS
 62
     0
100
AcDbPoint
 10
535.3560971024624
 20
156.211596918112
 30
0.0
  0
POINT
  5
1E8C
330
C6A
100
AcDbEntity
  8
DEFPOINTS
 62
     0
100
AcDbPoint
 10
535.3560971024624
 20
129.0684270627441
 30
0.0
  0
ENDBLK
  5
C76
330
C6A
100
AcDbEntity
  8
0
100
AcDbBlockEnd
  0
BLOCK
  5
CBF
330
CB4
100
AcDbEntity
  8
0
100
AcDbBlockBegin
  2
*D4
 70
     1
 10
0.0
 20
0.0
 30
0.0
  3
*D4
  1

  0
LINE
  5
1E7B
330
CB4
100
AcDbEntity
  8
BEM
 62
     0
370
    -2
100
AcDbLine
 10
228.4110782740661
 20
391.9080269729068
 30
0.0
 11
228.4110782740661
 21
543.9215884018527
 31
0.0
  0
LINE
  5
1E7C
330
CB4
100
AcDbEntity
  8
BEM
 62
     0
370
    -2
100
AcDbLine
 10
429.3011159308587
 20
391.9080269729068
 30
0.0
 11
429.3011159308587
 21
543.9215884018527
 31
0.0
  0
LINE
  5
1E7D
330
CB4
100
AcDbEntity
  8
BEM
 62
     0
370
    -2
100
AcDbLine
 10
235.4110782740661
 20
541.9215884018528
 30
0.0
 11
422.3011159308587
 21
541.9215884018528
 31
0.0
  0
SOLID
  5
1E7E
330
CB4
100
AcDbEntity
  8
BEM
 62
     0
100
AcDbTrace
 10
235.4110782740661
 20
543.0882550685193
 30
0.0
 11
235.4110782740661
 21
540.7549217351861
 31
0.0
 12
228.4110782740661
 22
541.9215884018528
 32
0.0
 13
228.4110782740661
 23
541.9215884018528
 33
0.0
  0
SOLID
  5
1E7F
330
CB4
100
AcDbEntity
  8
BEM
 62
     0
100
AcDbTrace
 10
422.3011159308587
 20
543.0882550685193
 30
0.0
 11
422.3011159308587
 21
540.7549217351861
 31
0.0
 12
429.3011159308587
 22
541.9215884018528
 32
0.0
 13
429.3011159308587
 23
541.9215884018528
 33
0.0
  0
MTEXT
  5
1E80
330
CB4
100
AcDbEntity
  8
BEM
 62
     1
100
AcDbMText
 10
328.8560971024624
 20
548.4215884018527
 30
0.0
 40
7.0
 41
0.0
 71
     5
 72
     1
  1
\A1;%%c201
 73
     1
 44
1.0
  0
POINT
  5
1E81
330
CB4
100
AcDbEntity
  8
DEFPOINTS
 62
     0
100
AcDbPoint
 10
228.4110782740661
 20
389.9080269729068
 30
0.0
  0
POINT
  5
1E82
330
CB4
100
AcDbEntity
  8
DEFPOINTS
 62
     0
100
AcDbPoint
 10
429.3011159308587
 20
389.9080269729068
 30
0.0
  0
POINT
  5
1E83
330
CB4
100
AcDbEntity
  8
DEFPOINTS
 62
     0
100
AcDbPoint
 10
429.3011159308587
 20
541.9215884018528
 30
0.0
  0
ENDBLK
  5
CC0
330
CB4
100
AcDbEntity
  8
0
100
AcDbBlockEnd
  0
BLOCK
  5
D92
330
D88
100
AcDbEntity
  8
0
100
AcDbBlockBegin
  2
*D5
 70
     1
 10
0.0
 20
0.0
 30
0.0
  3
*D5
  1

  0
LINE
  5
1E72
330
D88
100
AcDbEntity
  8
BEM
 62
     0
370
    -2
100
AcDbLine
 10
326.8560971024624
 20
320.5430342430843
 30
0.0
 11
208.8047282460166
 21
320.5430342430843
 31
0.0
  0
LINE
  5
1E73
330
D88
100
AcDbEntity
  8
BEM
 62
     0
370
    -2
100
AcDbLine
 10
227.0330066039655
 20
388.5430342430842
 30
0.0
 11
208.8047282460166
 21
388.5430342430842
 31
0.0
  0
LINE
  5
1E74
330
D88
100
AcDbEntity
  8
BEM
 62
     0
370
    -2
100
AcDbLine
 10
210.8047282460165
 20
327.5430342430843
 30
0.0
 11
210.8047282460165
 21
381.5430342430842
 31
0.0
  0
SOLID
  5
1E75
330
D88
100
AcDbEntity
  8
BEM
 62
     0
100
AcDbTrace
 10
209.6380615793499
 20
327.5430342430843
 30
0.0
 11
211.9713949126832
 21
327.5430342430843
 31
0.0
 12
210.8047282460165
 22
320.5430342430843
 32
0.0
 13
210.8047282460165
 23
320.5430342430843
 33
0.0
  0
SOLID
  5
1E76
330
D88
100
AcDbEntity
  8
BEM
 62
     0
100
AcDbTrace
 10
209.6380615793499
 20
381.5430342430842
 30
0.0
 11
211.9713949126832
 21
381.5430342430842
 31
0.0
 12
210.8047282460165
 22
388.5430342430842
 32
0.0
 13
210.8047282460165
 23
388.5430342430842
 33
0.0
  0
MTEXT
  5
1E77
330
D88
100
AcDbEntity
  8
BEM
 62
     1
100
AcDbMText
 10
204.3047282460165
 20
354.5430342430843
 30
0.0
 40
7.0
 41
0.0
 71
     5
 72
     1
  1
\A1;68
 11
0.0000000000000001
 21
1.0
 31
0.0
 73
     1
 44
1.0
  0
POINT
  5
1E78
330
D88
100
AcDbEntity
  8
DEFPOINTS
 62
     0
100
AcDbPoint
 10
328.8560971024624
 20
320.5430342430843
 30
0.0
  0
POINT
  5
1E79
330
D88
100
AcDbEntity
  8
DEFPOINTS
 62
     0
100
AcDbPoint
 10
229.0330066039655
 20
388.5430342430842
 30
0.0
  0
POINT
  5
1E7A
330
D88
100
AcDbEntity
  8
DEFPOINTS
 62
     0
100
AcDbPoint
 10
210.8047282460165
 20
388.5430342430842
 30
0.0
  0
ENDBLK
  5
D93
330
D88
100
AcDbEntity
  8
0
100
AcDbBlockEnd
  0
BLOCK
  5
E08
330
DFE
100
AcDbEntity
  8
0
100
AcDbBlockBegin
  2
*D6
 70
     1
 10
0.0
 20
0.0
 30
0.0
  3
*D6
  1

  0
ARC
  5
1E69
330
DFE
100
AcDbEntity
  8
BEM
 62
     0
370
    -2
100
AcDbCircle
 10
508.8560971024623
 20
341.2115787928972
 30
0.0
 40
24.63339064161547
100
AcDbArc
 50
106.336862508563
 51
160.663137491437
  0
SOLID
  5
1E6A
330
DFE
100
AcDbEntity
  8
BEM
 62
     0
100
AcDbTrace
 10
501.7613502783661
 20
366.0052149121016
 30
0.0
 11
502.0928786004506
 21
363.6955540244169
 31
0.0
 12
508.8560971024624
 22
365.8449694345127
 32
0.0
 13
508.8560971024624
 23
365.8449694345127
 33
0.0
  0
SOLID
  5
1E6B
330
DFE
100
AcDbEntity
  8
BEM
 62
     0
100
AcDbTrace
 10
486.7568948851592
 20
349.1422488828889
 30
0.0
 11
484.4677501592077
 21
349.5942011680841
 31
0.0
 12
484.2564656665983
 22
342.5007908476321
 32
0.0
 13
484.2564656665983
 23
342.5007908476321
 33
0.0
  0
MTEXT
  5
1E6C
330
DFE
100
AcDbEntity
  8
BEM
 62
     1
100
AcDbMText
 10
494.3254075573903
 20
368.7460494467551
 30
0.0
 40
7.0
 41
0.0
 71
     5
 72
     1
  1
\A1;87°
 11
0.8844032110351987
 21
0.4667236444735046
 31
0.0
 73
     1
 44
1.0
  0
POINT
  5
1E6D
330
DFE
100
AcDbEntity
  8
DEFPOINTS
 62
     0
100
AcDbPoint
 10
487.9657970669629
 20
354.2652870372712
 30
0.0
  0
POINT
  5
1E6E
330
DFE
100
AcDbEntity
  8
DEFPOINTS
 62
     0
100
AcDbPoint
 10
508.8560971024625
 20
523.2115969181086
 30
0.0
  0
POINT
  5
1E6F
330
DFE
100
AcDbEntity
  8
DEFPOINTS
 62
     0
100
AcDbPoint
 10
328.8560971024624
 20
350.6449790638447
 30
0.0
  0
POINT
  5
1E70
330
DFE
100
AcDbEntity
  8
DEFPOINTS
 62
     0
100
AcDbPoint
 10
508.8560971024623
 20
341.2115787928972
 30
0.0
  0
POINT
  5
1E71
330
DFE
100
AcDbEntity
  8
DEFPOINTS
 62
     0
100
AcDbPoint
 10
508.8560971024622
 20
145.2115969181083
 30
0.0
  0
ENDBLK
  5
E09
330
DFE
100
AcDbEntity
  8
0
100
AcDbBlockEnd
  0
BLOCK
  5
F1A
330
F10
100
AcDbEntity
  8
0
100
AcDbBlockBegin
  2
*D7
 70
     1
 10
0.0
 20
0.0
 30
0.0
  3
*D7
  1

  0
LINE
  5
1E60
330
F10
100
AcDbEntity
  8
BEM
 62
     0
370
    -2
100
AcDbLine
 10
540.4631419516537
 20
518.2115969181082
 30
0.0
 11
558.9774173617618
 21
518.2115969181082
 31
0.0
  0
LINE
  5
1E61
330
F10
100
AcDbEntity
  8
BEM
 62
     0
370
    -2
100
AcDbLine
 10
539.0682397452766
 20
420.2115969181082
 30
0.0
 11
558.9774173617618
 21
420.2115969181082
 31
0.0
  0
LINE
  5
1E62
330
F10
100
AcDbEntity
  8
BEM
 62
     0
370
    -2
100
AcDbLine
 10
556.9774173617617
 20
511.2115969181083
 30
0.0
 11
556.9774173617617
 21
427.2115969181083
 31
0.0
  0
SOLID
  5
1E63
330
F10
100
AcDbEntity
  8
BEM
 62
     0
100
AcDbTrace
 10
555.8107506950952
 20
511.2115969181083
 30
0.0
 11
558.1440840284284
 21
511.2115969181083
 31
0.0
 12
556.9774173617617
 22
518.2115969181082
 32
0.0
 13
556.9774173617617
 23
518.2115969181082
 33
0.0
  0
SOLID
  5
1E64
330
F10
100
AcDbEntity
  8
BEM
 62
     0
100
AcDbTrace
 10
555.8107506950952
 20
427.2115969181083
 30
0.0
 11
558.1440840284284
 21
427.2115969181083
 31
0.0
 12
556.9774173617617
 22
420.2115969181082
 32
0.0
 13
556.9774173617617
 23
420.2115969181082
 33
0.0
  0
MTEXT
  5
1E65
330
F10
100
AcDbEntity
  8
BEM
 62
     1
100
AcDbMText
 10
550.4774173617617
 20
469.2115969181083
 30
0.0
 40
7.0
 41
0.0
 71
     5
 72
     1
  1
\A1;98
 11
0.0000000000000001
 21
1.0
 31
0.0
 73
     1
 44
1.0
  0
POINT
  5
1E66
330
F10
100
AcDbEntity
  8
DEFPOINTS
 62
     0
100
AcDbPoint
 10
538.4631419516536
 20
518.2115969181082
 30
0.0
  0
POINT
  5
1E67
330
F10
100
AcDbEntity
  8
DEFPOINTS
 62
     0
100
AcDbPoint
 10
537.0682397452766
 20
420.2115969181082
 30
0.0
  0
POINT
  5
1E68
330
F10
100
AcDbEntity
  8
DEFPOINTS
 62
     0
100
AcDbPoint
 10
556.9774173617617
 20
420.2115969181082
 30
0.0
  0
ENDBLK
  5
F1B
330
F10
100
AcDbEntity
  8
0
100
AcDbBlockEnd
  0
BLOCK
  5
1E06
330
1DFC
100
AcDbEntity
  8
0
100
AcDbBlockBegin
  2
*D8
 70
     1
 10
0.0
 20
0.0
 30
0.0
  3
*D8
  1

  0
LINE
  5
1E57
330
1DFC
100
AcDbEntity
  8
BEM
 62
     0
370
    -2
100
AcDbLine
 10
278.3560971024624
 20
520.5160582447348
 30
0.0
 11
278.3560971024624
 21
530.2936215906251
 31
0.0
  0
LINE
  5
1E58
330
1DFC
100
AcDbEntity
  8
BEM
 62
     0
370
    -2
100
AcDbLine
 10
379.3560971024623
 20
520.5160582447348
 30
0.0
 11
379.3560971024623
 21
530.2936215906251
 31
0.0
  0
LINE
  5
1E59
330
1DFC
100
AcDbEntity
  8
BEM
 62
     0
370
    -2
100
AcDbLine
 10
285.3560971024624
 20
528.2936215906252
 30
0.0
 11
372.3560971024623
 21
528.2936215906252
 31
0.0
  0
SOLID
  5
1E5A
330
1DFC
100
AcDbEntity
  8
BEM
 62
     0
100
AcDbTrace
 10
285.3560971024624
 20
529.4602882572918
 30
0.0
 11
285.3560971024624
 21
527.1269549239585
 31
0.0
 12
278.3560971024624
 22
528.2936215906252
 32
0.0
 13
278.3560971024624
 23
528.2936215906252
 33
0.0
  0
SOLID
  5
1E5B
330
1DFC
100
AcDbEntity
  8
BEM
 62
     0
100
AcDbTrace
 10
372.3560971024623
 20
529.4602882572918
 30
0.0
 11
372.3560971024623
 21
527.1269549239585
 31
0.0
 12
379.3560971024623
 22
528.2936215906252
 32
0.0
 13
379.3560971024623
 23
528.2936215906252
 33
0.0
  0
MTEXT
  5
1E5C
330
1DFC
100
AcDbEntity
  8
BEM
 62
     1
100
AcDbMText
 10
334.0806123806463
 20
534.7936215906251
 30
0.0
 40
7.0
 41
0.0
 71
     5
 72
     1
  1
\A1;101
 73
     1
 44
1.0
  0
POINT
  5
1E5D
330
1DFC
100
AcDbEntity
  8
DEFPOINTS
 62
     0
100
AcDbPoint
 10
278.3560971024624
 20
518.5160582447348
 30
0.0
  0
POINT
  5
1E5E
330
1DFC
100
AcDbEntity
  8
DEFPOINTS
 62
     0
100
AcDbPoint
 10
379.3560971024623
 20
518.5160582447348
 30
0.0
  0
POINT
  5
1E5F
330
1DFC
100
AcDbEntity
  8
DEFPOINTS
 62
     0
100
AcDbPoint
 10
379.3560971024623
 20
528.2936215906252
 30
0.0
  0
ENDBLK
  5
1E07
330
1DFC
100
AcDbEntity
  8
0
100
AcDbBlockEnd
  0
BLOCK
  5
1E25
330
1E1B
100
AcDbEntity
  8
0
100
AcDbBlockBegin
  2
*D9
 70
     1
 10
0.0
 20
0.0
 30
0.0
  3
*D9
  1

  0
LINE
  5
1E4E
330
1E1B
100
AcDbEntity
  8
BEM
 62
     0
370
    -2
100
AcDbLine
 10
276.3560971024624
 20
518.5160582447348
 30
0.0
 11
208.8047282460166
 21
518.5160582447349
 31
0.0
  0
LINE
  5
1E4F
330
1E1B
100
AcDbEntity
  8
BEM
 62
     0
370
    -2
100
AcDbLine
 10
227.0330066039655
 20
388.5430342430842
 30
0.0
 11
208.8047282460166
 21
388.5430342430842
 31
0.0
  0
LINE
  5
1E50
330
1E1B
100
AcDbEntity
  8
BEM
 62
     0
370
    -2
100
AcDbLine
 10
210.8047282460166
 20
511.5160582447349
 30
0.0
 11
210.8047282460165
 21
395.5430342430842
 31
0.0
  0
SOLID
  5
1E51
330
1E1B
100
AcDbEntity
  8
BEM
 62
     0
100
AcDbTrace
 10
209.6380615793499
 20
511.5160582447349
 30
0.0
 11
211.9713949126833
 21
511.5160582447349
 31
0.0
 12
210.8047282460166
 22
518.5160582447349
 32
0.0
 13
210.8047282460166
 23
518.5160582447349
 33
0.0
  0
SOLID
  5
1E52
330
1E1B
100
AcDbEntity
  8
BEM
 62
     0
100
AcDbTrace
 10
209.6380615793499
 20
395.5430342430842
 30
0.0
 11
211.9713949126832
 21
395.5430342430842
 31
0.0
 12
210.8047282460165
 22
388.5430342430842
 32
0.0
 13
210.8047282460165
 23
388.5430342430842
 33
0.0
  0
MTEXT
  5
1E53
330
1E1B
100
AcDbEntity
  8
BEM
 62
     1
100
AcDbMText
 10
204.3047282460165
 20
453.5295462439096
 30
0.0
 40
7.0
 41
0.0
 71
     5
 72
     1
  1
\A1;min.35 - max.140
 11
0.0000000000000001
 21
1.0
 31
0.0
 73
     1
 44
1.0
  0
POINT
  5
1E54
330
1E1B
100
AcDbEntity
  8
DEFPOINTS
 62
     0
100
AcDbPoint
 10
278.3560971024624
 20
518.5160582447348
 30
0.0
  0
POINT
  5
1E55
330
1E1B
100
AcDbEntity
  8
DEFPOINTS
 62
     0
100
AcDbPoint
 10
229.0330066039655
 20
388.5430342430842
 30
0.0
  0
POINT
  5
1E56
330
1E1B
100
AcDbEntity
  8
DEFPOINTS
 62
     0
100
AcDbPoint
 10
210.8047282460165
 20
388.5430342430842
 30
0.0
  0
ENDBLK
  5
1E26
330
1E1B
100
AcDbEntity
  8
0
100
AcDbBlockEnd
  0
ENDSEC
  0
SECTION
  2
ENTITIES
  0
LINE
  5
3A1
330
20
100
AcDbEntity
  8
HILF
100
AcDbLine
 10
0.0
 20
0.0
 30
0.0
 11
840.0
 21
0.0
 31
0.0
  0
LINE
  5
3A2
330
20
100
AcDbEntity
  8
HILF
100
AcDbLine
 10
840.0
 20
594.0
 30
0.0
 11
0.0
 21
594.0
 31
0.0
  0
LINE
  5
3A3
330
20
100
AcDbEntity
  8
STEMPEL
100
AcDbLine
 10
830.0
 20
584.0
 30
0.0
 11
40.0
 21
584.0
 31
0.0
  0
LINE
  5
3A4
330
20
100
AcDbEntity
  8
STEMPEL
100
AcDbLine
 10
40.0
 20
10.0
 30
0.0
 11
830.0
 21
10.0
 31
0.0
  0
LINE
  5
3AA
330
20
100
AcDbEntity
  8
HILF
100
AcDbLine
 10
0.0
 20
594.0
 30
0.0
 11
0.0
 21
0.0
 31
0.0
  0
LINE
  5
3AB
330
20
100
AcDbEntity
  8
STEMPEL
100
AcDbLine
 10
40.0
 20
584.0
 30
0.0
 11
40.0
 21
10.0
 31
0.0
  0
TEXT
  5
450
330
20
100
AcDbEntity
  8
TEXT
100
AcDbText
 10
654.9713400534563
 20
42.19504573013546
 30
0.0
 40
3.6
  1
15112050W.DWG
 41
0.8
  7
GREEKS
100
AcDbText
  0
TEXT
  5
451
330
20
100
AcDbEntity
  8
TEXT
100
AcDbText
 10
655.1623031583289
 20
52.75131145345449
 30
0.0
 40
5.0
  1
EDV-Art.Nr. 15112.050X
 41
0.8
  7
GREEKS
100
AcDbText
  0
LINE
  5
452
330
20
100
AcDbEntity
  8
STEMPEL
100
AcDbLine
 10
830.0
 20
110.0
 30
0.0
 11
470.0000000000001
 21
110.0
 31
0.0
  0
LINE
  5
453
330
20
100
AcDbEntity
  8
STEMPEL
100
AcDbLine
 10
830.0
 20
40.0
 30
0.0
 11
565.9999999999997
 21
40.0
 31
0.0
  0
LINE
  5
454
330
20
100
AcDbEntity
  8
STEMPEL
100
AcDbLine
 10
830.0
 20
80.0
 30
0.0
 11
566.0
 21
80.0
 31
0.0
  0
LINE
  5
455
330
20
100
AcDbEntity
  8
HILF
100
AcDbLine
 10
654.7736801096946
 20
84.03758247564132
 30
0.0
 11
746.6297842514809
 21
84.03758247564132
 31
0.0
  0
LINE
  5
456
330
20
100
AcDbEntity
  8
HILF
100
AcDbLine
 10
654.7736801096946
 20
70.0
 30
0.0
 11
746.6297842514809
 21
70.0
 31
0.0
  0
LINE
  5
457
330
20
100
AcDbEntity
  8
HILF
100
AcDbLine
 10
654.7736801096946
 20
60.0
 30
0.0
 11
746.6297842514809
 21
60.0
 31
0.0
  0
LINE
  5
458
330
20
100
AcDbEntity
  8
HILF
100
AcDbLine
 10
654.7736801096946
 20
50.0
 30
0.0
 11
746.6297842514809
 21
50.0
 31
0.0
  0
LINE
  5
459
330
20
100
AcDbEntity
  8
HILF
100
AcDbLine
 10
654.7736801096946
 20
14.89398258028314
 30
0.0
 11
824.8588839326728
 21
14.89398258028314
 31
0.0
  0
TEXT
  5
45B
330
20
100
AcDbEntity
  8
TEXT
100
AcDbText
 10
654.8779403809008
 20
102.5489328011779
 30
0.0
 40
5.0
  1
Benennung
 41
0.8
  7
GREEKS
100
AcDbText
  0
TEXT
  5
45C
330
20
100
AcDbEntity
  8
TEXT
100
AcDbText
 10
654.7422383911357
 20
30.84560570193048
 30
0.0
 40
5.0
  1
Bauvorhaben
 41
0.8
  7
GREEKS
100
AcDbText
  0
LINE
  5
45F
330
20
100
AcDbEntity
  8
STEMPEL
100
AcDbLine
 10
565.9999999999997
 20
30.0
 30
0.0
 11
469.9999999999998
 21
30.0
 31
0.0
  0
LINE
  5
460
330
20
100
AcDbEntity
  8
HILF
100
AcDbLine
 10
470.0000000000001
 20
100.0
 30
0.0
 11
566.0
 21
100.0
 31
0.0
  0
LINE
  5
461
330
20
100
AcDbEntity
  8
HILF
100
AcDbLine
 10
470.0000000000001
 20
90.0
 30
0.0
 11
566.0
 21
90.0
 31
0.0
  0
LINE
  5
462
330
20
100
AcDbEntity
  8
HILF
100
AcDbLine
 10
470.0000000000001
 20
80.0
 30
0.0
 11
566.0
 21
80.0
 31
0.0
  0
LINE
  5
463
330
20
100
AcDbEntity
  8
HILF
100
AcDbLine
 10
470.0000000000001
 20
70.0
 30
0.0
 11
566.0
 21
70.0
 31
0.0
  0
LINE
  5
464
330
20
100
AcDbEntity
  8
HILF
100
AcDbLine
 10
470.0000000000001
 20
60.0
 30
0.0
 11
566.0
 21
60.0
 31
0.0
  0
LINE
  5
465
330
20
100
AcDbEntity
  8
HILF
100
AcDbLine
 10
470.0000000000001
 20
50.0
 30
0.0
 11
566.0
 21
50.0
 31
0.0
  0
LINE
  5
466
330
20
100
AcDbEntity
  8
HILF
100
AcDbLine
 10
470.0000000000001
 20
40.0
 30
0.0
 11
566.0
 21
40.0
 31
0.0
  0
TEXT
  5
468
330
20
100
AcDbEntity
  8
TEXT
100
AcDbText
 10
470.2031266103855
 20
113.5954219225907
 30
0.0
 40
5.0
  1
Erstellt mit AUTOCAD 2004
 41
0.8
  7
GREEKS
100
AcDbText
  0
LINE
  5
469
330
20
100
AcDbEntity
  8
BEM
100
AcDbLine
 10
460.0
 20
0.0
 30
0.0
 11
460.0
 21
10.0
 31
0.0
  0
LINE
  5
46A
330
20
100
AcDbEntity
  8
STEMPEL
100
AcDbLine
 10
470.0000000000001
 20
110.0
 30
0.0
 11
469.9999999999998
 21
10.0
 31
0.0
  0
LINE
  5
46B
330
20
100
AcDbEntity
  8
VOLL
100
AcDbLine
 10
484.0
 20
110.0
 30
0.0
 11
483.9999999999998
 21
10.0
 31
0.0
  0
TEXT
  5
46C
330
20
100
AcDbEntity
  8
TEXT
100
AcDbText
 10
478.2664110704575
 20
13.654658460272
 30
0.0
 40
3.6
  1
Index
 50
90.0
  7
GREEKS
100
AcDbText
  0
TEXT
  5
46D
330
20
100
AcDbEntity
  8
TEXT
100
AcDbText
 10
492.5093836271487
 20
18.96945393412472
 30
0.0
 40
4.0
  1
Änderung
 41
0.8
  7
GREEKS
 72
     4
 11
503.2522407700057
 21
20.68373964841044
 31
0.0
100
AcDbText
  0
LINE
  5
46F
330
20
100
AcDbEntity
  8
VOLL
100
AcDbLine
 10
524.0
 20
110.0
 30
0.0
 11
523.9999999999997
 21
10.0
 31
0.0
  0
LINE
  5
470
330
20
100
AcDbEntity
  8
VOLL
100
AcDbLine
 10
544.0
 20
110.0
 30
0.0
 11
543.9999999999997
 21
10.0
 31
0.0
  0
LINE
  5
49A
330
20
100
AcDbEntity
  8
BEM
100
AcDbLine
 10
460.0
 20
584.0
 30
0.0
 11
460.0
 21
594.0
 31
0.0
  0
LINE
  5
4B3
330
20
100
AcDbEntity
  8
HILF
100
AcDbLine
 10
566.0
 20
70.0
 30
0.0
 11
649.9999999999998
 21
70.0
 31
0.0
  0
LINE
  5
4B4
330
20
100
AcDbEntity
  8
HILF
100
AcDbLine
 10
566.0
 20
60.0
 30
0.0
 11
649.9999999999998
 21
60.0
 31
0.0
  0
LINE
  5
4B5
330
20
100
AcDbEntity
  8
HILF
100
AcDbLine
 10
566.0
 20
50.0
 30
0.0
 11
649.9999999999998
 21
50.0
 31
0.0
  0
INSERT
  5
4B6
330
20
100
AcDbEntity
  8
STEMPEL
100
AcDbBlockReference
  2
LOGO
 10
568.9705276546531
 20
44.3239197186715
 30
0.0
 41
2.0
 42
2.0
 43
2.0
  0
TEXT
  5
4B7
330
20
100
AcDbEntity
  8
TEXT
 62
     1
100
AcDbText
 10
578.8064310364448
 20
86.22410504373215
 30
0.0
 40
7.0
  1
1:2
 41
0.8
  7
GREEKS
100
AcDbText
  0
TEXT
  5
4B8
330
20
100
AcDbEntity
  8
TEXT
100
AcDbText
 10
573.5163572150375
 20
102.4620895087089
 30
0.0
 40
5.0
  1
Maßstab
 41
0.8
  7
GREEKS
100
AcDbText
  0
TEXT
  5
4B9
330
20
100
AcDbEntity
  8
TEXT
100
AcDbText
 10
567.5836127167612
 20
63.62990369617955
 30
0.0
 40
3.6
  1
Gez.
 41
0.8
  7
GREEKS
100
AcDbText
  0
TEXT
  5
4BA
330
20
100
AcDbEntity
  8
TEXT
100
AcDbText
 10
567.551508657167
 20
53.68926291428374
 30
0.0
 40
3.6
  1
Gepr.
 41
0.8
  7
GREEKS
100
AcDbText
  0
TEXT
  5
4BB
330
20
100
AcDbEntity
  8
TEXT
100
AcDbText
 10
567.6006777387301
 20
43.5294638964981
 30
0.0
 40
3.6
  1
Norm.
 41
0.8
  7
GREEKS
100
AcDbText
  0
LINE
  5
4BC
330
20
100
AcDbEntity
  8
STEMPEL
100
AcDbLine
 10
566.0
 20
110.0
 30
0.0
 11
565.9999999999997
 21
10.0
 31
0.0
  0
LINE
  5
4BD
330
20
100
AcDbEntity
  8
VOLL
100
AcDbLine
 10
584.0
 20
80.0
 30
0.0
 11
584.0
 21
40.0
 31
0.0
  0
TEXT
  5
4BE
330
20
100
AcDbEntity
  8
TEXT
100
AcDbText
 10
568.5426010951828
 20
73.14583683904152
 30
0.0
 40
3.6
  1
2008
 41
0.8
  7
GREEKS
100
AcDbText
  0
TEXT
  5
4BF
330
20
100
AcDbEntity
  8
TEXT
100
AcDbText
 10
590.4500884820463
 20
63.40553235359493
 30
0.0
 40
3.6
  1
20.05.
 41
0.8
  7
GREEKS
 72
     1
 11
596.7586599106177
 21
63.40553235359493
 31
0.0
100
AcDbText
  0
TEXT
  5
4C0
330
20
100
AcDbEntity
  8
TEXT
100
AcDbText
 10
592.3311673153648
 20
73.31880501229921
 30
0.0
 40
3.6
  1
Tag
 41
0.8
  7
GREEKS
100
AcDbText
  0
LINE
  5
4C1
330
20
100
AcDbEntity
  8
VOLL
100
AcDbLine
 10
610.0
 20
109.9999999999997
 30
0.0
 11
609.9999999999997
 21
40.0
 31
0.0
  0
TEXT
  5
4C2
330
20
100
AcDbEntity
  8
TEXT
100
AcDbText
 10
625.1121860477742
 20
63.502532587509
 30
0.0
 40
3.6
  1
Koeh
 41
0.8
  7
GREEKS
 72
     1
 11
629.8436146192027
 21
63.502532587509
 31
0.0
100
AcDbText
  0
TEXT
  5
4C3
330
20
100
AcDbEntity
  8
TEXT
100
AcDbText
 10
622.4626584226293
 20
73.30961091915219
 30
0.0
 40
3.6
  1
Name
 41
0.8
  7
GREEKS
100
AcDbText
  0
TEXT
  5
4C4
330
20
100
AcDbEntity
  8
TEXT
100
AcDbText
 10
612.1066967683558
 20
90.15411385204902
 30
0.0
 40
4.0
  1
DIN EN1123-2
 41
0.8
  7
GREEKS
 72
     1
 11
629.0971729588321
 21
90.15411385204902
 31
0.0
100
AcDbText
  0
TEXT
  5
4C5
330
20
100
AcDbEntity
  8
TEXT
100
AcDbText
 10
617.9646614905595
 20
102.4184168434817
 30
0.0
 40
5.0
  1
zul.Abw.
 41
0.8
  7
GREEKS
100
AcDbText
  0
LINE
  5
4C6
330
20
100
AcDbEntity
  8
STEMPEL
100
AcDbLine
 10
649.9999999999998
 20
110.0
 30
0.0
 11
649.9999999999998
 21
10.0
 31
0.0
  0
LINE
  5
4C7
330
20
100
AcDbEntity
  8
VOLL
100
AcDbLine
 10
752.0
 20
60.0
 30
0.0
 11
830.0
 21
60.0
 31
0.0
  0
LINE
  5
4C8
330
20
100
AcDbEntity
  8
HILF
100
AcDbLine
 10
756.7238616296992
 20
83.77983636955832
 30
0.0
 11
824.8588839326728
 21
83.77983636955832
 31
0.0
  0
TEXT
  5
4C9
330
20
100
AcDbEntity
  8
TEXT
 62
     1
100
AcDbText
 10
767.971106150903
 20
87.01863741763578
 30
0.0
 40
7.0
  1
15112050W
 41
0.8
  7
GREEKS
 72
     1
 11
790.3711061509029
 21
87.01863741763578
 31
0.0
100
AcDbText
  0
TEXT
  5
4CA
330
20
100
AcDbEntity
  8
TEXT
100
AcDbText
 10
757.2400861497006
 20
52.07416177878599
 30
0.0
 40
5.0
  1
ersetzt durch:
 41
0.8
  7
GREEKS
100
AcDbText
  0
TEXT
  5
4CB
330
20
100
AcDbEntity
  8
TEXT
100
AcDbText
 10
756.7238616296992
 20
73.18118237099975
 30
0.0
 40
5.0
  1
Ersatz für:
 41
0.8
  7
GREEKS
100
AcDbText
  0
TEXT
  5
4CC
330
20
100
AcDbEntity
  8
TEXT
100
AcDbText
 10
756.178754957634
 20
102.3132034537136
 30
0.0
 40
5.0
  1
Zeichnungs Nr.
 41
0.8
  7
GREEKS
100
AcDbText
  0
LINE
  5
4CD
330
20
100
AcDbEntity
  8
STEMPEL
100
AcDbLine
 10
752.0
 20
109.9999999999997
 30
0.0
 11
752.0
 21
40.0
 31
0.0
  0
LINE
  5
4CE
330
20
100
AcDbEntity
  8
HILF
100
AcDbLine
 10
840.0
 20
0.0
 30
0.0
 11
840.0
 21
594.0
 31
0.0
  0
LINE
  5
4CF
330
20
100
AcDbEntity
  8
STEMPEL
100
AcDbLine
 10
830.0
 20
10.0
 30
0.0
 11
830.0
 21
584.0
 31
0.0
  0
TEXT
  5
4D0
330
20
100
AcDbEntity
  8
TEXT
100
AcDbText
 10
836.413205537806
 20
10.55378061767828
 30
0.0
 40
3.6
  1
Diese Zeichnung ist urheberrechtlich geschützt und bleibt unser Eigentum. Sie darf weder ganz noch teilweise vervielfältigt und nicht an Dritte weitegegeben werden.
 50
90.0
  7
GREEKS
100
AcDbText
  0
TEXT
  5
5CB
330
20
100
AcDbEntity
  8
TEXT
100
AcDbText
 10
548.7556467978369
 20
18.68373964841044
 30
0.0
 40
4.0
  1
Name
 41
0.8
  7
GREEKS
 72
     4
 11
555.0794563216463
 21
20.68373964841044
 31
0.0
100
AcDbText
  0
TEXT
  5
5CC
330
20
100
AcDbEntity
  8
TEXT
100
AcDbText
 10
530.3058189851769
 20
19.3504063150771
 30
0.0
 40
4.0
  1
Tag
 41
0.8
  7
GREEKS
 72
     4
 11
534.0391523185103
 21
20.68373964841044
 31
0.0
100
AcDbText
  0
LINE
  5
B88
330
20
100
AcDbEntity
  8
STEMPEL
100
AcDbLine
 10
533.8560971024624
 20
156.2115969181116
 30
0.0
 11
533.3311651213066
 21
150.2115969181081
 31
0.0
  0
LINE
  5
B89
330
20
100
AcDbEntity
  8
STEMPEL
100
AcDbLine
 10
535.3560971024624
 20
156.2115969181122
 30
0.0
 11
534.8311651213066
 21
150.2115969181084
 31
0.0
  0
LINE
  5
B8A
102
{ACAD_REACTORS
330
E14
102
}
330
20
100
AcDbEntity
  8
MITTEL
100
AcDbLine
 10
508.8560971024624
 20
523.2115969181086
 30
0.0
 11
508.8560971024621
 21
145.2115969181083
 31
0.0
  0
LINE
  5
B8B
330
20
100
AcDbEntity
  8
STEMPEL
100
AcDbLine
 10
535.3560971024624
 20
415.0842700784515
 30
0.0
 11
535.3560971024624
 21
156.2115969181126
 31
0.0
  0
LINE
  5
B8C
330
20
100
AcDbEntity
  8
STEMPEL
100
AcDbLine
 10
533.8560971024624
 20
415.0842700784513
 30
0.0
 11
533.8560971024622
 21
156.2115969181109
 31
0.0
  0
DIMENSION
  5
B8E
330
20
100
AcDbEntity
  8
BEM
100
AcDbDimension
  2
*D1
 10
592.1082746005651
 20
150.2115969181083
 30
0.0
 11
585.608274600565
 21
334.2115969181084
 31
0.0
 70
    32
 71
     5
 42
367.9999999999999
  3
Standard
100
AcDbAlignedDimension
 13
538.4631419516536
 23
518.2115969181082
 33
0.0
 14
534.8311651213066
 24
150.2115969181083
 34
0.0
 50
90.0
100
AcDbRotatedDimension
1001
ACAD
1000
DSTYLE
1002
{
1070
    40
1040
2.0
1070
    41
1040
3.5
1070
    42
1040
1.0
1070
    43
1040
7.0
1070
    44
1040
1.0
1070
    47
1040
2.799999999999999
1070
    48
1040
2.799999999999999
1070
    73
1070
     0
1070
    74
1070
     0
1070
    77
1070
     1
1070
    78
1070
     8
1070
    79
1070
     2
1070
   140
1040
3.5
1070
   141
1040
1.5
1070
   146
1040
0.5142857142857144
1070
   147
1040
1.5
1070
   172
1070
     1
1070
   178
1070
     1
1070
   179
1070
     2
1070
   271
1070
     2
1070
   272
1070
     2
1070
   284
1070
     8
1070
   285
1070
     8
1070
   286
1070
     8
1002
}
  0
DIMENSION
  5
B8F
330
20
100
AcDbEntity
  8
BEM
100
AcDbDimension
  2
*D2
 10
571.6633426034491
 20
341.2115787928973
 30
0.0
 11
565.1633426034491
 21
429.7115878555028
 31
0.0
 70
    32
 71
     5
 42
177.000018125211
  3
Standard
100
AcDbAlignedDimension
 13
538.4631419516536
 23
518.2115969181082
 33
0.0
 14
508.8560971024624
 24
341.2115787928973
 34
0.0
 50
90.0
100
AcDbRotatedDimension
1001
ACAD
1000
DSTYLE
1002
{
1070
    40
1040
2.0
1070
    41
1040
3.5
1070
    42
1040
1.0
1070
    43
1040
7.0
1070
    44
1040
1.0
1070
    47
1040
2.799999999999999
1070
    48
1040
2.799999999999999
1070
    73
1070
     0
1070
    74
1070
     0
1070
    77
1070
     1
1070
    78
1070
     8
1070
    79
1070
     2
1070
   140
1040
3.5
1070
   141
1040
1.5
1070
   146
1040
0.5142857142857144
1070
   147
1040
1.5
1070
   172
1070
     1
1070
   178
1070
     1
1070
   179
1070
     2
1070
   271
1070
     2
1070
   272
1070
     2
1070
   284
1070
     8
1070
   285
1070
     8
1070
   286
1070
     8
1002
}
  0
LINE
  5
BA5
330
20
100
AcDbEntity
  8
STEMPEL
100
AcDbLine
 10
478.8560971024623
 20
369.3201793403332
 30
0.0
 11
478.8560971024623
 21
316.2474450024436
 31
0.0
  0
ARC
  5
BA6
102
{ACAD_REACTORS
330
FE6
102
}
330
20
100
AcDbEntity
  8
STEMPEL
100
AcDbCircle
 10
479.3560971024626
 20
313.2171240748083
 30
0.0
 40
3.0
100
AcDbArc
 50
0.0
 51
87.00000000000091
  0
ARC
  5
BA7
330
20
100
AcDbEntity
  8
STEMPEL
100
AcDbCircle
 10
479.3560971024626
 20
313.2171240748083
 30
0.0
 40
4.5
100
AcDbArc
 50
0.0
 51
87.00000000000091
  0
ARC
  5
BA8
330
20
100
AcDbEntity
  8
STEMPEL
100
AcDbCircle
 10
479.3560971024624
 20
372.2980924886854
 30
0.0
 40
4.5
100
AcDbArc
 50
267.0000000000009
 51
0.0
  0
ARC
  5
BA9
102
{ACAD_REACTORS
330
FE1
102
}
330
20
100
AcDbEntity
  8
STEMPEL
100
AcDbCircle
 10
479.3560971024624
 20
372.2980924886854
 30
0.0
 40
3.0
100
AcDbArc
 50
267.0000000000009
 51
0.0
  0
LINE
  5
BAA
330
20
100
AcDbEntity
  8
STEMPEL
100
AcDbLine
 10
483.8560971024624
 20
156.2115969181034
 30
0.0
 11
484.3810290836176
 21
150.2115969181081
 31
0.0
  0
LINE
  5
BAB
330
20
100
AcDbEntity
  8
STEMPEL
100
AcDbLine
 10
482.3560971024623
 20
156.2115969181022
 30
0.0
 11
482.881029083618
 21
150.2115969181084
 31
0.0
  0
LINE
  5
BAC
330
20
100
AcDbEntity
  8
STEMPEL
100
AcDbLine
 10
483.8560971024624
 20
313.2171240748083
 30
0.0
 11
483.8560971024624
 21
156.2115969181031
 31
0.0
  0
LINE
  5
BAD
330
20
100
AcDbEntity
  8
STEMPEL
100
AcDbLine
 10
482.3560971024623
 20
313.2171240748083
 30
0.0
 11
482.3560971024623
 21
156.2115969181022
 31
0.0
  0
LINE
  5
BAE
330
20
100
AcDbEntity
  8
STEMPEL
100
AcDbLine
 10
428.6791876009594
 20
388.5430342430843
 30
0.0
 11
429.3011159308587
 21
389.9080269729068
 31
0.0
  0
LINE
  5
BAF
330
20
100
AcDbEntity
  8
STEMPEL
100
AcDbLine
 10
426.660780879966
 20
391.1110364342027
 30
0.0
 11
429.3011159308587
 21
389.9080269729068
 31
0.0
  0
ARC
  5
BB0
330
20
100
AcDbEntity
  8
STEMPEL
100
AcDbCircle
 10
424.7949958902679
 20
387.0160582447348
 30
0.0
 40
3.0
100
AcDbArc
 50
65.50468174750881
 51
92.36239407091174
  0
ARC
  5
BB1
330
20
100
AcDbEntity
  8
STEMPEL
100
AcDbCircle
 10
424.7949958902679
 20
387.0160582447348
 30
0.0
 40
4.5
100
AcDbArc
 50
65.50468174750881
 51
92.36239407091174
  0
LINE
  5
BB2
330
20
100
AcDbEntity
  8
STEMPEL
100
AcDbLine
 10
426.0388525500665
 20
389.74604370438
 30
0.0
 11
428.6791876009594
 21
388.5430342430843
 31
0.0
  0
LINE
  5
BB3
330
20
100
AcDbEntity
  8
STEMPEL
100
AcDbLine
 10
483.8560971024626
 20
415.0842700784513
 30
0.0
 11
483.8560971024626
 21
372.2980924886854
 31
0.0
  0
LINE
  5
BB4
330
20
100
AcDbEntity
  8
STEMPEL
100
AcDbLine
 10
482.3560971024625
 20
415.0842700784515
 30
0.0
 11
482.3560971024626
 21
372.2980924886854
 31
0.0
  0
DIMENSION
  5
BB6
330
20
100
AcDbEntity
  8
BEM
100
AcDbDimension
  2
*D3
 10
535.3560971024624
 20
129.0684270627441
 30
0.0
 11
508.8560971024624
 21
135.5684270627441
 31
0.0
 70
    32
  1
%%c<>
 71
     5
 42
53.0
  3
Standard
100
AcDbAlignedDimension
 13
482.3560971024623
 23
156.2115969181017
 33
0.0
 14
535.3560971024624
 24
156.211596918112
 34
0.0
100
AcDbRotatedDimension
1001
ACAD
1000
DSTYLE
1002
{
1070
    40
1040
2.0
1070
    41
1040
3.5
1070
    42
1040
1.0
1070
    43
1040
7.0
1070
    44
1040
1.0
1070
    47
1040
2.799999999999999
1070
    48
1040
2.799999999999999
1070
    73
1070
     0
1070
    74
1070
     0
1070
    77
1070
     1
1070
    78
1070
     8
1070
    79
1070
     2
1070
   140
1040
3.5
1070
   141
1040
1.5
1070
   146
1040
0.5142857142857144
1070
   147
1040
1.5
1070
   172
1070
     1
1070
   178
1070
     1
1070
   179
1070
     2
1070
   271
1070
     2
1070
   272
1070
     2
1070
   284
1070
     8
1070
   285
1070
     8
1070
   286
1070
     8
1002
}
  0
LINE
  5
BB8
330
20
100
AcDbEntity
  8
HILF
100
AcDbLine
 10
532.3560971024623
 20
156.2115969181079
 30
0.0
 11
485.3560971024624
 21
156.2115969181083
 31
0.0
  0
LINE
  5
BBD
330
20
100
AcDbEntity
  8
STEMPEL
100
AcDbLine
 10
534.8311651213066
 20
150.2115969181084
 30
0.0
 11
482.881029083618
 21
150.2115969181084
 31
0.0
  0
LINE
  5
BBE
102
{ACAD_REACTORS
330
F26
102
}
330
20
100
AcDbEntity
  8
STEMPEL
100
AcDbLine
 10
538.4631419516536
 20
518.2115969181082
 30
0.0
 11
479.2490522532713
 21
518.2115969181082
 31
0.0
  0
LINE
  5
BBF
330
20
100
AcDbEntity
  8
STEMPEL
100
AcDbLine
 10
366.8560971024624
 20
401.7930342430843
 30
0.0
 11
368.155135208139
 21
402.5430342430842
 31
0.0
  0
LINE
  5
BC3
330
20
100
AcDbEntity
  8
STEMPEL
100
AcDbLine
 10
388.1981047471775
 20
384.8610537277447
 30
0.0
 11
391.174951781672
 21
387.8379007622391
 31
0.0
  0
ARC
  5
BC4
330
20
100
AcDbEntity
  8
STEMPEL
100
AcDbCircle
 10
385.0161242318382
 20
388.0430342430841
 30
0.0
 40
3.0
100
AcDbArc
 50
270.0
 51
315.0
  0
ARC
  5
BC5
330
20
100
AcDbEntity
  8
STEMPEL
100
AcDbCircle
 10
385.0161242318382
 20
388.0430342430841
 30
0.0
 40
4.5
100
AcDbArc
 50
270.0
 51
315.0
  0
LINE
  5
BC6
330
20
100
AcDbEntity
  8
STEMPEL
100
AcDbLine
 10
387.1374445753977
 20
385.9217138995245
 30
0.0
 11
390.1142916098923
 21
388.898560934019
 31
0.0
  0
LINE
  5
BC7
330
20
100
AcDbEntity
  8
STEMPEL
100
AcDbLine
 10
373.8560971024624
 20
389.6686785901022
 30
0.0
 11
375.155135208139
 21
390.4186785901022
 31
0.0
  0
LINE
  5
BC8
330
20
100
AcDbEntity
  8
MITTEL
100
AcDbLine
 10
372.758020891109
 20
385.570602378749
 30
0.0
 11
379.2532114194923
 21
389.320602378749
 31
0.0
  0
LINE
  5
BC9
330
20
100
AcDbEntity
  8
STEMPEL
100
AcDbLine
 10
378.8560971024624
 20
374.5609572686375
 30
0.0
 11
378.8560971024624
 21
382.2953337580504
 31
0.0
  0
LINE
  5
BCA
330
20
100
AcDbEntity
  8
STEMPEL
100
AcDbLine
 10
378.8560971024626
 20
374.5609572686374
 30
0.0
 11
378.8560971024624
 21
383.5430342430843
 31
0.0
  0
ARC
  5
BCB
330
20
100
AcDbEntity
  8
STEMPEL
100
AcDbCircle
 10
379.9908157265263
 20
388.0430342430843
 30
0.0
 40
3.0
100
AcDbArc
 50
210.0000000000005
 51
269.9999999999968
  0
LINE
  5
BCC
330
20
100
AcDbEntity
  8
STEMPEL
100
AcDbLine
 10
380.3560971024624
 20
374.482345599713
 30
0.0
 11
380.3560971024624
 21
383.5430342430843
 31
0.0
  0
LINE
  5
BCD
102
{ACAD_REACTORS
330
FCF
102
}
330
20
100
AcDbEntity
  8
STEMPEL
100
AcDbLine
 10
380.3560971024626
 20
374.4823455997129
 30
0.0
 11
380.3560971024626
 21
383.5430342430843
 31
0.0
  0
ARC
  5
BCE
330
20
100
AcDbEntity
  8
STEMPEL
100
AcDbCircle
 10
379.9908157265263
 20
388.0430342430843
 30
0.0
 40
4.5
100
AcDbArc
 50
210.0000000000005
 51
269.9999999999968
  0
LINE
  5
BCF
330
20
100
AcDbEntity
  8
STEMPEL
100
AcDbLine
 10
377.0866383025286
 20
384.6056291913133
 30
0.0
 11
378.5157444539152
 21
385.4307240125168
 31
0.0
  0
LINE
  5
BD0
330
20
100
AcDbEntity
  8
HILF
100
AcDbLine
 10
391.3560971024624
 20
390.1403664265892
 30
0.0
 11
375.315818810662
 21
390.1403664265892
 31
0.0
  0
LINE
  5
BD1
330
20
100
AcDbEntity
  8
STEMPEL
100
AcDbLine
 10
385.0161242318379
 20
385.0430342430842
 30
0.0
 11
379.9908157265261
 21
385.0430342430843
 31
0.0
  0
ARC
  5
BD5
330
20
100
AcDbEntity
  8
STEMPEL
100
AcDbCircle
 10
393.2962721252318
 20
385.7165804186794
 30
0.0
 40
4.5
100
AcDbArc
 50
92.36239407091174
 51
135.0
  0
ARC
  5
BD6
330
20
100
AcDbEntity
  8
STEMPEL
100
AcDbCircle
 10
393.2962721252318
 20
385.7165804186794
 30
0.0
 40
3.0
100
AcDbArc
 50
92.36239407091174
 51
135.0
  0
LINE
  5
BD9
330
20
100
AcDbEntity
  8
STEMPEL
100
AcDbLine
 10
345.3204579446853
 20
323.2457513058441
 30
0.0
 11
340.7735101206499
 21
323.4840467438177
 31
0.0
  0
LINE
  5
BDA
330
20
100
AcDbEntity
  8
STEMPEL
100
AcDbLine
 10
342.9968233815134
 20
323.3675278331655
 30
0.0
 11
343.2061672064851
 21
327.3620459721835
 31
0.0
  0
LINE
  5
BDC
330
20
100
AcDbEntity
  8
STEMPEL
100
AcDbLine
 10
347.2436710468273
 20
368.5160582447349
 30
0.0
 11
365.801925262932
 21
349.9578040286303
 31
0.0
  0
LINE
  5
BDD
330
20
100
AcDbEntity
  8
STEMPEL
100
AcDbLine
 10
365.801925262932
 20
349.9578040286303
 30
0.0
 11
343.2061672064851
 21
327.3620459721835
 31
0.0
  0
ARC
  5
BE0
102
{ACAD_REACTORS
330
FDA
102
}
330
20
100
AcDbEntity
  8
SCHRAFF
100
AcDbCircle
 10
344.6802750528454
 20
325.0178427883162
 30
0.0
 40
3.688215779727094
100
AcDbArc
 50
227.4977429553024
 51
328.9182280035297
  0
ARC
  5
BE2
330
20
100
AcDbEntity
  8
STEMPEL
100
AcDbCircle
 10
360.1650618223316
 20
386.2833712667532
 30
0.0
 40
17.96950605134312
100
AcDbArc
 50
261.3967861847968
 51
278.6032138152035
  0
ARC
  5
BE3
330
20
100
AcDbEntity
  8
STEMPEL
100
AcDbCircle
 10
360.1650618223316
 20
386.2833712667532
 30
0.0
 40
16.96950605134312
100
AcDbArc
 50
287.8125430160035
 51
317.7873176988721
  0
LINE
  5
BE4
330
20
100
AcDbEntity
  8
STEMPEL
100
AcDbLine
 10
368.155135208139
 20
402.5430342430843
 30
0.0
 11
377.392739515173
 21
386.5430342430843
 31
0.0
  0
LINE
  5
BE5
330
20
100
AcDbEntity
  8
STEMPEL
100
AcDbLine
 10
366.8560971024624
 20
401.7930342430843
 30
0.0
 11
376.0937014094964
 21
385.7930342430844
 31
0.0
  0
LINE
  5
BE6
330
20
100
AcDbEntity
  8
MITTEL
100
AcDbLine
 10
328.8560971024625
 20
524.5534096216723
 30
0.0
 11
328.8560971024624
 21
315.5430342430842
 31
0.0
  0
LINE
  5
BE8
330
20
100
AcDbEntity
  8
STEMPEL
100
AcDbLine
 10
290.8560971024624
 20
401.7930342430843
 30
0.0
 11
289.5570589967858
 21
402.5430342430842
 31
0.0
  0
LINE
  5
BEB
330
20
100
AcDbEntity
  8
STEMPEL
100
AcDbLine
 10
283.8560971024626
 20
389.6686785901021
 30
0.0
 11
282.5570589967858
 21
390.4186785901021
 31
0.0
  0
LINE
  5
BF1
330
20
100
AcDbEntity
  8
STEMPEL
100
AcDbLine
 10
277.7213784783985
 20
385.0430342430843
 30
0.0
 11
272.6960699730867
 21
385.0430342430844
 31
0.0
  0
ARC
  5
BF2
330
20
100
AcDbEntity
  8
STEMPEL
100
AcDbCircle
 10
272.6960699730867
 20
388.0430342430844
 30
0.0
 40
3.0
100
AcDbArc
 50
225.0
 51
270.0
  0
ARC
  5
BF3
330
20
100
AcDbEntity
  8
STEMPEL
100
AcDbCircle
 10
272.6960699730867
 20
388.0430342430844
 30
0.0
 40
4.5
100
AcDbArc
 50
225.0
 51
270.0
  0
LINE
  5
BF4
330
20
100
AcDbEntity
  8
STEMPEL
100
AcDbLine
 10
278.8560971024624
 20
372.0430342430843
 30
0.0
 11
278.8560971024624
 21
383.5430342430843
 31
0.0
  0
LINE
  5
BF5
330
20
100
AcDbEntity
  8
STEMPEL
100
AcDbLine
 10
277.3560971024624
 20
372.0430342430843
 30
0.0
 11
277.3560971024624
 21
383.5430342430843
 31
0.0
  0
ARC
  5
BF6
330
20
100
AcDbEntity
  8
STEMPEL
100
AcDbCircle
 10
264.4159220796932
 20
385.7165804186794
 30
0.0
 40
3.0
100
AcDbArc
 50
45.0
 51
87.63760592908825
  0
ARC
  5
BF7
330
20
100
AcDbEntity
  8
STEMPEL
100
AcDbCircle
 10
264.4159220796932
 20
385.7165804186794
 30
0.0
 40
4.5
100
AcDbArc
 50
45.0
 51
87.63760592908825
  0
LINE
  5
BF8
330
20
100
AcDbEntity
  8
STEMPEL
100
AcDbLine
 10
270.5747496295271
 20
385.9217138995247
 30
0.0
 11
267.5979025950328
 21
388.898560934019
 31
0.0
  0
LINE
  5
BF9
330
20
100
AcDbEntity
  8
STEMPEL
100
AcDbLine
 10
269.5140894577471
 20
384.8610537277449
 30
0.0
 11
266.5372424232528
 21
387.8379007622391
 31
0.0
  0
LINE
  5
BFB
102
{ACAD_REACTORS
330
D9E
330
1E31
102
}
330
20
100
AcDbEntity
  8
STEMPEL
100
AcDbLine
 10
265.4214859903957
 20
388.5430342430843
 30
0.0
 11
229.0330066039655
 21
388.5430342430842
 31
0.0
  0
TEXT
  5
BFC
330
20
100
AcDbEntity
  8
TEXT
 62
     1
100
AcDbText
 10
297.1389668648297
 20
206.540551003705
 30
0.0
 40
7.0
  1
Enwässerungseinheit
 41
0.8
  7
GREEKS
100
AcDbText
  0
LINE
  5
BFE
330
20
100
AcDbEntity
  8
HILF
100
AcDbLine
 10
266.3560971024624
 20
390.1403664265892
 30
0.0
 11
282.3963753942628
 21
390.1403664265892
 31
0.0
  0
LINE
  5
BFF
330
20
100
AcDbEntity
  8
STEMPEL
100
AcDbLine
 10
232.9171983146571
 20
391.5160582447348
 30
0.0
 11
283.1906314357912
 21
391.5160582447348
 31
0.0
  0
LINE
  5
C00
330
20
100
AcDbEntity
  8
MITTEL
100
AcDbLine
 10
284.9541733138158
 20
385.5706023787489
 30
0.0
 11
278.4589827854325
 21
389.3206023787488
 31
0.0
  0
ARC
  5
C01
330
20
100
AcDbEntity
  8
STEMPEL
100
AcDbCircle
 10
277.7213784783985
 20
388.0430342430843
 30
0.0
 40
3.0
100
AcDbArc
 50
270.0
 51
329.9999999999995
  0
ARC
  5
C02
330
20
100
AcDbEntity
  8
STEMPEL
100
AcDbCircle
 10
277.7213784783985
 20
388.0430342430843
 30
0.0
 40
4.5
100
AcDbArc
 50
270.0
 51
329.9999999999995
  0
LINE
  5
C03
330
20
100
AcDbEntity
  8
STEMPEL
100
AcDbLine
 10
280.6255559023962
 20
384.6056291913131
 30
0.0
 11
279.1964497510096
 21
385.4307240125167
 31
0.0
  0
LINE
  5
C05
330
20
100
AcDbEntity
  8
STEMPEL
100
AcDbLine
 10
290.8560971024624
 20
401.7930342430843
 30
0.0
 11
281.6184927954284
 21
385.7930342430843
 31
0.0
  0
LINE
  5
C06
330
20
100
AcDbEntity
  8
STEMPEL
100
AcDbLine
 10
289.5570589967858
 20
402.5430342430842
 30
0.0
 11
280.3194546897519
 21
386.5430342430843
 31
0.0
  0
LINE
  5
C0C
330
20
100
AcDbEntity
  8
TEXT
 62
     2
100
AcDbLine
 10
295.5509154370308
 20
203.4972911291727
 30
0.0
 11
399.3523123572245
 21
203.4972911291727
 31
0.0
  0
TEXT
  5
C0D
330
20
100
AcDbEntity
  8
TEXT
 62
     1
100
AcDbText
 10
297.1389668648297
 20
193.6830036562174
 30
0.0
 40
7.0
  1
EDV-Art.Nr. 15119.050X
 41
0.8
  7
GREEKS
100
AcDbText
  0
ARC
  5
C12
102
{ACAD_REACTORS
330
D9E
330
FDA
102
}
330
20
100
AcDbEntity
  8
STEMPEL
100
AcDbCircle
 10
328.8560971024624
 20
372.0430342430843
 30
0.0
 40
51.5
100
AcDbArc
 50
180.0
 51
288.6445610304392
  0
ARC
  5
C13
330
20
100
AcDbEntity
  8
STEMPEL
100
AcDbCircle
 10
328.8560971024624
 20
372.0430342430843
 30
0.0
 40
50.0
100
AcDbArc
 50
180.0
 51
286.4738452635092
  0
LINE
  5
C15
330
20
100
AcDbEntity
  8
STEMPEL
100
AcDbLine
 10
385.0161242318382
 20
383.5430342430843
 30
0.0
 11
366.6450552372987
 21
383.5430342430843
 31
0.0
  0
LINE
  5
C18
102
{ACAD_REACTORS
330
E14
102
}
330
20
100
AcDbEntity
  8
MITTEL
100
AcDbLine
 10
328.8560971024624
 20
350.6449790638447
 30
0.0
 11
508.8560971024624
 21
341.2115787928973
 31
0.0
  0
LINE
  5
C1B
330
20
100
AcDbEntity
  8
TEXT
 62
     2
100
AcDbLine
 10
399.3523123572245
 20
203.4972911291727
 30
0.0
 11
483.1521222318948
 21
233.791751709842
 31
0.0
  0
LINE
  5
C1C
330
20
100
AcDbEntity
  8
STEMPEL
100
AcDbLine
 10
392.2907082145291
 20
388.5430342430843
 30
0.0
 11
428.6791876009594
 21
388.5430342430843
 31
0.0
  0
LINE
  5
C1D
330
20
100
AcDbEntity
  8
STEMPEL
100
AcDbLine
 10
393.1107826958152
 20
390.2127558680557
 30
0.0
 11
424.6095064608514
 21
391.5122336941111
 31
0.0
  0
LINE
  5
C1E
330
20
100
AcDbEntity
  8
STEMPEL
100
AcDbLine
 10
393.1726125056207
 20
388.7140307182637
 30
0.0
 11
424.6713362706568
 21
390.0135085443191
 31
0.0
  0
LINE
  5
C1F
330
20
100
AcDbEntity
  8
STEMPEL
100
AcDbLine
 10
374.5215627691337
 20
391.5160582447348
 30
0.0
 11
424.7949958902679
 21
391.5160582447348
 31
0.0
  0
LINE
  5
C21
102
{ACAD_REACTORS
330
FDA
330
FE6
102
}
330
20
100
AcDbEntity
  8
STEMPEL
100
AcDbLine
 10
342.9968233815134
 20
323.3675278331654
 30
0.0
 11
479.5131049711915
 21
316.213012679072
 31
0.0
  0
LINE
  5
C22
330
20
100
AcDbEntity
  8
STEMPEL
100
AcDbLine
 10
343.0753273158777
 20
324.8654721352971
 30
0.0
 11
479.5916089055558
 21
317.7109569812036
 31
0.0
  0
LINE
  5
C23
330
20
100
AcDbEntity
  8
STEMPEL
100
AcDbLine
 10
372.6742716583581
 20
373.3828744930814
 30
0.0
 11
479.1205852993691
 21
367.8042595822899
 31
0.0
  0
LINE
  5
C24
102
{ACAD_REACTORS
330
FCF
330
FE1
102
}
330
20
100
AcDbEntity
  8
STEMPEL
100
AcDbLine
 10
372.733626500763
 20
374.8818223565982
 30
0.0
 11
479.1990892337334
 21
369.3022038844217
 31
0.0
  0
LINE
  5
C27
330
20
100
AcDbEntity
  8
STEMPEL
100
AcDbLine
 10
231.0514133249589
 20
391.1110364342026
 30
0.0
 11
228.4110782740661
 21
389.9080269729068
 31
0.0
  0
LINE
  5
C28
330
20
100
AcDbEntity
  8
STEMPEL
100
AcDbLine
 10
231.6733416548582
 20
389.74604370438
 30
0.0
 11
229.0330066039655
 21
388.5430342430843
 31
0.0
  0
LINE
  5
C29
330
20
100
AcDbEntity
  8
STEMPEL
100
AcDbLine
 10
229.0330066039655
 20
388.5430342430843
 30
0.0
 11
228.4110782740661
 21
389.9080269729068
 31
0.0
  0
ARC
  5
C2A
330
20
100
AcDbEntity
  8
STEMPEL
100
AcDbCircle
 10
232.9171983146571
 20
387.0160582447348
 30
0.0
 40
3.0
100
AcDbArc
 50
87.63760592908825
 51
114.4953182524912
  0
ARC
  5
C2B
330
20
100
AcDbEntity
  8
STEMPEL
100
AcDbCircle
 10
232.9171983146571
 20
387.0160582447348
 30
0.0
 40
4.5
100
AcDbArc
 50
87.6376059290915
 51
114.4953182524955
  0
DIMENSION
  5
C42
330
20
100
AcDbEntity
  8
BEM
100
AcDbDimension
  2
*D4
 10
429.3011159308587
 20
541.9215884018528
 30
0.0
 11
328.8560971024624
 21
548.4215884018527
 31
0.0
 70
    32
  1
%%c201
 71
     5
 42
200.8900376567926
  3
Standard
100
AcDbAlignedDimension
 13
228.4110782740661
 23
389.9080269729068
 33
0.0
 14
429.3011159308587
 24
389.9080269729068
 34
0.0
100
AcDbRotatedDimension
1001
ACAD
1000
DSTYLE
1002
{
1070
    40
1040
2.0
1070
    41
1040
3.5
1070
    42
1040
1.0
1070
    43
1040
7.0
1070
    44
1040
1.0
1070
    47
1040
2.799999999999999
1070
    48
1040
2.799999999999999
1070
    73
1070
     0
1070
    74
1070
     0
1070
    77
1070
     1
1070
    78
1070
     8
1070
    79
1070
     2
1070
   140
1040
3.5
1070
   141
1040
1.5
1070
   146
1040
0.5142857142857144
1070
   147
1040
1.5
1070
   172
1070
     1
1070
   178
1070
     1
1070
   179
1070
     2
1070
   271
1070
     2
1070
   272
1070
     2
1070
   284
1070
     8
1070
   285
1070
     8
1070
   286
1070
     8
1002
}
  0
LINE
  5
C48
330
20
100
AcDbEntity
  8
STEMPEL
100
AcDbLine
 10
264.6014115091095
 20
390.2127558680557
 30
0.0
 11
233.1026877440734
 21
391.5122336941111
 31
0.0
  0
LINE
  5
C49
330
20
100
AcDbEntity
  8
STEMPEL
100
AcDbLine
 10
264.5395816993041
 20
388.7140307182637
 30
0.0
 11
233.0408579342679
 21
390.0135085443191
 31
0.0
  0
DIMENSION
  5
D87
102
{ACAD_XDICTIONARY
360
D94
102
}
102
{ACAD_REACTORS
330
D9E
102
}
330
20
100
AcDbEntity
  8
BEM
100
AcDbDimension
  2
*D5
 10
210.8047282460165
 20
388.5430342430842
 30
0.0
 11
204.3047282460165
 21
354.5430342430843
 31
0.0
 70
    32
 71
     5
 42
67.99999999999989
  3
Standard
100
AcDbAlignedDimension
 13
328.8560971024624
 23
320.5430342430843
 33
0.0
 14
229.0330066039655
 24
388.5430342430842
 34
0.0
 50
90.0
100
AcDbRotatedDimension
1001
ACAD
1000
DSTYLE
1002
{
1070
    40
1040
2.0
1070
    41
1040
3.5
1070
    42
1040
1.0
1070
    43
1040
7.0
1070
    44
1040
1.0
1070
    47
1040
2.799999999999999
1070
    48
1040
2.799999999999999
1070
    73
1070
     0
1070
    74
1070
     0
1070
    77
1070
     1
1070
    78
1070
     8
1070
    79
1070
     2
1070
   140
1040
3.5
1070
   141
1040
1.5
1070
   146
1040
0.5142857142857144
1070
   147
1040
1.5
1070
   172
1070
     1
1070
   178
1070
     1
1070
   179
1070
     2
1070
   271
1070
     2
1070
   272
1070
     2
1070
   284
1070
     8
1070
   285
1070
     8
1070
   286
1070
     8
1002
}
  0
TEXT
  5
DFB
330
20
100
AcDbEntity
  8
TEXT
 62
     1
100
AcDbText
 10
498.5061143641432
 20
445.1817234442982
 30
0.0
 40
7.0
  1
DN50
 50
90.0
 41
0.8
  7
GREEKS
100
AcDbText
  0
TEXT
  5
DFC
330
20
100
AcDbEntity
  8
TEXT
 62
     1
100
AcDbText
 10
424.0639498730114
 20
353.0070248857394
 30
0.0
 40
7.0
  1
DN50
 50
357.0
 41
0.8
  7
GREEKS
100
AcDbText
  0
DIMENSION
  5
DFD
102
{ACAD_XDICTIONARY
360
E0A
102
}
102
{ACAD_REACTORS
330
E14
102
}
330
20
100
AcDbEntity
  8
BEM
100
AcDbDimension
  2
*D6
 10
508.8560971024621
 20
145.2115969181083
 30
0.0
 11
497.359111246468
 21
362.9974285750263
 31
0.0
 70
   162
 71
     5
 42
1.518436449235069
  3
Standard
100
AcDb2LineAngularDimension
 13
328.8560971024624
 23
350.6449790638447
 33
0.0
 14
508.8560971024624
 24
341.2115787928973
 34
0.0
 15
508.8560971024624
 25
523.2115969181086
 35
0.0
 16
487.9657970669629
 26
354.2652870372712
 36
0.0
1001
ACAD
1000
DSTYLE
1002
{
1070
    40
1040
2.0
1070
    41
1040
3.5
1070
    42
1040
1.0
1070
    43
1040
7.0
1070
    44
1040
1.0
1070
    47
1040
2.799999999999999
1070
    48
1040
2.799999999999999
1070
    73
1070
     0
1070
    74
1070
     0
1070
    77
1070
     1
1070
    78
1070
     8
1070
    79
1070
     2
1070
   140
1040
3.5
1070
   141
1040
1.5
1070
   146
1040
0.5142857142857144
1070
   147
1040
1.5
1070
   172
1070
     1
1070
   178
1070
     1
1070
   179
1070
     2
1070
   271
1070
     2
1070
   272
1070
     2
1070
   284
1070
     8
1070
   285
1070
     8
1070
   286
1070
     8
1002
}
  0
LINE
  5
EE0
330
20
100
AcDbEntity
  8
HILF
  6
Continuous
100
AcDbLine
 10
482.209943665545
 20
495.6554663923096
 30
0.0
 11
535.5022505393799
 21
495.6554663923096
 31
0.0
  0
LINE
  5
EE1
330
20
100
AcDbEntity
  8
HILF
  6
Continuous
100
AcDbLine
 10
482.8278352631426
 20
422.7443804044021
 30
0.0
 11
534.8843589417824
 21
422.7443804044021
 31
0.0
  0
LINE
  5
EE2
330
20
100
AcDbEntity
  8
HILF
  6
Continuous
100
AcDbLine
 10
485.0439991416841
 20
417.685952226601
 30
0.0
 11
532.6681950632408
 21
417.685952226601
 31
0.0
  0
ARC
  5
EE5
330
20
100
AcDbEntity
  8
STEMPEL
  6
Continuous
100
AcDbCircle
 10
469.3560971024624
 20
493.7115969181083
 30
0.0
 40
11.5
100
AcDbArc
 50
0.0
 51
19.46309944468765
  0
ARC
  5
EE6
330
20
100
AcDbEntity
  8
STEMPEL
  6
Continuous
100
AcDbCircle
 10
469.3560971024624
 20
493.7115969181083
 30
0.0
 40
10.0
100
AcDbArc
 50
0.0
 51
19.46309944468765
  0
ARC
  5
EE7
330
20
100
AcDbEntity
  8
STEMPEL
  6
Continuous
100
AcDbCircle
 10
491.3560971024625
 20
425.6199238313042
 30
0.0
 40
12.0
100
AcDbArc
 50
180.0
 51
211.7883306170516
  0
ARC
  5
EE8
330
20
100
AcDbEntity
  8
STEMPEL
  6
Continuous
100
AcDbCircle
 10
491.3560971024625
 20
425.6199238313042
 30
0.0
 40
10.5
100
AcDbArc
 50
180.0
 51
211.7883306170516
  0
ARC
  5
EE9
330
20
100
AcDbEntity
  8
STEMPEL
  6
Continuous
100
AcDbCircle
 10
474.3560971024624
 20
415.0842700784515
 30
0.0
 40
8.0
100
AcDbArc
 50
0.0
 51
31.78833061705163
  0
ARC
  5
EEA
330
20
100
AcDbEntity
  8
STEMPEL
  6
Continuous
100
AcDbCircle
 10
474.3560971024624
 20
415.0842700784513
 30
0.0
 40
9.5
100
AcDbArc
 50
0.0
 51
31.78833061705163
  0
LINE
  5
EED
330
20
100
AcDbEntity
  8
STEMPEL
100
AcDbLine
 10
482.3560971024624
 20
420.2115969181082
 30
0.0
 11
482.3560971024624
 21
420.2077454614312
 31
0.0
  0
LINE
  5
EEE
330
20
100
AcDbEntity
  8
STEMPEL
  6
Continuous
100
AcDbLine
 10
479.3560971024625
 20
493.7115969181083
 30
0.0
 11
479.3560971024625
 21
425.6199238313042
 31
0.0
  0
LINE
  5
EEF
330
20
100
AcDbEntity
  8
STEMPEL
  6
Continuous
100
AcDbLine
 10
480.8560971024625
 20
493.7115969181083
 30
0.0
 11
480.8560971024625
 21
425.6199238313042
 31
0.0
  0
ARC
  5
EF0
330
20
100
AcDbEntity
  8
STEMPEL
  6
Continuous
100
AcDbCircle
 10
496.8560971024626
 20
509.8290955754475
 30
0.0
 40
19.5
100
AcDbArc
 50
154.5405714311904
 51
180.0
  0
ARC
  5
EF1
330
20
100
AcDbEntity
  8
STEMPEL
  6
Continuous
100
AcDbCircle
 10
496.8560971024626
 20
509.8290955754475
 30
0.0
 40
18.0
100
AcDbArc
 50
155.0000000000036
 51
180.0
  0
ARC
  5
EF2
330
20
100
AcDbEntity
  8
STEMPEL
  6
Continuous
100
AcDbCircle
 10
502.3560971024625
 20
505.3735969181082
 30
0.0
 40
25.00003205712822
100
AcDbArc
 50
179.9082450082395
 51
199.4630994446876
  0
ARC
  5
EF3
330
20
100
AcDbEntity
  8
STEMPEL
  6
Continuous
100
AcDbCircle
 10
502.3560971024625
 20
505.3735969181082
 30
0.0
 40
23.5000320571282
100
AcDbArc
 50
179.905361955203
 51
199.4630994446876
  0
LINE
  5
EF4
330
20
100
AcDbEntity
  8
STEMPEL
  6
Continuous
100
AcDbLine
 10
477.3560971024624
 20
509.8290955754475
 30
0.0
 11
477.3560971024624
 21
505.4136326201166
 31
0.0
  0
LINE
  5
EF5
330
20
100
AcDbEntity
  8
STEMPEL
  6
Continuous
100
AcDbLine
 10
478.8560971024625
 20
509.8290955754475
 30
0.0
 11
478.8560971024625
 21
505.412412972173
 31
0.0
  0
LINE
  5
EF6
330
20
100
AcDbEntity
  8
STEMPEL
  6
Continuous
100
AcDbLine
 10
478.8560971024625
 20
505.3735969181083
 30
0.0
 11
478.8560650453343
 21
505.3735969181083
 31
0.0
  0
LINE
  5
EF7
330
20
100
AcDbEntity
  8
STEMPEL
  6
Continuous
100
AcDbLine
 10
480.904119131715
 20
518.2115969181082
 30
0.0
 11
480.5425569358031
 21
517.4362242867805
 31
0.0
  0
LINE
  5
EF8
330
20
100
AcDbEntity
  8
STEMPEL
  6
Continuous
100
AcDbLine
 10
479.2490522532713
 20
518.2115969181082
 30
0.0
 11
479.1830952552479
 21
518.070151679391
 31
0.0
  0
ARC
  5
EF9
330
20
100
AcDbEntity
  8
STEMPEL
  6
Continuous
100
AcDbCircle
 10
548.3560971024626
 20
493.7115969181084
 30
0.0
 40
10.0
100
AcDbArc
 50
160.5369005553123
 51
180.0
  0
ARC
  5
EFA
330
20
100
AcDbEntity
  8
STEMPEL
  6
Continuous
100
AcDbCircle
 10
548.3560971024626
 20
493.7115969181084
 30
0.0
 40
11.5
100
AcDbArc
 50
160.5369005553123
 51
180.0
  0
ARC
  5
EFC
330
20
100
AcDbEntity
  8
STEMPEL
  6
Continuous
100
AcDbCircle
 10
526.3560971024624
 20
425.6199238313042
 30
0.0
 40
10.5
100
AcDbArc
 50
328.2116693829483
 51
0.0
  0
ARC
  5
EFD
330
20
100
AcDbEntity
  8
STEMPEL
  6
Continuous
100
AcDbCircle
 10
526.3560971024624
 20
425.6199238313042
 30
0.0
 40
12.0
100
AcDbArc
 50
328.2116693829483
 51
0.0
  0
ARC
  5
EFE
330
20
100
AcDbEntity
  8
STEMPEL
  6
Continuous
100
AcDbCircle
 10
543.3560971024625
 20
415.0842700784514
 30
0.0
 40
9.5
100
AcDbArc
 50
148.2116693829484
 51
180.0
  0
ARC
  5
EFF
330
20
100
AcDbEntity
  8
STEMPEL
  6
Continuous
100
AcDbCircle
 10
543.3560971024625
 20
415.0842700784515
 30
0.0
 40
8.0
100
AcDbArc
 50
148.2116693829484
 51
180.0
  0
LINE
  5
F02
330
20
100
AcDbEntity
  8
STEMPEL
100
AcDbLine
 10
535.3560971024626
 20
420.2115969181083
 30
0.0
 11
535.3560971024626
 21
420.2077454614312
 31
0.0
  0
LINE
  5
F03
330
20
100
AcDbEntity
  8
STEMPEL
  6
Continuous
100
AcDbLine
 10
538.3560971024624
 20
493.7115969181083
 30
0.0
 11
538.3560971024624
 21
425.6199238313042
 31
0.0
  0
LINE
  5
F04
330
20
100
AcDbEntity
  8
STEMPEL
  6
Continuous
100
AcDbLine
 10
536.8560971024626
 20
493.7115969181083
 30
0.0
 11
536.8560971024626
 21
425.6199238313042
 31
0.0
  0
ARC
  5
F05
330
20
100
AcDbEntity
  8
STEMPEL
  6
Continuous
100
AcDbCircle
 10
520.8560971024623
 20
509.8290955754475
 30
0.0
 40
19.5
100
AcDbArc
 50
0.0
 51
25.45942856880385
  0
ARC
  5
F06
330
20
100
AcDbEntity
  8
STEMPEL
  6
Continuous
100
AcDbCircle
 10
520.8560971024623
 20
509.8290955754475
 30
0.0
 40
18.0
100
AcDbArc
 50
0.0
 51
24.99999999999344
  0
ARC
  5
F07
330
20
100
AcDbEntity
  8
STEMPEL
  6
Continuous
100
AcDbCircle
 10
515.3560971024623
 20
505.3735969181083
 30
0.0
 40
25.00003205712822
100
AcDbArc
 50
340.5369005553124
 51
0.0917549917604792
  0
ARC
  5
F08
330
20
100
AcDbEntity
  8
STEMPEL
  6
Continuous
100
AcDbCircle
 10
515.3560971024623
 20
505.3735969181083
 30
0.0
 40
23.5000320571282
100
AcDbArc
 50
340.5369005553124
 51
0.0946380447970313
  0
LINE
  5
F09
330
20
100
AcDbEntity
  8
STEMPEL
  6
Continuous
100
AcDbLine
 10
538.8560971024624
 20
509.8290955754475
 30
0.0
 11
538.8560971024624
 21
505.4124129721732
 31
0.0
  0
LINE
  5
F0A
330
20
100
AcDbEntity
  8
STEMPEL
  6
Continuous
100
AcDbLine
 10
540.3560971024623
 20
509.8290955754475
 30
0.0
 11
540.3560971024626
 21
505.4136326201167
 31
0.0
  0
LINE
  5
F0B
330
20
100
AcDbEntity
  8
STEMPEL
  6
Continuous
100
AcDbLine
 10
538.8560971024624
 20
505.3735969181084
 30
0.0
 11
538.8561291595906
 21
505.3735969181084
 31
0.0
  0
LINE
  5
F0C
330
20
100
AcDbEntity
  8
STEMPEL
  6
Continuous
100
AcDbLine
 10
536.8080750732099
 20
518.2115969181084
 30
0.0
 11
537.1696372691219
 21
517.4362242867805
 31
0.0
  0
LINE
  5
F0D
330
20
100
AcDbEntity
  8
STEMPEL
  6
Continuous
100
AcDbLine
 10
538.4631419516535
 20
518.2115969181084
 30
0.0
 11
538.5290989496771
 21
518.070151679391
 31
0.0
  0
DIMENSION
  5
F0F
102
{ACAD_XDICTIONARY
360
F1C
102
}
102
{ACAD_REACTORS
330
F26
102
}
330
20
100
AcDbEntity
  8
BEM
100
AcDbDimension
  2
*D7
 10
556.9774173617617
 20
420.2115969181082
 30
0.0
 11
550.4774173617617
 21
469.2115969181083
 31
0.0
 70
    32
 71
     5
 42
98.0
  3
Standard
100
AcDbAlignedDimension
 13
538.4631419516536
 23
518.2115969181082
 33
0.0
 14
537.0682397452766
 24
420.2115969181082
 34
0.0
 50
90.0
100
AcDbRotatedDimension
1001
ACAD
1000
DSTYLE
1002
{
1070
    40
1040
2.0
1070
    41
1040
3.5
1070
    42
1040
1.0
1070
    43
1040
7.0
1070
    44
1040
1.0
1070
    47
1040
2.799999999999999
1070
    48
1040
2.799999999999999
1070
    73
1070
     0
1070
    74
1070
     0
1070
    77
1070
     1
1070
    78
1070
     8
1070
    79
1070
     2
1070
   140
1040
3.5
1070
   141
1040
1.5
1070
   146
1040
0.5
1070
   147
1040
1.5
1070
   172
1070
     1
1070
   178
1070
     1
1070
   179
1070
     2
1070
   271
1070
     2
1070
   272
1070
     2
1070
   284
1070
     8
1070
   285
1070
     8
1070
   286
1070
     8
1002
}
  0
HATCH
  5
F7A
330
20
100
AcDbEntity
  8
SCHRAFF
100
AcDbHatch
 10
0.0
 20
0.0
 30
0.0
210
0.0
220
0.0
230
1.0
  2
_USER
 70
     0
 71
     0
 91
        3
 92
        7
 72
     1
 73
     1
 93
       22
 10
538.3560971024624
 20
493.7115969181083
 42
-0.0851285408962472
 10
538.927534309681
 20
497.0435938662724
 42
0.0847252966083212
 10
540.3560971024626
 20
505.3335612161353
 42
0.0
 10
540.3560971024623
 20
509.8290955754475
 42
0.1115469390821234
 10
538.4624502523991
 20
518.2115969181082
 42
0.0
 10
536.8080750732097
 20
518.2115969181081
 42
0.0
 10
537.1696372691219
 20
517.4362242867805
 42
-0.1095178116832477
 10
538.8560971024624
 20
509.8290955754475
 42
0.0
 10
538.8560971024624
 20
505.4124129721732
 42
-0.0855444844068111
 10
537.5132498907638
 20
497.5433934084975
 42
0.0851285408962502
 10
536.8560971024626
 20
493.7115969181087
 42
0.0
 10
536.8560971024626
 20
425.6199238313042
 42
-0.1361061113099423
 10
535.3560971024626
 20
420.2115969181086
 42
0.0
 10
535.3560971024626
 20
420.2077454614313
 42
0.1433758286905731
 10
533.8560971024624
 20
415.0842700784515
 42
0.0
 10
533.8560971024622
 20
156.2115969181113
 42
0.0
 10
533.3311651213067
 20
150.2115969181084
 42
0.0
 10
534.8311651213066
 20
150.2115969181084
 42
0.0
 10
535.3560971024623
 20
156.2115969181116
 42
0.0
 10
535.3560971024624
 20
415.0842700784515
 42
-0.1395991324168651
 10
536.5560971024627
 20
419.2985315795927
 42
0.1395991324168587
 10
538.3560971024624
 20
425.6199238313042
 42
0.0
 97
        0
 92
        7
 72
     1
 73
     1
 93
       23
 10
480.8560971024625
 20
493.7115969181083
 42
0.08512854089625
 10
480.1989443141613
 20
497.543393408497
 42
-0.0855444844068148
 10
478.8560971024625
 20
505.412412972173
 42
0.0
 10
478.8560971024625
 20
509.8290955754475
 42
-0.1095178116832487
 10
480.5425569358031
 20
517.4362242867805
 42
0.0
 10
480.9041191317152
 20
518.2115969181082
 42
0.0
 10
479.2497439525257
 20
518.2115969181082
 42
0.1115469390821245
 10
477.3560971024624
 20
509.8290955754475
 42
0.0
 10
477.3560971024624
 20
505.3335612161314
 42
0.0847252966082811
 10
478.784659895244
 20
497.0435938662725
 42
-0.0851285408962484
 10
479.3560971024625
 20
493.7115969181084
 42
0.0
 10
479.3560971024625
 20
425.6199238313042
 42
0.1395991324168587
 10
481.1560971024626
 20
419.2985315795927
 42
-0.1395991324168539
 10
482.3560971024625
 20
415.0842700784518
 42
0.0
 10
482.3560971024626
 20
372.2980924886854
 42
-0.4296339059668668
 10
479.1990892337334
 20
369.3022038844217
 42
0.0
 10
478.8560971024622
 20
369.3201793403332
 42
0.0
 10
478.8560971024622
 20
367.8259565336858
 42
0.4472135954999843
 10
483.8560971024626
 20
372.2980924886854
 42
0.0
 10
483.8560971024626
 20
415.0842700784513
 42
0.1433758286905707
 10
482.3560971024624
 20
420.2077454614311
 42
0.0
 10
482.3560971024624
 20
420.2115969181083
 42
-0.1361061113099494
 10
480.8560971024625
 20
425.6199238313042
 42
0.0
 97
        0
 92
        7
 72
     1
 73
     1
 93
       10
 10
483.8560971024624
 20
313.2171240748083
 42
0.3989595459736919
 10
479.5916089055558
 20
317.7109569812036
 42
0.0
 10
478.8560971024623
 20
317.7495035214402
 42
0.0
 10
478.8560971024623
 20
316.2474450024435
 42
0.0
 10
479.5131049711915
 20
316.213012679072
 42
-0.3989595459736928
 10
482.3560971024623
 20
313.2171240748083
 42
0.0
 10
482.3560971024624
 20
156.2115969181013
 42
0.0
 10
482.881029083618
 20
150.2115969181084
 42
0.0
 10
484.3810290836176
 20
150.2115969181084
 42
0.0
 10
483.8560971024624
 20
156.211596918103
 42
0.0
 97
        0
 75
     0
 76
     0
 52
45.0
 41
2.0
 77
     0
 78
     1
 53
45.0
 43
1.184084988100948
 44
-16.56544868783908
 45
-1.414213562373094
 46
1.414213562373095
 79
     0
 47
0.768597328551206
 98
        3
 10
537.6390257933697
 20
447.637084709246
 10
479.9534545603099
 20
453.0172665270131
 10
483.0300171949418
 20
266.2481153033934
  0
HATCH
  5
F8B
330
20
100
AcDbEntity
  8
SCHRAFF
100
AcDbHatch
 10
0.0
 20
0.0
 30
0.0
210
0.0
220
0.0
230
1.0
  2
_USER
 70
     0
 71
     0
 91
        4
 92
        7
 72
     0
 73
     1
 93
        4
 10
478.8560971024622
 20
367.8181208213363
 10
478.8560971024624
 20
369.3201793403332
 10
473.8560971024623
 20
369.5822182367483
 10
473.8560971024623
 20
368.0801597177516
 97
        0
 92
        7
 72
     1
 73
     1
 93
        4
 10
473.8560971024623
 20
368.0801597177516
 42
0.0
 10
473.8560971024623
 20
369.5822182367483
 42
0.0
 10
373.9994637991314
 20
374.815482634857
 42
-0.0271707336630885
 10
372.674271658358
 20
373.3828744930814
 42
0.0
 97
        0
 92
        7
 72
     0
 73
     1
 93
        4
 10
478.8560971024622
 20
316.2474450024436
 10
478.8560971024623
 20
317.7495035214402
 10
473.8560971024623
 20
318.0115424178556
 10
473.8560971024624
 20
316.5094838988587
 97
        0
 92
        7
 72
     0
 73
     1
 93
        4
 10
343.0753273158779
 20
324.8654721352971
 10
342.9968233815135
 20
323.3675278331653
 10
473.8560971024623
 20
316.5094838988588
 10
473.8560971024623
 20
318.0115424178555
 97
        0
 75
     0
 76
     0
 52
135.0
 41
2.0
 77
     0
 78
     1
 53
135.0
 43
1.184084988100948
 44
-16.56544868783908
 45
-1.414213562373095
 46
-1.414213562373094
 79
     0
 47
0.2118181625180215
 98
        4
 10
476.0895812490759
 20
368.347495507996
 10
472.2741591356554
 20
368.5593143068806
 10
476.9374542854168
 20
317.0875001180284
 10
465.7031518374981
 20
317.7229551152268
  0
HATCH
  5
F9B
330
20
100
AcDbEntity
  8
SCHRAFF
100
AcDbHatch
 10
0.0
 20
0.0
 30
0.0
210
0.0
220
0.0
230
1.0
  2
_USER
 70
     0
 71
     0
 91
        3
 92
        7
 72
     0
 73
     1
 93
        4
 10
380.3560971024627
 20
383.5430342430844
 10
378.8560971024625
 20
383.5430342430844
 10
378.8560971024626
 20
374.5609572686374
 10
380.3560971024626
 20
374.4823455997127
 97
        0
 92
        7
 72
     1
 73
     1
 93
        6
 10
278.8560971024624
 20
383.5430342430844
 42
0.0
 10
277.3560971024624
 20
383.5430342430844
 42
0.0
 10
277.3560971024624
 20
372.0430342430843
 42
0.4142135623730953
 10
328.8560971024624
 20
320.5430342430843
 42
0.0
 10
328.8560971024624
 20
322.0430342430843
 42
-0.4142135623730952
 10
278.8560971024624
 20
372.0430342430843
 42
0.0
 97
        0
 92
        7
 72
     1
 73
     1
 93
        5
 10
345.3204579446856
 20
323.2457513058442
 42
0.0
 10
342.9968233815134
 20
323.3675278331654
 42
0.0
 10
340.7735101206498
 20
323.4840467438177
 42
-0.0602388900209465
 10
328.8560971024624
 20
322.0430342430843
 42
0.0
 10
328.8560971024624
 20
320.5430342430843
 42
0.0815321889103937
 97
        0
 75
     0
 76
     0
 52
45.0
 41
2.0
 77
     0
 78
     1
 53
45.0
 43
1.184084988100948
 44
-16.56544868783908
 45
-1.414213562373094
 46
1.414213562373095
 79
     0
 47
0.1837505187104098
 98
        3
 10
379.8132324761493
 20
380.7914741886429
 10
278.4950858136387
 20
380.0564717171053
 10
338.4401234501972
 20
321.9913072536492
  0
HATCH
  5
FC8
330
20
100
AcDbEntity
  8
SCHRAFF
100
AcDbHatch
 10
0.0
 20
0.0
 30
0.0
210
0.0
220
0.0
230
1.0
  2
_USER
 70
     0
 71
     0
 91
        4
 92
        7
 72
     1
 73
     1
 93
       18
 10
424.6713362706568
 20
390.0135085443191
 42
-0.1177283015269127
 10
426.0388525500665
 20
389.74604370438
 42
0.0
 10
428.6791876009595
 20
388.5430342430843
 42
0.0
 10
429.3011159308588
 20
389.908026972907
 42
0.0
 10
426.660780879966
 20
391.1110364342027
 42
0.1177283015269134
 10
424.6095064608514
 20
391.5122336941111
 42
0.0
 10
393.1107826958152
 20
390.2127558680557
 42
0.1882181836572876
 10
390.1142916098923
 20
388.898560934019
 42
0.0
 10
387.1374445753977
 20
385.9217138995245
 42
-0.1989123673796629
 10
385.016124231838
 20
385.0430342430842
 42
0.0
 10
379.9908157265261
 20
385.0430342430843
 42
-0.1292196001266675
 10
378.5157444539169
 20
385.4307240125178
 42
0.0
 10
377.0866383025286
 20
384.6056291913132
 42
0.177198246999804
 10
379.9908157265263
 20
383.5430342430843
 42
0.0
 10
385.0161242318382
 20
383.5430342430843
 42
0.1989123673796627
 10
388.1981047471777
 20
384.8610537277449
 42
0.0
 10
391.174951781672
 20
387.8379007622391
 42
-0.1882181836572925
 10
393.1726125056207
 20
388.7140307182637
 42
0.0
 97
        0
 92
        7
 72
     0
 73
     1
 93
        4
 10
368.155135208139
 20
402.5430342430842
 10
366.8560971024624
 20
401.7930342430843
 10
373.8560971024624
 20
389.6686785901022
 10
375.155135208139
 20
390.4186785901022
 97
        0
 92
        7
 72
     0
 73
     1
 93
        4
 10
290.8560971024624
 20
401.7930342430843
 10
289.5570589967859
 20
402.5430342430843
 10
282.5570589967859
 20
390.4186785901022
 10
283.8560971024624
 20
389.6686785901022
 97
        0
 92
        7
 72
     1
 73
     1
 93
       18
 10
264.6014115091097
 20
390.2127558680557
 42
0.0
 10
233.1026877440734
 20
391.5122336941111
 42
0.1177283015269115
 10
231.0514133249588
 20
391.1110364342026
 42
0.0
 10
228.4110782740661
 20
389.9080269729068
 42
0.0
 10
229.0330066039655
 20
388.5430342430843
 42
0.0
 10
231.6733416548582
 20
389.74604370438
 42
-0.1177283015269151
 10
233.0408579342679
 20
390.0135085443191
 42
0.0
 10
264.5395816993041
 20
388.7140307182637
 42
-0.1882181836572925
 10
266.5372424232528
 20
387.8379007622391
 42
0.0
 10
269.5140894577471
 20
384.8610537277449
 42
0.1989123673796613
 10
272.6960699730867
 20
383.5430342430843
 42
0.0
 10
277.7213784783985
 20
383.5430342430843
 42
0.1771982469997985
 10
280.6255559023962
 20
384.6056291913131
 42
0.0
 10
279.1964497510078
 20
385.4307240125177
 42
-0.129219600126676
 10
277.7213784783985
 20
385.0430342430843
 42
0.0
 10
272.6960699730867
 20
385.0430342430844
 42
-0.198912367379655
 10
270.574749629527
 20
385.9217138995248
 42
0.0
 10
267.5979025950328
 20
388.898560934019
 42
0.188218183657294
 97
        0
 75
     0
 76
     0
 52
135.0
 41
2.0
 77
     0
 78
     1
 53
135.0
 43
1.184084988100948
 44
-16.56544868783908
 45
-1.414213562373095
 46
-1.414213562373094
 79
     0
 47
0.2778666397968555
 98
        4
 10
399.4278978495488
 20
389.4972145075924
 10
371.0654539715185
 20
395.8881475259518
 10
288.4806918781535
 20
398.3889466725504
 10
256.5034275135583
 20
389.7750820124072
  0
ARC
  5
FC9
330
20
100
AcDbEntity
  8
SCHRAFF
100
AcDbCircle
 10
380.3560971024624
 20
383.5430342430843
 30
0.0
 40
4.0
100
AcDbArc
 50
270.0000000000033
 51
0.0
  0
ARC
  5
FCA
102
{ACAD_REACTORS
330
FCF
102
}
330
20
100
AcDbEntity
  8
SCHRAFF
100
AcDbCircle
 10
380.3560971024624
 20
374.4823455997128
 30
0.0
 40
4.0
100
AcDbArc
 50
357.0000000000009
 51
90.0
  0
ARC
  5
FCB
330
20
100
AcDbEntity
  8
SCHRAFF
100
AcDbCircle
 10
277.3560971024624
 20
383.5430342430843
 30
0.0
 40
4.0
100
AcDbArc
 50
180.0
 51
269.9999999999968
  0
HATCH
  5
FCF
330
20
100
AcDbEntity
  8
SCHRAFF
100
AcDbHatch
 10
0.0
 20
0.0
 30
0.0
210
0.0
220
0.0
230
1.0
  2
_USER
 70
     0
 71
     1
 91
        1
 92
        7
 72
     1
 73
     1
 93
        3
 10
384.3506152414807
 20
374.273001774741
 42
0.4296339059668235
 10
380.3560971024626
 20
378.4823455997128
 42
0.0
 10
380.3560971024626
 20
374.4823455997128
 42
0.0
 97
        3
330
BCD
330
C24
330
FCA
 75
     0
 76
     0
 52
0.0
 41
0.1
 77
     0
 78
     1
 53
0.0
 43
1.184084988100948
 44
-16.56544868783908
 45
0.0
 46
0.1
 79
     0
 47
0.2059677466969959
 98
        1
 10
382.8264664193032
 20
375.5957840004942
  0
HATCH
  5
FD6
330
20
100
AcDbEntity
  8
SCHRAFF
100
AcDbHatch
 10
0.0
 20
0.0
 30
0.0
210
0.0
220
0.0
230
1.0
  2
_USER
 70
     0
 71
     0
 91
        2
 92
        7
 72
     1
 73
     1
 93
        3
 10
384.3560971024624
 20
383.5430342430843
 42
0.0
 10
380.3560971024626
 20
383.5430342430843
 42
0.0
 10
380.3560971024626
 20
379.5430342430843
 42
0.4142135623730784
 97
        0
 92
        7
 72
     1
 73
     1
 93
        3
 10
277.3560971024624
 20
383.5430342430844
 42
0.0
 10
273.3560971024624
 20
383.5430342430843
 42
0.4142135623730951
 10
277.3560971024624
 20
379.5430342430843
 42
0.0
 97
        0
 75
     0
 76
     0
 52
0.0
 41
0.1
 77
     0
 78
     1
 53
0.0
 43
1.184084988100948
 44
-16.56544868783908
 45
0.0
 46
0.1
 79
     0
 47
0.2059677466969959
 98
        2
 10
382.2081268660756
 20
381.7748156520893
 10
275.4413721621588
 20
382.1867510022319
  0
HATCH
  5
FDA
330
20
100
AcDbEntity
  8
SCHRAFF
100
AcDbHatch
 10
0.0
 20
0.0
 30
0.0
210
0.0
220
0.0
230
1.0
  2
_USER
 70
     0
 71
     1
 91
        1
 92
        7
 72
     1
 73
     1
 93
        3
 10
347.83897874776
 20
323.1137612234769
 42
0.0
 10
345.3204579446855
 20
323.2457513058442
 42
-0.0158878150574425
 10
342.1884454718597
 20
322.2987030388453
 42
0.4738753808361996
 97
        3
330
C21
330
C12
330
BE0
 75
     0
 76
     0
 52
0.0
 41
0.1
 77
     0
 78
     1
 53
0.0
 43
1.184084988100948
 44
-16.56544868783908
 45
0.0
 46
0.1
 79
     0
 47
0.0174342772184604
 98
        1
 10
346.1786493779521
 20
322.3780566015751
  0
ARC
  5
FDD
102
{ACAD_REACTORS
330
FE1
102
}
330
20
100
AcDbEntity
  8
SCHRAFF
100
AcDbCircle
 10
479.4814799020545
 20
366.8304687915125
 30
0.0
 40
4.4888372039961
100
AcDbArc
 50
58.06175056622305
 51
143.866386307071
  0
HATCH
  5
FE1
330
20
100
AcDbEntity
  8
SCHRAFF
100
AcDbHatch
 10
0.0
 20
0.0
 30
0.0
210
0.0
220
0.0
230
1.0
  2
_USER
 70
     0
 71
     1
 91
        1
 92
        7
 72
     1
 73
     1
 93
        3
 10
479.1990892337334
 20
369.3022038844217
 42
0.2653445720103078
 10
481.8560971024623
 20
370.6397800935075
 42
0.3929260996812457
 10
475.8560971024623
 20
369.4774026781823
 42
0.0
 97
        3
330
FDD
330
C24
330
BA9
 75
     0
 76
     0
 52
0.0
 41
0.1
 77
     0
 78
     1
 53
0.0
 43
1.184084988100948
 44
-16.56544868783908
 45
0.0
 46
0.1
 79
     0
 47
0.0340972230019043
 98
        1
 10
478.4936719999225
 20
370.0080153375402
  0
ARC
  5
FE2
102
{ACAD_REACTORS
330
FE6
102
}
330
20
100
AcDbEntity
  8
SCHRAFF
100
AcDbCircle
 10
480.1208318655006
 20
320.6022878421426
 30
0.0
 40
5.983976276806044
100
AcDbArc
 50
224.5455944690743
 51
286.8570767689173
  0
HATCH
  5
FE6
330
20
100
AcDbEntity
  8
SCHRAFF
100
AcDbHatch
 10
0.0
 20
0.0
 30
0.0
210
0.0
220
0.0
230
1.0
  2
_USER
 70
     0
 71
     1
 91
        1
 92
        7
 72
     1
 73
     1
 93
        3
 10
481.8560971024623
 20
314.8754364699863
 42
0.2375083728779096
 10
479.5131049711915
 20
316.213012679072
 42
0.0
 10
475.8560971024623
 20
316.4046683402927
 42
0.2787887214797364
 97
        3
330
C21
330
FE2
330
BA6
 75
     0
 76
     0
 52
0.0
 41
0.1
 77
     0
 78
     1
 53
0.0
 43
1.184084988100948
 44
-16.56544868783908
 45
0.0
 46
0.1
 79
     0
 47
0.0340972230019048
 98
        1
 10
479.0054914058949
 20
315.4865635095978
  0
LINE
  5
FE8
330
20
100
AcDbEntity
  8
HILF
100
AcDbLine
 10
483.5177538282233
 20
367.9759849822796
 30
0.0
 11
507.4377985550364
 21
344.1939289149134
 31
0.0
  0
LINE
  5
FE9
330
20
100
AcDbEntity
  8
HILF
100
AcDbLine
 10
507.44815678124
 20
341.3633530724079
 30
0.0
 11
483.6766080264972
 21
317.3804383021153
 31
0.0
  0
TEXT
  5
12A0
330
20
100
AcDbEntity
  8
VOLL
100
AcDbText
 10
948.6204115471021
 20
76.58612160796008
 30
0.0
 40
1.8
  1

  7
GREEKS
100
AcDbText
  0
LINE
  5
12AB
330
20
100
AcDbEntity
  8
STEMPEL
100
AcDbLine
 10
375.5560971024622
 20
517.2034924534389
 30
0.0
 11
375.5560971024622
 21
518.5160582447348
 31
0.0
  0
LINE
  5
12AC
330
20
100
AcDbEntity
  8
STEMPEL
100
AcDbLine
 10
376.3560971024624
 20
518.5160582447348
 30
0.0
 11
376.3560971024624
 21
512.5160582447347
 31
0.0
  0
LINE
  5
12AD
330
20
100
AcDbEntity
  8
STEMPEL
100
AcDbLine
 10
379.3560971024624
 20
518.5160582447348
 30
0.0
 11
379.3560971024624
 21
509.5160582447348
 31
0.0
  0
LINE
  5
12AF
330
20
100
AcDbEntity
  8
STEMPEL
100
AcDbLine
 10
358.7310971024624
 20
512.5160582447348
 30
0.0
 11
358.6060971024625
 21
514.5160582447348
 31
0.0
  0
LINE
  5
12B0
330
20
100
AcDbEntity
  8
STEMPEL
100
AcDbLine
 10
364.8560971024624
 20
487.5160582447348
 30
0.0
 11
365.3560971024624
 21
487.5160582447348
 31
0.0
  0
LINE
  5
12B1
330
20
100
AcDbEntity
  8
STEMPEL
100
AcDbLine
 10
364.8560971024624
 20
490.5160582447349
 30
0.0
 11
365.3560971024624
 21
490.5160582447348
 31
0.0
  0
LINE
  5
12B2
330
20
100
AcDbEntity
  8
STEMPEL
100
AcDbLine
 10
364.8560971024624
 20
490.5160582447349
 30
0.0
 11
364.8560971024624
 21
487.5160582447348
 31
0.0
  0
LINE
  5
12B3
330
20
100
AcDbEntity
  8
STEMPEL
100
AcDbLine
 10
365.3560971024624
 20
502.5160582447348
 30
0.0
 11
365.3560971024624
 21
490.5160582447348
 31
0.0
  0
LINE
  5
12B4
330
20
100
AcDbEntity
  8
STEMPEL
100
AcDbLine
 10
365.3560971024624
 20
502.5160582447348
 30
0.0
 11
372.3560971024622
 21
509.5160582447348
 31
0.0
  0
LINE
  5
12B5
330
20
100
AcDbEntity
  8
STEMPEL
100
AcDbLine
 10
370.8560971024624
 20
512.5160582447348
 30
0.0
 11
360.8560971024624
 21
502.5160582447348
 31
0.0
  0
LINE
  5
12B6
330
20
100
AcDbEntity
  8
STEMPEL
100
AcDbLine
 10
353.9810971024624
 20
512.5160582447348
 30
0.0
 11
354.1060971024624
 21
514.5160582447348
 31
0.0
  0
LINE
  5
12B9
330
20
100
AcDbEntity
  8
STEMPEL
100
AcDbLine
 10
372.3560971024622
 20
509.5160582447348
 30
0.0
 11
379.3560971024624
 21
509.5160582447348
 31
0.0
  0
LINE
  5
12BA
330
20
100
AcDbEntity
  8
STEMPEL
100
AcDbLine
 10
364.8560971024624
 20
475.5160582447348
 30
0.0
 11
365.3560971024624
 21
475.5160582447348
 31
0.0
  0
LINE
  5
12BB
330
20
100
AcDbEntity
  8
STEMPEL
100
AcDbLine
 10
364.8560971024624
 20
472.5160582447348
 30
0.0
 11
365.3560971024624
 21
472.5160582447348
 31
0.0
  0
LINE
  5
12BC
330
20
100
AcDbEntity
  8
STEMPEL
100
AcDbLine
 10
364.8560971024624
 20
472.5160582447348
 30
0.0
 11
364.8560971024624
 21
475.5160582447348
 31
0.0
  0
LINE
  5
12BD
330
20
100
AcDbEntity
  8
STEMPEL
100
AcDbLine
 10
364.8560971024624
 20
460.5160582447348
 30
0.0
 11
365.3560971024624
 21
460.5160582447348
 31
0.0
  0
LINE
  5
12BE
330
20
100
AcDbEntity
  8
STEMPEL
100
AcDbLine
 10
364.8560971024624
 20
457.5160582447349
 30
0.0
 11
365.3560971024624
 21
457.5160582447349
 31
0.0
  0
LINE
  5
12BF
330
20
100
AcDbEntity
  8
STEMPEL
100
AcDbLine
 10
364.8560971024624
 20
460.5160582447349
 30
0.0
 11
364.8560971024624
 21
457.5160582447349
 31
0.0
  0
LINE
  5
12C0
330
20
100
AcDbEntity
  8
STEMPEL
100
AcDbLine
 10
364.8560971024624
 20
445.5160582447349
 30
0.0
 11
365.3560971024624
 21
445.5160582447349
 31
0.0
  0
LINE
  5
12C1
330
20
100
AcDbEntity
  8
STEMPEL
100
AcDbLine
 10
364.8560971024624
 20
442.5160582447349
 30
0.0
 11
365.3560971024624
 21
442.5160582447349
 31
0.0
  0
LINE
  5
12C2
330
20
100
AcDbEntity
  8
STEMPEL
100
AcDbLine
 10
364.8560971024624
 20
445.5160582447349
 30
0.0
 11
364.8560971024624
 21
442.5160582447349
 31
0.0
  0
LINE
  5
12C3
330
20
100
AcDbEntity
  8
STEMPEL
100
AcDbLine
 10
365.3560971024624
 20
457.5160582447349
 30
0.0
 11
365.3560971024624
 21
445.5160582447349
 31
0.0
  0
LINE
  5
12C4
330
20
100
AcDbEntity
  8
STEMPEL
100
AcDbLine
 10
365.3560971024624
 20
472.5160582447348
 30
0.0
 11
365.3560971024624
 21
460.5160582447348
 31
0.0
  0
LINE
  5
12C5
330
20
100
AcDbEntity
  8
STEMPEL
100
AcDbLine
 10
364.8560971024624
 20
430.5160582447348
 30
0.0
 11
365.3560971024624
 21
430.5160582447348
 31
0.0
  0
LINE
  5
12C6
330
20
100
AcDbEntity
  8
STEMPEL
100
AcDbLine
 10
364.8560971024624
 20
427.5160582447348
 30
0.0
 11
365.3560971024624
 21
427.5160582447348
 31
0.0
  0
LINE
  5
12C7
330
20
100
AcDbEntity
  8
STEMPEL
100
AcDbLine
 10
364.8560971024624
 20
430.5160582447348
 30
0.0
 11
364.8560971024624
 21
427.5160582447348
 31
0.0
  0
LINE
  5
12C8
330
20
100
AcDbEntity
  8
STEMPEL
100
AcDbLine
 10
364.8560971024624
 20
412.5160582447349
 30
0.0
 11
365.3560971024624
 21
412.5160582447349
 31
0.0
  0
LINE
  5
12C9
330
20
100
AcDbEntity
  8
STEMPEL
100
AcDbLine
 10
364.8560971024624
 20
415.5160582447349
 30
0.0
 11
365.3560971024624
 21
415.5160582447349
 31
0.0
  0
LINE
  5
12CA
330
20
100
AcDbEntity
  8
STEMPEL
100
AcDbLine
 10
364.8560971024624
 20
415.5160582447349
 30
0.0
 11
364.8560971024624
 21
412.5160582447349
 31
0.0
  0
LINE
  5
12CB
330
20
100
AcDbEntity
  8
STEMPEL
100
AcDbLine
 10
364.8560971024624
 20
397.5160582447349
 30
0.0
 11
365.3560971024624
 21
397.5160582447349
 31
0.0
  0
LINE
  5
12CC
330
20
100
AcDbEntity
  8
STEMPEL
100
AcDbLine
 10
364.8560971024624
 20
400.5160582447349
 30
0.0
 11
365.3560971024624
 21
400.5160582447349
 31
0.0
  0
LINE
  5
12CD
330
20
100
AcDbEntity
  8
STEMPEL
100
AcDbLine
 10
364.8560971024624
 20
400.5160582447348
 30
0.0
 11
364.8560971024624
 21
397.5160582447349
 31
0.0
  0
LINE
  5
12CE
330
20
100
AcDbEntity
  8
STEMPEL
100
AcDbLine
 10
365.3560971024624
 20
412.5160582447349
 30
0.0
 11
365.3560971024624
 21
400.5160582447349
 31
0.0
  0
LINE
  5
12CF
330
20
100
AcDbEntity
  8
STEMPEL
100
AcDbLine
 10
365.3560971024624
 20
427.5160582447348
 30
0.0
 11
365.3560971024624
 21
415.5160582447349
 31
0.0
  0
LINE
  5
12D0
330
20
100
AcDbEntity
  8
STEMPEL
100
AcDbLine
 10
365.3560971024624
 20
442.5160582447349
 30
0.0
 11
365.3560971024624
 21
430.5160582447348
 31
0.0
  0
LINE
  5
12D1
330
20
100
AcDbEntity
  8
STEMPEL
100
AcDbLine
 10
364.8560971024624
 20
385.5160582447349
 30
0.0
 11
365.3560971024624
 21
385.5160582447349
 31
0.0
  0
LINE
  5
12D2
330
20
100
AcDbEntity
  8
STEMPEL
100
AcDbLine
 10
364.8560971024624
 20
382.5160582447349
 30
0.0
 11
365.3560971024624
 21
382.5160582447349
 31
0.0
  0
LINE
  5
12D3
330
20
100
AcDbEntity
  8
STEMPEL
100
AcDbLine
 10
364.8560971024624
 20
385.5160582447349
 30
0.0
 11
364.8560971024624
 21
382.5160582447349
 31
0.0
  0
LINE
  5
12D5
330
20
100
AcDbEntity
  8
STEMPEL
100
AcDbLine
 10
365.3560971024624
 20
382.5160582447349
 30
0.0
 11
365.3560971024624
 21
368.5160582447349
 31
0.0
  0
LINE
  5
12D6
330
20
100
AcDbEntity
  8
STEMPEL
100
AcDbLine
 10
365.3560971024624
 20
397.5160582447349
 30
0.0
 11
365.3560971024624
 21
385.5160582447348
 31
0.0
  0
LINE
  5
12D9
330
20
100
AcDbEntity
  8
STEMPEL
100
AcDbLine
 10
365.3560971024624
 20
487.5160582447348
 30
0.0
 11
365.3560971024624
 21
475.5160582447348
 31
0.0
  0
LINE
  5
12DA
330
20
100
AcDbEntity
  8
STEMPEL
100
AcDbLine
 10
360.8560971024624
 20
502.5160582447348
 30
0.0
 11
363.3560971024624
 21
368.5160582447349
 31
0.0
  0
LINE
  5
12F5
330
20
100
AcDbEntity
  8
STEMPEL
100
AcDbLine
 10
303.7310971024624
 20
512.5160582447348
 30
0.0
 11
303.6060971024624
 21
514.5160582447348
 31
0.0
  0
LINE
  5
12F6
330
20
100
AcDbEntity
  8
STEMPEL
100
AcDbLine
 10
298.1060971024624
 20
512.5160582447347
 30
0.0
 11
298.1060971024623
 21
514.5160582447346
 31
0.0
  0
LINE
  5
12F7
330
20
100
AcDbEntity
  8
STEMPEL
100
AcDbLine
 10
298.9810971024624
 20
512.5160582447348
 30
0.0
 11
299.1060971024625
 21
514.5160582447348
 31
0.0
  0
LINE
  5
12F8
330
20
100
AcDbEntity
  8
STEMPEL
100
AcDbLine
 10
292.8560971024624
 20
490.5160582447349
 30
0.0
 11
292.8560971024624
 21
487.5160582447348
 31
0.0
  0
LINE
  5
12F9
330
20
100
AcDbEntity
  8
STEMPEL
100
AcDbLine
 10
292.8560971024624
 20
490.5160582447349
 30
0.0
 11
292.3560971024624
 21
490.5160582447348
 31
0.0
  0
LINE
  5
12FA
330
20
100
AcDbEntity
  8
STEMPEL
100
AcDbLine
 10
292.8560971024624
 20
487.5160582447348
 30
0.0
 11
292.3560971024624
 21
487.5160582447348
 31
0.0
  0
LINE
  5
12FB
330
20
100
AcDbEntity
  8
STEMPEL
100
AcDbLine
 10
292.3560971024624
 20
502.5160582447348
 30
0.0
 11
292.3560971024624
 21
490.5160582447348
 31
0.0
  0
LINE
  5
12FC
330
20
100
AcDbEntity
  8
MITTEL
100
AcDbLine
 10
293.8560971024624
 20
507.5160582447348
 30
0.0
 11
293.8560971024624
 21
522.0160582447348
 31
0.0
  0
LINE
  5
12FD
330
20
100
AcDbEntity
  8
STEMPEL
100
AcDbLine
 10
289.6060971024624
 20
512.5160582447347
 30
0.0
 11
289.6060971024623
 21
514.5160582447346
 31
0.0
  0
LINE
  5
12FE
330
20
100
AcDbEntity
  8
STEMPEL
100
AcDbLine
 10
282.1560971024624
 20
512.5160582447348
 30
0.0
 11
282.1560971024624
 21
517.2034924534385
 31
0.0
  0
LINE
  5
12FF
330
20
100
AcDbEntity
  8
STEMPEL
100
AcDbLine
 10
281.3560971024624
 20
518.5160582447348
 30
0.0
 11
281.3560971024624
 21
512.5160582447348
 31
0.0
  0
LINE
  5
1300
330
20
100
AcDbEntity
  8
STEMPEL
100
AcDbLine
 10
285.3560971024624
 20
509.5160582447348
 30
0.0
 11
278.3560971024624
 21
509.5160582447347
 31
0.0
  0
LINE
  5
1301
330
20
100
AcDbEntity
  8
STEMPEL
100
AcDbLine
 10
278.3560971024624
 20
518.5160582447348
 30
0.0
 11
278.3560971024624
 21
509.5160582447347
 31
0.0
  0
LINE
  5
1302
330
20
100
AcDbEntity
  8
STEMPEL
100
AcDbLine
 10
286.8560971024624
 20
512.5160582447348
 30
0.0
 11
296.8560971024624
 21
502.5160582447348
 31
0.0
  0
LINE
  5
1303
330
20
100
AcDbEntity
  8
STEMPEL
100
AcDbLine
 10
292.3560971024624
 20
502.5160582447348
 30
0.0
 11
285.3560971024624
 21
509.5160582447348
 31
0.0
  0
LINE
  5
1307
330
20
100
AcDbEntity
  8
STEMPEL
100
AcDbLine
 10
292.8560971024624
 20
472.5160582447348
 30
0.0
 11
292.8560971024624
 21
475.5160582447348
 31
0.0
  0
LINE
  5
1308
330
20
100
AcDbEntity
  8
STEMPEL
100
AcDbLine
 10
292.8560971024624
 20
472.5160582447348
 30
0.0
 11
292.3560971024624
 21
472.5160582447348
 31
0.0
  0
LINE
  5
1309
330
20
100
AcDbEntity
  8
STEMPEL
100
AcDbLine
 10
292.8560971024624
 20
475.5160582447348
 30
0.0
 11
292.3560971024624
 21
475.5160582447348
 31
0.0
  0
LINE
  5
130A
330
20
100
AcDbEntity
  8
STEMPEL
100
AcDbLine
 10
292.8560971024624
 20
460.5160582447349
 30
0.0
 11
292.8560971024624
 21
457.5160582447349
 31
0.0
  0
LINE
  5
130B
330
20
100
AcDbEntity
  8
STEMPEL
100
AcDbLine
 10
292.8560971024624
 20
457.5160582447349
 30
0.0
 11
292.3560971024624
 21
457.5160582447349
 31
0.0
  0
LINE
  5
130C
330
20
100
AcDbEntity
  8
STEMPEL
100
AcDbLine
 10
292.8560971024624
 20
460.5160582447348
 30
0.0
 11
292.3560971024624
 21
460.5160582447348
 31
0.0
  0
LINE
  5
130D
330
20
100
AcDbEntity
  8
STEMPEL
100
AcDbLine
 10
292.8560971024624
 20
445.5160582447349
 30
0.0
 11
292.8560971024624
 21
442.5160582447349
 31
0.0
  0
LINE
  5
130E
330
20
100
AcDbEntity
  8
STEMPEL
100
AcDbLine
 10
292.8560971024624
 20
442.5160582447349
 30
0.0
 11
292.3560971024624
 21
442.5160582447349
 31
0.0
  0
LINE
  5
130F
330
20
100
AcDbEntity
  8
STEMPEL
100
AcDbLine
 10
292.8560971024624
 20
445.5160582447349
 30
0.0
 11
292.3560971024624
 21
445.5160582447349
 31
0.0
  0
LINE
  5
1310
330
20
100
AcDbEntity
  8
STEMPEL
100
AcDbLine
 10
292.3560971024624
 20
457.5160582447349
 30
0.0
 11
292.3560971024624
 21
445.5160582447349
 31
0.0
  0
LINE
  5
1311
330
20
100
AcDbEntity
  8
STEMPEL
100
AcDbLine
 10
292.3560971024624
 20
472.5160582447348
 30
0.0
 11
292.3560971024624
 21
460.5160582447348
 31
0.0
  0
LINE
  5
1312
330
20
100
AcDbEntity
  8
STEMPEL
100
AcDbLine
 10
292.8560971024624
 20
430.5160582447348
 30
0.0
 11
292.3560971024624
 21
430.5160582447348
 31
0.0
  0
LINE
  5
1313
330
20
100
AcDbEntity
  8
STEMPEL
100
AcDbLine
 10
292.8560971024624
 20
427.5160582447348
 30
0.0
 11
292.3560971024624
 21
427.5160582447348
 31
0.0
  0
LINE
  5
1314
330
20
100
AcDbEntity
  8
STEMPEL
100
AcDbLine
 10
292.8560971024624
 20
430.5160582447348
 30
0.0
 11
292.8560971024624
 21
427.5160582447348
 31
0.0
  0
LINE
  5
1315
330
20
100
AcDbEntity
  8
STEMPEL
100
AcDbLine
 10
292.8560971024624
 20
415.5160582447349
 30
0.0
 11
292.8560971024624
 21
412.5160582447349
 31
0.0
  0
LINE
  5
1316
330
20
100
AcDbEntity
  8
STEMPEL
100
AcDbLine
 10
292.8560971024624
 20
415.5160582447349
 30
0.0
 11
292.3560971024624
 21
415.5160582447349
 31
0.0
  0
LINE
  5
1317
330
20
100
AcDbEntity
  8
STEMPEL
100
AcDbLine
 10
292.8560971024624
 20
412.5160582447349
 30
0.0
 11
292.3560971024624
 21
412.5160582447349
 31
0.0
  0
LINE
  5
1318
330
20
100
AcDbEntity
  8
STEMPEL
100
AcDbLine
 10
292.8560971024624
 20
400.5160582447348
 30
0.0
 11
292.8560971024624
 21
397.5160582447349
 31
0.0
  0
LINE
  5
1319
330
20
100
AcDbEntity
  8
STEMPEL
100
AcDbLine
 10
292.8560971024624
 20
397.5160582447349
 30
0.0
 11
292.3560971024624
 21
397.5160582447349
 31
0.0
  0
LINE
  5
131A
330
20
100
AcDbEntity
  8
STEMPEL
100
AcDbLine
 10
292.8560971024624
 20
400.5160582447349
 30
0.0
 11
292.3560971024624
 21
400.5160582447349
 31
0.0
  0
LINE
  5
131B
330
20
100
AcDbEntity
  8
STEMPEL
100
AcDbLine
 10
292.3560971024624
 20
412.5160582447349
 30
0.0
 11
292.3560971024624
 21
400.5160582447349
 31
0.0
  0
LINE
  5
131C
330
20
100
AcDbEntity
  8
STEMPEL
100
AcDbLine
 10
292.3560971024624
 20
427.5160582447348
 30
0.0
 11
292.3560971024624
 21
415.5160582447349
 31
0.0
  0
LINE
  5
131D
330
20
100
AcDbEntity
  8
STEMPEL
100
AcDbLine
 10
292.3560971024624
 20
442.5160582447349
 30
0.0
 11
292.3560971024624
 21
430.5160582447348
 31
0.0
  0
LINE
  5
131E
330
20
100
AcDbEntity
  8
STEMPEL
100
AcDbLine
 10
292.8560971024624
 20
385.5160582447349
 30
0.0
 11
292.3560971024624
 21
385.5160582447349
 31
0.0
  0
LINE
  5
131F
330
20
100
AcDbEntity
  8
STEMPEL
100
AcDbLine
 10
292.8560971024624
 20
382.5160582447349
 30
0.0
 11
292.3560971024624
 21
382.5160582447349
 31
0.0
  0
LINE
  5
1320
330
20
100
AcDbEntity
  8
STEMPEL
100
AcDbLine
 10
292.8560971024624
 20
385.5160582447349
 30
0.0
 11
292.8560971024624
 21
382.5160582447349
 31
0.0
  0
LINE
  5
1322
330
20
100
AcDbEntity
  8
STEMPEL
100
AcDbLine
 10
292.3560971024624
 20
382.5160582447349
 30
0.0
 11
292.3560971024624
 21
368.5160582447349
 31
0.0
  0
LINE
  5
1325
330
20
100
AcDbEntity
  8
STEMPEL
100
AcDbLine
 10
292.3560971024624
 20
397.5160582447349
 30
0.0
 11
292.3560971024624
 21
385.5160582447348
 31
0.0
  0
LINE
  5
1328
330
20
100
AcDbEntity
  8
STEMPEL
100
AcDbLine
 10
296.8560971024624
 20
502.5160582447348
 30
0.0
 11
294.3560971024624
 21
368.5160582447349
 31
0.0
  0
LINE
  5
1329
330
20
100
AcDbEntity
  8
STEMPEL
100
AcDbLine
 10
292.3560971024624
 20
487.5160582447348
 30
0.0
 11
292.3560971024624
 21
475.5160582447348
 31
0.0
  0
LINE
  5
1359
330
20
100
AcDbEntity
  8
STEMPEL
100
AcDbLine
 10
292.3560971024624
 20
368.5160582447347
 30
0.0
 11
365.3560971024624
 21
368.516058244735
 31
0.0
  0
LINE
  5
135E
330
20
100
AcDbEntity
  8
STEMPEL
100
AcDbLine
 10
281.3560971024624
 20
512.5160582447348
 30
0.0
 11
376.3560971024624
 21
512.5160582447347
 31
0.0
  0
LINE
  5
135F
102
{ACAD_REACTORS
330
1E31
102
}
330
20
100
AcDbEntity
  8
STEMPEL
100
AcDbLine
 10
278.3560971024624
 20
518.5160582447348
 30
0.0
 11
379.3560971024624
 21
518.5160582447348
 31
0.0
  0
LINE
  5
1360
330
20
100
AcDbEntity
  8
STEMPEL
100
AcDbLine
 10
296.8560971024624
 20
502.5160582447348
 30
0.0
 11
360.8560971024624
 21
502.5160582447348
 31
0.0
  0
HATCH
  5
1366
330
20
100
AcDbEntity
  8
SCHRAFF
100
AcDbHatch
 10
0.0
 20
0.0
 30
0.0
210
0.0
220
0.0
230
1.0
  2
NET
 70
     0
 71
     0
 91
        2
 92
        7
 72
     0
 73
     1
 93
       42
 10
376.3560971024618
 20
512.5160582447347
 10
370.8560971024622
 20
512.5160582447347
 10
360.8560971024624
 20
502.5160582447348
 10
363.3560971024624
 20
368.5160582447349
 10
365.3560971024623
 20
368.5160582447348
 10
365.3560971024623
 20
382.5160582447349
 10
364.8560971024624
 20
382.5160582447349
 10
364.8560971024624
 20
385.5160582447349
 10
365.3560971024624
 20
385.5160582447349
 10
365.3560971024624
 20
397.5160582447349
 10
364.8560971024624
 20
397.5160582447349
 10
364.8560971024624
 20
400.5160582447349
 10
365.3560971024624
 20
400.5160582447349
 10
365.3560971024624
 20
412.5160582447349
 10
364.8560971024624
 20
412.5160582447349
 10
364.8560971024624
 20
415.5160582447349
 10
365.3560971024624
 20
415.5160582447349
 10
365.3560971024624
 20
427.5160582447348
 10
364.8560971024624
 20
427.5160582447348
 10
364.8560971024624
 20
430.5160582447348
 10
365.3560971024624
 20
430.5160582447348
 10
365.3560971024624
 20
442.5160582447349
 10
364.8560971024625
 20
442.5160582447349
 10
364.8560971024625
 20
445.5160582447349
 10
365.3560971024625
 20
445.5160582447349
 10
365.3560971024624
 20
457.5160582447349
 10
364.8560971024624
 20
457.5160582447349
 10
364.8560971024625
 20
460.5160582447349
 10
365.3560971024624
 20
460.5160582447349
 10
365.3560971024624
 20
472.5160582447348
 10
364.8560971024624
 20
472.5160582447348
 10
364.8560971024624
 20
475.5160582447348
 10
365.3560971024624
 20
475.5160582447348
 10
365.3560971024624
 20
487.5160582447348
 10
364.8560971024624
 20
487.5160582447349
 10
364.8560971024625
 20
490.516058244735
 10
365.3560971024625
 20
490.5160582447349
 10
365.3560971024624
 20
502.5160582447348
 10
372.3560971024621
 20
509.5160582447348
 10
379.3560971024624
 20
509.5160582447347
 10
379.3560971024625
 20
518.5160582447349
 10
376.3560971024624
 20
518.5160582447348
 97
        0
 92
        7
 72
     0
 73
     1
 93
       42
 10
292.3560971024624
 20
490.5160582447348
 10
292.8560971024624
 20
490.5160582447349
 10
292.8560971024624
 20
487.5160582447349
 10
292.3560971024624
 20
487.5160582447348
 10
292.3560971024624
 20
475.5160582447348
 10
292.8560971024624
 20
475.5160582447348
 10
292.8560971024624
 20
472.5160582447348
 10
292.3560971024624
 20
472.5160582447348
 10
292.3560971024624
 20
460.5160582447348
 10
292.8560971024624
 20
460.5160582447348
 10
292.8560971024624
 20
457.5160582447349
 10
292.3560971024624
 20
457.5160582447349
 10
292.3560971024624
 20
445.5160582447349
 10
292.8560971024624
 20
445.516058244735
 10
292.8560971024624
 20
442.5160582447349
 10
292.3560971024624
 20
442.5160582447349
 10
292.3560971024624
 20
430.5160582447348
 10
292.8560971024624
 20
430.5160582447348
 10
292.8560971024624
 20
427.5160582447348
 10
292.3560971024624
 20
427.5160582447349
 10
292.3560971024624
 20
415.5160582447349
 10
292.8560971024624
 20
415.5160582447349
 10
292.8560971024624
 20
412.5160582447349
 10
292.3560971024624
 20
412.5160582447349
 10
292.3560971024624
 20
400.5160582447349
 10
292.8560971024624
 20
400.5160582447349
 10
292.8560971024624
 20
397.5160582447349
 10
292.3560971024624
 20
397.5160582447349
 10
292.3560971024624
 20
385.5160582447349
 10
292.8560971024624
 20
385.5160582447349
 10
292.8560971024624
 20
382.5160582447349
 10
292.3560971024623
 20
382.5160582447349
 10
292.3560971024623
 20
368.5160582447349
 10
294.3560971024624
 20
368.5160582447349
 10
296.8560971024623
 20
502.516058244735
 10
286.8560971024624
 20
512.5160582447347
 10
281.3560971024624
 20
512.5160582447349
 10
281.3560971024624
 20
518.5160582447347
 10
278.3560971024624
 20
518.5160582447348
 10
278.3560971024624
 20
509.5160582447346
 10
285.3560971024624
 20
509.5160582447347
 10
292.3560971024624
 20
502.5160582447349
 97
        0
 75
     0
 76
     1
 52
45.0
 41
15.0
 77
     0
 78
     2
 53
45.0
 43
103.8560971024624
 44
4.933219865452997
 45
-1.325825214724776
 46
1.325825214724776
 79
     0
 53
135.0
 43
103.8560971024624
 44
4.933219865452997
 45
-1.325825214724776
 46
-1.325825214724776
 79
     0
 47
0.33477438141283
 98
        2
 10
377.43873664542
 20
512.3936690410986
 10
294.3559681204631
 20
493.6463044312334
  0
TEXT
  5
176D
330
20
100
AcDbEntity
  8
VOLL
100
AcDbText
 10
964.0424659004851
 20
153.0270847051275
 30
0.0
 40
1.8
  1

  7
GREEKS
100
AcDbText
  0
LINE
  5
1781
330
20
100
AcDbEntity
  8
STEMPEL
100
AcDbLine
 10
375.8560971024624
 20
512.5160582447347
 30
0.0
 11
375.8560971024624
 21
516.0160582447347
 31
0.0
  0
LINE
  5
1782
330
20
100
AcDbEntity
  8
STEMPEL
100
AcDbLine
 10
281.8560971024624
 20
512.5160582447347
 30
0.0
 11
281.8560971024624
 21
516.0160582447347
 31
0.0
  0
ARC
  5
1787
330
20
100
AcDbEntity
  8
STEMPEL
100
AcDbCircle
 10
373.3560971024624
 20
516.0160582447347
 30
0.0
 40
2.5
100
AcDbArc
 50
0.0
 51
90.0
  0
ARC
  5
1788
330
20
100
AcDbEntity
  8
STEMPEL
100
AcDbCircle
 10
284.3560971024624
 20
516.0160582447347
 30
0.0
 40
2.5
100
AcDbArc
 50
90.0
 51
180.0
  0
LINE
  5
17BA
330
20
100
AcDbEntity
  8
STEMPEL
100
AcDbLine
 10
323.1637089470372
 20
514.5160582447346
 30
0.0
 11
323.1637089470372
 21
515.0160582447347
 31
0.0
  0
LINE
  5
17BB
330
20
100
AcDbEntity
  8
STEMPEL
100
AcDbLine
 10
314.7139614787314
 20
514.5160582447346
 30
0.0
 11
314.7139614787314
 21
515.0160582447347
 31
0.0
  0
ARC
  5
17BC
330
20
100
AcDbEntity
  8
STEMPEL
100
AcDbCircle
 10
284.3560971024624
 20
516.0160582447347
 30
0.0
 40
1.25
100
AcDbArc
 50
90.0
 51
180.0
  0
LINE
  5
17BD
330
20
100
AcDbEntity
  8
STEMPEL
100
AcDbLine
 10
331.0484852578876
 20
517.2660582447347
 30
0.0
 11
326.6637089470372
 21
517.2660582447347
 31
0.0
  0
LINE
  5
17BE
330
20
100
AcDbEntity
  8
STEMPEL
100
AcDbLine
 10
283.1060971024624
 20
512.5160582447347
 30
0.0
 11
283.1060971024624
 21
516.0160582447347
 31
0.0
  0
ARC
  5
17BF
330
20
100
AcDbEntity
  8
STEMPEL
100
AcDbCircle
 10
373.3560971024624
 20
516.0160582447347
 30
0.0
 40
1.25
100
AcDbArc
 50
0.0
 51
90.0
  0
LINE
  5
17C0
330
20
100
AcDbEntity
  8
STEMPEL
100
AcDbLine
 10
374.6060971024624
 20
512.5160582447347
 30
0.0
 11
374.6060971024624
 21
516.0160582447347
 31
0.0
  0
LINE
  5
17C1
330
20
100
AcDbEntity
  8
STEMPEL
100
AcDbLine
 10
371.0827565053494
 20
514.5160582447346
 30
0.0
 11
286.6294376995753
 21
514.5160582447346
 31
0.0
  0
LINE
  5
17C2
330
20
100
AcDbEntity
  8
STEMPEL
100
AcDbLine
 10
306.2286801044928
 20
514.5160582447346
 30
0.0
 11
306.2286801044928
 21
515.0160582447347
 31
0.0
  0
LINE
  5
17C3
330
20
100
AcDbEntity
  8
STEMPEL
100
AcDbLine
 10
296.3291851678812
 20
514.5160582447346
 30
0.0
 11
296.3291851678812
 21
515.0160582447347
 31
0.0
  0
LINE
  5
17C4
330
20
100
AcDbEntity
  8
STEMPEL
100
AcDbLine
 10
286.6294376995753
 20
514.5160582447346
 30
0.0
 11
286.6294376995753
 21
515.0160582447347
 31
0.0
  0
ARC
  5
17C5
330
20
100
AcDbEntity
  8
STEMPEL
100
AcDbCircle
 10
284.3794376995753
 20
515.0160582447347
 30
0.0
 40
2.25
100
AcDbArc
 50
0.0
 51
90.0
  0
ARC
  5
17C6
330
20
100
AcDbEntity
  8
STEMPEL
100
AcDbCircle
 10
292.8291851678812
 20
515.0160582447347
 30
0.0
 40
2.25
100
AcDbArc
 50
0.0
 51
90.0
  0
LINE
  5
17C7
330
20
100
AcDbEntity
  8
STEMPEL
100
AcDbLine
 10
295.0791851678811
 20
514.5160582447346
 30
0.0
 11
295.0791851678811
 21
515.0160582447347
 31
0.0
  0
LINE
  5
17C8
330
20
100
AcDbEntity
  8
STEMPEL
100
AcDbLine
 10
313.4639614787313
 20
514.5160582447346
 30
0.0
 11
313.4639614787313
 21
515.0160582447347
 31
0.0
  0
ARC
  5
17C9
330
20
100
AcDbEntity
  8
STEMPEL
100
AcDbCircle
 10
311.2139614787313
 20
515.0160582447347
 30
0.0
 40
2.25
100
AcDbArc
 50
0.0
 51
90.0
  0
ARC
  5
17CA
330
20
100
AcDbEntity
  8
STEMPEL
100
AcDbCircle
 10
309.7286801044928
 20
515.0160582447347
 30
0.0
 40
2.25
100
AcDbArc
 50
90.0
 51
180.0
  0
LINE
  5
17CB
330
20
100
AcDbEntity
  8
STEMPEL
100
AcDbLine
 10
307.4786801044928
 20
514.5160582447346
 30
0.0
 11
307.4786801044928
 21
515.0160582447347
 31
0.0
  0
LINE
  5
17CC
330
20
100
AcDbEntity
  8
STEMPEL
100
AcDbLine
 10
324.4137089470372
 20
514.5160582447346
 30
0.0
 11
324.4137089470372
 21
515.0160582447347
 31
0.0
  0
ARC
  5
17CD
330
20
100
AcDbEntity
  8
STEMPEL
100
AcDbCircle
 10
326.6637089470372
 20
515.0160582447347
 30
0.0
 40
2.25
100
AcDbArc
 50
90.0
 51
180.0
  0
LINE
  5
17CE
330
20
100
AcDbEntity
  8
STEMPEL
100
AcDbLine
 10
311.2139614787313
 20
517.2660582447347
 30
0.0
 11
309.7286801044928
 21
517.2660582447347
 31
0.0
  0
LINE
  5
17CF
330
20
100
AcDbEntity
  8
STEMPEL
100
AcDbLine
 10
292.8291851678812
 20
517.2660582447347
 30
0.0
 11
284.3560971024624
 21
517.2660582447347
 31
0.0
  0
ARC
  5
17D0
330
20
100
AcDbEntity
  8
STEMPEL
100
AcDbCircle
 10
292.8291851678812
 20
515.0160582447347
 30
0.0
 40
3.5
100
AcDbArc
 50
0.0
 51
90.0
  0
ARC
  5
17D1
330
20
100
AcDbEntity
  8
STEMPEL
100
AcDbCircle
 10
309.7286801044928
 20
515.0160582447347
 30
0.0
 40
3.5
100
AcDbArc
 50
90.0
 51
180.0
  0
ARC
  5
17D2
330
20
100
AcDbEntity
  8
STEMPEL
100
AcDbCircle
 10
311.2139614787313
 20
515.0160582447347
 30
0.0
 40
3.5
100
AcDbArc
 50
0.0
 51
90.0
  0
ARC
  5
17D3
330
20
100
AcDbEntity
  8
STEMPEL
100
AcDbCircle
 10
326.6637089470372
 20
515.0160582447347
 30
0.0
 40
3.5
100
AcDbArc
 50
90.0
 51
180.0
  0
ARC
  5
17D4
330
20
100
AcDbEntity
  8
STEMPEL
100
AcDbCircle
 10
331.0484852578876
 20
515.0160582447347
 30
0.0
 40
3.5
100
AcDbArc
 50
0.0
 51
90.0
  0
ARC
  5
17D5
330
20
100
AcDbEntity
  8
STEMPEL
100
AcDbCircle
 10
346.4982327261935
 20
515.0160582447347
 30
0.0
 40
3.5
100
AcDbArc
 50
90.0
 51
180.0
  0
ARC
  5
17D6
330
20
100
AcDbEntity
  8
STEMPEL
100
AcDbCircle
 10
347.983514100432
 20
515.0160582447347
 30
0.0
 40
3.5
100
AcDbArc
 50
0.0
 51
90.0
  0
ARC
  5
17D7
330
20
100
AcDbEntity
  8
STEMPEL
100
AcDbCircle
 10
364.8830090370436
 20
515.0160582447347
 30
0.0
 40
3.5
100
AcDbArc
 50
90.0
 51
180.0
  0
LINE
  5
17D8
330
20
100
AcDbEntity
  8
STEMPEL
100
AcDbLine
 10
364.8830090370436
 20
517.2660582447347
 30
0.0
 11
373.3560971024624
 21
517.2660582447347
 31
0.0
  0
LINE
  5
17D9
330
20
100
AcDbEntity
  8
STEMPEL
100
AcDbLine
 10
346.4982327261935
 20
517.2660582447347
 30
0.0
 11
347.983514100432
 21
517.2660582447347
 31
0.0
  0
ARC
  5
17DA
330
20
100
AcDbEntity
  8
STEMPEL
100
AcDbCircle
 10
331.0484852578876
 20
515.0160582447347
 30
0.0
 40
2.25
100
AcDbArc
 50
0.0
 51
90.0
  0
LINE
  5
17DB
330
20
100
AcDbEntity
  8
STEMPEL
100
AcDbLine
 10
333.2984852578876
 20
514.5160582447346
 30
0.0
 11
333.2984852578876
 21
515.0160582447347
 31
0.0
  0
LINE
  5
17DC
330
20
100
AcDbEntity
  8
STEMPEL
100
AcDbLine
 10
350.233514100432
 20
514.5160582447346
 30
0.0
 11
350.233514100432
 21
515.0160582447347
 31
0.0
  0
ARC
  5
17DD
330
20
100
AcDbEntity
  8
STEMPEL
100
AcDbCircle
 10
347.983514100432
 20
515.0160582447347
 30
0.0
 40
2.25
100
AcDbArc
 50
0.0
 51
90.0
  0
ARC
  5
17DE
330
20
100
AcDbEntity
  8
STEMPEL
100
AcDbCircle
 10
346.4982327261935
 20
515.0160582447347
 30
0.0
 40
2.25
100
AcDbArc
 50
90.0
 51
180.0
  0
LINE
  5
17DF
330
20
100
AcDbEntity
  8
STEMPEL
100
AcDbLine
 10
344.2482327261935
 20
514.5160582447346
 30
0.0
 11
344.2482327261935
 21
515.0160582447347
 31
0.0
  0
LINE
  5
17E0
330
20
100
AcDbEntity
  8
STEMPEL
100
AcDbLine
 10
362.6330090370436
 20
514.5160582447346
 30
0.0
 11
362.6330090370436
 21
515.0160582447347
 31
0.0
  0
ARC
  5
17E1
330
20
100
AcDbEntity
  8
STEMPEL
100
AcDbCircle
 10
364.8830090370436
 20
515.0160582447347
 30
0.0
 40
2.25
100
AcDbArc
 50
90.0
 51
180.0
  0
ARC
  5
17E2
330
20
100
AcDbEntity
  8
STEMPEL
100
AcDbCircle
 10
373.3327565053494
 20
515.0160582447347
 30
0.0
 40
2.25
100
AcDbArc
 50
90.0
 51
180.0
  0
LINE
  5
17E3
330
20
100
AcDbEntity
  8
STEMPEL
100
AcDbLine
 10
371.0827565053494
 20
514.5160582447346
 30
0.0
 11
371.0827565053494
 21
515.0160582447347
 31
0.0
  0
LINE
  5
17E4
330
20
100
AcDbEntity
  8
STEMPEL
100
AcDbLine
 10
361.3830090370436
 20
514.5160582447346
 30
0.0
 11
361.3830090370436
 21
515.0160582447347
 31
0.0
  0
LINE
  5
17E5
330
20
100
AcDbEntity
  8
STEMPEL
100
AcDbLine
 10
351.483514100432
 20
514.5160582447346
 30
0.0
 11
351.483514100432
 21
515.0160582447347
 31
0.0
  0
LINE
  5
17E6
330
20
100
AcDbEntity
  8
STEMPEL
100
AcDbLine
 10
342.9982327261935
 20
514.5160582447346
 30
0.0
 11
342.9982327261935
 21
515.0160582447347
 31
0.0
  0
LINE
  5
17E7
330
20
100
AcDbEntity
  8
STEMPEL
100
AcDbLine
 10
334.5484852578876
 20
514.5160582447346
 30
0.0
 11
334.5484852578876
 21
515.0160582447347
 31
0.0
  0
HATCH
  5
17F5
330
20
100
AcDbEntity
  8
SCHRAFF
100
AcDbHatch
 10
0.0
 20
0.0
 30
0.0
210
0.0
220
0.0
230
1.0
  2
_USER
 70
     0
 71
     0
 91
        6
 92
        7
 72
     1
 73
     1
 93
       12
 10
292.8291851678812
 20
518.5160582447347
 42
0.0
 10
284.3560971024624
 20
518.5160582447347
 42
0.4142135623730951
 10
281.8560971024624
 20
516.0160582447347
 42
0.0
 10
281.8560971024623
 20
512.5160582447347
 42
0.0
 10
283.1060971024624
 20
512.5160582447347
 42
0.0
 10
283.1060971024624
 20
516.0160582447347
 42
-0.4142135623730951
 10
284.3560971024624
 20
517.2660582447347
 42
0.0
 10
292.8291851678812
 20
517.2660582447347
 42
-0.4142135623730934
 10
295.0791851678811
 20
515.0160582447347
 42
0.0
 10
295.0791851678811
 20
514.5160582447346
 42
0.0
 10
296.3291851678812
 20
514.5160582447346
 42
0.0
 10
296.3291851678812
 20
515.0160582447347
 42
0.4142135623730964
 97
        0
 92
        7
 72
     1
 73
     1
 93
       12
 10
311.2139614787313
 20
518.5160582447347
 42
0.0
 10
309.7286801044928
 20
518.5160582447347
 42
0.4142135623730951
 10
306.2286801044928
 20
515.0160582447347
 42
0.0
 10
306.2286801044928
 20
514.5160582447346
 42
0.0
 10
307.4786801044928
 20
514.5160582447346
 42
0.0
 10
307.4786801044928
 20
515.0160582447347
 42
-0.4142135623730934
 10
309.7286801044928
 20
517.2660582447347
 42
0.0
 10
311.2139614787313
 20
517.2660582447347
 42
-0.4142135623730934
 10
313.4639614787313
 20
515.0160582447347
 42
0.0
 10
313.4639614787313
 20
514.5160582447346
 42
0.0
 10
314.7139614787314
 20
514.5160582447346
 42
0.0
 10
314.7139614787314
 20
515.0160582447347
 42
0.4142135623730964
 97
        0
 92
        7
 72
     1
 73
     1
 93
        8
 10
328.8560971024624
 20
518.5160582447348
 42
0.0
 10
326.6637089470372
 20
518.5160582447348
 42
0.4142135623731023
 10
323.1637089470372
 20
515.0160582447347
 42
0.0
 10
323.1637089470372
 20
514.5160582447346
 42
0.0
 10
324.4137089470372
 20
514.5160582447346
 42
0.0
 10
324.4137089470372
 20
515.0160582447347
 42
-0.4142135623730934
 10
326.6637089470372
 20
517.2660582447347
 42
0.0
 10
328.8560971024624
 20
517.2660582447347
 42
0.0
 97
        0
 92
        7
 72
     1
 73
     1
 93
        8
 10
331.0484852578876
 20
518.5160582447347
 42
0.0
 10
328.8560971024624
 20
518.5160582447347
 42
0.0
 10
328.8560971024624
 20
517.2660582447347
 42
0.0
 10
331.0484852578876
 20
517.2660582447347
 42
-0.4142135623730934
 10
333.2984852578876
 20
515.0160582447347
 42
0.0
 10
333.2984852578876
 20
514.5160582447346
 42
0.0
 10
334.5484852578876
 20
514.5160582447346
 42
0.0
 10
334.5484852578876
 20
515.0160582447347
 42
0.4142135623730975
 97
        0
 92
        7
 72
     1
 73
     1
 93
       12
 10
347.983514100432
 20
518.5160582447347
 42
0.0
 10
346.4982327261935
 20
518.5160582447347
 42
0.4142135623730985
 10
342.9982327261935
 20
515.0160582447347
 42
0.0
 10
342.9982327261935
 20
514.5160582447346
 42
0.0
 10
344.2482327261934
 20
514.5160582447346
 42
0.0
 10
344.2482327261935
 20
515.0160582447347
 42
-0.4142135623730951
 10
346.4982327261935
 20
517.2660582447347
 42
0.0
 10
347.983514100432
 20
517.2660582447347
 42
-0.4142135623730951
 10
350.233514100432
 20
515.0160582447347
 42
0.0
 10
350.233514100432
 20
514.5160582447346
 42
0.0
 10
351.483514100432
 20
514.5160582447346
 42
0.0
 10
351.483514100432
 20
515.0160582447347
 42
0.4142135623730999
 97
        0
 92
        7
 72
     1
 73
     1
 93
       12
 10
373.3560971024624
 20
518.5160582447347
 42
0.0
 10
364.8830090370436
 20
518.5160582447347
 42
0.4142135623731022
 10
361.3830090370436
 20
515.0160582447347
 42
0.0
 10
361.3830090370436
 20
514.5160582447346
 42
0.0
 10
362.6330090370436
 20
514.5160582447349
 42
0.0
 10
362.6330090370436
 20
515.0160582447347
 42
-0.4142135623730951
 10
364.8830090370436
 20
517.2660582447347
 42
0.0
 10
373.3560971024624
 20
517.2660582447347
 42
-0.4142135623730432
 10
374.6060971024624
 20
516.0160582447347
 42
0.0
 10
374.6060971024624
 20
512.5160582447347
 42
0.0
 10
375.8560971024624
 20
512.5160582447347
 42
0.0
 10
375.8560971024624
 20
516.0160582447347
 42
0.4142135623730964
 97
        0
 75
     0
 76
     0
 52
45.0
 41
2.0
 77
     0
 78
     1
 53
45.0
 43
218.1429483315812
 44
267.1663693538071
 45
-1.414213562373094
 46
1.414213562373095
 79
     0
 47
0.19196931903384
 98
        6
 10
291.186192349003
 20
517.8414857114348
 10
308.8603740113317
 20
517.8414857114348
 10
327.6872204610258
 20
517.6495164591467
 10
330.3767693730949
 20
517.6495164591467
 10
347.0903972717974
 20
518.0334549637227
 10
366.6856864613785
 20
518.0334549637227
  0
LINE
  5
1BAA
330
20
100
AcDbEntity
  8
STEMPEL
100
AcDbLine
 10
291.2463208012785
 20
380.4215594220104
 30
0.0
 11
292.3560971024624
 21
380.4215594220104
 31
0.0
  0
LINE
  5
1BAC
330
20
100
AcDbEntity
  8
STEMPEL
100
AcDbLine
 10
290.4590355870343
 20
407.5430342430845
 30
0.0
 11
292.3560971024624
 21
407.5430342430847
 31
0.0
  0
LINE
  5
1BC7
330
20
100
AcDbEntity
  8
STEMPEL
100
AcDbLine
 10
368.8560971024624
 20
397.0480794041754
 30
0.0
 11
368.8560971024624
 21
395.9430342430845
 31
0.0
  0
LINE
  5
1BC8
330
20
100
AcDbEntity
  8
STEMPEL
100
AcDbLine
 10
365.3560971024623
 20
401.5430342430845
 30
0.0
 11
365.3560971024623
 21
380.4215594220104
 31
0.0
  0
LINE
  5
1BC9
330
20
100
AcDbEntity
  8
STEMPEL
100
AcDbLine
 10
371.1560971024623
 20
387.5430342430846
 30
0.0
 11
368.8560971024624
 21
391.5430342430846
 31
0.0
  0
ARC
  5
1BCB
330
20
100
AcDbEntity
  8
STEMPEL
100
AcDbCircle
 10
367.7397432812922
 20
388.6430342430846
 30
0.0
 40
0.9
100
AcDbArc
 50
28.355006028409
 51
175.3175831377311
  0
ARC
  5
1BCC
330
20
100
AcDbEntity
  8
STEMPEL
100
AcDbCircle
 10
150.0571405873794
 20
394.4099372438216
 30
0.0
 40
216.8603568041614
100
AcDbArc
 50
356.3016207318292
 51
358.4955885542027
  0
LINE
  5
1BCD
330
20
100
AcDbEntity
  8
STEMPEL
100
AcDbLine
 10
371.1560971024623
 20
387.5430342430846
 30
0.0
 11
369.3560971024623
 21
387.5430342430846
 31
0.0
  0
LINE
  5
1BCE
330
20
100
AcDbEntity
  8
STEMPEL
100
AcDbLine
 10
369.3560971024623
 20
387.5430342430846
 30
0.0
 11
368.5317629066314
 21
389.0704741956834
 31
0.0
  0
LINE
  5
1BCF
330
20
100
AcDbEntity
  8
STEMPEL
100
AcDbLine
 10
370.2560971024624
 20
393.5430342430846
 30
0.0
 11
368.8560971024624
 21
392.1430342430846
 31
0.0
  0
LINE
  5
1BD0
330
20
100
AcDbEntity
  8
STEMPEL
100
AcDbLine
 10
370.2560971024624
 20
394.5430342430845
 30
0.0
 11
370.2560971024624
 21
393.5430342430846
 31
0.0
  0
LINE
  5
1BD1
330
20
100
AcDbEntity
  8
STEMPEL
100
AcDbLine
 10
368.8560971024624
 20
392.1430342430846
 30
0.0
 11
368.8560971024624
 21
391.5430342430846
 31
0.0
  0
LINE
  5
1BD2
330
20
100
AcDbEntity
  8
STEMPEL
100
AcDbLine
 10
370.2560971024624
 20
394.5430342430845
 30
0.0
 11
368.8560971024624
 21
395.9430342430845
 31
0.0
  0
LINE
  5
1BD3
330
20
100
AcDbEntity
  8
STEMPEL
100
AcDbLine
 10
365.3560971024623
 20
401.5430342430845
 30
0.0
 11
366.2683508648783
 21
406.7166824207514
 31
0.0
  0
ARC
  5
1BD4
330
20
100
AcDbEntity
  8
STEMPEL
100
AcDbCircle
 10
367.5701711058334
 20
402.0430342430845
 30
0.0
 40
0.5
100
AcDbArc
 50
90.0
 51
193.6764432972524
  0
LINE
  5
1BD5
330
20
100
AcDbEntity
  8
STEMPEL
100
AcDbLine
 10
367.5947029172214
 20
400.5137314451558
 30
0.0
 11
368.8560971024624
 21
397.0480794041754
 31
0.0
  0
ARC
  5
1BD6
330
20
100
AcDbEntity
  8
STEMPEL
100
AcDbCircle
 10
367.2531586178904
 20
406.5430342430845
 30
0.0
 40
1.0
100
AcDbArc
 50
29.41191366553061
 51
169.9999999999981
  0
LINE
  5
1BD7
330
20
100
AcDbEntity
  8
STEMPEL
100
AcDbLine
 10
370.6560971024623
 20
402.5430342430845
 30
0.0
 11
368.1242703352397
 21
407.0341191399169
 31
0.0
  0
LINE
  5
1BD8
330
20
100
AcDbEntity
  8
STEMPEL
100
AcDbLine
 10
370.6560971024623
 20
402.5430342430845
 30
0.0
 11
367.5701711058334
 21
402.5430342430845
 31
0.0
  0
LINE
  5
1D8F
330
20
100
AcDbEntity
  8
STEMPEL
100
AcDbLine
 10
287.0560971024625
 20
402.5430342430843
 30
0.0
 11
290.1420230990914
 21
402.5430342430843
 31
0.0
  0
LINE
  5
1D90
330
20
100
AcDbEntity
  8
STEMPEL
100
AcDbLine
 10
287.0560971024625
 20
402.5430342430843
 30
0.0
 11
289.587923869685
 21
407.0341191399167
 31
0.0
  0
ARC
  5
1D91
330
20
100
AcDbEntity
  8
STEMPEL
100
AcDbCircle
 10
290.4590355870343
 20
406.5430342430843
 30
0.0
 40
1.0
100
AcDbArc
 50
10.00000000000207
 51
150.5880863344696
  0
LINE
  5
1D92
330
20
100
AcDbEntity
  8
STEMPEL
100
AcDbLine
 10
290.1174912877035
 20
400.513731445156
 30
0.0
 11
288.8560971024625
 21
397.0480794041752
 31
0.0
  0
ARC
  5
1D93
330
20
100
AcDbEntity
  8
STEMPEL
100
AcDbCircle
 10
290.1420230990914
 20
402.0430342430843
 30
0.0
 40
0.5
100
AcDbArc
 50
346.3235567027603
 51
90.00000000000024
  0
LINE
  5
1D94
330
20
100
AcDbEntity
  8
STEMPEL
100
AcDbLine
 10
292.3560971024624
 20
401.5430342430843
 30
0.0
 11
291.4438433400464
 21
406.7166824207513
 31
0.0
  0
LINE
  5
1D95
330
20
100
AcDbEntity
  8
STEMPEL
100
AcDbLine
 10
287.4560971024624
 20
394.5430342430844
 30
0.0
 11
288.8560971024625
 21
395.9430342430843
 31
0.0
  0
LINE
  5
1D96
330
20
100
AcDbEntity
  8
STEMPEL
100
AcDbLine
 10
288.8560971024625
 20
392.1430342430844
 30
0.0
 11
288.8560971024625
 21
391.5430342430844
 31
0.0
  0
LINE
  5
1D97
330
20
100
AcDbEntity
  8
STEMPEL
100
AcDbLine
 10
287.4560971024624
 20
394.5430342430844
 30
0.0
 11
287.4560971024624
 21
393.5430342430844
 31
0.0
  0
LINE
  5
1D98
330
20
100
AcDbEntity
  8
STEMPEL
100
AcDbLine
 10
287.4560971024624
 20
393.5430342430844
 30
0.0
 11
288.8560971024625
 21
392.1430342430844
 31
0.0
  0
LINE
  5
1D99
330
20
100
AcDbEntity
  8
STEMPEL
100
AcDbLine
 10
288.3560971024625
 20
387.5430342430844
 30
0.0
 11
289.1804312982934
 21
389.0704741956832
 31
0.0
  0
LINE
  5
1D9A
330
20
100
AcDbEntity
  8
STEMPEL
100
AcDbLine
 10
286.5560971024626
 20
387.5430342430844
 30
0.0
 11
288.3560971024625
 21
387.5430342430844
 31
0.0
  0
ARC
  5
1D9B
330
20
100
AcDbEntity
  8
STEMPEL
100
AcDbCircle
 10
507.6550536175454
 20
394.4099372438224
 30
0.0
 40
216.8603568041614
100
AcDbArc
 50
181.5044114457976
 51
183.698379268171
  0
ARC
  5
1D9C
330
20
100
AcDbEntity
  8
STEMPEL
100
AcDbCircle
 10
289.9724509236326
 20
388.6430342430844
 30
0.0
 40
0.9
100
AcDbArc
 50
4.682416862269079
 51
151.6449939715912
  0
LINE
  5
1D9D
330
20
100
AcDbEntity
  8
STEMPEL
100
AcDbLine
 10
286.5560971024626
 20
387.5430342430844
 30
0.0
 11
288.8560971024625
 21
391.5430342430844
 31
0.0
  0
LINE
  5
1D9E
330
20
100
AcDbEntity
  8
STEMPEL
100
AcDbLine
 10
292.3560971024624
 20
401.5430342430843
 30
0.0
 11
292.3560971024625
 21
380.4215594220103
 31
0.0
  0
LINE
  5
1D9F
330
20
100
AcDbEntity
  8
STEMPEL
100
AcDbLine
 10
288.8560971024625
 20
397.0480794041752
 30
0.0
 11
288.8560971024625
 21
395.9430342430843
 31
0.0
  0
LINE
  5
1DA3
330
20
100
AcDbEntity
  8
STEMPEL
100
AcDbLine
 10
291.0671389676261
 20
383.5430342430844
 30
0.0
 11
272.6960699730867
 21
383.5430342430843
 31
0.0
  0
HATCH
  5
1DCE
330
20
100
AcDbEntity
  8
SCHRAFF
100
AcDbHatch
 10
0.0
 20
0.0
 30
0.0
210
0.0
220
0.0
230
1.0
  2
NET
 70
     0
 71
     0
 91
        2
 92
        7
 72
     1
 73
     1
 93
       20
 10
365.3560971024623
 20
380.4215594220104
 42
0.0
 10
366.4658734036464
 20
380.4215594220104
 42
0.0095732829863336
 10
366.8427470443644
 20
388.7165036308411
 42
-0.7464811088937984
 10
368.5317629066314
 20
389.0704741956834
 42
0.0
 10
369.3560971024624
 20
387.5430342430846
 42
0.0
 10
371.1560971024624
 20
387.5430342430846
 42
0.0
 10
368.8560971024624
 20
391.5430342430846
 42
0.0
 10
368.8560971024624
 20
392.1430342430846
 42
0.0
 10
370.2560971024624
 20
393.5430342430845
 42
0.0
 10
370.2560971024625
 20
394.5430342430845
 42
0.0
 10
368.8560971024624
 20
395.9430342430847
 42
0.0
 10
368.8560971024624
 20
397.0480794041753
 42
0.0
 10
367.5947029172214
 20
400.5137314451564
 42
0.0
 10
366.8560971024624
 20
401.7930342430843
 42
0.0
 10
367.0843478998357
 20
401.9248149023905
 42
-0.4859861683437737
 10
367.5701711058334
 20
402.5430342430845
 42
0.0
 10
370.6560971024622
 20
402.5430342430845
 42
0.0
 10
368.1242703352397
 20
407.0341191399169
 42
0.7040385315423202
 10
366.2683508648783
 20
406.7166824207514
 42
0.0
 10
365.3560971024623
 20
401.5430342430844
 42
0.0
 97
        0
 92
        7
 72
     1
 73
     1
 93
       20
 10
292.3560971024624
 20
401.5430342430843
 42
0.0
 10
291.4438433400464
 20
406.7166824207513
 42
0.7040385315423202
 10
289.587923869685
 20
407.0341191399167
 42
0.0
 10
287.0560971024624
 20
402.5430342430842
 42
0.0
 10
290.1420230990914
 20
402.5430342430843
 42
-0.4859861683437419
 10
290.6278463050891
 20
401.9248149023905
 42
0.0
 10
290.8560971024624
 20
401.7930342430843
 42
0.0
 10
290.1174912877034
 20
400.513731445156
 42
0.0
 10
288.8560971024625
 20
397.0480794041752
 42
0.0
 10
288.8560971024625
 20
395.9430342430843
 42
0.0
 10
287.4560971024624
 20
394.5430342430844
 42
0.0
 10
287.4560971024624
 20
393.5430342430844
 42
0.0
 10
288.8560971024624
 20
392.1430342430844
 42
0.0
 10
288.8560971024625
 20
391.5430342430843
 42
0.0
 10
286.5560971024626
 20
387.5430342430843
 42
0.0
 10
288.3560971024626
 20
387.5430342430844
 42
0.0
 10
289.1804312982934
 20
389.0704741956832
 42
-0.7464811088944116
 10
290.8694471605605
 20
388.7165036308395
 42
0.0095732829863318
 10
291.2463208012784
 20
380.4215594220104
 42
0.0
 10
292.3560971024626
 20
380.4215594220104
 42
0.0
 97
        0
 75
     0
 76
     1
 52
45.0
 41
15.0
 77
     0
 78
     2
 53
45.0
 43
1.184084988100948
 44
-16.56544868783908
 45
-1.325825214724776
 46
1.325825214724776
 79
     0
 53
135.0
 43
1.184084988100948
 44
-16.56544868783908
 45
-1.325825214724776
 46
-1.325825214724776
 79
     0
 47
0.1538817800654054
 98
        2
 10
366.3701692728837
 20
397.9531777069001
 10
291.5307286002062
 20
398.2609412836364
  0
LINE
  5
1DE5
330
20
100
AcDbEntity
  8
STEMPEL
100
AcDbLine
 10
365.3560971024624
 20
380.4215594220104
 30
0.0
 11
366.4658734036464
 21
380.4215594220104
 31
0.0
  0
LINE
  5
1DE6
330
20
100
AcDbEntity
  8
STEMPEL
100
AcDbLine
 10
365.3560971024625
 20
407.5430342430847
 30
0.0
 11
367.2531586178904
 21
407.5430342430845
 31
0.0
  0
LWPOLYLINE
  5
1DFA
330
20
100
AcDbEntity
  8
BEM
 62
     1
100
AcDbPolyline
 90
        4
 70
     1
 43
0.0
 10
319.2697478405569
 20
538.329796786154
 10
319.2697478405569
 20
531.329796786154
 10
326.2697478405569
 20
531.329796786154
 10
326.2697478405569
 20
538.329796786154
  0
DIMENSION
  5
1DFB
330
20
100
AcDbEntity
  8
BEM
100
AcDbDimension
  2
*D8
 10
379.3560971024623
 20
528.2936215906252
 30
0.0
 11
334.0806123806463
 21
528.2936215906252
 31
0.0
 70
   160
 71
     5
 42
100.9999999999999
  3
Standard
100
AcDbAlignedDimension
 13
278.3560971024624
 23
518.5160582447348
 33
0.0
 14
379.3560971024623
 24
518.5160582447348
 34
0.0
100
AcDbRotatedDimension
1001
ACAD
1000
DSTYLE
1002
{
1070
    40
1040
2.0
1070
    41
1040
3.5
1070
    42
1040
1.0
1070
    43
1040
7.0
1070
    44
1040
1.0
1070
    73
1070
     0
1070
    74
1070
     0
1070
    77
1070
     1
1070
    78
1070
     8
1070
    79
1070
     2
1070
   140
1040
3.5
1070
   141
1040
1.5
1070
   146
1040
0.5142857142857144
1070
   147
1040
1.5
1070
   172
1070
     1
1070
   178
1070
     1
1070
   179
1070
     2
1070
   271
1070
     2
1070
   272
1070
     2
1070
   284
1070
     8
1070
   285
1070
     8
1070
   286
1070
     8
1002
}
  0
DIMENSION
  5
1E1A
102
{ACAD_XDICTIONARY
360
1E27
102
}
102
{ACAD_REACTORS
330
1E31
102
}
330
20
100
AcDbEntity
  8
BEM
100
AcDbDimension
  2
*D9
 10
210.8047282460165
 20
388.5430342430842
 30
0.0
 11
204.3047282460165
 21
453.5295462439096
 31
0.0
 70
    32
  1
min.35 - max.140
 71
     5
 42
129.9730240016507
  3
Standard
100
AcDbAlignedDimension
 13
278.3560971024624
 23
518.5160582447348
 33
0.0
 14
229.0330066039655
 24
388.5430342430842
 34
0.0
 50
90.0
100
AcDbRotatedDimension
1001
ACAD
1000
DSTYLE
1002
{
1070
    40
1040
2.0
1070
    41
1040
3.5
1070
    42
1040
1.0
1070
    43
1040
7.0
1070
    44
1040
1.0
1070
    47
1040
2.799999999999999
1070
    48
1040
2.799999999999999
1070
    73
1070
     0
1070
    74
1070
     0
1070
    77
1070
     1
1070
    78
1070
     8
1070
    79
1070
     2
1070
   140
1040
3.5
1070
   141
1040
1.5
1070
   146
1040
0.5
1070
   147
1040
1.5
1070
   172
1070
     1
1070
   178
1070
     1
1070
   179
1070
     2
1070
   271
1070
     2
1070
   272
1070
     2
1070
   284
1070
     8
1070
   285
1070
     8
1070
   286
1070
     8
1002
}
  0
ARC
  5
1E4D
330
20
100
AcDbEntity
  8
STEMPEL
100
AcDbCircle
 10
360.1650618223316
 20
386.2833712667532
 30
0.0
 40
17.96950605134312
100
AcDbArc
 50
286.790929698364
 51
320.3433073235578
  0
LINE
  5
1EB7
330
20
100
AcDbEntity
  8
BEM
100
AcDbLine
 10
328.8560971024625
 20
526.5534096216724
 30
0.0
 11
328.8560971024625
 21
527.4664106424849
 31
0.0
  0
LINE
  5
1EB8
330
20
100
AcDbEntity
  8
BEM
100
AcDbLine
 10
508.8560971024624
 20
525.2115969181086
 30
0.0
 11
508.8560971024624
 21
560.5168601057353
 31
0.0
  0
LINE
  5
1EB9
330
20
100
AcDbEntity
  8
BEM
100
AcDbLine
 10
335.8560971024624
 20
558.5168601057353
 30
0.0
 11
501.8560971024625
 21
558.5168601057353
 31
0.0
  0
SOLID
  5
1EBA
330
20
100
AcDbEntity
  8
BEM
100
AcDbTrace
 10
335.8560971024624
 20
559.6835267724019
 30
0.0
 11
335.8560971024624
 21
557.3501934390686
 31
0.0
 12
328.8560971024625
 22
558.5168601057353
 32
0.0
 13
328.8560971024625
 23
558.5168601057353
 33
0.0
  0
SOLID
  5
1EBB
330
20
100
AcDbEntity
  8
BEM
100
AcDbTrace
 10
501.8560971024625
 20
559.6835267724019
 30
0.0
 11
501.8560971024625
 21
557.3501934390686
 31
0.0
 12
508.8560971024624
 22
558.5168601057353
 32
0.0
 13
508.8560971024624
 23
558.5168601057353
 33
0.0
  0
MTEXT
  5
1EBC
330
20
100
AcDbEntity
  8
BEM
 62
     1
100
AcDbMText
 10
418.8560971024624
 20
565.0168601057353
 30
0.0
 40
7.0
 41
0.0
 71
     5
 72
     1
  1
\A1;180
 73
     1
 44
1.0
  0
LINE
  5
1EBD
330
20
100
AcDbEntity
  8
BEM
100
AcDbLine
 10
328.8560971024625
 20
553.352571334552
 30
0.0
 11
328.8560971024625
 21
560.5168601057353
 31
0.0
  0
LWPOLYLINE
  5
1ED0
330
20
100
AcDbEntity
  8
BEM
 62
     1
100
AcDbPolyline
 90
        4
 70
     1
 43
0.0
 10
128.3495107338424
 20
520.0533271969757
 10
128.3495107338424
 20
513.0533271969757
 10
135.3495107338424
 20
513.0533271969757
 10
135.3495107338424
 20
520.0533271969757
  0
TEXT
  5
1ED1
330
20
100
AcDbEntity
  8
TEXT
 62
     1
100
AcDbText
 10
63.73861312878182
 20
513.0238958856268
 30
0.0
 40
7.0
  1
Siebaufnahme   100
 41
0.8
  7
GREEKS
100
AcDbText
  0
LINE
  5
1ED2
330
20
100
AcDbEntity
  8
TEXT
 62
     2
100
AcDbLine
 10
295.1026281308878
 20
480.8556994238115
 30
0.0
 11
213.3911860037821
 21
499.0650144447086
 31
0.0
  0
LINE
  5
1ED3
330
20
100
AcDbEntity
  8
TEXT
 62
     2
100
AcDbLine
 10
63.1503070145053
 20
509.033836617313
 30
0.0
 11
168.6576617005686
 21
509.033836617313
 31
0.0
  0
TEXT
  5
1ED4
330
20
100
AcDbEntity
  8
TEXT
 62
     1
100
AcDbText
 10
63.73861312878182
 20
500.2013970496788
 30
0.0
 40
7.0
  1
EDV-Art.Nr. 15094.000X
 41
0.8
  7
GREEKS
100
AcDbText
  0
TEXT
  5
1ED5
330
20
100
AcDbEntity
  8
TEXT
 62
     1
100
AcDbText
 10
75.29772958076512
 20
370.813093936996
 30
0.0
 40
7.0
  1
Dichtelement DN70
 41
0.8
  7
GREEKS
100
AcDbText
  0
LINE
  5
1ED6
330
20
100
AcDbEntity
  8
TEXT
 62
     2
100
AcDbLine
 10
290.167379204332
 20
395.0738067909917
 30
0.0
 11
212.97200103428
 21
375.2391809070403
 31
0.0
  0
LINE
  5
1ED7
330
20
100
AcDbEntity
  8
TEXT
 62
     2
100
AcDbLine
 10
74.7094234664886
 20
366.8230346686821
 30
0.0
 11
180.2167781525519
 21
366.8230346686821
 31
0.0
  0
TEXT
  5
1ED8
330
20
100
AcDbEntity
  8
TEXT
 62
     1
100
AcDbText
 10
75.29772958076512
 20
357.9905951010479
 30
0.0
 40
7.0
  1
EDV-Art.Nr. 00911.070X
 41
0.8
  7
GREEKS
100
AcDbText
  0
LINE
  5
1ED9
330
20
100
AcDbEntity
  8
TEXT
 62
     2
100
AcDbLine
 10
281.1081736962319
 20
564.3326821676233
 30
0.0
 11
284.9686397890561
 21
543.5297403238466
 31
0.0
  0
TEXT
  5
1EDA
330
20
100
AcDbEntity
  8
TEXT
 62
     1
100
AcDbText
 10
176.1891251244451
 20
555.5002425999892
 30
0.0
 40
7.0
  1
EDV-Art.Nr. 15096.000X
 41
0.8
  7
GREEKS
100
AcDbText
  0
LINE
  5
1EDB
330
20
100
AcDbEntity
  8
TEXT
 62
     2
100
AcDbLine
 10
175.6008190101686
 20
564.3326821676233
 30
0.0
 11
281.1081736962319
 21
564.3326821676233
 31
0.0
  0
TEXT
  5
1EDC
330
20
100
AcDbEntity
  8
TEXT
 62
     1
100
AcDbText
 10
176.1891251244451
 20
568.3227414359371
 30
0.0
 40
7.0
  1
Edelstahlsieb
 41
0.8
  7
GREEKS
100
AcDbText
  0
LINE
  5
1EDD
330
20
100
AcDbEntity
  8
TEXT
 62
     2
100
AcDbLine
 10
285.495468912014
 20
540.6908096499381
 30
0.0
 11
287.3847773229325
 21
530.5098698223998
 31
0.0
  0
LINE
  5
1EDE
330
20
100
AcDbEntity
  8
TEXT
 62
     2
100
AcDbLine
 10
288.246297535466
 20
525.8673850944841
 30
0.0
 11
289.7492376074621
 21
517.7684731598522
 31
0.0
  0
LINE
  5
1EDF
330
20
100
AcDbEntity
  8
TEXT
 62
     2
100
AcDbLine
 10
208.428057575485
 20
500.1710427644566
 30
0.0
 11
168.6576617005686
 21
509.033836617313
 31
0.0
  0
LINE
  5
1EE1
330
20
100
AcDbEntity
  8
TEXT
 62
     2
100
AcDbLine
 10
207.2808666395811
 20
373.7768974873584
 30
0.0
 11
180.2167781525519
 21
366.8230346686821
 31
0.0
  0
TEXT
  5
1EF8
330
20
100
AcDbEntity
  8
TEXT
 62
     1
100
AcDbText
 10
654.9791173409951
 20
86.99412083985317
 30
0.0
 40
7.0
  1
Entwässerungseinheit
 41
0.8
  7
GREEKS
100
AcDbText
  0
TEXT
  5
1EF9
330
20
100
AcDbEntity
  8
TEXT
100
AcDbText
 10
654.8629872542569
 20
72.29651127304101
 30
0.0
 40
5.0
  1
Kompletteinheit DN50
 41
0.8
  7
GREEKS
100
AcDbText
  0
TEXT
  5
1EFA
330
20
100
AcDbEntity
  8
TEXT
100
AcDbText
 10
654.8629872542569
 20
62.29651127304101
 30
0.0
 40
5.0
  1
Fallrohrlänge 300mm
 41
0.8
  7
GREEKS
100
AcDbText
  0
ENDSEC
  0
SECTION
  2
OBJECTS
  0
DICTIONARY
  5
C
330
0
100
AcDbDictionary
281
     1
  3
ACAD_COLOR
350
1B
  3
ACAD_GROUP
350
D
  3
ACAD_LAYOUT
350
19
  3
ACAD_MATERIAL
350
1A
  3
ACAD_MLINESTYLE
350
16
  3
ACAD_PLOTSETTINGS
350
18
  3
ACAD_PLOTSTYLENAME
350
E
  3
AcadDim
350
5A5
  3
AcDbVariableDictionary
350
6B8
  3
AcmDictionary
350
52C
  3
AMG
350
4D4
  3
AMGSNAPSETTINGS
350
56B
  0
DICTIONARY
  5
6A3
330
20
100
AcDbDictionary
280
     1
281
     1
  3
ACAD_INDEX
360
76A
  0
DICTIONARY
  5
D94
330
D87
100
AcDbDictionary
280
     1
281
     1
  3
ACAD_DIMASSOC
360
D9E
  0
DICTIONARY
  5
E0A
330
DFD
100
AcDbDictionary
280
     1
281
     1
  3
ACAD_DIMASSOC
360
E14
  0
DICTIONARY
  5
F1C
330
F0F
100
AcDbDictionary
280
     1
281
     1
  3
ACAD_DIMASSOC
360
F26
  0
DICTIONARY
  5
1E27
330
1E1A
100
AcDbDictionary
280
     1
281
     1
  3
ACAD_DIMASSOC
360
1E31
  0
DICTIONARY
  5
1B
102
{ACAD_REACTORS
330
C
102
}
330
C
100
AcDbDictionary
281
     1
  0
DICTIONARY
  5
D
102
{ACAD_REACTORS
330
C
102
}
330
C
100
AcDbDictionary
281
     1
  0
DICTIONARY
  5
19
102
{ACAD_REACTORS
330
C
102
}
330
C
100
AcDbDictionary
281
     1
  3
Layout1
350
1F
  3
Model
350
23
  0
DICTIONARY
  5
1A
102
{ACAD_REACTORS
330
C
102
}
330
C
100
AcDbDictionary
281
     1
  0
DICTIONARY
  5
16
102
{ACAD_REACTORS
330
C
102
}
330
C
100
AcDbDictionary
281
     1
  3
Standard
350
17
  0
DICTIONARY
  5
18
102
{ACAD_REACTORS
330
C
102
}
330
C
100
AcDbDictionary
281
     1
  0
ACDBDICTIONARYWDFLT
  5
E
102
{ACAD_REACTORS
330
C
102
}
330
C
100
AcDbDictionary
281
     1
  3
Normal
350
F
100
AcDbDictionaryWithDefault
340
F
  0
XRECORD
  5
5A5
102
{ACAD_REACTORS
330
C
102
}
330
C
100
AcDbXrecord
280
     1
 90
   990106
  3

 60
     0
 61
     0
 62
     1
 63
     3
 64
     0
 65
     0
 66
     0
 67
     3
 68
     1
 69
     0
 70
     0
 71
     0
 72
     0
 40
0.0
170
     0
340
0
  0
DICTIONARY
  5
6B8
102
{ACAD_REACTORS
330
C
102
}
330
C
100
AcDbDictionary
281
     1
  3
DIMASSOC
350
6BB
  3
HIDETEXT
350
6BA
  3
INDEXCTL
350
6B9
  3
PROJECTNAME
350
6BC
  0
DICTIONARY
  5
52C
102
{ACAD_REACTORS
330
C
102
}
330
C
100
AcDbDictionary
281
     1
  3
AcmStdDictionary
350
539
  0
DICTIONARY
  5
4D4
102
{ACAD_REACTORS
330
C
102
}
330
C
100
AcDbDictionary
281
     1
  0
DICTIONARY
  5
56B
102
{ACAD_REACTORS
330
C
102
}
330
C
100
AcDbDictionary
281
     1
  0
DICTIONARY
  5
76A
102
{ACAD_REACTORS
330
6A3
102
}
330
6A3
100
AcDbDictionary
281
     1
  3
*A1
350
76B
  0
DIMASSOC
  5
D9E
102
{ACAD_REACTORS
330
D94
102
}
330
D94
100
AcDbDimAssoc
330
D87
 90
        3
 70
     0
 71
     0
  1
AcDbOsnapPointRef
 72
     5
331
C12
 73
     2
 91
        0
 40
4.712388980384689
 10
0.0
 20
0.0
 30
0.0
 75
     0
  1
AcDbOsnapPointRef
 72
     1
331
BFB
 73
     2
 91
        0
 40
1.0
 10
0.0
 20
0.0
 30
2.000000000000000E+50
 75
     0
  0
DIMASSOC
  5
E14
102
{ACAD_REACTORS
330
E0A
102
}
330
E0A
100
AcDbDimAssoc
330
DFD
 90
       15
 70
     0
 71
     0
  1
AcDbOsnapPointRef
 72
    13
331
C18
 73
     2
 91
        0
 40
0.0
 10
0.0
 20
0.0
 30
2.000000000000000E+50
 75
     0
  1
AcDbOsnapPointRef
 72
     1
331
C18
 73
     2
 91
        0
 40
0.9999999999999998
 10
0.0
 20
0.0
 30
2.000000000000000E+50
 75
     0
  1
AcDbOsnapPointRef
 72
    13
331
B8A
 73
     2
 91
        0
 40
0.0
 10
0.0
 20
0.0
 30
2.000000000000000E+50
 75
     0
  1
AcDbOsnapPointRef
 72
     1
331
B8A
 73
     2
 91
        0
 40
1.0
 10
0.0
 20
0.0
 30
2.000000000000000E+50
 75
     0
  0
DIMASSOC
  5
F26
102
{ACAD_REACTORS
330
F1C
102
}
330
F1C
100
AcDbDimAssoc
330
F0F
 90
        1
 70
     0
 71
     0
  1
AcDbOsnapPointRef
 72
    13
331
BBE
 73
     2
 91
        0
 40
0.0
 10
0.0
 20
0.0
 30
2.000000000000000E+50
 75
     0
  0
DIMASSOC
  5
1E31
102
{ACAD_REACTORS
330
1E27
102
}
330
1E27
100
AcDbDimAssoc
330
1E1A
 90
        3
 70
     0
 71
     0
  1
AcDbOsnapPointRef
 72
    13
331
135F
 73
     2
 91
        0
 40
0.0
 10
0.0
 20
0.0
 30
2.000000000000000E+50
 75
     0
  1
AcDbOsnapPointRef
 72
     1
331
BFB
 73
     2
 91
        0
 40
1.0
 10
0.0
 20
0.0
 30
2.000000000000000E+50
 75
     0
  0
LAYOUT
  5
1F
102
{ACAD_REACTORS
330
19
102
}
330
19
100
AcDbPlotSettings
  1

  2
Microsoft Office Document Image Writer
  4

  6

 40
0.0
 41
0.0
 42
0.0
 43
0.0
 44
0.0
 45
0.0
 46
0.0
 47
0.0
 48
0.0
 49
0.0
140
0.0
141
0.0
142
1.0
143
1.0
 70
   688
 72
     0
 73
     0
 74
     5
  7
monochrome1.ctb
 75
    16
147
1.0
 76
     0
 77
     2
 78
   300
148
0.0
149
0.0
100
AcDbLayout
  1
Layout1
 70
     0
 71
     1
 10
0.0
 20
0.0
 11
12.0
 21
9.0
 12
0.0
 22
0.0
 32
0.0
 14
1.000000000000000E+20
 24
1.000000000000000E+20
 34
1.000000000000000E+20
 15
-1.000000000000000E+20
 25
-1.000000000000000E+20
 35
-1.000000000000000E+20
146
0.0
 13
0.0
 23
0.0
 33
0.0
 16
1.0
 26
0.0
 36
0.0
 17
0.0
 27
1.0
 37
0.0
 76
     0
330
1C
  0
LAYOUT
  5
23
102
{ACAD_REACTORS
330
19
102
}
330
19
100
AcDbPlotSettings
  1

  2
Microsoft Office Document Image Writer
  4
A4
  6

 40
3.174999952316284
 41
3.174999952316284
 42
3.175003051757812
 43
3.17498779296875
 44
209.9733276367187
 45
297.0106506347656
 46
0.0
 47
0.0
 48
0.0
 49
0.0
140
0.0
141
0.0
142
1.0
143
1.0
 70
 11952
 72
     0
 73
     1
 74
     0
  7

 75
     0
147
1.0
 76
     0
 77
     2
 78
   300
148
-3038.972641462108
149
85.22737308608482
100
AcDbLayout
  1
Model
 70
     1
 71
     0
 10
0.0
 20
0.0
 11
12.0
 21
9.0
 12
0.0
 22
0.0
 32
0.0
 14
0.0
 24
0.0
 34
0.0
 15
0.0
 25
0.0
 35
0.0
146
0.0
 13
0.0
 23
0.0
 33
0.0
 16
1.0
 26
0.0
 36
0.0
 17
0.0
 27
1.0
 37
0.0
 76
     0
330
20
  0
MLINESTYLE
  5
17
102
{ACAD_REACTORS
330
16
102
}
330
16
100
AcDbMlineStyle
  2
STANDARD
 70
     0
  3

 62
   256
 51
90.0
 52
90.0
 71
     2
 49
0.5
 62
   256
  6
BYLAYER
 49
-0.5
 62
   256
  6
BYLAYER
  0
ACDBPLACEHOLDER
  5
F
102
{ACAD_REACTORS
330
E
102
}
330
E
  0
DICTIONARYVAR
  5
6BB
102
{ACAD_REACTORS
330
6B8
102
}
330
6B8
100
DictionaryVariables
280
     0
  1
2
  0
DICTIONARYVAR
  5
6BA
102
{ACAD_REACTORS
330
6B8
102
}
330
6B8
100
DictionaryVariables
280
     0
  1
1
  0
DICTIONARYVAR
  5
6B9
102
{ACAD_REACTORS
330
6B8
102
}
330
6B8
100
DictionaryVariables
280
     0
  1
1
  0
DICTIONARYVAR
  5
6BC
102
{ACAD_REACTORS
330
6B8
102
}
330
6B8
100
DictionaryVariables
280
     0
  1

  0
DICTIONARY
  5
539
102
{ACAD_REACTORS
330
52C
102
}
330
52C
100
AcDbDictionary
281
     1
  0
LAYER_INDEX
  5
76B
102
{ACAD_REACTORS
330
76A
102
}
330
76A
100
AcDbIndex
 40
2455460.445737049
100
AcDbLayerIndex
  8
0
360
76C
 90
        0
  8
VOLL
360
76D
 90
        8
  8
HILF
360
76E
 90
       28
  8
MITTEL
360
76F
 90
        6
  8
BEM
360
770
 90
       20
  8
DEFPOINTS
360
771
 90
        0
  8
STEMPEL
360
772
 90
      311
  8
SCHRAFF
360
773
 90
       18
  8
TEXT
360
774
 90
       51
  0
IDBUFFER
  5
76C
330
0
100
AcDbIdBuffer
  0
IDBUFFER
  5
76D
330
0
100
AcDbIdBuffer
330
46B
330
46F
330
470
330
4BD
330
4C1
330
4C7
330
12A0
330
176D
  0
IDBUFFER
  5
76E
330
0
100
AcDbIdBuffer
330
3A1
330
3A2
330
3AA
330
455
330
456
330
457
330
458
330
459
330
460
330
461
330
462
330
463
330
464
330
465
330
466
330
4B3
330
4B4
330
4B5
330
4C8
330
4CE
330
BB8
330
BD0
330
BFE
330
EE0
330
EE1
330
EE2
330
FE8
330
FE9
  0
IDBUFFER
  5
76F
330
0
100
AcDbIdBuffer
330
B8A
330
BC8
330
BE6
330
C00
330
C18
330
12FC
  0
IDBUFFER
  5
770
330
0
100
AcDbIdBuffer
330
469
330
49A
330
B8E
330
B8F
330
BB6
330
C42
330
D87
330
DFD
330
F0F
330
1DFA
330
1DFB
330
1E1A
330
1EB7
330
1EB8
330
1EB9
330
1EBA
330
1EBB
330
1EBC
330
1EBD
330
1ED0
  0
IDBUFFER
  5
771
330
0
100
AcDbIdBuffer
  0
IDBUFFER
  5
772
330
0
100
AcDbIdBuffer
330
3A3
330
3A4
330
3AB
330
452
330
453
330
454
330
45F
330
46A
330
4B6
330
4BC
330
4C6
330
4CD
330
4CF
330
B88
330
B89
330
B8B
330
B8C
330
BA5
330
BA6
330
BA7
330
BA8
330
BA9
330
BAA
330
BAB
330
BAC
330
BAD
330
BAE
330
BAF
330
BB0
330
BB1
330
BB2
330
BB3
330
BB4
330
BBD
330
BBE
330
BBF
330
BC3
330
BC4
330
BC5
330
BC6
330
BC7
330
BC9
330
BCA
330
BCB
330
BCC
330
BCD
330
BCE
330
BCF
330
BD1
330
BD5
330
BD6
330
BD9
330
BDA
330
BDC
330
BDD
330
BE2
330
BE3
330
BE4
330
BE5
330
BE8
330
BEB
330
BF1
330
BF2
330
BF3
330
BF4
330
BF5
330
BF6
330
BF7
330
BF8
330
BF9
330
BFB
330
BFF
330
C01
330
C02
330
C03
330
C05
330
C06
330
C12
330
C13
330
C15
330
C1C
330
C1D
330
C1E
330
C1F
330
C21
330
C22
330
C23
330
C24
330
C27
330
C28
330
C29
330
C2A
330
C2B
330
C48
330
C49
330
EE5
330
EE6
330
EE7
330
EE8
330
EE9
330
EEA
330
EED
330
EEE
330
EEF
330
EF0
330
EF1
330
EF2
330
EF3
330
EF4
330
EF5
330
EF6
330
EF7
330
EF8
330
EF9
330
EFA
330
EFC
330
EFD
330
EFE
330
EFF
330
F02
330
F03
330
F04
330
F05
330
F06
330
F07
330
F08
330
F09
330
F0A
330
F0B
330
F0C
330
F0D
330
12AB
330
12AC
330
12AD
330
12AF
330
12B0
330
12B1
330
12B2
330
12B3
330
12B4
330
12B5
330
12B6
330
12B9
330
12BA
330
12BB
330
12BC
330
12BD
330
12BE
330
12BF
330
12C0
330
12C1
330
12C2
330
12C3
330
12C4
330
12C5
330
12C6
330
12C7
330
12C8
330
12C9
330
12CA
330
12CB
330
12CC
330
12CD
330
12CE
330
12CF
330
12D0
330
12D1
330
12D2
330
12D3
330
12D5
330
12D6
330
12D9
330
12DA
330
12F5
330
12F6
330
12F7
330
12F8
330
12F9
330
12FA
330
12FB
330
12FD
330
12FE
330
12FF
330
1300
330
1301
330
1302
330
1303
330
1307
330
1308
330
1309
330
130A
330
130B
330
130C
330
130D
330
130E
330
130F
330
1310
330
1311
330
1312
330
1313
330
1314
330
1315
330
1316
330
1317
330
1318
330
1319
330
131A
330
131B
330
131C
330
131D
330
131E
330
131F
330
1320
330
1322
330
1325
330
1328
330
1329
330
1359
330
135E
330
135F
330
1360
330
1781
330
1782
330
1787
330
1788
330
17BA
330
17BB
330
17BC
330
17BD
330
17BE
330
17BF
330
17C0
330
17C1
330
17C2
330
17C3
330
17C4
330
17C5
330
17C6
330
17C7
330
17C8
330
17C9
330
17CA
330
17CB
330
17CC
330
17CD
330
17CE
330
17CF
330
17D0
330
17D1
330
17D2
330
17D3
330
17D4
330
17D5
330
17D6
330
17D7
330
17D8
330
17D9
330
17DA
330
17DB
330
17DC
330
17DD
330
17DE
330
17DF
330
17E0
330
17E1
330
17E2
330
17E3
330
17E4
330
17E5
330
17E6
330
17E7
330
1BAA
330
1BAC
330
1BC7
330
1BC8
330
1BC9
330
1BCB
330
1BCC
330
1BCD
330
1BCE
330
1BCF
330
1BD0
330
1BD1
330
1BD2
330
1BD3
330
1BD4
330
1BD5
330
1BD6
330
1BD7
330
1BD8
330
1D8F
330
1D90
330
1D91
330
1D92
330
1D93
330
1D94
330
1D95
330
1D96
330
1D97
330
1D98
330
1D99
330
1D9A
330
1D9B
330
1D9C
330
1D9D
330
1D9E
330
1D9F
330
1DA3
330
1DE5
330
1DE6
330
1E4D
  0
IDBUFFER
  5
773
330
0
100
AcDbIdBuffer
330
BE0
330
F7A
330
F8B
330
F9B
330
FC8
330
FC9
330
FCA
330
FCB
330
FCF
330
FD6
330
FDA
330
FDD
330
FE1
330
FE2
330
FE6
330
1366
330
17F5
330
1DCE
  0
IDBUFFER
  5
774
330
0
100
AcDbIdBuffer
330
450
330
451
330
45B
330
45C
330
468
330
46C
330
46D
330
4B7
330
4B8
330
4B9
330
4BA
330
4BB
330
4BE
330
4BF
330
4C0
330
4C2
330
4C3
330
4C4
330
4C5
330
4C9
330
4CA
330
4CB
330
4CC
330
4D0
330
5CB
330
5CC
330
BFC
330
C0C
330
C0D
330
C1B
330
DFB
330
DFC
330
1ED1
330
1ED2
330
1ED3
330
1ED4
330
1ED5
330
1ED6
330
1ED7
330
1ED8
330
1ED9
330
1EDA
330
1EDB
330
1EDC
330
1EDD
330
1EDE
330
1EDF
330
1EE1
330
1EF8
330
1EF9
330
1EFA
  0
ENDSEC
  0
EOF
