  0
SECTION
  2
HEADER
  9
$ACADVER
  1
AC1018
  9
$ACADMAINTVER
 70
   104
  9
$DWGCODEPAGE
  3
ANSI_1252
  9
$LASTSAVEDBY
  1
w.koehlhoff
  9
$INSBASE
 10
0.0
 20
0.0
 30
0.0
  9
$EXTMIN
 10
-0.0127956723463285
 20
-0.0090483683025013
 30
-0.0000000000000053
  9
$EXTMAX
 10
840.0128259890154
 20
594.0090698065175
 30
0.0000000000000099
  9
$LIMMIN
 10
0.0
 20
0.0
  9
$LIMMAX
 10
839.9999999999998
 20
594.0000000000001
  9
$ORTHOMODE
 70
     1
  9
$REGENMODE
 70
     1
  9
$FILLMODE
 70
     1
  9
$QTEXTMODE
 70
     0
  9
$MIRRTEXT
 70
     1
  9
$LTSCALE
 40
20.0
  9
$ATTMODE
 70
     1
  9
$TEXTSIZE
 40
2.5
  9
$TRACEWID
 40
0.5
  9
$TEXTSTYLE
  7
GREEKS
  9
$CLAYER
  8
BEM
  9
$CELTYPE
  6
ByLayer
  9
$CECOLOR
 62
   256
  9
$CELTSCALE
 40
1.0
  9
$DISPSILH
 70
     0
  9
$DIMSCALE
 40
2.0
  9
$DIMASZ
 40
3.5
  9
$DIMEXO
 40
1.0
  9
$DIMDLI
 40
0.38
  9
$DIMRND
 40
0.0
  9
$DIMDLE
 40
0.0
  9
$DIMEXE
 40
1.0
  9
$DIMTP
 40
0.0
  9
$DIMTM
 40
0.0
  9
$DIMTXT
 40
3.5
  9
$DIMCEN
 40
0.09
  9
$DIMTSZ
 40
0.0
  9
$DIMTOL
 70
     0
  9
$DIMLIM
 70
     0
  9
$DIMTIH
 70
     0
  9
$DIMTOH
 70
     0
  9
$DIMSE1
 70
     0
  9
$DIMSE2
 70
     0
  9
$DIMTAD
 70
     1
  9
$DIMZIN
 70
     8
  9
$DIMBLK
  1

  9
$DIMASO
 70
     1
  9
$DIMSHO
 70
     0
  9
$DIMPOST
  1

  9
$DIMAPOST
  1

  9
$DIMALT
 70
     0
  9
$DIMALTD
 70
     2
  9
$DIMALTF
 40
25.4
  9
$DIMLFAC
 40
1.0
  9
$DIMTOFL
 70
     1
  9
$DIMTVP
 40
0.0
  9
$DIMTIX
 70
     0
  9
$DIMSOXD
 70
     0
  9
$DIMSAH
 70
     0
  9
$DIMBLK1
  1

  9
$DIMBLK2
  1

  9
$DIMSTYLE
  2
STANDARD
  9
$DIMCLRD
 70
     0
  9
$DIMCLRE
 70
     0
  9
$DIMCLRT
 70
     1
  9
$DIMTFAC
 40
0.5142857142857144
  9
$DIMGAP
 40
1.5
  9
$DIMJUST
 70
     0
  9
$DIMSD1
 70
     0
  9
$DIMSD2
 70
     0
  9
$DIMTOLJ
 70
     1
  9
$DIMTZIN
 70
     8
  9
$DIMALTZ
 70
     8
  9
$DIMALTTZ
 70
     8
  9
$DIMUPT
 70
     0
  9
$DIMDEC
 70
     2
  9
$DIMTDEC
 70
     2
  9
$DIMALTU
 70
     2
  9
$DIMALTTD
 70
     2
  9
$DIMTXSTY
  7
GREEKS
  9
$DIMAUNIT
 70
     0
  9
$DIMADEC
 70
     2
  9
$DIMALTRND
 40
0.0
  9
$DIMAZIN
 70
     2
  9
$DIMDSEP
 70
    46
  9
$DIMATFIT
 70
     0
  9
$DIMFRAC
 70
     0
  9
$DIMLDRBLK
  1

  9
$DIMLUNIT
 70
     2
  9
$DIMLWD
 70
    -2
  9
$DIMLWE
 70
    -2
  9
$DIMTMOVE
 70
     0
  9
$LUNITS
 70
     2
  9
$LUPREC
 70
     2
  9
$SKETCHINC
 40
1.0
  9
$FILLETRAD
 40
5.0
  9
$AUNITS
 70
     0
  9
$AUPREC
 70
     0
  9
$MENU
  1
ACAD
  9
$ELEVATION
 40
0.0
  9
$PELEVATION
 40
0.0
  9
$THICKNESS
 40
0.0
  9
$LIMCHECK
 70
     0
  9
$CHAMFERA
 40
0.0
  9
$CHAMFERB
 40
0.0
  9
$CHAMFERC
 40
0.0
  9
$CHAMFERD
 40
0.0
  9
$SKPOLY
 70
     0
  9
$TDCREATE
 40
2452806.196353935
  9
$TDUCREATE
 40
2452806.154687269
  9
$TDUPDATE
 40
2457053.416616667
  9
$TDUUPDATE
 40
2457053.374950000
  9
$TDINDWG
 40
0.5453771991
  9
$TDUSRTIMER
 40
0.5453771991
  9
$USRTIMER
 70
     1
  9
$ANGBASE
 50
0.0
  9
$ANGDIR
 70
     0
  9
$PDMODE
 70
     0
  9
$PDSIZE
 40
0.0
  9
$PLINEWID
 40
0.0
  9
$SPLFRAME
 70
     0
  9
$SPLINETYPE
 70
     6
  9
$SPLINESEGS
 70
     8
  9
$HANDSEED
  5
38CE
  9
$SURFTAB1
 70
     6
  9
$SURFTAB2
 70
     6
  9
$SURFTYPE
 70
     6
  9
$SURFU
 70
     6
  9
$SURFV
 70
     6
  9
$UCSBASE
  2

  9
$UCSNAME
  2

  9
$UCSORG
 10
0.0
 20
0.0
 30
0.0
  9
$UCSXDIR
 10
1.0
 20
0.0
 30
0.0
  9
$UCSYDIR
 10
0.0
 20
1.0
 30
0.0
  9
$UCSORTHOREF
  2

  9
$UCSORTHOVIEW
 70
     0
  9
$UCSORGTOP
 10
0.0
 20
0.0
 30
0.0
  9
$UCSORGBOTTOM
 10
0.0
 20
0.0
 30
0.0
  9
$UCSORGLEFT
 10
0.0
 20
0.0
 30
0.0
  9
$UCSORGRIGHT
 10
0.0
 20
0.0
 30
0.0
  9
$UCSORGFRONT
 10
0.0
 20
0.0
 30
0.0
  9
$UCSORGBACK
 10
0.0
 20
0.0
 30
0.0
  9
$PUCSBASE
  2

  9
$PUCSNAME
  2

  9
$PUCSORG
 10
0.0
 20
0.0
 30
0.0
  9
$PUCSXDIR
 10
1.0
 20
0.0
 30
0.0
  9
$PUCSYDIR
 10
0.0
 20
1.0
 30
0.0
  9
$PUCSORTHOREF
  2

  9
$PUCSORTHOVIEW
 70
     0
  9
$PUCSORGTOP
 10
0.0
 20
0.0
 30
0.0
  9
$PUCSORGBOTTOM
 10
0.0
 20
0.0
 30
0.0
  9
$PUCSORGLEFT
 10
0.0
 20
0.0
 30
0.0
  9
$PUCSORGRIGHT
 10
0.0
 20
0.0
 30
0.0
  9
$PUCSORGFRONT
 10
0.0
 20
0.0
 30
0.0
  9
$PUCSORGBACK
 10
0.0
 20
0.0
 30
0.0
  9
$USERI1
 70
     0
  9
$USERI2
 70
     0
  9
$USERI3
 70
     0
  9
$USERI4
 70
     0
  9
$USERI5
 70
     0
  9
$USERR1
 40
0.0
  9
$USERR2
 40
0.0
  9
$USERR3
 40
0.0
  9
$USERR4
 40
0.0
  9
$USERR5
 40
0.0
  9
$WORLDVIEW
 70
     1
  9
$SHADEDGE
 70
     3
  9
$SHADEDIF
 70
    70
  9
$TILEMODE
 70
     1
  9
$MAXACTVP
 70
    16
  9
$PINSBASE
 10
0.0
 20
0.0
 30
0.0
  9
$PLIMCHECK
 70
     0
  9
$PEXTMIN
 10
1.000000000000000E+20
 20
1.000000000000000E+20
 30
1.000000000000000E+20
  9
$PEXTMAX
 10
-1.000000000000000E+20
 20
-1.000000000000000E+20
 30
-1.000000000000000E+20
  9
$PLIMMIN
 10
0.0
 20
0.0
  9
$PLIMMAX
 10
12.0
 20
9.0
  9
$UNITMODE
 70
     0
  9
$VISRETAIN
 70
     0
  9
$PLINEGEN
 70
     0
  9
$PSLTSCALE
 70
     0
  9
$TREEDEPTH
 70
  3020
  9
$CMLSTYLE
  2
Standard
  9
$CMLJUST
 70
     0
  9
$CMLSCALE
 40
1.0
  9
$PROXYGRAPHICS
 70
     1
  9
$MEASUREMENT
 70
     0
  9
$CELWEIGHT
370
    -1
  9
$ENDCAPS
280
     0
  9
$JOINSTYLE
280
     0
  9
$LWDISPLAY
290
     0
  9
$INSUNITS
 70
     0
  9
$HYPERLINKBASE
  1

  9
$STYLESHEET
  1
monochrome1.ctb
  9
$XEDIT
290
     1
  9
$CEPSNTYPE
380
     0
  9
$PSTYLEMODE
290
     1
  9
$FINGERPRINTGUID
  2
{CEB2A312-A602-11D7-B633-000102183313}
  9
$VERSIONGUID
  2
{3A020E71-0521-4954-886C-DE91872D7558}
  9
$EXTNAMES
290
     1
  9
$PSVPSCALE
 40
0.0
  9
$OLESTARTUP
290
     0
  9
$SORTENTS
280
    96
  9
$INDEXCTL
280
     0
  9
$HIDETEXT
280
     0
  9
$XCLIPFRAME
290
     0
  9
$HALOGAP
280
     0
  9
$OBSCOLOR
 70
   257
  9
$OBSLTYPE
280
     0
  9
$INTERSECTIONDISPLAY
280
     0
  9
$INTERSECTIONCOLOR
 70
   257
  9
$DIMASSOC
280
     1
  9
$PROJECTNAME
  1

  0
ENDSEC
  0
SECTION
  2
CLASSES
  0
CLASS
  1
ACDBDICTIONARYWDFLT
  2
AcDbDictionaryWithDefault
  3
ObjectDBX Classes
 90
        0
 91
        1
280
     0
281
     0
  0
CLASS
  1
DICTIONARYVAR
  2
AcDbDictionaryVar
  3
ObjectDBX Classes
 90
        0
 91
        8
280
     0
281
     0
  0
CLASS
  1
MATERIAL
  2
AcDbMaterial
  3
ObjectDBX Classes
 90
     1153
 91
        3
280
     0
281
     0
  0
CLASS
  1
VISUALSTYLE
  2
AcDbVisualStyle
  3
ObjectDBX Classes
 90
     4095
 91
       24
280
     0
281
     0
  0
CLASS
  1
TABLESTYLE
  2
AcDbTableStyle
  3
ObjectDBX Classes
 90
     4095
 91
        1
280
     0
281
     0
  0
CLASS
  1
SCALE
  2
AcDbScale
  3
ObjectDBX Classes
 90
     1153
 91
       17
280
     0
281
     0
  0
CLASS
  1
MLEADERSTYLE
  2
AcDbMLeaderStyle
  3
ACDB_MLEADERSTYLE_CLASS
 90
     4095
 91
        1
280
     0
281
     0
  0
CLASS
  1
ACDBSECTIONVIEWSTYLE
  2
AcDbSectionViewStyle
  3
ObjectDBX Classes
 90
     1025
 91
        1
280
     0
281
     0
  0
CLASS
  1
ACDBDETAILVIEWSTYLE
  2
AcDbDetailViewStyle
  3
ObjectDBX Classes
 90
     1025
 91
        1
280
     0
281
     0
  0
CLASS
  1
SORTENTSTABLE
  2
AcDbSortentsTable
  3
ObjectDBX Classes
 90
        0
 91
        0
280
     0
281
     0
  0
CLASS
  1
CELLSTYLEMAP
  2
AcDbCellStyleMap
  3
ObjectDBX Classes
 90
     1152
 91
        3
280
     0
281
     0
  0
ENDSEC
  0
SECTION
  2
TABLES
  0
TABLE
  2
VPORT
  5
10EB
102
{ACAD_XDICTIONARY
360
3392
102
}
330
0
100
AcDbSymbolTable
 70
     1
  0
VPORT
  5
3143
330
10EB
100
AcDbSymbolTableRecord
100
AcDbViewportTableRecord
  2
*Active
 70
     0
 10
0.0
 20
0.0
 11
1.0
 21
1.0
 12
420.0000151583345
 22
297.0000107191076
 13
0.0
 23
0.0
 14
1.0
 24
1.0
 15
20.0
 25
20.0
 16
0.0
 26
0.0
 36
1.0
 17
0.0
 27
0.0
 37
0.0
 40
598.3805523352227
 41
1.852941176470588
 42
50.0
 43
0.0
 44
0.0
 50
0.0
 51
0.0
 71
     0
 72
  1500
 73
     1
 74
     0
 75
     0
 76
     0
 77
     0
 78
     0
281
     0
 65
     1
110
0.0
120
0.0
130
0.0
111
1.0
121
0.0
131
0.0
112
0.0
122
1.0
132
0.0
 79
     0
146
0.0
1001
ACAD_NAV_VCDISPLAY
1070
     3
  0
ENDTAB
  0
TABLE
  2
LTYPE
  5
10E8
330
0
100
AcDbSymbolTable
 70
     5
  0
LTYPE
  5
10F6
330
10E8
100
AcDbSymbolTableRecord
100
AcDbLinetypeTableRecord
  2
ByBlock
 70
     0
  3

 72
    65
 73
     0
 40
0.0
  0
LTYPE
  5
10F7
330
10E8
100
AcDbSymbolTableRecord
100
AcDbLinetypeTableRecord
  2
ByLayer
 70
     0
  3

 72
    65
 73
     0
 40
0.0
  0
LTYPE
  5
10F8
330
10E8
100
AcDbSymbolTableRecord
100
AcDbLinetypeTableRecord
  2
AUSGEZOGEN
 70
     0
  3
Ausgezogene Linie
 72
    65
 73
     0
 40
0.0
  0
LTYPE
  5
1118
330
10E8
100
AcDbSymbolTableRecord
100
AcDbLinetypeTableRecord
  2
STRICHPUNKT
 70
     0
  3
__ . __ . __ . __ . __ . __ . __ . __ . __ . __
 72
    65
 73
     4
 40
1.0
 49
0.5
 74
     0
 49
-0.25
 74
     0
 49
0.0
 74
     0
 49
-0.25
 74
     0
  0
LTYPE
  5
1119
330
10E8
100
AcDbSymbolTableRecord
100
AcDbLinetypeTableRecord
  2
CONTINUOUS
 70
     0
  3
Solid line
 72
    65
 73
     0
 40
0.0
  0
LTYPE
  5
318D
330
10E8
100
AcDbSymbolTableRecord
100
AcDbLinetypeTableRecord
  2
PHANTOM2
 70
     0
  3
Phantom (.5x) ___ _ _ ___ _ _ ___ _ _ ___ _ _
 72
    65
 73
     6
 40
1.25
 49
0.625
 74
     0
 49
-0.125
 74
     0
 49
0.125
 74
     0
 49
-0.125
 74
     0
 49
0.125
 74
     0
 49
-0.125
 74
     0
  0
ENDTAB
  0
TABLE
  2
LAYER
  5
10E5
102
{ACAD_XDICTIONARY
360
2C6D
102
}
330
0
100
AcDbSymbolTable
 70
     9
  0
LAYER
  5
10F3
102
{ACAD_XDICTIONARY
360
32CD
102
}
330
10E5
100
AcDbSymbolTableRecord
100
AcDbLayerTableRecord
  2
0
 70
     0
 62
     7
  6
AUSGEZOGEN
370
    -3
390
10F2
  0
LAYER
  5
111D
102
{ACAD_XDICTIONARY
360
32CF
102
}
330
10E5
100
AcDbSymbolTableRecord
100
AcDbLayerTableRecord
  2
VOLL
 70
     0
 62
     1
  6
AUSGEZOGEN
370
    -3
390
10F2
  0
LAYER
  5
111E
102
{ACAD_XDICTIONARY
360
32D1
102
}
330
10E5
100
AcDbSymbolTableRecord
100
AcDbLayerTableRecord
  2
HILF
 70
     0
 62
     2
  6
AUSGEZOGEN
370
    -3
390
10F2
  0
LAYER
  5
111F
102
{ACAD_XDICTIONARY
360
32D3
102
}
330
10E5
100
AcDbSymbolTableRecord
100
AcDbLayerTableRecord
  2
MITTEL
 70
     0
 62
     2
  6
STRICHPUNKT
370
    -3
390
10F2
  0
LAYER
  5
1120
102
{ACAD_XDICTIONARY
360
32D5
102
}
330
10E5
100
AcDbSymbolTableRecord
100
AcDbLayerTableRecord
  2
BEM
 70
     0
 62
     7
  6
AUSGEZOGEN
370
    -3
390
10F2
  0
LAYER
  5
1121
102
{ACAD_XDICTIONARY
360
32D7
102
}
330
10E5
100
AcDbSymbolTableRecord
100
AcDbLayerTableRecord
  2
STEMPEL
 70
     0
 62
     3
  6
AUSGEZOGEN
370
    -3
390
10F2
  0
LAYER
  5
1122
102
{ACAD_XDICTIONARY
360
32D9
102
}
330
10E5
100
AcDbSymbolTableRecord
100
AcDbLayerTableRecord
  2
TEXT
 70
     0
 62
     7
  6
AUSGEZOGEN
370
    -3
390
10F2
  0
LAYER
  5
1123
102
{ACAD_XDICTIONARY
360
32DB
102
}
330
10E5
100
AcDbSymbolTableRecord
100
AcDbLayerTableRecord
  2
SCHRAFF
 70
     0
 62
     7
  6
AUSGEZOGEN
370
    -3
390
10F2
  0
LAYER
  5
1124
330
10E5
100
AcDbSymbolTableRecord
100
AcDbLayerTableRecord
  2
DEFPOINTS
 70
     0
 62
     7
  6
AUSGEZOGEN
290
     0
370
    -3
390
10F2
  0
ENDTAB
  0
TABLE
  2
STYLE
  5
10E6
330
0
100
AcDbSymbolTable
 70
     3
  0
STYLE
  5
10F4
330
10E6
100
AcDbSymbolTableRecord
100
AcDbTextStyleTableRecord
  2
STANDARD
 70
     0
 40
0.0
 41
1.0
 50
0.0
 71
     0
 42
3.5
  3
txt
  4

  0
STYLE
  5
1117
330
10E6
100
AcDbSymbolTableRecord
100
AcDbTextStyleTableRecord
  2
GREEKS
 70
     0
 40
0.0
 41
0.8
 50
0.0
 71
     0
 42
2.5
  3
SIMPLEX.shx
  4

  0
ENDTAB
  0
TABLE
  2
VIEW
  5
10E9
330
0
100
AcDbSymbolTable
 70
     0
  0
ENDTAB
  0
TABLE
  2
UCS
  5
10EA
330
0
100
AcDbSymbolTable
 70
     0
  0
ENDTAB
  0
TABLE
  2
APPID
  5
10EC
330
0
100
AcDbSymbolTable
 70
     6
  0
APPID
  5
10F5
330
10EC
100
AcDbSymbolTableRecord
100
AcDbRegAppTableRecord
  2
ACAD
 70
     0
  0
APPID
  5
31A1
330
10EC
100
AcDbSymbolTableRecord
100
AcDbRegAppTableRecord
  2
ACAD_NAV_VCDISPLAY
 70
     0
  0
APPID
  5
31A2
330
10EC
100
AcDbSymbolTableRecord
100
AcDbRegAppTableRecord
  2
GradientColor1ACI
 70
     0
  0
APPID
  5
31A3
330
10EC
100
AcDbSymbolTableRecord
100
AcDbRegAppTableRecord
  2
GradientColor2ACI
 70
     0
  0
APPID
  5
32CB
330
10EC
100
AcDbSymbolTableRecord
100
AcDbRegAppTableRecord
  2
ACAD_EXEMPT_FROM_CAD_STANDARDS
 70
     0
  0
APPID
  5
33CA
330
10EC
100
AcDbSymbolTableRecord
100
AcDbRegAppTableRecord
  2
ACAD_MLEADERVER
 70
     0
  0
ENDTAB
  0
TABLE
  2
DIMSTYLE
  5
10ED
330
0
100
AcDbSymbolTable
 70
     2
100
AcDbDimStyleTable
 71
     1
340
111C
  0
DIMSTYLE
105
111C
102
{ACAD_REACTORS
330
23F1
330
2D3D
330
3017
330
3019
330
301B
330
3032
330
3033
330
30FC
102
}
330
10ED
100
AcDbSymbolTableRecord
100
AcDbDimStyleTableRecord
  2
STANDARD
 70
     0
 40
2.0
 41
3.5
 42
1.0
 44
1.0
 73
     0
 74
     0
 77
     1
 78
     8
 79
     2
140
3.5
146
0.5142857142857144
147
1.5
172
     1
178
     1
179
     2
271
     2
272
     2
284
     8
285
     8
286
     8
289
     0
340
1117
  0
ENDTAB
  0
TABLE
  2
BLOCK_RECORD
  5
10E4
330
0
100
AcDbSymbolTable
 70
    10
  0
BLOCK_RECORD
  5
1101
102
{ACAD_XDICTIONARY
360
1561
102
}
330
10E4
100
AcDbSymbolTableRecord
100
AcDbBlockTableRecord
  2
*Model_Space
340
1104
  0
BLOCK_RECORD
  5
10FD
102
{ACAD_XDICTIONARY
360
1563
102
}
330
10E4
100
AcDbSymbolTableRecord
100
AcDbBlockTableRecord
  2
*Paper_Space
340
1100
  0
BLOCK_RECORD
  5
1105
330
10E4
100
AcDbSymbolTableRecord
100
AcDbBlockTableRecord
  2
LOGO
340
0
102
{BLKREFS
331
2FC
102
}
  0
BLOCK_RECORD
  5
23F2
330
10E4
100
AcDbSymbolTableRecord
100
AcDbBlockTableRecord
  2
*D1
340
0
  0
BLOCK_RECORD
  5
2D3E
330
10E4
100
AcDbSymbolTableRecord
100
AcDbBlockTableRecord
  2
*D2
340
0
  0
BLOCK_RECORD
  5
3043
330
10E4
100
AcDbSymbolTableRecord
100
AcDbBlockTableRecord
  2
*D3
340
0
  0
BLOCK_RECORD
  5
304F
330
10E4
100
AcDbSymbolTableRecord
100
AcDbBlockTableRecord
  2
*D4
340
0
  0
BLOCK_RECORD
  5
3066
330
10E4
100
AcDbSymbolTableRecord
100
AcDbBlockTableRecord
  2
*D5
340
0
  0
BLOCK_RECORD
  5
3072
330
10E4
100
AcDbSymbolTableRecord
100
AcDbBlockTableRecord
  2
*D6
340
0
  0
BLOCK_RECORD
  5
307E
330
10E4
100
AcDbSymbolTableRecord
100
AcDbBlockTableRecord
  2
*D7
340
0
  0
BLOCK_RECORD
  5
30FD
330
10E4
100
AcDbSymbolTableRecord
100
AcDbBlockTableRecord
  2
*D8
340
0
  0
ENDTAB
  0
ENDSEC
  0
SECTION
  2
BLOCKS
  0
BLOCK
  5
1127
330
1101
100
AcDbEntity
  8
0
100
AcDbBlockBegin
  2
*Model_Space
 70
     0
 10
0.0
 20
0.0
 30
0.0
  3
*Model_Space
  1

  0
ENDBLK
  5
1128
330
1101
100
AcDbEntity
  8
0
100
AcDbBlockEnd
  0
BLOCK
  5
1125
330
10FD
100
AcDbEntity
 67
     1
  8
0
100
AcDbBlockBegin
  2
*Paper_Space
 70
     0
 10
0.0
 20
0.0
 30
0.0
  3
*Paper_Space
  1

  0
ENDBLK
  5
1126
330
10FD
100
AcDbEntity
 67
     1
  8
0
100
AcDbBlockEnd
  0
BLOCK
  5
42
330
1105
100
AcDbEntity
  8
0
100
AcDbBlockBegin
  2
LOGO
 70
     0
 10
0.0
 20
0.0
 30
0.0
  3
LOGO
  1

  0
ARC
  5
43
330
1105
100
AcDbEntity
  8
0
100
AcDbCircle
 10
11.59973089678112
 20
-9.271599258481501
 30
0.0
 40
4.5
100
AcDbArc
 50
270.0
 51
231.0575587310159
  0
LINE
  5
44
330
1105
100
AcDbEntity
  8
0
100
AcDbLine
 10
3.599730896781125
 20
-4.771599258481529
 30
0.0
 11
3.599730896781153
 21
-11.77159925848133
 31
0.0
  0
LINE
  5
45
330
1105
100
AcDbEntity
  8
0
100
AcDbLine
 10
2.599730896781125
 20
-4.771599258481529
 30
0.0
 11
2.599730896781153
 21
-11.77159925848133
 31
0.0
  0
CIRCLE
  5
46
330
1105
100
AcDbEntity
  8
0
100
AcDbCircle
 10
11.59973089678112
 20
-9.271599258481501
 30
0.0
 40
3.5
  0
ARC
  5
47
330
1105
100
AcDbEntity
  8
0
100
AcDbCircle
 10
31.59973089678115
 20
-9.271599258481472
 30
0.0
 40
4.5
100
AcDbArc
 50
270.0
 51
231.0575587310182
  0
LINE
  5
48
330
1105
100
AcDbEntity
  8
0
100
AcDbLine
 10
17.59973089678112
 20
-4.771599258481472
 30
0.0
 11
17.59973089678115
 21
-13.77159925848147
 31
0.0
  0
ARC
  5
49
330
1105
100
AcDbEntity
  8
0
100
AcDbCircle
 10
22.59973089678116
 20
-7.271599258481472
 30
0.0
 40
2.5
100
AcDbArc
 50
293.1161887722295
 51
90.0
  0
CIRCLE
  5
4A
330
1105
100
AcDbEntity
  8
0
100
AcDbCircle
 10
31.59973089678115
 20
-9.271599258481472
 30
0.0
 40
3.5
  0
ARC
  5
4B
330
1105
100
AcDbEntity
  8
0
100
AcDbCircle
 10
4.599730896781153
 20
-11.77159925848133
 30
0.0
 40
1.0
100
AcDbArc
 50
180.0
 51
270.0
  0
ARC
  5
4C
330
1105
100
AcDbEntity
  8
0
100
AcDbCircle
 10
4.599730896781153
 20
-11.77159925848133
 30
0.0
 40
2.0
100
AcDbArc
 50
179.9999999999992
 51
270.0
  0
LINE
  5
4D
330
1105
100
AcDbEntity
  8
0
100
AcDbLine
 10
11.59973089678115
 20
-13.77159925848144
 30
0.0
 11
4.599730896781153
 21
-13.77159925848147
 31
0.0
  0
LINE
  5
4E
330
1105
100
AcDbEntity
  8
0
100
AcDbLine
 10
8.771303772034769
 20
-12.77159925848136
 30
0.0
 11
4.599730896781153
 21
-12.77159925848133
 31
0.0
  0
LINE
  5
4F
330
1105
100
AcDbEntity
  8
0
100
AcDbLine
 10
31.59973089678115
 20
-13.77159925848147
 30
0.0
 11
23.6715276665056
 21
-13.77159925848144
 31
0.0
  0
LINE
  5
50
330
1105
100
AcDbEntity
  8
0
100
AcDbLine
 10
23.56565672307022
 20
-9.51278021337896
 30
0.0
 11
24.4388546544846
 21
-12.77159925848144
 31
0.0
  0
LINE
  5
51
330
1105
100
AcDbEntity
  8
0
100
AcDbLine
 10
22.59973089678116
 20
-9.771599258481472
 30
0.0
 11
18.59973089678112
 21
-9.771599258481472
 31
0.0
  0
LINE
  5
52
330
1105
100
AcDbEntity
  8
0
100
AcDbLine
 10
18.59973089678115
 20
-13.77159925848144
 30
0.0
 11
17.59973089678115
 21
-13.77159925848144
 31
0.0
  0
LINE
  5
53
330
1105
100
AcDbEntity
  8
0
100
AcDbLine
 10
18.59973089678115
 20
-9.771599258481472
 30
0.0
 11
18.59973089678115
 21
-13.77159925848144
 31
0.0
  0
LINE
  5
54
330
1105
100
AcDbEntity
  8
0
100
AcDbLine
 10
22.59973089678116
 20
-9.771599258481472
 30
0.0
 11
23.67152766650562
 21
-13.77159925848147
 31
0.0
  0
ARC
  5
55
330
1105
100
AcDbEntity
  8
0
100
AcDbCircle
 10
22.59973089678116
 20
-7.271599258481472
 30
0.0
 40
2.5
100
AcDbArc
 50
270.0
 51
270.0000000000007
  0
LINE
  5
56
330
1105
100
AcDbEntity
  8
0
100
AcDbLine
 10
28.77130377203494
 20
-12.77159925848147
 30
0.0
 11
24.43885465448463
 21
-12.77159925848144
 31
0.0
  0
LINE
  5
57
330
1105
100
AcDbEntity
  8
0
100
AcDbLine
 10
3.599730896781125
 20
-4.771599258481472
 30
0.0
 11
2.599730896781125
 21
-4.771599258481472
 31
0.0
  0
LINE
  5
58
330
1105
100
AcDbEntity
  8
0
100
AcDbLine
 10
22.59973089678116
 20
-8.771599258481472
 30
0.0
 11
18.59973089678115
 21
-8.771599258481472
 31
0.0
  0
LINE
  5
59
330
1105
100
AcDbEntity
  8
0
100
AcDbLine
 10
22.59973089678116
 20
-5.771599258481472
 30
0.0
 11
18.59973089678115
 21
-5.771599258481472
 31
0.0
  0
LINE
  5
5A
330
1105
100
AcDbEntity
  8
0
100
AcDbLine
 10
22.59973089678116
 20
-4.771599258481472
 30
0.0
 11
17.59973089678115
 21
-4.771599258481472
 31
0.0
  0
LINE
  5
5B
330
1105
100
AcDbEntity
  8
0
100
AcDbLine
 10
18.59973089678115
 20
-5.771599258481472
 30
0.0
 11
18.59973089678115
 21
-8.771599258481472
 31
0.0
  0
ARC
  5
5C
330
1105
100
AcDbEntity
  8
0
100
AcDbCircle
 10
22.59973089678116
 20
-7.271599258481472
 30
0.0
 40
1.5
100
AcDbArc
 50
270.0
 51
90.0
  0
ENDBLK
  5
5D
330
1105
100
AcDbEntity
  8
0
100
AcDbBlockEnd
  0
BLOCK
  5
23FC
330
23F2
100
AcDbEntity
  8
0
100
AcDbBlockBegin
  2
*D1
 70
     1
 10
0.0
 20
0.0
 30
0.0
  3
*D1
  1

  0
LINE
  5
3714
330
23F2
100
AcDbEntity
  8
BEM
 62
     0
440
 16777216
370
    -2
100
AcDbLine
 10
400.8123029715145
 20
344.9436219968307
 30
0.0
 11
400.8123029715145
 21
376.1512128767862
 31
0.0
  0
LINE
  5
3715
330
23F2
100
AcDbEntity
  8
BEM
 62
     0
440
 16777216
370
    -2
100
AcDbLine
 10
661.2521377362726
 20
248.728416095667
 30
0.0
 11
661.2521377362726
 21
376.1512128767862
 31
0.0
  0
LINE
  5
3716
330
23F2
100
AcDbEntity
  8
BEM
 62
     0
440
 16777216
370
    -2
100
AcDbLine
 10
407.8123029715144
 20
374.1512128767862
 30
0.0
 11
654.2521377362726
 21
374.1512128767862
 31
0.0
  0
SOLID
  5
3717
330
23F2
100
AcDbEntity
  8
BEM
 62
     0
440
 16777216
100
AcDbTrace
 10
407.8123029715144
 20
375.3178795434529
 30
0.0
 11
407.8123029715144
 21
372.9845462101196
 31
0.0
 12
400.8123029715145
 22
374.1512128767862
 32
0.0
 13
400.8123029715145
 23
374.1512128767862
 33
0.0
  0
SOLID
  5
3718
330
23F2
100
AcDbEntity
  8
BEM
 62
     0
440
 16777216
100
AcDbTrace
 10
654.2521377362726
 20
375.3178795434529
 30
0.0
 11
654.2521377362726
 21
372.9845462101196
 31
0.0
 12
661.2521377362726
 22
374.1512128767862
 32
0.0
 13
661.2521377362726
 23
374.1512128767862
 33
0.0
  0
MTEXT
  5
3719
330
23F2
100
AcDbEntity
  8
BEM
 62
     1
440
 16777216
100
AcDbMText
 10
531.0322203538935
 20
380.6512128767863
 30
0.0
 40
7.0
 41
0.0
 71
     5
 72
     1
  1
\A1;260
  7
GREEKS
 73
     1
 44
1.0
  0
POINT
  5
371A
330
23F2
100
AcDbEntity
  8
DEFPOINTS
 62
     0
440
 16777216
100
AcDbPoint
 10
400.8123029715145
 20
342.9436219968307
 30
0.0
  0
POINT
  5
371B
330
23F2
100
AcDbEntity
  8
DEFPOINTS
 62
     0
440
 16777216
100
AcDbPoint
 10
661.2521377362726
 20
246.728416095667
 30
0.0
  0
POINT
  5
371C
330
23F2
100
AcDbEntity
  8
DEFPOINTS
 62
     0
440
 16777216
100
AcDbPoint
 10
661.2521377362726
 20
374.1512128767862
 30
0.0
  0
ENDBLK
  5
23FD
330
23F2
100
AcDbEntity
  8
0
100
AcDbBlockEnd
  0
BLOCK
  5
2D48
330
2D3E
100
AcDbEntity
  8
0
100
AcDbBlockBegin
  2
*D2
 70
     1
 10
0.0
 20
0.0
 30
0.0
  3
*D2
  1

  0
LINE
  5
3131
330
2D3E
100
AcDbEntity
  8
BEM
 62
     0
440
 16777216
370
    -2
100
AcDbLine
 10
265.8123029715146
 20
307.9436219968311
 30
0.0
 11
265.8123029715146
 21
173.3259209733116
 31
0.0
  0
LINE
  5
3132
330
2D3E
100
AcDbEntity
  8
BEM
 62
     0
440
 16777216
370
    -2
100
AcDbLine
 10
547.8123029715145
 20
307.9436219968312
 30
0.0
 11
547.8123029715145
 21
173.3259209733116
 31
0.0
  0
LINE
  5
3133
330
2D3E
100
AcDbEntity
  8
BEM
 62
     0
440
 16777216
370
    -2
100
AcDbLine
 10
272.8123029715145
 20
175.3259209733116
 30
0.0
 11
540.8123029715145
 21
175.3259209733116
 31
0.0
  0
SOLID
  5
3134
330
2D3E
100
AcDbEntity
  8
BEM
 62
     0
440
 16777216
100
AcDbTrace
 10
272.8123029715145
 20
176.4925876399783
 30
0.0
 11
272.8123029715145
 21
174.159254306645
 31
0.0
 12
265.8123029715146
 22
175.3259209733116
 32
0.0
 13
265.8123029715146
 23
175.3259209733116
 33
0.0
  0
SOLID
  5
3135
330
2D3E
100
AcDbEntity
  8
BEM
 62
     0
440
 16777216
100
AcDbTrace
 10
540.8123029715145
 20
176.4925876399783
 30
0.0
 11
540.8123029715145
 21
174.159254306645
 31
0.0
 12
547.8123029715145
 22
175.3259209733116
 32
0.0
 13
547.8123029715145
 23
175.3259209733116
 33
0.0
  0
MTEXT
  5
3136
330
2D3E
100
AcDbEntity
  8
BEM
 62
     1
440
 16777216
100
AcDbMText
 10
406.8123029715145
 20
181.8259209733117
 30
0.0
 40
7.0
 41
0.0
 71
     5
 72
     1
  1
\A1;282
  7
GREEKS
 73
     1
 44
1.0
  0
POINT
  5
3137
330
2D3E
100
AcDbEntity
  8
DEFPOINTS
 62
     0
440
 16777216
100
AcDbPoint
 10
265.8123029715146
 20
309.9436219968311
 30
0.0
  0
POINT
  5
3138
330
2D3E
100
AcDbEntity
  8
DEFPOINTS
 62
     0
440
 16777216
100
AcDbPoint
 10
547.8123029715145
 20
309.9436219968312
 30
0.0
  0
POINT
  5
3139
330
2D3E
100
AcDbEntity
  8
DEFPOINTS
 62
     0
440
 16777216
100
AcDbPoint
 10
547.8123029715145
 20
175.3259209733116
 30
0.0
  0
ENDBLK
  5
2D49
330
2D3E
100
AcDbEntity
  8
0
100
AcDbBlockEnd
  0
BLOCK
  5
304D
330
3043
100
AcDbEntity
  8
0
100
AcDbBlockBegin
  2
*D3
 70
     1
 10
0.0
 20
0.0
 30
0.0
  3
*D3
  1

  0
LINE
  5
313A
330
3043
100
AcDbEntity
  8
BEM
 62
     0
440
 16777216
370
    -2
100
AcDbLine
 10
549.8123029715145
 20
309.9436219968311
 30
0.0
 11
698.6891805261771
 21
309.9436219968311
 31
0.0
  0
LINE
  5
313B
330
3043
100
AcDbEntity
  8
BEM
 62
     0
440
 16777216
370
    -2
100
AcDbLine
 10
681.4457213343437
 20
246.728416095667
 30
0.0
 11
698.6891805261771
 21
246.728416095667
 31
0.0
  0
LINE
  5
313C
330
3043
100
AcDbEntity
  8
BEM
 62
     0
440
 16777216
370
    -2
100
AcDbLine
 10
696.6891805261772
 20
302.9436219968311
 30
0.0
 11
696.6891805261771
 21
253.728416095667
 31
0.0
  0
SOLID
  5
313D
330
3043
100
AcDbEntity
  8
BEM
 62
     0
440
 16777216
100
AcDbTrace
 10
695.5225138595105
 20
302.9436219968311
 30
0.0
 11
697.8558471928438
 21
302.9436219968311
 31
0.0
 12
696.6891805261772
 22
309.9436219968311
 32
0.0
 13
696.6891805261772
 23
309.9436219968311
 33
0.0
  0
SOLID
  5
313E
330
3043
100
AcDbEntity
  8
BEM
 62
     0
440
 16777216
100
AcDbTrace
 10
695.5225138595104
 20
253.728416095667
 30
0.0
 11
697.8558471928437
 21
253.728416095667
 31
0.0
 12
696.6891805261771
 22
246.728416095667
 32
0.0
 13
696.6891805261771
 23
246.728416095667
 33
0.0
  0
MTEXT
  5
313F
330
3043
100
AcDbEntity
  8
BEM
 62
     1
440
 16777216
100
AcDbMText
 10
690.1891805261771
 20
278.3360190462492
 30
0.0
 40
7.0
 41
0.0
 71
     5
 72
     1
  1
\A1;63
  7
GREEKS
 11
0.0000000000000001
 21
1.0
 31
0.0
 73
     1
 44
1.0
  0
POINT
  5
3140
330
3043
100
AcDbEntity
  8
DEFPOINTS
 62
     0
440
 16777216
100
AcDbPoint
 10
547.8123029715145
 20
309.9436219968311
 30
0.0
  0
POINT
  5
3141
330
3043
100
AcDbEntity
  8
DEFPOINTS
 62
     0
440
 16777216
100
AcDbPoint
 10
679.4457213343437
 20
246.728416095667
 30
0.0
  0
POINT
  5
3142
330
3043
100
AcDbEntity
  8
DEFPOINTS
 62
     0
440
 16777216
100
AcDbPoint
 10
696.6891805261771
 20
246.728416095667
 30
0.0
  0
ENDBLK
  5
304E
330
3043
100
AcDbEntity
  8
0
100
AcDbBlockEnd
  0
BLOCK
  5
3059
330
304F
100
AcDbEntity
  8
0
100
AcDbBlockBegin
  2
*D4
 70
     1
 10
0.0
 20
0.0
 30
0.0
  3
*D4
  1

  0
LINE
  5
309F
330
304F
100
AcDbEntity
  8
BEM
 62
     0
440
 16777216
370
    -2
100
AcDbLine
 10
654.7136444338207
 20
220.5347168405605
 30
0.0
 11
680.006244386123
 21
219.2091878447627
 31
0.0
  0
LINE
  5
30A0
330
304F
100
AcDbEntity
  8
BEM
 62
     0
440
 16777216
370
    -2
100
AcDbLine
 10
657.4874501147035
 20
273.4620821825528
 30
0.0
 11
682.7800500670058
 21
272.136553186755
 31
0.0
  0
LINE
  5
30A1
330
304F
100
AcDbEntity
  8
BEM
 62
     0
440
 16777216
370
    -2
100
AcDbLine
 10
678.3753370103154
 20
226.3042665005309
 30
0.0
 11
680.4164393037951
 21
265.2508183559592
 31
0.0
  0
SOLID
  5
30A2
330
304F
100
AcDbEntity
  8
BEM
 62
     0
440
 16777216
100
AcDbTrace
 10
677.2102692197685
 20
226.3653251161478
 30
0.0
 11
679.5404048008625
 21
226.243207884914
 31
0.0
 12
678.0089853166138
 22
219.3138597572489
 32
0.0
 13
678.0089853166138
 23
219.3138597572489
 33
0.0
  0
SOLID
  5
30A3
330
304F
100
AcDbEntity
  8
BEM
 62
     0
440
 16777216
100
AcDbTrace
 10
679.2513715132482
 20
265.3118769715761
 30
0.0
 11
681.5815070943422
 21
265.1897597403423
 31
0.0
 12
680.7827909974967
 22
272.2412250992412
 32
0.0
 13
680.7827909974967
 23
272.2412250992412
 33
0.0
  0
MTEXT
  5
30A4
330
304F
100
AcDbEntity
  8
BEM
 62
     1
440
 16777216
100
AcDbMText
 10
672.9047961811505
 20
246.1177261438249
 30
0.0
 40
7.0
 41
0.0
 71
     5
 72
     1
  1
\A1;%%c53
  7
GREEKS
 11
0.0523359562430713
 21
0.9986295347545672
 31
0.0
 73
     1
 44
1.0
  0
POINT
  5
30A5
330
304F
100
AcDbEntity
  8
DEFPOINTS
 62
     0
440
 16777216
100
AcDbPoint
 10
652.7163853643116
 20
220.6393887530466
 30
0.0
  0
POINT
  5
30A6
330
304F
100
AcDbEntity
  8
DEFPOINTS
 62
     0
440
 16777216
100
AcDbPoint
 10
655.4901910451944
 20
273.566754095039
 30
0.0
  0
POINT
  5
30A7
330
304F
100
AcDbEntity
  8
DEFPOINTS
 62
     0
440
 16777216
100
AcDbPoint
 10
680.7827909974967
 20
272.2412250992412
 30
0.0
  0
ENDBLK
  5
305A
330
304F
100
AcDbEntity
  8
0
100
AcDbBlockEnd
  0
BLOCK
  5
3070
330
3066
100
AcDbEntity
  8
0
100
AcDbBlockBegin
  2
*D5
 70
     1
 10
0.0
 20
0.0
 30
0.0
  3
*D5
  1

  0
LINE
  5
30B0
330
3066
100
AcDbEntity
  8
BEM
 62
     0
440
 16777216
370
    -2
100
AcDbLine
 10
533.8123029715145
 20
261.9436219968311
 30
0.0
 11
533.8123029715145
 21
203.0051613783053
 31
0.0
  0
LINE
  5
30B1
330
3066
100
AcDbEntity
  8
BEM
 62
     0
440
 16777216
370
    -2
100
AcDbLine
 10
333.8123029715145
 20
261.9436219968311
 30
0.0
 11
333.8123029715145
 21
203.0051613783053
 31
0.0
  0
LINE
  5
30B2
330
3066
100
AcDbEntity
  8
BEM
 62
     0
440
 16777216
370
    -2
100
AcDbLine
 10
526.8123029715146
 20
205.0051613783053
 30
0.0
 11
340.8123029715146
 21
205.0051613783053
 31
0.0
  0
SOLID
  5
30B3
330
3066
100
AcDbEntity
  8
BEM
 62
     0
440
 16777216
100
AcDbTrace
 10
526.8123029715146
 20
206.1718280449719
 30
0.0
 11
526.8123029715146
 21
203.8384947116386
 31
0.0
 12
533.8123029715145
 22
205.0051613783053
 32
0.0
 13
533.8123029715145
 23
205.0051613783053
 33
0.0
  0
SOLID
  5
30B4
330
3066
100
AcDbEntity
  8
BEM
 62
     0
440
 16777216
100
AcDbTrace
 10
340.8123029715146
 20
206.1718280449719
 30
0.0
 11
340.8123029715146
 21
203.8384947116386
 31
0.0
 12
333.8123029715145
 22
205.0051613783053
 32
0.0
 13
333.8123029715145
 23
205.0051613783053
 33
0.0
  0
MTEXT
  5
30B5
330
3066
100
AcDbEntity
  8
BEM
 62
     1
440
 16777216
100
AcDbMText
 10
433.8123029715145
 20
211.5051613783053
 30
0.0
 40
7.0
 41
0.0
 71
     5
 72
     1
  1
\A1;200
  7
GREEKS
 73
     1
 44
1.0
  0
POINT
  5
30B6
330
3066
100
AcDbEntity
  8
DEFPOINTS
 62
     0
440
 16777216
100
AcDbPoint
 10
533.8123029715145
 20
263.9436219968311
 30
0.0
  0
POINT
  5
30B7
330
3066
100
AcDbEntity
  8
DEFPOINTS
 62
     0
440
 16777216
100
AcDbPoint
 10
333.8123029715145
 20
263.9436219968311
 30
0.0
  0
POINT
  5
30B8
330
3066
100
AcDbEntity
  8
DEFPOINTS
 62
     0
440
 16777216
100
AcDbPoint
 10
333.8123029715145
 20
205.0051613783053
 30
0.0
  0
ENDBLK
  5
3071
330
3066
100
AcDbEntity
  8
0
100
AcDbBlockEnd
  0
BLOCK
  5
307C
330
3072
100
AcDbEntity
  8
0
100
AcDbBlockBegin
  2
*D6
 70
     1
 10
0.0
 20
0.0
 30
0.0
  3
*D6
  1

  0
LINE
  5
30B9
330
3072
100
AcDbEntity
  8
BEM
 62
     0
440
 16777216
370
    -2
100
AcDbLine
 10
265.8123029715146
 20
307.9436219968311
 30
0.0
 11
265.8123029715146
 21
203.0051613783053
 31
0.0
  0
LINE
  5
30BA
330
3072
100
AcDbEntity
  8
BEM
 62
     0
440
 16777216
370
    -2
100
AcDbLine
 10
333.8123029715145
 20
261.9436219968311
 30
0.0
 11
333.8123029715145
 21
203.0051613783053
 31
0.0
  0
LINE
  5
30BB
330
3072
100
AcDbEntity
  8
BEM
 62
     0
440
 16777216
370
    -2
100
AcDbLine
 10
272.8123029715145
 20
205.0051613783053
 30
0.0
 11
326.8123029715146
 21
205.0051613783053
 31
0.0
  0
SOLID
  5
30BC
330
3072
100
AcDbEntity
  8
BEM
 62
     0
440
 16777216
100
AcDbTrace
 10
272.8123029715145
 20
206.1718280449719
 30
0.0
 11
272.8123029715145
 21
203.8384947116386
 31
0.0
 12
265.8123029715146
 22
205.0051613783053
 32
0.0
 13
265.8123029715146
 23
205.0051613783053
 33
0.0
  0
SOLID
  5
30BD
330
3072
100
AcDbEntity
  8
BEM
 62
     0
440
 16777216
100
AcDbTrace
 10
326.8123029715146
 20
206.1718280449719
 30
0.0
 11
326.8123029715146
 21
203.8384947116386
 31
0.0
 12
333.8123029715145
 22
205.0051613783053
 32
0.0
 13
333.8123029715145
 23
205.0051613783053
 33
0.0
  0
MTEXT
  5
30BE
330
3072
100
AcDbEntity
  8
BEM
 62
     1
440
 16777216
100
AcDbMText
 10
299.8123029715145
 20
211.5051613783053
 30
0.0
 40
7.0
 41
0.0
 71
     5
 72
     1
  1
\A1;68
  7
GREEKS
 73
     1
 44
1.0
  0
POINT
  5
30BF
330
3072
100
AcDbEntity
  8
DEFPOINTS
 62
     0
440
 16777216
100
AcDbPoint
 10
265.8123029715146
 20
309.9436219968311
 30
0.0
  0
POINT
  5
30C0
330
3072
100
AcDbEntity
  8
DEFPOINTS
 62
     0
440
 16777216
100
AcDbPoint
 10
333.8123029715145
 20
263.9436219968311
 30
0.0
  0
POINT
  5
30C1
330
3072
100
AcDbEntity
  8
DEFPOINTS
 62
     0
440
 16777216
100
AcDbPoint
 10
333.8123029715145
 20
205.0051613783053
 30
0.0
  0
ENDBLK
  5
307D
330
3072
100
AcDbEntity
  8
0
100
AcDbBlockEnd
  0
BLOCK
  5
3088
330
307E
100
AcDbEntity
  8
0
100
AcDbBlockBegin
  2
*D7
 70
     1
 10
0.0
 20
0.0
 30
0.0
  3
*D7
  1

  0
LINE
  5
30E6
330
307E
100
AcDbEntity
  8
BEM
 62
     0
440
 16777216
370
    -2
100
AcDbLine
 10
344.8123029715146
 20
254.9436219968311
 30
0.0
 11
237.9806110601493
 21
254.9436219968311
 31
0.0
  0
LINE
  5
30E7
330
307E
100
AcDbEntity
  8
BEM
 62
     0
440
 16777216
370
    -2
100
AcDbLine
 10
263.8123029715146
 20
309.9436219968311
 30
0.0
 11
237.9806110601493
 21
309.9436219968311
 31
0.0
  0
LINE
  5
30E8
330
307E
100
AcDbEntity
  8
BEM
 62
     0
440
 16777216
370
    -2
100
AcDbLine
 10
239.9806110601493
 20
261.9436219968311
 30
0.0
 11
239.9806110601493
 21
302.9436219968311
 31
0.0
  0
SOLID
  5
30E9
330
307E
100
AcDbEntity
  8
BEM
 62
     0
440
 16777216
100
AcDbTrace
 10
238.8139443934826
 20
261.9436219968311
 30
0.0
 11
241.1472777268159
 21
261.9436219968311
 31
0.0
 12
239.9806110601493
 22
254.9436219968311
 32
0.0
 13
239.9806110601493
 23
254.9436219968311
 33
0.0
  0
SOLID
  5
30EA
330
307E
100
AcDbEntity
  8
BEM
 62
     0
440
 16777216
100
AcDbTrace
 10
238.8139443934826
 20
302.9436219968311
 30
0.0
 11
241.1472777268159
 21
302.9436219968311
 31
0.0
 12
239.9806110601493
 22
309.9436219968311
 32
0.0
 13
239.9806110601493
 23
309.9436219968311
 33
0.0
  0
MTEXT
  5
30EB
330
307E
100
AcDbEntity
  8
BEM
 62
     1
440
 16777216
100
AcDbMText
 10
233.4806110601492
 20
282.4436219968312
 30
0.0
 40
7.0
 41
0.0
 71
     5
 72
     1
  1
\A1;55
  7
GREEKS
 11
0.0000000000000001
 21
1.0
 31
0.0
 73
     1
 44
1.0
  0
POINT
  5
30EC
330
307E
100
AcDbEntity
  8
DEFPOINTS
 62
     0
440
 16777216
100
AcDbPoint
 10
346.8123029715146
 20
254.9436219968311
 30
0.0
  0
POINT
  5
30ED
330
307E
100
AcDbEntity
  8
DEFPOINTS
 62
     0
440
 16777216
100
AcDbPoint
 10
265.8123029715146
 20
309.9436219968311
 30
0.0
  0
POINT
  5
30EE
330
307E
100
AcDbEntity
  8
DEFPOINTS
 62
     0
440
 16777216
100
AcDbPoint
 10
239.9806110601493
 20
309.9436219968311
 30
0.0
  0
ENDBLK
  5
3089
330
307E
100
AcDbEntity
  8
0
100
AcDbBlockEnd
  0
BLOCK
  5
310C
330
30FD
100
AcDbEntity
  8
0
100
AcDbBlockBegin
  2
*D8
 70
     1
 10
0.0
 20
0.0
 30
0.0
  3
*D8
  1

  0
LINE
  5
311C
330
30FD
100
AcDbEntity
  8
BEM
 62
     0
440
 16777216
370
    -2
100
AcDbLine
 10
659.2521377362727
 20
246.728416095667
 30
0.0
 11
600.0758133913036
 21
246.7284160956673
 31
0.0
  0
ARC
  5
311D
330
30FD
100
AcDbEntity
  8
BEM
 62
     0
440
 16777216
370
    -2
100
AcDbCircle
 10
661.2521377362727
 20
246.728416095667
 30
0.0
 40
59.17632434496915
100
AcDbArc
 50
163.4369859091115
 51
170.2184929545557
  0
ARC
  5
311E
330
30FD
100
AcDbEntity
  8
BEM
 62
     0
440
 16777216
370
    -2
100
AcDbCircle
 10
661.2521377362727
 20
246.728416095667
 30
0.0
 40
59.17632434496915
100
AcDbArc
 50
186.7815070454438
 51
193.563014090888
  0
ARC
  5
311F
330
30FD
100
AcDbEntity
  8
BEM
 62
     0
440
 16777216
370
    -2
100
AcDbCircle
 10
661.2521377362727
 20
246.728416095667
 30
0.0
 40
59.17632434496915
100
AcDbArc
 50
176.9999999999998
 51
179.9999999999997
  0
SOLID
  5
3120
330
30FD
100
AcDbEntity
  8
BEM
 62
     0
440
 16777216
100
AcDbTrace
 10
604.0954892501267
 20
256.6521069030218
 30
0.0
 11
601.7766554945664
 21
256.9118268647472
 31
0.0
 12
602.1569124871705
 22
249.8254656172037
 32
0.0
 13
602.1569124871705
 23
249.8254656172037
 33
0.0
  0
SOLID
  5
3121
330
30FD
100
AcDbEntity
  8
BEM
 62
     0
440
 16777216
100
AcDbTrace
 10
601.3252060355191
 20
239.671667573256
 30
0.0
 11
603.6544546025596
 21
239.8096732158346
 31
0.0
 12
602.0758133913036
 22
246.7284160956672
 32
0.0
 13
602.0758133913036
 23
246.7284160956672
 33
0.0
  0
MTEXT
  5
3122
330
30FD
100
AcDbEntity
  8
BEM
 62
     1
440
 16777216
100
AcDbMText
 10
597.9667735442255
 20
264.288093158345
 30
0.0
 40
7.0
 41
0.0
 71
     5
 72
     1
  1
\A1;3°
  7
GREEKS
 11
0.2673669276990113
 21
0.9635947934545889
 31
0.0
 73
     1
 44
1.0
  0
POINT
  5
3123
330
30FD
100
AcDbEntity
  8
DEFPOINTS
 62
     0
440
 16777216
100
AcDbPoint
 10
602.0848262321284
 20
247.7611853596001
 30
0.0
  0
POINT
  5
3124
330
30FD
100
AcDbEntity
  8
DEFPOINTS
 62
     0
440
 16777216
100
AcDbPoint
 10
663.2521377362727
 20
246.728416095667
 30
0.0
  0
POINT
  5
3125
330
30FD
100
AcDbEntity
  8
DEFPOINTS
 62
     0
440
 16777216
100
AcDbPoint
 10
498.4791642628308
 20
255.2589861627079
 30
0.0
  0
POINT
  5
3126
330
30FD
100
AcDbEntity
  8
DEFPOINTS
 62
     0
440
 16777216
100
AcDbPoint
 10
666.2452854100455
 20
246.4667363144522
 30
0.0
  0
POINT
  5
3127
330
30FD
100
AcDbEntity
  8
DEFPOINTS
 62
     0
440
 16777216
100
AcDbPoint
 10
668.5068325900537
 20
246.728416095667
 30
0.0
  0
ENDBLK
  5
310D
330
30FD
100
AcDbEntity
  8
0
100
AcDbBlockEnd
  0
ENDSEC
  0
SECTION
  2
ENTITIES
  0
LINE
  5
2B9
330
1101
100
AcDbEntity
  8
STEMPEL
100
AcDbLine
 10
830.0
 20
109.9999999999999
 30
0.0
 11
470.0
 21
109.9999999999999
 31
0.0
  0
LINE
  5
2BA
330
1101
100
AcDbEntity
  8
STEMPEL
100
AcDbLine
 10
566.0
 20
109.9999999999996
 30
0.0
 11
566.0
 21
10.0
 31
0.0
  0
LINE
  5
2BB
330
1101
100
AcDbEntity
  8
STEMPEL
100
AcDbLine
 10
650.0
 20
109.9999999999999
 30
0.0
 11
650.0
 21
10.0
 31
0.0
  0
LINE
  5
2BC
330
1101
100
AcDbEntity
  8
STEMPEL
100
AcDbLine
 10
752.0
 20
109.9999999999996
 30
0.0
 11
752.0
 21
40.0
 31
0.0
  0
LINE
  5
2BD
330
1101
100
AcDbEntity
  8
STEMPEL
100
AcDbLine
 10
565.9999999999997
 20
30.0
 30
0.0
 11
470.0
 21
30.0
 31
0.0
  0
LINE
  5
2BE
330
1101
100
AcDbEntity
  8
STEMPEL
100
AcDbLine
 10
830.0
 20
40.0
 30
0.0
 11
566.0
 21
40.0
 31
0.0
  0
LINE
  5
2BF
330
1101
100
AcDbEntity
  8
STEMPEL
100
AcDbLine
 10
830.0
 20
80.0
 30
0.0
 11
566.0
 21
79.99999999999977
 31
0.0
  0
LINE
  5
2C0
330
1101
100
AcDbEntity
  8
VOLL
100
AcDbLine
 10
484.0000000000001
 20
109.9999999999999
 30
0.0
 11
484.0
 21
10.0
 31
0.0
  0
LINE
  5
2C1
330
1101
100
AcDbEntity
  8
VOLL
100
AcDbLine
 10
524.0
 20
109.9999999999996
 30
0.0
 11
524.0
 21
10.0
 31
0.0
  0
LINE
  5
2C2
330
1101
100
AcDbEntity
  8
VOLL
100
AcDbLine
 10
544.0
 20
109.9999999999996
 30
0.0
 11
544.0
 21
10.0
 31
0.0
  0
LINE
  5
2C3
330
1101
100
AcDbEntity
  8
VOLL
100
AcDbLine
 10
584.0
 20
79.99999999999977
 30
0.0
 11
584.0
 21
40.0
 31
0.0
  0
LINE
  5
2C4
330
1101
100
AcDbEntity
  8
VOLL
100
AcDbLine
 10
610.0
 20
109.9999999999996
 30
0.0
 11
610.0
 21
40.0
 31
0.0
  0
LINE
  5
2C5
330
1101
100
AcDbEntity
  8
HILF
100
AcDbLine
 10
470.0000000000001
 20
99.99999999999989
 30
0.0
 11
566.0
 21
99.99999999999989
 31
0.0
  0
LINE
  5
2C6
330
1101
100
AcDbEntity
  8
HILF
100
AcDbLine
 10
470.0000000000001
 20
89.99999999999989
 30
0.0
 11
566.0
 21
89.99999999999989
 31
0.0
  0
LINE
  5
2C7
330
1101
100
AcDbEntity
  8
HILF
100
AcDbLine
 10
470.0000000000001
 20
79.99999999999977
 30
0.0
 11
566.0
 21
79.99999999999977
 31
0.0
  0
LINE
  5
2C8
330
1101
100
AcDbEntity
  8
HILF
100
AcDbLine
 10
470.0000000000001
 20
69.99999999999977
 30
0.0
 11
566.0
 21
69.99999999999977
 31
0.0
  0
LINE
  5
2C9
330
1101
100
AcDbEntity
  8
HILF
100
AcDbLine
 10
470.0000000000001
 20
60.0
 30
0.0
 11
566.0
 21
60.0
 31
0.0
  0
LINE
  5
2CA
330
1101
100
AcDbEntity
  8
HILF
100
AcDbLine
 10
470.0000000000001
 20
50.0
 30
0.0
 11
566.0
 21
50.0
 31
0.0
  0
LINE
  5
2CB
330
1101
100
AcDbEntity
  8
HILF
100
AcDbLine
 10
470.0000000000001
 20
40.0
 30
0.0
 11
566.0
 21
40.0
 31
0.0
  0
LINE
  5
2CC
330
1101
100
AcDbEntity
  8
HILF
100
AcDbLine
 10
566.0
 20
69.99999999999977
 30
0.0
 11
650.0
 21
69.99999999999977
 31
0.0
  0
LINE
  5
2CD
330
1101
100
AcDbEntity
  8
HILF
100
AcDbLine
 10
566.0
 20
60.0
 30
0.0
 11
650.0
 21
60.0
 31
0.0
  0
LINE
  5
2CE
330
1101
100
AcDbEntity
  8
HILF
100
AcDbLine
 10
566.0
 20
50.0
 30
0.0
 11
650.0
 21
50.0
 31
0.0
  0
LINE
  5
2CF
330
1101
100
AcDbEntity
  8
HILF
100
AcDbLine
 10
654.7736801096946
 20
84.03758247564121
 30
0.0
 11
744.8353916556309
 21
84.03758247564121
 31
0.0
  0
LINE
  5
2D0
330
1101
100
AcDbEntity
  8
HILF
100
AcDbLine
 10
654.7736801096946
 20
69.99999999999977
 30
0.0
 11
744.8353916556309
 21
69.99999999999977
 31
0.0
  0
LINE
  5
2D1
330
1101
100
AcDbEntity
  8
HILF
100
AcDbLine
 10
654.7736801096946
 20
60.0
 30
0.0
 11
744.8353916556309
 21
60.0
 31
0.0
  0
LINE
  5
2D2
330
1101
100
AcDbEntity
  8
HILF
100
AcDbLine
 10
654.7736801096946
 20
50.0
 30
0.0
 11
744.8353916556309
 21
50.0
 31
0.0
  0
LINE
  5
2D3
330
1101
100
AcDbEntity
  8
VOLL
100
AcDbLine
 10
752.0
 20
60.0
 30
0.0
 11
830.0
 21
60.0
 31
0.0
  0
LINE
  5
2D4
330
1101
100
AcDbEntity
  8
HILF
100
AcDbLine
 10
756.7238616296992
 20
83.77983636955798
 30
0.0
 11
824.8588839326728
 21
83.77983636955798
 31
0.0
  0
LINE
  5
2D5
330
1101
100
AcDbEntity
  8
HILF
100
AcDbLine
 10
653.4909699289885
 20
14.89398258028314
 30
0.0
 11
824.8588839326728
 21
14.89398258028314
 31
0.0
  0
TEXT
  5
2D6
330
1101
100
AcDbEntity
  8
TEXT
100
AcDbText
 10
492.7826069847975
 20
18.67381894984123
 30
0.0
 40
4.0
  1
Änderung
 41
0.8
  7
GREEKS
 72
     1
 11
503.5254641276546
 21
18.67381894984123
 31
0.0
100
AcDbText
  0
TEXT
  5
2D7
330
1101
100
AcDbEntity
  8
TEXT
100
AcDbText
 10
573.5163572150376
 20
102.4620895087085
 30
0.0
 40
5.0
  1
Maßstab
 41
0.8
  7
GREEKS
100
AcDbText
  0
TEXT
  5
2D8
330
1101
100
AcDbEntity
  8
TEXT
100
AcDbText
 10
614.2858954734052
 20
102.4184168434816
 30
0.0
 40
5.0
  1
Zul. Abw.
 41
0.8
  7
GREEKS
100
AcDbText
  0
TEXT
  5
2D9
330
1101
100
AcDbEntity
  8
TEXT
100
AcDbText
 10
654.8779403809009
 20
102.5489328011778
 30
0.0
 40
5.0
  1
Benennung
 41
0.8
  7
GREEKS
100
AcDbText
  0
TEXT
  5
2DA
330
1101
100
AcDbEntity
  8
TEXT
100
AcDbText
 10
756.178754957634
 20
102.3132034537135
 30
0.0
 40
5.0
  1
Zeichnungs Nr.
 41
0.8
  7
GREEKS
100
AcDbText
  0
TEXT
  5
2DB
330
1101
100
AcDbEntity
  8
TEXT
100
AcDbText
 10
654.7422383911359
 20
30.84560570193048
 30
0.0
 40
5.0
  1
Bauvorhaben
 41
0.8
  7
GREEKS
100
AcDbText
  0
TEXT
  5
2DC
330
1101
100
AcDbEntity
  8
TEXT
100
AcDbText
 10
756.7238616296992
 20
73.18118237099952
 30
0.0
 40
5.0
  1
Ersatz für:
 41
0.8
  7
GREEKS
100
AcDbText
  0
TEXT
  5
2DD
330
1101
100
AcDbEntity
  8
TEXT
100
AcDbText
 10
478.2664110704575
 20
13.65465846027177
 30
0.0
 40
4.0
  1
Index
 50
90.0
 41
0.8
  7
GREEKS
100
AcDbText
  0
TEXT
  5
2DE
330
1101
100
AcDbEntity
  8
TEXT
100
AcDbText
 10
530.0571803261054
 20
18.67156269339807
 30
0.0
 40
4.0
  1
Tag
 41
0.8
  7
GREEKS
 72
     1
 11
533.7905136594388
 21
18.67156269339807
 31
0.0
100
AcDbText
  0
TEXT
  5
2DF
330
1101
100
AcDbEntity
  8
TEXT
100
AcDbText
 10
548.6614567187547
 20
18.59324216966411
 30
0.0
 40
4.0
  1
Name
 41
0.8
  7
GREEKS
 72
     1
 11
554.9852662425641
 21
18.59324216966411
 31
0.0
100
AcDbText
  0
TEXT
  5
2E0
330
1101
100
AcDbEntity
  8
TEXT
100
AcDbText
 10
592.3311673153651
 20
73.31880501229921
 30
0.0
 40
4.0
  1
Tag
 41
0.8
  7
GREEKS
100
AcDbText
  0
TEXT
  5
2E1
330
1101
100
AcDbEntity
  8
TEXT
100
AcDbText
 10
622.4626584226293
 20
73.30961091915219
 30
0.0
 40
4.0
  1
Name
 41
0.8
  7
GREEKS
100
AcDbText
  0
TEXT
  5
2E2
330
1101
100
AcDbEntity
  8
TEXT
100
AcDbText
 10
567.5836127167615
 20
63.62990369617955
 30
0.0
 40
4.0
  1
Gez.
 41
0.8
  7
GREEKS
100
AcDbText
  0
TEXT
  5
2E3
330
1101
100
AcDbEntity
  8
TEXT
100
AcDbText
 10
567.5515086571672
 20
53.68926291428374
 30
0.0
 40
4.0
  1
Gepr.
 41
0.8
  7
GREEKS
100
AcDbText
  0
TEXT
  5
2E4
330
1101
100
AcDbEntity
  8
TEXT
100
AcDbText
 10
567.6006777387303
 20
43.5294638964981
 30
0.0
 40
4.0
  1
Norm.
 41
0.8
  7
GREEKS
100
AcDbText
  0
LINE
  5
2E5
330
1101
100
AcDbEntity
  8
STEMPEL
100
AcDbLine
 10
479.9999999999998
 20
10.0
 30
0.0
 11
830.0
 21
10.0
 31
0.0
  0
TEXT
  5
2E6
330
1101
100
AcDbEntity
  8
TEXT
100
AcDbText
 10
757.2400861497006
 20
52.07416177878599
 30
0.0
 40
5.0
  1
ersetzt durch:
 41
0.8
  7
GREEKS
100
AcDbText
  0
LINE
  5
2E7
330
1101
100
AcDbEntity
  8
STEMPEL
100
AcDbLine
 10
830.0
 20
10.0
 30
0.0
 11
39.99999999999997
 21
10.0
 31
0.0
  0
LINE
  5
2E8
330
1101
100
AcDbEntity
  8
STEMPEL
100
AcDbLine
 10
830.0
 20
10.0
 30
0.0
 11
830.0
 21
583.9999999999998
 31
0.0
  0
LINE
  5
2E9
330
1101
100
AcDbEntity
  8
STEMPEL
100
AcDbLine
 10
470.0
 20
10.0
 30
0.0
 11
470.0
 21
109.9999999999999
 31
0.0
  0
LINE
  5
2EA
330
1101
100
AcDbEntity
  8
STEMPEL
100
AcDbLine
 10
830.0
 20
583.9999999999998
 30
0.0
 11
39.99999999999986
 21
583.9999999999998
 31
0.0
  0
LINE
  5
2EB
330
1101
100
AcDbEntity
  8
HILF
100
AcDbLine
 10
839.9999999999998
 20
594.0000000000001
 30
0.0
 11
-0.0000000000002274
 21
593.9999999999996
 31
0.0
  0
LINE
  5
2EC
330
1101
100
AcDbEntity
  8
HILF
100
AcDbLine
 10
840.0
 20
0.0
 30
0.0
 11
0.0
 21
0.0
 31
0.0
  0
LINE
  5
2ED
330
1101
100
AcDbEntity
  8
HILF
100
AcDbLine
 10
31.08767135713847
 20
296.9999999999998
 30
0.0
 11
0.0
 21
296.9999999999998
 31
0.0
  0
TEXT
  5
2EE
330
1101
100
AcDbEntity
  8
TEXT
100
AcDbText
 10
568.6221098221039
 20
73.14025471151649
 30
0.0
 40
4.0
  1
2015
 41
0.8
  7
GREEKS
100
AcDbText
  0
LINE
  5
2EF
330
1101
100
AcDbEntity
  8
HILF
100
AcDbLine
 10
840.0
 20
-0.0000000000002274
 30
0.0
 11
839.9999999999998
 21
593.9999999999998
 31
0.0
  0
TEXT
  5
2F0
330
1101
100
AcDbEntity
  8
VOLL
100
AcDbText
 10
78.07675471698113
 20
31.02594776470585
 30
0.0
 40
1.8
  1

  7
GREEKS
100
AcDbText
  0
TEXT
  5
2F1
330
1101
100
AcDbEntity
  8
TEXT
100
AcDbText
 10
471.8550995097768
 20
111.6719999999997
 30
0.0
 40
5.0
  1
Erstellt mit AUTOCAD 2004
 41
0.8
  7
GREEKS
100
AcDbText
  0
TEXT
  5
2F2
330
1101
100
AcDbEntity
  8
TEXT
100
AcDbText
 10
624.4216048581257
 20
63.0896391972351
 30
0.0
 40
4.0
  1
Koeh
 41
0.8
  7
GREEKS
 72
     1
 11
629.6787477152686
 21
63.0896391972351
 31
0.0
100
AcDbText
  0
TEXT
  5
2F3
330
1101
100
AcDbEntity
  8
TEXT
 62
     1
100
AcDbText
 10
768.1644602129932
 20
88.14901428913946
 30
0.0
 40
7.0
  1
13900050X
 41
0.8
  7
GREEKS
 72
     1
 11
790.8311268796597
 21
88.14901428913946
 31
0.0
100
AcDbText
  0
TEXT
  5
2F4
330
1101
100
AcDbEntity
  8
TEXT
 62
     1
100
AcDbText
 10
580.5006306481886
 20
88.14901428913946
 30
0.0
 40
7.0
  1
1:2
 41
0.8
  7
GREEKS
100
AcDbText
  0
TEXT
  5
2F5
330
1101
100
AcDbEntity
  8
TEXT
100
AcDbText
 10
590.703759012998
 20
63.10765040825732
 30
0.0
 40
4.0
  1
30.01.
 41
0.8
  7
GREEKS
 72
     1
 11
597.4085209177599
 21
63.10765040825732
 31
0.0
100
AcDbText
  0
TEXT
  5
2F6
330
1101
100
AcDbEntity
  8
TEXT
 62
     1
100
AcDbText
 10
655.0506768857031
 20
87.41748789253767
 30
0.0
 40
7.0
  1
Rainstar-Ablauf DN50
 41
0.75
  7
GREEKS
100
AcDbText
  0
TEXT
  5
2F7
330
1101
100
AcDbEntity
  8
TEXT
100
AcDbText
 10
655.1296391125315
 20
71.50334417585281
 30
0.0
 40
5.0
  1
ohne Aufkantung, Auslauf seitl.3°
 41
0.7
  7
GREEKS
100
AcDbText
  0
TEXT
  5
2F8
330
1101
100
AcDbEntity
  8
TEXT
100
AcDbText
 10
655.1296391125315
 20
62.11580706774862
 30
0.0
 40
5.0
  1
Grundeinheit
 41
0.8
  7
GREEKS
100
AcDbText
  0
TEXT
  5
2F9
330
1101
100
AcDbEntity
  8
TEXT
100
AcDbText
 10
655.1296391125315
 20
51.64011943042146
 30
0.0
 40
5.0
  1
EDV-Art.Nr. 13900.050X
 41
0.8
  7
GREEKS
100
AcDbText
  0
TEXT
  5
2FA
330
1101
100
AcDbEntity
  8
TEXT
100
AcDbText
 10
654.9837501577826
 20
42.62974153022628
 30
0.0
 40
4.0
  1
13900.050X.DWG
 41
0.8
  7
GREEKS
100
AcDbText
  0
TEXT
  5
2FB
330
1101
100
AcDbEntity
  8
TEXT
100
AcDbText
 10
613.5302166857912
 20
90.01072108759888
 30
0.0
 40
4.0
  1
DIN EN1124-3
 41
0.8
  7
GREEKS
 72
     1
 11
630.5206928762674
 21
90.01072108759888
 31
0.0
100
AcDbText
  0
INSERT
  5
2FC
330
1101
100
AcDbEntity
  8
STEMPEL
100
AcDbBlockReference
  2
LOGO
 10
570.9955485457794
 20
45.0210527644831
 30
0.0
 41
2.0
 42
2.0
 43
2.0
  0
LINE
  5
2FD
330
1101
100
AcDbEntity
  8
HILF
100
AcDbLine
 10
0.0
 20
0.0
 30
0.0
 11
-0.0000000000002274
 21
593.9999999999996
 31
0.0
  0
LINE
  5
2FE
330
1101
100
AcDbEntity
  8
STEMPEL
100
AcDbLine
 10
39.99999999999997
 20
10.0
 30
0.0
 11
39.99999999999986
 21
583.9999999999998
 31
0.0
  0
LINE
  5
2FF
330
1101
100
AcDbEntity
  8
HILF
 62
     7
100
AcDbLine
 10
460.0
 20
-0.0000000000002274
 30
0.0
 11
460.0
 21
10.0
 31
0.0
  0
LINE
  5
300
330
1101
100
AcDbEntity
  8
HILF
 62
     7
100
AcDbLine
 10
459.9999999999998
 20
583.9999999999998
 30
0.0
 11
459.9999999999998
 21
593.9999999999996
 31
0.0
  0
TEXT
  5
301
330
1101
100
AcDbEntity
  8
TEXT
100
AcDbText
 10
836.5811541437437
 20
12.14804815338303
 30
0.0
 40
4.0
  1
Diese Zeichnung ist urheberrechtlich geschützt und bleibt unser Eigentum. Sie darf weder ganz noch teilweise vervielfältigt und nicht an Dritte weitergegeben werden.
 50
90.0
 41
0.8
  7
GREEKS
100
AcDbText
  0
TEXT
  5
1933
330
1101
100
AcDbEntity
  8
TEXT
 62
     1
100
AcDbText
 10
141.3055783203965
 20
194.9380988320777
 30
0.0
 40
7.0
  1
EDV-Art.Nr. 01386.050X
 41
0.8
  7
GREEKS
100
AcDbText
  0
TEXT
  5
1934
330
1101
100
AcDbEntity
  8
TEXT
 62
     1
100
AcDbText
 10
141.3055783203965
 20
207.5678436444702
 30
0.0
 40
7.0
  1
Ablaufkörper DN50
 41
0.8
  7
GREEKS
100
AcDbText
  0
LINE
  5
1935
330
1101
100
AcDbEntity
  8
TEXT
 62
     2
100
AcDbLine
 10
140.4062923229246
 20
204.7086449660965
 30
0.0
 11
247.0254029263811
 21
204.7086449660965
 31
0.0
  0
LINE
  5
1936
330
1101
100
AcDbEntity
  8
TEXT
 62
     2
100
AcDbLine
 10
337.1665292733962
 20
257.7241194565941
 30
0.0
 11
247.0254029263811
 21
204.7086449660965
 31
0.0
  0
TEXT
  5
2058
330
1101
100
AcDbEntity
  8
VOLL
100
AcDbText
 10
330.7775438231996
 20
666.2760123900783
 30
0.0
 40
1.8
  1

  7
GREEKS
100
AcDbText
  0
TEXT
  5
223B
330
1101
100
AcDbEntity
  8
TEXT
 62
     1
100
AcDbText
 10
116.4042963110416
 20
302.6620989216516
 30
0.0
 40
7.0
  1
EDV-Art.Nr. 21810.100X
 41
0.8
  7
GREEKS
100
AcDbText
  0
TEXT
  5
223C
330
1101
100
AcDbEntity
  8
TEXT
 62
     1
100
AcDbText
 10
116.4142212182469
 20
314.8313133647807
 30
0.0
 40
7.0
  1
Kompressionsdichtung
 41
0.8
  7
GREEKS
100
AcDbText
  0
LINE
  5
223D
330
1101
100
AcDbEntity
  8
TEXT
 62
     2
100
AcDbLine
 10
115.880328570704
 20
311.6198034147849
 30
0.0
 11
219.0712672470134
 21
311.6198034147849
 31
0.0
  0
LINE
  5
2371
330
1101
100
AcDbEntity
  8
TEXT
 62
     2
100
AcDbLine
 10
219.0712672470134
 20
311.6198034147849
 30
0.0
 11
269.7681315542006
 21
314.5092394974765
 31
0.0
  0
DIMENSION
  5
23F1
330
1101
100
AcDbEntity
  8
BEM
100
AcDbDimension
  2
*D1
 10
661.2521377362726
 20
374.1512128767862
 30
0.0
 11
531.0322203538935
 21
380.6512128767863
 31
0.0
 70
    32
  1
260
 71
     5
 42
260.4398347647581
  3
STANDARD
100
AcDbAlignedDimension
 13
400.8123029715145
 23
342.9436219968307
 33
0.0
 14
661.2521377362726
 24
246.728416095667
 34
0.0
100
AcDbRotatedDimension
  0
TEXT
  5
2AF3
330
1101
100
AcDbEntity
  8
VOLL
100
AcDbText
 10
304.9488474030442
 20
217.8426631506714
 30
0.0
 40
1.8
  1

 50
270.0
  7
GREEKS
100
AcDbText
  0
TEXT
  5
2B7D
330
1101
100
AcDbEntity
  8
VOLL
100
AcDbText
 10
431.5197154936132
 20
313.9767821550341
 30
0.0
 40
1.8
  1

  7
GREEKS
100
AcDbText
  0
LINE
  5
2BDF
330
1101
100
AcDbEntity
  8
STEMPEL
100
AcDbLine
 10
265.8123029715146
 20
312.9436219968311
 30
0.0
 11
535.8123029715145
 21
312.9436219968311
 31
0.0
  0
LINE
  5
2BE0
330
1101
100
AcDbEntity
  8
STEMPEL
100
AcDbLine
 10
535.8123029715145
 20
312.9436219968311
 30
0.0
 11
535.8123029715145
 21
315.9436219968311
 31
0.0
  0
LINE
  5
2BE2
330
1101
100
AcDbEntity
  8
STEMPEL
100
AcDbLine
 10
465.8123029715146
 20
312.9436219968311
 30
0.0
 11
465.8123029715146
 21
315.9436219968311
 31
0.0
  0
LINE
  5
2BE3
330
1101
100
AcDbEntity
  8
STEMPEL
100
AcDbLine
 10
335.8123029715145
 20
312.9436219968311
 30
0.0
 11
335.8123029715145
 21
315.9436219968311
 31
0.0
  0
LINE
  5
2BE5
330
1101
100
AcDbEntity
  8
STEMPEL
100
AcDbLine
 10
265.8123029715146
 20
312.9436219968311
 30
0.0
 11
265.8123029715146
 21
315.9436219968311
 31
0.0
  0
LINE
  5
2BE6
330
1101
100
AcDbEntity
  8
STEMPEL
100
AcDbLine
 10
265.8123029715146
 20
315.9436219968311
 30
0.0
 11
535.8123029715145
 21
315.9436219968311
 31
0.0
  0
HATCH
  5
2C4A
330
1101
100
AcDbEntity
  8
SCHRAFF
100
AcDbHatch
 10
0.0
 20
0.0
 30
0.0
210
0.0
220
0.0
230
1.0
  2
NET
 70
     0
 71
     0
 91
        4
 92
        7
 72
     0
 73
     1
 93
        4
 10
535.8123029715145
 20
312.9436219968312
 10
535.8123029715145
 20
315.9436219968311
 10
483.0847163310362
 20
315.9436219968311
 10
483.0847163310362
 20
312.9436219968311
 97
        0
 92
        7
 72
     0
 73
     1
 93
        4
 10
465.8123029715145
 20
315.9436219968311
 10
465.8123029715146
 20
312.943621996831
 10
483.0847163310362
 20
312.9436219968311
 10
483.0847163310362
 20
315.9436219968311
 97
        0
 92
        7
 72
     0
 73
     1
 93
        4
 10
335.8123029715145
 20
312.943621996831
 10
335.8123029715145
 20
315.9436219968311
 10
318.539889611993
 20
315.9436219968311
 10
318.5398896119929
 20
312.9436219968311
 97
        0
 92
        7
 72
     0
 73
     1
 93
        4
 10
265.8123029715146
 20
315.9436219968311
 10
265.8123029715146
 20
312.9436219968311
 10
318.539889611993
 20
312.9436219968311
 10
318.539889611993
 20
315.9436219968311
 97
        0
 75
     0
 76
     1
 52
45.0
 41
15.0
 77
     0
 78
     2
 53
45.0
 43
0.0
 44
0.0
 45
-1.325825214724776
 46
1.325825214724776
 79
     0
 53
135.0
 43
0.0
 44
0.0
 45
-1.325825214724776
 46
-1.325825214724776
 79
     0
 47
0.4422310307501775
 98
        4
 10
491.9979686356062
 20
314.2875213780812
 10
474.3027260635123
 20
314.7297517072434
 10
326.989823502078
 20
314.2875213780812
 10
306.1979134212436
 20
314.7297517072434
  0
HATCH
  5
2CC9
330
1101
100
AcDbEntity
  8
SCHRAFF
100
AcDbHatch
 10
0.0
 20
0.0
 30
0.0
210
0.0
220
0.0
230
1.0
  2
_USER
 70
     0
 71
     0
 91
        4
 92
        7
 72
     0
 73
     1
 93
        4
 10
547.8123029715146
 20
309.9436219968312
 10
547.8123029715145
 20
312.9436219968309
 10
483.0847163310362
 20
312.943621996831
 10
483.0847163310361
 20
309.9436219968311
 97
        0
 92
        7
 72
     0
 73
     1
 93
        4
 10
483.0847163310362
 20
309.9436219968312
 10
483.0847163310362
 20
312.943621996831
 10
461.8123029715144
 20
312.943621996831
 10
461.8123029715145
 20
309.9436219968311
 97
        0
 92
        7
 72
     0
 73
     1
 93
        4
 10
318.539889611993
 20
312.943621996831
 10
318.539889611993
 20
309.9436219968311
 10
339.8123029715145
 20
309.9436219968311
 10
339.8123029715145
 20
312.9436219968311
 97
        0
 92
        7
 72
     0
 73
     1
 93
        4
 10
265.8123029715146
 20
312.9436219968312
 10
265.8123029715146
 20
309.9436219968311
 10
318.539889611993
 20
309.9436219968311
 10
318.539889611993
 20
312.9436219968311
 97
        0
 75
     0
 76
     0
 52
135.0
 41
2.0
 77
     0
 78
     1
 53
135.0
 43
166.4446130569717
 44
-156.3344029003764
 45
-1.414213562373095
 46
-1.414213562373094
 79
     0
 47
0.4799055138873383
 98
        4
 10
513.2038786368171
 20
311.1228645523332
 10
480.0800593239531
 20
311.1228645523332
 10
331.2629054495378
 20
311.602769843806
 10
312.5407473877753
 20
311.602769843806
  0
LINE
  5
2CCF
330
1101
100
AcDbEntity
  8
STEMPEL
100
AcDbLine
 10
547.8123029715145
 20
309.9436219968312
 30
0.0
 11
547.8123029715145
 21
312.943621996831
 31
0.0
  0
LINE
  5
2CD0
330
1101
100
AcDbEntity
  8
STEMPEL
100
AcDbLine
 10
339.8123029715145
 20
309.9436219968311
 30
0.0
 11
339.8123029715145
 21
312.9436219968311
 31
0.0
  0
LINE
  5
2CD1
330
1101
100
AcDbEntity
  8
STEMPEL
100
AcDbLine
 10
461.8123029715145
 20
309.9436219968311
 30
0.0
 11
461.8123029715145
 21
312.9436219968311
 31
0.0
  0
LINE
  5
2CE5
330
1101
100
AcDbEntity
  8
STEMPEL
100
AcDbLine
 10
265.8123029715146
 20
309.9436219968311
 30
0.0
 11
547.8123029715145
 21
309.9436219968312
 31
0.0
  0
LINE
  5
2CF0
330
1101
100
AcDbEntity
  8
STEMPEL
100
AcDbLine
 10
265.8123029715146
 20
312.9436219968312
 30
0.0
 11
547.8123029715145
 21
312.943621996831
 31
0.0
  0
LINE
  5
2CF1
330
1101
100
AcDbEntity
  8
STEMPEL
100
AcDbLine
 10
265.8123029715146
 20
309.9436219968311
 30
0.0
 11
265.8123029715146
 21
312.9436219968312
 31
0.0
  0
DIMENSION
  5
2D3D
330
1101
100
AcDbEntity
  8
BEM
100
AcDbDimension
  2
*D2
 10
547.8123029715145
 20
175.3259209733116
 30
0.0
 11
406.8123029715145
 21
181.8259209733117
 31
0.0
 70
    32
 71
     5
 42
282.0
  3
STANDARD
100
AcDbAlignedDimension
 13
265.8123029715146
 23
309.9436219968311
 33
0.0
 14
547.8123029715145
 24
309.9436219968312
 34
0.0
100
AcDbRotatedDimension
  0
TEXT
  5
2D4A
330
1101
100
AcDbEntity
  8
TEXT
 62
     1
100
AcDbText
 10
618.4999469266353
 20
255.324032873968
 30
0.0
 40
7.0
  1
DN50
 50
357.0
 41
0.8
  7
GREEKS
100
AcDbText
  0
HATCH
  5
2FFB
330
1101
100
AcDbEntity
  8
SCHRAFF
100
AcDbHatch
 10
0.0
 20
0.0
 30
0.0
210
0.0
220
0.0
230
1.0
  2
_USER
 70
     0
 71
     0
 91
        1
 92
        7
 72
     1
 73
     1
 93
        5
 10
544.5623029715148
 20
309.9436219968311
 42
0.0
 10
541.5623029715147
 20
309.9436219968311
 42
0.0
 10
541.5623029715145
 20
308.4436219968311
 42
0.0
 10
540.8123029715145
 20
308.4436219968312
 42
0.0618840054865123
 10
539.0993318320977
 20
308.2307959208975
 42
0.7344659377783377
 97
        0
 75
     0
 76
     0
 52
0.0
 41
0.1
 77
     0
 78
     1
 53
0.0
 43
166.4446130569717
 44
-179.0123406820932
 45
0.0
 46
0.1
 79
     0
 47
0.0100814159456836
 98
        1
 10
542.9335209808637
 20
308.8456803178613
  0
ARC
  5
2FFC
330
1101
100
AcDbEntity
  8
SCHRAFF
100
AcDbCircle
 10
541.5623029715147
 20
309.9436219968311
 30
0.0
 40
3.0
100
AcDbArc
 50
214.8159421986008
 51
0.0
  0
HATCH
  5
2FFD
330
1101
100
AcDbEntity
  8
SCHRAFF
100
AcDbHatch
 10
0.0
 20
0.0
 30
0.0
210
0.0
220
0.0
230
1.0
  2
_USER
 70
     0
 71
     1
 91
        1
 92
        7
 72
     1
 73
     1
 93
        3
 10
533.8123029715145
 20
282.9436219968311
 42
0.0
 10
533.8123029715145
 20
279.943621996831
 42
0.0
 10
536.8081915757782
 20
279.7866141281021
 42
0.4296339059668373
 97
        3
330
300B
330
2FFF
330
2FFE
 75
     0
 76
     0
 52
0.0
 41
0.1
 77
     0
 78
     1
 53
0.0
 43
166.4446130569717
 44
-179.0123406820932
 45
0.0
 46
0.1
 79
     0
 47
0.028026344751639
 98
        1
 10
534.7733875321205
 20
281.2247551954718
  0
ARC
  5
2FFE
102
{ACAD_REACTORS
330
2FFD
102
}
330
1101
100
AcDbEntity
  8
SCHRAFF
100
AcDbCircle
 10
533.8123029715145
 20
279.943621996831
 30
0.0
 40
3.0
100
AcDbArc
 50
357.0000000000009
 51
90.0
  0
LINE
  5
2FFF
102
{ACAD_REACTORS
330
2FFD
102
}
330
1101
100
AcDbEntity
  8
STEMPEL
100
AcDbLine
 10
533.8123029715145
 20
279.943621996831
 30
0.0
 11
657.6458929029387
 21
273.4537785478782
 31
0.0
  0
LINE
  5
3000
102
{ACAD_REACTORS
330
301C
102
}
330
1101
100
AcDbEntity
  8
STEMPEL
100
AcDbLine
 10
449.4326496466142
 20
231.2930379063723
 30
0.0
 11
654.8720872220672
 21
220.5264132058851
 31
0.0
  0
LINE
  5
3001
330
1101
100
AcDbEntity
  8
MITTEL
100
AcDbLine
 10
498.4791642628308
 20
255.2589861627079
 30
0.0
 11
666.2452854100454
 21
246.4667363144522
 31
0.0
  0
LINE
  5
3002
330
1101
100
AcDbEntity
  8
STEMPEL
100
AcDbLine
 10
662.6161465623809
 20
272.7552549498976
 30
0.0
 11
659.8881289101643
 21
220.7015772414361
 31
0.0
  0
LINE
  5
3003
330
1101
100
AcDbEntity
  8
HILF
100
AcDbLine
 10
657.5408211607514
 20
271.4488902731917
 30
0.0
 11
654.9771589642481
 21
222.5313014805716
 31
0.0
  0
LINE
  5
3004
330
1101
100
AcDbEntity
  8
STEMPEL
100
AcDbLine
 10
657.6458929029382
 20
273.4537785478784
 30
0.0
 11
662.6161465623809
 21
272.7552549498976
 31
0.0
  0
LINE
  5
3005
330
1101
100
AcDbEntity
  8
STEMPEL
100
AcDbLine
 10
654.8720872220622
 20
220.526413205885
 30
0.0
 11
659.8881289101643
 21
220.7015772414361
 31
0.0
  0
LINE
  5
3006
330
1101
100
AcDbEntity
  8
STEMPEL
100
AcDbLine
 10
533.8123029715145
 20
278.9422496508331
 30
0.0
 11
657.5499558395915
 21
272.4574340503213
 31
0.0
  0
LINE
  5
3007
330
1101
100
AcDbEntity
  8
STEMPEL
100
AcDbLine
 10
448.8364680001963
 20
232.3256548085082
 30
0.0
 11
654.8808220712064
 21
221.5273277778374
 31
0.0
  0
LINE
  5
3008
330
1101
100
AcDbEntity
  8
STEMPEL
100
AcDbLine
 10
654.8808220712012
 20
221.5273277778372
 30
0.0
 11
659.9406647812577
 21
221.7040213787795
 31
0.0
  0
LINE
  5
3009
330
1101
100
AcDbEntity
  8
STEMPEL
100
AcDbLine
 10
657.5499558395911
 20
272.4574340503214
 30
0.0
 11
662.5636106912874
 21
271.7528108125543
 31
0.0
  0
HATCH
  5
300A
330
1101
100
AcDbEntity
  8
SCHRAFF
100
AcDbHatch
 10
0.0
 20
0.0
 30
0.0
210
0.0
220
0.0
230
1.0
  2
_USER
 70
     0
 71
     0
 91
        2
 92
        7
 72
     0
 73
     1
 93
        6
 10
533.8123029715145
 20
279.943621996831
 10
533.8123029715145
 20
278.9422496508331
 10
657.5499558395918
 20
272.4574340503212
 10
662.5636106912873
 20
271.7528108125543
 10
662.6161465623809
 20
272.7552549498976
 10
657.6458929029399
 20
273.4537785478782
 97
        0
 92
        7
 72
     0
 73
     1
 93
        6
 10
448.8364680001963
 20
232.3256548085081
 10
449.4326496466142
 20
231.2930379063723
 10
654.8720872220663
 20
220.5264132058852
 10
659.8881289101643
 20
220.7015772414361
 10
659.9406647812577
 20
221.7040213787794
 10
654.880822071206
 20
221.5273277778375
 97
        0
 75
     0
 76
     0
 52
132.0
 41
1.999999999999999
 77
     0
 78
     1
 53
132.0
 43
871.1938896455016
 44
13.0808552364885
 45
-1.486289650954788
 46
-1.338261212717716
 79
     0
 47
0.3276821825962116
 98
        2
 10
592.7424355934789
 20
276.4326900296311
 10
586.7594893504888
 20
224.8825465174639
  0
LINE
  5
300B
102
{ACAD_REACTORS
330
2FFD
102
}
330
1101
100
AcDbEntity
  8
STEMPEL
100
AcDbLine
 10
533.8123029715145
 20
301.4436219968311
 30
0.0
 11
533.8123029715145
 21
263.9436219968311
 31
0.0
  0
ARC
  5
300C
330
1101
100
AcDbEntity
  8
STEMPEL
100
AcDbCircle
 10
524.8123029715145
 20
263.9436219968311
 30
0.0
 40
9.0
100
AcDbArc
 50
270.0
 51
0.0
  0
LINE
  5
300D
330
1101
100
AcDbEntity
  8
STEMPEL
100
AcDbLine
 10
541.5623029715147
 20
309.9436219968311
 30
0.0
 11
541.5623029715145
 21
308.4436219968311
 31
0.0
  0
LINE
  5
300E
330
1101
100
AcDbEntity
  8
STEMPEL
100
AcDbLine
 10
532.3123029715145
 20
301.4436219968311
 30
0.0
 11
532.3123029715145
 21
263.9436219968311
 31
0.0
  0
ARC
  5
300F
330
1101
100
AcDbEntity
  8
STEMPEL
100
AcDbCircle
 10
524.8123029715145
 20
263.9436219968311
 30
0.0
 40
7.5
100
AcDbArc
 50
270.0
 51
0.0
  0
LINE
  5
3010
330
1101
100
AcDbEntity
  8
STEMPEL
100
AcDbLine
 10
342.8123029715146
 20
256.4436219968311
 30
0.0
 11
524.8123029715145
 21
256.4436219968311
 31
0.0
  0
LINE
  5
3011
330
1101
100
AcDbEntity
  8
STEMPEL
100
AcDbLine
 10
540.8123029715145
 20
308.4436219968312
 30
0.0
 11
541.5623029715145
 21
308.4436219968312
 31
0.0
  0
ARC
  5
3012
330
1101
100
AcDbEntity
  8
STEMPEL
100
AcDbCircle
 10
540.8123029715145
 20
301.4436219968311
 30
0.0
 40
7.0
100
AcDbArc
 50
90.0
 51
180.0
  0
ARC
  5
3013
330
1101
100
AcDbEntity
  8
STEMPEL
100
AcDbCircle
 10
540.8123029715145
 20
301.4436219968311
 30
0.0
 40
8.5
100
AcDbArc
 50
90.0
 51
180.0
  0
LINE
  5
3014
330
1101
100
AcDbEntity
  8
STEMPEL
100
AcDbLine
 10
435.6803791828678
 20
254.9436219968311
 30
0.0
 11
524.8123029715145
 21
254.9436219968311
 31
0.0
  0
LINE
  5
3015
330
1101
100
AcDbEntity
  8
STEMPEL
100
AcDbLine
 10
532.3123029715145
 20
278.4436219968312
 30
0.0
 11
533.8123029715145
 21
278.4436219968311
 31
0.0
  0
HATCH
  5
3016
330
1101
100
AcDbEntity
  8
SCHRAFF
100
AcDbHatch
 10
0.0
 20
0.0
 30
0.0
210
0.0
220
0.0
230
1.0
  2
_USER
 70
     0
 71
     0
 91
        2
 92
        7
 72
     1
 73
     1
 93
        8
 10
533.8123029715145
 20
278.4436219968312
 42
0.0
 10
533.8123029715145
 20
301.4436219968311
 42
-0.4142135623730951
 10
540.8123029715145
 20
308.4436219968312
 42
0.0
 10
541.5623029715145
 20
308.4436219968311
 42
0.0
 10
541.5623029715147
 20
309.9436219968311
 42
0.0
 10
540.8123029715145
 20
309.9436219968311
 42
0.4142135623730951
 10
532.3123029715145
 20
301.4436219968311
 42
0.0
 10
532.3123029715145
 20
278.4436219968312
 42
0.0
 97
        0
 92
        7
 72
     1
 73
     1
 93
       16
 10
433.0823029715145
 20
254.9436219968311
 42
-0.2679491924311252
 10
434.3813410771912
 20
254.1936219968311
 42
0.0
 10
447.2653156734069
 20
231.8779233927592
 42
0.0
 10
448.5643537790837
 20
232.6279233927591
 42
0.0
 10
435.680379182868
 20
254.9436219968311
 42
0.2679491924311252
 10
433.0823029715147
 20
256.4436219968311
 42
0.0
 10
342.8123029715146
 20
256.4436219968311
 42
-0.4142135623730951
 10
335.3123029715145
 20
263.9436219968311
 42
0.0
 10
335.3123029715145
 20
301.4436219968311
 42
0.4142135623730972
 10
326.8123029715146
 20
309.9436219968311
 42
0.0
 10
326.0623029715146
 20
309.9436219968311
 42
0.0
 10
326.0623029715146
 20
308.4436219968312
 42
0.0
 10
326.8123029715146
 20
308.4436219968311
 42
-0.4142135623730951
 10
333.8123029715145
 20
301.4436219968311
 42
0.0
 10
333.8123029715145
 20
263.9436219968311
 42
0.4142135623730951
 10
342.8123029715146
 20
254.9436219968311
 42
0.0
 97
        0
 75
     0
 76
     0
 52
45.0
 41
2.0
 77
     0
 78
     1
 53
45.0
 43
155.9943211272634
 44
-182.4539199398777
 45
-1.414213562373094
 46
1.414213562373095
 79
     0
 47
0.2472954294405731
 98
        2
 10
536.9042476438607
 20
287.1419416098718
 10
426.5703626031499
 20
255.2408310898687
  0
DIMENSION
  5
3017
330
1101
100
AcDbEntity
  8
BEM
100
AcDbDimension
  2
*D3
 10
696.6891805261771
 20
246.728416095667
 30
0.0
 11
690.1891805261771
 21
278.3360190462492
 31
0.0
 70
    32
  1
63
 71
     5
 42
63.21520590116413
  3
STANDARD
100
AcDbAlignedDimension
 13
547.8123029715145
 23
309.9436219968311
 33
0.0
 14
679.4457213343437
 24
246.728416095667
 34
0.0
 50
90.0
100
AcDbRotatedDimension
  0
LINE
  5
3018
330
1101
100
AcDbEntity
  8
BEM
100
AcDbLine
 10
663.2521377362726
 20
246.728416095667
 30
0.0
 11
668.5068325900537
 21
246.728416095667
 31
0.0
  0
DIMENSION
  5
3019
330
1101
100
AcDbEntity
  8
BEM
100
AcDbDimension
  2
*D4
 10
680.7827909974967
 20
272.2412250992412
 30
0.0
 11
672.9047961811505
 21
246.1177261438249
 31
0.0
 70
    33
  1
%%c<>
 71
     5
 42
53.00000000000022
  3
STANDARD
100
AcDbAlignedDimension
 13
652.7163853643115
 23
220.6393887530466
 33
0.0
 14
655.4901910451942
 24
273.5667540950389
 34
0.0
  0
DIMENSION
  5
301B
330
1101
100
AcDbEntity
  8
BEM
100
AcDbDimension
  2
*D5
 10
333.8123029715145
 20
205.0051613783053
 30
0.0
 11
433.8123029715145
 21
211.5051613783053
 31
0.0
 70
    32
 71
     5
 42
200.0
  3
STANDARD
100
AcDbAlignedDimension
 13
533.8123029715145
 23
263.9436219968311
 33
0.0
 14
333.8123029715145
 24
263.9436219968311
 34
0.0
100
AcDbRotatedDimension
  0
HATCH
  5
301C
330
1101
100
AcDbEntity
  8
SCHRAFF
100
AcDbHatch
 10
0.0
 20
0.0
 30
0.0
210
0.0
220
0.0
230
1.0
  2
_USER
 70
     0
 71
     1
 91
        1
 92
        7
 72
     1
 73
     1
 93
        5
 10
449.4326496466142
 20
231.2930379063723
 42
0.0
 10
448.6375533085545
 20
232.6701851608035
 42
0.0
 10
447.2653156734069
 20
231.8779233927591
 42
0.0
 10
445.9916119045129
 20
234.0840430342755
 42
0.988920286839016
 10
451.2513359850015
 20
231.197724594165
 42
0.0
 97
        5
330
301E
330
3023
330
3020
330
301D
330
3000
 75
     0
 76
     0
 52
0.0
 41
0.1
 77
     0
 78
     1
 53
0.0
 43
166.4446130569717
 44
-179.0123406820932
 45
0.0
 46
0.1
 79
     0
 47
0.011911793521497
 98
        1
 10
447.913771524104
 20
231.2349833101221
  0
ARC
  5
301D
102
{ACAD_REACTORS
330
301C
102
}
330
1101
100
AcDbEntity
  8
SCHRAFF
100
AcDbCircle
 10
448.6375533085546
 20
232.6701851608037
 30
0.0
 40
3.0
100
AcDbArc
 50
151.8821967379479
 51
330.6054955250143
  0
LINE
  5
301E
102
{ACAD_REACTORS
330
301C
102
}
330
1101
100
AcDbEntity
  8
STEMPEL
100
AcDbLine
 10
435.7779785554959
 20
254.9436219968308
 30
0.0
 11
449.4326496466142
 21
231.2930379063723
 31
0.0
  0
LINE
  5
301F
330
1101
100
AcDbEntity
  8
STEMPEL
100
AcDbLine
 10
342.8123029715146
 20
254.9436219968311
 30
0.0
 11
433.0823029715145
 21
254.9436219968311
 31
0.0
  0
LINE
  5
3020
102
{ACAD_REACTORS
330
301C
102
}
330
1101
100
AcDbEntity
  8
STEMPEL
100
AcDbLine
 10
434.3813410771912
 20
254.1936219968311
 30
0.0
 11
447.265315673407
 21
231.877923392759
 31
0.0
  0
ARC
  5
3021
330
1101
100
AcDbEntity
  8
STEMPEL
100
AcDbCircle
 10
433.0823029715145
 20
253.4436219968311
 30
0.0
 40
1.5
100
AcDbArc
 50
30.00000000000055
 51
90.0
  0
ARC
  5
3022
330
1101
100
AcDbEntity
  8
STEMPEL
100
AcDbCircle
 10
433.0823029715145
 20
253.4436219968311
 30
0.0
 40
3.0
100
AcDbArc
 50
30.00000000000055
 51
90.0
  0
LINE
  5
3023
102
{ACAD_REACTORS
330
301C
102
}
330
1101
100
AcDbEntity
  8
STEMPEL
100
AcDbLine
 10
447.265315673406
 20
231.8779233927585
 30
0.0
 11
448.6375533085546
 21
232.6701851608037
 31
0.0
  0
LINE
  5
3024
330
1101
100
AcDbEntity
  8
STEMPEL
100
AcDbLine
 10
435.680379182868
 20
254.9436219968311
 30
0.0
 11
448.5643537790837
 21
232.6279233927591
 31
0.0
  0
LINE
  5
3025
330
1101
100
AcDbEntity
  8
STEMPEL
100
AcDbLine
 10
445.8123029715144
 20
254.9436219968312
 30
0.0
 11
445.8123029715144
 21
256.443621996831
 31
0.0
  0
LINE
  5
3026
330
1101
100
AcDbEntity
  8
STEMPEL
100
AcDbLine
 10
453.8123029715144
 20
254.9436219968312
 30
0.0
 11
453.8123029715144
 21
256.4436219968311
 31
0.0
  0
LINE
  5
3027
330
1101
100
AcDbEntity
  8
STEMPEL
100
AcDbLine
 10
447.265315673406
 20
231.8779233927585
 30
0.0
 11
448.5643537790826
 21
232.6279233927585
 31
0.0
  0
HATCH
  5
3028
330
1101
100
AcDbEntity
  8
SCHRAFF
100
AcDbHatch
 10
0.0
 20
0.0
 30
0.0
210
0.0
220
0.0
230
1.0
  2
_USER
 70
     0
 71
     0
 91
        1
 92
        7
 72
     1
 73
     1
 93
        5
 10
328.5252741109315
 20
308.2307959208973
 42
0.0618840054865186
 10
326.8123029715146
 20
308.4436219968311
 42
0.0
 10
326.0623029715146
 20
308.4436219968311
 42
0.0
 10
326.0623029715146
 20
309.943621996831
 42
0.0
 10
323.0623029715145
 20
309.943621996831
 42
0.7344659377783067
 97
        0
 75
     0
 76
     0
 52
0.0
 41
0.1
 77
     0
 78
     1
 53
0.0
 43
166.4446130569717
 44
-179.0123406820932
 45
0.0
 46
0.1
 79
     0
 47
0.0233644277170296
 98
        1
 10
325.7265019885767
 20
308.0182271769057
  0
ARC
  5
3029
330
1101
100
AcDbEntity
  8
SCHRAFF
100
AcDbCircle
 10
326.0623029715146
 20
309.9436219968311
 30
0.0
 40
3.0
100
AcDbArc
 50
180.0000000000032
 51
325.1840578013947
  0
LINE
  5
302A
330
1101
100
AcDbEntity
  8
STEMPEL
100
AcDbLine
 10
333.8123029715145
 20
301.4436219968311
 30
0.0
 11
333.8123029715145
 21
263.9436219968311
 31
0.0
  0
ARC
  5
302B
330
1101
100
AcDbEntity
  8
STEMPEL
100
AcDbCircle
 10
342.8123029715146
 20
263.9436219968311
 30
0.0
 40
9.0
100
AcDbArc
 50
180.0
 51
270.0
  0
LINE
  5
302C
330
1101
100
AcDbEntity
  8
STEMPEL
100
AcDbLine
 10
326.0623029715146
 20
309.9436219968311
 30
0.0
 11
326.0623029715146
 21
308.4436219968311
 31
0.0
  0
LINE
  5
302D
330
1101
100
AcDbEntity
  8
STEMPEL
100
AcDbLine
 10
326.0623029715146
 20
308.4436219968312
 30
0.0
 11
326.8123029715146
 21
308.4436219968311
 31
0.0
  0
ARC
  5
302E
330
1101
100
AcDbEntity
  8
STEMPEL
100
AcDbCircle
 10
342.8123029715146
 20
263.9436219968311
 30
0.0
 40
7.5
100
AcDbArc
 50
180.0
 51
270.0
  0
LINE
  5
302F
330
1101
100
AcDbEntity
  8
STEMPEL
100
AcDbLine
 10
335.3123029715145
 20
301.4436219968311
 30
0.0
 11
335.3123029715145
 21
263.9436219968311
 31
0.0
  0
ARC
  5
3030
330
1101
100
AcDbEntity
  8
STEMPEL
100
AcDbCircle
 10
326.8123029715146
 20
301.4436219968311
 30
0.0
 40
7.0
100
AcDbArc
 50
0.0
 51
90.0
  0
ARC
  5
3031
330
1101
100
AcDbEntity
  8
STEMPEL
100
AcDbCircle
 10
326.8123029715146
 20
301.4436219968311
 30
0.0
 40
8.5
100
AcDbArc
 50
0.0
 51
90.0
  0
DIMENSION
  5
3032
330
1101
100
AcDbEntity
  8
BEM
100
AcDbDimension
  2
*D6
 10
333.8123029715145
 20
205.0051613783053
 30
0.0
 11
299.8123029715145
 21
211.5051613783053
 31
0.0
 70
    32
 71
     5
 42
68.0
  3
STANDARD
100
AcDbAlignedDimension
 13
265.8123029715146
 23
309.9436219968311
 33
0.0
 14
333.8123029715145
 24
263.9436219968311
 34
0.0
100
AcDbRotatedDimension
  0
DIMENSION
  5
3033
330
1101
100
AcDbEntity
  8
BEM
100
AcDbDimension
  2
*D7
 10
239.9806110601493
 20
309.9436219968311
 30
0.0
 11
233.4806110601492
 21
282.4436219968312
 31
0.0
 70
    32
 71
     5
 42
54.99999999999997
  3
STANDARD
100
AcDbAlignedDimension
 13
346.8123029715146
 23
254.9436219968311
 33
0.0
 14
265.8123029715146
 24
309.9436219968311
 34
0.0
 50
90.0
100
AcDbRotatedDimension
  0
DIMENSION
  5
30FC
330
1101
100
AcDbEntity
  8
BEM
100
AcDbDimension
  2
*D8
 10
668.5068325900537
 20
246.728416095667
 30
0.0
 11
604.2301397016804
 21
262.5502081283014
 31
0.0
 70
   162
 71
     5
 42
0.052359877559828
  3
STANDARD
100
AcDb2LineAngularDimension
 13
498.4791642628308
 23
255.2589861627079
 33
0.0
 14
666.2452854100454
 24
246.4667363144522
 34
0.0
 15
663.2521377362726
 25
246.728416095667
 35
0.0
 16
602.0848262321284
 26
247.7611853596001
 36
0.0
  0
LINE
  5
3227
330
1101
100
AcDbEntity
  8
MITTEL
100
AcDbLine
 10
400.8123029715145
 20
342.9436219968307
 30
0.0
 11
400.8123029715145
 21
304.9436219968311
 31
0.0
  0
LINE
  5
3231
330
1101
100
AcDbEntity
  8
MITTEL
100
AcDbLine
 10
483.0847163310361
 20
342.9436219968307
 30
0.0
 11
483.0847163310361
 21
309.9436219968311
 31
0.0
  0
LINE
  5
323B
330
1101
100
AcDbEntity
  8
MITTEL
100
AcDbLine
 10
318.539889611993
 20
342.9436219968309
 30
0.0
 11
318.539889611993
 21
309.9436219968311
 31
0.0
  0
LINE
  5
325D
330
1101
100
AcDbEntity
  8
STEMPEL
100
AcDbLine
 10
488.0847163310361
 20
317.9436219968308
 30
0.0
 11
488.084716331036
 21
315.9436219968311
 31
0.0
  0
LINE
  5
325E
330
1101
100
AcDbEntity
  8
HILF
100
AcDbLine
 10
487.0847163310361
 20
317.9436219968308
 30
0.0
 11
487.0847163310361
 21
315.9436219968311
 31
0.0
  0
LINE
  5
325F
330
1101
100
AcDbEntity
  8
HILF
100
AcDbLine
 10
479.0847163310361
 20
317.9436219968308
 30
0.0
 11
479.0847163310361
 21
315.9436219968311
 31
0.0
  0
LINE
  5
3260
330
1101
100
AcDbEntity
  8
STEMPEL
100
AcDbLine
 10
478.0847163310361
 20
317.9436219968308
 30
0.0
 11
478.0847163310361
 21
315.9436219968311
 31
0.0
  0
LINE
  5
3261
330
1101
100
AcDbEntity
  8
HILF
100
AcDbLine
 10
404.8123029715146
 20
317.9436219968311
 30
0.0
 11
404.8123029715146
 21
315.9436219968311
 31
0.0
  0
LINE
  5
3262
330
1101
100
AcDbEntity
  8
STEMPEL
100
AcDbLine
 10
405.8123029715146
 20
317.9436219968311
 30
0.0
 11
405.8123029715145
 21
315.9436219968311
 31
0.0
  0
LINE
  5
3263
330
1101
100
AcDbEntity
  8
HILF
100
AcDbLine
 10
396.8123029715146
 20
317.9436219968311
 30
0.0
 11
396.8123029715146
 21
315.9436219968311
 31
0.0
  0
LINE
  5
3264
330
1101
100
AcDbEntity
  8
STEMPEL
100
AcDbLine
 10
395.8123029715146
 20
317.9436219968311
 30
0.0
 11
395.8123029715145
 21
315.9436219968311
 31
0.0
  0
LINE
  5
3265
330
1101
100
AcDbEntity
  8
STEMPEL
100
AcDbLine
 10
323.539889611993
 20
317.9436219968313
 30
0.0
 11
323.5398896119929
 21
315.9436219968311
 31
0.0
  0
LINE
  5
3266
330
1101
100
AcDbEntity
  8
HILF
100
AcDbLine
 10
322.539889611993
 20
317.9436219968313
 30
0.0
 11
322.539889611993
 21
315.9436219968311
 31
0.0
  0
LINE
  5
3267
330
1101
100
AcDbEntity
  8
HILF
100
AcDbLine
 10
314.539889611993
 20
317.9436219968313
 30
0.0
 11
314.539889611993
 21
315.9436219968311
 31
0.0
  0
LINE
  5
3268
330
1101
100
AcDbEntity
  8
STEMPEL
100
AcDbLine
 10
313.539889611993
 20
317.9436219968313
 30
0.0
 11
313.539889611993
 21
315.9436219968311
 31
0.0
  0
LINE
  5
3693
330
1101
100
AcDbEntity
  8
STEMPEL
100
AcDbLine
 10
395.8123029715149
 20
336.9436219968309
 30
0.0
 11
405.8123029715146
 21
336.9436219968307
 31
0.0
  0
LINE
  5
3694
330
1101
100
AcDbEntity
  8
STEMPEL
100
AcDbLine
 10
396.8123029715146
 20
337.9436219968309
 30
0.0
 11
404.8123029715141
 21
337.9436219968311
 31
0.0
  0
LINE
  5
3695
330
1101
100
AcDbEntity
  8
STEMPEL
100
AcDbLine
 10
395.8123029715146
 20
336.9436219968309
 30
0.0
 11
396.8123029715146
 21
337.9436219968308
 31
0.0
  0
LINE
  5
3696
330
1101
100
AcDbEntity
  8
STEMPEL
100
AcDbLine
 10
405.8123029715144
 20
336.9436219968309
 30
0.0
 11
404.8123029715143
 21
337.9436219968309
 31
0.0
  0
LINE
  5
3697
330
1101
100
AcDbEntity
  8
STEMPEL
100
AcDbLine
 10
479.0847163310359
 20
337.9436219968309
 30
0.0
 11
487.0847163310354
 21
337.9436219968311
 31
0.0
  0
LINE
  5
3698
330
1101
100
AcDbEntity
  8
STEMPEL
100
AcDbLine
 10
478.0847163310362
 20
336.9436219968309
 30
0.0
 11
488.084716331036
 21
336.9436219968307
 31
0.0
  0
LINE
  5
3699
330
1101
100
AcDbEntity
  8
STEMPEL
100
AcDbLine
 10
478.0847163310359
 20
336.9436219968309
 30
0.0
 11
479.0847163310359
 21
337.9436219968308
 31
0.0
  0
LINE
  5
369A
330
1101
100
AcDbEntity
  8
STEMPEL
100
AcDbLine
 10
488.0847163310357
 20
336.9436219968309
 30
0.0
 11
487.0847163310357
 21
337.9436219968309
 31
0.0
  0
LINE
  5
369B
330
1101
100
AcDbEntity
  8
STEMPEL
100
AcDbLine
 10
314.5398896119928
 20
337.9436219968309
 30
0.0
 11
322.5398896119923
 21
337.9436219968311
 31
0.0
  0
LINE
  5
369C
330
1101
100
AcDbEntity
  8
STEMPEL
100
AcDbLine
 10
313.5398896119931
 20
336.9436219968309
 30
0.0
 11
323.5398896119928
 21
336.9436219968307
 31
0.0
  0
LINE
  5
369D
330
1101
100
AcDbEntity
  8
STEMPEL
100
AcDbLine
 10
313.5398896119928
 20
336.9436219968309
 30
0.0
 11
314.5398896119928
 21
337.9436219968308
 31
0.0
  0
LINE
  5
369E
330
1101
100
AcDbEntity
  8
STEMPEL
100
AcDbLine
 10
323.5398896119926
 20
336.9436219968309
 30
0.0
 11
322.5398896119926
 21
337.9436219968309
 31
0.0
  0
LINE
  5
369F
102
{ACAD_REACTORS
330
36C5
330
3712
102
}
330
1101
100
AcDbEntity
  8
STEMPEL
100
AcDbLine
 10
273.8123029715146
 20
317.9436219968315
 30
0.0
 11
527.8123029715145
 21
317.9436219968307
 31
0.0
  0
LINE
  5
36A0
102
{ACAD_REACTORS
330
36C5
102
}
330
1101
100
AcDbEntity
  8
STEMPEL
100
AcDbLine
 10
291.470160196088
 20
323.9436219968312
 30
0.0
 11
527.8123029715145
 21
323.9436219968303
 31
0.0
  0
ARC
  5
36A1
330
1101
100
AcDbEntity
  8
STEMPEL
100
AcDbCircle
 10
474.470160196088
 20
328.9436219968304
 30
0.0
 40
5.0
100
AcDbArc
 50
180.9999999999985
 51
270.0
  0
ARC
  5
36A2
102
{ACAD_REACTORS
330
36C5
102
}
330
1101
100
AcDbEntity
  8
STEMPEL
100
AcDbCircle
 10
527.8123029715145
 20
320.9436219968306
 30
0.0
 40
3.0
100
AcDbArc
 50
270.0
 51
90.0
  0
LINE
  5
36A3
330
1101
100
AcDbEntity
  8
STEMPEL
100
AcDbLine
 10
469.4709217203061
 20
328.856359964644
 30
0.0
 11
469.3123029715145
 21
337.9436219968306
 31
0.0
  0
LINE
  5
36A4
330
1101
100
AcDbEntity
  8
STEMPEL
100
AcDbLine
 10
454.1457031588582
 20
328.3991251220575
 30
0.0
 11
454.3123029715146
 21
337.9436219968306
 31
0.0
  0
ARC
  5
36A5
330
1101
100
AcDbEntity
  8
STEMPEL
100
AcDbCircle
 10
449.1544457469411
 20
328.9436219968305
 30
0.0
 40
5.0
100
AcDbArc
 50
270.0
 51
358.9999999999982
  0
LINE
  5
36A6
330
1101
100
AcDbEntity
  8
STEMPEL
100
AcDbLine
 10
454.3123029715146
 20
337.9436219968306
 30
0.0
 11
469.3123029715145
 21
337.9436219968306
 31
0.0
  0
ARC
  5
36A7
102
{ACAD_REACTORS
330
36C5
102
}
330
1101
100
AcDbEntity
  8
STEMPEL
100
AcDbCircle
 10
467.8123029715145
 20
320.9436219968306
 30
0.0
 40
3.0
100
AcDbArc
 50
90.0
 51
270.0
  0
LINE
  5
36A8
102
{ACAD_REACTORS
330
36C5
330
3712
102
}
330
1101
100
AcDbEntity
  8
STEMPEL
100
AcDbLine
 10
271.3123029715146
 20
337.9436219968314
 30
0.0
 11
286.3123029715146
 21
337.9436219968314
 31
0.0
  0
ARC
  5
36A9
102
{ACAD_REACTORS
330
36C5
102
}
330
1101
100
AcDbEntity
  8
STEMPEL
100
AcDbCircle
 10
333.8123029715145
 20
320.9436219968308
 30
0.0
 40
3.0
100
AcDbArc
 50
270.0
 51
90.0
  0
LINE
  5
36AA
102
{ACAD_REACTORS
330
36C5
102
}
330
1101
100
AcDbEntity
  8
STEMPEL
100
AcDbLine
 10
286.4709217203061
 20
328.8563599646447
 30
0.0
 11
286.3123029715146
 21
337.9436219968313
 31
0.0
  0
ARC
  5
36AB
102
{ACAD_REACTORS
330
36C5
102
}
330
1101
100
AcDbEntity
  8
STEMPEL
100
AcDbCircle
 10
291.4701601960881
 20
328.9436219968312
 30
0.0
 40
5.0
100
AcDbArc
 50
180.9999999999985
 51
270.0
  0
LINE
  5
36AC
102
{ACAD_REACTORS
330
36C5
330
3712
102
}
330
1101
100
AcDbEntity
  8
STEMPEL
100
AcDbLine
 10
282.3123029715146
 20
331.9436219968314
 30
0.0
 11
282.3123029715146
 21
334.9436219968315
 31
0.0
  0
LINE
  5
36AD
102
{ACAD_REACTORS
330
36C5
330
3712
102
}
330
1101
100
AcDbEntity
  8
STEMPEL
100
AcDbLine
 10
275.3123029715145
 20
331.9436219968314
 30
0.0
 11
275.3123029715145
 21
334.9436219968315
 31
0.0
  0
LINE
  5
36AE
102
{ACAD_REACTORS
330
36C5
102
}
330
1101
100
AcDbEntity
  8
STEMPEL
100
AcDbLine
 10
271.0477240137171
 20
322.7859036563106
 30
0.0
 11
271.3123029715146
 21
337.9436219968314
 31
0.0
  0
LINE
  5
36AF
102
{ACAD_REACTORS
330
3712
102
}
330
1101
100
AcDbEntity
  8
HILF
100
AcDbLine
 10
281.8123029715145
 20
317.9436219968313
 30
0.0
 11
281.8123029715146
 21
337.9436219968314
 31
0.0
  0
LINE
  5
36B0
102
{ACAD_REACTORS
330
3712
102
}
330
1101
100
AcDbEntity
  8
HILF
100
AcDbLine
 10
275.8123029715146
 20
317.9436219968313
 30
0.0
 11
275.8123029715146
 21
337.9436219968314
 31
0.0
  0
LINE
  5
36B1
102
{ACAD_REACTORS
330
3712
102
}
330
1101
100
AcDbEntity
  8
STEMPEL
100
AcDbLine
 10
276.8123029715146
 20
317.9436219968313
 30
0.0
 11
276.8123029715147
 21
337.9436219968314
 31
0.0
  0
LINE
  5
36B2
102
{ACAD_REACTORS
330
3712
102
}
330
1101
100
AcDbEntity
  8
STEMPEL
100
AcDbLine
 10
280.8123029715146
 20
317.9436219968313
 30
0.0
 11
280.8123029715147
 21
337.9436219968314
 31
0.0
  0
LINE
  5
36B3
102
{ACAD_REACTORS
330
36C5
330
3712
102
}
330
1101
100
AcDbEntity
  8
STEMPEL
100
AcDbLine
 10
282.3123029715145
 20
320.9436219968314
 30
0.0
 11
282.3123029715144
 21
323.9436219968314
 31
0.0
  0
LINE
  5
36B4
102
{ACAD_REACTORS
330
36C5
330
3712
102
}
330
1101
100
AcDbEntity
  8
STEMPEL
100
AcDbLine
 10
282.3123029715145
 20
320.9436219968315
 30
0.0
 11
282.8123029715145
 21
320.9436219968315
 31
0.0
  0
LINE
  5
36B5
102
{ACAD_REACTORS
330
36C5
330
3712
102
}
330
1101
100
AcDbEntity
  8
STEMPEL
100
AcDbLine
 10
282.8123029715144
 20
317.9436219968315
 30
0.0
 11
282.8123029715144
 21
320.9436219968315
 31
0.0
  0
LINE
  5
36B6
102
{ACAD_REACTORS
330
36C5
330
3712
102
}
330
1101
100
AcDbEntity
  8
STEMPEL
100
AcDbLine
 10
282.3123029715146
 20
331.9436219968314
 30
0.0
 11
282.8123029715146
 21
331.9436219968314
 31
0.0
  0
LINE
  5
36B7
102
{ACAD_REACTORS
330
36C5
330
3712
102
}
330
1101
100
AcDbEntity
  8
STEMPEL
100
AcDbLine
 10
282.3123029715144
 20
323.9436219968314
 30
0.0
 11
282.8123029715145
 21
323.9436219968314
 31
0.0
  0
LINE
  5
36B8
102
{ACAD_REACTORS
330
36C5
330
3712
102
}
330
1101
100
AcDbEntity
  8
STEMPEL
100
AcDbLine
 10
282.8123029715145
 20
323.9436219968313
 30
0.0
 11
282.8123029715147
 21
331.9436219968314
 31
0.0
  0
LINE
  5
36B9
102
{ACAD_REACTORS
330
36C5
330
3712
102
}
330
1101
100
AcDbEntity
  8
STEMPEL
100
AcDbLine
 10
275.3123029715145
 20
320.9436219968315
 30
0.0
 11
275.3123029715144
 21
323.9436219968316
 31
0.0
  0
ARC
  5
36BA
102
{ACAD_REACTORS
330
36C5
102
}
330
1101
100
AcDbEntity
  8
STEMPEL
100
AcDbCircle
 10
273.8123029715146
 20
320.943621996831
 30
0.0
 40
3.0
100
AcDbArc
 50
166.043039397103
 51
270.0
  0
LINE
  5
36BB
102
{ACAD_REACTORS
330
36C5
330
3712
102
}
330
1101
100
AcDbEntity
  8
STEMPEL
100
AcDbLine
 10
274.8123029715145
 20
320.9436219968315
 30
0.0
 11
275.3123029715145
 21
320.9436219968315
 31
0.0
  0
LINE
  5
36BC
102
{ACAD_REACTORS
330
36C5
330
3712
102
}
330
1101
100
AcDbEntity
  8
STEMPEL
100
AcDbLine
 10
274.8123029715145
 20
317.9436219968315
 30
0.0
 11
274.8123029715145
 21
320.9436219968315
 31
0.0
  0
ARC
  5
36BD
102
{ACAD_REACTORS
330
36C5
102
}
330
1101
100
AcDbEntity
  8
STEMPEL
100
AcDbCircle
 10
266.0484855379351
 20
322.8731656884971
 30
0.0
 40
5.0
100
AcDbArc
 50
346.0430393971031
 51
358.9999999999982
  0
LINE
  5
36BE
102
{ACAD_REACTORS
330
36C5
330
3712
102
}
330
1101
100
AcDbEntity
  8
STEMPEL
100
AcDbLine
 10
274.8123029715145
 20
323.9436219968315
 30
0.0
 11
274.8123029715147
 21
331.9436219968314
 31
0.0
  0
LINE
  5
36BF
102
{ACAD_REACTORS
330
36C5
330
3712
102
}
330
1101
100
AcDbEntity
  8
STEMPEL
100
AcDbLine
 10
274.8123029715146
 20
331.9436219968314
 30
0.0
 11
275.3123029715145
 21
331.9436219968314
 31
0.0
  0
LINE
  5
36C0
102
{ACAD_REACTORS
330
36C5
330
3712
102
}
330
1101
100
AcDbEntity
  8
STEMPEL
100
AcDbLine
 10
274.8123029715145
 20
323.9436219968316
 30
0.0
 11
275.3123029715144
 21
323.9436219968315
 31
0.0
  0
LINE
  5
36C1
102
{ACAD_REACTORS
330
36C5
330
3712
102
}
330
1101
100
AcDbEntity
  8
STEMPEL
100
AcDbLine
 10
282.3123029715146
 20
334.9436219968314
 30
0.0
 11
282.8123029715146
 21
334.9436219968314
 31
0.0
  0
LINE
  5
36C2
102
{ACAD_REACTORS
330
36C5
330
3712
102
}
330
1101
100
AcDbEntity
  8
STEMPEL
100
AcDbLine
 10
282.8123029715147
 20
334.9436219968313
 30
0.0
 11
282.8123029715146
 21
337.9436219968314
 31
0.0
  0
LINE
  5
36C3
102
{ACAD_REACTORS
330
36C5
330
3712
102
}
330
1101
100
AcDbEntity
  8
STEMPEL
100
AcDbLine
 10
274.8123029715147
 20
334.9436219968314
 30
0.0
 11
274.8123029715146
 21
337.9436219968314
 31
0.0
  0
LINE
  5
36C4
102
{ACAD_REACTORS
330
36C5
330
3712
102
}
330
1101
100
AcDbEntity
  8
STEMPEL
100
AcDbLine
 10
274.8123029715146
 20
334.9436219968314
 30
0.0
 11
275.3123029715145
 21
334.9436219968314
 31
0.0
  0
HATCH
  5
36C5
330
1101
100
AcDbEntity
  8
SCHRAFF
100
AcDbHatch
 10
0.0
 20
0.0
 30
0.0
210
0.0
220
0.0
230
1.0
  2
_USER
 70
     0
 71
     1
 91
        3
 92
        7
 72
     1
 73
     1
 93
        4
 10
467.8123029715145
 20
323.9436219968306
 42
1.0
 10
467.8123029715145
 20
317.9436219968309
 42
0.0
 10
527.8123029715145
 20
317.9436219968307
 42
1.0
 10
527.8123029715145
 20
323.9436219968303
 42
0.0
 97
        4
330
36A0
330
36A7
330
369F
330
36A2
 92
        7
 72
     1
 73
     1
 93
       15
 10
333.8123029715145
 20
317.9436219968313
 42
1.0
 10
333.8123029715145
 20
323.9436219968311
 42
0.0
 10
291.470160196088
 20
323.9436219968312
 42
-0.4091108014277082
 10
286.4709217203061
 20
328.8563599646448
 42
0.0
 10
286.3123029715146
 20
337.9436219968314
 42
0.0
 10
282.8123029715146
 20
337.9436219968314
 42
0.0
 10
282.8123029715147
 20
334.9436219968314
 42
0.0
 10
282.3123029715146
 20
334.9436219968313
 42
0.0
 10
282.3123029715146
 20
331.9436219968314
 42
0.0
 10
282.8123029715147
 20
331.9436219968314
 42
0.0
 10
282.8123029715145
 20
323.9436219968314
 42
0.0
 10
282.3123029715144
 20
323.9436219968315
 42
0.0
 10
282.3123029715145
 20
320.9436219968315
 42
0.0
 10
282.8123029715144
 20
320.9436219968315
 42
0.0
 10
282.8123029715144
 20
317.9436219968315
 42
0.0
 97
       15
330
36A0
330
36AB
330
36AA
330
36A8
330
36C2
330
36C1
330
36AC
330
36B6
330
36B8
330
36B7
330
36B3
330
36B4
330
36B5
330
369F
330
36A9
 92
        7
 72
     1
 73
     1
 93
       14
 10
274.8123029715147
 20
331.9436219968314
 42
0.0
 10
275.3123029715145
 20
331.9436219968314
 42
0.0
 10
275.3123029715145
 20
334.9436219968313
 42
0.0
 10
274.8123029715147
 20
334.9436219968314
 42
0.0
 10
274.8123029715146
 20
337.9436219968314
 42
0.0
 10
271.3123029715146
 20
337.9436219968314
 42
0.0
 10
271.0477240137171
 20
322.7859036563106
 42
-0.0565957168052928
 10
270.9008714339223
 20
321.6672008812059
 42
0.4875001418525418
 10
273.8123029715145
 20
317.9436219968315
 42
0.0
 10
274.8123029715145
 20
317.9436219968315
 42
0.0
 10
274.8123029715145
 20
320.9436219968315
 42
0.0
 10
275.3123029715145
 20
320.9436219968315
 42
0.0
 10
275.3123029715144
 20
323.9436219968315
 42
0.0
 10
274.8123029715145
 20
323.9436219968316
 42
0.0
 97
       14
330
36BF
330
36AD
330
36C4
330
36C3
330
36A8
330
36AE
330
36BD
330
36BA
330
369F
330
36BC
330
36BB
330
36B9
330
36C0
330
36BE
 75
     0
 76
     0
 52
45.0
 41
5.0
 77
     0
 78
     1
 53
45.0
 43
188.9741681301439
 44
-145.435354918913
 45
-3.535533905932737
 46
3.535533905932737
 79
     0
 47
0.4118340008760517
 98
        3
 10
477.7725099459522
 20
321.1071660192612
 10
310.9228081980919
 20
319.4598306877808
 10
273.4331214418285
 20
328.1083433680251
  0
LINE
  5
36C6
330
1101
100
AcDbEntity
  8
STEMPEL
100
AcDbLine
 10
323.5398896119926
 20
333.9436219968312
 30
0.0
 11
323.5398896119926
 21
336.9436219968309
 31
0.0
  0
LINE
  5
36C7
330
1101
100
AcDbEntity
  8
HILF
100
AcDbLine
 10
322.5398896119926
 20
333.9436219968312
 30
0.0
 11
322.5398896119926
 21
337.9436219968309
 31
0.0
  0
LINE
  5
36C8
330
1101
100
AcDbEntity
  8
HILF
100
AcDbLine
 10
314.5398896119926
 20
333.9436219968311
 30
0.0
 11
314.5398896119926
 21
337.9436219968311
 31
0.0
  0
LINE
  5
36C9
330
1101
100
AcDbEntity
  8
STEMPEL
100
AcDbLine
 10
313.5398896119928
 20
333.9436219968311
 30
0.0
 11
313.5398896119928
 21
336.9436219968309
 31
0.0
  0
LINE
  5
36CA
330
1101
100
AcDbEntity
  8
HILF
100
AcDbLine
 10
396.8123029715144
 20
333.9436219968309
 30
0.0
 11
396.8123029715144
 21
337.9436219968311
 31
0.0
  0
LINE
  5
36CB
330
1101
100
AcDbEntity
  8
STEMPEL
100
AcDbLine
 10
395.8123029715146
 20
333.9436219968308
 30
0.0
 11
395.8123029715146
 21
336.9436219968309
 31
0.0
  0
LINE
  5
36CC
330
1101
100
AcDbEntity
  8
HILF
100
AcDbLine
 10
404.8123029715144
 20
333.9436219968308
 30
0.0
 11
404.8123029715143
 21
337.9436219968309
 31
0.0
  0
LINE
  5
36CD
330
1101
100
AcDbEntity
  8
STEMPEL
100
AcDbLine
 10
405.8123029715144
 20
333.9436219968308
 30
0.0
 11
405.8123029715144
 21
336.9436219968309
 31
0.0
  0
LINE
  5
36CE
330
1101
100
AcDbEntity
  8
STEMPEL
100
AcDbLine
 10
488.0847163310357
 20
333.9436219968305
 30
0.0
 11
488.0847163310357
 21
336.9436219968309
 31
0.0
  0
LINE
  5
36CF
330
1101
100
AcDbEntity
  8
HILF
100
AcDbLine
 10
487.0847163310357
 20
333.9436219968305
 30
0.0
 11
487.0847163310357
 21
337.9436219968309
 31
0.0
  0
LINE
  5
36D0
330
1101
100
AcDbEntity
  8
HILF
100
AcDbLine
 10
479.0847163310358
 20
333.9436219968305
 30
0.0
 11
479.0847163310357
 21
337.9436219968311
 31
0.0
  0
LINE
  5
36D1
330
1101
100
AcDbEntity
  8
STEMPEL
100
AcDbLine
 10
478.0847163310359
 20
333.9436219968305
 30
0.0
 11
478.0847163310359
 21
336.9436219968309
 31
0.0
  0
ARC
  5
36D2
330
1101
100
AcDbEntity
  8
STEMPEL
100
AcDbCircle
 10
328.6898896119927
 20
324.6936219968312
 30
0.0
 40
0.750000000000001
100
AcDbArc
 50
269.9999991462263
 51
70.00000000000047
  0
ARC
  5
36D3
330
1101
100
AcDbEntity
  8
STEMPEL
100
AcDbCircle
 10
308.3898896119927
 20
324.6936219968312
 30
0.0
 40
0.7500000000000013
100
AcDbArc
 50
109.9999999999995
 51
269.9999991462263
  0
LINE
  5
36D4
330
1101
100
AcDbEntity
  8
STEMPEL
100
AcDbLine
 10
309.8796355741483
 20
326.033978513031
 30
0.0
 11
308.1333745044985
 21
325.3983914624206
 31
0.0
  0
LINE
  5
36D5
330
1101
100
AcDbEntity
  8
STEMPEL
100
AcDbLine
 10
328.9464047194869
 20
325.3983914624206
 30
0.0
 11
327.2001436498371
 21
326.033978513031
 31
0.0
  0
LINE
  5
36D6
330
1101
100
AcDbEntity
  8
STEMPEL
100
AcDbLine
 10
327.2001436498371
 20
333.6327328643758
 30
0.0
 11
326.0398896119927
 21
333.9436219968312
 31
0.0
  0
LINE
  5
36D7
330
1101
100
AcDbEntity
  8
STEMPEL
100
AcDbLine
 10
311.0398896119928
 20
333.9436219968312
 30
0.0
 11
309.8796355741483
 21
333.6327328643758
 31
0.0
  0
LINE
  5
36D8
330
1101
100
AcDbEntity
  8
STEMPEL
100
AcDbLine
 10
309.8796355741483
 20
326.033978513031
 30
0.0
 11
309.8796355741483
 21
333.6327328643758
 31
0.0
  0
LINE
  5
36D9
330
1101
100
AcDbEntity
  8
STEMPEL
100
AcDbLine
 10
328.6898896119927
 20
323.9436219968311
 30
0.0
 11
308.3898896119927
 21
323.9436219968311
 31
0.0
  0
LINE
  5
36DA
330
1101
100
AcDbEntity
  8
STEMPEL
100
AcDbLine
 10
328.9464047194869
 20
325.3983914624206
 30
0.0
 11
308.1333745044985
 21
325.3983914624206
 31
0.0
  0
LINE
  5
36DB
330
1101
100
AcDbEntity
  8
STEMPEL
100
AcDbLine
 10
314.2097625930706
 20
326.033978513031
 30
0.0
 11
314.2097625930706
 21
333.6327328643758
 31
0.0
  0
LINE
  5
36DC
330
1101
100
AcDbEntity
  8
STEMPEL
100
AcDbLine
 10
322.8700166309149
 20
326.033978513031
 30
0.0
 11
322.8700166309149
 21
333.6327328643758
 31
0.0
  0
LINE
  5
36DD
330
1101
100
AcDbEntity
  8
STEMPEL
100
AcDbLine
 10
327.2001436498371
 20
326.033978513031
 30
0.0
 11
327.2001436498371
 21
333.6327328643758
 31
0.0
  0
LINE
  5
36DE
330
1101
100
AcDbEntity
  8
STEMPEL
100
AcDbLine
 10
311.0398896119928
 20
333.9436219968312
 30
0.0
 11
326.0398896119927
 21
333.9436219968312
 31
0.0
  0
POINT
  5
36DF
330
1101
100
AcDbEntity
  8
0
100
AcDbPoint
 10
318.5398896119928
 20
323.9436219968311
 30
0.0
210
0.0000000000000001
220
1.0
230
0.0
  0
ARC
  5
36E0
330
1101
100
AcDbEntity
  8
HILF
100
AcDbCircle
 10
312.0446990836094
 20
320.6951358473015
 30
0.0
 40
5.761140599691502
100
AcDbArc
 50
67.92594526326356
 51
112.0740547367364
  0
ARC
  5
36E1
330
1101
100
AcDbEntity
  8
HILF
100
AcDbCircle
 10
325.035080140376
 20
320.6951358473015
 30
0.0
 40
5.761140599691502
100
AcDbArc
 50
67.92594526326356
 51
112.0740547367364
  0
ARC
  5
36E2
330
1101
100
AcDbEntity
  8
HILF
100
AcDbCircle
 10
318.5398896119928
 20
304.0451609491699
 30
0.0
 40
22.41111549782308
100
AcDbArc
 50
78.85962783890775
 51
101.1403721610922
  0
ARC
  5
36E3
330
1101
100
AcDbEntity
  8
STEMPEL
100
AcDbCircle
 10
325.035080140376
 20
326.2493162890467
 30
0.0
 40
7.694305707784447
100
AcDbArc
 50
73.65710669401345
 51
106.3428933059865
  0
ARC
  5
36E4
330
1101
100
AcDbEntity
  8
STEMPEL
100
AcDbCircle
 10
312.0446990836094
 20
326.2493162890467
 30
0.0
 40
7.694305707784447
100
AcDbArc
 50
73.65710669401345
 51
106.3428933059865
  0
ARC
  5
36E5
330
1101
100
AcDbEntity
  8
STEMPEL
100
AcDbCircle
 10
318.5398896119928
 20
303.6327328643763
 30
0.0
 40
30.31088913245485
100
AcDbArc
 50
81.7867892982638
 51
98.21321070173619
  0
LINE
  5
36E6
330
1101
100
AcDbEntity
  8
STEMPEL
100
AcDbLine
 10
491.7449703688802
 20
326.0339785130304
 30
0.0
 11
491.7449703688802
 21
333.6327328643752
 31
0.0
  0
LINE
  5
36E7
330
1101
100
AcDbEntity
  8
STEMPEL
100
AcDbLine
 10
487.4148433499581
 20
326.0339785130304
 30
0.0
 11
487.4148433499581
 21
333.6327328643752
 31
0.0
  0
LINE
  5
36E8
330
1101
100
AcDbEntity
  8
STEMPEL
100
AcDbLine
 10
478.7545893121136
 20
326.0339785130304
 30
0.0
 11
478.7545893121136
 21
333.6327328643752
 31
0.0
  0
LINE
  5
36E9
330
1101
100
AcDbEntity
  8
STEMPEL
100
AcDbLine
 10
474.4244622931915
 20
326.0339785130304
 30
0.0
 11
474.4244622931915
 21
333.6327328643752
 31
0.0
  0
ARC
  5
36EA
330
1101
100
AcDbEntity
  8
HILF
100
AcDbCircle
 10
476.5895258026525
 20
320.6951358473009
 30
0.0
 40
5.761140599691502
100
AcDbArc
 50
67.92594526326356
 51
112.0740547367364
  0
LINE
  5
36EB
330
1101
100
AcDbEntity
  8
STEMPEL
100
AcDbLine
 10
493.4912314385301
 20
325.39839146242
 30
0.0
 11
472.6782012235416
 21
325.39839146242
 31
0.0
  0
LINE
  5
36EC
330
1101
100
AcDbEntity
  8
STEMPEL
100
AcDbLine
 10
493.2347163310358
 20
323.9436219968305
 30
0.0
 11
472.9347163310358
 21
323.9436219968305
 31
0.0
  0
LINE
  5
36ED
330
1101
100
AcDbEntity
  8
STEMPEL
100
AcDbLine
 10
474.4244622931915
 20
326.0339785130304
 30
0.0
 11
472.6782012235416
 21
325.39839146242
 31
0.0
  0
ARC
  5
36EE
330
1101
100
AcDbEntity
  8
STEMPEL
100
AcDbCircle
 10
472.9347163310358
 20
324.6936219968305
 30
0.0
 40
0.7500000000000013
100
AcDbArc
 50
109.9999999999995
 51
269.9999991462263
  0
LINE
  5
36EF
330
1101
100
AcDbEntity
  8
STEMPEL
100
AcDbLine
 10
493.4912314385301
 20
325.39839146242
 30
0.0
 11
491.7449703688802
 21
326.0339785130304
 31
0.0
  0
ARC
  5
36F0
330
1101
100
AcDbEntity
  8
HILF
100
AcDbCircle
 10
483.0847163310358
 20
304.0451609491693
 30
0.0
 40
22.41111549782308
100
AcDbArc
 50
78.85962783890775
 51
101.1403721610922
  0
POINT
  5
36F1
330
1101
100
AcDbEntity
  8
0
100
AcDbPoint
 10
483.0847163310358
 20
323.9436219968305
 30
0.0
210
0.0000000000000001
220
1.0
230
0.0
  0
ARC
  5
36F2
330
1101
100
AcDbEntity
  8
HILF
100
AcDbCircle
 10
489.5799068594191
 20
320.6951358473009
 30
0.0
 40
5.761140599691502
100
AcDbArc
 50
67.92594526326356
 51
112.0740547367364
  0
ARC
  5
36F3
330
1101
100
AcDbEntity
  8
STEMPEL
100
AcDbCircle
 10
493.2347163310358
 20
324.6936219968305
 30
0.0
 40
0.750000000000001
100
AcDbArc
 50
269.9999991462263
 51
70.00000000000047
  0
ARC
  5
36F4
330
1101
100
AcDbEntity
  8
STEMPEL
100
AcDbCircle
 10
476.5895258026525
 20
326.2493162890461
 30
0.0
 40
7.694305707784447
100
AcDbArc
 50
73.65710669401345
 51
106.3428933059865
  0
LINE
  5
36F5
330
1101
100
AcDbEntity
  8
STEMPEL
100
AcDbLine
 10
475.5847163310358
 20
333.9436219968305
 30
0.0
 11
490.5847163310358
 21
333.9436219968305
 31
0.0
  0
LINE
  5
36F6
330
1101
100
AcDbEntity
  8
STEMPEL
100
AcDbLine
 10
475.5847163310358
 20
333.9436219968305
 30
0.0
 11
474.4244622931915
 21
333.6327328643752
 31
0.0
  0
ARC
  5
36F7
330
1101
100
AcDbEntity
  8
STEMPEL
100
AcDbCircle
 10
483.0847163310358
 20
303.6327328643757
 30
0.0
 40
30.31088913245485
100
AcDbArc
 50
81.7867892982638
 51
98.21321070173619
  0
ARC
  5
36F8
330
1101
100
AcDbEntity
  8
STEMPEL
100
AcDbCircle
 10
489.5799068594191
 20
326.2493162890461
 30
0.0
 40
7.694305707784447
100
AcDbArc
 50
73.65710669401345
 51
106.3428933059865
  0
LINE
  5
36F9
330
1101
100
AcDbEntity
  8
STEMPEL
100
AcDbLine
 10
491.7449703688802
 20
333.6327328643752
 30
0.0
 11
490.5847163310358
 21
333.9436219968305
 31
0.0
  0
ARC
  5
36FA
330
1101
100
AcDbEntity
  8
STEMPEL
100
AcDbCircle
 10
400.8123029715145
 20
303.632732864376
 30
0.0
 40
30.31088913245485
100
AcDbArc
 50
81.7867892982638
 51
98.21321070173619
  0
LINE
  5
36FB
330
1101
100
AcDbEntity
  8
STEMPEL
100
AcDbLine
 10
393.3123029715146
 20
333.9436219968308
 30
0.0
 11
408.3123029715144
 21
333.9436219968308
 31
0.0
  0
ARC
  5
36FC
330
1101
100
AcDbEntity
  8
HILF
100
AcDbCircle
 10
400.8123029715145
 20
304.0451609491696
 30
0.0
 40
22.41111549782308
100
AcDbArc
 50
78.85962783890775
 51
101.1403721610922
  0
LINE
  5
36FD
330
1101
100
AcDbEntity
  8
STEMPEL
100
AcDbLine
 10
410.9623029715145
 20
323.9436219968308
 30
0.0
 11
390.6623029715145
 21
323.9436219968308
 31
0.0
  0
LINE
  5
36FE
330
1101
100
AcDbEntity
  8
STEMPEL
100
AcDbLine
 10
411.2188180790087
 20
325.3983914624202
 30
0.0
 11
390.4057878640202
 21
325.3983914624202
 31
0.0
  0
LINE
  5
36FF
330
1101
100
AcDbEntity
  8
STEMPEL
100
AcDbLine
 10
392.1520489336701
 20
326.0339785130307
 30
0.0
 11
392.1520489336701
 21
333.6327328643755
 31
0.0
  0
LINE
  5
3700
330
1101
100
AcDbEntity
  8
STEMPEL
100
AcDbLine
 10
396.4821759525923
 20
326.0339785130307
 30
0.0
 11
396.4821759525923
 21
333.6327328643755
 31
0.0
  0
ARC
  5
3701
330
1101
100
AcDbEntity
  8
HILF
100
AcDbCircle
 10
394.3171124431312
 20
320.6951358473012
 30
0.0
 40
5.761140599691502
100
AcDbArc
 50
67.92594526326356
 51
112.0740547367364
  0
ARC
  5
3702
330
1101
100
AcDbEntity
  8
STEMPEL
100
AcDbCircle
 10
390.6623029715145
 20
324.6936219968308
 30
0.0
 40
0.7500000000000013
100
AcDbArc
 50
109.9999999999995
 51
269.9999991462263
  0
LINE
  5
3703
330
1101
100
AcDbEntity
  8
STEMPEL
100
AcDbLine
 10
392.1520489336701
 20
326.0339785130307
 30
0.0
 11
390.4057878640202
 21
325.3983914624202
 31
0.0
  0
POINT
  5
3704
330
1101
100
AcDbEntity
  8
0
100
AcDbPoint
 10
400.8123029715145
 20
323.9436219968308
 30
0.0
210
0.0000000000000001
220
1.0
230
0.0
  0
ARC
  5
3705
330
1101
100
AcDbEntity
  8
STEMPEL
100
AcDbCircle
 10
394.3171124431312
 20
326.2493162890464
 30
0.0
 40
7.694305707784447
100
AcDbArc
 50
73.65710669401345
 51
106.3428933059865
  0
LINE
  5
3706
330
1101
100
AcDbEntity
  8
STEMPEL
100
AcDbLine
 10
393.3123029715146
 20
333.9436219968308
 30
0.0
 11
392.1520489336701
 21
333.6327328643755
 31
0.0
  0
LINE
  5
3707
330
1101
100
AcDbEntity
  8
STEMPEL
100
AcDbLine
 10
405.1424299904367
 20
326.0339785130307
 30
0.0
 11
405.1424299904367
 21
333.6327328643755
 31
0.0
  0
LINE
  5
3708
330
1101
100
AcDbEntity
  8
STEMPEL
100
AcDbLine
 10
409.4725570093588
 20
326.0339785130307
 30
0.0
 11
409.4725570093588
 21
333.6327328643755
 31
0.0
  0
LINE
  5
3709
330
1101
100
AcDbEntity
  8
STEMPEL
100
AcDbLine
 10
411.2188180790087
 20
325.3983914624202
 30
0.0
 11
409.4725570093588
 21
326.0339785130307
 31
0.0
  0
ARC
  5
370A
330
1101
100
AcDbEntity
  8
HILF
100
AcDbCircle
 10
407.3074934998977
 20
320.6951358473012
 30
0.0
 40
5.761140599691502
100
AcDbArc
 50
67.92594526326356
 51
112.0740547367364
  0
ARC
  5
370B
330
1101
100
AcDbEntity
  8
STEMPEL
100
AcDbCircle
 10
410.9623029715145
 20
324.6936219968308
 30
0.0
 40
0.750000000000001
100
AcDbArc
 50
269.9999991462263
 51
70.00000000000047
  0
LINE
  5
370C
330
1101
100
AcDbEntity
  8
STEMPEL
100
AcDbLine
 10
409.4725570093588
 20
333.6327328643755
 30
0.0
 11
408.3123029715144
 21
333.9436219968308
 31
0.0
  0
ARC
  5
370D
330
1101
100
AcDbEntity
  8
STEMPEL
100
AcDbCircle
 10
407.3074934998977
 20
326.2493162890464
 30
0.0
 40
7.694305707784447
100
AcDbArc
 50
73.65710669401345
 51
106.3428933059865
  0
LINE
  5
370E
330
1101
100
AcDbEntity
  8
TEXT
 62
     2
100
AcDbLine
 10
286.5650096243619
 20
409.1906502700602
 30
0.0
 11
273.0972400921039
 21
331.3093156592234
 31
0.0
  0
LINE
  5
370F
330
1101
100
AcDbEntity
  8
TEXT
 62
     2
100
AcDbLine
 10
286.5650096243619
 20
409.1906502700602
 30
0.0
 11
392.9996007419307
 21
409.1906502700602
 31
0.0
  0
TEXT
  5
3710
330
1101
100
AcDbEntity
  8
TEXT
 62
     1
100
AcDbText
 10
288.4846854210794
 20
398.0186541154793
 30
0.0
 40
7.0
  1
EDV-Art.Nr. 19929.100X
 41
0.8
  7
GREEKS
100
AcDbText
  0
TEXT
  5
3711
330
1101
100
AcDbEntity
  8
TEXT
 62
     1
100
AcDbText
 10
289.2141932434127
 20
412.4611778709094
 30
0.0
 40
7.0
  1
Losflansch
 41
0.8
  7
GREEKS
100
AcDbText
  0
HATCH
  5
3712
330
1101
100
AcDbEntity
  8
SCHRAFF
100
AcDbHatch
 10
0.0
 20
0.0
 30
0.0
210
0.0
220
0.0
230
1.0
  2
_USER
 70
     0
 71
     1
 91
        4
 92
        7
 72
     0
 73
     1
 93
       12
 10
281.8123029715145
 20
317.9436219968315
 10
282.8123029715144
 20
317.9436219968315
 10
282.8123029715144
 20
320.9436219968315
 10
282.3123029715145
 20
320.9436219968315
 10
282.3123029715144
 20
323.9436219968315
 10
282.8123029715145
 20
323.9436219968314
 10
282.8123029715147
 20
331.9436219968314
 10
282.3123029715146
 20
331.9436219968314
 10
282.3123029715146
 20
334.9436219968314
 10
282.8123029715147
 20
334.9436219968314
 10
282.8123029715146
 20
337.9436219968314
 10
281.8123029715146
 20
337.9436219968314
 97
       12
330
36A8
330
36AF
330
369F
330
36B5
330
36B4
330
36B3
330
36B7
330
36B8
330
36B6
330
36AC
330
36C1
330
36C2
 92
        7
 72
     0
 73
     1
 93
        4
 10
281.8123029715146
 20
337.9436219968314
 10
280.8123029715147
 20
337.9436219968314
 10
280.8123029715146
 20
317.9436219968315
 10
281.8123029715145
 20
317.9436219968315
 97
        4
330
36A8
330
36B2
330
369F
330
36AF
 92
        7
 72
     0
 73
     1
 93
        4
 10
275.8123029715146
 20
317.9436219968315
 10
276.8123029715146
 20
317.9436219968315
 10
276.8123029715147
 20
337.9436219968314
 10
275.8123029715146
 20
337.9436219968314
 97
        4
330
36A8
330
36B0
330
369F
330
36B1
 92
        7
 72
     0
 73
     1
 93
       12
 10
275.8123029715146
 20
337.9436219968314
 10
274.8123029715146
 20
337.9436219968314
 10
274.8123029715147
 20
334.9436219968314
 10
275.3123029715145
 20
334.9436219968313
 10
275.3123029715145
 20
331.9436219968314
 10
274.8123029715147
 20
331.9436219968314
 10
274.8123029715145
 20
323.9436219968316
 10
275.3123029715144
 20
323.9436219968315
 10
275.3123029715145
 20
320.9436219968315
 10
274.8123029715145
 20
320.9436219968315
 10
274.8123029715145
 20
317.9436219968315
 10
275.8123029715146
 20
317.9436219968315
 97
       12
330
36A8
330
36C3
330
36C4
330
36AD
330
36BF
330
36BE
330
36C0
330
36B9
330
36BB
330
36BC
330
369F
330
36B0
 75
     0
 76
     0
 52
135.0
 41
1.0
 77
     0
 78
     1
 53
135.0
 43
195.9348928108994
 44
-27.84855040768372
 45
-0.7071067811865476
 46
-0.7071067811865475
 79
     0
 47
0.0647594283572497
 98
        4
 10
282.1221057907658
 20
335.8816045116379
 10
281.4094765280996
 20
336.0758833582894
 10
276.1619289747553
 20
336.4644396579731
 10
275.5788681354948
 20
336.8529959576569
  0
ENDSEC
  0
SECTION
  2
OBJECTS
  0
DICTIONARY
  5
10EF
330
0
100
AcDbDictionary
281
     1
  3
ACAD_CIP_PREVIOUS_PRODUCT_INFO
350
3194
  3
ACAD_COLOR
350
1802
  3
ACAD_DETAILVIEWSTYLE
350
318F
  3
ACAD_GROUP
350
10F0
  3
ACAD_LAYOUT
350
10FC
  3
ACAD_MATERIAL
350
1801
  3
ACAD_MLEADERSTYLE
350
318A
  3
ACAD_MLINESTYLE
350
10F9
  3
ACAD_PLOTSETTINGS
350
10FB
  3
ACAD_PLOTSTYLENAME
350
10F1
  3
ACAD_SCALELIST
350
3178
  3
ACAD_SECTIONVIEWSTYLE
350
318C
  3
ACAD_TABLESTYLE
350
3176
  3
ACAD_VISUALSTYLE
350
315D
  3
ACDB_RECOMPOSE_DATA
350
3897
  3
AcDbVariableDictionary
350
112B
  0
DICTIONARY
  5
3392
330
10EB
100
AcDbDictionary
280
     1
281
     1
  0
DICTIONARY
  5
2C6D
330
10E5
100
AcDbDictionary
280
     1
281
     1
  3
ACAD_LAYERSTATES
360
2C6E
  0
DICTIONARY
  5
32CD
330
10F3
100
AcDbDictionary
280
     1
281
     1
  3
ADSK_XREC_LAYER_RECONCILED
360
32CE
  0
DICTIONARY
  5
32CF
330
111D
100
AcDbDictionary
280
     1
281
     1
  3
ADSK_XREC_LAYER_RECONCILED
360
32D0
  0
DICTIONARY
  5
32D1
330
111E
100
AcDbDictionary
280
     1
281
     1
  3
ADSK_XREC_LAYER_RECONCILED
360
32D2
  0
DICTIONARY
  5
32D3
330
111F
100
AcDbDictionary
280
     1
281
     1
  3
ADSK_XREC_LAYER_RECONCILED
360
32D4
  0
DICTIONARY
  5
32D5
330
1120
100
AcDbDictionary
280
     1
281
     1
  3
ADSK_XREC_LAYER_RECONCILED
360
32D6
  0
DICTIONARY
  5
32D7
330
1121
100
AcDbDictionary
280
     1
281
     1
  3
ADSK_XREC_LAYER_RECONCILED
360
32D8
  0
DICTIONARY
  5
32D9
330
1122
100
AcDbDictionary
280
     1
281
     1
  3
ADSK_XREC_LAYER_RECONCILED
360
32DA
  0
DICTIONARY
  5
32DB
330
1123
100
AcDbDictionary
280
     1
281
     1
  3
ADSK_XREC_LAYER_RECONCILED
360
32DC
  0
DICTIONARY
  5
1561
330
1101
100
AcDbDictionary
280
     1
281
     1
  3
ACAD_LAYOUTSELFREF
360
17A3
  0
DICTIONARY
  5
1563
330
10FD
100
AcDbDictionary
280
     1
281
     1
  3
ACAD_LAYOUTSELFREF
360
17A2
  0
XRECORD
  5
3194
102
{ACAD_REACTORS
330
10EF
102
}
330
10EF
100
AcDbXrecord
280
     1
300
ACD
300
2013
300
ACD_F_S
  0
DICTIONARY
  5
1802
102
{ACAD_REACTORS
330
10EF
102
}
330
10EF
100
AcDbDictionary
281
     1
  0
DICTIONARY
  5
318F
102
{ACAD_REACTORS
330
10EF
102
}
330
10EF
100
AcDbDictionary
281
     1
  3
Imperial24
350
3190
  0
DICTIONARY
  5
10F0
102
{ACAD_REACTORS
330
10EF
102
}
330
10EF
100
AcDbDictionary
281
     1
  0
DICTIONARY
  5
10FC
102
{ACAD_REACTORS
330
10EF
102
}
330
10EF
100
AcDbDictionary
281
     1
  3
Layout1
350
1100
  3
Model
350
1104
  0
DICTIONARY
  5
1801
102
{ACAD_REACTORS
330
10EF
102
}
330
10EF
100
AcDbDictionary
281
     1
  3
ByBlock
350
314D
  3
ByLayer
350
3145
  3
Global
350
3155
  0
DICTIONARY
  5
318A
102
{ACAD_REACTORS
330
10EF
102
}
330
10EF
100
AcDbDictionary
281
     1
  3
Standard
350
318B
  0
DICTIONARY
  5
10F9
102
{ACAD_REACTORS
330
10EF
102
}
330
10EF
100
AcDbDictionary
281
     1
  3
Standard
350
10FA
  0
DICTIONARY
  5
10FB
102
{ACAD_REACTORS
330
10EF
102
}
330
10EF
100
AcDbDictionary
281
     1
  0
ACDBDICTIONARYWDFLT
  5
10F1
102
{ACAD_REACTORS
330
10EF
102
}
330
10EF
100
AcDbDictionary
281
     1
  3
Normal
350
10F2
100
AcDbDictionaryWithDefault
340
10F2
  0
DICTIONARY
  5
3178
102
{ACAD_REACTORS
330
10EF
102
}
330
10EF
100
AcDbDictionary
281
     1
  3
A0
350
3179
  3
A1
350
317A
  3
A2
350
317B
  3
A3
350
317C
  3
A4
350
317D
  3
A5
350
317E
  3
A6
350
317F
  3
A7
350
3180
  3
A8
350
3181
  3
A9
350
3182
  3
B0
350
3183
  3
B1
350
3184
  3
B2
350
3185
  3
B3
350
3186
  3
B4
350
3187
  3
B5
350
3188
  3
B6
350
3189
  0
DICTIONARY
  5
318C
102
{ACAD_REACTORS
330
10EF
102
}
330
10EF
100
AcDbDictionary
281
     1
  3
Imperial24
350
318E
  0
DICTIONARY
  5
3176
102
{ACAD_REACTORS
330
10EF
102
}
330
10EF
100
AcDbDictionary
281
     1
  3
Standard
350
3177
  0
DICTIONARY
  5
315D
102
{ACAD_REACTORS
330
10EF
102
}
330
10EF
100
AcDbDictionary
281
     1
  3
2dWireframe
350
3163
  3
Basic
350
3162
  3
Brighten
350
3169
  3
ColorChange
350
316D
  3
Conceptual
350
3166
  3
Dim
350
3168
  3
EdgeColorOff
350
3175
  3
Facepattern
350
316C
  3
Flat
350
315E
  3
FlatWithEdges
350
315F
  3
Gouraud
350
3160
  3
GouraudWithEdges
350
3161
  3
Hidden
350
3165
  3
JitterOff
350
3173
  3
Linepattern
350
316B
  3
OverhangOff
350
3174
  3
Realistic
350
3167
  3
Shaded
350
3172
  3
Shaded with edges
350
3171
  3
Shades of Gray
350
316E
  3
Sketchy
350
316F
  3
Thicken
350
316A
  3
Wireframe
350
3164
  3
X-Ray
350
3170
  0
XRECORD
  5
3897
102
{ACAD_REACTORS
330
10EF
102
}
330
10EF
100
AcDbXrecord
280
     1
 90
        1
330
3177
  0
DICTIONARY
  5
112B
102
{ACAD_REACTORS
330
10EF
102
}
330
10EF
100
AcDbDictionary
281
     1
  3
CANNOSCALE
350
33D1
  3
CMLEADERSTYLE
350
33CE
  3
CTABLESTYLE
350
33CD
  3
CVIEWDETAILSTYLE
350
33CF
  3
CVIEWSECTIONSTYLE
350
33D0
  3
DIMASSOC
350
180D
  3
PROJECTNAME
350
180E
  3
SORTENTS
350
112C
  0
DICTIONARY
  5
2C6E
102
{ACAD_REACTORS
330
2C6D
102
}
330
2C6D
100
AcDbDictionary
281
     1
  0
XRECORD
  5
32CE
102
{ACAD_REACTORS
330
32CD
102
}
330
32CD
100
AcDbXrecord
280
     1
290
     1
  0
XRECORD
  5
32D0
102
{ACAD_REACTORS
330
32CF
102
}
330
32CF
100
AcDbXrecord
280
     1
290
     1
  0
XRECORD
  5
32D2
102
{ACAD_REACTORS
330
32D1
102
}
330
32D1
100
AcDbXrecord
280
     1
290
     1
  0
XRECORD
  5
32D4
102
{ACAD_REACTORS
330
32D3
102
}
330
32D3
100
AcDbXrecord
280
     1
290
     1
  0
XRECORD
  5
32D6
102
{ACAD_REACTORS
330
32D5
102
}
330
32D5
100
AcDbXrecord
280
     1
290
     1
  0
XRECORD
  5
32D8
102
{ACAD_REACTORS
330
32D7
102
}
330
32D7
100
AcDbXrecord
280
     1
290
     1
  0
XRECORD
  5
32DA
102
{ACAD_REACTORS
330
32D9
102
}
330
32D9
100
AcDbXrecord
280
     1
290
     1
  0
XRECORD
  5
32DC
102
{ACAD_REACTORS
330
32DB
102
}
330
32DB
100
AcDbXrecord
280
     1
290
     1
  0
XRECORD
  5
17A3
102
{ACAD_REACTORS
330
1561
102
}
330
1561
100
AcDbXrecord
280
     1
340
1101
  0
XRECORD
  5
17A2
102
{ACAD_REACTORS
330
1563
102
}
330
1563
100
AcDbXrecord
280
     1
340
10FD
  0
ACDBDETAILVIEWSTYLE
  5
3190
102
{ACAD_REACTORS
330
318F
102
}
330
318F
100
AcDbModelDocViewStyle
 70
     0
  3
Imperial24
290
     0
100
AcDbDetailViewStyle
 70
     0
 71
     0
 90
        3
 71
     1
340
10F4
 62
   256
 40
0.24
340
0
 62
   256
 40
0.24
300

 40
0.36
280
     3
 71
     2
340
10F8
 90
       25
 62
   256
 71
     3
340
10F4
 62
   256
 40
0.24
 90
        1
 40
0.75
 90
        1
300
%<\AcVar ViewType \f "%tc1">% %<\AcVar ViewDetailId>%\PVARIA %<\AcVar ViewScale \f "%sn">%
 71
     4
340
10F8
 90
       25
 62
   256
340
10F8
 90
       25
 62
   256
280
     0
  0
LAYOUT
  5
1100
102
{ACAD_REACTORS
330
10FC
102
}
330
10FC
100
AcDbPlotSettings
  1

  2
\\NT_WORK01\HP LaserJet 5000 PCL 6
  4

  6

 40
0.0
 41
0.0
 42
0.0
 43
0.0
 44
0.0
 45
0.0
 46
0.0
 47
0.0
 48
0.0
 49
0.0
140
0.0
141
0.0
142
1.0
143
1.0
 70
   688
 72
     0
 73
     0
 74
     5
  7
monochrome.ctb
 75
    16
147
1.0
 76
     0
 77
     2
 78
   300
148
0.0
149
0.0
100
AcDbLayout
  1
Layout1
 70
     0
 71
     1
 10
0.0
 20
0.0
 11
12.0
 21
9.0
 12
0.0
 22
0.0
 32
0.0
 14
1.000000000000000E+20
 24
1.000000000000000E+20
 34
1.000000000000000E+20
 15
-1.000000000000000E+20
 25
-1.000000000000000E+20
 35
-1.000000000000000E+20
146
0.0
 13
0.0
 23
0.0
 33
0.0
 16
1.0
 26
0.0
 36
0.0
 17
0.0
 27
1.0
 37
0.0
 76
     0
330
10FD
  0
LAYOUT
  5
1104
102
{ACAD_XDICTIONARY
360
3394
102
}
102
{ACAD_REACTORS
330
10FC
102
}
330
10FC
100
AcDbPlotSettings
  1

  2
RICOH Aficio 2027 PCL 6
  4
A4
  6

 40
5.027083
 41
5.027084999999999
 42
5.027084
 43
5.027069
 44
209.973328
 45
296.925995
 46
0.0
 47
2.08
 48
0.0
 49
0.0
140
0.0
141
0.0
142
1.0
143
2.971200944565789
 70
 11956
 72
     1
 73
     1
 74
     2
  7
monochrome1.ctb
 75
     0
147
0.3365642441077441
 76
     1
 77
     2
 78
   300
148
0.0
149
0.0
100
AcDbLayout
  1
Model
 70
     1
 71
     0
 10
0.0
 20
0.0
 11
12.0
 21
9.0
 12
0.0
 22
0.0
 32
0.0
 14
0.0
 24
0.0
 34
0.0
 15
0.0
 25
0.0
 35
0.0
146
0.0
 13
0.0
 23
0.0
 33
0.0
 16
1.0
 26
0.0
 36
0.0
 17
0.0
 27
1.0
 37
0.0
 76
     0
330
1101
331
3143
  0
MATERIAL
  5
314D
102
{ACAD_XDICTIONARY
360
314E
102
}
102
{ACAD_REACTORS
330
1801
102
}
330
1801
100
AcDbMaterial
  1
ByBlock
 72
     0
 43
0.0208333333333333
 43
0.0
 43
0.0
 43
0.0
 43
0.0
 43
0.0208333333333333
 43
0.0
 43
0.0
 43
0.0
 43
0.0
 43
1.0
 43
0.0
 43
0.0
 43
0.0
 43
0.0
 43
1.0
 77
     0
 47
0.0208333333333333
 47
0.0
 47
0.0
 47
0.0
 47
0.0
 47
0.0208333333333333
 47
0.0
 47
0.0
 47
0.0
 47
0.0
 47
1.0
 47
0.0
 47
0.0
 47
0.0
 47
0.0
 47
1.0
171
     0
 49
0.0208333333333333
 49
0.0
 49
0.0
 49
0.0
 49
0.0
 49
0.0208333333333333
 49
0.0
 49
0.0
 49
0.0
 49
0.0
 49
1.0
 49
0.0
 49
0.0
 49
0.0
 49
0.0
 49
1.0
175
     0
142
0.0208333333333333
142
0.0
142
0.0
142
0.0
142
0.0
142
0.0208333333333333
142
0.0
142
0.0
142
0.0
142
0.0
142
1.0
142
0.0
142
0.0
142
0.0
142
0.0
142
1.0
179
     0
144
0.0208333333333333
144
0.0
144
0.0
144
0.0
144
0.0
144
0.0208333333333333
144
0.0
144
0.0
144
0.0
144
0.0
144
1.0
144
0.0
144
0.0
144
0.0
144
0.0
144
1.0
147
0.0208333333333333
147
0.0
147
0.0
147
0.0
147
0.0
147
0.0208333333333333
147
0.0
147
0.0
147
0.0
147
0.0
147
1.0
147
0.0
147
0.0
147
0.0
147
0.0
147
1.0
  0
MATERIAL
  5
3145
102
{ACAD_XDICTIONARY
360
3146
102
}
102
{ACAD_REACTORS
330
1801
102
}
330
1801
100
AcDbMaterial
  1
ByLayer
 72
     0
 43
0.0208333333333333
 43
0.0
 43
0.0
 43
0.0
 43
0.0
 43
0.0208333333333333
 43
0.0
 43
0.0
 43
0.0
 43
0.0
 43
1.0
 43
0.0
 43
0.0
 43
0.0
 43
0.0
 43
1.0
 77
     0
 47
0.0208333333333333
 47
0.0
 47
0.0
 47
0.0
 47
0.0
 47
0.0208333333333333
 47
0.0
 47
0.0
 47
0.0
 47
0.0
 47
1.0
 47
0.0
 47
0.0
 47
0.0
 47
0.0
 47
1.0
171
     0
 49
0.0208333333333333
 49
0.0
 49
0.0
 49
0.0
 49
0.0
 49
0.0208333333333333
 49
0.0
 49
0.0
 49
0.0
 49
0.0
 49
1.0
 49
0.0
 49
0.0
 49
0.0
 49
0.0
 49
1.0
175
     0
142
0.0208333333333333
142
0.0
142
0.0
142
0.0
142
0.0
142
0.0208333333333333
142
0.0
142
0.0
142
0.0
142
0.0
142
1.0
142
0.0
142
0.0
142
0.0
142
0.0
142
1.0
179
     0
144
0.0208333333333333
144
0.0
144
0.0
144
0.0
144
0.0
144
0.0208333333333333
144
0.0
144
0.0
144
0.0
144
0.0
144
1.0
144
0.0
144
0.0
144
0.0
144
0.0
144
1.0
147
0.0208333333333333
147
0.0
147
0.0
147
0.0
147
0.0
147
0.0208333333333333
147
0.0
147
0.0
147
0.0
147
0.0
147
1.0
147
0.0
147
0.0
147
0.0
147
0.0
147
1.0
  0
MATERIAL
  5
3155
102
{ACAD_XDICTIONARY
360
3156
102
}
102
{ACAD_REACTORS
330
1801
102
}
330
1801
100
AcDbMaterial
  1
Global
 72
     0
 43
0.0208333333333333
 43
0.0
 43
0.0
 43
0.0
 43
0.0
 43
0.0208333333333333
 43
0.0
 43
0.0
 43
0.0
 43
0.0
 43
1.0
 43
0.0
 43
0.0
 43
0.0
 43
0.0
 43
1.0
 77
     0
 47
0.0208333333333333
 47
0.0
 47
0.0
 47
0.0
 47
0.0
 47
0.0208333333333333
 47
0.0
 47
0.0
 47
0.0
 47
0.0
 47
1.0
 47
0.0
 47
0.0
 47
0.0
 47
0.0
 47
1.0
171
     0
 49
0.0208333333333333
 49
0.0
 49
0.0
 49
0.0
 49
0.0
 49
0.0208333333333333
 49
0.0
 49
0.0
 49
0.0
 49
0.0
 49
1.0
 49
0.0
 49
0.0
 49
0.0
 49
0.0
 49
1.0
175
     0
142
0.0208333333333333
142
0.0
142
0.0
142
0.0
142
0.0
142
0.0208333333333333
142
0.0
142
0.0
142
0.0
142
0.0
142
1.0
142
0.0
142
0.0
142
0.0
142
0.0
142
1.0
179
     0
144
0.0208333333333333
144
0.0
144
0.0
144
0.0
144
0.0
144
0.0208333333333333
144
0.0
144
0.0
144
0.0
144
0.0
144
1.0
144
0.0
144
0.0
144
0.0
144
0.0
144
1.0
147
0.0208333333333333
147
0.0
147
0.0
147
0.0
147
0.0
147
0.0208333333333333
147
0.0
147
0.0
147
0.0
147
0.0
147
1.0
147
0.0
147
0.0
147
0.0
147
0.0
147
1.0
  0
MLEADERSTYLE
  5
318B
102
{ACAD_XDICTIONARY
360
38CC
102
}
102
{ACAD_REACTORS
330
318A
102
}
330
318A
100
AcDbMLeaderStyle
170
     2
171
     1
172
     0
 90
        2
 40
0.0
 41
0.0
173
     1
 91
-1056964608
340
10F6
 92
       -2
290
     1
 42
0.09
291
     1
 43
0.36
  3
Standard
 44
0.18
300

342
10F4
174
     1
178
     6
175
     1
176
     0
 93
-1056964608
 45
0.18
292
     0
297
     0
 46
0.18
 94
-1056964608
 47
1.0
 49
1.0
140
1.0
293
     1
141
0.0
294
     1
177
     0
142
1.0
295
     0
296
     0
143
0.125
1001
ACAD_MLEADERVER
1070
     2
  0
MLINESTYLE
  5
10FA
102
{ACAD_REACTORS
330
10F9
102
}
330
10F9
100
AcDbMlineStyle
  2
STANDARD
 70
     0
  3

 62
   256
 51
90.0
 52
90.0
 71
     2
 49
0.5
 62
   256
  6
BYLAYER
 49
-0.5
 62
   256
  6
BYLAYER
  0
ACDBPLACEHOLDER
  5
10F2
102
{ACAD_REACTORS
330
10F1
102
}
330
10F1
  0
SCALE
  5
3179
102
{ACAD_REACTORS
330
3178
102
}
330
3178
100
AcDbScale
 70
     0
300
1:1
140
1.0
141
1.0
290
     1
  0
SCALE
  5
317A
102
{ACAD_REACTORS
330
3178
102
}
330
3178
100
AcDbScale
 70
     0
300
1/128" = 1'-0"
140
0.0078125
141
12.0
290
     0
  0
SCALE
  5
317B
102
{ACAD_REACTORS
330
3178
102
}
330
3178
100
AcDbScale
 70
     0
300
1/64" = 1'-0"
140
0.015625
141
12.0
290
     0
  0
SCALE
  5
317C
102
{ACAD_REACTORS
330
3178
102
}
330
3178
100
AcDbScale
 70
     0
300
1/32" = 1'-0"
140
0.03125
141
12.0
290
     0
  0
SCALE
  5
317D
102
{ACAD_REACTORS
330
3178
102
}
330
3178
100
AcDbScale
 70
     0
300
1/16" = 1'-0"
140
0.0625
141
12.0
290
     0
  0
SCALE
  5
317E
102
{ACAD_REACTORS
330
3178
102
}
330
3178
100
AcDbScale
 70
     0
300
3/32" = 1'-0"
140
0.09375
141
12.0
290
     0
  0
SCALE
  5
317F
102
{ACAD_REACTORS
330
3178
102
}
330
3178
100
AcDbScale
 70
     0
300
1/8" = 1'-0"
140
0.125
141
12.0
290
     0
  0
SCALE
  5
3180
102
{ACAD_REACTORS
330
3178
102
}
330
3178
100
AcDbScale
 70
     0
300
3/16" = 1'-0"
140
0.1875
141
12.0
290
     0
  0
SCALE
  5
3181
102
{ACAD_REACTORS
330
3178
102
}
330
3178
100
AcDbScale
 70
     0
300
1/4" = 1'-0"
140
0.25
141
12.0
290
     0
  0
SCALE
  5
3182
102
{ACAD_REACTORS
330
3178
102
}
330
3178
100
AcDbScale
 70
     0
300
3/8" = 1'-0"
140
0.375
141
12.0
290
     0
  0
SCALE
  5
3183
102
{ACAD_REACTORS
330
3178
102
}
330
3178
100
AcDbScale
 70
     0
300
1/2" = 1'-0"
140
0.5
141
12.0
290
     0
  0
SCALE
  5
3184
102
{ACAD_REACTORS
330
3178
102
}
330
3178
100
AcDbScale
 70
     0
300
3/4" = 1'-0"
140
0.75
141
12.0
290
     0
  0
SCALE
  5
3185
102
{ACAD_REACTORS
330
3178
102
}
330
3178
100
AcDbScale
 70
     0
300
1" = 1'-0"
140
1.0
141
12.0
290
     0
  0
SCALE
  5
3186
102
{ACAD_REACTORS
330
3178
102
}
330
3178
100
AcDbScale
 70
     0
300
1-1/2" = 1'-0"
140
1.5
141
12.0
290
     0
  0
SCALE
  5
3187
102
{ACAD_REACTORS
330
3178
102
}
330
3178
100
AcDbScale
 70
     0
300
3" = 1'-0"
140
3.0
141
12.0
290
     0
  0
SCALE
  5
3188
102
{ACAD_REACTORS
330
3178
102
}
330
3178
100
AcDbScale
 70
     0
300
6" = 1'-0"
140
6.0
141
12.0
290
     0
  0
SCALE
  5
3189
102
{ACAD_REACTORS
330
3178
102
}
330
3178
100
AcDbScale
 70
     0
300
1'-0" = 1'-0"
140
12.0
141
12.0
290
     0
  0
ACDBSECTIONVIEWSTYLE
  5
318E
102
{ACAD_REACTORS
330
318C
102
}
330
318C
100
AcDbModelDocViewStyle
 70
     0
  3
Imperial24
290
     0
100
AcDbSectionViewStyle
 70
     0
 71
     0
 90
       78
 71
     1
340
10F4
 62
   256
 40
0.24
340
0
340
0
 62
   256
 40
0.24
300
I, O, Q, S, X, Z
 40
0.48
 90
        3
 40
0.18
 90
        1
 71
     2
340
318D
 90
       25
 62
   256
340
10F8
 90
       50
 62
   256
 40
0.24
 40
0.0
 40
0.24
 71
     3
340
10F4
 62
   256
 40
0.24
 90
        1
 40
0.75
 90
        1
300
%<\AcVar ViewType \f "%tc1">% %<\AcVar ViewSectionStartId>%-%<\AcVar ViewSectionEndId>%\PVARIA %<\AcVar ViewScale \f "%sn">%
 71
     4
 62
   256
 62
   257
300
ANSI31
 40
1.0
 90
        0
290
     0
290
     0
 90
        6
 40
0.0
 40
1.570796326794896
 40
0.2617993877991494
 40
1.308996938995747
 40
-0.2617993877991494
 40
1.832595714594046
  0
TABLESTYLE
  5
3177
102
{ACAD_XDICTIONARY
360
3387
102
}
102
{ACAD_REACTORS
330
3176
102
}
330
3176
100
AcDbTableStyle
  3
Standard
 70
     0
 71
     0
 40
0.06
 41
0.06
280
     0
281
     0
  7
STANDARD
140
0.18
170
     2
 62
     0
 63
     7
283
     0
274
    -2
284
     1
 64
     0
275
    -2
285
     1
 65
     0
276
    -2
286
     1
 66
     0
277
    -2
287
     1
 67
     0
278
    -2
288
     1
 68
     0
279
    -2
289
     1
 69
     0
  7
STANDARD
140
0.25
170
     5
 62
     0
 63
     7
283
     0
274
    -2
284
     1
 64
     0
275
    -2
285
     1
 65
     0
276
    -2
286
     1
 66
     0
277
    -2
287
     1
 67
     0
278
    -2
288
     1
 68
     0
279
    -2
289
     1
 69
     0
  7
STANDARD
140
0.18
170
     5
 62
     0
 63
     7
283
     0
274
    -2
284
     1
 64
     0
275
    -2
285
     1
 65
     0
276
    -2
286
     1
 66
     0
277
    -2
287
     1
 67
     0
278
    -2
288
     1
 68
     0
279
    -2
289
     1
 69
     0
  0
VISUALSTYLE
  5
3163
102
{ACAD_XDICTIONARY
360
38A5
102
}
102
{ACAD_REACTORS
330
315D
102
}
330
315D
100
AcDbVisualStyle
  2
2dWireframe
 70
     4
 71
     0
 72
     2
 73
     0
 90
        0
 40
-0.6
 41
-30.0
 62
     5
 63
     7
421
 16777215
 74
     1
 91
        4
 64
     7
 65
   257
 75
     1
175
     1
 42
1.0
 92
        0
 66
   257
 43
1.0
 76
     1
 77
     6
 78
     2
 67
     7
 79
     5
170
     0
171
     0
290
     0
174
     0
 93
        1
 44
0.0
173
     0
291
     0
 45
0.0
1001
ACAD
1000
AcDbSavedByObjectVersion
1070
     0
  0
VISUALSTYLE
  5
3162
102
{ACAD_XDICTIONARY
360
38A3
102
}
102
{ACAD_REACTORS
330
315D
102
}
330
315D
100
AcDbVisualStyle
  2
Basic
 70
     7
 71
     1
 72
     0
 73
     1
 90
        0
 40
-0.6
 41
-30.0
 62
     5
 63
     7
421
 16777215
 74
     0
 91
        4
 64
     7
 65
   257
 75
     1
175
     1
 42
1.0
 92
        8
 66
     7
 43
1.0
 76
     1
 77
     6
 78
     2
 67
     7
 79
     5
170
     0
171
     0
290
     0
174
     0
 93
        1
 44
0.0
173
     0
291
     1
 45
0.0
1001
ACAD
1000
AcDbSavedByObjectVersion
1070
     0
  0
VISUALSTYLE
  5
3169
102
{ACAD_XDICTIONARY
360
38B1
102
}
102
{ACAD_REACTORS
330
315D
102
}
330
315D
100
AcDbVisualStyle
  2
Brighten
 70
    12
 71
     2
 72
     2
 73
     0
 90
        0
 40
-0.6
 41
-30.0
 62
     5
 63
     7
421
 16777215
 74
     1
 91
        4
 64
     7
 65
   257
 75
     1
175
     1
 42
1.0
 92
        8
 66
     7
 43
1.0
 76
     1
 77
     6
 78
     2
 67
     7
 79
     5
170
     0
171
     0
290
     0
174
     0
 93
        1
 44
50.0
173
     0
291
     1
 45
0.0
1001
ACAD
1000
AcDbSavedByObjectVersion
1070
     0
  0
VISUALSTYLE
  5
316D
102
{ACAD_XDICTIONARY
360
38B9
102
}
102
{ACAD_REACTORS
330
315D
102
}
330
315D
100
AcDbVisualStyle
  2
ColorChange
 70
    16
 71
     2
 72
     2
 73
     3
 90
        0
 40
-0.6
 41
-30.0
 62
     5
 63
     8
421
  8421504
 74
     1
 91
        4
 64
     7
 65
   257
 75
     1
175
     1
 42
1.0
 92
        8
 66
     8
424
  8421504
 43
1.0
 76
     1
 77
     6
 78
     2
 67
     7
 79
     5
170
     0
171
     0
290
     0
174
     0
 93
        1
 44
0.0
173
     0
291
     1
 45
0.0
1001
ACAD
1000
AcDbSavedByObjectVersion
1070
     0
  0
VISUALSTYLE
  5
3166
102
{ACAD_XDICTIONARY
360
38AB
102
}
102
{ACAD_REACTORS
330
315D
102
}
330
315D
100
AcDbVisualStyle
  2
Conceptual
 70
     9
 71
     3
 72
     2
 73
     0
 90
        0
 40
-0.6
 41
-30.0
 62
     5
 63
     7
421
 16777215
 74
     2
 91
        2
 64
     7
 65
   257
 75
     1
175
     1
 42
179.0
 92
        8
 66
     7
 43
1.0
 76
     1
 77
     6
 78
     2
 67
     7
 79
     3
170
     0
171
     0
290
     0
174
     0
 93
        1
 44
0.0
173
     0
291
     0
 45
0.0
1001
ACAD
1000
AcDbSavedByObjectVersion
1070
     0
  0
VISUALSTYLE
  5
3168
102
{ACAD_XDICTIONARY
360
38AF
102
}
102
{ACAD_REACTORS
330
315D
102
}
330
315D
100
AcDbVisualStyle
  2
Dim
 70
    11
 71
     2
 72
     2
 73
     0
 90
        0
 40
-0.6
 41
-30.0
 62
     5
 63
     7
421
 16777215
 74
     1
 91
        4
 64
     7
 65
   257
 75
     1
175
     1
 42
1.0
 92
        8
 66
     7
 43
1.0
 76
     1
 77
     6
 78
     2
 67
     7
 79
     5
170
     0
171
     0
290
     0
174
     0
 93
        1
 44
-50.0
173
     0
291
     1
 45
0.0
1001
ACAD
1000
AcDbSavedByObjectVersion
1070
     0
  0
VISUALSTYLE
  5
3175
102
{ACAD_XDICTIONARY
360
38C9
102
}
102
{ACAD_REACTORS
330
315D
102
}
330
315D
100
AcDbVisualStyle
  2
EdgeColorOff
 70
    22
 71
     2
 72
     2
 73
     0
 90
        0
 40
-0.6
 41
-30.0
 62
     5
 63
     7
421
 16777215
 74
     1
 91
        4
 64
     7
 65
   257
 75
     1
175
     1
 42
1.0
 92
        8
 66
     7
 43
1.0
 76
     1
 77
     6
 78
     2
 67
     7
 79
     5
170
     0
171
     0
290
     0
174
     0
 93
        1
 44
0.0
173
     0
291
     1
 45
0.0
1001
ACAD
1000
AcDbSavedByObjectVersion
1070
     0
  0
VISUALSTYLE
  5
316C
102
{ACAD_XDICTIONARY
360
38B7
102
}
102
{ACAD_REACTORS
330
315D
102
}
330
315D
100
AcDbVisualStyle
  2
Facepattern
 70
    15
 71
     2
 72
     2
 73
     0
 90
        0
 40
-0.6
 41
-30.0
 62
     5
 63
     7
421
 16777215
 74
     1
 91
        4
 64
     7
 65
   257
 75
     1
175
     1
 42
1.0
 92
        8
 66
     7
 43
1.0
 76
     1
 77
     6
 78
     2
 67
     7
 79
     5
170
     0
171
     0
290
     0
174
     0
 93
        1
 44
0.0
173
     0
291
     1
 45
0.0
1001
ACAD
1000
AcDbSavedByObjectVersion
1070
     0
  0
VISUALSTYLE
  5
315E
102
{ACAD_XDICTIONARY
360
389B
102
}
102
{ACAD_REACTORS
330
315D
102
}
330
315D
100
AcDbVisualStyle
  2
Flat
 70
     0
 71
     2
 72
     1
 73
     1
 90
        2
 40
-0.6
 41
30.0
 62
     5
 63
     7
421
 16777215
 74
     0
 91
        0
 64
     7
 65
   257
 75
     1
175
     1
 42
1.0
 92
        8
 66
     7
 43
1.0
 76
     1
 77
     6
 78
     2
 67
     7
 79
     5
170
     0
171
     0
290
     0
174
     0
 93
       13
 44
0.0
173
     0
291
     1
 45
0.0
1001
ACAD
1000
AcDbSavedByObjectVersion
1070
     0
  0
VISUALSTYLE
  5
315F
102
{ACAD_XDICTIONARY
360
389D
102
}
102
{ACAD_REACTORS
330
315D
102
}
330
315D
100
AcDbVisualStyle
  2
FlatWithEdges
 70
     1
 71
     2
 72
     1
 73
     1
 90
        2
 40
-0.6
 41
30.0
 62
     5
 63
     7
421
 16777215
 74
     1
 91
        0
 64
     7
 65
   257
 75
     1
175
     1
 42
1.0
 92
        0
 66
   257
 43
1.0
 76
     1
 77
     6
 78
     2
 67
     7
 79
     5
170
     0
171
     0
290
     0
174
     0
 93
       13
 44
0.0
173
     0
291
     1
 45
0.0
1001
ACAD
1000
AcDbSavedByObjectVersion
1070
     0
  0
VISUALSTYLE
  5
3160
102
{ACAD_XDICTIONARY
360
389F
102
}
102
{ACAD_REACTORS
330
315D
102
}
330
315D
100
AcDbVisualStyle
  2
Gouraud
 70
     2
 71
     2
 72
     2
 73
     1
 90
        2
 40
-0.6
 41
30.0
 62
     5
 63
     7
421
 16777215
 74
     0
 91
        0
 64
     7
 65
   257
 75
     1
175
     1
 42
1.0
 92
        0
 66
     7
 43
1.0
 76
     1
 77
     6
 78
     2
 67
     7
 79
     5
170
     0
171
     0
290
     0
174
     0
 93
       13
 44
0.0
173
     0
291
     1
 45
0.0
1001
ACAD
1000
AcDbSavedByObjectVersion
1070
     0
  0
VISUALSTYLE
  5
3161
102
{ACAD_XDICTIONARY
360
38A1
102
}
102
{ACAD_REACTORS
330
315D
102
}
330
315D
100
AcDbVisualStyle
  2
GouraudWithEdges
 70
     3
 71
     2
 72
     2
 73
     1
 90
        2
 40
-0.6
 41
30.0
 62
     5
 63
     7
421
 16777215
 74
     1
 91
        0
 64
     7
 65
   257
 75
     1
175
     1
 42
1.0
 92
        0
 66
   257
 43
1.0
 76
     1
 77
     6
 78
     2
 67
     7
 79
     5
170
     0
171
     0
290
     0
174
     0
 93
       13
 44
0.0
173
     0
291
     1
 45
0.0
1001
ACAD
1000
AcDbSavedByObjectVersion
1070
     0
  0
VISUALSTYLE
  5
3165
102
{ACAD_XDICTIONARY
360
38A9
102
}
102
{ACAD_REACTORS
330
315D
102
}
330
315D
100
AcDbVisualStyle
  2
Hidden
 70
     6
 71
     1
 72
     2
 73
     2
 90
        0
 40
-0.6
 41
-30.0
 62
     5
 63
     7
421
 16777215
 74
     2
 91
        2
 64
     7
 65
   257
 75
     2
175
     1
 42
40.0
 92
        0
 66
   257
 43
1.0
 76
     1
 77
     6
 78
     2
 67
     7
 79
     3
170
     0
171
     0
290
     0
174
     0
 93
        1
 44
0.0
173
     0
291
     0
 45
0.0
1001
ACAD
1000
AcDbSavedByObjectVersion
1070
     0
  0
VISUALSTYLE
  5
3173
102
{ACAD_XDICTIONARY
360
38C5
102
}
102
{ACAD_REACTORS
330
315D
102
}
330
315D
100
AcDbVisualStyle
  2
JitterOff
 70
    20
 71
     2
 72
     2
 73
     0
 90
        0
 40
-0.6
 41
-30.0
 62
     5
 63
     7
421
 16777215
 74
     1
 91
        4
 64
     7
 65
   257
 75
     1
175
     1
 42
1.0
 92
       10
 66
     7
 43
1.0
 76
     1
 77
     6
 78
     2
 67
     7
 79
     5
170
     0
171
     0
290
     0
174
     0
 93
        1
 44
0.0
173
     0
291
     1
 45
0.0
1001
ACAD
1000
AcDbSavedByObjectVersion
1070
     0
  0
VISUALSTYLE
  5
316B
102
{ACAD_XDICTIONARY
360
38B5
102
}
102
{ACAD_REACTORS
330
315D
102
}
330
315D
100
AcDbVisualStyle
  2
Linepattern
 70
    14
 71
     2
 72
     2
 73
     0
 90
        0
 40
-0.6
 41
-30.0
 62
     5
 63
     7
421
 16777215
 74
     1
 91
        4
 64
     7
 65
   257
 75
     7
175
     7
 42
1.0
 92
        8
 66
     7
 43
1.0
 76
     1
 77
     6
 78
     2
 67
     7
 79
     5
170
     0
171
     0
290
     0
174
     0
 93
        1
 44
0.0
173
     0
291
     1
 45
0.0
1001
ACAD
1000
AcDbSavedByObjectVersion
1070
     0
  0
VISUALSTYLE
  5
3174
102
{ACAD_XDICTIONARY
360
38C7
102
}
102
{ACAD_REACTORS
330
315D
102
}
330
315D
100
AcDbVisualStyle
  2
OverhangOff
 70
    21
 71
     2
 72
     2
 73
     0
 90
        0
 40
-0.6
 41
-30.0
 62
     5
 63
     7
421
 16777215
 74
     1
 91
        4
 64
     7
 65
   257
 75
     1
175
     1
 42
1.0
 92
        9
 66
     7
 43
1.0
 76
     1
 77
     6
 78
     2
 67
     7
 79
     5
170
     0
171
     0
290
     0
174
     0
 93
        1
 44
0.0
173
     0
291
     1
 45
0.0
1001
ACAD
1000
AcDbSavedByObjectVersion
1070
     0
  0
VISUALSTYLE
  5
3167
102
{ACAD_XDICTIONARY
360
38AD
102
}
102
{ACAD_REACTORS
330
315D
102
}
330
315D
100
AcDbVisualStyle
  2
Realistic
 70
     8
 71
     2
 72
     2
 73
     0
 90
        2
 40
-0.6
 41
30.0
 62
     5
 63
     7
421
 16777215
 74
     0
 91
        0
 64
     7
 65
   257
 75
     1
175
     1
 42
1.0
 92
        8
 66
   257
 43
1.0
 76
     1
 77
     6
 78
     2
 67
     7
 79
     3
170
     0
171
     0
290
     0
174
     0
 93
       13
 44
0.0
173
     0
291
     0
 45
0.0
1001
ACAD
1000
AcDbSavedByObjectVersion
1070
     0
  0
VISUALSTYLE
  5
3172
102
{ACAD_XDICTIONARY
360
38C3
102
}
102
{ACAD_REACTORS
330
315D
102
}
330
315D
100
AcDbVisualStyle
  2
Shaded
 70
    27
 71
     2
 72
     2
 73
     1
 90
        2
 40
-0.6
 41
30.0
 62
     5
 63
     7
421
 16777215
 74
     0
 91
        4
 64
     7
 65
   257
 75
     1
175
     1
 42
1.0
 92
        8
 66
   257
 43
1.0
 76
     1
 77
     6
 78
     2
 67
     8
425
  7895160
 79
     3
170
     0
171
     0
290
     0
174
     0
 93
        5
 44
0.0
173
     0
291
     0
 45
0.0
1001
ACAD
1000
AcDbSavedByObjectVersion
1070
     0
  0
VISUALSTYLE
  5
3171
102
{ACAD_XDICTIONARY
360
38C1
102
}
102
{ACAD_REACTORS
330
315D
102
}
330
315D
100
AcDbVisualStyle
  2
Shaded with edges
 70
    26
 71
     2
 72
     2
 73
     1
 90
        2
 40
-0.6
 41
30.0
 62
     5
 63
     7
421
 16777215
 74
     1
 91
       10
 64
     7
 65
   257
 75
     2
175
     1
 42
1.0
 92
        8
 66
   257
 43
1.0
 76
     1
 77
     6
 78
     2
 67
     7
 79
     3
170
     0
171
     0
290
     0
174
     0
 93
        5
 44
0.0
173
     0
291
     0
 45
0.0
1001
ACAD
1000
AcDbSavedByObjectVersion
1070
     0
  0
VISUALSTYLE
  5
316E
102
{ACAD_XDICTIONARY
360
38BB
102
}
102
{ACAD_REACTORS
330
315D
102
}
330
315D
100
AcDbVisualStyle
  2
Shades of Gray
 70
    23
 71
     2
 72
     2
 73
     3
 90
        0
 40
-0.6
 41
-30.0
 62
     5
 63
     7
421
 16777215
 74
     2
 91
        2
 64
     7
 65
     7
 75
     1
175
     1
 42
40.0
 92
        8
 66
     7
 43
1.0
 76
     1
 77
     6
 78
     2
 67
     7
 79
     3
170
     0
171
     0
290
     0
174
     0
 93
        1
 44
0.0
173
     0
291
     0
 45
0.0
1001
ACAD
1000
AcDbSavedByObjectVersion
1070
     0
  0
VISUALSTYLE
  5
316F
102
{ACAD_XDICTIONARY
360
38BD
102
}
102
{ACAD_REACTORS
330
315D
102
}
330
315D
100
AcDbVisualStyle
  2
Sketchy
 70
    24
 71
     1
 72
     2
 73
     2
 90
        0
 40
-0.6
 41
-30.0
 62
     5
 63
     7
421
 16777215
 74
     2
 91
        2
 64
     7
 65
     7
 75
     1
175
     1
 42
40.0
 92
       11
 66
     7
 43
1.0
 76
     1
 77
     6
 78
     2
 67
     7
 79
     6
170
     0
171
     0
290
     0
174
     0
 93
        1
 44
0.0
173
     0
291
     0
 45
0.0
1001
ACAD
1000
AcDbSavedByObjectVersion
1070
     0
  0
VISUALSTYLE
  5
316A
102
{ACAD_XDICTIONARY
360
38B3
102
}
102
{ACAD_REACTORS
330
315D
102
}
330
315D
100
AcDbVisualStyle
  2
Thicken
 70
    13
 71
     2
 72
     2
 73
     0
 90
        0
 40
-0.6
 41
-30.0
 62
     5
 63
     7
421
 16777215
 74
     1
 91
        4
 64
     7
 65
   257
 75
     1
175
     1
 42
1.0
 92
       12
 66
     7
 43
1.0
 76
     1
 77
     6
 78
     2
 67
     7
 79
     5
170
     0
171
     0
290
     0
174
     0
 93
        1
 44
0.0
173
     0
291
     1
 45
0.0
1001
ACAD
1000
AcDbSavedByObjectVersion
1070
     0
  0
VISUALSTYLE
  5
3164
102
{ACAD_XDICTIONARY
360
38A7
102
}
102
{ACAD_REACTORS
330
315D
102
}
330
315D
100
AcDbVisualStyle
  2
Wireframe
 70
     5
 71
     0
 72
     2
 73
     0
 90
        0
 40
-0.6
 41
-30.0
 62
     5
 63
     7
421
 16777215
 74
     1
 91
        4
 64
     7
 65
   257
 75
     1
175
     1
 42
1.0
 92
        0
 66
   257
 43
1.0
 76
     1
 77
     6
 78
     2
 67
     7
 79
     3
170
     0
171
     0
290
     0
174
     0
 93
        1
 44
0.0
173
     0
291
     0
 45
0.0
1001
ACAD
1000
AcDbSavedByObjectVersion
1070
     0
  0
VISUALSTYLE
  5
3170
102
{ACAD_XDICTIONARY
360
38BF
102
}
102
{ACAD_REACTORS
330
315D
102
}
330
315D
100
AcDbVisualStyle
  2
X-Ray
 70
    25
 71
     2
 72
     2
 73
     1
 90
        1
 40
0.5
 41
-30.0
 62
     5
 63
     7
421
 16777215
 74
     1
 91
        0
 64
     7
 65
   257
 75
     1
175
     1
 42
1.0
 92
        8
 66
     7
 43
1.0
 76
     1
 77
     6
 78
     2
 67
     7
 79
     3
170
     0
171
     0
290
     0
174
     0
 93
       13
 44
0.0
173
     0
291
     0
 45
0.0
1001
ACAD
1000
AcDbSavedByObjectVersion
1070
     0
  0
DICTIONARYVAR
  5
33D1
102
{ACAD_REACTORS
330
112B
102
}
330
112B
100
DictionaryVariables
280
     0
  1
1:1
  0
DICTIONARYVAR
  5
33CE
102
{ACAD_REACTORS
330
112B
102
}
330
112B
100
DictionaryVariables
280
     0
  1
STANDARD
  0
DICTIONARYVAR
  5
33CD
102
{ACAD_REACTORS
330
112B
102
}
330
112B
100
DictionaryVariables
280
     0
  1
STANDARD
  0
DICTIONARYVAR
  5
33CF
102
{ACAD_REACTORS
330
112B
102
}
330
112B
100
DictionaryVariables
280
     0
  1
Imperial24
  0
DICTIONARYVAR
  5
33D0
102
{ACAD_REACTORS
330
112B
102
}
330
112B
100
DictionaryVariables
280
     0
  1
Imperial24
  0
DICTIONARYVAR
  5
180D
102
{ACAD_REACTORS
330
112B
102
}
330
112B
100
DictionaryVariables
280
     0
  1
1
  0
DICTIONARYVAR
  5
180E
102
{ACAD_REACTORS
330
112B
102
}
330
112B
100
DictionaryVariables
280
     0
  1

  0
DICTIONARYVAR
  5
112C
102
{ACAD_REACTORS
330
112B
102
}
330
112B
100
DictionaryVariables
280
     0
  1
96
  0
DICTIONARY
  5
3394
330
1104
100
AcDbDictionary
280
     1
281
     1
  3
ADSK_XREC_LAYOUTTHUMBNAIL
360
3395
  0
DICTIONARY
  5
314E
330
314D
100
AcDbDictionary
280
     1
281
     1
  3
ACAD_XREC_ROUNDTRIP
360
3899
  3
BUMPTILE
360
3150
  3
DIFFUSETILE
360
314F
  3
OPACITYTILE
360
3153
  3
REFLECTIONTILE
360
3152
  3
REFRACTIONTILE
360
3154
  3
SPECULARTILE
360
3151
  0
DICTIONARY
  5
3146
330
3145
100
AcDbDictionary
280
     1
281
     1
  3
ACAD_XREC_ROUNDTRIP
360
3898
  3
BUMPTILE
360
3148
  3
DIFFUSETILE
360
3147
  3
OPACITYTILE
360
314B
  3
REFLECTIONTILE
360
314A
  3
REFRACTIONTILE
360
314C
  3
SPECULARTILE
360
3149
  0
DICTIONARY
  5
3156
330
3155
100
AcDbDictionary
280
     1
281
     1
  3
ACAD_XREC_ROUNDTRIP
360
389A
  3
BUMPTILE
360
3158
  3
DIFFUSETILE
360
3157
  3
OPACITYTILE
360
315B
  3
REFLECTIONTILE
360
315A
  3
REFRACTIONTILE
360
315C
  3
SPECULARTILE
360
3159
  0
DICTIONARY
  5
38CC
330
318B
100
AcDbDictionary
280
     1
281
     1
  3
ACAD_XREC_ROUNDTRIP
360
38CD
  0
DICTIONARY
  5
3387
330
3177
100
AcDbDictionary
280
     1
281
     1
  3
ACAD_ROUNDTRIP_2008_TABLESTYLE_CELLSTYLEMAP
360
3896
  3
ACAD_XREC_ROUNDTRIP
360
38CB
  0
DICTIONARY
  5
38A5
330
3163
100
AcDbDictionary
280
     1
281
     1
  3
ACAD_XREC_ROUNDTRIP
360
38A6
  0
DICTIONARY
  5
38A3
330
3162
100
AcDbDictionary
280
     1
281
     1
  3
ACAD_XREC_ROUNDTRIP
360
38A4
  0
DICTIONARY
  5
38B1
330
3169
100
AcDbDictionary
280
     1
281
     1
  3
ACAD_XREC_ROUNDTRIP
360
38B2
  0
DICTIONARY
  5
38B9
330
316D
100
AcDbDictionary
280
     1
281
     1
  3
ACAD_XREC_ROUNDTRIP
360
38BA
  0
DICTIONARY
  5
38AB
330
3166
100
AcDbDictionary
280
     1
281
     1
  3
ACAD_XREC_ROUNDTRIP
360
38AC
  0
DICTIONARY
  5
38AF
330
3168
100
AcDbDictionary
280
     1
281
     1
  3
ACAD_XREC_ROUNDTRIP
360
38B0
  0
DICTIONARY
  5
38C9
330
3175
100
AcDbDictionary
280
     1
281
     1
  3
ACAD_XREC_ROUNDTRIP
360
38CA
  0
DICTIONARY
  5
38B7
330
316C
100
AcDbDictionary
280
     1
281
     1
  3
ACAD_XREC_ROUNDTRIP
360
38B8
  0
DICTIONARY
  5
389B
330
315E
100
AcDbDictionary
280
     1
281
     1
  3
ACAD_XREC_ROUNDTRIP
360
389C
  0
DICTIONARY
  5
389D
330
315F
100
AcDbDictionary
280
     1
281
     1
  3
ACAD_XREC_ROUNDTRIP
360
389E
  0
DICTIONARY
  5
389F
330
3160
100
AcDbDictionary
280
     1
281
     1
  3
ACAD_XREC_ROUNDTRIP
360
38A0
  0
DICTIONARY
  5
38A1
330
3161
100
AcDbDictionary
280
     1
281
     1
  3
ACAD_XREC_ROUNDTRIP
360
38A2
  0
DICTIONARY
  5
38A9
330
3165
100
AcDbDictionary
280
     1
281
     1
  3
ACAD_XREC_ROUNDTRIP
360
38AA
  0
DICTIONARY
  5
38C5
330
3173
100
AcDbDictionary
280
     1
281
     1
  3
ACAD_XREC_ROUNDTRIP
360
38C6
  0
DICTIONARY
  5
38B5
330
316B
100
AcDbDictionary
280
     1
281
     1
  3
ACAD_XREC_ROUNDTRIP
360
38B6
  0
DICTIONARY
  5
38C7
330
3174
100
AcDbDictionary
280
     1
281
     1
  3
ACAD_XREC_ROUNDTRIP
360
38C8
  0
DICTIONARY
  5
38AD
330
3167
100
AcDbDictionary
280
     1
281
     1
  3
ACAD_XREC_ROUNDTRIP
360
38AE
  0
DICTIONARY
  5
38C3
330
3172
100
AcDbDictionary
280
     1
281
     1
  3
ACAD_XREC_ROUNDTRIP
360
38C4
  0
DICTIONARY
  5
38C1
330
3171
100
AcDbDictionary
280
     1
281
     1
  3
ACAD_XREC_ROUNDTRIP
360
38C2
  0
DICTIONARY
  5
38BB
330
316E
100
AcDbDictionary
280
     1
281
     1
  3
ACAD_XREC_ROUNDTRIP
360
38BC
  0
DICTIONARY
  5
38BD
330
316F
100
AcDbDictionary
280
     1
281
     1
  3
ACAD_XREC_ROUNDTRIP
360
38BE
  0
DICTIONARY
  5
38B3
330
316A
100
AcDbDictionary
280
     1
281
     1
  3
ACAD_XREC_ROUNDTRIP
360
38B4
  0
DICTIONARY
  5
38A7
330
3164
100
AcDbDictionary
280
     1
281
     1
  3
ACAD_XREC_ROUNDTRIP
360
38A8
  0
DICTIONARY
  5
38BF
330
3170
100
AcDbDictionary
280
     1
281
     1
  3
ACAD_XREC_ROUNDTRIP
360
38C0
  0
XRECORD
  5
3395
102
{ACAD_REACTORS
330
3394
102
}
330
3394
100
AcDbXrecord
280
     1
310
28000000000100008A0000000100080000000000008A0000010000000100000000010000000000000000006600000052C8C8C85600000050000000730000003200000031000000500000006F0000004F00000032330000466600006699000052CC000056FF00005000330073333300326633003199330050CC33006FFF3300
310
3200660018336600006666000099660000CC660000FF66000000990000339900006699000099990000CC990000FF99000000CC000033CC000066CC000099CC0000CCCC0000FFCC000000FF000033FF000066FF000099FF0000CCFF0000FFFF00010000331433003354660033539900336FCC003374FF003330003333303333
310
33726633337099333370CC333330FF3333010066331233663354666633539966336FCC663374FF66333000993330339933726699337099993331CC993300FF99330000CC330033CC330066CC330099CC3300CCCC3300FFCC330000FF330033FF330066FF330099FF3300CCFF3300FFFF330000006600330066006600660099
310
006600CC006600FF00660000336600333366006633660099336666CC336652FF33665600666650336666736666663299666631CC666650FF66666F0099664F339966336699664699996666CC996652FF99665600CC665033CC667366CC663299CC6631CCCC6650FFCC666F00FF663333FF661866FF660099FF6600CCFF6600
310
FFFF660000009900330099006600990099009900CC009900FF00990000339900333399006633990099339900CC339900FF33990000669900336699006666990099669900CC669900FF66990000999901339999146699995499999953CC99996FFF99997400CC993033CC993066CC997299CC9970CCCC9970FFCC993400FF99
310
0133FF991266FF995499FF9953CCFF996FFFFF99740000CC303300CC306600CC729900CC70CC00CC35FF00CC000033CC003333CC006633CC009933CC00CC33CC00FF33CC000066CC003366CC006666CC009966CC00CC66CC00FF66CC000099CC003399CC006699CC009999CC00CC99CC00FF99CC0000CCCC0033CCCC0066CC
310
CC0099CCCC00CCCCCC66FFCCCC5200FFCC5633FFCC5066FFCC7399FFCC32CCFFCC31FFFFCC500000FF6F3300FF4F6600FF339900FF46CC00FF66FF00FF520033FF563333FF506633FF739933FF32CC33FF31FF33FF500066FF6F3366FF336666FF5A9966FF00CC66FF14FF66FF540099FF533399FF6F6699FF749999FF30CC
310
99FF30FF99FF7200CCFF7033CCFF7066CCFF3799CCFF01CCCCFF12FFCCFF5400FFFF5333FFFF6F66FFFF7499FFFF30CCFFFF30FFFFFF72000000700D0D0D381A1A1A00282828003535356643434352505050565D5D5D506B6B6B73787878328686863193939350A1A1A16FAEAEAE4FBBBBBB33C9C9C946D6D6D666E4E4E452
310
F1F1F156FFFFFF50000000730000003200000031000000500000006F000000330000008C00000000000000F00000000000000000000000000000000000000000000000000000000000000000000000000000000000000000000000000000000000000000000000000000000000000000000000000000000000000000000000
310
00000000000000000000000000000000000000000000000000000000000000000000000000000000000000000000000000000000000000000000000000000000000000000000000000000000000000000000000000000000000000000000000000000000000000000000000000000000000000000000000000000000000000
310
000000000000000000000000000000000000000000000000000000000000000000000000000000000000000000000000000000000000000000000000000000000000000000000000000000000000000000DCDCDCDCDCDCDCDCDCDCDCDCDCDCDCDCDCDCDCDCDCDCDCDCDCDCDCDCDCDCDCDCDCDCDCDCDCDCDCDCDCDCDCDCDCDC
310
DCDCDCDCDCDCDCDCDCDCDCDCDCDCDCDCDCDCDCDCDCDCDCDCDCDCDCDCDCDCDCDCDCDCDCDCDCDCDCDCDCDCDCDCDCDCDCDCDCDCDCDCDCDCDCDCDCDCDCDCF5DCDCDCDCDCDCDCDCDCDCDCDCDCDCDCDCDCDCDCDCDCDCDCDCDCDCDCDCDCDCDCDCDCDCDCDCDCDCDCDCDCDCDCDCDCDCDCDCDCDCDCDCDCDCDCDCDCDCDCDCDCDCDCDCDCDC
310
DCDCDCDCDCDCDCDCDCDCDCDCDCDCDCDCDCDCDCDCDC0000000000000000000000000000000000000000000000000000000000000000000000000000000000000000000000000000000000000000000000000000DC00000000000000000000000000000000000000000000000000000000000000000000000000000000000000
310
0000000000000000000000000000000000000000000000000000000000000000000000000000000000000000000000000000000000000000000000000000F500000000000000000000000000000000000000000000000000000000000000000000000000000000000000000000000000000000000000000000000000000000
310
00000000000000000000000000000000000000000000DC0000000000000000000000000000000000000000000000000000000000000000000000000000000000000000000000000000000000000000000000000000DC0000000000000000282828282828282828282828282828282828282828282828282828282828282828
310
28282828282828282828282828282828282828282828282828282828282828282828282828282828282828282828282828282828282828282828282828282828F52828282828282828282828282828282828282828282828282828282828282828282828282828282828282828282828282828282828282828282828282828
310
28282828282828282828282828282828282828282828F5F5DC0000000000000000000000000000000000000000000000000000000000000000000000000000000000000000000000000000000000000000000000000000DC000000000000000028000000000000000000000000000000000000000000000000000000000000
310
000000000000000000000000000000000000000000000000000000000000000000000000000000000000000000000000000000000000000000000000000000000000000028F5F5BE000000000000F500BE0000F500BE000000002800000000000000000000000000000000000028DCDCDCDCDCDCDCDCDCDCDCDCDCDCDCDCDC
310
DCDCDCDCDCDCDCDCDCDCDCDCDCDCDCDCDCDCDCDCDCDCDCDCF5F5DC0000000000000000000000000000000000000000000000000000000000000000000000000000000000000000000000000000000000000000000000000000DC00000000000000002800000000000000000000000000000000000000000000000000000000
310
0000000000000000000000000000000000000000000000000000000000000000000000000000000000000000000000000000000000000000000000000000000000000000000028F5F5BE00F5F5F5F5F5F500BE00F5F5F5BEF5F5F5F52800282828282828282828002828282828282828000000000000000000000000000000
310
000000000000000000000000000000000000000000000000000028F5DC0000000000000000000000000000000000000000000000000000000000000000000000000000000000000000000000000000000000000000000000000000DC0000000000000000280000000000000000000000000000000000000000000000000000
310
00000000000000000000000000000000000000000000000000000000000000000000000000000000000000000000000000000000000000000000000000000000000000000000000028F5F5BE00F5F5F500000000BE00F50000BEF5F50000280028280028000028282828280028000028282800000000000000000000000000
310
0000000000000000000000000000000000000000000000000000000028F5DC0000000000000000000000000000000000000000000000000000000000000000000000000000000000000000000000000000000000000000000000000000DC000000000000000028000000000000000000000000000000000000000000000000
310
0000000000000000000000000000000000000000000000000000000000000000000000000000000000000000000000000000000000000000000000000000000000000000000000000000282828BE2828282828282828BE28282828BE2828282828002828282800002828282828282800002828280000000000000000000000
310
000000000000000000000000000000000000000000000000000000000000F5F5DC0000000000000000000000000000000000000000000000000000000000000000000000000000000000000000000000000000000000000000000000000000DC00000000000000002800000000000000000000000000000000000000000000
310
00000000000000000000000000000000000000000000000000000000000000000000000000000000000000000000000000000000000000000000000000000000000000000000000000000000280000BE0000000000000000BE00000000BE000000002800282800282828282828282828282828280028F5F5F5F5F5F5F5F5F5
310
F500000000000000000000000000000000000000000000000000000000000000F5F5DC0000000000000000000000000000000000000000000000000000000000000000000000000000000000000000000000000000000000000000000000000000DC0000000000000000280000000000000000000000000000000000000000
310
000000000000000000000000000000000000000000000000000000000000000000000000000000000000000000000000000000000000000000000000000000000000000000000000000000000000280000BE0000000000000000BE00000000BE000000002800282800002828002828282800002828000028F5F5000000F500
310
F5000000000000000000000000000000000000000000000000000000000000000000F5F5DC0000000000000000000000000000000000000000000000000000000000000000000000000000000000000000000000000000000000000000000000000000DC000000000000000028000000000000000000000000000000000000
310
000000000000000000000000000000000000000000000000000000000000000000000000000000000000000000000000000000000000000000000000000000000000000000000000000000000000000028DCDCDCDCDCDCDCDCDCDCDCDCDCDCDCDCDCDCDCDCDCF5F5F5F5BE28F5F5F5F5BE2828F5F5F5F528282828F5F5F5F5
310
F5F5F5F5F52828282828282828282828282828282828282828282828282828282828282828F5DC0000000000000000000000000000000000000000000000000000000000000000000000000000000000000000000000000000000000000000000000000000DC00000000000000002800000000000000000000000000000000
310
00000000000000000000000000000000000000000000000000000000000000000000000000000000000000000000000000000000000000000000000000000000000000000000000000000000000000000000280000BE0000000000000000BE00000000BE00000000F5F5F5F5BE00F5F5F500BE0000F5F5F5F500002800F5F5
310
F5F5F5F5F5F5F50000000000000000000000000028000000000000000000000000000000000028F5DC0000000000000000000000000000000000000000000000000000000000000000000000000000000000000000000000000000000000000000000000000000DC0000000000000000280000000000000000000000000000
310
00000000000000000000000000000000000000000000000000000000000000000000000000000000000000000000000000000000000000000000000000000000000000000000000000000000000000000000000028DCDCDCDCDCDCDCDCDCDCDCDCDCDCDCDCDCDCDCDCDCDCDCF5DCDCDCDCDCDCDCDCDCDCDCDCDCDCDCDCDCDC
310
F5F5F5F5F5F5F5F5F5F5F5F5F5F5F5F5F5F5DCDCDC0028F5F5F5F5F5F5F5F5F5F5F500000000000028F5F50000000000000000000000000000000000000000000000000000000000000000000000000000000000000000000000000000000000000000000000000000DC000000000000000028000000000000000000000000
310
0000000000000000000000000000000000000000000000000000000000000000000000000000000000000000000000000000000000000000000000000000000000000000000000000000000000000000000000000000280000BE0000000000000000BE00000000BE00000000F5F5F5F5BE00F5F5F5F5BE000000F5F5000000
310
2800F5F5F5F5F5F5F5F500F5F5F5F5F5F5F5F5F50000000028F5F5F5F5F5F5F5F5F5F5F5000000000000F5F5DC0000000000000000000000000000000000000000000000000000000000000000000000000000000000000000000000000000000000000000000000000000DC00000000000000002800000000000000000000
310
0000000000000000000000000000000000000000000000000000000000000000000000000000000000000000000000000000000000000000000000000000000000000000000000000000000000000000000000000000000028DCDCDCDCDCDCDCDCDCDCDCDCDCDCDCDCDCDCDCDCDCF5F5DCDCDCDCF5F5F5DCDCDCDCDCF5F5DC
310
DCDCDCDCDCDCDCDCDCDCDCDCDCDCDCDCDCDCDCDCDCDCDCDCDC00BEBEBEBEF5F5BEF5BEBEF5BEBEBEBEBEBEBEF5F5DC0000000000000000000000000000000000000000000000000000000000000000000000000000000000000000000000000000000000000000000000000000DC0000000000000000280000000000000000
310
000000000000000000000000000000000000000000000000000000000000000000000000000000000000000000000000000000000000000000000000000000000000000000000000000000000000000000000000000000000000280000BE0000000000000000BE00000000BE00000000F5F5F500BE00F5F5F5F5BE000000F5
310
F5F500002800F5F5F5F5F5F5F5F5F50000000000000000000000000028000000000000000000000000000000000028F5DC0000000000000000000000000000000000000000000000000000000000000000000000000000000000000000000000000000000000000000000000000000DC000000000000000028000000000000
310
0000000000000000000000000000000000000000000000000000000000000000000000000000000000000000000000000000000000000000000000000000000000000000000000000000000000000000000000000000000000000000280000BE0000000000000000BE00000000BE00000000F5F5F500BE00F5F5F500BE0000
310
00F5F5F500002800F50000F5F500F5F5F500000000000000000000000000280000000000000000000000000000000000F5F5DC0000000000000000000000000000000000000000000000000000000000000000000000000000000000000000000000000000000000000000000000000000DC00000000000000002800000000
310
0000000000000000000000000000000000000000000000000000000000000000000000000000000000000000000000000000000000000000000000000000000000000000000000000000000000000000000000000000000000000000000028DCDCDCDCDCDCDCDCDCDCDCDCDCDCDCDCDCDCDCDCDCDCF5F5F5DCDCF5F5F5DCDC
310
DCDCF5F5F5F5DCDCDCDCF5F5F5F5F5F5F5F5F5F5F5F5F5F5F5F5F5F5F5F5F50028F5F5F5F5F5F5F5F5000000000000000000F5F5DC0000000000000000000000000000000000000000000000000000000000000000000000000000000000000000000000000000000000000000000000000000DC0000000000000000280000
310
000000000000000000000000000000000000000000000000000000000000000000000000000000000000000000000000000000000000000000000000000000000000000000000000000000000000000000000000000000000000000000000000280000BE0000000000000000BE00000000BE0000000028F5F5F5BE00F5F5F5
310
00BE0000F5F5F5F500002800F5F5F5F5F5F5F5F5F5F5F5F5F5F5F5F5F5F5F5F5F50028F5F5F5F5F5F5F5F500000000000000000028F5DC0000000000000000000000000000000000000000000000000000000000000000000000000000000000000000000000000000000000000000000000000000DC000000000000000028
310
000000000000000000000000000000000000000000000000000000000000000000000000000000000000000000000000000000000000000000000000000000000000000000000000000000000000000000000000000000000000000000000000000028DCDCDCDCDCDCDCDCDCDCDCDCDCDCDCDCDCDCDCDCDCDC282828BE2828
310
282828BE282828282828282828282828282828282828282828282828282828282828282828282828282828282828282828282828282828F5DC0000000000000000000000000000000000000000000000000000000000000000000000000000000000000000000000000000000000000000000000000000DC00000000000000
310
00280000000000000000000000000000000000000000000000000000000000000000000000000000000000000000000000000000000000000000000000000000000000000000000000000000000000000000000000000000000000000000000000000000280000BE0000000000000000BE00000000BE000000002800000000
310
0000000000BE000000000000000028DCDCDCDCDCDCDCDCDCDCDCDCDCDCDCDCDCDCDCDCDCDC0028DCDCDCDCDCDCDCDCDCDCDCDCDCDCDCDCDC28F5DC0000000000000000000000000000000000000000000000000000000000000000000000000000000000000000000000000000000000000000000000000000DC0000000000
310
00000028000000000000000000000000000000000000000000000000000000000000000000000000000000000000000000000000000000000000000000000000000000000000000000000000000000000000000000000000000000000000000000000000000028DCDCDCDCDCDCDCDCDCDCDCDCDCDCDCDCDCDCDCDCDCDC0000
310
00BEBEBE000000BEF5F5F5F5F5F5F5F5F500BEBEBEBEBEBEBEBEBEBEBEBEBEBEBEBEBEBEBEBEBE0028000000BEBEBEBEBEBEBEBEBEBEBE000000F5F5DC0000000000000000000000000000000000000000000000000000000000000000000000000000000000000000000000000000000000000000000000000000DC000000
310
0000000000280000000000000000000000000000000000000000000000000000000000000000000000000000000000000000000000000000000000000000000000000000000000000000000000000000000000000000000000000000000000000000000000000000280000BE0000000000000000BE00000000BE0000000028
310
0000BEBEBEBE000000BEF5F5F5F5F5F5F5F5F500BEBEBEBEBEBEBEBE00BEBEBEBEBEBEBEBEBEBEBEBE0028000000BEBEBEBEBEBEBEBEBEBEBE000000F5F5DC0000000000000000000000000000000000000000000000000000000000000000000000000000000000000000000000000000000000000000000000000000DC00
310
0000000000000028000000000000000000000000000000000000000000000000000000000000000000000000000000000000000000000000000000000000000000000000000000000000000000000000000000000000000000000000000000000000000000000000000028DCDCDCDCDCDCDCDCDCDCDCDCDCDCDCDCDCDCDCDC
310
DCDC000000000000000000BE0000000000000000280000000000000000000000000000000000000000000000280000000000000000000000000000000000F5F5DC0000000000000000000000000000000000000000000000000000000000000000000000000000000000000000000000000000000000000000000000000000
310
DC0000000000000000280000000000000000000000000000000000000000000000000000000000000000000000000000000000000000000000000000000000000000000000000000000000000000000000000000000000000000000000000000000000000000000000000000280000BE0000000000000000BE00000000BE00
310
0000002800F5F5F5F5F5F50000BEF5F5F500F5F5F5002800F5F5F5F5F5F5F5F5000000000000000000000000000028F5F5F5F5F5F5F5F5F5F5F500000000000028F5DC000000000000000000000000000000000000000000000000000000000000000000000000000000000000000000000000000000000000000000000000
310
0000DC0000000000000000280000000000000000000000000000000000000000000000000000000000000000000000000000000000000000000000000000000000000000000000000000000000000000000000000000000000000000000000000000000000000000000000000000280000BE0000000000000000BE00000000
310
BE000000002800F5F5F5F5F5F50000BEF5F5F500F5F5F5002800F5F5F5F5F5F5F5F5000000000000000000000000000028F5F5F5F5F5F5F5F5F5F5F500000000000028F5F500000000000000000000000000000000000000000000000000000000000000000000000000000000000000000000000000000000000000000000
310
00000000DC0000000000000000280000000000000000000000000000000000000000000000000000000000000000000000000000000000000000000000000000000000000000000000000000000000000000000000000000000000000000000000000000000000000000000000000000F5F5F5F5F5F5F5F5F5F5F5F5F5F5F5
310
F528F5F5F5F52828282828282828282828BE282828282828282828282828282828282828282828282828282828282828282828282828282828282828282828282828282828F5DC0000000000000000000000000000000000000000000000000000000000000000000000000000000000000000000000000000000000000000
310
000000000000DC0000000000000000280000000000000000000000000000000000000000000000000000000000000000000000000000000000000000000000000000000000000000000000000000000000000000000000000000000000000000000000000000000000000000000000000000F5F5F5F5F5F5F5F5F500F5F5F5
310
F5F5F500F5F5F5F50000000000000000000000000000000000000000000000000000000000000000000000000000000000000000000000000000000000000000000000000000F5F5DC000000000000000000000000000000000000000000000000000000000000000000000000000000000000000000000000000000000000
310
0000000000000000DC00000000000000002800000000000000000000000000000000000000000000000000000000000000000000000000000000000000000000000000000000000000000000000000000000000000000000000000000000000000000000000000000000000000000000000000000000000000000000000000
310
000000000000000000000000000000000000000000000000000000000000000000000000000000000000000000000000000000000000000000000000000000000000000000000000F5F5DC00000000000000000000000000000000000000000000000000000000000000000000000000000000000000000000000000000000
310
00000000000000000000DC0000000000000000280000000000000000000000000000000000000000000000000000000000000000000000000000000000000000000000000000000000000000000000000000000000000000000000000000000000000000000000000000000000000000000000000000000000000000000000
310
0000000000000000000000000000000000000000000000000000000000000000000000000000000000000000000000000000000000000000000000000000000000000000000000000000F5F5DC0000000000000000000000000000000000000000000000000000000000000000000000000000000000000000000000000000
310
000000000000000000000000DC000000000000000028000000000000000000000000000000000000000000000000000000000000000000000000000000000000000000000000000000000000000000000000000000000000000000000000000000000000000000000000000000000000000000000000000000000000000000
310
00000000000000000000000000000000000000000000000000000000000000000000000000000000000000000000000000000000000000000000000000000000000000000000000000000000F5F5DC000000000000000000000000000000000000000000000000000000000000000000000000000000000000000000000000
310
0000000000000000000000000000DC00000000000000002800000000000000000000000000000000000000000000000000000000000000000000000000000000000000000000000000000000000000000000000000000000000000000000000000000000000000000000000000000000000000000000000000000000000000
310
00000000000000000000000000000000000000000000000000000000000000000000000000000000000000000000000000000000000000000000000000000000000000000000000000000000000028F5DC00000000000000000000000000000000000000000000000000000000000000000000000000000000000000000000
310
00000000000000000000000000000000DC0000000000000000280000000000000000000000000000000000000000000000000000000000000000000000000000000000000000000000000000000000000000000000000000000000000000000000000000000000000000000000000000000000000000000000000000000000
310
0000000000000000000000000000000000000000000000000000000000000000000000000000000000000000000000000000000000000000000000000000000000000000000000000000000000000000F5F5DC0000000000000000000000000000000000000000000000000000000000000000000000000000000000000000
310
000000000000000000000000000000000000DC000000000000000028000000000000000000000000000000000000000000000000000000000000000000000000000000000000000000000000000000000000000000000000000000000000000000000000000000000000000000000000000000000000000000000000000000
310
00000000000000000000000000000000000000000000000000000000000000000000000000000000000000000000000000000000000000000000000000000000000000000000000000000000000000000000F5F5DC000000000000000000000000000000000000000000000000000000000000000000000000000000000000
310
0000000000000000000000000000000000000000DC00000000000000002800000000000000000000000000000000000000000000000000000000000000000000000000000000000000000000000000000000000000000000000000000000000000000000000000000000000000000000000000000000000000000000000000
310
000000000000000000000000000000000000000000000000000000000000000000000000000000000000000000000000000000000000000000000000000000000000000000000000000000000000000000000000F5F5DC00000000000000000000000000000000000000000000000000000000000000000000000000000000
310
00000000000000000000000000000000000000000000DC0000000000000000280000000000000000000000000000000000000000000000000000000000000000000000000000000000000000000000000000000000000000000000000000000000000000000000000000000000000000000000000000000000000000000000
310
0000000000000000000000000000000000000000000000000000000000000000000000000000000000000000000000000000000000000000000000000000000000000000000000000000000000000000000000000000F5F5DC0000000000000000000000000000000000000000000000000000000000000000000000000000
310
000000000000000000000000000000000000000000000000DC000000000000000028000000000000000000000000000000000000000000000000000000000000000000000000000000000000000000000000000000000000000000000000000000000000000000000000000000000000000000000000000000000000000000
310
00000000000000000000000000000000000000000000000000000000000000000000000000000000000000000000000000000000000000000000000000000000000000000000000000000000000000000000000000000000F5F5DC000000000000000000000000000000000000000000000000000000000000000000000000
310
0000000000000000000000000000000000000000000000000000DC00000000000000002800000000000000000000000000000000000000000000000000000000000000000000000000000000000000000000000000000000000000000000000000000000000000000000000000000000000000000000000000000000000000
310
00000000000000000000000000000000000000000000000000000000000000000000000000000000000000000000000000000000000000000000000000000000000000000000000000000000000000000000000000000000000028F5DC00000000000000000000000000000000000000000000000000000000000000000000
310
00000000000000000000000000000000000000000000000000000000DC0000000000000000280000000000000000000000000000000000000000000000000000000000000000000000000000000000000000000000000000000000000000000000000000000000000000000000000000000000000000000000000000000000
310
000000000000000000000000000000000000000000000000000000000000000000000000000000000000000000000000000000000000000000000000000000000000000000000000000000000000000000000000000000000000000028F5DC0000000000000000000000000000000000000000000000000000000000000000
310
000000000000000000000000000000000000000000000000000000000000DC000000000000000028000000000000000000000000000000000000000000000000000000000000000000000000000000000000000000000000000000000000000000000000000000000000000000000000000000000000000000000000000000
310
0000000000000000000000000000000000000000000000000000000000000000000000000000000000000000000000000000000000000000000000000000000000000000000000000000000000000000000000000000000000000000000028F5DC000000000000000000000000000000000000000000000000000000000000
310
0000000000000000000000000000000000000000000000000000000000000000DC000000000000000028000000000000000000000000000000000000000000000000000000000000000000000000000000000000000000000000000000F500F500000000000000000000000000000000000000000000000000000000000000
310
0000000000000000000000000000000000000000000000000000000000F500F50000000000000000000000000000000000000000000000000000000000000000000000000000000000000000000000000000000000000000000000000000000028F5DC00000000000000000000000000000000000000000000000000000000
310
00000000000000000000000000000000000000000000000000000000000000000000DC000000000000000028000000000000000000000000000000000000000000000000000000000000000000000000000000000000000000000000000000F5F5F5F5F5F5F5F5F5F5F5F5F5F5F5F5F5F5F5F5F5F5F5F5F5F5F5F5F5F5F5BE
310
BEBEBEF5F5F5F5F5F5F5F5F5F5F5F5F5F5F5F5F5F5F5F5F5F5F5F5F5F5F5F5F5F5F500000000000000000000000000000000000000000000000000000000000000000000000000000000000000000000000000000000000000000000000000000000F5F5DC0000000000000000000000000000000000000000000000000000
310
000000000000000000000000000000000000000000000000000000000000000000000000DC000000000000000028000000000000000000000000000000000000000000000000000000000000000000000000000000000000000000000000000000F50000000000000000000000000000000000000000000000000000000000
310
00BEBEBEBE000000000000000000000000000000000000000000000000000000000000F50000000000000000000000000000000000000000000000000000000000000000000000000000000000000000000000000000000000000000000000000000000028F5F5000000000000000000000000000000000000000000000000
310
0000000000000000000000000000000000000000000000000000000000000000000000000000DC000000000000000028000000000000000000000000000000000000000000000000000000000000000000000000000000000000000000000000000000F5000000000000000000000000000000000000000000000000000000
310
000000BEBEBEBE000000000000000000000000000000000000000000000000000000000000F50000000000000000000000000000000000000000000000000000000000000000000000000000000000000000000000000000000000000000000000000000000028F5DC00000000000000000000000000000000000000000000
310
00000000000000000000000000000000000000000000000000000000000000000000000000000000DC000000000000000028000000000000000000000000000000000000000000000000000000000000000000000000000000000000000000000000000000F500000000000000000000000000000000000000000000000000
310
000000000000000000000000000000000000000000000000000000000000000000000000000000F500000000000000000000000000000000000000000000000000000000000000000000000000000000000000000000000000000000000000000000000000000000F5F5DC0000000000000000000000000000000000000000
310
000000000000000000000000000000000000000000000000000000000000000000000000000000000000DC00000000000000002800000000000000000000000000000000000000000000BEBEBEBE0000BEBEBEBEBEBEBEBEBEBEBEBEBEBEBEBEBEBEBE00000000F50000000000000000000000000000000000000000000000
310
0000000000000000000000000000000000000000000000000000000000000000000000000000000000F50000000000000000000000000000000000000000000000000000000000000000000000000000000000000000000000000000000000000000000000000000000028F5DC000000000000000000000000000000000000
310
0000000000000000000000000000000000000000000000000000000000000000000000000000000000000000DC00000000000000002800000000000000000000000000000000000000000000BEBEBEBEBEBEBEBEBEBEBEBE00BEBEBEBEBEBEBEBEBEBEBEBE00000000F5000000000000000000000000000000000000000000
310
00000000000000000000000000000000000000000000000000000000000000000000000000000000000000F50000000000000000000000000000000000000000000000000000000000000000000000000000000000000000000000000000000000000000000000000000000028F5DC00000000000000000000000000000000
310
00000000000000000000000000000000000000000000000000000000000000000000000000000000000000000000DC00000000000000002800000000000000000000000000000000000000000000DCDCDCDCDCDCDCDCDCDCDCDCDCDCDCDCDCDCDCDCDCDCDCDCDCDC000000F5F5F5F5F5F5F5F5F5F5F5F5F5F5F5F5F5F5F5F5
310
F5F5F5F5F5F5F5F5F5F5F5F5F5F5F5F5F5F5F5F5F5F5F5F5F5F5F5F5F5F5F5F5F5F5F5F5F5F5F5F5F5F5F50000F500000000000000000000000000000000000000000000000000000000000000000000000000000000000000000000000000000000000000000000000000000000F5F5DC0000000000000000000000000000
310
000000000000000000000000000000000000000000000000000000000000000000000000000000000000000000000000DC00000000000000002800000000000000000000000000000000000000000000BEBEBEBEBEBEBEBEBEBEBEBEBE00BEBEBEBEBE00000000000000DCDC00F5F5F500000000BEBEBE00000000F5F5F5F5
310
00000000000000000000000000000000000000BEBEBEBE00000000000000000000000000000000000000F5F5F50000F50000000000000000000000000000000000000000000000000000000000000000000000000000000000000000000000000000000000000000000000000000000028F5DC000000000000000000000000
310
0000000000000000000000000000000000000000000000000000000000000000000000000000000000000000000000000000DC0000000000000000280000000000000000000000000000000000000000000000BEBEBEBEBEBEBEBEBEBEBEBE00BEBEBEBEBE000000000000000000DCF5000000000000BEBEBE000000000000
310
F50000000000000000000000000000000000000000BEBEBEBE000000000000000000000000000000000000000000F50000F500000000000000000000000000000000000000000000000000000000000000000000000000000000000000000000000000000000000000000000000000000000F5F5DC00000000000000000000
310
00000000000000000000000000000000000000000000000000000000000000000000000000000000000000000000000000000000DC0000000000000000280000000000000000000000000000000000000000000000BEBEBE0000BE00BE0000000000BEBEBEBEBE00000000000000000000F5DC0000000000BEBEBE00000000
310
0000F50000000000000000000000000000000000000000BEBEBEBE000000000000000000000000000000000000000000F50000F50000000000000000000000000000000000000000000000000000000000000000000000000000000000000000000000000000000000000000000000000000000028F5DC0000000000000000
310
000000000000000000000000000000000000000000000000000000000000000000000000000000000000000000000000000000000000DC000000000000000028000000000000000000000000000000000000000000000000000000000000000000000000000000000000000000000000000000F500DC000000000000000000
310
00000000F5000000000000000000000000000000000000000000000000000000000000000000000000000000000000000000F50000F50000000000000000000000000028F5F5F5F5F5F5F5F5F5F5F5F5F5F5F5F500000000000000000000000000000000000000000000000000000000000000000000F5F5DC000000000000
310
0000000000000000000000000000000000000000000000000000000000000000000000000000000000000000000000000000000000000000DC000000000000000028000000000000000000000000000000000000000000000000000000000000000000000000000000000000000000000000000000F50000DCDC0000000000
310
000000000000F50000000000000000000000000000000000000000000000000000000000000000000000000000282828282828F5F5F5F5F5F5F5F5F5F5F5F5F5F5F5F5F5F5F5F5F5F5F5F50000000000DC28000000F50000000000000000000000000000000000000000000000000000000000000000000028F5DC00000000
310
00000000000000000000000000000000000000000000000000000000000000000000000000000000000000000000000000000000000000000000DC000000000000000028000000000000000000000000000000000000000000000000000000000000000000000000000000000000000000000000000000F500000000DCDC00
310
0000000000000000F5000000000000000000000000000000000000000000000000F528F5F5F5F5F5F5F5F5F5F5F5F5F5F5F5F5F5F5F5F5F5F5F5280000000000000000000000000000000000000000000000DC28000000F50000000000000000000000000000000000000000000000000000000000000000000028F5DC0000
310
000000000000000000000000000000000000000000000000000000000000000000000000000000000000000000000000000000000000000000000000DC000000000000000028000000000000000000000000000000000000000000000000000000000000000000000000000000000000000000000000000000F50000000000
310
00DC0000000000000000F5000000000000000000000000000000000000000000000000F528F5F5F5F5282828280000000000000000000000F50000F5000000000000000000000000F50000000000000000000000DC28000000F500000000000000000000000000000000000000000000000000000000000000000000F5F5DC
310
0000000000000000000000000000000000000000000000000000000000000000000000000000000000000000000000000000000000000000000000000000DC000000000000000028000000000000000000000000000000000000000000000000000000000000000000000000000000000000000000000000000000F5000000
310
00000000DCDC000000000000F5000000000000000000000000000000000000000000000000280000000000000000000000000000000000000000F50000F50000000000000000000000F5F50000000000000000000000DC2800BEBEF50000000000000000000000000000000000000000000000000000000000000000000028
310
F5DC0000000000000000000000000000000000000000000000000000000000000000000000000000000000000000000000000000000000000000000000000000DC000000000000000028000000000000000000000000000000000000000000000000000000000000000000000000000000000000000000000000000000F500
310
0000000000000000DC0000000000F50000000000000000000000000000000000000000000000F5280000000000000000000000000000000000000000F50000F50000000000000000000000F5F50000000000000000000000DC2800BEBEF5000000000000000000000000000000000000000000000000000000000000000000
310
0028F5F50000000000000000000000000000000000000000000000000000000000000000000000000000000000000000000000000000000000000000000000000000DC000000000000000028000000000000000000000000000000000000000000000000000000000000000000000000000000000000000000000000000000
310
F500000000000000000000DCDC000000F5000000000000000000000000000000000000000000000028000000000000000000000000000000000000000000F50000F50000000000000000000000F5F5F5F5F5F5F5F5F5F5F5F5F5F5F5F5F5BEF5F5F5F5F5F50000000000000000000000000000000000000000000000000000
310
00000028F5DC0000000000000000000000000000000000000000000000000000000000000000000000000000000000000000000000000000000000000000000000000000DC00000000000000002800000000000000000000000000000000000000000000000000000000000000000000000000000000000000000000000000
310
0000F5000000000000000000000000DC0000F500000000000000000000000000000000000000000000F528000000000000000000000000000000000000000000F5DCDCDCDCDCDCDC00DCDCDCDCDCDCF5DCDCDCDCDC00000000000000DC2800BEBEBE000000F500000000000000000000000000000000000000000000000000
310
000000000028F5DC0000000000000000000000000000000000000000000000000000000000000000000000000000000000000000000000000000000000000000000000000000DC000000000000000028000000000000000000000000000000000000000000000000000000000000000000000000000000000000000000F5F5
310
F5F5F5F5F5F5F5F5F5F5F5F5F5F5F5F5F5F5F5F5F5F5F5F528282828282828282828282828282828282828282828282828282828282828282828F528282828282828F50000F50000000000000000000000F5F50000BEBEBEBEBEBE000000DC28000000F5000000F50000000000000000000000000000000000000000000000
310
0000000000000028F5DC0000000000000000000000000000000000000000000000000000000000000000000000000000000000000000000000000000000000000000000000000000DC000000000000000028000000000000000000000000000000000000000000000000000000000000000000000000000000000000000000
310
F50000000000F5000000000000000000000000000000F5280000000000000000000000000000000000000000000000000000000000000000000000000000000000000028F50000F50000000000000000000000BEF50000BEBEBEBEBEBE000000DC28000000F5000000F5000000000000000000000000000000000000000000
310
00000000000000000028F5DC0000000000000000000000000000000000000000000000000000000000000000000000000000000000000000000000000000000000000000000000000000DC00000000000000002800000000000000000000000000000000000000000000000000000000000000000000000000000000000000
310
0000F50000000000F5000000000000000000000000000000F5000000000000000000000000000000000000000000000000000000000000000000000000000000000000000028F50000F5000000000000000000BEBEBEF50000BEBE00000000000000DC28000000F5F50000F500000000000000000000000000000000000000
310
0000000000000000000000F5F5DC0000000000000000000000000000000000000000000000000000000000000000000000000000000000000000000000000000000000000000000000000000DC0000000000000000280000000000000000000000000000000000000000000000000000000000000000000000000000000000
310
00000000F50000000000F500000000000000000000000000000028000000000000000000000000000000000000000000000000000000000000000000000000000000000000000028280000F500000000000000000000BE00000000000000000000000000DC28000000F5F50000F50000000000000000000000000000000000
310
00000000000000000000000000F5F5DC0000000000000000000000000000000000000000000000000000000000000000000000000000000000000000000000000000000000000000000000000000DC000000000000000028000000000000000000000000000000000000000000000000000000000000000000000000000000
310
000000000000F50000000000F500000000000000000000000000000028000000000000000000000000000000000000000000000000000000000000000000000000000000000000000028280000F500000000000000000000002828F5F5F5F5F5F5F5F5F5F5F5F5F5F5F5F5F5F5BEBEF5000000000000000000000000000000
310
000000000000000000000000000000F5F5DC0000000000000000000000000000000000000000000000000000000000000000000000000000000000000000000000000000000000000000000000000000DC00000000000000002800000000000000000000000000000000000000000000000000000000000000000000000000
310
000000000000BEBEF50000000000F5000000000000000000000000000000280000000000000000000000000000000000000000000000000000000000000000000000000000000000000000F528F5F5F5F5F5F5F5F5F5F5F5F5F5F5F5F5F5F5F5F5F500000000000000F50000000000BEBEF500000000000000000000000000
310
0000000000000000000000000000000000F5F5DC0000000000000000000000000000000000000000000000000000000000000000000000000000000000000000000000000000000000000000000000000000DC0000000000000000280000000000000000000000000000000000000000000000000000000000000000000000
310
0000000000000000BEBEF50000000000F5000000000000000000000000000000280000000000000000000000000000000000000000000000000000000000000000000000000000000000000000F5F5F5282828282828000000000000000000000000000000000000000000F50000000000BEBEF50000000000000000000000
310
00000000000000000000000000000000000000F5F5DC0000000000000000000000000000000000000000000000000000000000000000000000000000000000000000000000000000000000000000000000000000DC000000000000000028000000000000000000000000000000000000000000000000000000000000000000
310
00000000000000000000BEBEF50000000000F5000000000000000000000000000000280000000000000000000000000000000000000000000000000000000000000000000000000000000000000000F5F50000F500000000000000000000000000000000000000000000000000F500000000000000F5000000000000000000
310
00000000000000000000000000000000000000000028F5DC0000000000000000000000000000000000000000000000000000000000000000000000000000000000000000000000000000000000000000000000000000DC00000000000000002800000000000000000000000000000000000000000000000000000000000000
310
0000000000000000000000000000F50000000000F5000000000000000000000000000000280000000000000000000000000000000000000000000000000000000000000000000000000000000000000000F5F50000F500000000000000000000000000000000000000000000000000F500000000000000F500000000000000
310
000000000000000000000000000000000000000000000028F5DC0000000000000000000000000000000000000000000000000000000000000000000000000000000000000000000000000000000000000000000000000000DCDCDCDCDCDCDCDC00280000000000000000000000000000000000000000000000000000000000
310
00000000000000000000000000000000F50000000000F5000000000000000000000000000000280000000000000000000000000000000000000000000000000000000000000000000000000000000000000000F5F50000F500000000000000000000000000000000000000000000000000F500000000000000F50000000000
310
0000000000000000000000000000000000000000000000000028F5DC0000000000000000000000000000000000000000000000000000000000000000000000000000000000000000000000000000000000000000000000000000DC000000000000000028000000000000000000000000000000000000000000000000000000
310
000000000000000000000000000000000000F50000000000F5000000000000000000000000000000280000000000000000000000000000000000000000000000000000000000000000000000000000000000000000F5F50000F500000000000000000000000000000000000000000000000000F500000000000000F5000000
310
00000000000000000000000000000000000000000000000000000028F5DC0000000000000000000000000000000000000000000000000000000000000000000000000000000000000000000000000000000000000000000000000000DC0000000000000000280000000000000000000000000000000000BEBEBEBEBEBEBEBE
310
BEBEBEBE00BEBEBEBEBEBEBEBEBEBEBE00000000F50000000000F5000000000000000000000000000028280000000000000000000000000000DC0000000000000000000000000000000000000000000000000000000000F5F50000F500000000000000000000000000000000000000000000000000F500000000000000F500
310
0000000000000000000000000000000000000000000000000000000000F5F5DC0000000000000000000000000000000000000000000000000000000000000000000000000000000000000000000000000000000000000000000000000000DC0000000000000000280000000000000000000000000000000000BEBEBEBE00BE
310
BEBEBEBEBE0000BEBEBEBEBEBEBEBEBEBEBE00000000F5F5F5F5F5F5F52828282828282828282828DCF52828282828282828282828282828282828DC282828282828282828282828282828282828DC2828282828282828282828F5F5F5F5F5F5F5F5F5F5F5F5F5F5F5F5F5F5F5F5F5F5F5F5F5F5F5F5F5F5F5F5F5F5F5F5F5
310
F5F50000000000000000000000000000000000000000000000000000000000F5F5DC0000000000000000000000000000000000000000000000000000000000000000000000000000000000000000000000000000000000000000000000000000DC0000000000000000280000000000000000000000000000000000DCDCDCDC
310
DCDCDCDCDCDCDCDCDCDCDCDCDCDCDCDCDCDCDCDCDCDCDCDCDC0000000000282828282828282828282828DC282828282828282828282828282828282828DC282828282828282828282828282828282828DC28282828282828282828282828282800000000000000000000000000000000000000000000000000F50000000000
310
000000000000000000000000000000000000000000000000000000000000000000F5F5DC0000000000000000000000000000000000000000000000000000000000000000000000000000000000000000000000000000000000000000000000000000DC0000000000000000280000000000000000000000000000000000BEBE
310
BEBEBEBEBEBEBEBEBEBEBEBEBEBEBEBEBEBEBEBE00000000000000DCDCDCDCDCF528F5F5F528F528F5F528F528F5F528F5282828282828282828282828282828282828282828282828282828282828F5F528F528F5F528F5F528F528F528F500000000000000000000000000000000000000000000000000000000F5000000
310
0000000000000000000000000000000000000000000000000000000000000000000000F5F5F50000000000000000000000000000000000000000000000000000000000000000000000000000000000000000000000000000000000000000000000000000DC0000000000000000280000000000000000000000000000000000
310
BEBEBEBEBEBEBEBEBEBEBEBEBEBEBEBEBEBEBEBEBEBE00000000000000000000000000F5F5F5F5F500F500F5F500F500F5F5F50000000000000000000000000000DC0000000000000000000000000000F500F5F5DCF500F5F500F5F500F500F50000000000000000000000000000000000000000000000000000000000F500
310
00000000000000000000000000000000000000000000000000000000000000000000000000F5F5DC0000000000000000000000000000000000000000000000000000000000000000000000000000000000000000000000000000000000000000000000000000DC000000000000000028000000000000000000000000000000
310
00000000000000000000000000000000000000000000000000000000000000000000000000F5F5F5F5F5F5F528F5DCDCDCDCDC28F528282828282828282828282828DCF5DC28282828282828282828282828F52828DCF5DC282828F5F528F5F528280000000000000000000000000000000000000000000000000000000000
310
F5000000000000000000000000000000000000000000000000000000000000000000000000000028F5DC0000000000000000000000000000000000000000000000000000000000000000000000000000000000000000000000000000000000000000000000000000DC00000000000000002800000000000000000000000000
310
00000000000000000000000000000000000000000000000000000000000000000000000000000028F5F5F528000000002828DC282800000000000000000000000000002828DC282800000000000000000028000000282828DC2828000000000000000000000000000000000000000000000000000000000000000000000000
310
0000F50000000000000000000000000000000000000000000000000000000000000000000000000000F5F5DC0000000000000000000000000000000000000000000000000000000000000000000000000000000000000000000000000000000000000000000000000000DC0000000000000000280000000000000000000000
310
0000000000000000000000000000000000000000000000000000000000000000000000000000000000F5F5F5F5F5000000002828282828000000000000000000000000000028282828280000000000000000002800000028282828282800000000000000000000000000000000000000000000000000000000000000000000
310
00000000F5000000000000000000000000000000000000000000000000000000000000000000000000000028F5DC0000000000000000000000000000000000000000000000000000000000000000000000000000000000000000000000000000000000000000000000000000DC000000000000000028000000000000000000
310
0000000000000000000000000000000000000000000000000000000000000000000000000000000000000028F5F5F52800000000002828DC00000000000000000000000000000000282828000000000000000000002828282828002828DC000000000000000000000000000000000000000000000000000000000000000000
310
000000000000F50000000000000000000000000000000000000000000000000000000000000000000000000000F5F5DC0000000000000000000000000000000000000000000000000000000000000000000000000000000000000000000000000000000000000000000000000000DC00000000000000002800000000000000
310
00000000000000000000000000000000000000000000000000000000000000000000000000000000000000000000DC000000000000000000DC000000000000000000000000000000000000DC000000000000000000000000000000000000DC0000000000000000000000000000000000000000000000000000000000000000
310
0000000000000000F50000000000000000000000000000000000000000000000000000000000000000000000000000F5F5DC0000000000000000000000000000000000000000000000000000000000000000000000000000000000000000000000000000000000000000000000000000DC0000000000000000280000000000
310
00000000000000000000000000000000000000000000000000000000000000000000000000000000000000000000000000DC000000000000000000000000000000000000000000000000000000F500000000000000000000000000000000000000000000000000000000000000000000000000000000000000000000000000
310
00000000000000000000F50000000000000000000000000000000000000000000000000000000000000000000000000000F5F5DC0000000000000000000000000000000000000000000000000000000000000000000000000000000000000000000000000000000000000000000000000000DC000000000000000028000000
310
000000000000000000000000000000000000000000000000000000000000000000000000000000000000000000000000000000DC000000000000000000000000000000000000000000000000000000F50000000000000000000000000000000000000000000000000000000000000000000000000000000000000000000000
310
000000000000000000000000F5000000000000000000000000000000000000000000000000000000000000000000000000000028F5DC0000000000000000000000000000000000000000000000000000000000000000000000000000000000000000000000000000000000000000000000000000DC00000000000000002800
310
0000000000000000000000000000000000000000000000000000000000000000000000000000000000000000000000000000000000DC000000000000000000000000000000000000000000000000000000F5000000000000000000000000000000000000000000000000000000000000000000000000000000000000000000
310
0000000000000000000000000000F5000000000000000000000000000000000000000000000000000000000000000000000000000028F5DC0000000000000000000000000000000000000000000000000000000000000000000000000000000000000000000000000000000000000000000000000000DC0000000000000000
310
28000000000000000000000000000000000000000000000000000000000000000000000000000000000000000000000000000000000000DC000000000000000000000000000000000000000000000000000000F500000000000000000000000000000000000000000000000000000000000000000000000000000000000000
310
00000000000000000000000000000000F50000000000000000000000000000000000000000000000000000000000000000000000000000F5F5DC0000000000000000000000000000000000000000000000000000000000000000000000000000000000000000000000000000000000000000000000000000DC000000000000
310
000028000000000000000000000000000000000000000000000000000000000000000000000000000000000000000000000000000000000000DC000000000000000000000000000000000000000000000000000000F50000000000000000000000000000000000000000000000000000000000000000000000000000000000
310
000000000000000000000000000000000000F50000000000000000000000000000000000000000000000000000000000000000000000000000F5F5DC0000000000000000000000000000000000000000000000000000000000000000000000000000000000000000000000000000000000000000000000000000DC00000000
310
0000000028000000000000000000000000000000000000000000000000000000000000000000000000000000000000000000000000000000000000DC000000000000000000000000000000000000000000000000000000F5000000000000000000000000000000000000000000000000000000000000000000000000000000
310
0000000000000000000000000000000000000000F50000000000000000000000000000000000000000000000000000000000000000000000000000F5F5DC0000000000000000000000000000000000000000000000000000000000000000000000000000000000000000000000000000000000000000000000000000DC0000
310
0000000000002800000000000000000000000000000000000000000000000000000000000000000000000000000000000000000000000000000000000000DC0000000000000000000000000000000000000000000000000000F5F5F5F5F5F5F5F5F5F5F5F5F5F5F5F5F5F5F5F5F5F5F5F5F5F5F5F5F5F5F5F5F5F5F5F5F5F5
310
F5F5F5F5F5F5F5F5F5F5F5F5F5F5F5F5F5F5F5F5F5F5F5000000000000000000000000000000000000000000000000000000000000000000000000000028F5DC0000000000000000000000000000000000000000000000000000000000000000000000000000000000000000000000000000000000000000000000000000DC
310
00000000000000002800000000000000000000000000000000000000000000000000000000000000000000000000000000000000000000000000000000000000DC0000000000000000000000000000000000000000000000000000F5000000000000000000000000000000000000000000000000000000BEBEBEBEBE000000
310
000000000000000000000000000000000000000000000000F5000000000000000000000000000000000000000000000000000000000000000000000000000028F5DC00000000000000000000000000000000000000000000000000000000000000000000000000000000000000000000000000000000000000000000000000
310
00DC00000000000000002800000000000000000000000000000000000000000000000000000000000000000000000000000000000000000000000000000000000000DC000000000000000000000000000000000000000000000000000000000000000000000000000000000000000000000000000000000000BEBEBEBEBE00
310
0000000000000000000000000000000000000000000000000000000000000000000000000000000000000000000000000000000000000000000000000000000000F5F5DC0000000000000000000000000000000000000000000000000000000000000000000000000000000000000000000000000000000000000000000000
310
000000DC00000000000000002800000000000000000000000000000000000000000000000000000000000000000000000000000000000000000000000000000000000000DC00000000000000000000000000000000000000000000000000000000000000000000000000000000000000000000000000000000000000000000
310
0000000000000000000000000000000000000000000000000000000000000000000000000000000000000000000000000000000000000000000000000000000000000028F5DC000000000000000000000000000000000000000000000000000000000000000000000000000000000000000000000000000000000000000000
310
0000000000DC00000000000000002800000000000000000000000000000000000000000000000000000000000000000000000000000000000000000000000000000000000000DC0000000000000000000000000000000000000000000000000000000000000000000000000000000000000000000000000000000000000000
310
00000000000000000000000000000000000000000000000000000000000000000000000000000000000000000000000000000000000000000000000000000000000000000028F5F500000000000000000000000000000000000000000000000000000000000000000000000000000000000000000000000000000000000000
310
00000000000000DC00000000000000002800000000000000000000000000000000000000000000000000000000000000000000000000000000000000000000000000000000000000DC000000000000000000000000000000000000000000000000000000000000000000000000000000000000000000000000000000000000
310
000000000000000000000000000000000000000000000000000000000000000000000000000000000000000000000000000000000000000000000000000000000000000000000028F5F50000000000000000000000000000000000000000000000000000000000000000000000000000000000000000000000000000000000
310
000000000000000000DC0000000000000000280000000000000000000000000000000000000000000000000000000000000000000000000000000000000000000000000000000000000000BEBEBEBEBEBEBEBEBEBEBEBE00BEBEBEBEBEBEBEBEBEBEBEBE000000000000000000000000000000000000000000000000000000
310
00000000000000000000000000000000000000000000000000000000000000000000000000000000000000000000000000000000000000000000000000000000000000000000000000F5F5DC000000000000000000000000000000000000000000000000000000000000000000000000000000000000000000000000000000
310
0000000000000000000000DC0000000000000000280000000000000000000000000000000000000000000000000000000000000000000000000000000000000000000000000000000000000000BEBEBEBEBE00BEBEBEBEBEBE00BEBEBEBEBEBEBEBEBEBEBEBE00000000000000000000000000000000000000000000000000
310
00000000000000000000000000000000000000000000000000000000000000000000000000000000000000000000000000000000000000000000000000000000000000000000000000000028F5DC00000000000000000000000000000000000000000000000000000000000000000000000000000000000000000000000000
310
00000000000000000000000000DC0000000000000000280000000000000000000000000000000000000000000000000000000000000000000000000000000000000000000000000000000000000000DCDCDCDCDCDCDCDCDCDCDCDCDCDCDCDCDCDCDCDCDCDCDCDCDC0000000000000000000000000000000000000000000000
310
000000000000000000000000000000000000000000000000000000000000000000000000000000000000000000000000000000000000000000000000000000000000000000000000000000000028F5DC0000000000000000000000000000000000000000000000000000000000000000000000000000000000000000000000
310
000000000000000000000000000000DC0000000000000000280000000000000000000000000000000000000000000000000000000000000000000000000000000000000000000000000000000000000000BEBEBEBEBEBEBEBEBEBEBE0000000000000000000000000000000000000000000000000000000000000000000000
310
0000000000000000000000000000000000000000000000000000000000000000000000000000000000000000000000000000000000000000000000000000000000000000000000000000000000000028F5DC000000000000000000000000000000000000000000000000000000000000000000000000000000000000000000
310
0000000000000000000000000000000000DC0000000000000000280000000000000000000000000000000000000000000000000000000000000000000000000000000000000000000000000000000000000000BEBEBEBEBEBEBEBEBEBEBE000000000000000000000000000000000000000000000000000000000000000000
310
00000000000000000000000000000000000000000000000000000000000000000000000000000000000000000000000000000000000000000000000000000000000000000000000000000000000000000028F5DC00000000000000000000000000000000000000000000000000000000000000000000000000000000000000
310
00000000000000000000000000000000000000DC0000000000000000280000000000000000000000000000000000000000000000000000000000000000000000000000000000000000000000000000000000000000BE000000BE00000000BE0000000000000000000000000000000000000000000000000000000000000000
310
0000000000000000000000000000000000000000000000000000000000000000000000000000000000000000000000000000000000000000000000000000000000000000000000000000000000000000000000F5F5DC0000000000000000000000000000000000000000000000000000000000000000000000000000000000
310
000000000000000000000000000000000000000000DC000000000000000028000000000000000000000000000000000000000000000000000000000000000000000000000000000000000000000000000000000000000000000000000000000000000000000000000000000000000000000000000000000000000000000000
310
0000000000000000000000000000000000000000000000000000000000000000000000000000000000000000000000000000000000000000000000000000000000000000000000000000000000000000000000000028F5DC000000000000000000000000000000000000000000000000000000000000000000000000000000
310
0000000000000000000000000000000000000000000000DC00000000000000002800000000000000000000000000000000000000000000000000000000000000000000000000000000000000000000000000000000000000000000000000000000000000000000000000000000000000000000000000000000000000000000
310
00000000000000000000000000000000000000000000000000000000000000000000000000000000000000000000000000000000000000000000000000000000000000000000000000000000000000000000000000000028F5DC00000000000000000000000000000000000000000000000000000000000000000000000000
310
00000000000000000000000000000000000000000000000000DC0000000000000000280000000000000000000000000000000000000000000000000000000000000000000000000000000000000000000000000000000000000000000000000000000000000000000000000000000000000000000000000000000000000000
310
00000000000000000000000000000000000000000000000000000000000000000000000000000000000000000000000000000000000000000000000000000000000000000000000000000000000000000000000000000000002800DC0000000000000000000000000000000000000000000000000000000000000000000000
310
000000000000000000000000000000000000000000000000000000DC000000000000000028000000000000000000000000000000000000000000000000000000000000000000000000000000000000000000000000000000000000000000000000000000000000000000000000000000000000000000000000000000000000
310
000000000000000000000000000000000000000000000000000000000000000000000000000000000000000000000000000000000000000000000000000000000000000000000000000000000000000000000000000000000000002800DC000000000000000000000000000000000000000000000000000000000000000000
310
0000000000000000000000000000000000000000000000000000000000DC00000000000000002800000000000000000000000000000000000000000000000000000000000000000000000000000000000000000000000000000000000000000000000000000000000000000000000000000000000000000000000000000000
310
0000000000000000000000000000000000000000000000000000000000000000000000000000000000000000000000000000000000000000000000000000000000000000000000000000000000000000000000000000000000000000002800DC00000000000000000000000000000000000000000000000000000000000000
310
00000000000000000000000000000000000000000000000000000000000000DC0000000000000000280000000000000000000000000000000000000000000000000000000000000000000000000000000000000000000000000000000000000000000000000000000000000000000000000000000000000000000000000000
310
00000000000000000000000000000000000000000000000000000000000000000000000000000000000000000000000000000000000000000000000000000000000000000000000000000000000000000000000000000000000000000000002800DC0000000000000000000000000000000000000000000000000000000000
310
000000000000000000000000000000000000000000000000000000000000000000DC000000000000000028000000000000000000000000000000000000000000000000000000000000000000000000000000000000000000000000000000000000000000000000000000000000000000000000000000000000000000000000
310
000000000000000000000000000000000000000000000000000000000000000000000000000000000000000000000000000000000000000000000000000000000000000000000000000000000000000000000000000000000000000000000000002800DC000000000000000000000000000000000000000000000000000000
310
0000000000000000000000000000000000000000000000000000000000000000000000DC00000000000000002800000000000000000000000000000000000000000000000000000000000000000000000000000000000000000000000000000000000000000000000000000000000000000000000000000000000000000000
310
0000000000000000000000000000000000000000000000000000000000000000000000000000000000000000000000000000000000000000000000000000000000000000000000000000000000000000000000000000000000000000000000000000002800DC00000000000000000000000000000000000000000000000000
310
00000000000000000000000000000000000000000000000000000000000000000000000000DC0000000000000000280000000000000000000000000000000000000000000000000000000000000000000000000000000000000000000000000000000000000000000000000000000000000000000000000000000000000000
310
00000000000000000000000000000000000000000000000000000000000000000000000000000000000000000000000000000000000000000000000000000000000000000000000000000000000000000000000000000000000000000000000000000000002800DC0000000000000000000000000000000000000000000000
310
000000000000000000000000000000000000000000000000000000000000000000000000000000DC000000000000000028000000000000000000000000000000000000000000000000000000000000000000000000000000000000000000000000000000000000000000000000000000000000000000000000000000000000
310
000000000000000000000000000000000000000000000000000000000000000000000000000000000000000000000000000000000000000000000000000000000000000000000000000000000000000000000000000000000000000000000000000000000000002800DC000000000000000000000000000000000000000000
310
0000000000000000000000000000000000000000000000000000000000000000000000000000000000DC00000000000000002800000000000000000000000000000000000000000000000000000000000000000000000000000000000000000000000000000000000000000000000000000000000000000000000000000000
310
0000000000000000000000000000000000000000000000000000000000000000000000000000000000000000000000000000000000000000000000000000000000000000000000000000000000000000000000000000000000000000000000000000000000000000002800DC00000000000000000000000000000000000000
310
00000000000000000000000000000000000000000000000000000000000000000000000000000000000000DC0000000000000000280000000000000000000000000000000000000000000000000000000000000000000000000000000000000000000000000000000000000000000000000000000000000000000000000000
310
00000000000000000000000000000000000000000000000000000000000000000000000000000000000000000000000000000000000000000000000000000000000000000000000000000000000000000000000000000000000000000000000000000000000000000000002800DC0000000000000000000000000000000000
310
000000000000000000000000000000000000000000000000000000000000000000000000000000000000000000DC000000000000000028000000000000000000000000000000000000000000000000000000000000000000000000000000000000000000000000000000000000000000000000000000000000000000000000
310
000000000000000000000000000000000000000000000000000000000000000000000000000000000000000000000000000000000000000000000000000000000000000000000000000000000000000000000000000000000000000000000000000000000000000000000000002800DC000000000000000000000000000000
310
0000000000000000000000000000000000000000000000000000000000000000000000000000000000000000000000DC00000000000000002800000000000000000000000000000000000000000000000000000000000000000000000000000000000000000000000000000000000000000000000000000000000000000000
310
0000000000000000000000000000000000000000000000000000000000000000000000000000000000000000000000000000000000000000000000000000000000000000000000000000000000000000000000000000000000000000000000000000000000000000000000000000002800DC00000000000000000000000000
310
00000000000000000000000000000000000000000000000000000000000000000000000000000000000000000000000000DC0000000000000000280000000000000000000000000000000000000000000000000000000000000000000000000000000000000000000000000000000000000000000000000000000000000000
310
00000000000000000000000000000000000000000000000000000000000000000000000000000000000000000000000000000000000000000000000000000000000000000000000000000000000000000000000000000000000000000000000000000000000000000000000000000000002800DC0000000000000000000000
310
000000000000000000000000000000000000000000000000000000000000000000000000000000000000000000000000000000DC000000000000000028000000000000000000000000000000000000000000000000000000000000000000000000000000000000000000000000000000000000000000000000000000000000
310
000000000000000000000000000000000000000000000000000000000000000000000000000000000000000000000000000000000000000000000000000000000000000000000000000000000000000000000000000000000000000000000000000000000000000000000000000000000000002800DC000000000000000000
310
0000000000000000000000000000000000000000000000000000000000000000000000000000000000000000000000000000000000DC00000000000000002800000000000000000000000000000000000000000000000000000000000000000000000000000000000000000000000000000000000000000000000000000000
310
0000000000000000000000000000000000000000000000000000000000000000000000000000000000000000000000000000000000000000000000000000000000000000000000000000000000000000000000000000000000000000000000000000000000000000000000000000000000000000002800DC00000000000000
310
00000000000000000000000000000000000000000000000000000000000000000000000000000000000000000000000000000000000000DC0000000000000000280000000000000000000000000000000000000000000000000000000000000000000000000000000000000000000000000000000000000000000000000000
310
00000000000000000000000000000000000000000000000000000000000000000000000000000000000000000000000000000000000000000000000000000000000000000000000000000000000000000000000000000000000000000000000000000000000000000000000000000000000000000000002800DC0000000000
310
000000000000000000000000000000000000000000000000000000000000000000000000000000000000000000000000000000000000000000DC000000000000000028000000000000000000000000000000000000000000000000000000000000000000000000000000000000000000000000000000000000000000000000
310
000000000000000000000000000000000000000000000000000000000000000000000000000000000000000000000000000000000000000000000000000000000000000000000000000000000000000000000000000000000000000000000000000000000000000000000000000000000000000000000000002800DC000000
310
0000000000000000000000000000000000000000000000000000000000000000000000000000000000000000000000000000000000000000000000DC00000000000000002800000000000000000000000000000000000000000000000000000000000000000000000000000000000000000000000000000000000000000000
310
0000000000000000000000000000000000000000000000000000000000000000000000000000000000000000000000000000000000000000000000000000000000000000000000000000000000000000000000000000000000000000000000000000000000000000000000000000000000000000000000000000002800DC00
310
00000000000000000000000000000000000000000000000000000000000000000000000000000000000000000000000000000000000000000000000000DC0000000000000000280000000000000000000000000000000000000000000000000000000000000000000000000000000000000000000000000000000000000000
310
00000000000000000000000000000000000000000000000000000000000000000000000000000000000000000000000000000000000000000000000000000000000000000000000000000000000000000000000000000000000000000000000000000000000000000000000000000000000000000000000000000000002800
310
DC0000000000000000000000000000000000000000000000000000000000000000000000000000000000000000000000000000000000000000000000000000DC000000000000000028000000000000000000000000000000000000000000000000000000000000000000000000000000000000000000000000000000000000
310
00000000000000000000000000000000000000000000000000000000000000000000000000000000000000000000000000000000000000000000000000000000000000000000000000000000000000000000000000000000000000000000000000000000000000000000000000000000000000000000000000000000000000
310
2800DC0000000000000000000000000000000000000000000000000000000000000000000000000000000000000000000000000000000000000000000000000000DC00000000000000002800000000000000000000000000000000000000000000000000000000000000000000000000000000000000000000000000000000
310
00000000000000000000000000000000000000000000000000000000000000000000000000000000000000000000000000000000000000000000000000000000000000000000000000000000000000000000000000000000000000000000000000000000000000000000000000000000000000000000000000000000000000
310
00002800DC0000000000000000000000000000000000000000000000000000000000000000000000000000000000000000000000000000000000000000000000000000DC0000000000000000280000000000000000000000000000000000000000000000000000000000000000000000000000000000000000000000000000
310
00000000000000000000000000000000000000000000000000000000000000000000000000000000000000000000000000000000000000000000000000000000000000000000000000000000000000000000000000000000000000000000000000000000000000000000000000000000000000000000000000000000000000
310
000000002800DC0000000000000000000000000000000000000000000000000000000000000000000000000000000000000000000000000000000000000000000000000000DC000000000000000028000000000000000000000000000000000000000000000000000000000000000000000000000000000000000000000000
310
00000000000000000000000000000000000000000000000000000000000000000000000000000000000000000000000000000000000000000000000000000000000000000000000000000000000000000000000000000000000000000000000000000000000000000000000000000000000000000000000000000000000000
310
0000000000002800DC0000000000000000000000000000000000000000000000000000000000000000000000000000000000000000000000000000000000000000000000000000DC00000000000000002800000000000000000000000000000000000000000000000000000000000000000000000000000000000000000000
310
00000000000000000000000000000000000000000000000000000000000000000000000000000000000000000000000000000000000000000000000000000000000000000000000000000000000000000000000000000000000000000000000000000000000000000000000000000000000000000000000000000000000000
310
00000000000000002800DC0000000000000000000000000000000000000000000000000000000000000000000000000000000000000000000000000000000000000000000000000000DC0000000000000000280000000000000000000000000000000000000000000000000000000000000000000000000000000000000000
310
00000000000000000000000000000000000000000000000000000000000000000000000000000000000000000000000000000000000000000000000000000000000000000000000000000000000000000000000000000000000000000000000000000000000000000000000000000000000000000000000000000000000000
310
000000000000000000002800DC0000000000000000000000000000000000000000000000000000000000000000000000000000000000000000000000000000000000000000000000000000DC000000000000000028000000000000000000000000000000000000000000000000000000000000000000000000000000000000
310
00000000000000000000000000000000000000000000000000000000000000000000000000000000000000000000000000000000000000000000000000000000000000000000000000000000000000000000000000000000000000000000000000000000000000000000000000000000000000000000000000000000000000
310
0000000000000000000000002800DC0000000000000000000000000000000000000000000000000000000000000000000000000000000000000000000000000000000000000000000000000000DC00000000000000002800000000000000000000000000000000000000000000000000000000000000000000000000000000
310
00000000000000000000000000000000000000000000000000000000000000000000000000000000000000000000000000000000000000000000000000000000000000000000000000000000000000000000000000000000000000000000000000000000000000000000000000000000000000000000000000000000000000
310
00000000000000000000000000002800DC0000000000000000000000000000000000000000000000000000000000000000000000000000000000000000000000000000000000000000000000000000DC0000000000000000280000000000000000000000000000000000000000000000000000000000000000000000000000
310
00000000000000000000000000000000000000000000000000000000000000000000000000000000000000000000000000000000000000000000000000000000000000000000000000000000000000000000000000000000000000000000000000000000000000000000000000000000000000000000000000000000000000
310
000000000000000000000000000000002800DC0000000000000000000000000000000000000000000000000000000000000000000000000000000000000000000000000000000000000000000000000000DC000000000000000028000000000000000000000000000000000000000000000000000000000000000000000000
310
00000000000000000000000000000000000000000000000000000000000000000000000000000000000000000000000000000000000000000000000000000000000000000000000000000000000000000000000000000000000000000000000000000000000000000000000000000000000000000000000000000000000000
310
0000000000000000000000000000000000002800DC0000000000000000000000000000000000000000000000000000000000000000000000000000000000000000000000000000000000000000000000000000DC00000000000000002800000000000000000000000000000000000000000000000000000000000000000000
310
00000000000000000000000000000000000000000000000000000000000000000000000000000000000000000000000000000000000000000000000000000000000000000000000000000000000000000000000000000000000000000000000000000000000000000000000000000000000000000000000000000000000000
310
00000000000000000000000000000000000000002800DC0000000000000000000000000000000000000000000000000000000000000000000000000000000000000000000000000000000000000000000000000000DC0000000000000000280000000000000000000000000000000000000000000000000000000000000000
310
00000000000000000000000000000000000000000000000000000000000000000000000000000000000000000000000000000000000000000000000000000000000000000000000000000000000000000000000000000000000000000000000000000000000000000000000000000000000000000000000000000000000000
310
000000000000000000000000000000000000000000002800DC0000000000000000000000000000000000000000000000000000000000000000000000000000000000000000000000000000000000000000000000000000DC000000000000000028000000000000000000000000000000000000000000000000000000000000
310
00000000000000000000000000000000000000000000000000000000000000000000000000000000000000000000000000000000000000000000000000000000000000000000000000000000000000000000000000000000000000000000000000000000000000000000000000000000000000000000000000000000000000
310
0000000000000000000000000000000000000000000000002800DC0000000000000000000000000000000000000000000000000000000000000000000000000000000000000000000000000000000000000000000000000000DC00000000000000002800000000000000000000000000000000000000000000000000000000
310
00000000000000000000000000000000000000000000000000000000000000000000000000000000000000000000000000000000000000000000000000000000000000000000000000000000000000000000000000000000000000000000000000000000000000000000000000000000000000000000000000000000000000
310
00000000000000000000000000000000000000000000000000002800DC0000000000000000000000000000000000000000000000000000000000000000000000000000000000000000000000000000000000000000000000000000DC0000000000000000280000000000000000000000000000000000000000000000000000
310
00000000000000000000000000000000000000000000000000000000000000000000000000000000000000000000000000000000000000000000000000000000000000000000000000000000000000000000000000000000000000000000000000000000000000000000000000000000000000000000000000000000000000
310
000000000000000000000000000000000000000000000000000000002800DC0000000000000000000000000000000000000000000000000000000000000000000000000000000000000000000000000000000000000000000000000000DC000000000000000028282828282828282828282828282828282828282828282828
310
282828282828282828282828282828282828282828282828282828282828282828282828282828282828282828282828282828282828282828282828282828282828282828282828F5282828282828282828282828282828282828282828282828282828282828282828282828282828282828282828282828282828282828
310
2828282828282828282828282828282828282828282828282828282828282800DC0000000000000000000000000000000000000000000000000000000000000000000000000000000000000000000000000000000000000000000000000000DC00000000000000000000000000000000000000000000000000000000000000
310
0000000000000000000000000000000000000000000000000000000000000000000000000000000000000000000000000000000000000000000000000000000000000000000000000000F500000000000000000000000000000000000000000000000000000000000000000000000000000000000000000000000000000000
310
00000000000000000000000000000000000000000000000000000000000000000000DC0000000000000000000000000000000000000000000000000000000000000000000000000000000000000000000000000000000000000000000000000000DCDCDCDCDCDCDCDCDCDCDCDCDCDCDCDCDCDCDCDCDCDCDCDCDCDCDCDCDCDC
310
DCDCDCDCDCDCDCDCDCDCDCDCDCDCDCDCDCDCDCDCDCDCDCDCDCDCDCDCDCDCDCDCDCDCDCDCDCDCDCDCDCDCDCDCDCDCDCDCDCDCDCDCDCDCDCDCDCDCDCDCDCDCDCDCDCDCDCDCDCDCDCDCDCDCDCDCF5DCDCDCDCDCDCDCDCDCDCDCDCDCDCDCDCDCDCDCDCDCDCDCDCDCDCDCDCDCDCDCDCDCDCDCDCDCDCDCDCDCDCDCDCDCDCDCDCDCDC
310
DCDCDCDCDCDCDCDCDCDCDCDCDCDCDCDCDCDCDCDCDCDCDCDCDCDCDCDCDCDCDCDCDCDCDCDCDC000000000000000000000000000000000000000000000000000000000000000000000000000000000000000000000000000000000000000000000000000000000000000000000000000000000000000000000000000000000000
310
00000000000000000000000000000000000000000000000000000000000000000000000000000000000000000000000000000000000000000000000000000000000000000000000000000000000000000000000000000000000000000000000000000000000000000000000000000000000000000000000000000000000000
310
00000000000000000000000000000000000000000000000000000000000000000000000000000000000000000000000000000000000000000000000000000000000000000000
  0
XRECORD
  5
3899
102
{ACAD_REACTORS
330
314E
102
}
330
314E
100
AcDbXrecord
280
     1
102
MATERIAL
148
0.0
149
0.0
149
0.0
 93
        0
 94
      127
282
     0
 72
     0
 77
     0
171
     0
175
     0
179
     0
273
     0
  0
XRECORD
  5
3150
102
{ACAD_REACTORS
330
314E
102
}
330
314E
100
AcDbXrecord
280
     1
270
     1
271
     1
  0
XRECORD
  5
314F
102
{ACAD_REACTORS
330
314E
102
}
330
314E
100
AcDbXrecord
280
     1
270
     1
271
     1
  0
XRECORD
  5
3153
102
{ACAD_REACTORS
330
314E
102
}
330
314E
100
AcDbXrecord
280
     1
270
     1
271
     1
  0
XRECORD
  5
3152
102
{ACAD_REACTORS
330
314E
102
}
330
314E
100
AcDbXrecord
280
     1
270
     1
271
     1
  0
XRECORD
  5
3154
102
{ACAD_REACTORS
330
314E
102
}
330
314E
100
AcDbXrecord
280
     1
270
     1
271
     1
  0
XRECORD
  5
3151
102
{ACAD_REACTORS
330
314E
102
}
330
314E
100
AcDbXrecord
280
     1
270
     1
271
     1
  0
XRECORD
  5
3898
102
{ACAD_REACTORS
330
3146
102
}
330
3146
100
AcDbXrecord
280
     1
102
MATERIAL
148
0.0
149
0.0
149
0.0
 93
        0
 94
      127
282
     0
 72
     0
 77
     0
171
     0
175
     0
179
     0
273
     0
  0
XRECORD
  5
3148
102
{ACAD_REACTORS
330
3146
102
}
330
3146
100
AcDbXrecord
280
     1
270
     1
271
     1
  0
XRECORD
  5
3147
102
{ACAD_REACTORS
330
3146
102
}
330
3146
100
AcDbXrecord
280
     1
270
     1
271
     1
  0
XRECORD
  5
314B
102
{ACAD_REACTORS
330
3146
102
}
330
3146
100
AcDbXrecord
280
     1
270
     1
271
     1
  0
XRECORD
  5
314A
102
{ACAD_REACTORS
330
3146
102
}
330
3146
100
AcDbXrecord
280
     1
270
     1
271
     1
  0
XRECORD
  5
314C
102
{ACAD_REACTORS
330
3146
102
}
330
3146
100
AcDbXrecord
280
     1
270
     1
271
     1
  0
XRECORD
  5
3149
102
{ACAD_REACTORS
330
3146
102
}
330
3146
100
AcDbXrecord
280
     1
270
     1
271
     1
  0
XRECORD
  5
389A
102
{ACAD_REACTORS
330
3156
102
}
330
3156
100
AcDbXrecord
280
     1
102
MATERIAL
148
0.0
149
0.0
149
0.0
 93
        0
 94
      127
282
     0
 72
     0
 77
     0
171
     0
175
     0
179
     0
273
     0
  0
XRECORD
  5
3158
102
{ACAD_REACTORS
330
3156
102
}
330
3156
100
AcDbXrecord
280
     1
270
     1
271
     1
  0
XRECORD
  5
3157
102
{ACAD_REACTORS
330
3156
102
}
330
3156
100
AcDbXrecord
280
     1
270
     1
271
     1
  0
XRECORD
  5
315B
102
{ACAD_REACTORS
330
3156
102
}
330
3156
100
AcDbXrecord
280
     1
270
     1
271
     1
  0
XRECORD
  5
315A
102
{ACAD_REACTORS
330
3156
102
}
330
3156
100
AcDbXrecord
280
     1
270
     1
271
     1
  0
XRECORD
  5
315C
102
{ACAD_REACTORS
330
3156
102
}
330
3156
100
AcDbXrecord
280
     1
270
     1
271
     1
  0
XRECORD
  5
3159
102
{ACAD_REACTORS
330
3156
102
}
330
3156
100
AcDbXrecord
280
     1
270
     1
271
     1
  0
XRECORD
  5
38CD
102
{ACAD_REACTORS
330
38CC
102
}
330
38CC
100
AcDbXrecord
280
     1
102
ACAD_ROUNDTRIP_2012_MLEADER_STYLE
298
     1
  0
CELLSTYLEMAP
  5
3896
102
{ACAD_REACTORS
330
3387
102
}
330
3387
100
AcDbCellStyleMap
 90
        3
300
CELLSTYLE
  1
TABLEFORMAT_BEGIN
 90
        5
170
     1
 91
        0
 92
    32768
 62
   257
 93
        1
300
CONTENTFORMAT
  1
CONTENTFORMAT_BEGIN
 90
        0
 91
        0
 92
      512
 93
        0
300

 40
0.0
140
1.0
 94
        5
 62
     0
340
10F4
144
0.25
309
CONTENTFORMAT_END
171
     0
 94
        0
309
TABLEFORMAT_END
  1
CELLSTYLE_BEGIN
 90
        1
 91
        1
300
_TITLE
309
CELLSTYLE_END
300
CELLSTYLE
  1
TABLEFORMAT_BEGIN
 90
        5
170
     1
 91
        0
 92
        0
 62
   257
 93
        1
300
CONTENTFORMAT
  1
CONTENTFORMAT_BEGIN
 90
        0
 91
        0
 92
      512
 93
        0
300

 40
0.0
140
1.0
 94
        5
 62
     0
340
10F4
144
0.18
309
CONTENTFORMAT_END
171
     0
 94
        0
309
TABLEFORMAT_END
  1
CELLSTYLE_BEGIN
 90
        2
 91
        1
300
_HEADER
309
CELLSTYLE_END
300
CELLSTYLE
  1
TABLEFORMAT_BEGIN
 90
        5
170
     1
 91
        0
 92
        0
 62
   257
 93
        1
300
CONTENTFORMAT
  1
CONTENTFORMAT_BEGIN
 90
        0
 91
        0
 92
      512
 93
        0
300

 40
0.0
140
1.0
 94
        2
 62
     0
340
10F4
144
0.18
309
CONTENTFORMAT_END
171
     0
 94
        0
309
TABLEFORMAT_END
  1
CELLSTYLE_BEGIN
 90
        3
 91
        2
300
_DATA
309
CELLSTYLE_END
  0
XRECORD
  5
38CB
102
{ACAD_REACTORS
330
3387
102
}
330
3387
100
AcDbXrecord
280
     1
102
ACAD_ROUNDTRIP_PRE2007_TABLESTYLE
 90
      512
 91
        0
  1

 92
      512
 93
        0
  2

 94
      512
 95
        0
  3

  0
XRECORD
  5
38A6
102
{ACAD_REACTORS
330
38A5
102
}
330
38A5
100
AcDbXrecord
280
     1
102
RTVSPost2010Prop28
280
     1
102
RTVSPost2010PropOp28
 70
     1
102
RTVSPost2010Prop29
280
     1
102
RTVSPost2010PropOp29
 70
     1
102
RTVSPost2010Prop30
280
     0
102
RTVSPost2010PropOp30
 70
     1
102
RTVSPost2010Prop31
280
     0
102
RTVSPost2010PropOp31
 70
     1
102
RTVSPost2010Prop32
280
     0
102
RTVSPost2010PropOp32
 70
     1
102
RTVSPost2010Prop33
280
     0
102
RTVSPost2010PropOp33
 70
     1
102
RTVSPost2010Prop34
280
     0
102
RTVSPost2010PropOp34
 70
     1
102
RTVSPost2010Prop35
280
     0
102
RTVSPost2010PropOp35
 70
     1
102
RTVSPost2010Prop36
280
     0
102
RTVSPost2010PropOp36
 70
     1
102
RTVSPost2010Prop37
 90
       50
102
RTVSPost2010PropOp37
 70
     1
102
RTVSPost2010Prop38
140
0.0
102
RTVSPost2010PropOp38
 70
     1
102
RTVSPost2010Prop39
140
1.0
102
RTVSPost2010PropOp39
 70
     1
102
RTVSPost2010Prop40
 90
        0
102
RTVSPost2010PropOp40
 70
     1
102
RTVSPost2010Prop41ColorIndex
 90
       18
102
RTVSPost2010Prop41ColorRGB
 90
        0
102
RTVSPost2010PropOp41
 70
     1
102
RTVSPost2010Prop42
 90
       50
102
RTVSPost2010PropOp42
 70
     1
102
RTVSPost2010Prop43
 90
        3
102
RTVSPost2010PropOp43
 70
     1
102
RTVSPost2010Prop44ColorIndex
 90
        5
102
RTVSPost2010Prop44ColorRGB
 90
      255
102
RTVSPost2010PropOp44
 70
     1
102
RTVSPost2010Prop45
280
     0
102
RTVSPost2010PropOp45
 70
     1
102
RTVSPost2010Prop46
 90
       50
102
RTVSPost2010PropOp46
 70
     1
102
RTVSPost2010Prop47
 90
       50
102
RTVSPost2010PropOp47
 70
     1
102
RTVSPost2010Prop48
 90
       50
102
RTVSPost2010PropOp48
 70
     1
102
RTVSPost2010Prop49
280
     0
102
RTVSPost2010PropOp49
 70
     1
102
RTVSPost2010Prop50
 90
       50
102
RTVSPost2010PropOp50
 70
     1
102
RTVSPost2010Prop51ColorIndex
 90
      256
102
RTVSPost2010Prop51ColorRGB
 90
-16777216
102
RTVSPost2010PropOp51
 70
     0
102
RTVSPost2010Prop52
140
1.0
102
RTVSPost2010PropOp52
 70
     0
102
RTVSPost2010Prop53
 90
        2
102
RTVSPost2010PropOp53
 70
     1
102
RTVSPost2010Prop54
  1
strokes_ogs.tif
102
RTVSPost2010PropOp54
 70
     1
102
RTVSPost2010Prop55
280
     0
102
RTVSPost2010PropOp55
 70
     1
102
RTVSPost2010Prop56
140
1.0
102
RTVSPost2010PropOp56
 70
     1
102
RTVSPost2010Prop57
140
1.0
102
RTVSPost2010PropOp57
 70
     1
102
RTVSPropertyOp0
 70
     1
102
RTVSPropertyOp1
 70
     1
102
RTVSPropertyOp2
 70
     1
102
RTVSPropertyOp3
 70
     1
102
RTVSPropertyOp4
 70
     1
102
RTVSPropertyOp5
 70
     1
102
RTVSPropertyOp6
 70
     1
102
RTVSPropertyOp7
 70
     1
102
RTVSPropertyOp8
 70
     1
102
RTVSPropertyOp9
 70
     1
102
RTVSPropertyOp10
 70
     1
102
RTVSPropertyOp11
 70
     1
102
RTVSPropertyOp12
 70
     1
102
RTVSPropertyOp13
 70
     1
102
RTVSPropertyOp14
 70
     1
102
RTVSPropertyOp15
 70
     1
102
RTVSPropertyOp16
 70
     1
102
RTVSPropertyOp17
 70
     1
102
RTVSPropertyOp18
 70
     1
102
RTVSPropertyOp19
 70
     1
102
RTVSPropertyOp20
 70
     1
102
RTVSPropertyOp21
 70
     1
102
RTVSPropertyOp22
 70
     1
102
RTVSPropertyOp23
 70
     1
102
RTVSPropertyOp24
 70
     1
102
RTVSPropertyOp25
 70
     1
102
RTVSPropertyOp26
 70
     1
102
RTVSPropertyOp27
 70
     1
102
RTVSPropertyOp28
 70
     1
102
RTVSPropertyOp29
 70
     1
102
RTVSPropertyOp30
 70
     1
102
RTVSPropertyOp31
 70
     1
102
RTVSPropertyOp32
 70
     1
102
RTVSPropertyOp33
 70
     1
102
RTVSPropertyOp34
 70
     1
102
RTVSPropertyOp35
 70
     1
102
RTVSPropertyOp36
 70
     1
102
RTVSPropertyOp37
 70
     1
102
RTVSPropertyOp38
 70
     1
102
RTVSPropertyOp39
 70
     1
102
RTVSPropertyOp40
 70
     1
102
RTVSPropertyOp41
 70
     1
102
RTVSPropertyOp42
 70
     1
102
RTVSPropertyOp43
 70
     1
102
RTVSPropertyOp44
 70
     1
102
RTVSPropertyOp45
 70
     1
102
RTVSPropertyOp46
 70
     1
102
RTVSPropertyOp47
 70
     1
102
RTVSPropertyOp48
 70
     1
102
RTVSPropertyOp49
 70
     1
102
RTVSPropertyOp50
 70
     1
102
RTVSPropertyOp51
 70
     0
102
RTVSPropertyOp52
 70
     0
102
RTVSPropertyOp53
 70
     1
102
RTVSPropertyOp54
 70
     1
102
RTVSPropertyOp55
 70
     1
102
RTVSPropertyOp56
 70
     1
102
RTVSPropertyOp57
 70
     1
102
RTVSPropertyOp58
 70
     1
102
RTVSPropertyOp59
 70
     1
102
RTVSPropertyOp60
 70
     1
102
RTVSPropertyOp61
 70
     1
102
RTVSPropertyOp62
 70
     1
  0
XRECORD
  5
38A4
102
{ACAD_REACTORS
330
38A3
102
}
330
38A3
100
AcDbXrecord
280
     1
102
RTVSPost2010Prop28
280
     0
102
RTVSPost2010PropOp28
 70
     1
102
RTVSPost2010Prop29
280
     1
102
RTVSPost2010PropOp29
 70
     1
102
RTVSPost2010Prop30
280
     1
102
RTVSPost2010PropOp30
 70
     1
102
RTVSPost2010Prop31
280
     0
102
RTVSPost2010PropOp31
 70
     1
102
RTVSPost2010Prop32
280
     0
102
RTVSPost2010PropOp32
 70
     1
102
RTVSPost2010Prop33
280
     0
102
RTVSPost2010PropOp33
 70
     1
102
RTVSPost2010Prop34
280
     0
102
RTVSPost2010PropOp34
 70
     1
102
RTVSPost2010Prop35
280
     0
102
RTVSPost2010PropOp35
 70
     1
102
RTVSPost2010Prop36
280
     0
102
RTVSPost2010PropOp36
 70
     1
102
RTVSPost2010Prop37
 90
       50
102
RTVSPost2010PropOp37
 70
     1
102
RTVSPost2010Prop38
140
0.0
102
RTVSPost2010PropOp38
 70
     1
102
RTVSPost2010Prop39
140
1.0
102
RTVSPost2010PropOp39
 70
     1
102
RTVSPost2010Prop40
 90
        0
102
RTVSPost2010PropOp40
 70
     1
102
RTVSPost2010Prop41ColorIndex
 90
       18
102
RTVSPost2010Prop41ColorRGB
 90
        0
102
RTVSPost2010PropOp41
 70
     1
102
RTVSPost2010Prop42
 90
       50
102
RTVSPost2010PropOp42
 70
     1
102
RTVSPost2010Prop43
 90
        3
102
RTVSPost2010PropOp43
 70
     1
102
RTVSPost2010Prop44ColorIndex
 90
        5
102
RTVSPost2010Prop44ColorRGB
 90
      255
102
RTVSPost2010PropOp44
 70
     1
102
RTVSPost2010Prop45
280
     0
102
RTVSPost2010PropOp45
 70
     1
102
RTVSPost2010Prop46
 90
       50
102
RTVSPost2010PropOp46
 70
     1
102
RTVSPost2010Prop47
 90
       50
102
RTVSPost2010PropOp47
 70
     1
102
RTVSPost2010Prop48
 90
       50
102
RTVSPost2010PropOp48
 70
     1
102
RTVSPost2010Prop49
280
     0
102
RTVSPost2010PropOp49
 70
     1
102
RTVSPost2010Prop50
 90
       50
102
RTVSPost2010PropOp50
 70
     1
102
RTVSPost2010Prop51ColorIndex
 90
      256
102
RTVSPost2010Prop51ColorRGB
 90
-16777216
102
RTVSPost2010PropOp51
 70
     0
102
RTVSPost2010Prop52
140
1.0
102
RTVSPost2010PropOp52
 70
     0
102
RTVSPost2010Prop53
 90
        2
102
RTVSPost2010PropOp53
 70
     1
102
RTVSPost2010Prop54
  1
strokes_ogs.tif
102
RTVSPost2010PropOp54
 70
     1
102
RTVSPost2010Prop55
280
     0
102
RTVSPost2010PropOp55
 70
     1
102
RTVSPost2010Prop56
140
1.0
102
RTVSPost2010PropOp56
 70
     1
102
RTVSPost2010Prop57
140
1.0
102
RTVSPost2010PropOp57
 70
     1
102
RTVSPropertyOp0
 70
     1
102
RTVSPropertyOp1
 70
     1
102
RTVSPropertyOp2
 70
     1
102
RTVSPropertyOp3
 70
     1
102
RTVSPropertyOp4
 70
     1
102
RTVSPropertyOp5
 70
     1
102
RTVSPropertyOp6
 70
     1
102
RTVSPropertyOp7
 70
     1
102
RTVSPropertyOp8
 70
     1
102
RTVSPropertyOp9
 70
     1
102
RTVSPropertyOp10
 70
     1
102
RTVSPropertyOp11
 70
     1
102
RTVSPropertyOp12
 70
     1
102
RTVSPropertyOp13
 70
     1
102
RTVSPropertyOp14
 70
     1
102
RTVSPropertyOp15
 70
     1
102
RTVSPropertyOp16
 70
     1
102
RTVSPropertyOp17
 70
     1
102
RTVSPropertyOp18
 70
     1
102
RTVSPropertyOp19
 70
     1
102
RTVSPropertyOp20
 70
     1
102
RTVSPropertyOp21
 70
     1
102
RTVSPropertyOp22
 70
     1
102
RTVSPropertyOp23
 70
     1
102
RTVSPropertyOp24
 70
     1
102
RTVSPropertyOp25
 70
     1
102
RTVSPropertyOp26
 70
     1
102
RTVSPropertyOp27
 70
     1
102
RTVSPropertyOp28
 70
     1
102
RTVSPropertyOp29
 70
     1
102
RTVSPropertyOp30
 70
     1
102
RTVSPropertyOp31
 70
     1
102
RTVSPropertyOp32
 70
     1
102
RTVSPropertyOp33
 70
     1
102
RTVSPropertyOp34
 70
     1
102
RTVSPropertyOp35
 70
     1
102
RTVSPropertyOp36
 70
     1
102
RTVSPropertyOp37
 70
     1
102
RTVSPropertyOp38
 70
     1
102
RTVSPropertyOp39
 70
     1
102
RTVSPropertyOp40
 70
     1
102
RTVSPropertyOp41
 70
     1
102
RTVSPropertyOp42
 70
     1
102
RTVSPropertyOp43
 70
     1
102
RTVSPropertyOp44
 70
     1
102
RTVSPropertyOp45
 70
     1
102
RTVSPropertyOp46
 70
     1
102
RTVSPropertyOp47
 70
     1
102
RTVSPropertyOp48
 70
     1
102
RTVSPropertyOp49
 70
     1
102
RTVSPropertyOp50
 70
     1
102
RTVSPropertyOp51
 70
     0
102
RTVSPropertyOp52
 70
     0
102
RTVSPropertyOp53
 70
     1
102
RTVSPropertyOp54
 70
     1
102
RTVSPropertyOp55
 70
     1
102
RTVSPropertyOp56
 70
     1
102
RTVSPropertyOp57
 70
     1
102
RTVSPropertyOp58
 70
     1
102
RTVSPropertyOp59
 70
     1
102
RTVSPropertyOp60
 70
     1
102
RTVSPropertyOp61
 70
     1
102
RTVSPropertyOp62
 70
     1
  0
XRECORD
  5
38B2
102
{ACAD_REACTORS
330
38B1
102
}
330
38B1
100
AcDbXrecord
280
     1
102
RTVSPost2010Prop28
280
     0
102
RTVSPost2010PropOp28
 70
     1
102
RTVSPost2010Prop29
280
     1
102
RTVSPost2010PropOp29
 70
     1
102
RTVSPost2010Prop30
280
     1
102
RTVSPost2010PropOp30
 70
     1
102
RTVSPost2010Prop31
280
     0
102
RTVSPost2010PropOp31
 70
     1
102
RTVSPost2010Prop32
280
     0
102
RTVSPost2010PropOp32
 70
     1
102
RTVSPost2010Prop33
280
     0
102
RTVSPost2010PropOp33
 70
     1
102
RTVSPost2010Prop34
280
     0
102
RTVSPost2010PropOp34
 70
     1
102
RTVSPost2010Prop35
280
     0
102
RTVSPost2010PropOp35
 70
     1
102
RTVSPost2010Prop36
280
     0
102
RTVSPost2010PropOp36
 70
     1
102
RTVSPost2010Prop37
 90
       50
102
RTVSPost2010PropOp37
 70
     1
102
RTVSPost2010Prop38
140
0.0
102
RTVSPost2010PropOp38
 70
     1
102
RTVSPost2010Prop39
140
1.0
102
RTVSPost2010PropOp39
 70
     1
102
RTVSPost2010Prop40
 90
        0
102
RTVSPost2010PropOp40
 70
     1
102
RTVSPost2010Prop41ColorIndex
 90
       18
102
RTVSPost2010Prop41ColorRGB
 90
        0
102
RTVSPost2010PropOp41
 70
     1
102
RTVSPost2010Prop42
 90
       50
102
RTVSPost2010PropOp42
 70
     1
102
RTVSPost2010Prop43
 90
        3
102
RTVSPost2010PropOp43
 70
     1
102
RTVSPost2010Prop44ColorIndex
 90
        5
102
RTVSPost2010Prop44ColorRGB
 90
      255
102
RTVSPost2010PropOp44
 70
     1
102
RTVSPost2010Prop45
280
     0
102
RTVSPost2010PropOp45
 70
     1
102
RTVSPost2010Prop46
 90
       50
102
RTVSPost2010PropOp46
 70
     1
102
RTVSPost2010Prop47
 90
       50
102
RTVSPost2010PropOp47
 70
     1
102
RTVSPost2010Prop48
 90
       50
102
RTVSPost2010PropOp48
 70
     1
102
RTVSPost2010Prop49
280
     0
102
RTVSPost2010PropOp49
 70
     1
102
RTVSPost2010Prop50
 90
       50
102
RTVSPost2010PropOp50
 70
     1
102
RTVSPost2010Prop51ColorIndex
 90
      256
102
RTVSPost2010Prop51ColorRGB
 90
-16777216
102
RTVSPost2010PropOp51
 70
     0
102
RTVSPost2010Prop52
140
1.0
102
RTVSPost2010PropOp52
 70
     0
102
RTVSPost2010Prop53
 90
        2
102
RTVSPost2010PropOp53
 70
     1
102
RTVSPost2010Prop54
  1
strokes_ogs.tif
102
RTVSPost2010PropOp54
 70
     1
102
RTVSPost2010Prop55
280
     0
102
RTVSPost2010PropOp55
 70
     1
102
RTVSPost2010Prop56
140
1.0
102
RTVSPost2010PropOp56
 70
     1
102
RTVSPost2010Prop57
140
1.0
102
RTVSPost2010PropOp57
 70
     1
102
RTVSPropertyOp0
 70
     1
102
RTVSPropertyOp1
 70
     1
102
RTVSPropertyOp2
 70
     1
102
RTVSPropertyOp3
 70
     1
102
RTVSPropertyOp4
 70
     1
102
RTVSPropertyOp5
 70
     1
102
RTVSPropertyOp6
 70
     1
102
RTVSPropertyOp7
 70
     1
102
RTVSPropertyOp8
 70
     1
102
RTVSPropertyOp9
 70
     1
102
RTVSPropertyOp10
 70
     1
102
RTVSPropertyOp11
 70
     1
102
RTVSPropertyOp12
 70
     1
102
RTVSPropertyOp13
 70
     1
102
RTVSPropertyOp14
 70
     1
102
RTVSPropertyOp15
 70
     1
102
RTVSPropertyOp16
 70
     1
102
RTVSPropertyOp17
 70
     1
102
RTVSPropertyOp18
 70
     1
102
RTVSPropertyOp19
 70
     1
102
RTVSPropertyOp20
 70
     1
102
RTVSPropertyOp21
 70
     1
102
RTVSPropertyOp22
 70
     1
102
RTVSPropertyOp23
 70
     1
102
RTVSPropertyOp24
 70
     1
102
RTVSPropertyOp25
 70
     1
102
RTVSPropertyOp26
 70
     1
102
RTVSPropertyOp27
 70
     1
102
RTVSPropertyOp28
 70
     1
102
RTVSPropertyOp29
 70
     1
102
RTVSPropertyOp30
 70
     1
102
RTVSPropertyOp31
 70
     1
102
RTVSPropertyOp32
 70
     1
102
RTVSPropertyOp33
 70
     1
102
RTVSPropertyOp34
 70
     1
102
RTVSPropertyOp35
 70
     1
102
RTVSPropertyOp36
 70
     1
102
RTVSPropertyOp37
 70
     1
102
RTVSPropertyOp38
 70
     1
102
RTVSPropertyOp39
 70
     1
102
RTVSPropertyOp40
 70
     1
102
RTVSPropertyOp41
 70
     1
102
RTVSPropertyOp42
 70
     1
102
RTVSPropertyOp43
 70
     1
102
RTVSPropertyOp44
 70
     1
102
RTVSPropertyOp45
 70
     1
102
RTVSPropertyOp46
 70
     1
102
RTVSPropertyOp47
 70
     1
102
RTVSPropertyOp48
 70
     1
102
RTVSPropertyOp49
 70
     1
102
RTVSPropertyOp50
 70
     1
102
RTVSPropertyOp51
 70
     0
102
RTVSPropertyOp52
 70
     0
102
RTVSPropertyOp53
 70
     1
102
RTVSPropertyOp54
 70
     1
102
RTVSPropertyOp55
 70
     1
102
RTVSPropertyOp56
 70
     1
102
RTVSPropertyOp57
 70
     1
102
RTVSPropertyOp58
 70
     1
102
RTVSPropertyOp59
 70
     1
102
RTVSPropertyOp60
 70
     1
102
RTVSPropertyOp61
 70
     1
102
RTVSPropertyOp62
 70
     1
  0
XRECORD
  5
38BA
102
{ACAD_REACTORS
330
38B9
102
}
330
38B9
100
AcDbXrecord
280
     1
102
RTVSPost2010Prop28
280
     0
102
RTVSPost2010PropOp28
 70
     1
102
RTVSPost2010Prop29
280
     1
102
RTVSPost2010PropOp29
 70
     1
102
RTVSPost2010Prop30
280
     1
102
RTVSPost2010PropOp30
 70
     1
102
RTVSPost2010Prop31
280
     0
102
RTVSPost2010PropOp31
 70
     1
102
RTVSPost2010Prop32
280
     0
102
RTVSPost2010PropOp32
 70
     1
102
RTVSPost2010Prop33
280
     0
102
RTVSPost2010PropOp33
 70
     1
102
RTVSPost2010Prop34
280
     0
102
RTVSPost2010PropOp34
 70
     1
102
RTVSPost2010Prop35
280
     0
102
RTVSPost2010PropOp35
 70
     1
102
RTVSPost2010Prop36
280
     0
102
RTVSPost2010PropOp36
 70
     1
102
RTVSPost2010Prop37
 90
       50
102
RTVSPost2010PropOp37
 70
     1
102
RTVSPost2010Prop38
140
0.0
102
RTVSPost2010PropOp38
 70
     1
102
RTVSPost2010Prop39
140
1.0
102
RTVSPost2010PropOp39
 70
     1
102
RTVSPost2010Prop40
 90
        0
102
RTVSPost2010PropOp40
 70
     1
102
RTVSPost2010Prop41ColorIndex
 90
       18
102
RTVSPost2010Prop41ColorRGB
 90
        0
102
RTVSPost2010PropOp41
 70
     1
102
RTVSPost2010Prop42
 90
       50
102
RTVSPost2010PropOp42
 70
     1
102
RTVSPost2010Prop43
 90
        3
102
RTVSPost2010PropOp43
 70
     1
102
RTVSPost2010Prop44ColorIndex
 90
        5
102
RTVSPost2010Prop44ColorRGB
 90
      255
102
RTVSPost2010PropOp44
 70
     1
102
RTVSPost2010Prop45
280
     0
102
RTVSPost2010PropOp45
 70
     1
102
RTVSPost2010Prop46
 90
       50
102
RTVSPost2010PropOp46
 70
     1
102
RTVSPost2010Prop47
 90
       50
102
RTVSPost2010PropOp47
 70
     1
102
RTVSPost2010Prop48
 90
       50
102
RTVSPost2010PropOp48
 70
     1
102
RTVSPost2010Prop49
280
     0
102
RTVSPost2010PropOp49
 70
     1
102
RTVSPost2010Prop50
 90
       50
102
RTVSPost2010PropOp50
 70
     1
102
RTVSPost2010Prop51ColorIndex
 90
      256
102
RTVSPost2010Prop51ColorRGB
 90
-16777216
102
RTVSPost2010PropOp51
 70
     0
102
RTVSPost2010Prop52
140
1.0
102
RTVSPost2010PropOp52
 70
     0
102
RTVSPost2010Prop53
 90
        2
102
RTVSPost2010PropOp53
 70
     1
102
RTVSPost2010Prop54
  1
strokes_ogs.tif
102
RTVSPost2010PropOp54
 70
     1
102
RTVSPost2010Prop55
280
     0
102
RTVSPost2010PropOp55
 70
     1
102
RTVSPost2010Prop56
140
1.0
102
RTVSPost2010PropOp56
 70
     1
102
RTVSPost2010Prop57
140
1.0
102
RTVSPost2010PropOp57
 70
     1
102
RTVSPropertyOp0
 70
     1
102
RTVSPropertyOp1
 70
     1
102
RTVSPropertyOp2
 70
     1
102
RTVSPropertyOp3
 70
     1
102
RTVSPropertyOp4
 70
     1
102
RTVSPropertyOp5
 70
     1
102
RTVSPropertyOp6
 70
     1
102
RTVSPropertyOp7
 70
     1
102
RTVSPropertyOp8
 70
     1
102
RTVSPropertyOp9
 70
     1
102
RTVSPropertyOp10
 70
     1
102
RTVSPropertyOp11
 70
     1
102
RTVSPropertyOp12
 70
     1
102
RTVSPropertyOp13
 70
     1
102
RTVSPropertyOp14
 70
     1
102
RTVSPropertyOp15
 70
     1
102
RTVSPropertyOp16
 70
     1
102
RTVSPropertyOp17
 70
     1
102
RTVSPropertyOp18
 70
     1
102
RTVSPropertyOp19
 70
     1
102
RTVSPropertyOp20
 70
     1
102
RTVSPropertyOp21
 70
     1
102
RTVSPropertyOp22
 70
     1
102
RTVSPropertyOp23
 70
     1
102
RTVSPropertyOp24
 70
     1
102
RTVSPropertyOp25
 70
     1
102
RTVSPropertyOp26
 70
     1
102
RTVSPropertyOp27
 70
     1
102
RTVSPropertyOp28
 70
     1
102
RTVSPropertyOp29
 70
     1
102
RTVSPropertyOp30
 70
     1
102
RTVSPropertyOp31
 70
     1
102
RTVSPropertyOp32
 70
     1
102
RTVSPropertyOp33
 70
     1
102
RTVSPropertyOp34
 70
     1
102
RTVSPropertyOp35
 70
     1
102
RTVSPropertyOp36
 70
     1
102
RTVSPropertyOp37
 70
     1
102
RTVSPropertyOp38
 70
     1
102
RTVSPropertyOp39
 70
     1
102
RTVSPropertyOp40
 70
     1
102
RTVSPropertyOp41
 70
     1
102
RTVSPropertyOp42
 70
     1
102
RTVSPropertyOp43
 70
     1
102
RTVSPropertyOp44
 70
     1
102
RTVSPropertyOp45
 70
     1
102
RTVSPropertyOp46
 70
     1
102
RTVSPropertyOp47
 70
     1
102
RTVSPropertyOp48
 70
     1
102
RTVSPropertyOp49
 70
     1
102
RTVSPropertyOp50
 70
     1
102
RTVSPropertyOp51
 70
     0
102
RTVSPropertyOp52
 70
     0
102
RTVSPropertyOp53
 70
     1
102
RTVSPropertyOp54
 70
     1
102
RTVSPropertyOp55
 70
     1
102
RTVSPropertyOp56
 70
     1
102
RTVSPropertyOp57
 70
     1
102
RTVSPropertyOp58
 70
     1
102
RTVSPropertyOp59
 70
     1
102
RTVSPropertyOp60
 70
     1
102
RTVSPropertyOp61
 70
     1
102
RTVSPropertyOp62
 70
     1
  0
XRECORD
  5
38AC
102
{ACAD_REACTORS
330
38AB
102
}
330
38AB
100
AcDbXrecord
280
     1
102
RTVSPost2010Prop28
280
     0
102
RTVSPost2010PropOp28
 70
     1
102
RTVSPost2010Prop29
280
     1
102
RTVSPost2010PropOp29
 70
     1
102
RTVSPost2010Prop30
280
     1
102
RTVSPost2010PropOp30
 70
     1
102
RTVSPost2010Prop31
280
     0
102
RTVSPost2010PropOp31
 70
     1
102
RTVSPost2010Prop32
280
     0
102
RTVSPost2010PropOp32
 70
     1
102
RTVSPost2010Prop33
280
     0
102
RTVSPost2010PropOp33
 70
     1
102
RTVSPost2010Prop34
280
     0
102
RTVSPost2010PropOp34
 70
     1
102
RTVSPost2010Prop35
280
     0
102
RTVSPost2010PropOp35
 70
     1
102
RTVSPost2010Prop36
280
     0
102
RTVSPost2010PropOp36
 70
     1
102
RTVSPost2010Prop37
 90
       50
102
RTVSPost2010PropOp37
 70
     1
102
RTVSPost2010Prop38
140
0.0
102
RTVSPost2010PropOp38
 70
     1
102
RTVSPost2010Prop39
140
1.0
102
RTVSPost2010PropOp39
 70
     1
102
RTVSPost2010Prop40
 90
        0
102
RTVSPost2010PropOp40
 70
     1
102
RTVSPost2010Prop41ColorIndex
 90
       18
102
RTVSPost2010Prop41ColorRGB
 90
        0
102
RTVSPost2010PropOp41
 70
     1
102
RTVSPost2010Prop42
 90
       50
102
RTVSPost2010PropOp42
 70
     1
102
RTVSPost2010Prop43
 90
        3
102
RTVSPost2010PropOp43
 70
     1
102
RTVSPost2010Prop44ColorIndex
 90
        5
102
RTVSPost2010Prop44ColorRGB
 90
      255
102
RTVSPost2010PropOp44
 70
     1
102
RTVSPost2010Prop45
280
     0
102
RTVSPost2010PropOp45
 70
     1
102
RTVSPost2010Prop46
 90
       50
102
RTVSPost2010PropOp46
 70
     1
102
RTVSPost2010Prop47
 90
       50
102
RTVSPost2010PropOp47
 70
     1
102
RTVSPost2010Prop48
 90
       50
102
RTVSPost2010PropOp48
 70
     1
102
RTVSPost2010Prop49
280
     0
102
RTVSPost2010PropOp49
 70
     1
102
RTVSPost2010Prop50
 90
       50
102
RTVSPost2010PropOp50
 70
     1
102
RTVSPost2010Prop51ColorIndex
 90
      256
102
RTVSPost2010Prop51ColorRGB
 90
-16777216
102
RTVSPost2010PropOp51
 70
     0
102
RTVSPost2010Prop52
140
1.0
102
RTVSPost2010PropOp52
 70
     0
102
RTVSPost2010Prop53
 90
        2
102
RTVSPost2010PropOp53
 70
     1
102
RTVSPost2010Prop54
  1
strokes_ogs.tif
102
RTVSPost2010PropOp54
 70
     1
102
RTVSPost2010Prop55
280
     0
102
RTVSPost2010PropOp55
 70
     1
102
RTVSPost2010Prop56
140
1.0
102
RTVSPost2010PropOp56
 70
     1
102
RTVSPost2010Prop57
140
1.0
102
RTVSPost2010PropOp57
 70
     1
102
RTVSPropertyOp0
 70
     1
102
RTVSPropertyOp1
 70
     1
102
RTVSPropertyOp2
 70
     1
102
RTVSPropertyOp3
 70
     1
102
RTVSPropertyOp4
 70
     1
102
RTVSPropertyOp5
 70
     1
102
RTVSPropertyOp6
 70
     1
102
RTVSPropertyOp7
 70
     1
102
RTVSPropertyOp8
 70
     1
102
RTVSPropertyOp9
 70
     1
102
RTVSPropertyOp10
 70
     1
102
RTVSPropertyOp11
 70
     1
102
RTVSPropertyOp12
 70
     1
102
RTVSPropertyOp13
 70
     1
102
RTVSPropertyOp14
 70
     1
102
RTVSPropertyOp15
 70
     1
102
RTVSPropertyOp16
 70
     1
102
RTVSPropertyOp17
 70
     1
102
RTVSPropertyOp18
 70
     1
102
RTVSPropertyOp19
 70
     1
102
RTVSPropertyOp20
 70
     1
102
RTVSPropertyOp21
 70
     1
102
RTVSPropertyOp22
 70
     1
102
RTVSPropertyOp23
 70
     1
102
RTVSPropertyOp24
 70
     1
102
RTVSPropertyOp25
 70
     1
102
RTVSPropertyOp26
 70
     1
102
RTVSPropertyOp27
 70
     1
102
RTVSPropertyOp28
 70
     1
102
RTVSPropertyOp29
 70
     1
102
RTVSPropertyOp30
 70
     1
102
RTVSPropertyOp31
 70
     1
102
RTVSPropertyOp32
 70
     1
102
RTVSPropertyOp33
 70
     1
102
RTVSPropertyOp34
 70
     1
102
RTVSPropertyOp35
 70
     1
102
RTVSPropertyOp36
 70
     1
102
RTVSPropertyOp37
 70
     1
102
RTVSPropertyOp38
 70
     1
102
RTVSPropertyOp39
 70
     1
102
RTVSPropertyOp40
 70
     1
102
RTVSPropertyOp41
 70
     1
102
RTVSPropertyOp42
 70
     1
102
RTVSPropertyOp43
 70
     1
102
RTVSPropertyOp44
 70
     1
102
RTVSPropertyOp45
 70
     1
102
RTVSPropertyOp46
 70
     1
102
RTVSPropertyOp47
 70
     1
102
RTVSPropertyOp48
 70
     1
102
RTVSPropertyOp49
 70
     1
102
RTVSPropertyOp50
 70
     1
102
RTVSPropertyOp51
 70
     0
102
RTVSPropertyOp52
 70
     0
102
RTVSPropertyOp53
 70
     1
102
RTVSPropertyOp54
 70
     1
102
RTVSPropertyOp55
 70
     1
102
RTVSPropertyOp56
 70
     1
102
RTVSPropertyOp57
 70
     1
102
RTVSPropertyOp58
 70
     1
102
RTVSPropertyOp59
 70
     1
102
RTVSPropertyOp60
 70
     1
102
RTVSPropertyOp61
 70
     1
102
RTVSPropertyOp62
 70
     1
  0
XRECORD
  5
38B0
102
{ACAD_REACTORS
330
38AF
102
}
330
38AF
100
AcDbXrecord
280
     1
102
RTVSPost2010Prop28
280
     0
102
RTVSPost2010PropOp28
 70
     1
102
RTVSPost2010Prop29
280
     1
102
RTVSPost2010PropOp29
 70
     1
102
RTVSPost2010Prop30
280
     1
102
RTVSPost2010PropOp30
 70
     1
102
RTVSPost2010Prop31
280
     0
102
RTVSPost2010PropOp31
 70
     1
102
RTVSPost2010Prop32
280
     0
102
RTVSPost2010PropOp32
 70
     1
102
RTVSPost2010Prop33
280
     0
102
RTVSPost2010PropOp33
 70
     1
102
RTVSPost2010Prop34
280
     0
102
RTVSPost2010PropOp34
 70
     1
102
RTVSPost2010Prop35
280
     0
102
RTVSPost2010PropOp35
 70
     1
102
RTVSPost2010Prop36
280
     0
102
RTVSPost2010PropOp36
 70
     1
102
RTVSPost2010Prop37
 90
       50
102
RTVSPost2010PropOp37
 70
     1
102
RTVSPost2010Prop38
140
0.0
102
RTVSPost2010PropOp38
 70
     1
102
RTVSPost2010Prop39
140
1.0
102
RTVSPost2010PropOp39
 70
     1
102
RTVSPost2010Prop40
 90
        0
102
RTVSPost2010PropOp40
 70
     1
102
RTVSPost2010Prop41ColorIndex
 90
       18
102
RTVSPost2010Prop41ColorRGB
 90
        0
102
RTVSPost2010PropOp41
 70
     1
102
RTVSPost2010Prop42
 90
       50
102
RTVSPost2010PropOp42
 70
     1
102
RTVSPost2010Prop43
 90
        3
102
RTVSPost2010PropOp43
 70
     1
102
RTVSPost2010Prop44ColorIndex
 90
        5
102
RTVSPost2010Prop44ColorRGB
 90
      255
102
RTVSPost2010PropOp44
 70
     1
102
RTVSPost2010Prop45
280
     0
102
RTVSPost2010PropOp45
 70
     1
102
RTVSPost2010Prop46
 90
       50
102
RTVSPost2010PropOp46
 70
     1
102
RTVSPost2010Prop47
 90
       50
102
RTVSPost2010PropOp47
 70
     1
102
RTVSPost2010Prop48
 90
       50
102
RTVSPost2010PropOp48
 70
     1
102
RTVSPost2010Prop49
280
     0
102
RTVSPost2010PropOp49
 70
     1
102
RTVSPost2010Prop50
 90
       50
102
RTVSPost2010PropOp50
 70
     1
102
RTVSPost2010Prop51ColorIndex
 90
      256
102
RTVSPost2010Prop51ColorRGB
 90
-16777216
102
RTVSPost2010PropOp51
 70
     0
102
RTVSPost2010Prop52
140
1.0
102
RTVSPost2010PropOp52
 70
     0
102
RTVSPost2010Prop53
 90
        2
102
RTVSPost2010PropOp53
 70
     1
102
RTVSPost2010Prop54
  1
strokes_ogs.tif
102
RTVSPost2010PropOp54
 70
     1
102
RTVSPost2010Prop55
280
     0
102
RTVSPost2010PropOp55
 70
     1
102
RTVSPost2010Prop56
140
1.0
102
RTVSPost2010PropOp56
 70
     1
102
RTVSPost2010Prop57
140
1.0
102
RTVSPost2010PropOp57
 70
     1
102
RTVSPropertyOp0
 70
     1
102
RTVSPropertyOp1
 70
     1
102
RTVSPropertyOp2
 70
     1
102
RTVSPropertyOp3
 70
     1
102
RTVSPropertyOp4
 70
     1
102
RTVSPropertyOp5
 70
     1
102
RTVSPropertyOp6
 70
     1
102
RTVSPropertyOp7
 70
     1
102
RTVSPropertyOp8
 70
     1
102
RTVSPropertyOp9
 70
     1
102
RTVSPropertyOp10
 70
     1
102
RTVSPropertyOp11
 70
     1
102
RTVSPropertyOp12
 70
     1
102
RTVSPropertyOp13
 70
     1
102
RTVSPropertyOp14
 70
     1
102
RTVSPropertyOp15
 70
     1
102
RTVSPropertyOp16
 70
     1
102
RTVSPropertyOp17
 70
     1
102
RTVSPropertyOp18
 70
     1
102
RTVSPropertyOp19
 70
     1
102
RTVSPropertyOp20
 70
     1
102
RTVSPropertyOp21
 70
     1
102
RTVSPropertyOp22
 70
     1
102
RTVSPropertyOp23
 70
     1
102
RTVSPropertyOp24
 70
     1
102
RTVSPropertyOp25
 70
     1
102
RTVSPropertyOp26
 70
     1
102
RTVSPropertyOp27
 70
     1
102
RTVSPropertyOp28
 70
     1
102
RTVSPropertyOp29
 70
     1
102
RTVSPropertyOp30
 70
     1
102
RTVSPropertyOp31
 70
     1
102
RTVSPropertyOp32
 70
     1
102
RTVSPropertyOp33
 70
     1
102
RTVSPropertyOp34
 70
     1
102
RTVSPropertyOp35
 70
     1
102
RTVSPropertyOp36
 70
     1
102
RTVSPropertyOp37
 70
     1
102
RTVSPropertyOp38
 70
     1
102
RTVSPropertyOp39
 70
     1
102
RTVSPropertyOp40
 70
     1
102
RTVSPropertyOp41
 70
     1
102
RTVSPropertyOp42
 70
     1
102
RTVSPropertyOp43
 70
     1
102
RTVSPropertyOp44
 70
     1
102
RTVSPropertyOp45
 70
     1
102
RTVSPropertyOp46
 70
     1
102
RTVSPropertyOp47
 70
     1
102
RTVSPropertyOp48
 70
     1
102
RTVSPropertyOp49
 70
     1
102
RTVSPropertyOp50
 70
     1
102
RTVSPropertyOp51
 70
     0
102
RTVSPropertyOp52
 70
     0
102
RTVSPropertyOp53
 70
     1
102
RTVSPropertyOp54
 70
     1
102
RTVSPropertyOp55
 70
     1
102
RTVSPropertyOp56
 70
     1
102
RTVSPropertyOp57
 70
     1
102
RTVSPropertyOp58
 70
     1
102
RTVSPropertyOp59
 70
     1
102
RTVSPropertyOp60
 70
     1
102
RTVSPropertyOp61
 70
     1
102
RTVSPropertyOp62
 70
     1
  0
XRECORD
  5
38CA
102
{ACAD_REACTORS
330
38C9
102
}
330
38C9
100
AcDbXrecord
280
     1
102
RTVSPost2010Prop28
280
     0
102
RTVSPost2010PropOp28
 70
     0
102
RTVSPost2010Prop29
280
     1
102
RTVSPost2010PropOp29
 70
     0
102
RTVSPost2010Prop30
280
     1
102
RTVSPost2010PropOp30
 70
     0
102
RTVSPost2010Prop31
280
     0
102
RTVSPost2010PropOp31
 70
     0
102
RTVSPost2010Prop32
280
     0
102
RTVSPost2010PropOp32
 70
     0
102
RTVSPost2010Prop33
280
     0
102
RTVSPost2010PropOp33
 70
     0
102
RTVSPost2010Prop34
280
     0
102
RTVSPost2010PropOp34
 70
     0
102
RTVSPost2010Prop35
280
     0
102
RTVSPost2010PropOp35
 70
     0
102
RTVSPost2010Prop36
280
     0
102
RTVSPost2010PropOp36
 70
     0
102
RTVSPost2010Prop37
 90
       50
102
RTVSPost2010PropOp37
 70
     0
102
RTVSPost2010Prop38
140
0.0
102
RTVSPost2010PropOp38
 70
     0
102
RTVSPost2010Prop39
140
1.0
102
RTVSPost2010PropOp39
 70
     0
102
RTVSPost2010Prop40
 90
        0
102
RTVSPost2010PropOp40
 70
     0
102
RTVSPost2010Prop41ColorIndex
 90
       18
102
RTVSPost2010Prop41ColorRGB
 90
        0
102
RTVSPost2010PropOp41
 70
     0
102
RTVSPost2010Prop42
 90
       50
102
RTVSPost2010PropOp42
 70
     0
102
RTVSPost2010Prop43
 90
        3
102
RTVSPost2010PropOp43
 70
     0
102
RTVSPost2010Prop44ColorIndex
 90
        5
102
RTVSPost2010Prop44ColorRGB
 90
      255
102
RTVSPost2010PropOp44
 70
     0
102
RTVSPost2010Prop45
280
     0
102
RTVSPost2010PropOp45
 70
     0
102
RTVSPost2010Prop46
 90
       50
102
RTVSPost2010PropOp46
 70
     0
102
RTVSPost2010Prop47
 90
       50
102
RTVSPost2010PropOp47
 70
     0
102
RTVSPost2010Prop48
 90
       50
102
RTVSPost2010PropOp48
 70
     0
102
RTVSPost2010Prop49
280
     0
102
RTVSPost2010PropOp49
 70
     0
102
RTVSPost2010Prop50
 90
       50
102
RTVSPost2010PropOp50
 70
     0
102
RTVSPost2010Prop51ColorIndex
 90
      256
102
RTVSPost2010Prop51ColorRGB
 90
-16777216
102
RTVSPost2010PropOp51
 70
     0
102
RTVSPost2010Prop52
140
1.0
102
RTVSPost2010PropOp52
 70
     0
102
RTVSPost2010Prop53
 90
        2
102
RTVSPost2010PropOp53
 70
     0
102
RTVSPost2010Prop54
  1
strokes_ogs.tif
102
RTVSPost2010PropOp54
 70
     0
102
RTVSPost2010Prop55
280
     0
102
RTVSPost2010PropOp55
 70
     0
102
RTVSPost2010Prop56
140
1.0
102
RTVSPost2010PropOp56
 70
     0
102
RTVSPost2010Prop57
140
1.0
102
RTVSPost2010PropOp57
 70
     0
102
RTVSPropertyOp0
 70
     0
102
RTVSPropertyOp1
 70
     0
102
RTVSPropertyOp2
 70
     0
102
RTVSPropertyOp3
 70
     0
102
RTVSPropertyOp4
 70
     0
102
RTVSPropertyOp5
 70
     0
102
RTVSPropertyOp6
 70
     0
102
RTVSPropertyOp7
 70
     0
102
RTVSPropertyOp8
 70
     0
102
RTVSPropertyOp9
 70
     0
102
RTVSPropertyOp10
 70
     0
102
RTVSPropertyOp11
 70
     0
102
RTVSPropertyOp12
 70
     0
102
RTVSPropertyOp13
 70
     0
102
RTVSPropertyOp14
 70
     2
102
RTVSPropertyOp15
 70
     0
102
RTVSPropertyOp16
 70
     0
102
RTVSPropertyOp17
 70
     0
102
RTVSPropertyOp18
 70
     0
102
RTVSPropertyOp19
 70
     0
102
RTVSPropertyOp20
 70
     0
102
RTVSPropertyOp21
 70
     0
102
RTVSPropertyOp22
 70
     0
102
RTVSPropertyOp23
 70
     0
102
RTVSPropertyOp24
 70
     0
102
RTVSPropertyOp25
 70
     0
102
RTVSPropertyOp26
 70
     0
102
RTVSPropertyOp27
 70
     0
102
RTVSPropertyOp28
 70
     0
102
RTVSPropertyOp29
 70
     0
102
RTVSPropertyOp30
 70
     0
102
RTVSPropertyOp31
 70
     0
102
RTVSPropertyOp32
 70
     0
102
RTVSPropertyOp33
 70
     0
102
RTVSPropertyOp34
 70
     0
102
RTVSPropertyOp35
 70
     0
102
RTVSPropertyOp36
 70
     0
102
RTVSPropertyOp37
 70
     0
102
RTVSPropertyOp38
 70
     0
102
RTVSPropertyOp39
 70
     0
102
RTVSPropertyOp40
 70
     0
102
RTVSPropertyOp41
 70
     0
102
RTVSPropertyOp42
 70
     0
102
RTVSPropertyOp43
 70
     0
102
RTVSPropertyOp44
 70
     0
102
RTVSPropertyOp45
 70
     0
102
RTVSPropertyOp46
 70
     0
102
RTVSPropertyOp47
 70
     0
102
RTVSPropertyOp48
 70
     0
102
RTVSPropertyOp49
 70
     0
102
RTVSPropertyOp50
 70
     0
102
RTVSPropertyOp51
 70
     0
102
RTVSPropertyOp52
 70
     0
102
RTVSPropertyOp53
 70
     0
102
RTVSPropertyOp54
 70
     0
102
RTVSPropertyOp55
 70
     0
102
RTVSPropertyOp56
 70
     0
102
RTVSPropertyOp57
 70
     0
102
RTVSPropertyOp58
 70
     0
102
RTVSPropertyOp59
 70
     0
102
RTVSPropertyOp60
 70
     0
102
RTVSPropertyOp61
 70
     0
102
RTVSPropertyOp62
 70
     0
  0
XRECORD
  5
38B8
102
{ACAD_REACTORS
330
38B7
102
}
330
38B7
100
AcDbXrecord
280
     1
102
RTVSPost2010Prop28
280
     0
102
RTVSPost2010PropOp28
 70
     1
102
RTVSPost2010Prop29
280
     1
102
RTVSPost2010PropOp29
 70
     1
102
RTVSPost2010Prop30
280
     1
102
RTVSPost2010PropOp30
 70
     1
102
RTVSPost2010Prop31
280
     0
102
RTVSPost2010PropOp31
 70
     1
102
RTVSPost2010Prop32
280
     0
102
RTVSPost2010PropOp32
 70
     1
102
RTVSPost2010Prop33
280
     0
102
RTVSPost2010PropOp33
 70
     1
102
RTVSPost2010Prop34
280
     0
102
RTVSPost2010PropOp34
 70
     1
102
RTVSPost2010Prop35
280
     0
102
RTVSPost2010PropOp35
 70
     1
102
RTVSPost2010Prop36
280
     0
102
RTVSPost2010PropOp36
 70
     1
102
RTVSPost2010Prop37
 90
       50
102
RTVSPost2010PropOp37
 70
     1
102
RTVSPost2010Prop38
140
0.0
102
RTVSPost2010PropOp38
 70
     1
102
RTVSPost2010Prop39
140
1.0
102
RTVSPost2010PropOp39
 70
     1
102
RTVSPost2010Prop40
 90
        0
102
RTVSPost2010PropOp40
 70
     1
102
RTVSPost2010Prop41ColorIndex
 90
       18
102
RTVSPost2010Prop41ColorRGB
 90
        0
102
RTVSPost2010PropOp41
 70
     1
102
RTVSPost2010Prop42
 90
       50
102
RTVSPost2010PropOp42
 70
     1
102
RTVSPost2010Prop43
 90
        3
102
RTVSPost2010PropOp43
 70
     1
102
RTVSPost2010Prop44ColorIndex
 90
        5
102
RTVSPost2010Prop44ColorRGB
 90
      255
102
RTVSPost2010PropOp44
 70
     1
102
RTVSPost2010Prop45
280
     0
102
RTVSPost2010PropOp45
 70
     1
102
RTVSPost2010Prop46
 90
       50
102
RTVSPost2010PropOp46
 70
     1
102
RTVSPost2010Prop47
 90
       50
102
RTVSPost2010PropOp47
 70
     1
102
RTVSPost2010Prop48
 90
       50
102
RTVSPost2010PropOp48
 70
     1
102
RTVSPost2010Prop49
280
     0
102
RTVSPost2010PropOp49
 70
     1
102
RTVSPost2010Prop50
 90
       50
102
RTVSPost2010PropOp50
 70
     1
102
RTVSPost2010Prop51ColorIndex
 90
      256
102
RTVSPost2010Prop51ColorRGB
 90
-16777216
102
RTVSPost2010PropOp51
 70
     0
102
RTVSPost2010Prop52
140
1.0
102
RTVSPost2010PropOp52
 70
     0
102
RTVSPost2010Prop53
 90
        2
102
RTVSPost2010PropOp53
 70
     1
102
RTVSPost2010Prop54
  1
strokes_ogs.tif
102
RTVSPost2010PropOp54
 70
     1
102
RTVSPost2010Prop55
280
     0
102
RTVSPost2010PropOp55
 70
     1
102
RTVSPost2010Prop56
140
1.0
102
RTVSPost2010PropOp56
 70
     1
102
RTVSPost2010Prop57
140
1.0
102
RTVSPost2010PropOp57
 70
     1
102
RTVSPropertyOp0
 70
     1
102
RTVSPropertyOp1
 70
     1
102
RTVSPropertyOp2
 70
     1
102
RTVSPropertyOp3
 70
     1
102
RTVSPropertyOp4
 70
     1
102
RTVSPropertyOp5
 70
     1
102
RTVSPropertyOp6
 70
     1
102
RTVSPropertyOp7
 70
     1
102
RTVSPropertyOp8
 70
     1
102
RTVSPropertyOp9
 70
     1
102
RTVSPropertyOp10
 70
     1
102
RTVSPropertyOp11
 70
     1
102
RTVSPropertyOp12
 70
     1
102
RTVSPropertyOp13
 70
     1
102
RTVSPropertyOp14
 70
     1
102
RTVSPropertyOp15
 70
     1
102
RTVSPropertyOp16
 70
     1
102
RTVSPropertyOp17
 70
     1
102
RTVSPropertyOp18
 70
     1
102
RTVSPropertyOp19
 70
     1
102
RTVSPropertyOp20
 70
     1
102
RTVSPropertyOp21
 70
     1
102
RTVSPropertyOp22
 70
     1
102
RTVSPropertyOp23
 70
     1
102
RTVSPropertyOp24
 70
     1
102
RTVSPropertyOp25
 70
     1
102
RTVSPropertyOp26
 70
     1
102
RTVSPropertyOp27
 70
     1
102
RTVSPropertyOp28
 70
     1
102
RTVSPropertyOp29
 70
     1
102
RTVSPropertyOp30
 70
     1
102
RTVSPropertyOp31
 70
     1
102
RTVSPropertyOp32
 70
     1
102
RTVSPropertyOp33
 70
     1
102
RTVSPropertyOp34
 70
     1
102
RTVSPropertyOp35
 70
     1
102
RTVSPropertyOp36
 70
     1
102
RTVSPropertyOp37
 70
     1
102
RTVSPropertyOp38
 70
     1
102
RTVSPropertyOp39
 70
     1
102
RTVSPropertyOp40
 70
     1
102
RTVSPropertyOp41
 70
     1
102
RTVSPropertyOp42
 70
     1
102
RTVSPropertyOp43
 70
     1
102
RTVSPropertyOp44
 70
     1
102
RTVSPropertyOp45
 70
     1
102
RTVSPropertyOp46
 70
     1
102
RTVSPropertyOp47
 70
     1
102
RTVSPropertyOp48
 70
     1
102
RTVSPropertyOp49
 70
     1
102
RTVSPropertyOp50
 70
     1
102
RTVSPropertyOp51
 70
     0
102
RTVSPropertyOp52
 70
     0
102
RTVSPropertyOp53
 70
     1
102
RTVSPropertyOp54
 70
     1
102
RTVSPropertyOp55
 70
     1
102
RTVSPropertyOp56
 70
     1
102
RTVSPropertyOp57
 70
     1
102
RTVSPropertyOp58
 70
     1
102
RTVSPropertyOp59
 70
     1
102
RTVSPropertyOp60
 70
     1
102
RTVSPropertyOp61
 70
     1
102
RTVSPropertyOp62
 70
     1
  0
XRECORD
  5
389C
102
{ACAD_REACTORS
330
389B
102
}
330
389B
100
AcDbXrecord
280
     1
102
RTVSPost2010Prop28
280
     0
102
RTVSPost2010PropOp28
 70
     1
102
RTVSPost2010Prop29
280
     1
102
RTVSPost2010PropOp29
 70
     1
102
RTVSPost2010Prop30
280
     1
102
RTVSPost2010PropOp30
 70
     1
102
RTVSPost2010Prop31
280
     0
102
RTVSPost2010PropOp31
 70
     1
102
RTVSPost2010Prop32
280
     0
102
RTVSPost2010PropOp32
 70
     1
102
RTVSPost2010Prop33
280
     0
102
RTVSPost2010PropOp33
 70
     1
102
RTVSPost2010Prop34
280
     0
102
RTVSPost2010PropOp34
 70
     1
102
RTVSPost2010Prop35
280
     0
102
RTVSPost2010PropOp35
 70
     1
102
RTVSPost2010Prop36
280
     0
102
RTVSPost2010PropOp36
 70
     1
102
RTVSPost2010Prop37
 90
       50
102
RTVSPost2010PropOp37
 70
     1
102
RTVSPost2010Prop38
140
0.0
102
RTVSPost2010PropOp38
 70
     1
102
RTVSPost2010Prop39
140
1.0
102
RTVSPost2010PropOp39
 70
     1
102
RTVSPost2010Prop40
 90
        0
102
RTVSPost2010PropOp40
 70
     1
102
RTVSPost2010Prop41ColorIndex
 90
       18
102
RTVSPost2010Prop41ColorRGB
 90
        0
102
RTVSPost2010PropOp41
 70
     1
102
RTVSPost2010Prop42
 90
       50
102
RTVSPost2010PropOp42
 70
     1
102
RTVSPost2010Prop43
 90
        3
102
RTVSPost2010PropOp43
 70
     1
102
RTVSPost2010Prop44ColorIndex
 90
        5
102
RTVSPost2010Prop44ColorRGB
 90
      255
102
RTVSPost2010PropOp44
 70
     1
102
RTVSPost2010Prop45
280
     0
102
RTVSPost2010PropOp45
 70
     1
102
RTVSPost2010Prop46
 90
       50
102
RTVSPost2010PropOp46
 70
     1
102
RTVSPost2010Prop47
 90
       50
102
RTVSPost2010PropOp47
 70
     1
102
RTVSPost2010Prop48
 90
       50
102
RTVSPost2010PropOp48
 70
     1
102
RTVSPost2010Prop49
280
     0
102
RTVSPost2010PropOp49
 70
     1
102
RTVSPost2010Prop50
 90
       50
102
RTVSPost2010PropOp50
 70
     1
102
RTVSPost2010Prop51ColorIndex
 90
      256
102
RTVSPost2010Prop51ColorRGB
 90
-16777216
102
RTVSPost2010PropOp51
 70
     0
102
RTVSPost2010Prop52
140
1.0
102
RTVSPost2010PropOp52
 70
     0
102
RTVSPost2010Prop53
 90
        2
102
RTVSPost2010PropOp53
 70
     1
102
RTVSPost2010Prop54
  1
strokes_ogs.tif
102
RTVSPost2010PropOp54
 70
     1
102
RTVSPost2010Prop55
280
     0
102
RTVSPost2010PropOp55
 70
     1
102
RTVSPost2010Prop56
140
1.0
102
RTVSPost2010PropOp56
 70
     1
102
RTVSPost2010Prop57
140
1.0
102
RTVSPost2010PropOp57
 70
     1
102
RTVSPropertyOp0
 70
     1
102
RTVSPropertyOp1
 70
     1
102
RTVSPropertyOp2
 70
     1
102
RTVSPropertyOp3
 70
     1
102
RTVSPropertyOp4
 70
     1
102
RTVSPropertyOp5
 70
     1
102
RTVSPropertyOp6
 70
     1
102
RTVSPropertyOp7
 70
     1
102
RTVSPropertyOp8
 70
     1
102
RTVSPropertyOp9
 70
     1
102
RTVSPropertyOp10
 70
     1
102
RTVSPropertyOp11
 70
     1
102
RTVSPropertyOp12
 70
     1
102
RTVSPropertyOp13
 70
     1
102
RTVSPropertyOp14
 70
     1
102
RTVSPropertyOp15
 70
     1
102
RTVSPropertyOp16
 70
     1
102
RTVSPropertyOp17
 70
     1
102
RTVSPropertyOp18
 70
     1
102
RTVSPropertyOp19
 70
     1
102
RTVSPropertyOp20
 70
     1
102
RTVSPropertyOp21
 70
     1
102
RTVSPropertyOp22
 70
     1
102
RTVSPropertyOp23
 70
     1
102
RTVSPropertyOp24
 70
     1
102
RTVSPropertyOp25
 70
     1
102
RTVSPropertyOp26
 70
     1
102
RTVSPropertyOp27
 70
     1
102
RTVSPropertyOp28
 70
     1
102
RTVSPropertyOp29
 70
     1
102
RTVSPropertyOp30
 70
     1
102
RTVSPropertyOp31
 70
     1
102
RTVSPropertyOp32
 70
     1
102
RTVSPropertyOp33
 70
     1
102
RTVSPropertyOp34
 70
     1
102
RTVSPropertyOp35
 70
     1
102
RTVSPropertyOp36
 70
     1
102
RTVSPropertyOp37
 70
     1
102
RTVSPropertyOp38
 70
     1
102
RTVSPropertyOp39
 70
     1
102
RTVSPropertyOp40
 70
     1
102
RTVSPropertyOp41
 70
     1
102
RTVSPropertyOp42
 70
     1
102
RTVSPropertyOp43
 70
     1
102
RTVSPropertyOp44
 70
     1
102
RTVSPropertyOp45
 70
     1
102
RTVSPropertyOp46
 70
     1
102
RTVSPropertyOp47
 70
     1
102
RTVSPropertyOp48
 70
     1
102
RTVSPropertyOp49
 70
     1
102
RTVSPropertyOp50
 70
     1
102
RTVSPropertyOp51
 70
     0
102
RTVSPropertyOp52
 70
     0
102
RTVSPropertyOp53
 70
     1
102
RTVSPropertyOp54
 70
     1
102
RTVSPropertyOp55
 70
     1
102
RTVSPropertyOp56
 70
     1
102
RTVSPropertyOp57
 70
     1
102
RTVSPropertyOp58
 70
     1
102
RTVSPropertyOp59
 70
     1
102
RTVSPropertyOp60
 70
     1
102
RTVSPropertyOp61
 70
     1
102
RTVSPropertyOp62
 70
     1
  0
XRECORD
  5
389E
102
{ACAD_REACTORS
330
389D
102
}
330
389D
100
AcDbXrecord
280
     1
102
RTVSPost2010Prop28
280
     0
102
RTVSPost2010PropOp28
 70
     1
102
RTVSPost2010Prop29
280
     1
102
RTVSPost2010PropOp29
 70
     1
102
RTVSPost2010Prop30
280
     1
102
RTVSPost2010PropOp30
 70
     1
102
RTVSPost2010Prop31
280
     0
102
RTVSPost2010PropOp31
 70
     1
102
RTVSPost2010Prop32
280
     0
102
RTVSPost2010PropOp32
 70
     1
102
RTVSPost2010Prop33
280
     0
102
RTVSPost2010PropOp33
 70
     1
102
RTVSPost2010Prop34
280
     0
102
RTVSPost2010PropOp34
 70
     1
102
RTVSPost2010Prop35
280
     0
102
RTVSPost2010PropOp35
 70
     1
102
RTVSPost2010Prop36
280
     0
102
RTVSPost2010PropOp36
 70
     1
102
RTVSPost2010Prop37
 90
       50
102
RTVSPost2010PropOp37
 70
     1
102
RTVSPost2010Prop38
140
0.0
102
RTVSPost2010PropOp38
 70
     1
102
RTVSPost2010Prop39
140
1.0
102
RTVSPost2010PropOp39
 70
     1
102
RTVSPost2010Prop40
 90
        0
102
RTVSPost2010PropOp40
 70
     1
102
RTVSPost2010Prop41ColorIndex
 90
       18
102
RTVSPost2010Prop41ColorRGB
 90
        0
102
RTVSPost2010PropOp41
 70
     1
102
RTVSPost2010Prop42
 90
       50
102
RTVSPost2010PropOp42
 70
     1
102
RTVSPost2010Prop43
 90
        3
102
RTVSPost2010PropOp43
 70
     1
102
RTVSPost2010Prop44ColorIndex
 90
        5
102
RTVSPost2010Prop44ColorRGB
 90
      255
102
RTVSPost2010PropOp44
 70
     1
102
RTVSPost2010Prop45
280
     0
102
RTVSPost2010PropOp45
 70
     1
102
RTVSPost2010Prop46
 90
       50
102
RTVSPost2010PropOp46
 70
     1
102
RTVSPost2010Prop47
 90
       50
102
RTVSPost2010PropOp47
 70
     1
102
RTVSPost2010Prop48
 90
       50
102
RTVSPost2010PropOp48
 70
     1
102
RTVSPost2010Prop49
280
     0
102
RTVSPost2010PropOp49
 70
     1
102
RTVSPost2010Prop50
 90
       50
102
RTVSPost2010PropOp50
 70
     1
102
RTVSPost2010Prop51ColorIndex
 90
      256
102
RTVSPost2010Prop51ColorRGB
 90
-16777216
102
RTVSPost2010PropOp51
 70
     0
102
RTVSPost2010Prop52
140
1.0
102
RTVSPost2010PropOp52
 70
     0
102
RTVSPost2010Prop53
 90
        2
102
RTVSPost2010PropOp53
 70
     1
102
RTVSPost2010Prop54
  1
strokes_ogs.tif
102
RTVSPost2010PropOp54
 70
     1
102
RTVSPost2010Prop55
280
     0
102
RTVSPost2010PropOp55
 70
     1
102
RTVSPost2010Prop56
140
1.0
102
RTVSPost2010PropOp56
 70
     1
102
RTVSPost2010Prop57
140
1.0
102
RTVSPost2010PropOp57
 70
     1
102
RTVSPropertyOp0
 70
     1
102
RTVSPropertyOp1
 70
     1
102
RTVSPropertyOp2
 70
     1
102
RTVSPropertyOp3
 70
     1
102
RTVSPropertyOp4
 70
     1
102
RTVSPropertyOp5
 70
     1
102
RTVSPropertyOp6
 70
     1
102
RTVSPropertyOp7
 70
     1
102
RTVSPropertyOp8
 70
     1
102
RTVSPropertyOp9
 70
     1
102
RTVSPropertyOp10
 70
     1
102
RTVSPropertyOp11
 70
     1
102
RTVSPropertyOp12
 70
     1
102
RTVSPropertyOp13
 70
     1
102
RTVSPropertyOp14
 70
     1
102
RTVSPropertyOp15
 70
     1
102
RTVSPropertyOp16
 70
     1
102
RTVSPropertyOp17
 70
     1
102
RTVSPropertyOp18
 70
     1
102
RTVSPropertyOp19
 70
     1
102
RTVSPropertyOp20
 70
     1
102
RTVSPropertyOp21
 70
     1
102
RTVSPropertyOp22
 70
     1
102
RTVSPropertyOp23
 70
     1
102
RTVSPropertyOp24
 70
     1
102
RTVSPropertyOp25
 70
     1
102
RTVSPropertyOp26
 70
     1
102
RTVSPropertyOp27
 70
     1
102
RTVSPropertyOp28
 70
     1
102
RTVSPropertyOp29
 70
     1
102
RTVSPropertyOp30
 70
     1
102
RTVSPropertyOp31
 70
     1
102
RTVSPropertyOp32
 70
     1
102
RTVSPropertyOp33
 70
     1
102
RTVSPropertyOp34
 70
     1
102
RTVSPropertyOp35
 70
     1
102
RTVSPropertyOp36
 70
     1
102
RTVSPropertyOp37
 70
     1
102
RTVSPropertyOp38
 70
     1
102
RTVSPropertyOp39
 70
     1
102
RTVSPropertyOp40
 70
     1
102
RTVSPropertyOp41
 70
     1
102
RTVSPropertyOp42
 70
     1
102
RTVSPropertyOp43
 70
     1
102
RTVSPropertyOp44
 70
     1
102
RTVSPropertyOp45
 70
     1
102
RTVSPropertyOp46
 70
     1
102
RTVSPropertyOp47
 70
     1
102
RTVSPropertyOp48
 70
     1
102
RTVSPropertyOp49
 70
     1
102
RTVSPropertyOp50
 70
     1
102
RTVSPropertyOp51
 70
     0
102
RTVSPropertyOp52
 70
     0
102
RTVSPropertyOp53
 70
     1
102
RTVSPropertyOp54
 70
     1
102
RTVSPropertyOp55
 70
     1
102
RTVSPropertyOp56
 70
     1
102
RTVSPropertyOp57
 70
     1
102
RTVSPropertyOp58
 70
     1
102
RTVSPropertyOp59
 70
     1
102
RTVSPropertyOp60
 70
     1
102
RTVSPropertyOp61
 70
     1
102
RTVSPropertyOp62
 70
     1
  0
XRECORD
  5
38A0
102
{ACAD_REACTORS
330
389F
102
}
330
389F
100
AcDbXrecord
280
     1
102
RTVSPost2010Prop28
280
     0
102
RTVSPost2010PropOp28
 70
     1
102
RTVSPost2010Prop29
280
     1
102
RTVSPost2010PropOp29
 70
     1
102
RTVSPost2010Prop30
280
     1
102
RTVSPost2010PropOp30
 70
     1
102
RTVSPost2010Prop31
280
     0
102
RTVSPost2010PropOp31
 70
     1
102
RTVSPost2010Prop32
280
     0
102
RTVSPost2010PropOp32
 70
     1
102
RTVSPost2010Prop33
280
     0
102
RTVSPost2010PropOp33
 70
     1
102
RTVSPost2010Prop34
280
     0
102
RTVSPost2010PropOp34
 70
     1
102
RTVSPost2010Prop35
280
     0
102
RTVSPost2010PropOp35
 70
     1
102
RTVSPost2010Prop36
280
     0
102
RTVSPost2010PropOp36
 70
     1
102
RTVSPost2010Prop37
 90
       50
102
RTVSPost2010PropOp37
 70
     1
102
RTVSPost2010Prop38
140
0.0
102
RTVSPost2010PropOp38
 70
     1
102
RTVSPost2010Prop39
140
1.0
102
RTVSPost2010PropOp39
 70
     1
102
RTVSPost2010Prop40
 90
        0
102
RTVSPost2010PropOp40
 70
     1
102
RTVSPost2010Prop41ColorIndex
 90
       18
102
RTVSPost2010Prop41ColorRGB
 90
        0
102
RTVSPost2010PropOp41
 70
     1
102
RTVSPost2010Prop42
 90
       50
102
RTVSPost2010PropOp42
 70
     1
102
RTVSPost2010Prop43
 90
        3
102
RTVSPost2010PropOp43
 70
     1
102
RTVSPost2010Prop44ColorIndex
 90
        5
102
RTVSPost2010Prop44ColorRGB
 90
      255
102
RTVSPost2010PropOp44
 70
     1
102
RTVSPost2010Prop45
280
     0
102
RTVSPost2010PropOp45
 70
     1
102
RTVSPost2010Prop46
 90
       50
102
RTVSPost2010PropOp46
 70
     1
102
RTVSPost2010Prop47
 90
       50
102
RTVSPost2010PropOp47
 70
     1
102
RTVSPost2010Prop48
 90
       50
102
RTVSPost2010PropOp48
 70
     1
102
RTVSPost2010Prop49
280
     0
102
RTVSPost2010PropOp49
 70
     1
102
RTVSPost2010Prop50
 90
       50
102
RTVSPost2010PropOp50
 70
     1
102
RTVSPost2010Prop51ColorIndex
 90
      256
102
RTVSPost2010Prop51ColorRGB
 90
-16777216
102
RTVSPost2010PropOp51
 70
     0
102
RTVSPost2010Prop52
140
1.0
102
RTVSPost2010PropOp52
 70
     0
102
RTVSPost2010Prop53
 90
        2
102
RTVSPost2010PropOp53
 70
     1
102
RTVSPost2010Prop54
  1
strokes_ogs.tif
102
RTVSPost2010PropOp54
 70
     1
102
RTVSPost2010Prop55
280
     0
102
RTVSPost2010PropOp55
 70
     1
102
RTVSPost2010Prop56
140
1.0
102
RTVSPost2010PropOp56
 70
     1
102
RTVSPost2010Prop57
140
1.0
102
RTVSPost2010PropOp57
 70
     1
102
RTVSPropertyOp0
 70
     1
102
RTVSPropertyOp1
 70
     1
102
RTVSPropertyOp2
 70
     1
102
RTVSPropertyOp3
 70
     1
102
RTVSPropertyOp4
 70
     1
102
RTVSPropertyOp5
 70
     1
102
RTVSPropertyOp6
 70
     1
102
RTVSPropertyOp7
 70
     1
102
RTVSPropertyOp8
 70
     1
102
RTVSPropertyOp9
 70
     1
102
RTVSPropertyOp10
 70
     1
102
RTVSPropertyOp11
 70
     1
102
RTVSPropertyOp12
 70
     1
102
RTVSPropertyOp13
 70
     1
102
RTVSPropertyOp14
 70
     1
102
RTVSPropertyOp15
 70
     1
102
RTVSPropertyOp16
 70
     1
102
RTVSPropertyOp17
 70
     1
102
RTVSPropertyOp18
 70
     1
102
RTVSPropertyOp19
 70
     1
102
RTVSPropertyOp20
 70
     1
102
RTVSPropertyOp21
 70
     1
102
RTVSPropertyOp22
 70
     1
102
RTVSPropertyOp23
 70
     1
102
RTVSPropertyOp24
 70
     1
102
RTVSPropertyOp25
 70
     1
102
RTVSPropertyOp26
 70
     1
102
RTVSPropertyOp27
 70
     1
102
RTVSPropertyOp28
 70
     1
102
RTVSPropertyOp29
 70
     1
102
RTVSPropertyOp30
 70
     1
102
RTVSPropertyOp31
 70
     1
102
RTVSPropertyOp32
 70
     1
102
RTVSPropertyOp33
 70
     1
102
RTVSPropertyOp34
 70
     1
102
RTVSPropertyOp35
 70
     1
102
RTVSPropertyOp36
 70
     1
102
RTVSPropertyOp37
 70
     1
102
RTVSPropertyOp38
 70
     1
102
RTVSPropertyOp39
 70
     1
102
RTVSPropertyOp40
 70
     1
102
RTVSPropertyOp41
 70
     1
102
RTVSPropertyOp42
 70
     1
102
RTVSPropertyOp43
 70
     1
102
RTVSPropertyOp44
 70
     1
102
RTVSPropertyOp45
 70
     1
102
RTVSPropertyOp46
 70
     1
102
RTVSPropertyOp47
 70
     1
102
RTVSPropertyOp48
 70
     1
102
RTVSPropertyOp49
 70
     1
102
RTVSPropertyOp50
 70
     1
102
RTVSPropertyOp51
 70
     0
102
RTVSPropertyOp52
 70
     0
102
RTVSPropertyOp53
 70
     1
102
RTVSPropertyOp54
 70
     1
102
RTVSPropertyOp55
 70
     1
102
RTVSPropertyOp56
 70
     1
102
RTVSPropertyOp57
 70
     1
102
RTVSPropertyOp58
 70
     1
102
RTVSPropertyOp59
 70
     1
102
RTVSPropertyOp60
 70
     1
102
RTVSPropertyOp61
 70
     1
102
RTVSPropertyOp62
 70
     1
  0
XRECORD
  5
38A2
102
{ACAD_REACTORS
330
38A1
102
}
330
38A1
100
AcDbXrecord
280
     1
102
RTVSPost2010Prop28
280
     0
102
RTVSPost2010PropOp28
 70
     1
102
RTVSPost2010Prop29
280
     1
102
RTVSPost2010PropOp29
 70
     1
102
RTVSPost2010Prop30
280
     1
102
RTVSPost2010PropOp30
 70
     1
102
RTVSPost2010Prop31
280
     0
102
RTVSPost2010PropOp31
 70
     1
102
RTVSPost2010Prop32
280
     0
102
RTVSPost2010PropOp32
 70
     1
102
RTVSPost2010Prop33
280
     0
102
RTVSPost2010PropOp33
 70
     1
102
RTVSPost2010Prop34
280
     0
102
RTVSPost2010PropOp34
 70
     1
102
RTVSPost2010Prop35
280
     0
102
RTVSPost2010PropOp35
 70
     1
102
RTVSPost2010Prop36
280
     0
102
RTVSPost2010PropOp36
 70
     1
102
RTVSPost2010Prop37
 90
       50
102
RTVSPost2010PropOp37
 70
     1
102
RTVSPost2010Prop38
140
0.0
102
RTVSPost2010PropOp38
 70
     1
102
RTVSPost2010Prop39
140
1.0
102
RTVSPost2010PropOp39
 70
     1
102
RTVSPost2010Prop40
 90
        0
102
RTVSPost2010PropOp40
 70
     1
102
RTVSPost2010Prop41ColorIndex
 90
       18
102
RTVSPost2010Prop41ColorRGB
 90
        0
102
RTVSPost2010PropOp41
 70
     1
102
RTVSPost2010Prop42
 90
       50
102
RTVSPost2010PropOp42
 70
     1
102
RTVSPost2010Prop43
 90
        3
102
RTVSPost2010PropOp43
 70
     1
102
RTVSPost2010Prop44ColorIndex
 90
        5
102
RTVSPost2010Prop44ColorRGB
 90
      255
102
RTVSPost2010PropOp44
 70
     1
102
RTVSPost2010Prop45
280
     0
102
RTVSPost2010PropOp45
 70
     1
102
RTVSPost2010Prop46
 90
       50
102
RTVSPost2010PropOp46
 70
     1
102
RTVSPost2010Prop47
 90
       50
102
RTVSPost2010PropOp47
 70
     1
102
RTVSPost2010Prop48
 90
       50
102
RTVSPost2010PropOp48
 70
     1
102
RTVSPost2010Prop49
280
     0
102
RTVSPost2010PropOp49
 70
     1
102
RTVSPost2010Prop50
 90
       50
102
RTVSPost2010PropOp50
 70
     1
102
RTVSPost2010Prop51ColorIndex
 90
      256
102
RTVSPost2010Prop51ColorRGB
 90
-16777216
102
RTVSPost2010PropOp51
 70
     0
102
RTVSPost2010Prop52
140
1.0
102
RTVSPost2010PropOp52
 70
     0
102
RTVSPost2010Prop53
 90
        2
102
RTVSPost2010PropOp53
 70
     1
102
RTVSPost2010Prop54
  1
strokes_ogs.tif
102
RTVSPost2010PropOp54
 70
     1
102
RTVSPost2010Prop55
280
     0
102
RTVSPost2010PropOp55
 70
     1
102
RTVSPost2010Prop56
140
1.0
102
RTVSPost2010PropOp56
 70
     1
102
RTVSPost2010Prop57
140
1.0
102
RTVSPost2010PropOp57
 70
     1
102
RTVSPropertyOp0
 70
     1
102
RTVSPropertyOp1
 70
     1
102
RTVSPropertyOp2
 70
     1
102
RTVSPropertyOp3
 70
     1
102
RTVSPropertyOp4
 70
     1
102
RTVSPropertyOp5
 70
     1
102
RTVSPropertyOp6
 70
     1
102
RTVSPropertyOp7
 70
     1
102
RTVSPropertyOp8
 70
     1
102
RTVSPropertyOp9
 70
     1
102
RTVSPropertyOp10
 70
     1
102
RTVSPropertyOp11
 70
     1
102
RTVSPropertyOp12
 70
     1
102
RTVSPropertyOp13
 70
     1
102
RTVSPropertyOp14
 70
     1
102
RTVSPropertyOp15
 70
     1
102
RTVSPropertyOp16
 70
     1
102
RTVSPropertyOp17
 70
     1
102
RTVSPropertyOp18
 70
     1
102
RTVSPropertyOp19
 70
     1
102
RTVSPropertyOp20
 70
     1
102
RTVSPropertyOp21
 70
     1
102
RTVSPropertyOp22
 70
     1
102
RTVSPropertyOp23
 70
     1
102
RTVSPropertyOp24
 70
     1
102
RTVSPropertyOp25
 70
     1
102
RTVSPropertyOp26
 70
     1
102
RTVSPropertyOp27
 70
     1
102
RTVSPropertyOp28
 70
     1
102
RTVSPropertyOp29
 70
     1
102
RTVSPropertyOp30
 70
     1
102
RTVSPropertyOp31
 70
     1
102
RTVSPropertyOp32
 70
     1
102
RTVSPropertyOp33
 70
     1
102
RTVSPropertyOp34
 70
     1
102
RTVSPropertyOp35
 70
     1
102
RTVSPropertyOp36
 70
     1
102
RTVSPropertyOp37
 70
     1
102
RTVSPropertyOp38
 70
     1
102
RTVSPropertyOp39
 70
     1
102
RTVSPropertyOp40
 70
     1
102
RTVSPropertyOp41
 70
     1
102
RTVSPropertyOp42
 70
     1
102
RTVSPropertyOp43
 70
     1
102
RTVSPropertyOp44
 70
     1
102
RTVSPropertyOp45
 70
     1
102
RTVSPropertyOp46
 70
     1
102
RTVSPropertyOp47
 70
     1
102
RTVSPropertyOp48
 70
     1
102
RTVSPropertyOp49
 70
     1
102
RTVSPropertyOp50
 70
     1
102
RTVSPropertyOp51
 70
     0
102
RTVSPropertyOp52
 70
     0
102
RTVSPropertyOp53
 70
     1
102
RTVSPropertyOp54
 70
     1
102
RTVSPropertyOp55
 70
     1
102
RTVSPropertyOp56
 70
     1
102
RTVSPropertyOp57
 70
     1
102
RTVSPropertyOp58
 70
     1
102
RTVSPropertyOp59
 70
     1
102
RTVSPropertyOp60
 70
     1
102
RTVSPropertyOp61
 70
     1
102
RTVSPropertyOp62
 70
     1
  0
XRECORD
  5
38AA
102
{ACAD_REACTORS
330
38A9
102
}
330
38A9
100
AcDbXrecord
280
     1
102
RTVSPost2010Prop28
280
     0
102
RTVSPost2010PropOp28
 70
     1
102
RTVSPost2010Prop29
280
     1
102
RTVSPost2010PropOp29
 70
     1
102
RTVSPost2010Prop30
280
     1
102
RTVSPost2010PropOp30
 70
     1
102
RTVSPost2010Prop31
280
     0
102
RTVSPost2010PropOp31
 70
     1
102
RTVSPost2010Prop32
280
     0
102
RTVSPost2010PropOp32
 70
     1
102
RTVSPost2010Prop33
280
     0
102
RTVSPost2010PropOp33
 70
     1
102
RTVSPost2010Prop34
280
     0
102
RTVSPost2010PropOp34
 70
     1
102
RTVSPost2010Prop35
280
     0
102
RTVSPost2010PropOp35
 70
     1
102
RTVSPost2010Prop36
280
     0
102
RTVSPost2010PropOp36
 70
     1
102
RTVSPost2010Prop37
 90
       50
102
RTVSPost2010PropOp37
 70
     1
102
RTVSPost2010Prop38
140
0.0
102
RTVSPost2010PropOp38
 70
     1
102
RTVSPost2010Prop39
140
1.0
102
RTVSPost2010PropOp39
 70
     1
102
RTVSPost2010Prop40
 90
        0
102
RTVSPost2010PropOp40
 70
     1
102
RTVSPost2010Prop41ColorIndex
 90
       18
102
RTVSPost2010Prop41ColorRGB
 90
        0
102
RTVSPost2010PropOp41
 70
     1
102
RTVSPost2010Prop42
 90
       50
102
RTVSPost2010PropOp42
 70
     1
102
RTVSPost2010Prop43
 90
        3
102
RTVSPost2010PropOp43
 70
     1
102
RTVSPost2010Prop44ColorIndex
 90
        5
102
RTVSPost2010Prop44ColorRGB
 90
      255
102
RTVSPost2010PropOp44
 70
     1
102
RTVSPost2010Prop45
280
     0
102
RTVSPost2010PropOp45
 70
     1
102
RTVSPost2010Prop46
 90
       50
102
RTVSPost2010PropOp46
 70
     1
102
RTVSPost2010Prop47
 90
       50
102
RTVSPost2010PropOp47
 70
     1
102
RTVSPost2010Prop48
 90
       50
102
RTVSPost2010PropOp48
 70
     1
102
RTVSPost2010Prop49
280
     0
102
RTVSPost2010PropOp49
 70
     1
102
RTVSPost2010Prop50
 90
       50
102
RTVSPost2010PropOp50
 70
     1
102
RTVSPost2010Prop51ColorIndex
 90
      256
102
RTVSPost2010Prop51ColorRGB
 90
-16777216
102
RTVSPost2010PropOp51
 70
     0
102
RTVSPost2010Prop52
140
1.0
102
RTVSPost2010PropOp52
 70
     0
102
RTVSPost2010Prop53
 90
        2
102
RTVSPost2010PropOp53
 70
     1
102
RTVSPost2010Prop54
  1
strokes_ogs.tif
102
RTVSPost2010PropOp54
 70
     1
102
RTVSPost2010Prop55
280
     0
102
RTVSPost2010PropOp55
 70
     1
102
RTVSPost2010Prop56
140
1.0
102
RTVSPost2010PropOp56
 70
     1
102
RTVSPost2010Prop57
140
1.0
102
RTVSPost2010PropOp57
 70
     1
102
RTVSPropertyOp0
 70
     1
102
RTVSPropertyOp1
 70
     1
102
RTVSPropertyOp2
 70
     1
102
RTVSPropertyOp3
 70
     1
102
RTVSPropertyOp4
 70
     1
102
RTVSPropertyOp5
 70
     1
102
RTVSPropertyOp6
 70
     1
102
RTVSPropertyOp7
 70
     1
102
RTVSPropertyOp8
 70
     1
102
RTVSPropertyOp9
 70
     1
102
RTVSPropertyOp10
 70
     1
102
RTVSPropertyOp11
 70
     1
102
RTVSPropertyOp12
 70
     1
102
RTVSPropertyOp13
 70
     1
102
RTVSPropertyOp14
 70
     1
102
RTVSPropertyOp15
 70
     1
102
RTVSPropertyOp16
 70
     1
102
RTVSPropertyOp17
 70
     1
102
RTVSPropertyOp18
 70
     1
102
RTVSPropertyOp19
 70
     1
102
RTVSPropertyOp20
 70
     1
102
RTVSPropertyOp21
 70
     1
102
RTVSPropertyOp22
 70
     1
102
RTVSPropertyOp23
 70
     1
102
RTVSPropertyOp24
 70
     1
102
RTVSPropertyOp25
 70
     1
102
RTVSPropertyOp26
 70
     1
102
RTVSPropertyOp27
 70
     1
102
RTVSPropertyOp28
 70
     1
102
RTVSPropertyOp29
 70
     1
102
RTVSPropertyOp30
 70
     1
102
RTVSPropertyOp31
 70
     1
102
RTVSPropertyOp32
 70
     1
102
RTVSPropertyOp33
 70
     1
102
RTVSPropertyOp34
 70
     1
102
RTVSPropertyOp35
 70
     1
102
RTVSPropertyOp36
 70
     1
102
RTVSPropertyOp37
 70
     1
102
RTVSPropertyOp38
 70
     1
102
RTVSPropertyOp39
 70
     1
102
RTVSPropertyOp40
 70
     1
102
RTVSPropertyOp41
 70
     1
102
RTVSPropertyOp42
 70
     1
102
RTVSPropertyOp43
 70
     1
102
RTVSPropertyOp44
 70
     1
102
RTVSPropertyOp45
 70
     1
102
RTVSPropertyOp46
 70
     1
102
RTVSPropertyOp47
 70
     1
102
RTVSPropertyOp48
 70
     1
102
RTVSPropertyOp49
 70
     1
102
RTVSPropertyOp50
 70
     1
102
RTVSPropertyOp51
 70
     0
102
RTVSPropertyOp52
 70
     0
102
RTVSPropertyOp53
 70
     1
102
RTVSPropertyOp54
 70
     1
102
RTVSPropertyOp55
 70
     1
102
RTVSPropertyOp56
 70
     1
102
RTVSPropertyOp57
 70
     1
102
RTVSPropertyOp58
 70
     1
102
RTVSPropertyOp59
 70
     1
102
RTVSPropertyOp60
 70
     1
102
RTVSPropertyOp61
 70
     1
102
RTVSPropertyOp62
 70
     1
  0
XRECORD
  5
38C6
102
{ACAD_REACTORS
330
38C5
102
}
330
38C5
100
AcDbXrecord
280
     1
102
RTVSPost2010Prop28
280
     0
102
RTVSPost2010PropOp28
 70
     0
102
RTVSPost2010Prop29
280
     1
102
RTVSPost2010PropOp29
 70
     0
102
RTVSPost2010Prop30
280
     1
102
RTVSPost2010PropOp30
 70
     0
102
RTVSPost2010Prop31
280
     0
102
RTVSPost2010PropOp31
 70
     0
102
RTVSPost2010Prop32
280
     0
102
RTVSPost2010PropOp32
 70
     0
102
RTVSPost2010Prop33
280
     0
102
RTVSPost2010PropOp33
 70
     0
102
RTVSPost2010Prop34
280
     0
102
RTVSPost2010PropOp34
 70
     0
102
RTVSPost2010Prop35
280
     0
102
RTVSPost2010PropOp35
 70
     0
102
RTVSPost2010Prop36
280
     0
102
RTVSPost2010PropOp36
 70
     0
102
RTVSPost2010Prop37
 90
       50
102
RTVSPost2010PropOp37
 70
     0
102
RTVSPost2010Prop38
140
0.0
102
RTVSPost2010PropOp38
 70
     0
102
RTVSPost2010Prop39
140
1.0
102
RTVSPost2010PropOp39
 70
     0
102
RTVSPost2010Prop40
 90
        0
102
RTVSPost2010PropOp40
 70
     0
102
RTVSPost2010Prop41ColorIndex
 90
       18
102
RTVSPost2010Prop41ColorRGB
 90
        0
102
RTVSPost2010PropOp41
 70
     0
102
RTVSPost2010Prop42
 90
       50
102
RTVSPost2010PropOp42
 70
     0
102
RTVSPost2010Prop43
 90
        3
102
RTVSPost2010PropOp43
 70
     0
102
RTVSPost2010Prop44ColorIndex
 90
        5
102
RTVSPost2010Prop44ColorRGB
 90
      255
102
RTVSPost2010PropOp44
 70
     0
102
RTVSPost2010Prop45
280
     0
102
RTVSPost2010PropOp45
 70
     0
102
RTVSPost2010Prop46
 90
       50
102
RTVSPost2010PropOp46
 70
     0
102
RTVSPost2010Prop47
 90
       50
102
RTVSPost2010PropOp47
 70
     0
102
RTVSPost2010Prop48
 90
       50
102
RTVSPost2010PropOp48
 70
     0
102
RTVSPost2010Prop49
280
     0
102
RTVSPost2010PropOp49
 70
     0
102
RTVSPost2010Prop50
 90
       50
102
RTVSPost2010PropOp50
 70
     0
102
RTVSPost2010Prop51ColorIndex
 90
      256
102
RTVSPost2010Prop51ColorRGB
 90
-16777216
102
RTVSPost2010PropOp51
 70
     0
102
RTVSPost2010Prop52
140
1.0
102
RTVSPost2010PropOp52
 70
     0
102
RTVSPost2010Prop53
 90
        2
102
RTVSPost2010PropOp53
 70
     0
102
RTVSPost2010Prop54
  1
strokes_ogs.tif
102
RTVSPost2010PropOp54
 70
     0
102
RTVSPost2010Prop55
280
     0
102
RTVSPost2010PropOp55
 70
     0
102
RTVSPost2010Prop56
140
1.0
102
RTVSPost2010PropOp56
 70
     0
102
RTVSPost2010Prop57
140
1.0
102
RTVSPost2010PropOp57
 70
     0
102
RTVSPropertyOp0
 70
     0
102
RTVSPropertyOp1
 70
     0
102
RTVSPropertyOp2
 70
     0
102
RTVSPropertyOp3
 70
     0
102
RTVSPropertyOp4
 70
     0
102
RTVSPropertyOp5
 70
     0
102
RTVSPropertyOp6
 70
     0
102
RTVSPropertyOp7
 70
     0
102
RTVSPropertyOp8
 70
     0
102
RTVSPropertyOp9
 70
     0
102
RTVSPropertyOp10
 70
     0
102
RTVSPropertyOp11
 70
     0
102
RTVSPropertyOp12
 70
     0
102
RTVSPropertyOp13
 70
     0
102
RTVSPropertyOp14
 70
     2
102
RTVSPropertyOp15
 70
     0
102
RTVSPropertyOp16
 70
     0
102
RTVSPropertyOp17
 70
     0
102
RTVSPropertyOp18
 70
     0
102
RTVSPropertyOp19
 70
     0
102
RTVSPropertyOp20
 70
     0
102
RTVSPropertyOp21
 70
     0
102
RTVSPropertyOp22
 70
     0
102
RTVSPropertyOp23
 70
     0
102
RTVSPropertyOp24
 70
     0
102
RTVSPropertyOp25
 70
     0
102
RTVSPropertyOp26
 70
     0
102
RTVSPropertyOp27
 70
     0
102
RTVSPropertyOp28
 70
     0
102
RTVSPropertyOp29
 70
     0
102
RTVSPropertyOp30
 70
     0
102
RTVSPropertyOp31
 70
     0
102
RTVSPropertyOp32
 70
     0
102
RTVSPropertyOp33
 70
     0
102
RTVSPropertyOp34
 70
     0
102
RTVSPropertyOp35
 70
     0
102
RTVSPropertyOp36
 70
     0
102
RTVSPropertyOp37
 70
     0
102
RTVSPropertyOp38
 70
     0
102
RTVSPropertyOp39
 70
     0
102
RTVSPropertyOp40
 70
     0
102
RTVSPropertyOp41
 70
     0
102
RTVSPropertyOp42
 70
     0
102
RTVSPropertyOp43
 70
     0
102
RTVSPropertyOp44
 70
     0
102
RTVSPropertyOp45
 70
     0
102
RTVSPropertyOp46
 70
     0
102
RTVSPropertyOp47
 70
     0
102
RTVSPropertyOp48
 70
     0
102
RTVSPropertyOp49
 70
     0
102
RTVSPropertyOp50
 70
     0
102
RTVSPropertyOp51
 70
     0
102
RTVSPropertyOp52
 70
     0
102
RTVSPropertyOp53
 70
     0
102
RTVSPropertyOp54
 70
     0
102
RTVSPropertyOp55
 70
     0
102
RTVSPropertyOp56
 70
     0
102
RTVSPropertyOp57
 70
     0
102
RTVSPropertyOp58
 70
     0
102
RTVSPropertyOp59
 70
     0
102
RTVSPropertyOp60
 70
     0
102
RTVSPropertyOp61
 70
     0
102
RTVSPropertyOp62
 70
     0
  0
XRECORD
  5
38B6
102
{ACAD_REACTORS
330
38B5
102
}
330
38B5
100
AcDbXrecord
280
     1
102
RTVSPost2010Prop28
280
     0
102
RTVSPost2010PropOp28
 70
     1
102
RTVSPost2010Prop29
280
     1
102
RTVSPost2010PropOp29
 70
     1
102
RTVSPost2010Prop30
280
     1
102
RTVSPost2010PropOp30
 70
     1
102
RTVSPost2010Prop31
280
     0
102
RTVSPost2010PropOp31
 70
     1
102
RTVSPost2010Prop32
280
     0
102
RTVSPost2010PropOp32
 70
     1
102
RTVSPost2010Prop33
280
     0
102
RTVSPost2010PropOp33
 70
     1
102
RTVSPost2010Prop34
280
     0
102
RTVSPost2010PropOp34
 70
     1
102
RTVSPost2010Prop35
280
     0
102
RTVSPost2010PropOp35
 70
     1
102
RTVSPost2010Prop36
280
     0
102
RTVSPost2010PropOp36
 70
     1
102
RTVSPost2010Prop37
 90
       50
102
RTVSPost2010PropOp37
 70
     1
102
RTVSPost2010Prop38
140
0.0
102
RTVSPost2010PropOp38
 70
     1
102
RTVSPost2010Prop39
140
1.0
102
RTVSPost2010PropOp39
 70
     1
102
RTVSPost2010Prop40
 90
        0
102
RTVSPost2010PropOp40
 70
     1
102
RTVSPost2010Prop41ColorIndex
 90
       18
102
RTVSPost2010Prop41ColorRGB
 90
        0
102
RTVSPost2010PropOp41
 70
     1
102
RTVSPost2010Prop42
 90
       50
102
RTVSPost2010PropOp42
 70
     1
102
RTVSPost2010Prop43
 90
        3
102
RTVSPost2010PropOp43
 70
     1
102
RTVSPost2010Prop44ColorIndex
 90
        5
102
RTVSPost2010Prop44ColorRGB
 90
      255
102
RTVSPost2010PropOp44
 70
     1
102
RTVSPost2010Prop45
280
     0
102
RTVSPost2010PropOp45
 70
     1
102
RTVSPost2010Prop46
 90
       50
102
RTVSPost2010PropOp46
 70
     1
102
RTVSPost2010Prop47
 90
       50
102
RTVSPost2010PropOp47
 70
     1
102
RTVSPost2010Prop48
 90
       50
102
RTVSPost2010PropOp48
 70
     1
102
RTVSPost2010Prop49
280
     0
102
RTVSPost2010PropOp49
 70
     1
102
RTVSPost2010Prop50
 90
       50
102
RTVSPost2010PropOp50
 70
     1
102
RTVSPost2010Prop51ColorIndex
 90
      256
102
RTVSPost2010Prop51ColorRGB
 90
-16777216
102
RTVSPost2010PropOp51
 70
     0
102
RTVSPost2010Prop52
140
1.0
102
RTVSPost2010PropOp52
 70
     0
102
RTVSPost2010Prop53
 90
        2
102
RTVSPost2010PropOp53
 70
     1
102
RTVSPost2010Prop54
  1
strokes_ogs.tif
102
RTVSPost2010PropOp54
 70
     1
102
RTVSPost2010Prop55
280
     0
102
RTVSPost2010PropOp55
 70
     1
102
RTVSPost2010Prop56
140
1.0
102
RTVSPost2010PropOp56
 70
     1
102
RTVSPost2010Prop57
140
1.0
102
RTVSPost2010PropOp57
 70
     1
102
RTVSPropertyOp0
 70
     1
102
RTVSPropertyOp1
 70
     1
102
RTVSPropertyOp2
 70
     1
102
RTVSPropertyOp3
 70
     1
102
RTVSPropertyOp4
 70
     1
102
RTVSPropertyOp5
 70
     1
102
RTVSPropertyOp6
 70
     1
102
RTVSPropertyOp7
 70
     1
102
RTVSPropertyOp8
 70
     1
102
RTVSPropertyOp9
 70
     1
102
RTVSPropertyOp10
 70
     1
102
RTVSPropertyOp11
 70
     1
102
RTVSPropertyOp12
 70
     1
102
RTVSPropertyOp13
 70
     1
102
RTVSPropertyOp14
 70
     1
102
RTVSPropertyOp15
 70
     1
102
RTVSPropertyOp16
 70
     1
102
RTVSPropertyOp17
 70
     1
102
RTVSPropertyOp18
 70
     1
102
RTVSPropertyOp19
 70
     1
102
RTVSPropertyOp20
 70
     1
102
RTVSPropertyOp21
 70
     1
102
RTVSPropertyOp22
 70
     1
102
RTVSPropertyOp23
 70
     1
102
RTVSPropertyOp24
 70
     1
102
RTVSPropertyOp25
 70
     1
102
RTVSPropertyOp26
 70
     1
102
RTVSPropertyOp27
 70
     1
102
RTVSPropertyOp28
 70
     1
102
RTVSPropertyOp29
 70
     1
102
RTVSPropertyOp30
 70
     1
102
RTVSPropertyOp31
 70
     1
102
RTVSPropertyOp32
 70
     1
102
RTVSPropertyOp33
 70
     1
102
RTVSPropertyOp34
 70
     1
102
RTVSPropertyOp35
 70
     1
102
RTVSPropertyOp36
 70
     1
102
RTVSPropertyOp37
 70
     1
102
RTVSPropertyOp38
 70
     1
102
RTVSPropertyOp39
 70
     1
102
RTVSPropertyOp40
 70
     1
102
RTVSPropertyOp41
 70
     1
102
RTVSPropertyOp42
 70
     1
102
RTVSPropertyOp43
 70
     1
102
RTVSPropertyOp44
 70
     1
102
RTVSPropertyOp45
 70
     1
102
RTVSPropertyOp46
 70
     1
102
RTVSPropertyOp47
 70
     1
102
RTVSPropertyOp48
 70
     1
102
RTVSPropertyOp49
 70
     1
102
RTVSPropertyOp50
 70
     1
102
RTVSPropertyOp51
 70
     0
102
RTVSPropertyOp52
 70
     0
102
RTVSPropertyOp53
 70
     1
102
RTVSPropertyOp54
 70
     1
102
RTVSPropertyOp55
 70
     1
102
RTVSPropertyOp56
 70
     1
102
RTVSPropertyOp57
 70
     1
102
RTVSPropertyOp58
 70
     1
102
RTVSPropertyOp59
 70
     1
102
RTVSPropertyOp60
 70
     1
102
RTVSPropertyOp61
 70
     1
102
RTVSPropertyOp62
 70
     1
  0
XRECORD
  5
38C8
102
{ACAD_REACTORS
330
38C7
102
}
330
38C7
100
AcDbXrecord
280
     1
102
RTVSPost2010Prop28
280
     0
102
RTVSPost2010PropOp28
 70
     0
102
RTVSPost2010Prop29
280
     1
102
RTVSPost2010PropOp29
 70
     0
102
RTVSPost2010Prop30
280
     1
102
RTVSPost2010PropOp30
 70
     0
102
RTVSPost2010Prop31
280
     0
102
RTVSPost2010PropOp31
 70
     0
102
RTVSPost2010Prop32
280
     0
102
RTVSPost2010PropOp32
 70
     0
102
RTVSPost2010Prop33
280
     0
102
RTVSPost2010PropOp33
 70
     0
102
RTVSPost2010Prop34
280
     0
102
RTVSPost2010PropOp34
 70
     0
102
RTVSPost2010Prop35
280
     0
102
RTVSPost2010PropOp35
 70
     0
102
RTVSPost2010Prop36
280
     0
102
RTVSPost2010PropOp36
 70
     0
102
RTVSPost2010Prop37
 90
       50
102
RTVSPost2010PropOp37
 70
     0
102
RTVSPost2010Prop38
140
0.0
102
RTVSPost2010PropOp38
 70
     0
102
RTVSPost2010Prop39
140
1.0
102
RTVSPost2010PropOp39
 70
     0
102
RTVSPost2010Prop40
 90
        0
102
RTVSPost2010PropOp40
 70
     0
102
RTVSPost2010Prop41ColorIndex
 90
       18
102
RTVSPost2010Prop41ColorRGB
 90
        0
102
RTVSPost2010PropOp41
 70
     0
102
RTVSPost2010Prop42
 90
       50
102
RTVSPost2010PropOp42
 70
     0
102
RTVSPost2010Prop43
 90
        3
102
RTVSPost2010PropOp43
 70
     0
102
RTVSPost2010Prop44ColorIndex
 90
        5
102
RTVSPost2010Prop44ColorRGB
 90
      255
102
RTVSPost2010PropOp44
 70
     0
102
RTVSPost2010Prop45
280
     0
102
RTVSPost2010PropOp45
 70
     0
102
RTVSPost2010Prop46
 90
       50
102
RTVSPost2010PropOp46
 70
     0
102
RTVSPost2010Prop47
 90
       50
102
RTVSPost2010PropOp47
 70
     0
102
RTVSPost2010Prop48
 90
       50
102
RTVSPost2010PropOp48
 70
     0
102
RTVSPost2010Prop49
280
     0
102
RTVSPost2010PropOp49
 70
     0
102
RTVSPost2010Prop50
 90
       50
102
RTVSPost2010PropOp50
 70
     0
102
RTVSPost2010Prop51ColorIndex
 90
      256
102
RTVSPost2010Prop51ColorRGB
 90
-16777216
102
RTVSPost2010PropOp51
 70
     0
102
RTVSPost2010Prop52
140
1.0
102
RTVSPost2010PropOp52
 70
     0
102
RTVSPost2010Prop53
 90
        2
102
RTVSPost2010PropOp53
 70
     0
102
RTVSPost2010Prop54
  1
strokes_ogs.tif
102
RTVSPost2010PropOp54
 70
     0
102
RTVSPost2010Prop55
280
     0
102
RTVSPost2010PropOp55
 70
     0
102
RTVSPost2010Prop56
140
1.0
102
RTVSPost2010PropOp56
 70
     0
102
RTVSPost2010Prop57
140
1.0
102
RTVSPost2010PropOp57
 70
     0
102
RTVSPropertyOp0
 70
     0
102
RTVSPropertyOp1
 70
     0
102
RTVSPropertyOp2
 70
     0
102
RTVSPropertyOp3
 70
     0
102
RTVSPropertyOp4
 70
     0
102
RTVSPropertyOp5
 70
     0
102
RTVSPropertyOp6
 70
     0
102
RTVSPropertyOp7
 70
     0
102
RTVSPropertyOp8
 70
     0
102
RTVSPropertyOp9
 70
     0
102
RTVSPropertyOp10
 70
     0
102
RTVSPropertyOp11
 70
     0
102
RTVSPropertyOp12
 70
     0
102
RTVSPropertyOp13
 70
     0
102
RTVSPropertyOp14
 70
     2
102
RTVSPropertyOp15
 70
     0
102
RTVSPropertyOp16
 70
     0
102
RTVSPropertyOp17
 70
     0
102
RTVSPropertyOp18
 70
     0
102
RTVSPropertyOp19
 70
     0
102
RTVSPropertyOp20
 70
     0
102
RTVSPropertyOp21
 70
     0
102
RTVSPropertyOp22
 70
     0
102
RTVSPropertyOp23
 70
     0
102
RTVSPropertyOp24
 70
     0
102
RTVSPropertyOp25
 70
     0
102
RTVSPropertyOp26
 70
     0
102
RTVSPropertyOp27
 70
     0
102
RTVSPropertyOp28
 70
     0
102
RTVSPropertyOp29
 70
     0
102
RTVSPropertyOp30
 70
     0
102
RTVSPropertyOp31
 70
     0
102
RTVSPropertyOp32
 70
     0
102
RTVSPropertyOp33
 70
     0
102
RTVSPropertyOp34
 70
     0
102
RTVSPropertyOp35
 70
     0
102
RTVSPropertyOp36
 70
     0
102
RTVSPropertyOp37
 70
     0
102
RTVSPropertyOp38
 70
     0
102
RTVSPropertyOp39
 70
     0
102
RTVSPropertyOp40
 70
     0
102
RTVSPropertyOp41
 70
     0
102
RTVSPropertyOp42
 70
     0
102
RTVSPropertyOp43
 70
     0
102
RTVSPropertyOp44
 70
     0
102
RTVSPropertyOp45
 70
     0
102
RTVSPropertyOp46
 70
     0
102
RTVSPropertyOp47
 70
     0
102
RTVSPropertyOp48
 70
     0
102
RTVSPropertyOp49
 70
     0
102
RTVSPropertyOp50
 70
     0
102
RTVSPropertyOp51
 70
     0
102
RTVSPropertyOp52
 70
     0
102
RTVSPropertyOp53
 70
     0
102
RTVSPropertyOp54
 70
     0
102
RTVSPropertyOp55
 70
     0
102
RTVSPropertyOp56
 70
     0
102
RTVSPropertyOp57
 70
     0
102
RTVSPropertyOp58
 70
     0
102
RTVSPropertyOp59
 70
     0
102
RTVSPropertyOp60
 70
     0
102
RTVSPropertyOp61
 70
     0
102
RTVSPropertyOp62
 70
     0
  0
XRECORD
  5
38AE
102
{ACAD_REACTORS
330
38AD
102
}
330
38AD
100
AcDbXrecord
280
     1
102
RTVSPost2010Prop28
280
     0
102
RTVSPost2010PropOp28
 70
     1
102
RTVSPost2010Prop29
280
     1
102
RTVSPost2010PropOp29
 70
     1
102
RTVSPost2010Prop30
280
     1
102
RTVSPost2010PropOp30
 70
     1
102
RTVSPost2010Prop31
280
     0
102
RTVSPost2010PropOp31
 70
     1
102
RTVSPost2010Prop32
280
     0
102
RTVSPost2010PropOp32
 70
     1
102
RTVSPost2010Prop33
280
     0
102
RTVSPost2010PropOp33
 70
     1
102
RTVSPost2010Prop34
280
     0
102
RTVSPost2010PropOp34
 70
     1
102
RTVSPost2010Prop35
280
     0
102
RTVSPost2010PropOp35
 70
     1
102
RTVSPost2010Prop36
280
     0
102
RTVSPost2010PropOp36
 70
     1
102
RTVSPost2010Prop37
 90
       50
102
RTVSPost2010PropOp37
 70
     1
102
RTVSPost2010Prop38
140
0.0
102
RTVSPost2010PropOp38
 70
     1
102
RTVSPost2010Prop39
140
1.0
102
RTVSPost2010PropOp39
 70
     1
102
RTVSPost2010Prop40
 90
        0
102
RTVSPost2010PropOp40
 70
     1
102
RTVSPost2010Prop41ColorIndex
 90
       18
102
RTVSPost2010Prop41ColorRGB
 90
        0
102
RTVSPost2010PropOp41
 70
     1
102
RTVSPost2010Prop42
 90
       50
102
RTVSPost2010PropOp42
 70
     1
102
RTVSPost2010Prop43
 90
        3
102
RTVSPost2010PropOp43
 70
     1
102
RTVSPost2010Prop44ColorIndex
 90
        5
102
RTVSPost2010Prop44ColorRGB
 90
      255
102
RTVSPost2010PropOp44
 70
     1
102
RTVSPost2010Prop45
280
     0
102
RTVSPost2010PropOp45
 70
     1
102
RTVSPost2010Prop46
 90
       50
102
RTVSPost2010PropOp46
 70
     1
102
RTVSPost2010Prop47
 90
       50
102
RTVSPost2010PropOp47
 70
     1
102
RTVSPost2010Prop48
 90
       50
102
RTVSPost2010PropOp48
 70
     1
102
RTVSPost2010Prop49
280
     0
102
RTVSPost2010PropOp49
 70
     1
102
RTVSPost2010Prop50
 90
       50
102
RTVSPost2010PropOp50
 70
     1
102
RTVSPost2010Prop51ColorIndex
 90
      256
102
RTVSPost2010Prop51ColorRGB
 90
-16777216
102
RTVSPost2010PropOp51
 70
     0
102
RTVSPost2010Prop52
140
1.0
102
RTVSPost2010PropOp52
 70
     0
102
RTVSPost2010Prop53
 90
        2
102
RTVSPost2010PropOp53
 70
     1
102
RTVSPost2010Prop54
  1
strokes_ogs.tif
102
RTVSPost2010PropOp54
 70
     1
102
RTVSPost2010Prop55
280
     0
102
RTVSPost2010PropOp55
 70
     1
102
RTVSPost2010Prop56
140
1.0
102
RTVSPost2010PropOp56
 70
     1
102
RTVSPost2010Prop57
140
1.0
102
RTVSPost2010PropOp57
 70
     1
102
RTVSPropertyOp0
 70
     1
102
RTVSPropertyOp1
 70
     1
102
RTVSPropertyOp2
 70
     1
102
RTVSPropertyOp3
 70
     1
102
RTVSPropertyOp4
 70
     1
102
RTVSPropertyOp5
 70
     1
102
RTVSPropertyOp6
 70
     1
102
RTVSPropertyOp7
 70
     1
102
RTVSPropertyOp8
 70
     1
102
RTVSPropertyOp9
 70
     1
102
RTVSPropertyOp10
 70
     1
102
RTVSPropertyOp11
 70
     1
102
RTVSPropertyOp12
 70
     1
102
RTVSPropertyOp13
 70
     1
102
RTVSPropertyOp14
 70
     1
102
RTVSPropertyOp15
 70
     1
102
RTVSPropertyOp16
 70
     1
102
RTVSPropertyOp17
 70
     1
102
RTVSPropertyOp18
 70
     1
102
RTVSPropertyOp19
 70
     1
102
RTVSPropertyOp20
 70
     1
102
RTVSPropertyOp21
 70
     1
102
RTVSPropertyOp22
 70
     1
102
RTVSPropertyOp23
 70
     1
102
RTVSPropertyOp24
 70
     1
102
RTVSPropertyOp25
 70
     1
102
RTVSPropertyOp26
 70
     1
102
RTVSPropertyOp27
 70
     1
102
RTVSPropertyOp28
 70
     1
102
RTVSPropertyOp29
 70
     1
102
RTVSPropertyOp30
 70
     1
102
RTVSPropertyOp31
 70
     1
102
RTVSPropertyOp32
 70
     1
102
RTVSPropertyOp33
 70
     1
102
RTVSPropertyOp34
 70
     1
102
RTVSPropertyOp35
 70
     1
102
RTVSPropertyOp36
 70
     1
102
RTVSPropertyOp37
 70
     1
102
RTVSPropertyOp38
 70
     1
102
RTVSPropertyOp39
 70
     1
102
RTVSPropertyOp40
 70
     1
102
RTVSPropertyOp41
 70
     1
102
RTVSPropertyOp42
 70
     1
102
RTVSPropertyOp43
 70
     1
102
RTVSPropertyOp44
 70
     1
102
RTVSPropertyOp45
 70
     1
102
RTVSPropertyOp46
 70
     1
102
RTVSPropertyOp47
 70
     1
102
RTVSPropertyOp48
 70
     1
102
RTVSPropertyOp49
 70
     1
102
RTVSPropertyOp50
 70
     1
102
RTVSPropertyOp51
 70
     0
102
RTVSPropertyOp52
 70
     0
102
RTVSPropertyOp53
 70
     1
102
RTVSPropertyOp54
 70
     1
102
RTVSPropertyOp55
 70
     1
102
RTVSPropertyOp56
 70
     1
102
RTVSPropertyOp57
 70
     1
102
RTVSPropertyOp58
 70
     1
102
RTVSPropertyOp59
 70
     1
102
RTVSPropertyOp60
 70
     1
102
RTVSPropertyOp61
 70
     1
102
RTVSPropertyOp62
 70
     1
  0
XRECORD
  5
38C4
102
{ACAD_REACTORS
330
38C3
102
}
330
38C3
100
AcDbXrecord
280
     1
102
RTVSPost2010Prop28
280
     0
102
RTVSPost2010PropOp28
 70
     1
102
RTVSPost2010Prop29
280
     1
102
RTVSPost2010PropOp29
 70
     1
102
RTVSPost2010Prop30
280
     1
102
RTVSPost2010PropOp30
 70
     1
102
RTVSPost2010Prop31
280
     0
102
RTVSPost2010PropOp31
 70
     1
102
RTVSPost2010Prop32
280
     0
102
RTVSPost2010PropOp32
 70
     1
102
RTVSPost2010Prop33
280
     0
102
RTVSPost2010PropOp33
 70
     1
102
RTVSPost2010Prop34
280
     0
102
RTVSPost2010PropOp34
 70
     1
102
RTVSPost2010Prop35
280
     0
102
RTVSPost2010PropOp35
 70
     1
102
RTVSPost2010Prop36
280
     0
102
RTVSPost2010PropOp36
 70
     1
102
RTVSPost2010Prop37
 90
       50
102
RTVSPost2010PropOp37
 70
     1
102
RTVSPost2010Prop38
140
0.0
102
RTVSPost2010PropOp38
 70
     1
102
RTVSPost2010Prop39
140
1.0
102
RTVSPost2010PropOp39
 70
     1
102
RTVSPost2010Prop40
 90
        0
102
RTVSPost2010PropOp40
 70
     1
102
RTVSPost2010Prop41ColorIndex
 90
       18
102
RTVSPost2010Prop41ColorRGB
 90
        0
102
RTVSPost2010PropOp41
 70
     1
102
RTVSPost2010Prop42
 90
       50
102
RTVSPost2010PropOp42
 70
     1
102
RTVSPost2010Prop43
 90
        3
102
RTVSPost2010PropOp43
 70
     1
102
RTVSPost2010Prop44ColorIndex
 90
        5
102
RTVSPost2010Prop44ColorRGB
 90
      255
102
RTVSPost2010PropOp44
 70
     1
102
RTVSPost2010Prop45
280
     0
102
RTVSPost2010PropOp45
 70
     1
102
RTVSPost2010Prop46
 90
       50
102
RTVSPost2010PropOp46
 70
     1
102
RTVSPost2010Prop47
 90
       50
102
RTVSPost2010PropOp47
 70
     1
102
RTVSPost2010Prop48
 90
       50
102
RTVSPost2010PropOp48
 70
     1
102
RTVSPost2010Prop49
280
     0
102
RTVSPost2010PropOp49
 70
     1
102
RTVSPost2010Prop50
 90
       50
102
RTVSPost2010PropOp50
 70
     1
102
RTVSPost2010Prop51ColorIndex
 90
      256
102
RTVSPost2010Prop51ColorRGB
 90
-16777216
102
RTVSPost2010PropOp51
 70
     0
102
RTVSPost2010Prop52
140
1.0
102
RTVSPost2010PropOp52
 70
     0
102
RTVSPost2010Prop53
 90
        2
102
RTVSPost2010PropOp53
 70
     1
102
RTVSPost2010Prop54
  1
strokes_ogs.tif
102
RTVSPost2010PropOp54
 70
     1
102
RTVSPost2010Prop55
280
     0
102
RTVSPost2010PropOp55
 70
     1
102
RTVSPost2010Prop56
140
1.0
102
RTVSPost2010PropOp56
 70
     1
102
RTVSPost2010Prop57
140
1.0
102
RTVSPost2010PropOp57
 70
     1
102
RTVSPropertyOp0
 70
     1
102
RTVSPropertyOp1
 70
     1
102
RTVSPropertyOp2
 70
     1
102
RTVSPropertyOp3
 70
     1
102
RTVSPropertyOp4
 70
     1
102
RTVSPropertyOp5
 70
     1
102
RTVSPropertyOp6
 70
     1
102
RTVSPropertyOp7
 70
     1
102
RTVSPropertyOp8
 70
     1
102
RTVSPropertyOp9
 70
     1
102
RTVSPropertyOp10
 70
     1
102
RTVSPropertyOp11
 70
     1
102
RTVSPropertyOp12
 70
     1
102
RTVSPropertyOp13
 70
     1
102
RTVSPropertyOp14
 70
     1
102
RTVSPropertyOp15
 70
     1
102
RTVSPropertyOp16
 70
     1
102
RTVSPropertyOp17
 70
     1
102
RTVSPropertyOp18
 70
     1
102
RTVSPropertyOp19
 70
     1
102
RTVSPropertyOp20
 70
     1
102
RTVSPropertyOp21
 70
     1
102
RTVSPropertyOp22
 70
     1
102
RTVSPropertyOp23
 70
     1
102
RTVSPropertyOp24
 70
     1
102
RTVSPropertyOp25
 70
     1
102
RTVSPropertyOp26
 70
     1
102
RTVSPropertyOp27
 70
     1
102
RTVSPropertyOp28
 70
     1
102
RTVSPropertyOp29
 70
     1
102
RTVSPropertyOp30
 70
     1
102
RTVSPropertyOp31
 70
     1
102
RTVSPropertyOp32
 70
     1
102
RTVSPropertyOp33
 70
     1
102
RTVSPropertyOp34
 70
     1
102
RTVSPropertyOp35
 70
     1
102
RTVSPropertyOp36
 70
     1
102
RTVSPropertyOp37
 70
     1
102
RTVSPropertyOp38
 70
     1
102
RTVSPropertyOp39
 70
     1
102
RTVSPropertyOp40
 70
     1
102
RTVSPropertyOp41
 70
     1
102
RTVSPropertyOp42
 70
     1
102
RTVSPropertyOp43
 70
     1
102
RTVSPropertyOp44
 70
     1
102
RTVSPropertyOp45
 70
     1
102
RTVSPropertyOp46
 70
     1
102
RTVSPropertyOp47
 70
     1
102
RTVSPropertyOp48
 70
     1
102
RTVSPropertyOp49
 70
     1
102
RTVSPropertyOp50
 70
     1
102
RTVSPropertyOp51
 70
     0
102
RTVSPropertyOp52
 70
     0
102
RTVSPropertyOp53
 70
     1
102
RTVSPropertyOp54
 70
     1
102
RTVSPropertyOp55
 70
     1
102
RTVSPropertyOp56
 70
     1
102
RTVSPropertyOp57
 70
     1
102
RTVSPropertyOp58
 70
     1
102
RTVSPropertyOp59
 70
     1
102
RTVSPropertyOp60
 70
     1
102
RTVSPropertyOp61
 70
     1
102
RTVSPropertyOp62
 70
     1
  0
XRECORD
  5
38C2
102
{ACAD_REACTORS
330
38C1
102
}
330
38C1
100
AcDbXrecord
280
     1
102
RTVSPost2010Prop28
280
     0
102
RTVSPost2010PropOp28
 70
     1
102
RTVSPost2010Prop29
280
     1
102
RTVSPost2010PropOp29
 70
     1
102
RTVSPost2010Prop30
280
     1
102
RTVSPost2010PropOp30
 70
     1
102
RTVSPost2010Prop31
280
     0
102
RTVSPost2010PropOp31
 70
     1
102
RTVSPost2010Prop32
280
     0
102
RTVSPost2010PropOp32
 70
     1
102
RTVSPost2010Prop33
280
     0
102
RTVSPost2010PropOp33
 70
     1
102
RTVSPost2010Prop34
280
     0
102
RTVSPost2010PropOp34
 70
     1
102
RTVSPost2010Prop35
280
     0
102
RTVSPost2010PropOp35
 70
     1
102
RTVSPost2010Prop36
280
     0
102
RTVSPost2010PropOp36
 70
     1
102
RTVSPost2010Prop37
 90
       50
102
RTVSPost2010PropOp37
 70
     1
102
RTVSPost2010Prop38
140
0.0
102
RTVSPost2010PropOp38
 70
     1
102
RTVSPost2010Prop39
140
1.0
102
RTVSPost2010PropOp39
 70
     1
102
RTVSPost2010Prop40
 90
        0
102
RTVSPost2010PropOp40
 70
     1
102
RTVSPost2010Prop41ColorIndex
 90
       18
102
RTVSPost2010Prop41ColorRGB
 90
        0
102
RTVSPost2010PropOp41
 70
     1
102
RTVSPost2010Prop42
 90
       50
102
RTVSPost2010PropOp42
 70
     1
102
RTVSPost2010Prop43
 90
        3
102
RTVSPost2010PropOp43
 70
     1
102
RTVSPost2010Prop44ColorIndex
 90
        5
102
RTVSPost2010Prop44ColorRGB
 90
      255
102
RTVSPost2010PropOp44
 70
     1
102
RTVSPost2010Prop45
280
     0
102
RTVSPost2010PropOp45
 70
     1
102
RTVSPost2010Prop46
 90
       50
102
RTVSPost2010PropOp46
 70
     1
102
RTVSPost2010Prop47
 90
       50
102
RTVSPost2010PropOp47
 70
     1
102
RTVSPost2010Prop48
 90
       50
102
RTVSPost2010PropOp48
 70
     1
102
RTVSPost2010Prop49
280
     0
102
RTVSPost2010PropOp49
 70
     1
102
RTVSPost2010Prop50
 90
       50
102
RTVSPost2010PropOp50
 70
     1
102
RTVSPost2010Prop51ColorIndex
 90
      256
102
RTVSPost2010Prop51ColorRGB
 90
-16777216
102
RTVSPost2010PropOp51
 70
     0
102
RTVSPost2010Prop52
140
1.0
102
RTVSPost2010PropOp52
 70
     0
102
RTVSPost2010Prop53
 90
        2
102
RTVSPost2010PropOp53
 70
     1
102
RTVSPost2010Prop54
  1
strokes_ogs.tif
102
RTVSPost2010PropOp54
 70
     1
102
RTVSPost2010Prop55
280
     0
102
RTVSPost2010PropOp55
 70
     1
102
RTVSPost2010Prop56
140
1.0
102
RTVSPost2010PropOp56
 70
     1
102
RTVSPost2010Prop57
140
1.0
102
RTVSPost2010PropOp57
 70
     1
102
RTVSPropertyOp0
 70
     1
102
RTVSPropertyOp1
 70
     1
102
RTVSPropertyOp2
 70
     1
102
RTVSPropertyOp3
 70
     1
102
RTVSPropertyOp4
 70
     1
102
RTVSPropertyOp5
 70
     1
102
RTVSPropertyOp6
 70
     1
102
RTVSPropertyOp7
 70
     1
102
RTVSPropertyOp8
 70
     1
102
RTVSPropertyOp9
 70
     1
102
RTVSPropertyOp10
 70
     1
102
RTVSPropertyOp11
 70
     1
102
RTVSPropertyOp12
 70
     1
102
RTVSPropertyOp13
 70
     1
102
RTVSPropertyOp14
 70
     1
102
RTVSPropertyOp15
 70
     1
102
RTVSPropertyOp16
 70
     1
102
RTVSPropertyOp17
 70
     1
102
RTVSPropertyOp18
 70
     1
102
RTVSPropertyOp19
 70
     1
102
RTVSPropertyOp20
 70
     1
102
RTVSPropertyOp21
 70
     1
102
RTVSPropertyOp22
 70
     1
102
RTVSPropertyOp23
 70
     1
102
RTVSPropertyOp24
 70
     1
102
RTVSPropertyOp25
 70
     1
102
RTVSPropertyOp26
 70
     1
102
RTVSPropertyOp27
 70
     1
102
RTVSPropertyOp28
 70
     1
102
RTVSPropertyOp29
 70
     1
102
RTVSPropertyOp30
 70
     1
102
RTVSPropertyOp31
 70
     1
102
RTVSPropertyOp32
 70
     1
102
RTVSPropertyOp33
 70
     1
102
RTVSPropertyOp34
 70
     1
102
RTVSPropertyOp35
 70
     1
102
RTVSPropertyOp36
 70
     1
102
RTVSPropertyOp37
 70
     1
102
RTVSPropertyOp38
 70
     1
102
RTVSPropertyOp39
 70
     1
102
RTVSPropertyOp40
 70
     1
102
RTVSPropertyOp41
 70
     1
102
RTVSPropertyOp42
 70
     1
102
RTVSPropertyOp43
 70
     1
102
RTVSPropertyOp44
 70
     1
102
RTVSPropertyOp45
 70
     1
102
RTVSPropertyOp46
 70
     1
102
RTVSPropertyOp47
 70
     1
102
RTVSPropertyOp48
 70
     1
102
RTVSPropertyOp49
 70
     1
102
RTVSPropertyOp50
 70
     1
102
RTVSPropertyOp51
 70
     0
102
RTVSPropertyOp52
 70
     0
102
RTVSPropertyOp53
 70
     1
102
RTVSPropertyOp54
 70
     1
102
RTVSPropertyOp55
 70
     1
102
RTVSPropertyOp56
 70
     1
102
RTVSPropertyOp57
 70
     1
102
RTVSPropertyOp58
 70
     1
102
RTVSPropertyOp59
 70
     1
102
RTVSPropertyOp60
 70
     1
102
RTVSPropertyOp61
 70
     1
102
RTVSPropertyOp62
 70
     1
  0
XRECORD
  5
38BC
102
{ACAD_REACTORS
330
38BB
102
}
330
38BB
100
AcDbXrecord
280
     1
102
RTVSPost2010Prop28
280
     0
102
RTVSPost2010PropOp28
 70
     1
102
RTVSPost2010Prop29
280
     1
102
RTVSPost2010PropOp29
 70
     1
102
RTVSPost2010Prop30
280
     1
102
RTVSPost2010PropOp30
 70
     1
102
RTVSPost2010Prop31
280
     0
102
RTVSPost2010PropOp31
 70
     1
102
RTVSPost2010Prop32
280
     0
102
RTVSPost2010PropOp32
 70
     1
102
RTVSPost2010Prop33
280
     0
102
RTVSPost2010PropOp33
 70
     1
102
RTVSPost2010Prop34
280
     0
102
RTVSPost2010PropOp34
 70
     1
102
RTVSPost2010Prop35
280
     0
102
RTVSPost2010PropOp35
 70
     1
102
RTVSPost2010Prop36
280
     0
102
RTVSPost2010PropOp36
 70
     1
102
RTVSPost2010Prop37
 90
       50
102
RTVSPost2010PropOp37
 70
     1
102
RTVSPost2010Prop38
140
0.0
102
RTVSPost2010PropOp38
 70
     1
102
RTVSPost2010Prop39
140
1.0
102
RTVSPost2010PropOp39
 70
     1
102
RTVSPost2010Prop40
 90
        0
102
RTVSPost2010PropOp40
 70
     1
102
RTVSPost2010Prop41ColorIndex
 90
       18
102
RTVSPost2010Prop41ColorRGB
 90
        0
102
RTVSPost2010PropOp41
 70
     1
102
RTVSPost2010Prop42
 90
       50
102
RTVSPost2010PropOp42
 70
     1
102
RTVSPost2010Prop43
 90
        3
102
RTVSPost2010PropOp43
 70
     1
102
RTVSPost2010Prop44ColorIndex
 90
        5
102
RTVSPost2010Prop44ColorRGB
 90
      255
102
RTVSPost2010PropOp44
 70
     1
102
RTVSPost2010Prop45
280
     0
102
RTVSPost2010PropOp45
 70
     1
102
RTVSPost2010Prop46
 90
       50
102
RTVSPost2010PropOp46
 70
     1
102
RTVSPost2010Prop47
 90
       50
102
RTVSPost2010PropOp47
 70
     1
102
RTVSPost2010Prop48
 90
       50
102
RTVSPost2010PropOp48
 70
     1
102
RTVSPost2010Prop49
280
     0
102
RTVSPost2010PropOp49
 70
     1
102
RTVSPost2010Prop50
 90
       50
102
RTVSPost2010PropOp50
 70
     1
102
RTVSPost2010Prop51ColorIndex
 90
      256
102
RTVSPost2010Prop51ColorRGB
 90
-16777216
102
RTVSPost2010PropOp51
 70
     0
102
RTVSPost2010Prop52
140
1.0
102
RTVSPost2010PropOp52
 70
     0
102
RTVSPost2010Prop53
 90
        2
102
RTVSPost2010PropOp53
 70
     1
102
RTVSPost2010Prop54
  1
strokes_ogs.tif
102
RTVSPost2010PropOp54
 70
     1
102
RTVSPost2010Prop55
280
     0
102
RTVSPost2010PropOp55
 70
     1
102
RTVSPost2010Prop56
140
1.0
102
RTVSPost2010PropOp56
 70
     1
102
RTVSPost2010Prop57
140
1.0
102
RTVSPost2010PropOp57
 70
     1
102
RTVSPropertyOp0
 70
     1
102
RTVSPropertyOp1
 70
     1
102
RTVSPropertyOp2
 70
     1
102
RTVSPropertyOp3
 70
     1
102
RTVSPropertyOp4
 70
     1
102
RTVSPropertyOp5
 70
     1
102
RTVSPropertyOp6
 70
     1
102
RTVSPropertyOp7
 70
     1
102
RTVSPropertyOp8
 70
     1
102
RTVSPropertyOp9
 70
     1
102
RTVSPropertyOp10
 70
     1
102
RTVSPropertyOp11
 70
     1
102
RTVSPropertyOp12
 70
     1
102
RTVSPropertyOp13
 70
     1
102
RTVSPropertyOp14
 70
     1
102
RTVSPropertyOp15
 70
     1
102
RTVSPropertyOp16
 70
     1
102
RTVSPropertyOp17
 70
     1
102
RTVSPropertyOp18
 70
     1
102
RTVSPropertyOp19
 70
     1
102
RTVSPropertyOp20
 70
     1
102
RTVSPropertyOp21
 70
     1
102
RTVSPropertyOp22
 70
     1
102
RTVSPropertyOp23
 70
     1
102
RTVSPropertyOp24
 70
     1
102
RTVSPropertyOp25
 70
     1
102
RTVSPropertyOp26
 70
     1
102
RTVSPropertyOp27
 70
     1
102
RTVSPropertyOp28
 70
     1
102
RTVSPropertyOp29
 70
     1
102
RTVSPropertyOp30
 70
     1
102
RTVSPropertyOp31
 70
     1
102
RTVSPropertyOp32
 70
     1
102
RTVSPropertyOp33
 70
     1
102
RTVSPropertyOp34
 70
     1
102
RTVSPropertyOp35
 70
     1
102
RTVSPropertyOp36
 70
     1
102
RTVSPropertyOp37
 70
     1
102
RTVSPropertyOp38
 70
     1
102
RTVSPropertyOp39
 70
     1
102
RTVSPropertyOp40
 70
     1
102
RTVSPropertyOp41
 70
     1
102
RTVSPropertyOp42
 70
     1
102
RTVSPropertyOp43
 70
     1
102
RTVSPropertyOp44
 70
     1
102
RTVSPropertyOp45
 70
     1
102
RTVSPropertyOp46
 70
     1
102
RTVSPropertyOp47
 70
     1
102
RTVSPropertyOp48
 70
     1
102
RTVSPropertyOp49
 70
     1
102
RTVSPropertyOp50
 70
     1
102
RTVSPropertyOp51
 70
     0
102
RTVSPropertyOp52
 70
     0
102
RTVSPropertyOp53
 70
     1
102
RTVSPropertyOp54
 70
     1
102
RTVSPropertyOp55
 70
     1
102
RTVSPropertyOp56
 70
     1
102
RTVSPropertyOp57
 70
     1
102
RTVSPropertyOp58
 70
     1
102
RTVSPropertyOp59
 70
     1
102
RTVSPropertyOp60
 70
     1
102
RTVSPropertyOp61
 70
     1
102
RTVSPropertyOp62
 70
     1
  0
XRECORD
  5
38BE
102
{ACAD_REACTORS
330
38BD
102
}
330
38BD
100
AcDbXrecord
280
     1
102
RTVSPost2010Prop28
280
     0
102
RTVSPost2010PropOp28
 70
     1
102
RTVSPost2010Prop29
280
     1
102
RTVSPost2010PropOp29
 70
     1
102
RTVSPost2010Prop30
280
     1
102
RTVSPost2010PropOp30
 70
     1
102
RTVSPost2010Prop31
280
     0
102
RTVSPost2010PropOp31
 70
     1
102
RTVSPost2010Prop32
280
     0
102
RTVSPost2010PropOp32
 70
     1
102
RTVSPost2010Prop33
280
     0
102
RTVSPost2010PropOp33
 70
     1
102
RTVSPost2010Prop34
280
     0
102
RTVSPost2010PropOp34
 70
     1
102
RTVSPost2010Prop35
280
     0
102
RTVSPost2010PropOp35
 70
     1
102
RTVSPost2010Prop36
280
     0
102
RTVSPost2010PropOp36
 70
     1
102
RTVSPost2010Prop37
 90
       50
102
RTVSPost2010PropOp37
 70
     1
102
RTVSPost2010Prop38
140
0.0
102
RTVSPost2010PropOp38
 70
     1
102
RTVSPost2010Prop39
140
1.0
102
RTVSPost2010PropOp39
 70
     1
102
RTVSPost2010Prop40
 90
        0
102
RTVSPost2010PropOp40
 70
     1
102
RTVSPost2010Prop41ColorIndex
 90
       18
102
RTVSPost2010Prop41ColorRGB
 90
        0
102
RTVSPost2010PropOp41
 70
     1
102
RTVSPost2010Prop42
 90
       50
102
RTVSPost2010PropOp42
 70
     1
102
RTVSPost2010Prop43
 90
        3
102
RTVSPost2010PropOp43
 70
     1
102
RTVSPost2010Prop44ColorIndex
 90
        5
102
RTVSPost2010Prop44ColorRGB
 90
      255
102
RTVSPost2010PropOp44
 70
     1
102
RTVSPost2010Prop45
280
     0
102
RTVSPost2010PropOp45
 70
     1
102
RTVSPost2010Prop46
 90
       50
102
RTVSPost2010PropOp46
 70
     1
102
RTVSPost2010Prop47
 90
       50
102
RTVSPost2010PropOp47
 70
     1
102
RTVSPost2010Prop48
 90
       50
102
RTVSPost2010PropOp48
 70
     1
102
RTVSPost2010Prop49
280
     0
102
RTVSPost2010PropOp49
 70
     1
102
RTVSPost2010Prop50
 90
       50
102
RTVSPost2010PropOp50
 70
     1
102
RTVSPost2010Prop51ColorIndex
 90
      256
102
RTVSPost2010Prop51ColorRGB
 90
-16777216
102
RTVSPost2010PropOp51
 70
     0
102
RTVSPost2010Prop52
140
1.0
102
RTVSPost2010PropOp52
 70
     0
102
RTVSPost2010Prop53
 90
        2
102
RTVSPost2010PropOp53
 70
     1
102
RTVSPost2010Prop54
  1
strokes_ogs.tif
102
RTVSPost2010PropOp54
 70
     1
102
RTVSPost2010Prop55
280
     0
102
RTVSPost2010PropOp55
 70
     1
102
RTVSPost2010Prop56
140
1.0
102
RTVSPost2010PropOp56
 70
     1
102
RTVSPost2010Prop57
140
1.0
102
RTVSPost2010PropOp57
 70
     1
102
RTVSPropertyOp0
 70
     1
102
RTVSPropertyOp1
 70
     1
102
RTVSPropertyOp2
 70
     1
102
RTVSPropertyOp3
 70
     1
102
RTVSPropertyOp4
 70
     1
102
RTVSPropertyOp5
 70
     1
102
RTVSPropertyOp6
 70
     1
102
RTVSPropertyOp7
 70
     1
102
RTVSPropertyOp8
 70
     1
102
RTVSPropertyOp9
 70
     1
102
RTVSPropertyOp10
 70
     1
102
RTVSPropertyOp11
 70
     1
102
RTVSPropertyOp12
 70
     1
102
RTVSPropertyOp13
 70
     1
102
RTVSPropertyOp14
 70
     1
102
RTVSPropertyOp15
 70
     1
102
RTVSPropertyOp16
 70
     1
102
RTVSPropertyOp17
 70
     1
102
RTVSPropertyOp18
 70
     1
102
RTVSPropertyOp19
 70
     1
102
RTVSPropertyOp20
 70
     1
102
RTVSPropertyOp21
 70
     1
102
RTVSPropertyOp22
 70
     1
102
RTVSPropertyOp23
 70
     1
102
RTVSPropertyOp24
 70
     1
102
RTVSPropertyOp25
 70
     1
102
RTVSPropertyOp26
 70
     1
102
RTVSPropertyOp27
 70
     1
102
RTVSPropertyOp28
 70
     1
102
RTVSPropertyOp29
 70
     1
102
RTVSPropertyOp30
 70
     1
102
RTVSPropertyOp31
 70
     1
102
RTVSPropertyOp32
 70
     1
102
RTVSPropertyOp33
 70
     1
102
RTVSPropertyOp34
 70
     1
102
RTVSPropertyOp35
 70
     1
102
RTVSPropertyOp36
 70
     1
102
RTVSPropertyOp37
 70
     1
102
RTVSPropertyOp38
 70
     1
102
RTVSPropertyOp39
 70
     1
102
RTVSPropertyOp40
 70
     1
102
RTVSPropertyOp41
 70
     1
102
RTVSPropertyOp42
 70
     1
102
RTVSPropertyOp43
 70
     1
102
RTVSPropertyOp44
 70
     1
102
RTVSPropertyOp45
 70
     1
102
RTVSPropertyOp46
 70
     1
102
RTVSPropertyOp47
 70
     1
102
RTVSPropertyOp48
 70
     1
102
RTVSPropertyOp49
 70
     1
102
RTVSPropertyOp50
 70
     1
102
RTVSPropertyOp51
 70
     0
102
RTVSPropertyOp52
 70
     0
102
RTVSPropertyOp53
 70
     1
102
RTVSPropertyOp54
 70
     1
102
RTVSPropertyOp55
 70
     1
102
RTVSPropertyOp56
 70
     1
102
RTVSPropertyOp57
 70
     1
102
RTVSPropertyOp58
 70
     1
102
RTVSPropertyOp59
 70
     1
102
RTVSPropertyOp60
 70
     1
102
RTVSPropertyOp61
 70
     1
102
RTVSPropertyOp62
 70
     1
  0
XRECORD
  5
38B4
102
{ACAD_REACTORS
330
38B3
102
}
330
38B3
100
AcDbXrecord
280
     1
102
RTVSPost2010Prop28
280
     0
102
RTVSPost2010PropOp28
 70
     1
102
RTVSPost2010Prop29
280
     1
102
RTVSPost2010PropOp29
 70
     1
102
RTVSPost2010Prop30
280
     1
102
RTVSPost2010PropOp30
 70
     1
102
RTVSPost2010Prop31
280
     0
102
RTVSPost2010PropOp31
 70
     1
102
RTVSPost2010Prop32
280
     0
102
RTVSPost2010PropOp32
 70
     1
102
RTVSPost2010Prop33
280
     0
102
RTVSPost2010PropOp33
 70
     1
102
RTVSPost2010Prop34
280
     0
102
RTVSPost2010PropOp34
 70
     1
102
RTVSPost2010Prop35
280
     0
102
RTVSPost2010PropOp35
 70
     1
102
RTVSPost2010Prop36
280
     0
102
RTVSPost2010PropOp36
 70
     1
102
RTVSPost2010Prop37
 90
       50
102
RTVSPost2010PropOp37
 70
     1
102
RTVSPost2010Prop38
140
0.0
102
RTVSPost2010PropOp38
 70
     1
102
RTVSPost2010Prop39
140
1.0
102
RTVSPost2010PropOp39
 70
     1
102
RTVSPost2010Prop40
 90
        0
102
RTVSPost2010PropOp40
 70
     1
102
RTVSPost2010Prop41ColorIndex
 90
       18
102
RTVSPost2010Prop41ColorRGB
 90
        0
102
RTVSPost2010PropOp41
 70
     1
102
RTVSPost2010Prop42
 90
       50
102
RTVSPost2010PropOp42
 70
     1
102
RTVSPost2010Prop43
 90
        3
102
RTVSPost2010PropOp43
 70
     1
102
RTVSPost2010Prop44ColorIndex
 90
        5
102
RTVSPost2010Prop44ColorRGB
 90
      255
102
RTVSPost2010PropOp44
 70
     1
102
RTVSPost2010Prop45
280
     0
102
RTVSPost2010PropOp45
 70
     1
102
RTVSPost2010Prop46
 90
       50
102
RTVSPost2010PropOp46
 70
     1
102
RTVSPost2010Prop47
 90
       50
102
RTVSPost2010PropOp47
 70
     1
102
RTVSPost2010Prop48
 90
       50
102
RTVSPost2010PropOp48
 70
     1
102
RTVSPost2010Prop49
280
     0
102
RTVSPost2010PropOp49
 70
     1
102
RTVSPost2010Prop50
 90
       50
102
RTVSPost2010PropOp50
 70
     1
102
RTVSPost2010Prop51ColorIndex
 90
      256
102
RTVSPost2010Prop51ColorRGB
 90
-16777216
102
RTVSPost2010PropOp51
 70
     0
102
RTVSPost2010Prop52
140
1.0
102
RTVSPost2010PropOp52
 70
     0
102
RTVSPost2010Prop53
 90
        2
102
RTVSPost2010PropOp53
 70
     1
102
RTVSPost2010Prop54
  1
strokes_ogs.tif
102
RTVSPost2010PropOp54
 70
     1
102
RTVSPost2010Prop55
280
     0
102
RTVSPost2010PropOp55
 70
     1
102
RTVSPost2010Prop56
140
1.0
102
RTVSPost2010PropOp56
 70
     1
102
RTVSPost2010Prop57
140
1.0
102
RTVSPost2010PropOp57
 70
     1
102
RTVSPropertyOp0
 70
     1
102
RTVSPropertyOp1
 70
     1
102
RTVSPropertyOp2
 70
     1
102
RTVSPropertyOp3
 70
     1
102
RTVSPropertyOp4
 70
     1
102
RTVSPropertyOp5
 70
     1
102
RTVSPropertyOp6
 70
     1
102
RTVSPropertyOp7
 70
     1
102
RTVSPropertyOp8
 70
     1
102
RTVSPropertyOp9
 70
     1
102
RTVSPropertyOp10
 70
     1
102
RTVSPropertyOp11
 70
     1
102
RTVSPropertyOp12
 70
     1
102
RTVSPropertyOp13
 70
     1
102
RTVSPropertyOp14
 70
     1
102
RTVSPropertyOp15
 70
     1
102
RTVSPropertyOp16
 70
     1
102
RTVSPropertyOp17
 70
     1
102
RTVSPropertyOp18
 70
     1
102
RTVSPropertyOp19
 70
     1
102
RTVSPropertyOp20
 70
     1
102
RTVSPropertyOp21
 70
     1
102
RTVSPropertyOp22
 70
     1
102
RTVSPropertyOp23
 70
     1
102
RTVSPropertyOp24
 70
     1
102
RTVSPropertyOp25
 70
     1
102
RTVSPropertyOp26
 70
     1
102
RTVSPropertyOp27
 70
     1
102
RTVSPropertyOp28
 70
     1
102
RTVSPropertyOp29
 70
     1
102
RTVSPropertyOp30
 70
     1
102
RTVSPropertyOp31
 70
     1
102
RTVSPropertyOp32
 70
     1
102
RTVSPropertyOp33
 70
     1
102
RTVSPropertyOp34
 70
     1
102
RTVSPropertyOp35
 70
     1
102
RTVSPropertyOp36
 70
     1
102
RTVSPropertyOp37
 70
     1
102
RTVSPropertyOp38
 70
     1
102
RTVSPropertyOp39
 70
     1
102
RTVSPropertyOp40
 70
     1
102
RTVSPropertyOp41
 70
     1
102
RTVSPropertyOp42
 70
     1
102
RTVSPropertyOp43
 70
     1
102
RTVSPropertyOp44
 70
     1
102
RTVSPropertyOp45
 70
     1
102
RTVSPropertyOp46
 70
     1
102
RTVSPropertyOp47
 70
     1
102
RTVSPropertyOp48
 70
     1
102
RTVSPropertyOp49
 70
     1
102
RTVSPropertyOp50
 70
     1
102
RTVSPropertyOp51
 70
     0
102
RTVSPropertyOp52
 70
     0
102
RTVSPropertyOp53
 70
     1
102
RTVSPropertyOp54
 70
     1
102
RTVSPropertyOp55
 70
     1
102
RTVSPropertyOp56
 70
     1
102
RTVSPropertyOp57
 70
     1
102
RTVSPropertyOp58
 70
     1
102
RTVSPropertyOp59
 70
     1
102
RTVSPropertyOp60
 70
     1
102
RTVSPropertyOp61
 70
     1
102
RTVSPropertyOp62
 70
     1
  0
XRECORD
  5
38A8
102
{ACAD_REACTORS
330
38A7
102
}
330
38A7
100
AcDbXrecord
280
     1
102
RTVSPost2010Prop28
280
     0
102
RTVSPost2010PropOp28
 70
     1
102
RTVSPost2010Prop29
280
     1
102
RTVSPost2010PropOp29
 70
     1
102
RTVSPost2010Prop30
280
     1
102
RTVSPost2010PropOp30
 70
     1
102
RTVSPost2010Prop31
280
     0
102
RTVSPost2010PropOp31
 70
     1
102
RTVSPost2010Prop32
280
     0
102
RTVSPost2010PropOp32
 70
     1
102
RTVSPost2010Prop33
280
     0
102
RTVSPost2010PropOp33
 70
     1
102
RTVSPost2010Prop34
280
     0
102
RTVSPost2010PropOp34
 70
     1
102
RTVSPost2010Prop35
280
     0
102
RTVSPost2010PropOp35
 70
     1
102
RTVSPost2010Prop36
280
     0
102
RTVSPost2010PropOp36
 70
     1
102
RTVSPost2010Prop37
 90
       50
102
RTVSPost2010PropOp37
 70
     1
102
RTVSPost2010Prop38
140
0.0
102
RTVSPost2010PropOp38
 70
     1
102
RTVSPost2010Prop39
140
1.0
102
RTVSPost2010PropOp39
 70
     1
102
RTVSPost2010Prop40
 90
        0
102
RTVSPost2010PropOp40
 70
     1
102
RTVSPost2010Prop41ColorIndex
 90
       18
102
RTVSPost2010Prop41ColorRGB
 90
        0
102
RTVSPost2010PropOp41
 70
     1
102
RTVSPost2010Prop42
 90
       50
102
RTVSPost2010PropOp42
 70
     1
102
RTVSPost2010Prop43
 90
        3
102
RTVSPost2010PropOp43
 70
     1
102
RTVSPost2010Prop44ColorIndex
 90
        5
102
RTVSPost2010Prop44ColorRGB
 90
      255
102
RTVSPost2010PropOp44
 70
     1
102
RTVSPost2010Prop45
280
     0
102
RTVSPost2010PropOp45
 70
     1
102
RTVSPost2010Prop46
 90
       50
102
RTVSPost2010PropOp46
 70
     1
102
RTVSPost2010Prop47
 90
       50
102
RTVSPost2010PropOp47
 70
     1
102
RTVSPost2010Prop48
 90
       50
102
RTVSPost2010PropOp48
 70
     1
102
RTVSPost2010Prop49
280
     0
102
RTVSPost2010PropOp49
 70
     1
102
RTVSPost2010Prop50
 90
       50
102
RTVSPost2010PropOp50
 70
     1
102
RTVSPost2010Prop51ColorIndex
 90
      256
102
RTVSPost2010Prop51ColorRGB
 90
-16777216
102
RTVSPost2010PropOp51
 70
     0
102
RTVSPost2010Prop52
140
1.0
102
RTVSPost2010PropOp52
 70
     0
102
RTVSPost2010Prop53
 90
        2
102
RTVSPost2010PropOp53
 70
     1
102
RTVSPost2010Prop54
  1
strokes_ogs.tif
102
RTVSPost2010PropOp54
 70
     1
102
RTVSPost2010Prop55
280
     0
102
RTVSPost2010PropOp55
 70
     1
102
RTVSPost2010Prop56
140
1.0
102
RTVSPost2010PropOp56
 70
     1
102
RTVSPost2010Prop57
140
1.0
102
RTVSPost2010PropOp57
 70
     1
102
RTVSPropertyOp0
 70
     1
102
RTVSPropertyOp1
 70
     1
102
RTVSPropertyOp2
 70
     1
102
RTVSPropertyOp3
 70
     1
102
RTVSPropertyOp4
 70
     1
102
RTVSPropertyOp5
 70
     1
102
RTVSPropertyOp6
 70
     1
102
RTVSPropertyOp7
 70
     1
102
RTVSPropertyOp8
 70
     1
102
RTVSPropertyOp9
 70
     1
102
RTVSPropertyOp10
 70
     1
102
RTVSPropertyOp11
 70
     1
102
RTVSPropertyOp12
 70
     1
102
RTVSPropertyOp13
 70
     1
102
RTVSPropertyOp14
 70
     1
102
RTVSPropertyOp15
 70
     1
102
RTVSPropertyOp16
 70
     1
102
RTVSPropertyOp17
 70
     1
102
RTVSPropertyOp18
 70
     1
102
RTVSPropertyOp19
 70
     1
102
RTVSPropertyOp20
 70
     1
102
RTVSPropertyOp21
 70
     1
102
RTVSPropertyOp22
 70
     1
102
RTVSPropertyOp23
 70
     1
102
RTVSPropertyOp24
 70
     1
102
RTVSPropertyOp25
 70
     1
102
RTVSPropertyOp26
 70
     1
102
RTVSPropertyOp27
 70
     1
102
RTVSPropertyOp28
 70
     1
102
RTVSPropertyOp29
 70
     1
102
RTVSPropertyOp30
 70
     1
102
RTVSPropertyOp31
 70
     1
102
RTVSPropertyOp32
 70
     1
102
RTVSPropertyOp33
 70
     1
102
RTVSPropertyOp34
 70
     1
102
RTVSPropertyOp35
 70
     1
102
RTVSPropertyOp36
 70
     1
102
RTVSPropertyOp37
 70
     1
102
RTVSPropertyOp38
 70
     1
102
RTVSPropertyOp39
 70
     1
102
RTVSPropertyOp40
 70
     1
102
RTVSPropertyOp41
 70
     1
102
RTVSPropertyOp42
 70
     1
102
RTVSPropertyOp43
 70
     1
102
RTVSPropertyOp44
 70
     1
102
RTVSPropertyOp45
 70
     1
102
RTVSPropertyOp46
 70
     1
102
RTVSPropertyOp47
 70
     1
102
RTVSPropertyOp48
 70
     1
102
RTVSPropertyOp49
 70
     1
102
RTVSPropertyOp50
 70
     1
102
RTVSPropertyOp51
 70
     0
102
RTVSPropertyOp52
 70
     0
102
RTVSPropertyOp53
 70
     1
102
RTVSPropertyOp54
 70
     1
102
RTVSPropertyOp55
 70
     1
102
RTVSPropertyOp56
 70
     1
102
RTVSPropertyOp57
 70
     1
102
RTVSPropertyOp58
 70
     1
102
RTVSPropertyOp59
 70
     1
102
RTVSPropertyOp60
 70
     1
102
RTVSPropertyOp61
 70
     1
102
RTVSPropertyOp62
 70
     1
  0
XRECORD
  5
38C0
102
{ACAD_REACTORS
330
38BF
102
}
330
38BF
100
AcDbXrecord
280
     1
102
RTVSPost2010Prop28
280
     0
102
RTVSPost2010PropOp28
 70
     1
102
RTVSPost2010Prop29
280
     1
102
RTVSPost2010PropOp29
 70
     1
102
RTVSPost2010Prop30
280
     1
102
RTVSPost2010PropOp30
 70
     1
102
RTVSPost2010Prop31
280
     0
102
RTVSPost2010PropOp31
 70
     1
102
RTVSPost2010Prop32
280
     0
102
RTVSPost2010PropOp32
 70
     1
102
RTVSPost2010Prop33
280
     0
102
RTVSPost2010PropOp33
 70
     1
102
RTVSPost2010Prop34
280
     0
102
RTVSPost2010PropOp34
 70
     1
102
RTVSPost2010Prop35
280
     0
102
RTVSPost2010PropOp35
 70
     1
102
RTVSPost2010Prop36
280
     0
102
RTVSPost2010PropOp36
 70
     1
102
RTVSPost2010Prop37
 90
       50
102
RTVSPost2010PropOp37
 70
     1
102
RTVSPost2010Prop38
140
0.0
102
RTVSPost2010PropOp38
 70
     1
102
RTVSPost2010Prop39
140
1.0
102
RTVSPost2010PropOp39
 70
     1
102
RTVSPost2010Prop40
 90
        0
102
RTVSPost2010PropOp40
 70
     1
102
RTVSPost2010Prop41ColorIndex
 90
       18
102
RTVSPost2010Prop41ColorRGB
 90
        0
102
RTVSPost2010PropOp41
 70
     1
102
RTVSPost2010Prop42
 90
       50
102
RTVSPost2010PropOp42
 70
     1
102
RTVSPost2010Prop43
 90
        3
102
RTVSPost2010PropOp43
 70
     1
102
RTVSPost2010Prop44ColorIndex
 90
        5
102
RTVSPost2010Prop44ColorRGB
 90
      255
102
RTVSPost2010PropOp44
 70
     1
102
RTVSPost2010Prop45
280
     0
102
RTVSPost2010PropOp45
 70
     1
102
RTVSPost2010Prop46
 90
       50
102
RTVSPost2010PropOp46
 70
     1
102
RTVSPost2010Prop47
 90
       50
102
RTVSPost2010PropOp47
 70
     1
102
RTVSPost2010Prop48
 90
       50
102
RTVSPost2010PropOp48
 70
     1
102
RTVSPost2010Prop49
280
     0
102
RTVSPost2010PropOp49
 70
     1
102
RTVSPost2010Prop50
 90
       50
102
RTVSPost2010PropOp50
 70
     1
102
RTVSPost2010Prop51ColorIndex
 90
      256
102
RTVSPost2010Prop51ColorRGB
 90
-16777216
102
RTVSPost2010PropOp51
 70
     0
102
RTVSPost2010Prop52
140
1.0
102
RTVSPost2010PropOp52
 70
     0
102
RTVSPost2010Prop53
 90
        2
102
RTVSPost2010PropOp53
 70
     1
102
RTVSPost2010Prop54
  1
strokes_ogs.tif
102
RTVSPost2010PropOp54
 70
     1
102
RTVSPost2010Prop55
280
     0
102
RTVSPost2010PropOp55
 70
     1
102
RTVSPost2010Prop56
140
1.0
102
RTVSPost2010PropOp56
 70
     1
102
RTVSPost2010Prop57
140
1.0
102
RTVSPost2010PropOp57
 70
     1
102
RTVSPropertyOp0
 70
     1
102
RTVSPropertyOp1
 70
     1
102
RTVSPropertyOp2
 70
     1
102
RTVSPropertyOp3
 70
     1
102
RTVSPropertyOp4
 70
     1
102
RTVSPropertyOp5
 70
     1
102
RTVSPropertyOp6
 70
     1
102
RTVSPropertyOp7
 70
     1
102
RTVSPropertyOp8
 70
     1
102
RTVSPropertyOp9
 70
     1
102
RTVSPropertyOp10
 70
     1
102
RTVSPropertyOp11
 70
     1
102
RTVSPropertyOp12
 70
     1
102
RTVSPropertyOp13
 70
     1
102
RTVSPropertyOp14
 70
     1
102
RTVSPropertyOp15
 70
     1
102
RTVSPropertyOp16
 70
     1
102
RTVSPropertyOp17
 70
     1
102
RTVSPropertyOp18
 70
     1
102
RTVSPropertyOp19
 70
     1
102
RTVSPropertyOp20
 70
     1
102
RTVSPropertyOp21
 70
     1
102
RTVSPropertyOp22
 70
     1
102
RTVSPropertyOp23
 70
     1
102
RTVSPropertyOp24
 70
     1
102
RTVSPropertyOp25
 70
     1
102
RTVSPropertyOp26
 70
     1
102
RTVSPropertyOp27
 70
     1
102
RTVSPropertyOp28
 70
     1
102
RTVSPropertyOp29
 70
     1
102
RTVSPropertyOp30
 70
     1
102
RTVSPropertyOp31
 70
     1
102
RTVSPropertyOp32
 70
     1
102
RTVSPropertyOp33
 70
     1
102
RTVSPropertyOp34
 70
     1
102
RTVSPropertyOp35
 70
     1
102
RTVSPropertyOp36
 70
     1
102
RTVSPropertyOp37
 70
     1
102
RTVSPropertyOp38
 70
     1
102
RTVSPropertyOp39
 70
     1
102
RTVSPropertyOp40
 70
     1
102
RTVSPropertyOp41
 70
     1
102
RTVSPropertyOp42
 70
     1
102
RTVSPropertyOp43
 70
     1
102
RTVSPropertyOp44
 70
     1
102
RTVSPropertyOp45
 70
     1
102
RTVSPropertyOp46
 70
     1
102
RTVSPropertyOp47
 70
     1
102
RTVSPropertyOp48
 70
     1
102
RTVSPropertyOp49
 70
     1
102
RTVSPropertyOp50
 70
     1
102
RTVSPropertyOp51
 70
     0
102
RTVSPropertyOp52
 70
     0
102
RTVSPropertyOp53
 70
     1
102
RTVSPropertyOp54
 70
     1
102
RTVSPropertyOp55
 70
     1
102
RTVSPropertyOp56
 70
     1
102
RTVSPropertyOp57
 70
     1
102
RTVSPropertyOp58
 70
     1
102
RTVSPropertyOp59
 70
     1
102
RTVSPropertyOp60
 70
     1
102
RTVSPropertyOp61
 70
     1
102
RTVSPropertyOp62
 70
     1
  0
ENDSEC
  0
EOF
