  0
SECTION
  2
HEADER
  9
$ACADVER
  1
AC1018
  9
$ACADMAINTVER
 70
     2
  9
$DWGCODEPAGE
  3
ANSI_1252
  9
$INSBASE
 10
0.0
 20
0.0
 30
0.0
  9
$EXTMIN
 10
-0.0124792476954099
 20
-0.0112847001028058
 30
-0.000000000000007
  9
$EXTMAX
 10
1050.054958811573
 20
742.5453403867357
 30
0.0000000000000082
  9
$LIMMIN
 10
0.0
 20
0.0
  9
$LIMMAX
 10
1050.0
 20
742.4999999999999
  9
$ORTHOMODE
 70
     1
  9
$REGENMODE
 70
     1
  9
$FILLMODE
 70
     1
  9
$QTEXTMODE
 70
     0
  9
$MIRRTEXT
 70
     1
  9
$LTSCALE
 40
20.0
  9
$ATTMODE
 70
     1
  9
$TEXTSIZE
 40
2.0
  9
$TRACEWID
 40
1.0
  9
$TEXTSTYLE
  7
GREEKS
  9
$CLAYER
  8
VOLL
  9
$CELTYPE
  6
BYLAYER
  9
$CECOLOR
 62
   256
  9
$CELTSCALE
 40
1.0
  9
$DISPSILH
 70
     0
  9
$DIMSCALE
 40
2.5
  9
$DIMASZ
 40
3.5
  9
$DIMEXO
 40
1.0
  9
$DIMDLI
 40
7.0
  9
$DIMRND
 40
0.0
  9
$DIMDLE
 40
0.0
  9
$DIMEXE
 40
1.0
  9
$DIMTP
 40
1.0
  9
$DIMTM
 40
1.0
  9
$DIMTXT
 40
3.5
  9
$DIMCEN
 40
1.5
  9
$DIMTSZ
 40
0.0
  9
$DIMTOL
 70
     0
  9
$DIMLIM
 70
     0
  9
$DIMTIH
 70
     0
  9
$DIMTOH
 70
     0
  9
$DIMSE1
 70
     0
  9
$DIMSE2
 70
     0
  9
$DIMTAD
 70
     1
  9
$DIMZIN
 70
     8
  9
$DIMBLK
  1

  9
$DIMASO
 70
     1
  9
$DIMSHO
 70
     0
  9
$DIMPOST
  1

  9
$DIMAPOST
  1

  9
$DIMALT
 70
     0
  9
$DIMALTD
 70
     2
  9
$DIMALTF
 40
25.4
  9
$DIMLFAC
 40
1.0
  9
$DIMTOFL
 70
     1
  9
$DIMTVP
 40
0.2857142857142857
  9
$DIMTIX
 70
     0
  9
$DIMSOXD
 70
     0
  9
$DIMSAH
 70
     0
  9
$DIMBLK1
  1

  9
$DIMBLK2
  1

  9
$DIMSTYLE
  2
STANDARD
  9
$DIMCLRD
 70
     0
  9
$DIMCLRE
 70
     0
  9
$DIMCLRT
 70
     1
  9
$DIMTFAC
 40
0.5142857142857144
  9
$DIMGAP
 40
1.5
  9
$DIMJUST
 70
     0
  9
$DIMSD1
 70
     0
  9
$DIMSD2
 70
     0
  9
$DIMTOLJ
 70
     1
  9
$DIMTZIN
 70
     8
  9
$DIMALTZ
 70
     8
  9
$DIMALTTZ
 70
     8
  9
$DIMUPT
 70
     0
  9
$DIMDEC
 70
     2
  9
$DIMTDEC
 70
     2
  9
$DIMALTU
 70
     2
  9
$DIMALTTD
 70
     2
  9
$DIMTXSTY
  7
GREEKS
  9
$DIMAUNIT
 70
     0
  9
$DIMADEC
 70
     2
  9
$DIMALTRND
 40
0.0
  9
$DIMAZIN
 70
     2
  9
$DIMDSEP
 70
    46
  9
$DIMATFIT
 70
     3
  9
$DIMFRAC
 70
     0
  9
$DIMLDRBLK
  1

  9
$DIMLUNIT
 70
     2
  9
$DIMLWD
 70
    -2
  9
$DIMLWE
 70
    -2
  9
$DIMTMOVE
 70
     0
  9
$LUNITS
 70
     2
  9
$LUPREC
 70
     2
  9
$SKETCHINC
 40
1.0
  9
$FILLETRAD
 40
20.0
  9
$AUNITS
 70
     0
  9
$AUPREC
 70
     0
  9
$MENU
  1
ACAD
  9
$ELEVATION
 40
0.0
  9
$PELEVATION
 40
0.0
  9
$THICKNESS
 40
0.0
  9
$LIMCHECK
 70
     0
  9
$CHAMFERA
 40
0.0
  9
$CHAMFERB
 40
0.0
  9
$CHAMFERC
 40
0.0
  9
$CHAMFERD
 40
0.0
  9
$SKPOLY
 70
     0
  9
$TDCREATE
 40
2452258.349748611
  9
$TDUCREATE
 40
2452258.308081944
  9
$TDUPDATE
 40
2455544.574645683
  9
$TDUUPDATE
 40
2455544.532979016
  9
$TDINDWG
 40
3.0364028125
  9
$TDUSRTIMER
 40
3.0364028125
  9
$USRTIMER
 70
     1
  9
$ANGBASE
 50
0.0
  9
$ANGDIR
 70
     0
  9
$PDMODE
 70
     0
  9
$PDSIZE
 40
0.0
  9
$PLINEWID
 40
0.0
  9
$SPLFRAME
 70
     0
  9
$SPLINETYPE
 70
     6
  9
$SPLINESEGS
 70
     8
  9
$HANDSEED
  5
3573
  9
$SURFTAB1
 70
     6
  9
$SURFTAB2
 70
     6
  9
$SURFTYPE
 70
     6
  9
$SURFU
 70
     6
  9
$SURFV
 70
     6
  9
$UCSBASE
  2

  9
$UCSNAME
  2

  9
$UCSORG
 10
0.0
 20
0.0
 30
0.0
  9
$UCSXDIR
 10
1.0
 20
0.0
 30
0.0
  9
$UCSYDIR
 10
0.0
 20
1.0
 30
0.0
  9
$UCSORTHOREF
  2

  9
$UCSORTHOVIEW
 70
     0
  9
$UCSORGTOP
 10
0.0
 20
0.0
 30
0.0
  9
$UCSORGBOTTOM
 10
0.0
 20
0.0
 30
0.0
  9
$UCSORGLEFT
 10
0.0
 20
0.0
 30
0.0
  9
$UCSORGRIGHT
 10
0.0
 20
0.0
 30
0.0
  9
$UCSORGFRONT
 10
0.0
 20
0.0
 30
0.0
  9
$UCSORGBACK
 10
0.0
 20
0.0
 30
0.0
  9
$PUCSBASE
  2

  9
$PUCSNAME
  2

  9
$PUCSORG
 10
0.0
 20
0.0
 30
0.0
  9
$PUCSXDIR
 10
1.0
 20
0.0
 30
0.0
  9
$PUCSYDIR
 10
0.0
 20
1.0
 30
0.0
  9
$PUCSORTHOREF
  2

  9
$PUCSORTHOVIEW
 70
     0
  9
$PUCSORGTOP
 10
0.0
 20
0.0
 30
0.0
  9
$PUCSORGBOTTOM
 10
0.0
 20
0.0
 30
0.0
  9
$PUCSORGLEFT
 10
0.0
 20
0.0
 30
0.0
  9
$PUCSORGRIGHT
 10
0.0
 20
0.0
 30
0.0
  9
$PUCSORGFRONT
 10
0.0
 20
0.0
 30
0.0
  9
$PUCSORGBACK
 10
0.0
 20
0.0
 30
0.0
  9
$USERI1
 70
     0
  9
$USERI2
 70
     0
  9
$USERI3
 70
     0
  9
$USERI4
 70
     0
  9
$USERI5
 70
     0
  9
$USERR1
 40
0.0
  9
$USERR2
 40
0.0
  9
$USERR3
 40
0.0
  9
$USERR4
 40
0.0
  9
$USERR5
 40
0.0
  9
$WORLDVIEW
 70
     1
  9
$SHADEDGE
 70
     3
  9
$SHADEDIF
 70
    70
  9
$TILEMODE
 70
     1
  9
$MAXACTVP
 70
    16
  9
$PINSBASE
 10
0.0
 20
0.0
 30
0.0
  9
$PLIMCHECK
 70
     0
  9
$PEXTMIN
 10
1.000000000000000E+20
 20
1.000000000000000E+20
 30
1.000000000000000E+20
  9
$PEXTMAX
 10
-1.000000000000000E+20
 20
-1.000000000000000E+20
 30
-1.000000000000000E+20
  9
$PLIMMIN
 10
0.0
 20
0.0
  9
$PLIMMAX
 10
12.0
 20
9.0
  9
$UNITMODE
 70
     0
  9
$VISRETAIN
 70
     0
  9
$PLINEGEN
 70
     0
  9
$PSLTSCALE
 70
     0
  9
$TREEDEPTH
 70
  3020
  9
$CMLSTYLE
  2
STANDARD
  9
$CMLJUST
 70
     0
  9
$CMLSCALE
 40
1.0
  9
$PROXYGRAPHICS
 70
     1
  9
$MEASUREMENT
 70
     0
  9
$CELWEIGHT
370
    -1
  9
$ENDCAPS
280
     0
  9
$JOINSTYLE
280
     0
  9
$LWDISPLAY
290
     0
  9
$INSUNITS
 70
     0
  9
$HYPERLINKBASE
  1

  9
$STYLESHEET
  1
monochrome 1.ctb
  9
$XEDIT
290
     1
  9
$CEPSNTYPE
380
     0
  9
$PSTYLEMODE
290
     1
  9
$FINGERPRINTGUID
  2
{221CAAD2-C3E7-11D7-8050-000021C090BC}
  9
$VERSIONGUID
  2
{F3AE0CED-C868-4A66-90C6-464006BD6FC6}
  9
$EXTNAMES
290
     1
  9
$PSVPSCALE
 40
0.0
  9
$OLESTARTUP
290
     0
  9
$SORTENTS
280
    96
  9
$INDEXCTL
280
     0
  9
$HIDETEXT
280
     0
  9
$XCLIPFRAME
290
     0
  9
$HALOGAP
280
     0
  9
$OBSCOLOR
 70
   257
  9
$OBSLTYPE
280
     0
  9
$INTERSECTIONDISPLAY
280
     0
  9
$INTERSECTIONCOLOR
 70
   257
  9
$DIMASSOC
280
     1
  9
$PROJECTNAME
  1

  0
ENDSEC
  0
SECTION
  2
CLASSES
  0
CLASS
  1
DICTIONARYVAR
  2
AcDbDictionaryVar
  3
ObjectDBX Classes
 90
        0
 91
        3
280
     0
281
     0
  0
CLASS
  1
ACDBDICTIONARYWDFLT
  2
AcDbDictionaryWithDefault
  3
ObjectDBX Classes
 90
        0
 91
        1
280
     0
281
     0
  0
ENDSEC
  0
SECTION
  2
TABLES
  0
TABLE
  2
VPORT
  5
12
330
0
100
AcDbSymbolTable
 70
     2
  0
VPORT
  5
3572
330
12
100
AcDbSymbolTableRecord
100
AcDbViewportTableRecord
  2
*Active
 70
     0
 10
0.0
 20
0.0
 11
1.0
 21
1.0
 12
525.0212397819392
 22
371.2670278433165
 13
0.0
 23
0.0
 14
2.5
 24
2.5
 15
10.0
 25
10.0
 16
0.0
 26
0.0
 36
1.0
 17
0.0
 27
0.0
 37
0.0
 40
790.1777191696401
 41
1.336927223719676
 42
50.0
 43
0.0
 44
0.0
 50
0.0
 51
0.0
 71
     0
 72
   500
 73
     1
 74
     0
 75
     0
 76
     0
 77
     0
 78
     2
281
     0
 65
     1
110
0.0
120
0.0
130
0.0
111
1.0
121
0.0
131
0.0
112
0.0
122
1.0
132
0.0
 79
     0
146
0.0
  0
ENDTAB
  0
TABLE
  2
LTYPE
  5
D
330
0
100
AcDbSymbolTable
 70
     4
  0
LTYPE
  5
E
330
D
100
AcDbSymbolTableRecord
100
AcDbLinetypeTableRecord
  2
BYBLOCK
 70
     0
  3

 72
    65
 73
     0
 40
0.0
  0
LTYPE
  5
F
330
D
100
AcDbSymbolTableRecord
100
AcDbLinetypeTableRecord
  2
BYLAYER
 70
     0
  3

 72
    65
 73
     0
 40
0.0
  0
LTYPE
  5
5
330
D
100
AcDbSymbolTableRecord
100
AcDbLinetypeTableRecord
  2
AUSGEZOGEN
 70
     0
  3
Ausgezogene Linie
 72
    65
 73
     0
 40
0.0
  0
LTYPE
  5
21
330
D
100
AcDbSymbolTableRecord
100
AcDbLinetypeTableRecord
  2
STRICHPUNKT
 70
     0
  3
__ . __ . __ . __ . __ . __ . __ . __ . __ . __
 72
    65
 73
     4
 40
1.0
 49
0.5
 74
     0
 49
-0.25
 74
     0
 49
0.0
 74
     0
 49
-0.25
 74
     0
  0
LTYPE
  5
2D
330
D
100
AcDbSymbolTableRecord
100
AcDbLinetypeTableRecord
  2
CONTINUOUS
 70
     0
  3
Solid line
 72
    65
 73
     0
 40
0.0
  0
LTYPE
  5
24
330
D
100
AcDbSymbolTableRecord
100
AcDbLinetypeTableRecord
  2
VERDECKT
 70
     0
  3
Verdeckt __ __ __ __ __ __ __ __ __ __ __ __ __
 72
    65
 73
     2
 40
0.375
 49
0.25
 74
     0
 49
-0.125
 74
     0
  0
ENDTAB
  0
TABLE
  2
LAYER
  5
A
330
0
100
AcDbSymbolTable
 70
    10
  0
LAYER
  5
4
330
A
100
AcDbSymbolTableRecord
100
AcDbLayerTableRecord
  2
0
 70
     0
 62
     7
  6
AUSGEZOGEN
370
    -3
390
17C8
  0
LAYER
  5
46
330
A
100
AcDbSymbolTableRecord
100
AcDbLayerTableRecord
  2
VOLL
 70
     0
 62
     1
  6
AUSGEZOGEN
370
    -3
390
17C8
  0
LAYER
  5
3D
330
A
100
AcDbSymbolTableRecord
100
AcDbLayerTableRecord
  2
MITTEL
 70
     0
 62
     2
  6
STRICHPUNKT
370
    -3
390
17C8
  0
LAYER
  5
1B
330
A
100
AcDbSymbolTableRecord
100
AcDbLayerTableRecord
  2
BEM
 70
     0
 62
     7
  6
AUSGEZOGEN
370
    -3
390
17C8
  0
LAYER
  5
20
330
A
100
AcDbSymbolTableRecord
100
AcDbLayerTableRecord
  2
HILF
 70
     0
 62
    -2
  6
AUSGEZOGEN
370
    -3
390
17C8
  0
LAYER
  5
26
330
A
100
AcDbSymbolTableRecord
100
AcDbLayerTableRecord
  2
STEMPEL
 70
     0
 62
     3
  6
AUSGEZOGEN
370
    -3
390
17C8
  0
LAYER
  5
2C
330
A
100
AcDbSymbolTableRecord
100
AcDbLayerTableRecord
  2
TEXT
 70
     0
 62
     7
  6
CONTINUOUS
370
    -3
390
17C8
  0
LAYER
  5
23
330
A
100
AcDbSymbolTableRecord
100
AcDbLayerTableRecord
  2
VERDECKT
 70
     0
 62
     6
  6
VERDECKT
370
    -3
390
17C8
  0
LAYER
  5
6B
330
A
100
AcDbSymbolTableRecord
100
AcDbLayerTableRecord
  2
DEFPOINTS
 70
     0
 62
     7
  6
AUSGEZOGEN
290
     0
370
    -3
390
17C8
  0
LAYER
  5
3547
330
A
100
AcDbSymbolTableRecord
100
AcDbLayerTableRecord
  2
SCHRAFF
 70
     0
 62
     7
  6
AUSGEZOGEN
370
    -3
390
17C8
  0
ENDTAB
  0
TABLE
  2
STYLE
  5
B
330
0
100
AcDbSymbolTable
 70
     2
  0
STYLE
  5
C
330
B
100
AcDbSymbolTableRecord
100
AcDbTextStyleTableRecord
  2
STANDARD
 70
     0
 40
0.0
 41
1.0
 50
0.0
 71
     0
 42
3.5
  3
txt
  4

  0
STYLE
  5
1C
330
B
100
AcDbSymbolTableRecord
100
AcDbTextStyleTableRecord
  2
GREEKS
 70
     0
 40
0.0
 41
0.8
 50
0.0
 71
     0
 42
2.0
  3
SIMPLEX.shx
  4

  0
ENDTAB
  0
TABLE
  2
VIEW
  5
10
330
0
100
AcDbSymbolTable
 70
     0
  0
ENDTAB
  0
TABLE
  2
UCS
  5
11
330
0
100
AcDbSymbolTable
 70
     0
  0
ENDTAB
  0
TABLE
  2
APPID
  5
14
330
0
100
AcDbSymbolTable
 70
     1
  0
APPID
  5
15
330
14
100
AcDbSymbolTableRecord
100
AcDbRegAppTableRecord
  2
ACAD
 70
     0
  0
ENDTAB
  0
TABLE
  2
DIMSTYLE
  5
16
330
0
100
AcDbSymbolTable
 70
     1
100
AcDbDimStyleTable
 71
     1
340
1E
  0
DIMSTYLE
105
1E
102
{ACAD_REACTORS
330
FF5
330
FE8
330
FCE
330
22C6
330
107F
330
23B2
330
30F5
330
3102
330
3178
330
3185
330
31AF
330
31FB
330
3208
330
3216
330
3223
330
3230
330
32EE
330
3304
330
3311
330
333F
330
34BE
330
3506
330
3551
102
}
330
16
100
AcDbSymbolTableRecord
100
AcDbDimStyleTableRecord
  2
STANDARD
 70
     0
340
C
  0
ENDTAB
  0
TABLE
  2
BLOCK_RECORD
  5
1
330
0
100
AcDbSymbolTable
 70
    24
  0
BLOCK_RECORD
  5
2
330
1
100
AcDbSymbolTableRecord
100
AcDbBlockTableRecord
  2
*MODEL_SPACE
340
17CB
  0
BLOCK_RECORD
  5
7
330
1
100
AcDbSymbolTableRecord
100
AcDbBlockTableRecord
  2
*PAPER_SPACE
340
17CC
  0
BLOCK_RECORD
  5
FC2
330
1
100
AcDbSymbolTableRecord
100
AcDbBlockTableRecord
  2
*D0
340
0
  0
BLOCK_RECORD
  5
FDC
330
1
100
AcDbSymbolTableRecord
100
AcDbBlockTableRecord
  2
*D1
340
0
  0
BLOCK_RECORD
  5
FE9
330
1
100
AcDbSymbolTableRecord
100
AcDbBlockTableRecord
  2
*D2
340
0
  0
BLOCK_RECORD
  5
1073
330
1
100
AcDbSymbolTableRecord
100
AcDbBlockTableRecord
  2
*D3
340
0
  0
BLOCK_RECORD
  5
22C7
330
1
100
AcDbSymbolTableRecord
100
AcDbBlockTableRecord
  2
*D4
340
0
  0
BLOCK_RECORD
  5
23B3
330
1
100
AcDbSymbolTableRecord
100
AcDbBlockTableRecord
  2
*D5
340
0
  0
BLOCK_RECORD
  5
276B
330
1
100
AcDbSymbolTableRecord
100
AcDbBlockTableRecord
  2
*X6
340
0
102
{BLKREFS
331
2863
102
}
  0
BLOCK_RECORD
  5
30F6
330
1
100
AcDbSymbolTableRecord
100
AcDbBlockTableRecord
  2
*D7
340
0
  0
BLOCK_RECORD
  5
3103
330
1
100
AcDbSymbolTableRecord
100
AcDbBlockTableRecord
  2
*D8
340
0
  0
BLOCK_RECORD
  5
3179
330
1
100
AcDbSymbolTableRecord
100
AcDbBlockTableRecord
  2
*D9
340
0
  0
BLOCK_RECORD
  5
3186
330
1
100
AcDbSymbolTableRecord
100
AcDbBlockTableRecord
  2
*D10
340
0
  0
BLOCK_RECORD
  5
31B0
330
1
100
AcDbSymbolTableRecord
100
AcDbBlockTableRecord
  2
*D11
340
0
  0
BLOCK_RECORD
  5
31FC
330
1
100
AcDbSymbolTableRecord
100
AcDbBlockTableRecord
  2
*D12
340
0
  0
BLOCK_RECORD
  5
3209
330
1
100
AcDbSymbolTableRecord
100
AcDbBlockTableRecord
  2
*D13
340
0
  0
BLOCK_RECORD
  5
3217
330
1
100
AcDbSymbolTableRecord
100
AcDbBlockTableRecord
  2
*D14
340
0
  0
BLOCK_RECORD
  5
3224
330
1
100
AcDbSymbolTableRecord
100
AcDbBlockTableRecord
  2
*D15
340
0
  0
BLOCK_RECORD
  5
3231
330
1
100
AcDbSymbolTableRecord
100
AcDbBlockTableRecord
  2
*D16
340
0
  0
BLOCK_RECORD
  5
32EF
330
1
100
AcDbSymbolTableRecord
100
AcDbBlockTableRecord
  2
*D17
340
0
  0
BLOCK_RECORD
  5
3305
330
1
100
AcDbSymbolTableRecord
100
AcDbBlockTableRecord
  2
*D18
340
0
  0
BLOCK_RECORD
  5
3312
330
1
100
AcDbSymbolTableRecord
100
AcDbBlockTableRecord
  2
*D19
340
0
  0
BLOCK_RECORD
  5
3340
330
1
100
AcDbSymbolTableRecord
100
AcDbBlockTableRecord
  2
*D20
340
0
  0
BLOCK_RECORD
  5
34BF
330
1
100
AcDbSymbolTableRecord
100
AcDbBlockTableRecord
  2
*D21
340
0
  0
BLOCK_RECORD
  5
3507
330
1
100
AcDbSymbolTableRecord
100
AcDbBlockTableRecord
  2
*D22
340
0
  0
BLOCK_RECORD
  5
3552
330
1
100
AcDbSymbolTableRecord
100
AcDbBlockTableRecord
  2
*D23
340
0
  0
ENDTAB
  0
ENDSEC
  0
SECTION
  2
BLOCKS
  0
BLOCK
  5
3
330
2
100
AcDbEntity
  8
0
100
AcDbBlockBegin
  2
*MODEL_SPACE
 70
     0
 10
0.0
 20
0.0
 30
0.0
  3
*MODEL_SPACE
  1

  0
ENDBLK
  5
6
330
2
100
AcDbEntity
  8
0
100
AcDbBlockEnd
  0
BLOCK
  5
8
330
7
100
AcDbEntity
 67
     1
  8
0
100
AcDbBlockBegin
  2
*PAPER_SPACE
 70
     0
 10
0.0
 20
0.0
 30
0.0
  3
*PAPER_SPACE
  1

  0
ENDBLK
  5
9
330
7
100
AcDbEntity
 67
     1
  8
0
100
AcDbBlockEnd
  0
BLOCK
  5
12B5
330
FC2
100
AcDbEntity
  8
0
100
AcDbBlockBegin
  2
*D0
 70
     1
 10
0.0
 20
0.0
 30
0.0
  3
*D0
  1

  0
LINE
  5
2AEB
330
FC2
100
AcDbEntity
  8
BEM
 62
     0
370
    -2
100
AcDbLine
 10
162.6059336186206
 20
359.7697052206204
 30
0.0
 11
162.6059336186206
 21
411.9326932809616
 31
0.0
  0
LINE
  5
2AEC
330
FC2
100
AcDbEntity
  8
BEM
 62
     0
370
    -2
100
AcDbLine
 10
447.6059336186202
 20
282.2697052206206
 30
0.0
 11
447.6059336186202
 21
411.9326932809616
 31
0.0
  0
LINE
  5
2AED
330
FC2
100
AcDbEntity
  8
BEM
 62
     0
370
    -2
100
AcDbLine
 10
171.3559336186206
 20
409.4326932809615
 30
0.0
 11
438.8559336186202
 21
409.4326932809615
 31
0.0
  0
SOLID
  5
2AEE
330
FC2
100
AcDbEntity
  8
BEM
 62
     0
100
AcDbTrace
 10
171.3559336186206
 20
410.8910266142949
 30
0.0
 11
171.3559336186206
 21
407.9743599476282
 31
0.0
 12
162.6059336186206
 22
409.4326932809615
 32
0.0
 13
162.6059336186206
 23
409.4326932809615
 33
0.0
  0
SOLID
  5
2AEF
330
FC2
100
AcDbEntity
  8
BEM
 62
     0
100
AcDbTrace
 10
438.8559336186202
 20
410.8910266142949
 30
0.0
 11
438.8559336186202
 21
407.9743599476282
 31
0.0
 12
447.6059336186202
 22
409.4326932809615
 32
0.0
 13
447.6059336186202
 23
409.4326932809615
 33
0.0
  0
MTEXT
  5
2AF0
330
FC2
100
AcDbEntity
  8
BEM
 62
     1
100
AcDbMText
 10
305.1059336186204
 20
417.5576932809615
 30
0.0
 40
8.75
 41
0.0
 71
     5
 72
     1
  1
\A1;285
  7
GREEKS
 73
     1
 44
1.0
  0
POINT
  5
2AF1
330
FC2
100
AcDbEntity
  8
DEFPOINTS
 62
     0
100
AcDbPoint
 10
162.6059336186206
 20
357.2697052206204
 30
0.0
  0
POINT
  5
2AF2
330
FC2
100
AcDbEntity
  8
DEFPOINTS
 62
     0
100
AcDbPoint
 10
447.6059336186202
 20
279.7697052206206
 30
0.0
  0
POINT
  5
2AF3
330
FC2
100
AcDbEntity
  8
DEFPOINTS
 62
     0
100
AcDbPoint
 10
447.6059336186202
 20
409.4326932809615
 30
0.0
  0
ENDBLK
  5
12BF
330
FC2
100
AcDbEntity
  8
0
100
AcDbBlockEnd
  0
BLOCK
  5
12C0
330
FDC
100
AcDbEntity
  8
0
100
AcDbBlockBegin
  2
*D1
 70
     1
 10
0.0
 20
0.0
 30
0.0
  3
*D1
  1

  0
LINE
  5
2AE2
330
FDC
100
AcDbEntity
  8
BEM
 62
     0
370
    -2
100
AcDbLine
 10
162.6059336186206
 20
359.7697052206204
 30
0.0
 11
162.6059336186206
 21
393.9228075522438
 31
0.0
  0
LINE
  5
2AE3
330
FDC
100
AcDbEntity
  8
BEM
 62
     0
370
    -2
100
AcDbLine
 10
377.6059336186202
 20
344.7697052206203
 30
0.0
 11
377.6059336186202
 21
393.9228075522438
 31
0.0
  0
LINE
  5
2AE4
330
FDC
100
AcDbEntity
  8
BEM
 62
     0
370
    -2
100
AcDbLine
 10
171.3559336186206
 20
391.4228075522438
 30
0.0
 11
368.8559336186202
 21
391.4228075522438
 31
0.0
  0
SOLID
  5
2AE5
330
FDC
100
AcDbEntity
  8
BEM
 62
     0
100
AcDbTrace
 10
171.3559336186206
 20
392.8811408855771
 30
0.0
 11
171.3559336186206
 21
389.9644742189104
 31
0.0
 12
162.6059336186206
 22
391.4228075522438
 32
0.0
 13
162.6059336186206
 23
391.4228075522438
 33
0.0
  0
SOLID
  5
2AE6
330
FDC
100
AcDbEntity
  8
BEM
 62
     0
100
AcDbTrace
 10
368.8559336186202
 20
392.8811408855771
 30
0.0
 11
368.8559336186202
 21
389.9644742189104
 31
0.0
 12
377.6059336186202
 22
391.4228075522438
 32
0.0
 13
377.6059336186202
 23
391.4228075522438
 33
0.0
  0
MTEXT
  5
2AE7
330
FDC
100
AcDbEntity
  8
BEM
 62
     1
100
AcDbMText
 10
270.1059336186204
 20
399.5478075522438
 30
0.0
 40
8.75
 41
0.0
 71
     5
 72
     1
  1
\A1;215
  7
GREEKS
 73
     1
 44
1.0
  0
POINT
  5
2AE8
330
FDC
100
AcDbEntity
  8
DEFPOINTS
 62
     0
100
AcDbPoint
 10
162.6059336186206
 20
357.2697052206204
 30
0.0
  0
POINT
  5
2AE9
330
FDC
100
AcDbEntity
  8
DEFPOINTS
 62
     0
100
AcDbPoint
 10
377.6059336186202
 20
342.2697052206203
 30
0.0
  0
POINT
  5
2AEA
330
FDC
100
AcDbEntity
  8
DEFPOINTS
 62
     0
100
AcDbPoint
 10
377.6059336186202
 20
391.4228075522438
 30
0.0
  0
ENDBLK
  5
12CA
330
FDC
100
AcDbEntity
  8
0
100
AcDbBlockEnd
  0
BLOCK
  5
11EF
330
FE9
100
AcDbEntity
  8
0
100
AcDbBlockBegin
  2
*D2
 70
     1
 10
0.0
 20
0.0
 30
0.0
  3
*D2
  1

  0
LINE
  5
2AD9
330
FE9
100
AcDbEntity
  8
BEM
 62
     0
370
    -2
100
AcDbLine
 10
162.6059336186206
 20
359.7697052206204
 30
0.0
 11
162.6059336186206
 21
430.2054540644321
 31
0.0
  0
LINE
  5
2ADA
330
FE9
100
AcDbEntity
  8
BEM
 62
     0
370
    -2
100
AcDbLine
 10
532.6059336186201
 20
359.7697052206202
 30
0.0
 11
532.6059336186201
 21
430.2054540644321
 31
0.0
  0
LINE
  5
2ADB
330
FE9
100
AcDbEntity
  8
BEM
 62
     0
370
    -2
100
AcDbLine
 10
171.3559336186206
 20
427.7054540644321
 30
0.0
 11
523.8559336186201
 21
427.7054540644321
 31
0.0
  0
SOLID
  5
2ADC
330
FE9
100
AcDbEntity
  8
BEM
 62
     0
100
AcDbTrace
 10
171.3559336186206
 20
429.1637873977655
 30
0.0
 11
171.3559336186206
 21
426.2471207310988
 31
0.0
 12
162.6059336186206
 22
427.7054540644321
 32
0.0
 13
162.6059336186206
 23
427.7054540644321
 33
0.0
  0
SOLID
  5
2ADD
330
FE9
100
AcDbEntity
  8
BEM
 62
     0
100
AcDbTrace
 10
523.8559336186201
 20
429.1637873977655
 30
0.0
 11
523.8559336186201
 21
426.2471207310988
 31
0.0
 12
532.6059336186201
 22
427.7054540644321
 32
0.0
 13
532.6059336186201
 23
427.7054540644321
 33
0.0
  0
MTEXT
  5
2ADE
330
FE9
100
AcDbEntity
  8
BEM
 62
     1
100
AcDbMText
 10
347.6059336186204
 20
435.8304540644321
 30
0.0
 40
8.75
 41
0.0
 71
     5
 72
     1
  1
\A1;370
  7
GREEKS
 73
     1
 44
1.0
  0
POINT
  5
2ADF
330
FE9
100
AcDbEntity
  8
DEFPOINTS
 62
     0
100
AcDbPoint
 10
162.6059336186206
 20
357.2697052206204
 30
0.0
  0
POINT
  5
2AE0
330
FE9
100
AcDbEntity
  8
DEFPOINTS
 62
     0
100
AcDbPoint
 10
532.6059336186201
 20
357.2697052206202
 30
0.0
  0
POINT
  5
2AE1
330
FE9
100
AcDbEntity
  8
DEFPOINTS
 62
     0
100
AcDbPoint
 10
532.6059336186201
 20
427.7054540644321
 30
0.0
  0
ENDBLK
  5
11F9
330
FE9
100
AcDbEntity
  8
0
100
AcDbBlockEnd
  0
BLOCK
  5
1074
330
1073
100
AcDbEntity
  8
0
100
AcDbBlockBegin
  2
*D3
 70
     1
 10
0.0
 20
0.0
 30
0.0
  3
*D3
  1

  0
LINE
  5
2C23
330
1073
100
AcDbEntity
  8
BEM
 62
     0
370
    -2
100
AcDbLine
 10
707.7086353497979
 20
489.6310584022867
 30
0.0
 11
707.7086353497979
 21
409.0705226210148
 31
0.0
  0
LINE
  5
2C24
330
1073
100
AcDbEntity
  8
BEM
 62
     0
370
    -2
100
AcDbLine
 10
1017.708635349797
 20
489.6310584022867
 30
0.0
 11
1017.708635349797
 21
409.0705226210148
 31
0.0
  0
LINE
  5
2C25
330
1073
100
AcDbEntity
  8
BEM
 62
     0
370
    -2
100
AcDbLine
 10
716.458635349798
 20
411.5705226210147
 30
0.0
 11
1008.958635349797
 21
411.5705226210147
 31
0.0
  0
SOLID
  5
2C26
330
1073
100
AcDbEntity
  8
BEM
 62
     0
100
AcDbTrace
 10
716.458635349798
 20
413.0288559543481
 30
0.0
 11
716.458635349798
 21
410.1121892876815
 31
0.0
 12
707.7086353497979
 22
411.5705226210147
 32
0.0
 13
707.7086353497979
 23
411.5705226210147
 33
0.0
  0
SOLID
  5
2C27
330
1073
100
AcDbEntity
  8
BEM
 62
     0
100
AcDbTrace
 10
1008.958635349797
 20
413.0288559543481
 30
0.0
 11
1008.958635349797
 21
410.1121892876815
 31
0.0
 12
1017.708635349797
 22
411.5705226210147
 32
0.0
 13
1017.708635349797
 23
411.5705226210147
 33
0.0
  0
MTEXT
  5
2C28
330
1073
100
AcDbEntity
  8
BEM
 62
     1
100
AcDbMText
 10
862.7086353497977
 20
419.6955226210148
 30
0.0
 40
8.75
 41
0.0
 71
     5
 72
     1
  1
\A1;310
  7
GREEKS
 73
     1
 44
1.0
  0
POINT
  5
2C29
330
1073
100
AcDbEntity
  8
DEFPOINTS
 62
     0
100
AcDbPoint
 10
707.7086353497979
 20
492.1310584022867
 30
0.0
  0
POINT
  5
2C2A
330
1073
100
AcDbEntity
  8
DEFPOINTS
 62
     0
100
AcDbPoint
 10
1017.708635349797
 20
492.1310584022867
 30
0.0
  0
POINT
  5
2C2B
330
1073
100
AcDbEntity
  8
DEFPOINTS
 62
     0
100
AcDbPoint
 10
1017.708635349797
 20
411.5705226210147
 30
0.0
  0
ENDBLK
  5
107E
330
1073
100
AcDbEntity
  8
0
100
AcDbBlockEnd
  0
BLOCK
  5
22D1
330
22C7
100
AcDbEntity
  8
0
100
AcDbBlockBegin
  2
*D4
 70
     1
 10
0.0
 20
0.0
 30
0.0
  3
*D4
  1

  0
LINE
  5
2B1E
330
22C7
100
AcDbEntity
  8
BEM
 62
     0
370
    -2
100
AcDbLine
 10
162.6059336186206
 20
359.7697052206204
 30
0.0
 11
162.6059336186206
 21
374.3869042931164
 31
0.0
  0
LINE
  5
2B1F
330
22C7
100
AcDbEntity
  8
BEM
 62
     0
370
    -2
100
AcDbLine
 10
222.6059336186208
 20
342.2697052206203
 30
0.0
 11
222.6059336186208
 21
374.3869042931164
 31
0.0
  0
LINE
  5
2B20
330
22C7
100
AcDbEntity
  8
BEM
 62
     0
370
    -2
100
AcDbLine
 10
171.3559336186206
 20
371.8869042931165
 30
0.0
 11
213.8559336186208
 21
371.8869042931165
 31
0.0
  0
SOLID
  5
2B21
330
22C7
100
AcDbEntity
  8
BEM
 62
     0
100
AcDbTrace
 10
171.3559336186206
 20
373.3452376264498
 30
0.0
 11
171.3559336186206
 21
370.4285709597832
 31
0.0
 12
162.6059336186206
 22
371.8869042931165
 32
0.0
 13
162.6059336186206
 23
371.8869042931165
 33
0.0
  0
SOLID
  5
2B22
330
22C7
100
AcDbEntity
  8
BEM
 62
     0
100
AcDbTrace
 10
213.8559336186208
 20
373.3452376264498
 30
0.0
 11
213.8559336186208
 21
370.4285709597832
 31
0.0
 12
222.6059336186208
 22
371.8869042931165
 32
0.0
 13
222.6059336186208
 23
371.8869042931165
 33
0.0
  0
MTEXT
  5
2B23
330
22C7
100
AcDbEntity
  8
BEM
 62
     1
100
AcDbMText
 10
192.6059336186207
 20
380.0119042931165
 30
0.0
 40
8.75
 41
0.0
 71
     5
 72
     1
  1
\A1;60
  7
GREEKS
 73
     1
 44
1.0
  0
POINT
  5
2B24
330
22C7
100
AcDbEntity
  8
DEFPOINTS
 62
     0
100
AcDbPoint
 10
162.6059336186206
 20
357.2697052206204
 30
0.0
  0
POINT
  5
2B25
330
22C7
100
AcDbEntity
  8
DEFPOINTS
 62
     0
100
AcDbPoint
 10
222.6059336186208
 20
339.7697052206203
 30
0.0
  0
POINT
  5
2B26
330
22C7
100
AcDbEntity
  8
DEFPOINTS
 62
     0
100
AcDbPoint
 10
222.6059336186208
 20
371.8869042931165
 30
0.0
  0
ENDBLK
  5
22D2
330
22C7
100
AcDbEntity
  8
0
100
AcDbBlockEnd
  0
BLOCK
  5
23BD
330
23B3
100
AcDbEntity
  8
0
100
AcDbBlockBegin
  2
*D5
 70
     1
 10
0.0
 20
0.0
 30
0.0
  3
*D5
  1

  0
LINE
  5
31BC
330
23B3
100
AcDbEntity
  8
BEM
 62
     0
370
    -2
100
AcDbLine
 10
705.2086353497978
 20
652.1310584022867
 30
0.0
 11
670.2747356112354
 21
652.1310584022867
 31
0.0
  0
LINE
  5
31BD
330
23B3
100
AcDbEntity
  8
BEM
 62
     0
370
    -2
100
AcDbLine
 10
705.208635349798
 20
492.1310584022867
 30
0.0
 11
670.2747356112354
 21
492.1310584022867
 31
0.0
  0
LINE
  5
31BE
330
23B3
100
AcDbEntity
  8
BEM
 62
     0
370
    -2
100
AcDbLine
 10
672.7747356112354
 20
643.3810584022867
 30
0.0
 11
672.7747356112354
 21
500.8810584022866
 31
0.0
  0
SOLID
  5
31BF
330
23B3
100
AcDbEntity
  8
BEM
 62
     0
100
AcDbTrace
 10
671.316402277902
 20
643.3810584022867
 30
0.0
 11
674.2330689445688
 21
643.3810584022867
 31
0.0
 12
672.7747356112354
 22
652.1310584022867
 32
0.0
 13
672.7747356112354
 23
652.1310584022867
 33
0.0
  0
SOLID
  5
31C0
330
23B3
100
AcDbEntity
  8
BEM
 62
     0
100
AcDbTrace
 10
671.316402277902
 20
500.8810584022866
 30
0.0
 11
674.2330689445688
 21
500.8810584022866
 31
0.0
 12
672.7747356112354
 22
492.1310584022867
 32
0.0
 13
672.7747356112354
 23
492.1310584022867
 33
0.0
  0
MTEXT
  5
31C1
330
23B3
100
AcDbEntity
  8
BEM
 62
     1
100
AcDbMText
 10
664.6497356112353
 20
572.1310584022868
 30
0.0
 40
8.75
 41
0.0
 71
     5
 72
     1
  1
\A1;160
  7
GREEKS
 11
0.0000000000000001
 21
1.0
 31
0.0
 73
     1
 44
1.0
  0
POINT
  5
31C2
330
23B3
100
AcDbEntity
  8
DEFPOINTS
 62
     0
100
AcDbPoint
 10
707.7086353497978
 20
652.1310584022867
 30
0.0
  0
POINT
  5
31C3
330
23B3
100
AcDbEntity
  8
DEFPOINTS
 62
     0
100
AcDbPoint
 10
707.7086353497979
 20
492.1310584022867
 30
0.0
  0
POINT
  5
31C4
330
23B3
100
AcDbEntity
  8
DEFPOINTS
 62
     0
100
AcDbPoint
 10
672.7747356112354
 20
492.1310584022867
 30
0.0
  0
ENDBLK
  5
23BE
330
23B3
100
AcDbEntity
  8
0
100
AcDbBlockEnd
  0
BLOCK
  5
276C
330
276B
100
AcDbEntity
  8
0
100
AcDbBlockBegin
  2
*X6
 70
     1
 10
0.0
 20
0.0
 30
0.0
  3
*X6
  1

  0
LINE
  5
276D
330
276B
100
AcDbEntity
  8
0
 62
     0
100
AcDbLine
 10
206.5172291092391
 20
441.4
 30
0.0
 11
209.0645566134967
 21
441.4
 31
0.0
  0
LINE
  5
276E
330
276B
100
AcDbEntity
  8
0
 62
     0
100
AcDbLine
 10
206.4576795827597
 20
441.5
 30
0.0
 11
209.0645566134967
 21
441.5
 31
0.0
  0
LINE
  5
276F
330
276B
100
AcDbEntity
  8
0
 62
     0
100
AcDbLine
 10
206.4032151673795
 20
441.6
 30
0.0
 11
209.0645566134967
 21
441.6
 31
0.0
  0
LINE
  5
2770
330
276B
100
AcDbEntity
  8
0
 62
     0
100
AcDbLine
 10
206.3535293668136
 20
441.7
 30
0.0
 11
209.0645566134967
 21
441.7
 31
0.0
  0
LINE
  5
2771
330
276B
100
AcDbEntity
  8
0
 62
     0
100
AcDbLine
 10
206.3083637371371
 20
441.8
 30
0.0
 11
209.0645566134967
 21
441.8
 31
0.0
  0
LINE
  5
2772
330
276B
100
AcDbEntity
  8
0
 62
     0
100
AcDbLine
 10
206.2674993006887
 20
441.9
 30
0.0
 11
209.0645566134967
 21
441.9
 31
0.0
  0
LINE
  5
2773
330
276B
100
AcDbEntity
  8
0
 62
     0
100
AcDbLine
 10
206.2307499774381
 20
442.0
 30
0.0
 11
209.0645566134967
 21
442.0
 31
0.0
  0
LINE
  5
2774
330
276B
100
AcDbEntity
  8
0
 62
     0
100
AcDbLine
 10
206.1979574978186
 20
442.1
 30
0.0
 11
209.0645566134967
 21
442.1
 31
0.0
  0
LINE
  5
2775
330
276B
100
AcDbEntity
  8
0
 62
     0
100
AcDbLine
 10
206.1689874242968
 20
442.2
 30
0.0
 11
209.0645566134967
 21
442.2
 31
0.0
  0
LINE
  5
2776
330
276B
100
AcDbEntity
  8
0
 62
     0
100
AcDbLine
 10
206.143726017779
 20
442.3
 30
0.0
 11
209.0645566134967
 21
442.3
 31
0.0
  0
LINE
  5
2777
330
276B
100
AcDbEntity
  8
0
 62
     0
100
AcDbLine
 10
206.1220777591431
 20
442.4
 30
0.0
 11
209.0645566134967
 21
442.4
 31
0.0
  0
LINE
  5
2778
330
276B
100
AcDbEntity
  8
0
 62
     0
100
AcDbLine
 10
206.1039633878483
 20
442.4999999999999
 30
0.0
 11
209.0645566134967
 21
442.4999999999999
 31
0.0
  0
LINE
  5
2779
330
276B
100
AcDbEntity
  8
0
 62
     0
100
AcDbLine
 10
206.0893183562823
 20
442.6
 30
0.0
 11
209.0645566134967
 21
442.6
 31
0.0
  0
LINE
  5
277A
330
276B
100
AcDbEntity
  8
0
 62
     0
100
AcDbLine
 10
206.0780916251486
 20
442.7
 30
0.0
 11
209.0645566134967
 21
442.7
 31
0.0
  0
LINE
  5
277B
330
276B
100
AcDbEntity
  8
0
 62
     0
100
AcDbLine
 10
206.0702447449588
 20
442.7999999999999
 30
0.0
 11
209.0645566134967
 21
442.7999999999999
 31
0.0
  0
LINE
  5
277C
330
276B
100
AcDbEntity
  8
0
 62
     0
100
AcDbLine
 10
206.0657511837458
 20
442.9
 30
0.0
 11
209.0645566134967
 21
442.9
 31
0.0
  0
LINE
  5
277D
330
276B
100
AcDbEntity
  8
0
 62
     0
100
AcDbLine
 10
206.5822296860938
 20
441.3
 30
0.0
 11
209.0645566134967
 21
441.3
 31
0.0
  0
LINE
  5
277E
330
276B
100
AcDbEntity
  8
0
 62
     0
100
AcDbLine
 10
206.6531220746645
 20
441.2
 30
0.0
 11
209.0645566134967
 21
441.2
 31
0.0
  0
LINE
  5
277F
330
276B
100
AcDbEntity
  8
0
 62
     0
100
AcDbLine
 10
206.7304430567828
 20
441.1
 30
0.0
 11
209.0645566134967
 21
441.1
 31
0.0
  0
LINE
  5
2780
330
276B
100
AcDbEntity
  8
0
 62
     0
100
AcDbLine
 10
206.8148553763991
 20
441.0
 30
0.0
 11
209.0645566134967
 21
441.0
 31
0.0
  0
LINE
  5
2781
330
276B
100
AcDbEntity
  8
0
 62
     0
100
AcDbLine
 10
206.9071912719837
 20
440.9
 30
0.0
 11
209.0645566134967
 21
440.9
 31
0.0
  0
LINE
  5
2782
330
276B
100
AcDbEntity
  8
0
 62
     0
100
AcDbLine
 10
207.0085180006968
 20
440.8
 30
0.0
 11
209.0645566134967
 21
440.8
 31
0.0
  0
LINE
  5
2783
330
276B
100
AcDbEntity
  8
0
 62
     0
100
AcDbLine
 10
207.1202407086378
 20
440.7
 30
0.0
 11
209.0645566134967
 21
440.7
 31
0.0
  0
LINE
  5
2784
330
276B
100
AcDbEntity
  8
0
 62
     0
100
AcDbLine
 10
207.2442725976217
 20
440.6
 30
0.0
 11
209.0645566134967
 21
440.6
 31
0.0
  0
LINE
  5
2785
330
276B
100
AcDbEntity
  8
0
 62
     0
100
AcDbLine
 10
207.3833357895081
 20
440.5
 30
0.0
 11
209.0645566134967
 21
440.5
 31
0.0
  0
LINE
  5
2786
330
276B
100
AcDbEntity
  8
0
 62
     0
100
AcDbLine
 10
207.5415421619645
 20
440.4
 30
0.0
 11
209.0645566134967
 21
440.4
 31
0.0
  0
LINE
  5
2787
330
276B
100
AcDbEntity
  8
0
 62
     0
100
AcDbLine
 10
207.7256605831274
 20
440.3
 30
0.0
 11
209.0645566134967
 21
440.3
 31
0.0
  0
LINE
  5
2788
330
276B
100
AcDbEntity
  8
0
 62
     0
100
AcDbLine
 10
207.9484418610175
 20
440.2
 30
0.0
 11
209.0645566134967
 21
440.2
 31
0.0
  0
LINE
  5
2789
330
276B
100
AcDbEntity
  8
0
 62
     0
100
AcDbLine
 10
208.2406745216507
 20
440.1
 30
0.0
 11
209.0645566134967
 21
440.1
 31
0.0
  0
LINE
  5
278A
330
276B
100
AcDbEntity
  8
0
 62
     0
100
AcDbLine
 10
208.7614868825315
 20
440.0
 30
0.0
 11
209.0645566134967
 21
440.0
 31
0.0
  0
ENDBLK
  5
278B
330
276B
100
AcDbEntity
  8
0
100
AcDbBlockEnd
  0
BLOCK
  5
3100
330
30F6
100
AcDbEntity
  8
0
100
AcDbBlockBegin
  2
*D7
 70
     1
 10
0.0
 20
0.0
 30
0.0
  3
*D7
  1

  0
LINE
  5
30F7
330
30F6
100
AcDbEntity
  8
BEM
 62
     0
370
    -2
100
AcDbLine
 10
450.1059336186203
 20
585.1310584022883
 30
0.0
 11
555.2080834986191
 21
585.1310584022883
 31
0.0
  0
LINE
  5
30F8
330
30F6
100
AcDbEntity
  8
BEM
 62
     0
370
    -2
100
AcDbLine
 10
517.1059336186202
 20
642.1310584022867
 30
0.0
 11
555.2080834986191
 21
642.1310584022867
 31
0.0
  0
LINE
  5
30F9
330
30F6
100
AcDbEntity
  8
BEM
 62
     0
370
    -2
100
AcDbLine
 10
552.7080834986191
 20
593.8810584022883
 30
0.0
 11
552.7080834986191
 21
633.3810584022867
 31
0.0
  0
SOLID
  5
30FA
330
30F6
100
AcDbEntity
  8
BEM
 62
     0
100
AcDbTrace
 10
551.2497501652857
 20
593.8810584022883
 30
0.0
 11
554.1664168319524
 21
593.8810584022883
 31
0.0
 12
552.7080834986191
 22
585.1310584022883
 32
0.0
 13
552.7080834986191
 23
585.1310584022883
 33
0.0
  0
SOLID
  5
30FB
330
30F6
100
AcDbEntity
  8
BEM
 62
     0
100
AcDbTrace
 10
551.2497501652857
 20
633.3810584022867
 30
0.0
 11
554.1664168319524
 21
633.3810584022867
 31
0.0
 12
552.7080834986191
 22
642.1310584022867
 32
0.0
 13
552.7080834986191
 23
642.1310584022867
 33
0.0
  0
MTEXT
  5
30FC
330
30F6
100
AcDbEntity
  8
BEM
 62
     1
100
AcDbMText
 10
544.5830834986189
 20
613.6310584022876
 30
0.0
 40
8.75
 41
0.0
 71
     5
 72
     1
  1
\A1;57
  7
GREEKS
 11
0.0000000000000001
 21
1.0
 31
0.0
 73
     1
 44
1.0
  0
POINT
  5
30FD
330
30F6
100
AcDbEntity
  8
DEFPOINTS
 62
     0
100
AcDbPoint
 10
447.6059336186202
 20
585.1310584022883
 30
0.0
  0
POINT
  5
30FE
330
30F6
100
AcDbEntity
  8
DEFPOINTS
 62
     0
100
AcDbPoint
 10
514.6059336186201
 20
642.1310584022867
 30
0.0
  0
POINT
  5
30FF
330
30F6
100
AcDbEntity
  8
DEFPOINTS
 62
     0
100
AcDbPoint
 10
552.7080834986191
 20
642.1310584022867
 30
0.0
  0
ENDBLK
  5
3101
330
30F6
100
AcDbEntity
  8
0
100
AcDbBlockEnd
  0
BLOCK
  5
3112
330
3103
100
AcDbEntity
  8
0
100
AcDbBlockBegin
  2
*D8
 70
     1
 10
0.0
 20
0.0
 30
0.0
  3
*D8
  1

  0
LINE
  5
3114
330
3103
100
AcDbEntity
  8
BEM
 62
     0
370
    -2
100
AcDbLine
 10
517.1059336186202
 20
642.1310584022867
 30
0.0
 11
555.2080834986191
 21
642.1310584022867
 31
0.0
  0
LINE
  5
3115
330
3103
100
AcDbEntity
  8
BEM
 62
     0
370
    -2
100
AcDbLine
 10
535.1059336186201
 20
652.1310584022867
 30
0.0
 11
555.2080834986191
 21
652.1310584022867
 31
0.0
  0
LINE
  5
3116
330
3103
100
AcDbEntity
  8
BEM
 62
     0
370
    -2
100
AcDbLine
 10
552.7080834986191
 20
633.3810584022867
 30
0.0
 11
552.7080834986191
 21
624.6310584022867
 31
0.0
  0
LINE
  5
3117
330
3103
100
AcDbEntity
  8
BEM
 62
     0
370
    -2
100
AcDbLine
 10
552.7080834986191
 20
660.8810584022867
 30
0.0
 11
552.7080834986191
 21
687.1310584022867
 31
0.0
  0
LINE
  5
3118
330
3103
100
AcDbEntity
  8
BEM
 62
     0
370
    -2
100
AcDbLine
 10
552.7080834986191
 20
642.1310584022867
 30
0.0
 11
552.7080834986191
 21
652.1310584022867
 31
0.0
  0
SOLID
  5
3119
330
3103
100
AcDbEntity
  8
BEM
 62
     0
100
AcDbTrace
 10
551.2497501652857
 20
633.3810584022867
 30
0.0
 11
554.1664168319524
 21
633.3810584022867
 31
0.0
 12
552.7080834986191
 22
642.1310584022867
 32
0.0
 13
552.7080834986191
 23
642.1310584022867
 33
0.0
  0
SOLID
  5
311A
330
3103
100
AcDbEntity
  8
BEM
 62
     0
100
AcDbTrace
 10
551.2497501652857
 20
660.8810584022867
 30
0.0
 11
554.1664168319524
 21
660.8810584022867
 31
0.0
 12
552.7080834986191
 22
652.1310584022867
 32
0.0
 13
552.7080834986191
 23
652.1310584022867
 33
0.0
  0
MTEXT
  5
311B
330
3103
100
AcDbEntity
  8
BEM
 62
     1
100
AcDbMText
 10
544.5830834986189
 20
678.3810584022868
 30
0.0
 40
8.75
 41
0.0
 71
     5
 72
     1
  1
\A1;10
  7
GREEKS
 11
0.0000000000000001
 21
1.0
 31
0.0
 73
     1
 44
1.0
  0
POINT
  5
311C
330
3103
100
AcDbEntity
  8
DEFPOINTS
 62
     0
100
AcDbPoint
 10
514.6059336186201
 20
642.1310584022867
 30
0.0
  0
POINT
  5
311D
330
3103
100
AcDbEntity
  8
DEFPOINTS
 62
     0
100
AcDbPoint
 10
532.6059336186201
 20
652.1310584022867
 30
0.0
  0
POINT
  5
311E
330
3103
100
AcDbEntity
  8
DEFPOINTS
 62
     0
100
AcDbPoint
 10
552.7080834986191
 20
652.1310584022867
 30
0.0
  0
ENDBLK
  5
3113
330
3103
100
AcDbEntity
  8
0
100
AcDbBlockEnd
  0
BLOCK
  5
3183
330
3179
100
AcDbEntity
  8
0
100
AcDbBlockBegin
  2
*D9
 70
     1
 10
0.0
 20
0.0
 30
0.0
  3
*D9
  1

  0
LINE
  5
3336
330
3179
100
AcDbEntity
  8
BEM
 62
     0
370
    -2
100
AcDbLine
 10
160.1059336186207
 20
652.1310584022867
 30
0.0
 11
126.7421776363039
 21
652.1310584022867
 31
0.0
  0
LINE
  5
3337
330
3179
100
AcDbEntity
  8
BEM
 62
     0
370
    -2
100
AcDbLine
 10
160.1059336186207
 20
512.1310584022876
 30
0.0
 11
126.7421776363039
 21
512.1310584022876
 31
0.0
  0
LINE
  5
3338
330
3179
100
AcDbEntity
  8
BEM
 62
     0
370
    -2
100
AcDbLine
 10
129.242177636304
 20
643.3810584022867
 30
0.0
 11
129.2421776363039
 21
520.8810584022876
 31
0.0
  0
SOLID
  5
3339
330
3179
100
AcDbEntity
  8
BEM
 62
     0
100
AcDbTrace
 10
127.7838443029706
 20
643.3810584022867
 30
0.0
 11
130.7005109696373
 21
643.3810584022867
 31
0.0
 12
129.242177636304
 22
652.1310584022867
 32
0.0
 13
129.242177636304
 23
652.1310584022867
 33
0.0
  0
SOLID
  5
333A
330
3179
100
AcDbEntity
  8
BEM
 62
     0
100
AcDbTrace
 10
127.7838443029706
 20
520.8810584022876
 30
0.0
 11
130.7005109696373
 21
520.8810584022876
 31
0.0
 12
129.2421776363039
 22
512.1310584022876
 32
0.0
 13
129.2421776363039
 23
512.1310584022876
 33
0.0
  0
MTEXT
  5
333B
330
3179
100
AcDbEntity
  8
BEM
 62
     1
100
AcDbMText
 10
121.1171776363038
 20
582.1310584022872
 30
0.0
 40
8.75
 41
0.0
 71
     5
 72
     1
  1
\A1;140
  7
GREEKS
 11
0.0000000000000001
 21
1.0
 31
0.0
 73
     1
 44
1.0
  0
POINT
  5
333C
330
3179
100
AcDbEntity
  8
DEFPOINTS
 62
     0
100
AcDbPoint
 10
162.6059336186208
 20
652.1310584022867
 30
0.0
  0
POINT
  5
333D
330
3179
100
AcDbEntity
  8
DEFPOINTS
 62
     0
100
AcDbPoint
 10
162.6059336186207
 20
512.1310584022876
 30
0.0
  0
POINT
  5
333E
330
3179
100
AcDbEntity
  8
DEFPOINTS
 62
     0
100
AcDbPoint
 10
129.2421776363039
 20
512.1310584022876
 30
0.0
  0
ENDBLK
  5
3184
330
3179
100
AcDbEntity
  8
0
100
AcDbBlockEnd
  0
BLOCK
  5
3190
330
3186
100
AcDbEntity
  8
0
100
AcDbBlockBegin
  2
*D10
 70
     1
 10
0.0
 20
0.0
 30
0.0
  3
*D10
  1

  0
LINE
  5
3548
330
3186
100
AcDbEntity
  8
BEM
 62
     0
370
    -2
100
AcDbLine
 10
797.7086353497976
 20
654.6310584022867
 30
0.0
 11
797.7086353497976
 21
683.9355678911228
 31
0.0
  0
LINE
  5
3549
330
3186
100
AcDbEntity
  8
BEM
 62
     0
370
    -2
100
AcDbLine
 10
927.7086353497976
 20
654.6310584022867
 30
0.0
 11
927.7086353497976
 21
683.9355678911228
 31
0.0
  0
LINE
  5
354A
330
3186
100
AcDbEntity
  8
BEM
 62
     0
370
    -2
100
AcDbLine
 10
806.4586353497976
 20
681.4355678911229
 30
0.0
 11
918.9586353497976
 21
681.4355678911229
 31
0.0
  0
SOLID
  5
354B
330
3186
100
AcDbEntity
  8
BEM
 62
     0
100
AcDbTrace
 10
806.4586353497976
 20
682.8939012244562
 30
0.0
 11
806.4586353497976
 21
679.9772345577895
 31
0.0
 12
797.7086353497976
 22
681.4355678911229
 32
0.0
 13
797.7086353497976
 23
681.4355678911229
 33
0.0
  0
SOLID
  5
354C
330
3186
100
AcDbEntity
  8
BEM
 62
     0
100
AcDbTrace
 10
918.9586353497976
 20
682.8939012244562
 30
0.0
 11
918.9586353497976
 21
679.9772345577895
 31
0.0
 12
927.7086353497976
 22
681.4355678911229
 32
0.0
 13
927.7086353497976
 23
681.4355678911229
 33
0.0
  0
MTEXT
  5
354D
330
3186
100
AcDbEntity
  8
BEM
 62
     1
100
AcDbMText
 10
862.7086353497976
 20
689.5605678911229
 30
0.0
 40
8.75
 41
0.0
 71
     5
 72
     1
  1
\A1;130
  7
GREEKS
 73
     1
 44
1.0
  0
POINT
  5
354E
330
3186
100
AcDbEntity
  8
DEFPOINTS
 62
     0
100
AcDbPoint
 10
797.7086353497976
 20
652.1310584022867
 30
0.0
  0
POINT
  5
354F
330
3186
100
AcDbEntity
  8
DEFPOINTS
 62
     0
100
AcDbPoint
 10
927.7086353497976
 20
652.1310584022867
 30
0.0
  0
POINT
  5
3550
330
3186
100
AcDbEntity
  8
DEFPOINTS
 62
     0
100
AcDbPoint
 10
927.7086353497976
 20
681.4355678911229
 30
0.0
  0
ENDBLK
  5
3191
330
3186
100
AcDbEntity
  8
0
100
AcDbBlockEnd
  0
BLOCK
  5
31BA
330
31B0
100
AcDbEntity
  8
0
100
AcDbBlockBegin
  2
*D11
 70
     1
 10
0.0
 20
0.0
 30
0.0
  3
*D11
  1

  0
LINE
  5
335A
330
31B0
100
AcDbEntity
  8
BEM
 62
     0
370
    -2
100
AcDbLine
 10
705.2086353497978
 20
652.1310584022867
 30
0.0
 11
689.4009836609966
 21
652.1310584022867
 31
0.0
  0
LINE
  5
335B
330
31B0
100
AcDbEntity
  8
BEM
 62
     0
370
    -2
100
AcDbLine
 10
850.2086353497979
 20
512.1310584022867
 30
0.0
 11
689.4009836609966
 21
512.1310584022868
 31
0.0
  0
LINE
  5
335C
330
31B0
100
AcDbEntity
  8
BEM
 62
     0
370
    -2
100
AcDbLine
 10
691.9009836609966
 20
643.3810584022867
 30
0.0
 11
691.9009836609966
 21
520.8810584022868
 31
0.0
  0
SOLID
  5
335D
330
31B0
100
AcDbEntity
  8
BEM
 62
     0
100
AcDbTrace
 10
690.4426503276632
 20
643.3810584022867
 30
0.0
 11
693.35931699433
 21
643.3810584022867
 31
0.0
 12
691.9009836609966
 22
652.1310584022867
 32
0.0
 13
691.9009836609966
 23
652.1310584022867
 33
0.0
  0
SOLID
  5
335E
330
31B0
100
AcDbEntity
  8
BEM
 62
     0
100
AcDbTrace
 10
690.4426503276632
 20
520.8810584022868
 30
0.0
 11
693.35931699433
 21
520.8810584022868
 31
0.0
 12
691.9009836609966
 22
512.1310584022868
 32
0.0
 13
691.9009836609966
 23
512.1310584022868
 33
0.0
  0
MTEXT
  5
335F
330
31B0
100
AcDbEntity
  8
BEM
 62
     1
100
AcDbMText
 10
683.7759836609965
 20
582.1310584022869
 30
0.0
 40
8.75
 41
0.0
 71
     5
 72
     1
  1
\A1;140
  7
GREEKS
 11
0.0000000000000001
 21
1.0
 31
0.0
 73
     1
 44
1.0
  0
POINT
  5
3360
330
31B0
100
AcDbEntity
  8
DEFPOINTS
 62
     0
100
AcDbPoint
 10
707.7086353497978
 20
652.1310584022867
 30
0.0
  0
POINT
  5
3361
330
31B0
100
AcDbEntity
  8
DEFPOINTS
 62
     0
100
AcDbPoint
 10
852.7086353497978
 20
512.1310584022867
 30
0.0
  0
POINT
  5
3362
330
31B0
100
AcDbEntity
  8
DEFPOINTS
 62
     0
100
AcDbPoint
 10
691.9009836609966
 20
512.1310584022868
 30
0.0
  0
ENDBLK
  5
31BB
330
31B0
100
AcDbEntity
  8
0
100
AcDbBlockEnd
  0
BLOCK
  5
3206
330
31FC
100
AcDbEntity
  8
0
100
AcDbBlockBegin
  2
*D12
 70
     1
 10
0.0
 20
0.0
 30
0.0
  3
*D12
  1

  0
LINE
  5
31FD
330
31FC
100
AcDbEntity
  8
BEM
 62
     0
370
    -2
100
AcDbLine
 10
220.1059336186208
 20
254.7697052206204
 30
0.0
 11
144.1666375166651
 21
254.7697052206205
 31
0.0
  0
LINE
  5
31FE
330
31FC
100
AcDbEntity
  8
BEM
 62
     0
370
    -2
100
AcDbLine
 10
220.1059336186207
 20
149.7697052206204
 30
0.0
 11
144.1666375166651
 21
149.7697052206205
 31
0.0
  0
LINE
  5
31FF
330
31FC
100
AcDbEntity
  8
BEM
 62
     0
370
    -2
100
AcDbLine
 10
146.6666375166651
 20
246.0197052206204
 30
0.0
 11
146.6666375166651
 21
158.5197052206204
 31
0.0
  0
SOLID
  5
3200
330
31FC
100
AcDbEntity
  8
BEM
 62
     0
100
AcDbTrace
 10
145.2083041833318
 20
246.0197052206204
 30
0.0
 11
148.1249708499984
 21
246.0197052206204
 31
0.0
 12
146.6666375166651
 22
254.7697052206205
 32
0.0
 13
146.6666375166651
 23
254.7697052206205
 33
0.0
  0
SOLID
  5
3201
330
31FC
100
AcDbEntity
  8
BEM
 62
     0
100
AcDbTrace
 10
145.2083041833317
 20
158.5197052206204
 30
0.0
 11
148.1249708499984
 21
158.5197052206204
 31
0.0
 12
146.6666375166651
 22
149.7697052206205
 32
0.0
 13
146.6666375166651
 23
149.7697052206205
 33
0.0
  0
MTEXT
  5
3202
330
31FC
100
AcDbEntity
  8
BEM
 62
     1
100
AcDbMText
 10
138.5416375166651
 20
202.2697052206205
 30
0.0
 40
8.75
 41
0.0
 71
     5
 72
     1
  1
\A1;105
  7
GREEKS
 11
0.0000000000000001
 21
1.0
 31
0.0
 73
     1
 44
1.0
  0
POINT
  5
3203
330
31FC
100
AcDbEntity
  8
DEFPOINTS
 62
     0
100
AcDbPoint
 10
222.6059336186208
 20
254.7697052206204
 30
0.0
  0
POINT
  5
3204
330
31FC
100
AcDbEntity
  8
DEFPOINTS
 62
     0
100
AcDbPoint
 10
222.6059336186207
 20
149.7697052206204
 30
0.0
  0
POINT
  5
3205
330
31FC
100
AcDbEntity
  8
DEFPOINTS
 62
     0
100
AcDbPoint
 10
146.6666375166651
 20
149.7697052206205
 30
0.0
  0
ENDBLK
  5
3207
330
31FC
100
AcDbEntity
  8
0
100
AcDbBlockEnd
  0
BLOCK
  5
3213
330
3209
100
AcDbEntity
  8
0
100
AcDbBlockBegin
  2
*D13
 70
     1
 10
0.0
 20
0.0
 30
0.0
  3
*D13
  1

  0
LINE
  5
320A
330
3209
100
AcDbEntity
  8
BEM
 62
     0
370
    -2
100
AcDbLine
 10
160.1059336186206
 20
267.2697052206205
 30
0.0
 11
123.3262741756312
 21
267.2697052206206
 31
0.0
  0
LINE
  5
320B
330
3209
100
AcDbEntity
  8
BEM
 62
     0
370
    -2
100
AcDbLine
 10
160.1059336186206
 20
137.2697052206205
 30
0.0
 11
123.3262741756312
 21
137.2697052206205
 31
0.0
  0
LINE
  5
320C
330
3209
100
AcDbEntity
  8
BEM
 62
     0
370
    -2
100
AcDbLine
 10
125.8262741756312
 20
258.5197052206206
 30
0.0
 11
125.8262741756311
 21
146.0197052206205
 31
0.0
  0
SOLID
  5
320D
330
3209
100
AcDbEntity
  8
BEM
 62
     0
100
AcDbTrace
 10
124.3679408422978
 20
258.5197052206206
 30
0.0
 11
127.2846075089645
 21
258.5197052206206
 31
0.0
 12
125.8262741756312
 22
267.2697052206206
 32
0.0
 13
125.8262741756312
 23
267.2697052206206
 33
0.0
  0
SOLID
  5
320E
330
3209
100
AcDbEntity
  8
BEM
 62
     0
100
AcDbTrace
 10
124.3679408422978
 20
146.0197052206205
 30
0.0
 11
127.2846075089645
 21
146.0197052206205
 31
0.0
 12
125.8262741756311
 22
137.2697052206205
 32
0.0
 13
125.8262741756311
 23
137.2697052206205
 33
0.0
  0
MTEXT
  5
320F
330
3209
100
AcDbEntity
  8
BEM
 62
     1
100
AcDbMText
 10
117.7012741756311
 20
202.2697052206206
 30
0.0
 40
8.75
 41
0.0
 71
     5
 72
     1
  1
\A1;130
  7
GREEKS
 11
0.0000000000000001
 21
1.0
 31
0.0
 73
     1
 44
1.0
  0
POINT
  5
3210
330
3209
100
AcDbEntity
  8
DEFPOINTS
 62
     0
100
AcDbPoint
 10
162.6059336186206
 20
267.2697052206205
 30
0.0
  0
POINT
  5
3211
330
3209
100
AcDbEntity
  8
DEFPOINTS
 62
     0
100
AcDbPoint
 10
162.6059336186206
 20
137.2697052206205
 30
0.0
  0
POINT
  5
3212
330
3209
100
AcDbEntity
  8
DEFPOINTS
 62
     0
100
AcDbPoint
 10
125.8262741756311
 20
137.2697052206205
 30
0.0
  0
ENDBLK
  5
3214
330
3209
100
AcDbEntity
  8
0
100
AcDbBlockEnd
  0
BLOCK
  5
3221
330
3217
100
AcDbEntity
  8
0
100
AcDbBlockBegin
  2
*D14
 70
     1
 10
0.0
 20
0.0
 30
0.0
  3
*D14
  1

  0
LINE
  5
3218
330
3217
100
AcDbEntity
  8
BEM
 62
     0
370
    -2
100
AcDbLine
 10
220.1059336186208
 20
279.7697052206206
 30
0.0
 11
105.7764936753706
 21
279.7697052206207
 31
0.0
  0
LINE
  5
3219
330
3217
100
AcDbEntity
  8
BEM
 62
     0
370
    -2
100
AcDbLine
 10
220.1059336186206
 20
124.7697052206202
 30
0.0
 11
105.7764936753706
 21
124.7697052206202
 31
0.0
  0
LINE
  5
321A
330
3217
100
AcDbEntity
  8
BEM
 62
     0
370
    -2
100
AcDbLine
 10
108.2764936753706
 20
271.0197052206207
 30
0.0
 11
108.2764936753706
 21
133.5197052206202
 31
0.0
  0
SOLID
  5
321B
330
3217
100
AcDbEntity
  8
BEM
 62
     0
100
AcDbTrace
 10
106.8181603420373
 20
271.0197052206207
 30
0.0
 11
109.7348270087039
 21
271.0197052206207
 31
0.0
 12
108.2764936753706
 22
279.7697052206207
 32
0.0
 13
108.2764936753706
 23
279.7697052206207
 33
0.0
  0
SOLID
  5
321C
330
3217
100
AcDbEntity
  8
BEM
 62
     0
100
AcDbTrace
 10
106.8181603420373
 20
133.5197052206202
 30
0.0
 11
109.7348270087039
 21
133.5197052206202
 31
0.0
 12
108.2764936753706
 22
124.7697052206202
 32
0.0
 13
108.2764936753706
 23
124.7697052206202
 33
0.0
  0
MTEXT
  5
321D
330
3217
100
AcDbEntity
  8
BEM
 62
     1
100
AcDbMText
 10
100.1514936753706
 20
202.2697052206205
 30
0.0
 40
8.75
 41
0.0
 71
     5
 72
     1
  1
\A1;155
  7
GREEKS
 11
0.0000000000000001
 21
1.0
 31
0.0
 73
     1
 44
1.0
  0
POINT
  5
321E
330
3217
100
AcDbEntity
  8
DEFPOINTS
 62
     0
100
AcDbPoint
 10
222.6059336186208
 20
279.7697052206206
 30
0.0
  0
POINT
  5
321F
330
3217
100
AcDbEntity
  8
DEFPOINTS
 62
     0
100
AcDbPoint
 10
222.6059336186206
 20
124.7697052206202
 30
0.0
  0
POINT
  5
3220
330
3217
100
AcDbEntity
  8
DEFPOINTS
 62
     0
100
AcDbPoint
 10
108.2764936753706
 20
124.7697052206202
 30
0.0
  0
ENDBLK
  5
3222
330
3217
100
AcDbEntity
  8
0
100
AcDbBlockEnd
  0
BLOCK
  5
322E
330
3224
100
AcDbEntity
  8
0
100
AcDbBlockBegin
  2
*D15
 70
     1
 10
0.0
 20
0.0
 30
0.0
  3
*D15
  1

  0
LINE
  5
3225
330
3224
100
AcDbEntity
  8
BEM
 62
     0
370
    -2
100
AcDbLine
 10
220.1059336186208
 20
339.7697052206203
 30
0.0
 11
86.03299342104769
 21
339.7697052206204
 31
0.0
  0
LINE
  5
3226
330
3224
100
AcDbEntity
  8
BEM
 62
     0
370
    -2
100
AcDbLine
 10
220.1059336186206
 20
64.7697052206205
 30
0.0
 11
86.03299342104763
 21
64.76970522062053
 31
0.0
  0
LINE
  5
3227
330
3224
100
AcDbEntity
  8
BEM
 62
     0
370
    -2
100
AcDbLine
 10
88.5329934210477
 20
331.0197052206204
 30
0.0
 11
88.53299342104765
 21
73.51970522062053
 31
0.0
  0
SOLID
  5
3228
330
3224
100
AcDbEntity
  8
BEM
 62
     0
100
AcDbTrace
 10
87.07466008771438
 20
331.0197052206204
 30
0.0
 11
89.99132675438103
 21
331.0197052206204
 31
0.0
 12
88.5329934210477
 22
339.7697052206204
 32
0.0
 13
88.5329934210477
 23
339.7697052206204
 33
0.0
  0
SOLID
  5
3229
330
3224
100
AcDbEntity
  8
BEM
 62
     0
100
AcDbTrace
 10
87.07466008771431
 20
73.51970522062053
 30
0.0
 11
89.99132675438097
 21
73.51970522062053
 31
0.0
 12
88.53299342104765
 22
64.76970522062053
 32
0.0
 13
88.53299342104765
 23
64.76970522062053
 33
0.0
  0
MTEXT
  5
322A
330
3224
100
AcDbEntity
  8
BEM
 62
     1
100
AcDbMText
 10
80.40799342104765
 20
202.2697052206205
 30
0.0
 40
8.75
 41
0.0
 71
     5
 72
     1
  1
\A1;275
  7
GREEKS
 11
0.0000000000000001
 21
1.0
 31
0.0
 73
     1
 44
1.0
  0
POINT
  5
322B
330
3224
100
AcDbEntity
  8
DEFPOINTS
 62
     0
100
AcDbPoint
 10
222.6059336186208
 20
339.7697052206203
 30
0.0
  0
POINT
  5
322C
330
3224
100
AcDbEntity
  8
DEFPOINTS
 62
     0
100
AcDbPoint
 10
222.6059336186206
 20
64.7697052206205
 30
0.0
  0
POINT
  5
322D
330
3224
100
AcDbEntity
  8
DEFPOINTS
 62
     0
100
AcDbPoint
 10
88.53299342104765
 20
64.76970522062053
 30
0.0
  0
ENDBLK
  5
322F
330
3224
100
AcDbEntity
  8
0
100
AcDbBlockEnd
  0
BLOCK
  5
323B
330
3231
100
AcDbEntity
  8
0
100
AcDbBlockBegin
  2
*D16
 70
     1
 10
0.0
 20
0.0
 30
0.0
  3
*D16
  1

  0
LINE
  5
3232
330
3231
100
AcDbEntity
  8
BEM
 62
     0
370
    -2
100
AcDbLine
 10
535.1059336186201
 20
357.2697052206202
 30
0.0
 11
560.489598532829
 21
357.2697052206202
 31
0.0
  0
LINE
  5
3233
330
3231
100
AcDbEntity
  8
BEM
 62
     0
370
    -2
100
AcDbLine
 10
535.1059336186201
 20
47.26970522062055
 30
0.0
 11
560.489598532829
 21
47.26970522062054
 31
0.0
  0
LINE
  5
3234
330
3231
100
AcDbEntity
  8
BEM
 62
     0
370
    -2
100
AcDbLine
 10
557.989598532829
 20
348.5197052206202
 30
0.0
 11
557.9895985328289
 21
56.01970522062055
 31
0.0
  0
SOLID
  5
3235
330
3231
100
AcDbEntity
  8
BEM
 62
     0
100
AcDbTrace
 10
556.5312651994957
 20
348.5197052206202
 30
0.0
 11
559.4479318661624
 21
348.5197052206202
 31
0.0
 12
557.989598532829
 22
357.2697052206202
 32
0.0
 13
557.989598532829
 23
357.2697052206202
 33
0.0
  0
SOLID
  5
3236
330
3231
100
AcDbEntity
  8
BEM
 62
     0
100
AcDbTrace
 10
556.5312651994956
 20
56.01970522062055
 30
0.0
 11
559.4479318661623
 21
56.01970522062055
 31
0.0
 12
557.9895985328289
 22
47.26970522062055
 32
0.0
 13
557.9895985328289
 23
47.26970522062055
 33
0.0
  0
MTEXT
  5
3237
330
3231
100
AcDbEntity
  8
BEM
 62
     1
100
AcDbMText
 10
549.8645985328289
 20
202.2697052206205
 30
0.0
 40
8.75
 41
0.0
 71
     5
 72
     1
  1
\A1;310
  7
GREEKS
 11
0.0000000000000001
 21
1.0
 31
0.0
 73
     1
 44
1.0
  0
POINT
  5
3238
330
3231
100
AcDbEntity
  8
DEFPOINTS
 62
     0
100
AcDbPoint
 10
532.6059336186201
 20
357.2697052206202
 30
0.0
  0
POINT
  5
3239
330
3231
100
AcDbEntity
  8
DEFPOINTS
 62
     0
100
AcDbPoint
 10
532.6059336186201
 20
47.26970522062055
 30
0.0
  0
POINT
  5
323A
330
3231
100
AcDbEntity
  8
DEFPOINTS
 62
     0
100
AcDbPoint
 10
557.9895985328289
 20
47.26970522062055
 30
0.0
  0
ENDBLK
  5
323C
330
3231
100
AcDbEntity
  8
0
100
AcDbBlockEnd
  0
BLOCK
  5
32F9
330
32EF
100
AcDbEntity
  8
0
100
AcDbBlockBegin
  2
*D17
 70
     1
 10
0.0
 20
0.0
 30
0.0
  3
*D17
  1

  0
LINE
  5
34FD
330
32EF
100
AcDbEntity
  8
BEM
 62
     0
370
    -2
100
AcDbLine
 10
162.6059336186208
 20
654.6310584022867
 30
0.0
 11
162.6059336186208
 21
705.0818679278868
 31
0.0
  0
LINE
  5
34FE
330
32EF
100
AcDbEntity
  8
BEM
 62
     0
370
    -2
100
AcDbLine
 10
514.6059336186201
 20
654.6310584022867
 30
0.0
 11
514.6059336186201
 21
705.0818679278868
 31
0.0
  0
LINE
  5
34FF
330
32EF
100
AcDbEntity
  8
BEM
 62
     0
370
    -2
100
AcDbLine
 10
171.3559336186207
 20
702.5818679278868
 30
0.0
 11
505.8559336186201
 21
702.5818679278868
 31
0.0
  0
SOLID
  5
3500
330
32EF
100
AcDbEntity
  8
BEM
 62
     0
100
AcDbTrace
 10
171.3559336186207
 20
704.0402012612202
 30
0.0
 11
171.3559336186207
 21
701.1235345945534
 31
0.0
 12
162.6059336186208
 22
702.5818679278868
 32
0.0
 13
162.6059336186208
 23
702.5818679278868
 33
0.0
  0
SOLID
  5
3501
330
32EF
100
AcDbEntity
  8
BEM
 62
     0
100
AcDbTrace
 10
505.8559336186201
 20
704.0402012612202
 30
0.0
 11
505.8559336186201
 21
701.1235345945534
 31
0.0
 12
514.6059336186201
 22
702.5818679278868
 32
0.0
 13
514.6059336186201
 23
702.5818679278868
 33
0.0
  0
MTEXT
  5
3502
330
32EF
100
AcDbEntity
  8
BEM
 62
     1
100
AcDbMText
 10
338.6059336186205
 20
710.7068679278868
 30
0.0
 40
8.75
 41
0.0
 71
     5
 72
     1
  1
\A1;352
  7
GREEKS
 73
     1
 44
1.0
  0
POINT
  5
3503
330
32EF
100
AcDbEntity
  8
DEFPOINTS
 62
     0
100
AcDbPoint
 10
162.6059336186208
 20
652.1310584022867
 30
0.0
  0
POINT
  5
3504
330
32EF
100
AcDbEntity
  8
DEFPOINTS
 62
     0
100
AcDbPoint
 10
514.6059336186201
 20
652.1310584022867
 30
0.0
  0
POINT
  5
3505
330
32EF
100
AcDbEntity
  8
DEFPOINTS
 62
     0
100
AcDbPoint
 10
514.6059336186201
 20
702.5818679278868
 30
0.0
  0
ENDBLK
  5
32FA
330
32EF
100
AcDbEntity
  8
0
100
AcDbBlockEnd
  0
BLOCK
  5
330F
330
3305
100
AcDbEntity
  8
0
100
AcDbBlockBegin
  2
*D18
 70
     1
 10
0.0
 20
0.0
 30
0.0
  3
*D18
  1

  0
LINE
  5
3306
330
3305
100
AcDbEntity
  8
BEM
 62
     0
370
    -2
100
AcDbLine
 10
162.6059336186208
 20
654.6310584022867
 30
0.0
 11
162.6059336186208
 21
667.7596742477908
 31
0.0
  0
LINE
  5
3307
330
3305
100
AcDbEntity
  8
BEM
 62
     0
370
    -2
100
AcDbLine
 10
222.6059336186208
 20
654.6310584022867
 30
0.0
 11
222.6059336186208
 21
667.7596742477908
 31
0.0
  0
LINE
  5
3308
330
3305
100
AcDbEntity
  8
BEM
 62
     0
370
    -2
100
AcDbLine
 10
171.3559336186207
 20
665.2596742477908
 30
0.0
 11
213.8559336186208
 21
665.2596742477908
 31
0.0
  0
SOLID
  5
3309
330
3305
100
AcDbEntity
  8
BEM
 62
     0
100
AcDbTrace
 10
171.3559336186207
 20
666.7180075811241
 30
0.0
 11
171.3559336186207
 21
663.8013409144575
 31
0.0
 12
162.6059336186208
 22
665.2596742477908
 32
0.0
 13
162.6059336186208
 23
665.2596742477908
 33
0.0
  0
SOLID
  5
330A
330
3305
100
AcDbEntity
  8
BEM
 62
     0
100
AcDbTrace
 10
213.8559336186208
 20
666.7180075811241
 30
0.0
 11
213.8559336186208
 21
663.8013409144575
 31
0.0
 12
222.6059336186208
 22
665.2596742477908
 32
0.0
 13
222.6059336186208
 23
665.2596742477908
 33
0.0
  0
MTEXT
  5
330B
330
3305
100
AcDbEntity
  8
BEM
 62
     1
100
AcDbMText
 10
192.6059336186208
 20
673.3846742477908
 30
0.0
 40
8.75
 41
0.0
 71
     5
 72
     1
  1
\A1;60
  7
GREEKS
 73
     1
 44
1.0
  0
POINT
  5
330C
330
3305
100
AcDbEntity
  8
DEFPOINTS
 62
     0
100
AcDbPoint
 10
162.6059336186208
 20
652.1310584022867
 30
0.0
  0
POINT
  5
330D
330
3305
100
AcDbEntity
  8
DEFPOINTS
 62
     0
100
AcDbPoint
 10
222.6059336186208
 20
652.1310584022867
 30
0.0
  0
POINT
  5
330E
330
3305
100
AcDbEntity
  8
DEFPOINTS
 62
     0
100
AcDbPoint
 10
222.6059336186208
 20
665.2596742477908
 30
0.0
  0
ENDBLK
  5
3310
330
3305
100
AcDbEntity
  8
0
100
AcDbBlockEnd
  0
BLOCK
  5
331C
330
3312
100
AcDbEntity
  8
0
100
AcDbBlockBegin
  2
*D19
 70
     1
 10
0.0
 20
0.0
 30
0.0
  3
*D19
  1

  0
LINE
  5
332D
330
3312
100
AcDbEntity
  8
BEM
 62
     0
370
    -2
100
AcDbLine
 10
160.1059336186207
 20
652.1310584022867
 30
0.0
 11
108.8430459733136
 21
652.1310584022867
 31
0.0
  0
LINE
  5
332E
330
3312
100
AcDbEntity
  8
BEM
 62
     0
370
    -2
100
AcDbLine
 10
160.1059336186206
 20
492.1310584022867
 30
0.0
 11
108.8430459733135
 21
492.1310584022868
 31
0.0
  0
LINE
  5
332F
330
3312
100
AcDbEntity
  8
BEM
 62
     0
370
    -2
100
AcDbLine
 10
111.3430459733136
 20
643.3810584022867
 30
0.0
 11
111.3430459733135
 21
500.8810584022867
 31
0.0
  0
SOLID
  5
3330
330
3312
100
AcDbEntity
  8
BEM
 62
     0
100
AcDbTrace
 10
109.8847126399802
 20
643.3810584022867
 30
0.0
 11
112.8013793066469
 21
643.3810584022867
 31
0.0
 12
111.3430459733136
 22
652.1310584022867
 32
0.0
 13
111.3430459733136
 23
652.1310584022867
 33
0.0
  0
SOLID
  5
3331
330
3312
100
AcDbEntity
  8
BEM
 62
     0
100
AcDbTrace
 10
109.8847126399802
 20
500.8810584022867
 30
0.0
 11
112.8013793066469
 21
500.8810584022867
 31
0.0
 12
111.3430459733135
 22
492.1310584022868
 32
0.0
 13
111.3430459733135
 23
492.1310584022868
 33
0.0
  0
MTEXT
  5
3332
330
3312
100
AcDbEntity
  8
BEM
 62
     1
100
AcDbMText
 10
103.2180459733134
 20
572.1310584022867
 30
0.0
 40
8.75
 41
0.0
 71
     5
 72
     1
  1
\A1;160
  7
GREEKS
 11
0.0000000000000001
 21
1.0
 31
0.0
 73
     1
 44
1.0
  0
POINT
  5
3333
330
3312
100
AcDbEntity
  8
DEFPOINTS
 62
     0
100
AcDbPoint
 10
162.6059336186208
 20
652.1310584022867
 30
0.0
  0
POINT
  5
3334
330
3312
100
AcDbEntity
  8
DEFPOINTS
 62
     0
100
AcDbPoint
 10
162.6059336186207
 20
492.1310584022867
 30
0.0
  0
POINT
  5
3335
330
3312
100
AcDbEntity
  8
DEFPOINTS
 62
     0
100
AcDbPoint
 10
111.3430459733135
 20
492.1310584022868
 30
0.0
  0
ENDBLK
  5
331D
330
3312
100
AcDbEntity
  8
0
100
AcDbBlockEnd
  0
BLOCK
  5
334A
330
3340
100
AcDbEntity
  8
0
100
AcDbBlockBegin
  2
*D20
 70
     1
 10
0.0
 20
0.0
 30
0.0
  3
*D20
  1

  0
LINE
  5
3341
330
3340
100
AcDbEntity
  8
BEM
 62
     0
370
    -2
100
AcDbLine
 10
160.1059336186207
 20
652.1310584022867
 30
0.0
 11
144.9097120779538
 21
652.1310584022867
 31
0.0
  0
LINE
  5
3342
330
3340
100
AcDbEntity
  8
BEM
 62
     0
370
    -2
100
AcDbLine
 10
220.1059336186207
 20
525.1310584022873
 30
0.0
 11
144.9097120779538
 21
525.1310584022873
 31
0.0
  0
LINE
  5
3343
330
3340
100
AcDbEntity
  8
BEM
 62
     0
370
    -2
100
AcDbLine
 10
147.4097120779538
 20
643.3810584022867
 30
0.0
 11
147.4097120779538
 21
533.8810584022874
 31
0.0
  0
SOLID
  5
3344
330
3340
100
AcDbEntity
  8
BEM
 62
     0
100
AcDbTrace
 10
145.9513787446205
 20
643.3810584022867
 30
0.0
 11
148.8680454112872
 21
643.3810584022867
 31
0.0
 12
147.4097120779538
 22
652.1310584022867
 32
0.0
 13
147.4097120779538
 23
652.1310584022867
 33
0.0
  0
SOLID
  5
3345
330
3340
100
AcDbEntity
  8
BEM
 62
     0
100
AcDbTrace
 10
145.9513787446205
 20
533.8810584022874
 30
0.0
 11
148.8680454112872
 21
533.8810584022874
 31
0.0
 12
147.4097120779538
 22
525.1310584022873
 32
0.0
 13
147.4097120779538
 23
525.1310584022873
 33
0.0
  0
MTEXT
  5
3346
330
3340
100
AcDbEntity
  8
BEM
 62
     1
100
AcDbMText
 10
139.2847120779537
 20
588.631058402287
 30
0.0
 40
8.75
 41
0.0
 71
     5
 72
     1
  1
\A1;127
  7
GREEKS
 11
0.0000000000000001
 21
1.0
 31
0.0
 73
     1
 44
1.0
  0
POINT
  5
3347
330
3340
100
AcDbEntity
  8
DEFPOINTS
 62
     0
100
AcDbPoint
 10
162.6059336186208
 20
652.1310584022867
 30
0.0
  0
POINT
  5
3348
330
3340
100
AcDbEntity
  8
DEFPOINTS
 62
     0
100
AcDbPoint
 10
222.6059336186207
 20
525.1310584022873
 30
0.0
  0
POINT
  5
3349
330
3340
100
AcDbEntity
  8
DEFPOINTS
 62
     0
100
AcDbPoint
 10
147.4097120779538
 20
525.1310584022873
 30
0.0
  0
ENDBLK
  5
334B
330
3340
100
AcDbEntity
  8
0
100
AcDbBlockEnd
  0
BLOCK
  5
34C9
330
34BF
100
AcDbEntity
  8
0
100
AcDbBlockBegin
  2
*D21
 70
     1
 10
0.0
 20
0.0
 30
0.0
  3
*D21
  1

  0
LINE
  5
34CE
330
34BF
100
AcDbEntity
  8
BEM
 62
     0
370
    -2
100
AcDbLine
 10
450.1059336186203
 20
585.1310584022883
 30
0.0
 11
555.2080834986191
 21
585.1310584022883
 31
0.0
  0
LINE
  5
34CF
330
34BF
100
AcDbEntity
  8
BEM
 62
     0
370
    -2
100
AcDbLine
 10
371.1059336186201
 20
525.1310584022867
 30
0.0
 11
555.2080834986191
 21
525.1310584022867
 31
0.0
  0
LINE
  5
34D0
330
34BF
100
AcDbEntity
  8
BEM
 62
     0
370
    -2
100
AcDbLine
 10
552.7080834986191
 20
576.3810584022883
 30
0.0
 11
552.7080834986191
 21
533.8810584022867
 31
0.0
  0
SOLID
  5
34D1
330
34BF
100
AcDbEntity
  8
BEM
 62
     0
100
AcDbTrace
 10
551.2497501652857
 20
576.3810584022883
 30
0.0
 11
554.1664168319524
 21
576.3810584022883
 31
0.0
 12
552.7080834986191
 22
585.1310584022883
 32
0.0
 13
552.7080834986191
 23
585.1310584022883
 33
0.0
  0
SOLID
  5
34D2
330
34BF
100
AcDbEntity
  8
BEM
 62
     0
100
AcDbTrace
 10
551.2497501652857
 20
533.8810584022867
 30
0.0
 11
554.1664168319524
 21
533.8810584022867
 31
0.0
 12
552.7080834986191
 22
525.1310584022867
 32
0.0
 13
552.7080834986191
 23
525.1310584022867
 33
0.0
  0
MTEXT
  5
34D3
330
34BF
100
AcDbEntity
  8
BEM
 62
     1
100
AcDbMText
 10
544.5830834986189
 20
555.1310584022876
 30
0.0
 40
8.75
 41
0.0
 71
     5
 72
     1
  1
\A1;60
  7
GREEKS
 11
0.0000000000000001
 21
1.0
 31
0.0
 73
     1
 44
1.0
  0
POINT
  5
34D4
330
34BF
100
AcDbEntity
  8
DEFPOINTS
 62
     0
100
AcDbPoint
 10
447.6059336186202
 20
585.1310584022883
 30
0.0
  0
POINT
  5
34D5
330
34BF
100
AcDbEntity
  8
DEFPOINTS
 62
     0
100
AcDbPoint
 10
368.6059336186201
 20
525.1310584022867
 30
0.0
  0
POINT
  5
34D6
330
34BF
100
AcDbEntity
  8
DEFPOINTS
 62
     0
100
AcDbPoint
 10
552.7080834986191
 20
525.1310584022867
 30
0.0
  0
ENDBLK
  5
34CA
330
34BF
100
AcDbEntity
  8
0
100
AcDbBlockEnd
  0
BLOCK
  5
3511
330
3507
100
AcDbEntity
  8
0
100
AcDbBlockBegin
  2
*D22
 70
     1
 10
0.0
 20
0.0
 30
0.0
  3
*D22
  1

  0
LINE
  5
3513
330
3507
100
AcDbEntity
  8
BEM
 62
     0
370
    -2
100
AcDbLine
 10
162.6059336186208
 20
654.6310584022867
 30
0.0
 11
162.6059336186208
 21
684.6742477777119
 31
0.0
  0
LINE
  5
3514
330
3507
100
AcDbEntity
  8
BEM
 62
     0
370
    -2
100
AcDbLine
 10
447.6059336186202
 20
644.6310584022867
 30
0.0
 11
447.6059336186202
 21
684.6742477777119
 31
0.0
  0
LINE
  5
3515
330
3507
100
AcDbEntity
  8
BEM
 62
     0
370
    -2
100
AcDbLine
 10
171.3559336186207
 20
682.174247777712
 30
0.0
 11
438.8559336186202
 21
682.174247777712
 31
0.0
  0
SOLID
  5
3516
330
3507
100
AcDbEntity
  8
BEM
 62
     0
100
AcDbTrace
 10
171.3559336186207
 20
683.6325811110453
 30
0.0
 11
171.3559336186207
 21
680.7159144443787
 31
0.0
 12
162.6059336186208
 22
682.174247777712
 32
0.0
 13
162.6059336186208
 23
682.174247777712
 33
0.0
  0
SOLID
  5
3517
330
3507
100
AcDbEntity
  8
BEM
 62
     0
100
AcDbTrace
 10
438.8559336186202
 20
683.6325811110453
 30
0.0
 11
438.8559336186202
 21
680.7159144443787
 31
0.0
 12
447.6059336186202
 22
682.174247777712
 32
0.0
 13
447.6059336186202
 23
682.174247777712
 33
0.0
  0
MTEXT
  5
3518
330
3507
100
AcDbEntity
  8
BEM
 62
     1
100
AcDbMText
 10
305.1059336186205
 20
690.299247777712
 30
0.0
 40
8.75
 41
0.0
 71
     5
 72
     1
  1
\A1;285
  7
GREEKS
 73
     1
 44
1.0
  0
POINT
  5
3519
330
3507
100
AcDbEntity
  8
DEFPOINTS
 62
     0
100
AcDbPoint
 10
162.6059336186208
 20
652.1310584022867
 30
0.0
  0
POINT
  5
351A
330
3507
100
AcDbEntity
  8
DEFPOINTS
 62
     0
100
AcDbPoint
 10
447.6059336186202
 20
642.1310584022867
 30
0.0
  0
POINT
  5
351B
330
3507
100
AcDbEntity
  8
DEFPOINTS
 62
     0
100
AcDbPoint
 10
447.6059336186202
 20
682.174247777712
 30
0.0
  0
ENDBLK
  5
3512
330
3507
100
AcDbEntity
  8
0
100
AcDbBlockEnd
  0
BLOCK
  5
355C
330
3552
100
AcDbEntity
  8
0
100
AcDbBlockBegin
  2
*D23
 70
     1
 10
0.0
 20
0.0
 30
0.0
  3
*D23
  1

  0
LINE
  5
355E
330
3552
100
AcDbEntity
  8
BEM
 62
     0
370
    -2
100
AcDbLine
 10
915.2086353497978
 20
587.6310584022887
 30
0.0
 11
915.2086353497978
 21
666.936959672289
 31
0.0
  0
LINE
  5
355F
330
3552
100
AcDbEntity
  8
BEM
 62
     0
370
    -2
100
AcDbLine
 10
810.2086353497977
 20
587.6310584022884
 30
0.0
 11
810.2086353497977
 21
666.936959672289
 31
0.0
  0
LINE
  5
3560
330
3552
100
AcDbEntity
  8
BEM
 62
     0
370
    -2
100
AcDbLine
 10
906.4586353497977
 20
664.436959672289
 30
0.0
 11
818.9586353497977
 21
664.436959672289
 31
0.0
  0
SOLID
  5
3561
330
3552
100
AcDbEntity
  8
BEM
 62
     0
100
AcDbTrace
 10
906.4586353497977
 20
665.8952930056224
 30
0.0
 11
906.4586353497977
 21
662.9786263389556
 31
0.0
 12
915.2086353497978
 22
664.436959672289
 32
0.0
 13
915.2086353497978
 23
664.436959672289
 33
0.0
  0
SOLID
  5
3562
330
3552
100
AcDbEntity
  8
BEM
 62
     0
100
AcDbTrace
 10
818.9586353497977
 20
665.8952930056224
 30
0.0
 11
818.9586353497977
 21
662.9786263389556
 31
0.0
 12
810.2086353497977
 22
664.436959672289
 32
0.0
 13
810.2086353497977
 23
664.436959672289
 33
0.0
  0
MTEXT
  5
3563
330
3552
100
AcDbEntity
  8
BEM
 62
     1
100
AcDbMText
 10
862.7086353497977
 20
672.561959672289
 30
0.0
 40
8.75
 41
0.0
 71
     5
 72
     1
  1
\A1;105
  7
GREEKS
 73
     1
 44
1.0
  0
POINT
  5
3564
330
3552
100
AcDbEntity
  8
DEFPOINTS
 62
     0
100
AcDbPoint
 10
915.2086353497978
 20
585.1310584022886
 30
0.0
  0
POINT
  5
3565
330
3552
100
AcDbEntity
  8
DEFPOINTS
 62
     0
100
AcDbPoint
 10
810.2086353497977
 20
585.1310584022884
 30
0.0
  0
POINT
  5
3566
330
3552
100
AcDbEntity
  8
DEFPOINTS
 62
     0
100
AcDbPoint
 10
810.2086353497977
 20
664.436959672289
 30
0.0
  0
ENDBLK
  5
355D
330
3552
100
AcDbEntity
  8
0
100
AcDbBlockEnd
  0
ENDSEC
  0
SECTION
  2
ENTITIES
  0
LINE
  5
25
330
2
100
AcDbEntity
  8
STEMPEL
100
AcDbLine
 10
50.0
 20
730.0
 30
0.0
 11
50.0
 21
12.5
 31
0.0
  0
TEXT
  5
27
330
2
100
AcDbEntity
  8
TEXT
100
AcDbText
 10
1045.516506922258
 20
13.19222577209802
 30
0.0
 40
5.0
  1
Diese Zeichnung ist urheberrechtlich geschützt und bleibt unser Eigentum. Sie darf weder ganz noch teilweise vervielfältigt und nicht an Dritte weitegegeben werden.
 50
90.0
 41
0.8
  7
GREEKS
100
AcDbText
  0
LINE
  5
28
330
2
100
AcDbEntity
  8
STEMPEL
100
AcDbLine
 10
1037.5
 20
12.5
 30
0.0
 11
1037.5
 21
730.0
 31
0.0
  0
LINE
  5
29
330
2
100
AcDbEntity
  8
STEMPEL
 62
     2
100
AcDbLine
 10
1050.0
 20
0.0
 30
0.0
 11
1050.0
 21
742.4999999999999
 31
0.0
  0
LINE
  5
2A
330
2
100
AcDbEntity
  8
STEMPEL
 62
     2
100
AcDbLine
 10
0.0
 20
742.4999999999999
 30
0.0
 11
0.0
 21
0.0
 31
0.0
  0
TEXT
  5
2B
330
2
100
AcDbEntity
  8
TEXT
100
AcDbText
 10
710.6782513689786
 20
91.4322960488019
 30
0.0
 40
4.5
  1
2010
 41
0.8
  7
GREEKS
100
AcDbText
  0
TEXT
  5
2F
330
2
100
AcDbEntity
  8
TEXT
100
AcDbText
 10
716.8954465187971
 20
128.077611885886
 30
0.0
 40
6.25
  1
Maßstab
 41
0.8
  7
GREEKS
100
AcDbText
  0
TEXT
  5
30
330
2
100
AcDbEntity
  8
TEXT
100
AcDbText
 10
709.5008471734127
 20
54.41182987062262
 30
0.0
 40
4.5
  1
Norm.
 41
0.8
  7
GREEKS
100
AcDbText
  0
TEXT
  5
31
330
2
100
AcDbEntity
  8
TEXT
100
AcDbText
 10
709.4393858214584
 20
67.11157864285468
 30
0.0
 40
4.5
  1
Gepr.
 41
0.8
  7
GREEKS
100
AcDbText
  0
LINE
  5
32
330
2
100
AcDbEntity
  8
TEXT
 62
     3
100
AcDbLine
 10
720.2124868102692
 20
43.47590150213562
 30
0.0
 11
717.7124868102692
 21
43.47590150213562
 31
0.0
  0
TEXT
  5
34
330
2
100
AcDbEntity
  8
TEXT
100
AcDbText
 10
709.4795158959516
 20
79.53737962022444
 30
0.0
 40
4.5
  1
Gez.
 41
0.8
  7
GREEKS
100
AcDbText
  0
ARC
  5
35
330
2
100
AcDbEntity
  8
TEXT
 62
     3
100
AcDbCircle
 10
722.7124868102691
 20
25.97590150213603
 30
0.0
 40
5.0
100
AcDbArc
 50
179.9999999999992
 51
270.0
  0
LINE
  5
36
330
2
100
AcDbEntity
  8
STEMPEL
100
AcDbLine
 10
1037.5
 20
137.5
 30
0.0
 11
587.5
 21
137.5
 31
0.0
  0
LINE
  5
37
330
2
100
AcDbEntity
  8
STEMPEL
100
AcDbLine
 10
1037.5
 20
50.0
 30
0.0
 11
707.5
 21
50.0
 31
0.0
  0
LINE
  5
38
330
2
100
AcDbEntity
  8
STEMPEL
100
AcDbLine
 10
1037.5
 20
100.0
 30
0.0
 11
707.5
 21
100.0
 31
0.0
  0
LINE
  5
39
330
2
100
AcDbEntity
  8
TEXT
 62
     2
100
AcDbLine
 10
707.5
 20
87.5
 30
0.0
 11
812.5
 21
87.5
 31
0.0
  0
LINE
  5
3A
330
2
100
AcDbEntity
  8
TEXT
 62
     2
100
AcDbLine
 10
707.5
 20
75.0
 30
0.0
 11
812.5
 21
75.0
 31
0.0
  0
LINE
  5
3B
330
2
100
AcDbEntity
  8
TEXT
 62
     2
100
AcDbLine
 10
707.5
 20
62.5
 30
0.0
 11
812.5
 21
62.5
 31
0.0
  0
LINE
  5
3E
330
2
100
AcDbEntity
  8
STEMPEL
100
AcDbLine
 10
50.0
 20
12.5
 30
0.0
 11
1037.5
 21
12.5
 31
0.0
  0
LINE
  5
3F
330
2
100
AcDbEntity
  8
STEMPEL
 62
     2
100
AcDbLine
 10
0.0
 20
0.0
 30
0.0
 11
1050.0
 21
0.0
 31
0.0
  0
LINE
  5
40
330
2
100
AcDbEntity
  8
MITTEL
100
AcDbLine
 10
377.6059336186202
 20
60.26970522062049
 30
0.0
 11
377.6059336186202
 21
342.2697052206203
 31
0.0
  0
TEXT
  5
41
330
2
100
AcDbEntity
  8
TEXT
100
AcDbText
 10
662.8235722519461
 20
24.21874911831367
 30
0.0
 40
5.0
  1
Tag
 41
0.8
  7
GREEKS
 72
     1
 11
667.4902389186127
 21
24.21874911831367
 31
0.0
100
AcDbText
  0
TEXT
  5
42
330
2
100
AcDbEntity
  8
TEXT
100
AcDbText
 10
597.8330138380719
 20
17.06832307533989
 30
0.0
 40
4.5
  1
Index
 50
90.0
 41
0.8
  7
GREEKS
100
AcDbText
  0
TEXT
  5
43
330
2
100
AcDbEntity
  8
TEXT
100
AcDbText
 10
615.3966906266556
 20
24.22156943886762
 30
0.0
 40
5.0
  1
Änderung
 41
0.8
  7
GREEKS
 72
     1
 11
628.825262055227
 21
24.22156943886762
 31
0.0
100
AcDbText
  0
LINE
  5
44
330
2
100
AcDbEntity
  8
STEMPEL
100
AcDbLine
 10
587.5
 20
137.5
 30
0.0
 11
587.5
 21
12.5
 31
0.0
  0
LINE
  5
45
330
2
100
AcDbEntity
  8
VOLL
100
AcDbLine
 10
605.0
 20
137.5
 30
0.0
 11
605.0
 21
12.5
 31
0.0
  0
LINE
  5
47
330
2
100
AcDbEntity
  8
VOLL
100
AcDbLine
 10
655.0
 20
137.5
 30
0.0
 11
655.0
 21
12.5
 31
0.0
  0
LINE
  5
48
330
2
100
AcDbEntity
  8
VOLL
100
AcDbLine
 10
680.0
 20
137.4999999999998
 30
0.0
 11
680.0
 21
12.49999999999988
 31
0.0
  0
LINE
  5
49
330
2
100
AcDbEntity
  8
STEMPEL
100
AcDbLine
 10
707.5
 20
137.4999999999998
 30
0.0
 11
707.5
 21
12.49999999999988
 31
0.0
  0
LINE
  5
4A
330
2
100
AcDbEntity
  8
TEXT
 62
     2
100
AcDbLine
 10
587.5
 20
75.0
 30
0.0
 11
707.5
 21
75.0
 31
0.0
  0
LINE
  5
4B
330
2
100
AcDbEntity
  8
TEXT
 62
     2
100
AcDbLine
 10
587.5
 20
62.5
 30
0.0
 11
707.5
 21
62.5
 31
0.0
  0
LINE
  5
4C
330
2
100
AcDbEntity
  8
TEXT
 62
     2
100
AcDbLine
 10
587.5
 20
50.0
 30
0.0
 11
707.5
 21
50.0
 31
0.0
  0
LINE
  5
4D
330
2
100
AcDbEntity
  8
STEMPEL
100
AcDbLine
 10
707.5
 20
37.5
 30
0.0
 11
587.5
 21
37.5
 31
0.0
  0
LINE
  5
4E
330
2
100
AcDbEntity
  8
TEXT
 62
     3
100
AcDbLine
 10
717.7124868102692
 20
43.47590150213545
 30
0.0
 11
717.7124868102692
 21
25.97590150213603
 31
0.0
  0
TEXT
  5
4F
330
2
100
AcDbEntity
  8
TEXT
100
AcDbText
 10
686.7143176677857
 20
24.12084846364621
 30
0.0
 40
5.0
  1
Name
 41
0.8
  7
GREEKS
 72
     1
 11
694.6190795725477
 21
24.12084846364621
 31
0.0
100
AcDbText
  0
LINE
  5
50
330
2
100
AcDbEntity
  8
TEXT
 62
     2
100
AcDbLine
 10
587.5
 20
125.0
 30
0.0
 11
707.5
 21
125.0
 31
0.0
  0
LINE
  5
51
330
2
100
AcDbEntity
  8
TEXT
 62
     2
100
AcDbLine
 10
587.5
 20
112.5
 30
0.0
 11
707.5
 21
112.5
 31
0.0
  0
LINE
  5
52
330
2
100
AcDbEntity
  8
TEXT
 62
     2
100
AcDbLine
 10
587.5
 20
100.0
 30
0.0
 11
707.5
 21
100.0
 31
0.0
  0
LINE
  5
53
330
2
100
AcDbEntity
  8
TEXT
 62
     2
100
AcDbLine
 10
587.5
 20
87.5
 30
0.0
 11
707.5
 21
87.5
 31
0.0
  0
LINE
  5
72
330
2
100
AcDbEntity
  8
STEMPEL
100
AcDbLine
 10
162.6059336186206
 20
47.26970522062049
 30
0.0
 11
162.6059336186206
 21
357.2697052206203
 31
0.0
  0
LINE
  5
D3
330
2
100
AcDbEntity
  8
STEMPEL
100
AcDbLine
 10
812.5
 20
137.5
 30
0.0
 11
812.5
 21
12.5
 31
0.0
  0
LINE
  5
D4
330
2
100
AcDbEntity
  8
TEXT
 62
     3
100
AcDbLine
 10
755.2124868102692
 20
43.47590150213562
 30
0.0
 11
755.2124868102692
 21
20.97590150213563
 31
0.0
  0
LINE
  5
D5
330
2
100
AcDbEntity
  8
TEXT
 62
     3
100
AcDbLine
 10
757.7124868102692
 20
30.97590150213563
 30
0.0
 11
757.7124868102692
 21
20.9759015021358
 31
0.0
  0
LINE
  5
D6
330
2
100
AcDbEntity
  8
TEXT
 62
     3
100
AcDbLine
 10
767.7124868102692
 20
30.97590150213563
 30
0.0
 11
770.3919787345803
 21
20.97590150213563
 31
0.0
  0
ARC
  5
D7
330
2
100
AcDbEntity
  8
TEXT
 62
     3
100
AcDbCircle
 10
740.2124868102691
 20
32.22590150213563
 30
0.0
 40
11.25
100
AcDbArc
 50
270.0
 51
231.0575587310159
  0
ARC
  5
D8
330
2
100
AcDbEntity
  8
TEXT
 62
     3
100
AcDbCircle
 10
790.2124868102691
 20
32.22590150213563
 30
0.0
 40
11.25
100
AcDbArc
 50
270.0
 51
231.0575587310182
  0
LINE
  5
D9
330
2
100
AcDbEntity
  8
TEXT
 62
     2
100
AcDbLine
 10
818.4671001371183
 20
18.61747822535381
 30
0.0
 11
1031.073604915841
 21
18.61747822535381
 31
0.0
  0
LINE
  5
DA
330
2
100
AcDbEntity
  8
TEXT
 62
     3
100
AcDbLine
 10
740.2124868102691
 20
20.9759015021358
 30
0.0
 11
722.7124868102691
 21
20.97590150213563
 31
0.0
  0
LINE
  5
DB
330
2
100
AcDbEntity
  8
TEXT
 62
     3
100
AcDbLine
 10
757.7124868102692
 20
20.9759015021358
 30
0.0
 11
755.2124868102692
 21
20.9759015021358
 31
0.0
  0
LINE
  5
DC
330
2
100
AcDbEntity
  8
TEXT
 62
     3
100
AcDbLine
 10
790.2124868102691
 20
20.97590150213563
 30
0.0
 11
770.3919787345803
 21
20.9759015021358
 31
0.0
  0
TEXT
  5
DD
330
2
100
AcDbEntity
  8
TEXT
100
AcDbText
 10
819.095771817607
 20
90.13571083111912
 30
0.0
 40
6.25
  1
für Haupt-Not-Kombi-Attika-Abläufe
 41
0.6200000000000001
  7
GREEKS
100
AcDbText
  0
LINE
  5
DE
330
2
100
AcDbEntity
  8
TEXT
 62
     2
100
AcDbLine
 10
818.4671001371183
 20
105.0469780945516
 30
0.0
 11
933.2872303143513
 21
105.0469780945516
 31
0.0
  0
LINE
  5
DF
330
2
100
AcDbEntity
  8
TEXT
 62
     2
100
AcDbLine
 10
818.4671001371183
 20
87.5
 30
0.0
 11
933.2872303143513
 21
87.5
 31
0.0
  0
TEXT
  5
E0
330
2
100
AcDbEntity
  8
TEXT
 62
     1
100
AcDbText
 10
818.5787340678212
 20
109.4944356846312
 30
0.0
 40
8.75
  1
Wärmedämmung
 41
0.8
  7
GREEKS
100
AcDbText
  0
LINE
  5
E1
330
2
100
AcDbEntity
  8
TEXT
 62
     2
100
AcDbLine
 10
818.4671001371183
 20
62.5
 30
0.0
 11
933.2872303143513
 21
62.5
 31
0.0
  0
LINE
  5
E2
330
2
100
AcDbEntity
  8
TEXT
 62
     2
100
AcDbLine
 10
818.4671001371183
 20
75.0
 30
0.0
 11
933.2872303143513
 21
75.0
 31
0.0
  0
TEXT
  5
E3
330
2
100
AcDbEntity
  8
TEXT
100
AcDbText
 10
738.7483248882724
 20
79.25691544199366
 30
0.0
 40
4.5
  1
13.12.
 41
0.8
  7
GREEKS
 72
     1
 11
745.9483248882725
 21
79.25691544199366
 31
0.0
100
AcDbText
  0
LINE
  5
E4
330
2
100
AcDbEntity
  8
VOLL
100
AcDbLine
 10
762.5
 20
137.4999999999998
 30
0.0
 11
762.5
 21
50.0
 31
0.0
  0
LINE
  5
E5
330
2
100
AcDbEntity
  8
VOLL
100
AcDbLine
 10
730.0
 20
100.0
 30
0.0
 11
730.0
 21
50.0
 31
0.0
  0
TEXT
  5
E6
330
2
100
AcDbEntity
  8
TEXT
100
AcDbText
 10
780.7330897025752
 20
79.37816573438624
 30
0.0
 40
5.0
  1
Koeh
 41
0.8
  7
GREEKS
 72
     1
 11
787.3045182740038
 21
79.37816573438624
 31
0.0
100
AcDbText
  0
LINE
  5
E7
330
2
100
AcDbEntity
  8
TEXT
 62
     3
100
AcDbLine
 10
767.7124868102692
 20
40.97590150213562
 30
0.0
 11
757.7124868102692
 21
40.97590150213562
 31
0.0
  0
LINE
  5
E8
330
2
100
AcDbEntity
  8
TEXT
 62
     3
100
AcDbLine
 10
767.7124868102692
 20
43.47590150213562
 30
0.0
 11
755.2124868102692
 21
43.47590150213562
 31
0.0
  0
LINE
  5
E9
330
2
100
AcDbEntity
  8
TEXT
 62
     3
100
AcDbLine
 10
767.7124868102692
 20
30.97590150213563
 30
0.0
 11
757.7124868102692
 21
30.97590150213563
 31
0.0
  0
LINE
  5
EA
330
2
100
AcDbEntity
  8
TEXT
 62
     3
100
AcDbLine
 10
767.7124868102692
 20
33.47590150213563
 30
0.0
 11
757.7124868102692
 21
33.47590150213563
 31
0.0
  0
LINE
  5
EB
330
2
100
AcDbEntity
  8
TEXT
 62
     3
100
AcDbLine
 10
757.7124868102692
 20
40.97590150213562
 30
0.0
 11
757.7124868102692
 21
33.47590150213563
 31
0.0
  0
LINE
  5
EC
330
2
100
AcDbEntity
  8
TEXT
 62
     3
100
AcDbLine
 10
720.2124868102692
 20
43.47590150213545
 30
0.0
 11
720.2124868102692
 21
25.97590150213603
 31
0.0
  0
CIRCLE
  5
ED
330
2
100
AcDbEntity
  8
TEXT
 62
     3
100
AcDbCircle
 10
740.2124868102691
 20
32.22590150213563
 30
0.0
 40
8.75
  0
ARC
  5
EE
330
2
100
AcDbEntity
  8
TEXT
 62
     3
100
AcDbCircle
 10
722.7124868102691
 20
25.97590150213603
 30
0.0
 40
2.5
100
AcDbArc
 50
180.0
 51
270.0
  0
LINE
  5
EF
330
2
100
AcDbEntity
  8
TEXT
 62
     3
100
AcDbLine
 10
733.1414189984029
 20
23.47590150213591
 30
0.0
 11
722.7124868102691
 21
23.47590150213603
 31
0.0
  0
ARC
  5
F0
330
2
100
AcDbEntity
  8
TEXT
 62
     3
100
AcDbCircle
 10
767.7124868102692
 20
37.22590150213563
 30
0.0
 40
6.25
100
AcDbArc
 50
293.1161887722295
 51
90.0
  0
ARC
  5
F1
330
2
100
AcDbEntity
  8
TEXT
 62
     3
100
AcDbCircle
 10
767.7124868102692
 20
37.22590150213563
 30
0.0
 40
3.75
100
AcDbArc
 50
270.0
 51
90.0
  0
CIRCLE
  5
F2
330
2
100
AcDbEntity
  8
TEXT
 62
     3
100
AcDbCircle
 10
790.2124868102691
 20
32.22590150213563
 30
0.0
 40
8.75
  0
LINE
  5
F3
330
2
100
AcDbEntity
  8
TEXT
 62
     3
100
AcDbLine
 10
770.1273013759919
 20
31.62294911489198
 30
0.0
 11
772.3102962045277
 21
23.4759015021358
 31
0.0
  0
ARC
  5
F4
330
2
100
AcDbEntity
  8
TEXT
 62
     3
100
AcDbCircle
 10
767.7124868102692
 20
37.22590150213563
 30
0.0
 40
6.25
100
AcDbArc
 50
270.0
 51
270.0000000000007
  0
LINE
  5
F5
330
2
100
AcDbEntity
  8
TEXT
 62
     3
100
AcDbLine
 10
783.1414189984037
 20
23.47590150213563
 30
0.0
 11
772.3102962045277
 21
23.4759015021358
 31
0.0
  0
TEXT
  5
F6
330
2
100
AcDbEntity
  8
TEXT
100
AcDbText
 10
818.4277979889198
 20
38.5570071274131
 30
0.0
 40
6.25
  1
Bauvorhaben
 41
0.8
  7
GREEKS
100
AcDbText
  0
TEXT
  5
F7
330
2
100
AcDbEntity
  8
TEXT
100
AcDbText
 10
818.7141750668207
 20
52.74380716266932
 30
0.0
 40
4.5
  1
13855000W.DWG
 41
0.8
  7
GREEKS
100
AcDbText
  0
TEXT
  5
F8
330
2
100
AcDbEntity
  8
TEXT
 62
     1
100
AcDbText
 10
723.5080387955559
 20
107.7801313046652
 30
0.0
 40
8.75
  1
1:2.5
 41
0.8
  7
GREEKS
100
AcDbText
  0
TEXT
  5
F9
330
2
100
AcDbEntity
  8
TEXT
100
AcDbText
 10
740.413959144206
 20
91.64850626537401
 30
0.0
 40
4.5
  1
Tag
 41
0.8
  7
GREEKS
100
AcDbText
  0
TEXT
  5
FA
330
2
100
AcDbEntity
  8
TEXT
100
AcDbText
 10
778.0783230282868
 20
91.63701364894023
 30
0.0
 40
4.5
  1
Name
 41
0.8
  7
GREEKS
100
AcDbText
  0
TEXT
  5
FB
330
2
100
AcDbEntity
  8
TEXT
100
AcDbText
 10
772.4558268631994
 20
128.0230210543523
 30
0.0
 40
6.25
  1
Zul.Abw.
 41
0.8
  7
GREEKS
100
AcDbText
  0
TEXT
  5
FC
330
2
100
AcDbEntity
  8
TEXT
100
AcDbText
 10
818.5974254761259
 20
128.1861660014723
 30
0.0
 40
6.25
  1
Benennung
 41
0.8
  7
GREEKS
100
AcDbText
  0
LINE
  5
FD
330
2
100
AcDbEntity
  8
STEMPEL
100
AcDbLine
 10
940.0
 20
137.4999999999996
 30
0.0
 11
940.0
 21
50.0
 31
0.0
  0
LINE
  5
FE
330
2
100
AcDbEntity
  8
VOLL
100
AcDbLine
 10
940.0
 20
75.0
 30
0.0
 11
1037.5
 21
75.0
 31
0.0
  0
TEXT
  5
FF
330
2
100
AcDbEntity
  8
TEXT
100
AcDbText
 10
946.5501076871261
 20
65.09270222348249
 30
0.0
 40
6.25
  1
ersetzt durch:
 41
0.8
  7
GREEKS
100
AcDbText
  0
TEXT
  5
100
330
2
100
AcDbEntity
  8
TEXT
 62
     1
100
AcDbText
 10
958.6305493552954
 20
108.7732967720447
 30
0.0
 40
8.75
  1
13855000W
 41
0.8
  7
GREEKS
 72
     1
 11
987.9638826886287
 21
108.7732967720447
 31
0.0
100
AcDbText
  0
LINE
  5
101
330
2
100
AcDbEntity
  8
TEXT
 62
     2
100
AcDbLine
 10
945.9048270371244
 20
104.7247954619478
 30
0.0
 11
1031.073604915841
 21
104.7247954619478
 31
0.0
  0
TEXT
  5
102
330
2
100
AcDbEntity
  8
TEXT
100
AcDbText
 10
945.9048270371244
 20
91.47647796374952
 30
0.0
 40
6.25
  1
Ersatz für:
 41
0.8
  7
GREEKS
100
AcDbText
  0
TEXT
  5
103
330
2
100
AcDbEntity
  8
TEXT
100
AcDbText
 10
945.223443697043
 20
127.891504317142
 30
0.0
 40
6.25
  1
Zeichnungs Nr.
 41
0.8
  7
GREEKS
100
AcDbText
  0
LINE
  5
131
330
2
100
AcDbEntity
  8
STEMPEL
 62
     2
100
AcDbLine
 10
1050.0
 20
742.4999999999999
 30
0.0
 11
0.0
 21
742.4999999999999
 31
0.0
  0
LINE
  5
132
330
2
100
AcDbEntity
  8
STEMPEL
100
AcDbLine
 10
1037.5
 20
730.0
 30
0.0
 11
50.0
 21
730.0
 31
0.0
  0
LINE
  5
153
102
{ACAD_REACTORS
330
3546
102
}
330
2
100
AcDbEntity
  8
STEMPEL
100
AcDbLine
 10
514.6059336186201
 20
642.1310584022867
 30
0.0
 11
222.6059336186208
 21
642.1310584022866
 31
0.0
  0
LINE
  5
18F
102
{ACAD_REACTORS
330
3546
102
}
330
2
100
AcDbEntity
  8
STEMPEL
100
AcDbLine
 10
514.6059336186201
 20
642.1310584022867
 30
0.0
 11
514.6059336186201
 21
652.1310584022867
 31
0.0
  0
LINE
  5
EA3
102
{ACAD_REACTORS
330
3546
102
}
330
2
100
AcDbEntity
  8
STEMPEL
100
AcDbLine
 10
162.6059336186207
 20
492.1310584022867
 30
0.0
 11
162.6059336186208
 21
652.1310584022867
 31
0.0
  0
LINE
  5
ED9
102
{ACAD_REACTORS
330
3546
102
}
330
2
100
AcDbEntity
  8
STEMPEL
100
AcDbLine
 10
532.6059336186201
 20
492.1310584022867
 30
0.0
 11
532.6059336186201
 21
652.1310584022867
 31
0.0
  0
LINE
  5
EDE
102
{ACAD_REACTORS
330
3546
102
}
330
2
100
AcDbEntity
  8
STEMPEL
100
AcDbLine
 10
447.6059336186202
 20
642.1310584022867
 30
0.0
 11
447.6059336186202
 21
585.1310584022883
 31
0.0
  0
LINE
  5
EE5
102
{ACAD_REACTORS
330
3546
102
}
330
2
100
AcDbEntity
  8
STEMPEL
100
AcDbLine
 10
532.6059336186201
 20
652.1310584022867
 30
0.0
 11
162.6059336186208
 21
652.1310584022867
 31
0.0
  0
LINE
  5
EE6
102
{ACAD_REACTORS
330
3546
102
}
330
2
100
AcDbEntity
  8
STEMPEL
100
AcDbLine
 10
532.6059336186201
 20
492.1310584022867
 30
0.0
 11
162.6059336186207
 21
492.1310584022867
 31
0.0
  0
LINE
  5
F0D
330
2
100
AcDbEntity
  8
STEMPEL
100
AcDbLine
 10
532.6059336186201
 20
357.2697052206202
 30
0.0
 11
162.6059336186206
 21
357.2697052206204
 31
0.0
  0
LINE
  5
F0E
330
2
100
AcDbEntity
  8
STEMPEL
100
AcDbLine
 10
532.6059336186201
 20
47.26970522062055
 30
0.0
 11
532.6059336186201
 21
357.2697052206202
 31
0.0
  0
LINE
  5
F15
330
2
100
AcDbEntity
  8
STEMPEL
100
AcDbLine
 10
377.6059336186203
 20
339.7697052206203
 30
0.0
 11
222.6059336186208
 21
339.7697052206203
 31
0.0
  0
LINE
  5
F16
330
2
100
AcDbEntity
  8
STEMPEL
100
AcDbLine
 10
447.60593361862
 20
279.7697052206206
 30
0.0
 11
447.6059336186201
 21
124.7697052206201
 31
0.0
  0
LINE
  5
F17
330
2
100
AcDbEntity
  8
STEMPEL
100
AcDbLine
 10
447.60593361862
 20
279.7697052206206
 30
0.0
 11
222.6059336186208
 21
279.7697052206206
 31
0.0
  0
LINE
  5
F18
330
2
100
AcDbEntity
  8
STEMPEL
100
AcDbLine
 10
222.6059336186207
 20
254.7697052206204
 30
0.0
 11
447.60593361862
 21
254.7697052206201
 31
0.0
  0
LINE
  5
F1B
330
2
100
AcDbEntity
  8
STEMPEL
100
AcDbLine
 10
532.6059336186201
 20
47.26970522062055
 30
0.0
 11
162.6059336186206
 21
47.26970522062049
 31
0.0
  0
LINE
  5
F1C
330
2
100
AcDbEntity
  8
STEMPEL
100
AcDbLine
 10
377.6059336186203
 20
64.7697052206205
 30
0.0
 11
222.6059336186206
 21
64.7697052206205
 31
0.0
  0
LINE
  5
F1D
330
2
100
AcDbEntity
  8
STEMPEL
100
AcDbLine
 10
447.6059336186201
 20
124.7697052206201
 30
0.0
 11
222.6059336186206
 21
124.7697052206202
 31
0.0
  0
LINE
  5
F1E
330
2
100
AcDbEntity
  8
STEMPEL
100
AcDbLine
 10
222.6059336186207
 20
149.7697052206204
 30
0.0
 11
447.60593361862
 21
149.7697052206203
 31
0.0
  0
LINE
  5
F1F
330
2
100
AcDbEntity
  8
STEMPEL
100
AcDbLine
 10
707.7086353497979
 20
492.1310584022867
 30
0.0
 11
707.7086353497978
 21
652.1310584022867
 31
0.0
  0
LINE
  5
F20
330
2
100
AcDbEntity
  8
STEMPEL
100
AcDbLine
 10
1017.708635349797
 20
492.1310584022869
 30
0.0
 11
1017.708635349797
 21
652.1310584022869
 31
0.0
  0
LINE
  5
F21
330
2
100
AcDbEntity
  8
STEMPEL
100
AcDbLine
 10
707.7086353497978
 20
652.1310584022867
 30
0.0
 11
1017.708635349797
 21
652.1310584022867
 31
0.0
  0
LINE
  5
F22
330
2
100
AcDbEntity
  8
STEMPEL
100
AcDbLine
 10
707.7086353497979
 20
492.1310584022867
 30
0.0
 11
1017.708635349797
 21
492.1310584022867
 31
0.0
  0
LINE
  5
F23
330
2
100
AcDbEntity
  8
VERDECKT
100
AcDbLine
 10
725.2086353497977
 20
642.1310584022867
 30
0.0
 11
1000.208635349797
 21
642.1310584022867
 31
0.0
  0
LINE
  5
F24
330
2
100
AcDbEntity
  8
VERDECKT
100
AcDbLine
 10
940.2086353497978
 20
585.1310584022887
 30
0.0
 11
927.7086353497978
 21
585.1310584022887
 31
0.0
  0
LINE
  5
F26
330
2
100
AcDbEntity
  8
VERDECKT
100
AcDbLine
 10
725.2086353497977
 20
642.1310584022867
 30
0.0
 11
725.2086353497977
 21
652.1310584022867
 31
0.0
  0
LINE
  5
F27
330
2
100
AcDbEntity
  8
VERDECKT
100
AcDbLine
 10
1000.208635349797
 20
642.1310584022867
 30
0.0
 11
1000.208635349797
 21
652.1310584022869
 31
0.0
  0
LINE
  5
F28
330
2
100
AcDbEntity
  8
VERDECKT
100
AcDbLine
 10
785.2086353497975
 20
587.1310584022865
 30
0.0
 11
785.2086353497974
 21
642.1310584022867
 31
0.0
  0
LINE
  5
F29
330
2
100
AcDbEntity
  8
VERDECKT
100
AcDbLine
 10
940.2086353497978
 20
587.1310584022872
 30
0.0
 11
940.2086353497978
 21
642.1310584022867
 31
0.0
  0
LINE
  5
F2C
330
2
100
AcDbEntity
  8
MITTEL
100
AcDbLine
 10
862.7086353497976
 20
657.1310584022867
 30
0.0
 11
862.7086353497977
 21
485.1310584022867
 31
0.0
  0
DIMENSION
  5
FCE
330
2
100
AcDbEntity
  8
BEM
100
AcDbDimension
  2
*D0
 10
447.6059336186202
 20
409.4326932809615
 30
0.0
 11
305.1059336186204
 21
409.4326932809615
 31
0.0
 70
   160
 71
     5
 42
284.9999999999996
  3
STANDARD
100
AcDbAlignedDimension
 13
162.6059336186206
 23
357.2697052206204
 33
0.0
 14
447.6059336186202
 24
279.7697052206206
 34
0.0
 50
180.0
100
AcDbRotatedDimension
1001
ACAD
1000
DSTYLE
1002
{
1070
    40
1040
2.5
1070
    41
1040
3.5
1070
    42
1040
1.0
1070
    43
1040
7.0
1070
    44
1040
1.0
1070
    47
1040
1.0
1070
    48
1040
1.0
1070
    73
1070
     0
1070
    74
1070
     0
1070
    77
1070
     1
1070
    78
1070
     8
1070
    79
1070
     2
1070
   140
1040
3.5
1070
   141
1040
1.5
1070
   145
1040
0.2857142857142857
1070
   146
1040
0.5142857142857144
1070
   147
1040
1.5
1070
   172
1070
     1
1070
   178
1070
     1
1070
   179
1070
     2
1070
   271
1070
     2
1070
   272
1070
     2
1070
   284
1070
     8
1070
   285
1070
     8
1070
   286
1070
     8
1070
   289
1070
     0
1070
   340
1005
1C
1002
}
  0
DIMENSION
  5
FE8
330
2
100
AcDbEntity
  8
BEM
100
AcDbDimension
  2
*D1
 10
377.6059336186202
 20
391.4228075522438
 30
0.0
 11
270.1059336186204
 21
399.5478075522438
 31
0.0
 70
    32
 71
     5
 42
214.9999999999996
  3
STANDARD
100
AcDbAlignedDimension
 13
162.6059336186206
 23
357.2697052206204
 33
0.0
 14
377.6059336186202
 24
342.2697052206203
 34
0.0
 50
180.0
100
AcDbRotatedDimension
1001
ACAD
1000
DSTYLE
1002
{
1070
    40
1040
2.5
1070
    41
1040
3.5
1070
    42
1040
1.0
1070
    43
1040
7.0
1070
    44
1040
1.0
1070
    47
1040
1.0
1070
    48
1040
1.0
1070
    73
1070
     0
1070
    74
1070
     0
1070
    77
1070
     1
1070
    78
1070
     8
1070
    79
1070
     2
1070
   140
1040
3.5
1070
   141
1040
1.5
1070
   145
1040
0.2857142857142857
1070
   146
1040
0.5142857142857144
1070
   147
1040
1.5
1070
   172
1070
     1
1070
   178
1070
     1
1070
   179
1070
     2
1070
   271
1070
     2
1070
   272
1070
     2
1070
   284
1070
     8
1070
   285
1070
     8
1070
   286
1070
     8
1070
   289
1070
     0
1070
   340
1005
1C
1002
}
  0
DIMENSION
  5
FF5
330
2
100
AcDbEntity
  8
BEM
100
AcDbDimension
  2
*D2
 10
532.6059336186201
 20
427.7054540644321
 30
0.0
 11
347.6059336186204
 21
435.8304540644321
 31
0.0
 70
    32
 71
     5
 42
369.9999999999996
  3
STANDARD
100
AcDbAlignedDimension
 13
162.6059336186206
 23
357.2697052206204
 33
0.0
 14
532.6059336186201
 24
357.2697052206202
 34
0.0
 50
180.0
100
AcDbRotatedDimension
1001
ACAD
1000
DSTYLE
1002
{
1070
    40
1040
2.5
1070
    41
1040
3.5
1070
    42
1040
1.0
1070
    43
1040
7.0
1070
    44
1040
1.0
1070
    47
1040
1.0
1070
    48
1040
1.0
1070
    73
1070
     0
1070
    74
1070
     0
1070
    77
1070
     1
1070
    78
1070
     8
1070
    79
1070
     2
1070
   140
1040
3.5
1070
   141
1040
1.5
1070
   145
1040
0.2857142857142857
1070
   146
1040
0.5142857142857144
1070
   147
1040
1.5
1070
   172
1070
     1
1070
   178
1070
     1
1070
   179
1070
     2
1070
   271
1070
     2
1070
   272
1070
     2
1070
   284
1070
     8
1070
   285
1070
     8
1070
   286
1070
     8
1070
   289
1070
     0
1070
   340
1005
1C
1002
}
  0
DIMENSION
  5
107F
330
2
100
AcDbEntity
  8
BEM
100
AcDbDimension
  2
*D3
 10
1017.708635349797
 20
411.5705226210147
 30
0.0
 11
862.7086353497977
 21
419.6955226210148
 31
0.0
 70
    32
 71
     5
 42
309.9999999999994
  3
STANDARD
100
AcDbAlignedDimension
 13
707.7086353497979
 23
492.1310584022867
 33
0.0
 14
1017.708635349797
 24
492.1310584022867
 34
0.0
100
AcDbRotatedDimension
1001
ACAD
1000
DSTYLE
1002
{
1070
    40
1040
2.5
1070
    41
1040
3.5
1070
    42
1040
1.0
1070
    43
1040
7.0
1070
    44
1040
1.0
1070
    47
1040
1.0
1070
    48
1040
1.0
1070
    73
1070
     0
1070
    74
1070
     0
1070
    77
1070
     1
1070
    78
1070
     8
1070
    79
1070
     2
1070
   140
1040
3.5
1070
   141
1040
1.5
1070
   145
1040
0.2857142857142857
1070
   146
1040
0.5142857142857144
1070
   147
1040
1.5
1070
   172
1070
     1
1070
   178
1070
     1
1070
   179
1070
     2
1070
   271
1070
     2
1070
   272
1070
     2
1070
   284
1070
     8
1070
   285
1070
     8
1070
   286
1070
     8
1070
   289
1070
     0
1070
   340
1005
1C
1002
}
  0
ARC
  5
125C
330
2
100
AcDbEntity
  8
STEMPEL
100
AcDbCircle
 10
377.6059336186202
 20
202.2697052206204
 30
0.0
 40
137.4999999999999
100
AcDbArc
 50
270.0
 51
89.99999999999998
  0
LINE
  5
1E36
102
{ACAD_REACTORS
330
3546
102
}
330
2
100
AcDbEntity
  8
STEMPEL
100
AcDbLine
 10
222.6059336186207
 20
512.1310584022872
 30
0.0
 11
222.6059336186208
 21
652.1310584022867
 31
0.0
  0
LINE
  5
1FC5
330
2
100
AcDbEntity
  8
VERDECKT
100
AcDbLine
 10
810.2086353497977
 20
525.1310584022869
 30
0.0
 11
810.2086353497977
 21
532.2204582928645
 31
0.0
  0
LINE
  5
1FC6
330
2
100
AcDbEntity
  8
VERDECKT
100
AcDbLine
 10
915.2086353497976
 20
525.1310584022868
 30
0.0
 11
915.2086353497976
 21
532.2204582928641
 31
0.0
  0
LINE
  5
20C6
330
2
100
AcDbEntity
  8
STEMPEL
100
AcDbLine
 10
222.6059336186206
 20
64.7697052206205
 30
0.0
 11
222.6059336186208
 21
339.7697052206203
 31
0.0
  0
LINE
  5
20D5
102
{ACAD_REACTORS
330
3546
102
}
330
2
100
AcDbEntity
  8
MITTEL
100
AcDbLine
 10
377.6059336186202
 20
492.1310584022867
 30
0.0
 11
377.6059336186201
 21
657.1310584022867
 31
0.0
  0
LINE
  5
2235
330
2
100
AcDbEntity
  8
MITTEL
100
AcDbLine
 10
537.6059336186203
 20
202.2697052206203
 30
0.0
 11
157.6059336186206
 21
202.2697052206205
 31
0.0
  0
DIMENSION
  5
22C6
330
2
100
AcDbEntity
  8
BEM
100
AcDbDimension
  2
*D4
 10
222.6059336186208
 20
371.8869042931165
 30
0.0
 11
192.6059336186207
 21
380.0119042931165
 31
0.0
 70
    32
 71
     5
 42
60.00000000000023
  3
STANDARD
100
AcDbAlignedDimension
 13
162.6059336186206
 23
357.2697052206204
 33
0.0
 14
222.6059336186208
 24
339.7697052206203
 34
0.0
100
AcDbRotatedDimension
1001
ACAD
1000
DSTYLE
1002
{
1070
    40
1040
2.5
1070
    41
1040
3.5
1070
    42
1040
1.0
1070
    43
1040
7.0
1070
    44
1040
1.0
1070
    47
1040
1.0
1070
    48
1040
1.0
1070
    73
1070
     0
1070
    74
1070
     0
1070
    77
1070
     1
1070
    78
1070
     8
1070
    79
1070
     2
1070
   140
1040
3.5
1070
   141
1040
1.5
1070
   145
1040
0.2857142857142857
1070
   146
1040
0.5142857142857144
1070
   147
1040
1.5
1070
   172
1070
     1
1070
   178
1070
     1
1070
   179
1070
     2
1070
   271
1070
     2
1070
   272
1070
     2
1070
   284
1070
     8
1070
   285
1070
     8
1070
   286
1070
     8
1070
   289
1070
     0
1070
   340
1005
1C
1002
}
  0
DIMENSION
  5
23B2
330
2
100
AcDbEntity
  8
BEM
100
AcDbDimension
  2
*D5
 10
672.7747356112354
 20
492.1310584022867
 30
0.0
 11
664.6497356112353
 21
572.1310584022868
 31
0.0
 70
    32
 71
     5
 42
159.9999999999999
  3
STANDARD
100
AcDbAlignedDimension
 13
707.7086353497978
 23
652.1310584022867
 33
0.0
 14
707.7086353497979
 24
492.1310584022867
 34
0.0
 50
90.0
100
AcDbRotatedDimension
1001
ACAD
1000
DSTYLE
1002
{
1070
    40
1040
2.5
1070
    41
1040
3.5
1070
    42
1040
1.0
1070
    43
1040
7.0
1070
    44
1040
1.0
1070
    47
1040
1.0
1070
    48
1040
1.0
1070
    73
1070
     0
1070
    74
1070
     0
1070
    77
1070
     1
1070
    78
1070
     8
1070
    79
1070
     2
1070
   140
1040
3.5
1070
   141
1040
1.5
1070
   145
1040
0.2857142857142857
1070
   146
1040
0.5142857142857144
1070
   147
1040
1.5
1070
   172
1070
     1
1070
   178
1070
     1
1070
   179
1070
     2
1070
   271
1070
     2
1070
   272
1070
     2
1070
   284
1070
     8
1070
   285
1070
     8
1070
   286
1070
     8
1070
   289
1070
     0
1070
   340
1005
1C
1002
}
  0
TEXT
  5
2729
330
2
100
AcDbEntity
  8
TEXT
100
AcDbText
 10
589.9782229349944
 20
142.9654426816354
 30
0.0
 40
6.25
  1
Erstellt mit AUTOCAD 2004
 41
0.8
  7
GREEKS
100
AcDbText
  0
TEXT
  5
272A
330
2
100
AcDbEntity
  8
TEXT
100
AcDbText
 10
819.095771817607
 20
65.13571083111912
 30
0.0
 40
6.25
  1
EDV-Art.Nr. 13855.000X
 41
0.8
  7
GREEKS
100
AcDbText
  0
TEXT
  5
2740
330
2
100
AcDbEntity
  8
TEXT
 62
     1
100
AcDbText
 10
805.1859667373992
 20
164.8704225806282
 30
0.0
 40
8.75
  1
Werkstoff: Foamglas
 41
0.8
  7
GREEKS
100
AcDbText
  0
HATCH
  5
280C
330
2
100
AcDbEntity
  8
HILF
100
AcDbHatch
 10
0.0
 20
0.0
 30
0.0
210
0.0
220
0.0
230
1.0
  2
_USER
 70
     0
 71
     0
 91
        2
 92
        7
 72
     1
 73
     1
 93
       11
 10
351.10593361862
 20
623.1090332885058
 42
-0.3989595459737162
 10
341.6292931810495
 20
613.12273794096
 42
0.0
 10
341.7077971154139
 20
611.6247936388282
 42
0.3989595459737166
 10
352.6059336186199
 20
623.1090332885058
 42
0.0
 10
352.6059336186199
 20
644.2779369599098
 42
0.154347130187019
 10
350.8786608913472
 20
649.7400529183825
 42
-0.2684019438967018
 10
349.2923934519607
 20
667.6964539720848
 42
0.0
 10
349.6539556478726
 20
668.4718266034124
 42
0.0
 10
347.9995804686833
 20
668.4718266034124
 42
0.270552152125324
 10
349.6513881640745
 20
648.8776135565184
 42
-0.1543471301870204
 10
351.10593361862
 20
644.2779369599098
 42
0.0
 97
        0
 92
        7
 72
     1
 73
     1
 93
       11
 10
404.1059336186201
 20
644.2779369599097
 42
-0.1543471301870114
 10
405.5604790731654
 20
648.877613556518
 42
0.2705521521253293
 10
407.2122867685568
 20
668.4718266034124
 42
0.0
 10
405.5579115893676
 20
668.4718266034125
 42
0.0
 10
405.9194737852795
 20
667.6964539720845
 42
-0.2684019438966918
 10
404.333206345893
 20
649.7400529183828
 42
0.1543471301870306
 10
402.60593361862
 20
644.2779369599098
 42
0.0
 10
402.6059336186198
 20
623.1090332885052
 42
-0.3989595459737168
 10
344.3245949275611
 20
561.6933169010994
 42
0.0
 10
344.4030988619255
 20
560.1953725989675
 42
0.3989595459737174
 10
404.1059336186199
 20
623.1090332885052
 42
0.0
 97
        0
 75
     0
 76
     0
 52
45.0
 41
2.0
 77
     0
 78
     1
 53
135.0
 43
657.6915959685377
 44
146.2319437954879
 45
1.414213562373094
 46
1.414213562373095
 79
     0
 47
0.2350250805284654
 98
        2
 10
351.6327290947256
 20
631.1711242007613
 10
403.604631463384
 20
630.7010745952506
  0
HATCH
  5
280E
330
2
100
AcDbEntity
  8
HILF
100
AcDbHatch
 10
0.0
 20
0.0
 30
0.0
210
0.0
220
0.0
230
1.0
  2
_USER
 70
     0
 71
     0
 91
        2
 92
        7
 72
     1
 73
     1
 93
        3
 10
316.6059336186202
 20
644.1310584022866
 42
-0.2383043241279321
 10
317.6165423232354
 20
642.1310584022867
 42
0.0
 10
316.6059336186201
 20
642.1310584022867
 42
0.0
 97
        0
 92
        7
 72
     1
 73
     1
 93
        3
 10
316.6059336186201
 20
642.1310584022867
 42
0.0
 10
317.6165423232354
 20
642.1310584022867
 42
-0.2383043241279352
 10
316.6059336186201
 20
640.1310584022867
 42
0.0
 97
        0
 75
     0
 76
     0
 52
0.0
 41
0.1
 77
     0
 78
     1
 53
180.0
 43
657.6915959685377
 44
146.2319437954879
 45
0.0
 46
0.1
 79
     0
 47
0.0195666724133703
 98
        2
 10
316.8307915125151
 20
642.9226991738812
 10
316.9091070834566
 20
641.7095651034601
  0
ARC
  5
280F
330
2
100
AcDbEntity
  8
HILF
100
AcDbCircle
 10
315.1322326537697
 20
642.1310584022867
 30
0.0
 40
2.484309669465758
100
AcDbArc
 50
306.3846628942107
 51
53.61533710578928
  0
HATCH
  5
2810
330
2
100
AcDbEntity
  8
HILF
100
AcDbHatch
 10
0.0
 20
0.0
 30
0.0
210
0.0
220
0.0
230
1.0
  2
_USER
 70
     0
 71
     1
 91
        1
 92
        7
 72
     0
 73
     1
 93
        4
 10
301.6059336186202
 20
611.0252025468464
 10
316.6059336186201
 20
611.811319236092
 10
316.6059336186202
 20
642.1310584022867
 10
301.6059336186202
 20
642.1310584022867
 97
        4
330
281A
330
2815
330
281E
330
2814
 75
     0
 76
     0
 52
45.0
 41
2.0
 77
     0
 78
     1
 53
135.0
 43
657.6915959685377
 44
146.2319437954879
 45
1.414213562373094
 46
1.414213562373095
 79
     0
 47
0.0910543507654027
 98
        1
 10
308.3210882274029
 20
632.9385347233915
  0
HATCH
  5
2811
330
2
100
AcDbEntity
  8
HILF
100
AcDbHatch
 10
0.0
 20
0.0
 30
0.0
210
0.0
220
0.0
230
1.0
  2
_USER
 70
     0
 71
     0
 91
        2
 92
        7
 72
     1
 73
     1
 93
        3
 10
301.6059336186201
 20
613.0252025468465
 42
0.4296339059668391
 10
299.608674549111
 20
610.9205306343604
 42
0.0
 10
301.6059336186201
 20
611.0252025468463
 42
0.0
 97
        0
 92
        7
 72
     1
 73
     1
 93
        3
 10
316.60593361862
 20
611.811319236092
 42
0.0
 10
318.6031926881292
 20
611.9159911485779
 42
0.3989595459737222
 10
316.6059336186201
 20
613.8113192360919
 42
0.0
 97
        0
 75
     0
 76
     0
 52
0.0
 41
0.1
 77
     0
 78
     1
 53
180.0
 43
657.6915959685377
 44
146.2319437954879
 45
0.0
 46
0.1
 79
     0
 47
0.0362762327571803
 98
        2
 10
301.0975695935567
 20
612.3473339770096
 10
317.1050459157814
 20
612.8914780998675
  0
ARC
  5
2812
330
2
100
AcDbEntity
  8
HILF
100
AcDbCircle
 10
316.6059336186201
 20
611.811319236092
 30
0.0
 40
2.0
100
AcDbArc
 50
3.000000000005596
 51
90.0
  0
ARC
  5
2813
330
2
100
AcDbEntity
  8
HILF
100
AcDbCircle
 10
301.6059336186202
 20
611.0252025468464
 30
0.0
 40
2.0
100
AcDbArc
 50
90.00000000000161
 51
183.0000000000056
  0
LINE
  5
2814
102
{ACAD_REACTORS
330
2810
102
}
330
2
100
AcDbEntity
  8
HILF
100
AcDbLine
 10
301.6059336186201
 20
642.1310584022867
 30
0.0
 11
301.6059336186202
 21
611.0252025468464
 31
0.0
  0
LINE
  5
2815
102
{ACAD_REACTORS
330
2810
102
}
330
2
100
AcDbEntity
  8
HILF
100
AcDbLine
 10
316.6059336186201
 20
642.1310584022867
 30
0.0
 11
316.6059336186201
 21
611.811319236092
 31
0.0
  0
LINE
  5
2816
330
2
100
AcDbEntity
  8
HILF
100
AcDbLine
 10
141.9928364590582
 20
549.5875002423359
 30
0.0
 11
143.2426462549699
 21
525.7397086928858
 31
0.0
  0
LINE
  5
2817
330
2
100
AcDbEntity
  8
HILF
100
AcDbLine
 10
148.9662339668979
 20
549.9529605197797
 30
0.0
 11
150.0246743032635
 21
529.5053132319201
 31
0.0
  0
LINE
  5
2818
330
2
100
AcDbEntity
  8
HILF
100
AcDbLine
 10
392.8223267941559
 20
587.1310584022868
 30
0.0
 11
434.0539143996274
 21
587.1310584022867
 31
0.0
  0
LINE
  5
2819
330
2
100
AcDbEntity
  8
HILF
100
AcDbLine
 10
394.1577688614416
 20
589.1310584022867
 30
0.0
 11
431.60593361862
 21
589.1310584022867
 31
0.0
  0
LINE
  5
281A
102
{ACAD_REACTORS
330
2810
102
}
330
2
100
AcDbEntity
  8
HILF
100
AcDbLine
 10
351.10593361862
 20
642.1310584022867
 30
0.0
 11
237.6059336186201
 21
642.1310584022867
 31
0.0
  0
LINE
  5
281B
330
2
100
AcDbEntity
  8
HILF
100
AcDbLine
 10
350.116886132387
 20
648.1310584022867
 30
0.0
 11
239.6059336186201
 21
648.1310584022867
 31
0.0
  0
ARC
  5
281C
330
2
100
AcDbEntity
  8
HILF
  6
STRICHPUNKT
100
AcDbCircle
 10
341.1059336186201
 20
623.1090332885058
 30
0.0
 40
36.5
100
AcDbArc
 50
273.0000000000022
 51
0.000000000000007
  0
ARC
  5
281D
330
2
100
AcDbEntity
  8
HILF
100
AcDbCircle
 10
341.1059336186201
 20
623.1090332885058
 30
0.0
 40
63.0
100
AcDbArc
 50
273.0000000000022
 51
0.000000000000007
  0
LINE
  5
281E
102
{ACAD_REACTORS
330
2810
102
}
330
2
100
AcDbEntity
  8
HILF
100
AcDbLine
 10
139.146776791302
 20
602.5110789133316
 30
0.0
 11
341.6292931810495
 21
613.1227379409599
 31
0.0
  0
LINE
  5
281F
330
2
100
AcDbEntity
  8
HILF
100
AcDbLine
 10
141.9205824721766
 20
549.5837135713391
 30
0.0
 11
344.4030988619255
 21
560.1953725989675
 31
0.0
  0
ARC
  5
2820
330
2
100
AcDbEntity
  8
HILF
100
AcDbCircle
 10
341.1059336186201
 20
623.1090332885058
 30
0.0
 40
10.0
100
AcDbArc
 50
273.0000000000022
 51
0.000000000000007
  0
ARC
  5
2821
330
2
100
AcDbEntity
  8
HILF
100
AcDbCircle
 10
341.1059336186201
 20
623.1090332885058
 30
0.0
 40
11.5
100
AcDbArc
 50
273.0000000000022
 51
0.000000000000007
  0
LINE
  5
2822
330
2
100
AcDbEntity
  8
HILF
100
AcDbLine
 10
139.290682386322
 20
601.0165621669962
 30
0.0
 11
341.7077971154139
 21
611.6247936388281
 31
0.0
  0
LINE
  5
2823
330
2
100
AcDbEntity
  8
HILF
100
AcDbLine
 10
141.9074801984666
 20
551.0850854292673
 30
0.0
 11
344.3245949275611
 21
561.6933169010994
 31
0.0
  0
ARC
  5
2824
330
2
100
AcDbEntity
  8
HILF
100
AcDbCircle
 10
341.1059336186201
 20
623.1090332885058
 30
0.0
 40
61.5
100
AcDbArc
 50
273.0000000000022
 51
0.000000000000007
  0
LINE
  5
2825
330
2
100
AcDbEntity
  8
HILF
100
AcDbLine
 10
341.6292931810495
 20
613.1227379409599
 30
0.0
 11
344.4030988619255
 21
560.1953725989675
 31
0.0
  0
LINE
  5
2826
330
2
100
AcDbEntity
  8
HILF
100
AcDbLine
 10
134.2416249202365
 20
601.8217047750299
 30
0.0
 11
136.9702423170035
 21
549.7565832588036
 31
0.0
  0
LINE
  5
2827
330
2
100
AcDbEntity
  8
HILF
100
AcDbLine
 10
139.3694861929598
 20
599.5128959609807
 30
0.0
 11
141.8286763918263
 21
552.5887516352825
 31
0.0
  0
LINE
  5
2828
330
2
100
AcDbEntity
  8
HILF
100
AcDbLine
 10
141.9074801984666
 20
551.0850854292673
 30
0.0
 11
136.8914385103635
 21
551.2602494648185
 31
0.0
  0
LINE
  5
2829
330
2
100
AcDbEntity
  8
HILF
100
AcDbLine
 10
141.9205824721766
 20
549.5837135713391
 30
0.0
 11
136.9702423170035
 21
549.7565832588036
 31
0.0
  0
LINE
  5
282A
330
2
100
AcDbEntity
  8
HILF
100
AcDbLine
 10
139.146776791302
 20
602.5110789133316
 30
0.0
 11
134.2416249202365
 21
601.8217047750299
 31
0.0
  0
LINE
  5
282B
330
2
100
AcDbEntity
  8
HILF
100
AcDbLine
 10
139.290682386322
 20
601.0165621669962
 30
0.0
 11
134.3204287268768
 21
600.3180385690152
 31
0.0
  0
ARC
  5
282C
330
2
100
AcDbEntity
  8
HILF
100
AcDbCircle
 10
341.7827754689778
 20
611.6850266255709
 30
0.0
 40
2.530352235615339
100
AcDbArc
 50
43.57395978127343
 51
148.2091745382095
  0
HATCH
  5
282D
330
2
100
AcDbEntity
  8
HILF
100
AcDbHatch
 10
0.0
 20
0.0
 30
0.0
210
0.0
220
0.0
230
1.0
  2
_USER
 70
     0
 71
     0
 91
        1
 92
        7
 72
     1
 73
     1
 93
        3
 10
343.6159782401125
 20
613.4291739921049
 42
-0.0503820444848826
 10
341.6292931810495
 20
613.1227379409599
 42
0.0
 10
339.6320341115405
 20
613.018066028474
 42
-0.4911682169420211
 97
        0
 75
     0
 76
     0
 52
0.0
 41
0.1
 77
     0
 78
     1
 53
180.0
 43
577.733107720309
 44
165.1378554087089
 45
0.0
 46
0.1
 79
     0
 47
0.0337679650658336
 98
        1
 10
341.7869214779672
 20
613.9271627486725
  0
ARC
  5
282E
330
2
100
AcDbEntity
  8
HILF
100
AcDbCircle
 10
344.3270162396325
 20
561.4577067777104
 30
0.0
 40
2.357885619531735
100
AcDbArc
 50
215.4336141181705
 51
331.4760528463486
  0
HATCH
  5
282F
330
2
100
AcDbEntity
  8
HILF
100
AcDbHatch
 10
0.0
 20
0.0
 30
0.0
210
0.0
220
0.0
230
1.0
  2
_USER
 70
     0
 71
     0
 91
        1
 92
        7
 72
     1
 73
     1
 93
        3
 10
342.4058397924163
 20
560.0907006864815
 42
0.0
 10
344.4030988619255
 20
560.1953725989675
 42
0.007938008347719
 10
346.3986960536862
 20
560.3317550279284
 42
-0.5545511464437078
 97
        0
 75
     0
 76
     0
 52
0.0
 41
0.1
 77
     0
 78
     1
 53
180.0
 43
577.733107720309
 44
165.1378554087089
 45
0.0
 46
0.1
 79
     0
 47
0.0659929968122515
 98
        1
 10
343.7461684507754
 20
559.8571748408448
  0
HATCH
  5
2830
330
2
100
AcDbEntity
  8
HILF
100
AcDbHatch
 10
0.0
 20
0.0
 30
0.0
210
0.0
220
0.0
230
1.0
  2
_USER
 70
     0
 71
     0
 91
        2
 92
        7
 72
     0
 73
     1
 93
        6
 10
139.1467767913029
 20
602.5110789133316
 10
134.2416249202365
 20
601.8217047750299
 10
134.3204287268767
 20
600.3180385690152
 10
139.290682386323
 20
601.0165621669961
 10
341.7077971154139
 20
611.6247936388281
 10
341.6292931810495
 20
613.1227379409599
 97
        0
 92
        7
 72
     0
 73
     1
 93
        6
 10
344.4030988619255
 20
560.1953725989676
 10
344.324594927561
 20
561.6933169010994
 10
141.9074801984655
 20
551.0850854292673
 10
136.8914385103634
 20
551.2602494648185
 10
136.9702423170035
 20
549.7565832588036
 10
141.9205824721764
 20
549.5837135713391
 97
        0
 75
     0
 76
     0
 52
135.0
 41
2.0
 77
     0
 78
     1
 53
45.0
 43
577.733107720309
 44
165.1378554087089
 45
1.414213562373095
 46
-1.414213562373094
 79
     0
 47
0.644526010562164
 98
        2
 10
277.6025281609224
 20
609.1323114163383
 10
282.1175326680847
 20
557.5702304327915
  0
LINE
  5
2831
330
2
100
AcDbEntity
  8
HILF
100
AcDbLine
 10
401.3736543554896
 20
646.6900277165319
 30
0.0
 11
353.8382128817504
 21
646.6900277165319
 31
0.0
  0
LINE
  5
2832
330
2
100
AcDbEntity
  8
HILF
  6
Continuous
100
AcDbLine
 10
405.5579115893676
 20
668.4718266034124
 30
0.0
 11
405.9194737852795
 21
667.6964539720845
 31
0.0
  0
LINE
  5
2833
330
2
100
AcDbEntity
  8
HILF
  6
Continuous
100
AcDbLine
 10
407.2129784678113
 20
668.4718266034122
 30
0.0
 11
407.2789354658347
 21
668.3303813646951
 31
0.0
  0
ARC
  5
2834
330
2
100
AcDbEntity
  8
HILF
  6
Continuous
100
AcDbCircle
 10
389.60593361862
 20
660.0893252607516
 30
0.0
 40
19.5
100
AcDbArc
 50
324.9031987724174
 51
25.4594285688016
  0
ARC
  5
2835
330
2
100
AcDbEntity
  8
HILF
  6
Continuous
100
AcDbCircle
 10
389.60593361862
 20
660.0893252607516
 30
0.0
 40
18.0
100
AcDbArc
 50
324.9031987724174
 51
24.99999999999278
  0
ARC
  5
2836
330
2
100
AcDbEntity
  8
HILF
100
AcDbCircle
 10
412.1059336186201
 20
644.2779369599097
 30
0.0
 40
9.5
100
AcDbArc
 50
144.9031987724174
 51
180.0
  0
ARC
  5
2837
330
2
100
AcDbEntity
  8
HILF
100
AcDbCircle
 10
412.1059336186201
 20
644.2779369599097
 30
0.0
 40
8.0
100
AcDbArc
 50
144.9031987724174
 51
180.0
  0
LINE
  5
2838
330
2
100
AcDbEntity
  8
HILF
100
AcDbLine
 10
404.1059336186201
 20
644.2779369599097
 30
0.0
 11
404.1059336186199
 21
623.1077131884596
 31
0.0
  0
LINE
  5
2839
330
2
100
AcDbEntity
  8
HILF
100
AcDbLine
 10
402.60593361862
 20
644.2779369599097
 30
0.0
 11
402.6059336186198
 21
623.1077131884596
 31
0.0
  0
ARC
  5
283A
330
2
100
AcDbEntity
  8
HILF
100
AcDbCircle
 10
343.10593361862
 20
644.2779369599098
 30
0.0
 40
8.0
100
AcDbArc
 50
0.000000000000007
 51
35.09680122758257
  0
ARC
  5
283B
330
2
100
AcDbEntity
  8
HILF
100
AcDbCircle
 10
343.10593361862
 20
644.2779369599098
 30
0.0
 40
9.5
100
AcDbArc
 50
0.000000000000007
 51
35.09680122758257
  0
LINE
  5
283C
330
2
100
AcDbEntity
  8
HILF
  6
Continuous
100
AcDbLine
 10
347.9988887694289
 20
668.4718266034124
 30
0.0
 11
347.9329317714054
 21
668.3303813646952
 31
0.0
  0
LINE
  5
283D
330
2
100
AcDbEntity
  8
HILF
  6
Continuous
100
AcDbLine
 10
349.6539556478726
 20
668.4718266034124
 30
0.0
 11
349.2923934519607
 21
667.6964539720848
 31
0.0
  0
ARC
  5
283E
330
2
100
AcDbEntity
  8
HILF
  6
Continuous
100
AcDbCircle
 10
365.6059336186201
 20
660.0893252607516
 30
0.0
 40
18.0
100
AcDbArc
 50
155.0000000000072
 51
215.0968012275825
  0
ARC
  5
283F
330
2
100
AcDbEntity
  8
HILF
  6
Continuous
100
AcDbCircle
 10
365.6059336186201
 20
660.0893252607516
 30
0.0
 40
19.5
100
AcDbArc
 50
154.5405714311983
 51
215.0968012275825
  0
LINE
  5
2840
330
2
100
AcDbEntity
  8
HILF
100
AcDbLine
 10
351.1059336186201
 20
649.4756780600894
 30
0.0
 11
351.1059336186201
 21
649.4718266034124
 31
0.0
  0
LINE
  5
2841
330
2
100
AcDbEntity
  8
HILF
100
AcDbLine
 10
352.6059336186199
 20
644.2779369599098
 30
0.0
 11
352.6059336186199
 21
623.1077131884596
 31
0.0
  0
LINE
  5
2842
330
2
100
AcDbEntity
  8
HILF
100
AcDbLine
 10
351.10593361862
 20
644.2779369599098
 30
0.0
 11
351.10593361862
 21
623.1077131884596
 31
0.0
  0
LINE
  5
2843
330
2
100
AcDbEntity
  8
HILF
  6
Continuous
100
AcDbLine
 10
347.9995804686833
 20
668.4718266034124
 30
0.0
 11
407.2122867685568
 21
668.4718266034124
 31
0.0
  0
LINE
  5
2844
330
2
100
AcDbEntity
  8
HILF
100
AcDbLine
 10
144.883841179143
 20
627.3453681944504
 30
0.0
 11
137.9686526361131
 21
626.3735018244886
 31
0.0
  0
LINE
  5
2845
330
2
100
AcDbEntity
  8
HILF
100
AcDbLine
 10
145.0757153058362
 20
625.3526791993365
 30
0.0
 11
138.0737243783
 21
624.3686135498019
 31
0.0
  0
LINE
  5
2846
330
2
100
AcDbEntity
  8
HILF
100
AcDbLine
 10
150.3285943996924
 20
527.4934810196909
 30
0.0
 11
143.1375745127832
 21
527.7445969675725
 31
0.0
  0
LINE
  5
2847
330
2
100
AcDbEntity
  8
HILF
100
AcDbLine
 10
150.3460640979719
 20
525.4916518757868
 30
0.0
 11
143.2426462549699
 21
525.7397086928858
 31
0.0
  0
LINE
  5
2848
330
2
100
AcDbEntity
  8
HILF
100
AcDbLine
 10
145.1671649811373
 20
623.3458764679993
 30
0.0
 11
146.2264397880312
 21
602.8821083290624
 31
0.0
  0
LINE
  5
2849
330
2
100
AcDbEntity
  8
HILF
100
AcDbLine
 10
137.9686526361131
 20
626.3735018244886
 30
0.0
 11
139.2190307781819
 21
602.5148655843284
 31
0.0
  0
ARC
  5
284A
330
2
100
AcDbEntity
  8
HILF
100
AcDbCircle
 10
240.6059336186201
 20
642.1310584022867
 30
0.0
 40
3.0
100
AcDbArc
 50
180.0
 51
270.0
  0
LINE
  5
284B
330
2
100
AcDbEntity
  8
HILF
100
AcDbLine
 10
239.6059336186201
 20
648.1310584022867
 30
0.0
 11
237.6059336186201
 21
646.1310584022867
 31
0.0
  0
LINE
  5
284C
330
2
100
AcDbEntity
  8
HILF
100
AcDbLine
 10
237.6059336186201
 20
642.1310584022867
 30
0.0
 11
237.6059336186201
 21
646.1310584022867
 31
0.0
  0
HATCH
  5
284D
330
2
100
AcDbEntity
  8
HILF
100
AcDbHatch
 10
0.0
 20
0.0
 30
0.0
210
0.0
220
0.0
230
1.0
  2
SOLID
 70
     1
 71
     0
 91
        1
 92
        7
 72
     1
 73
     1
 93
        3
 10
240.6059336186201
 20
639.1310584022867
 42
-0.4142135623730896
 10
237.6059336186201
 20
642.1310584022867
 42
0.0
 10
240.6059336186201
 20
642.1310584022867
 42
0.0
 97
        0
 75
     0
 76
     1
 47
0.5402173319336339
 98
        1
 10
239.9123024723642
 20
640.5716117107285
450
        0
451
        0
460
0.0
461
0.0
452
        0
462
0.0
453
        0
470

  0
LINE
  5
284E
330
2
100
AcDbEntity
  8
HILF
100
AcDbLine
 10
290.3335202590985
 20
678.1310584022862
 30
0.0
 11
289.3335202590985
 21
677.1310584022862
 31
0.0
  0
LINE
  5
284F
330
2
100
AcDbEntity
  8
HILF
100
AcDbLine
 10
290.3335202590985
 20
678.1310584022862
 30
0.0
 11
290.3335202590985
 21
648.1310584022867
 31
0.0
  0
LINE
  5
2850
330
2
100
AcDbEntity
  8
HILF
100
AcDbLine
 10
289.3335202590985
 20
677.1310584022862
 30
0.0
 11
289.3335202590985
 21
648.1310584022867
 31
0.0
  0
LINE
  5
2851
330
2
100
AcDbEntity
  8
HILF
100
AcDbLine
 10
301.3335202590985
 20
677.1310584022862
 30
0.0
 11
300.3335202590985
 21
678.1310584022862
 31
0.0
  0
LINE
  5
2852
330
2
100
AcDbEntity
  8
HILF
100
AcDbLine
 10
316.6059336186201
 20
642.1310584022867
 30
0.0
 11
316.6059336186201
 21
648.1310584022867
 31
0.0
  0
LINE
  5
2853
330
2
100
AcDbEntity
  8
HILF
100
AcDbLine
 10
300.3335202590985
 20
678.1310584022862
 30
0.0
 11
300.3335202590985
 21
648.1310584022867
 31
0.0
  0
LINE
  5
2854
330
2
100
AcDbEntity
  8
HILF
100
AcDbLine
 10
301.3335202590985
 20
677.1310584022862
 30
0.0
 11
301.3335202590985
 21
648.1310584022867
 31
0.0
  0
LINE
  5
2855
330
2
100
AcDbEntity
  8
HILF
100
AcDbLine
 10
295.3335202590985
 20
683.1310584022863
 30
0.0
 11
295.3335202590985
 21
648.1310584022862
 31
0.0
  0
LINE
  5
2856
330
2
100
AcDbEntity
  8
HILF
100
AcDbLine
 10
300.3335202590985
 20
678.1310584022862
 30
0.0
 11
290.3335202590985
 21
678.1310584022862
 31
0.0
  0
LINE
  5
2857
330
2
100
AcDbEntity
  8
HILF
100
AcDbLine
 10
300.3335202590985
 20
678.1310584022862
 30
0.0
 11
290.3335202590985
 21
678.1310584022862
 31
0.0
  0
LINE
  5
2858
330
2
100
AcDbEntity
  8
HILF
100
AcDbLine
 10
301.3335202590985
 20
677.1310584022862
 30
0.0
 11
289.3335202590985
 21
677.1310584022862
 31
0.0
  0
LINE
  5
2859
330
2
100
AcDbEntity
  8
HILF
100
AcDbLine
 10
383.6059336186201
 20
677.1310584022862
 30
0.0
 11
382.6059336186201
 21
678.1310584022862
 31
0.0
  0
LINE
  5
285A
330
2
100
AcDbEntity
  8
HILF
100
AcDbLine
 10
382.6059336186201
 20
678.1310584022862
 30
0.0
 11
372.6059336186201
 21
678.1310584022862
 31
0.0
  0
LINE
  5
285B
330
2
100
AcDbEntity
  8
HILF
100
AcDbLine
 10
382.6059336186201
 20
678.1310584022862
 30
0.0
 11
372.6059336186201
 21
678.1310584022862
 31
0.0
  0
LINE
  5
285C
330
2
100
AcDbEntity
  8
HILF
100
AcDbLine
 10
372.6059336186201
 20
678.1310584022862
 30
0.0
 11
371.6059336186201
 21
677.1310584022862
 31
0.0
  0
LINE
  5
285D
330
2
100
AcDbEntity
  8
HILF
100
AcDbLine
 10
383.6059336186201
 20
677.1310584022862
 30
0.0
 11
371.6059336186201
 21
677.1310584022862
 31
0.0
  0
LINE
  5
285E
330
2
100
AcDbEntity
  8
HILF
100
AcDbLine
 10
372.6059336186201
 20
678.1310584022862
 30
0.0
 11
372.6059336186201
 21
668.4718266034124
 31
0.0
  0
LINE
  5
285F
330
2
100
AcDbEntity
  8
HILF
100
AcDbLine
 10
371.6059336186201
 20
677.1310584022862
 30
0.0
 11
371.6059336186201
 21
668.4718266034124
 31
0.0
  0
LINE
  5
2860
330
2
100
AcDbEntity
  8
HILF
100
AcDbLine
 10
382.6059336186201
 20
678.1310584022862
 30
0.0
 11
382.6059336186201
 21
668.4718266034124
 31
0.0
  0
LINE
  5
2861
330
2
100
AcDbEntity
  8
HILF
100
AcDbLine
 10
383.6059336186201
 20
677.1310584022862
 30
0.0
 11
383.60593361862
 21
668.4718266034124
 31
0.0
  0
LINE
  5
2862
330
2
100
AcDbEntity
  8
HILF
  6
STRICHPUNKT
100
AcDbLine
 10
377.6059336186201
 20
683.1310584022863
 30
0.0
 11
377.6059336186201
 21
623.1090332885058
 31
0.0
  0
INSERT
  5
2863
330
2
100
AcDbEntity
  8
HILF
100
AcDbBlockReference
  2
*X6
 10
649.6704902321169
 20
199.146406205101
 30
0.0
 41
-1.0
1001
ACAD
1000
HATCH
1002
{
1070
    16
1000
_U,I
1040
0.1
1040
0.0
1070
     0
1002
}
  0
ARC
  5
2864
330
2
100
AcDbEntity
  8
HILF
100
AcDbCircle
 10
440.6059336186201
 20
642.1310584022867
 30
0.0
 40
3.0
100
AcDbArc
 50
270.0
 51
0.000000000000007
  0
LINE
  5
2865
330
2
100
AcDbEntity
  8
HILF
100
AcDbLine
 10
438.6059336186201
 20
642.1310584022867
 30
0.0
 11
438.6059336186201
 21
648.1310584022867
 31
0.0
  0
LINE
  5
2866
330
2
100
AcDbEntity
  8
HILF
100
AcDbLine
 10
453.8783469781416
 20
677.1310584022862
 30
0.0
 11
453.8783469781416
 21
648.1310584022867
 31
0.0
  0
LINE
  5
2867
330
2
100
AcDbEntity
  8
HILF
100
AcDbLine
 10
240.6059336186201
 20
630.3592057955337
 30
0.0
 11
242.6059336186201
 21
630.3592057955337
 31
0.0
  0
HATCH
  5
2868
330
2
100
AcDbEntity
  8
HILF
100
AcDbHatch
 10
0.0
 20
0.0
 30
0.0
210
0.0
220
0.0
230
1.0
  2
_USER
 70
     0
 71
     0
 91
        1
 92
        7
 72
     1
 73
     1
 93
        4
 10
437.0765238206534
 20
588.9845457673423
 42
-0.4721685834672482
 10
432.4523852142063
 20
584.8883885620559
 42
0.0056939975404552
 10
434.0539143996274
 20
587.1310584022867
 42
0.0
 10
431.60593361862
 20
587.1310584022867
 42
0.1648036267856946
 97
        0
 75
     0
 76
     0
 52
0.0
 41
0.1
 77
     0
 78
     1
 53
180.0
 43
611.9736235331629
 44
160.0850246710058
 45
0.0
 46
0.1
 79
     0
 47
0.1013510333559963
 98
        1
 10
435.8575173094
 20
587.3717774627882
  0
LINE
  5
2869
330
2
100
AcDbEntity
  8
HILF
100
AcDbLine
 10
431.60593361862
 20
589.1310584022867
 30
0.0
 11
431.60593361862
 21
587.1310584022867
 31
0.0
  0
ARC
  5
286A
330
2
100
AcDbEntity
  8
HILF
100
AcDbCircle
 10
433.079173539618
 20
588.8389754039224
 30
0.0
 40
4.0
100
AcDbArc
 50
260.9847653123456
 51
2.085602403567142
  0
ARC
  5
286B
330
2
100
AcDbEntity
  8
HILF
100
AcDbCircle
 10
431.60593361862
 20
596.1310584022867
 30
0.0
 40
7.0
100
AcDbArc
 50
270.0
 51
0.000000000000007
  0
ARC
  5
286C
330
2
100
AcDbEntity
  8
HILF
100
AcDbCircle
 10
431.60593361862
 20
596.1310584022867
 30
0.0
 40
9.0
100
AcDbArc
 50
270.0
 51
0.000000000000007
  0
ARC
  5
286D
330
2
100
AcDbEntity
  8
HILF
100
AcDbCircle
 10
334.7899386211488
 20
656.3239996076553
 30
0.0
 40
121.0
100
AcDbArc
 50
272.9999999999989
 51
325.1211916716044
  0
ARC
  5
286E
330
2
100
AcDbEntity
  8
HILF
100
AcDbCircle
 10
334.7899386211488
 20
656.3239996076553
 30
0.0
 40
119.0
100
AcDbArc
 50
272.9999999999989
 51
324.4471758159549
  0
LINE
  5
286F
330
2
100
AcDbEntity
  8
HILF
100
AcDbLine
 10
242.6059336186201
 20
642.1310584022867
 30
0.0
 11
242.6059336186201
 21
607.9331435691472
 31
0.0
  0
LINE
  5
2870
330
2
100
AcDbEntity
  8
HILF
100
AcDbLine
 10
240.6059336186201
 20
642.1310584022867
 30
0.0
 11
240.6059336186201
 21
607.8283280105811
 31
0.0
  0
LINE
  5
2871
330
2
100
AcDbEntity
  8
HILF
100
AcDbLine
 10
438.6059336186201
 20
642.1310584022867
 30
0.0
 11
438.6059336186201
 21
596.1310584022867
 31
0.0
  0
LINE
  5
2872
330
2
100
AcDbEntity
  8
HILF
100
AcDbLine
 10
440.6059336186201
 20
642.1310584022867
 30
0.0
 11
440.6059336186201
 21
596.1310584022867
 31
0.0
  0
HATCH
  5
2873
330
2
100
AcDbEntity
  8
HILF
100
AcDbHatch
 10
0.0
 20
0.0
 30
0.0
210
0.0
220
0.0
230
1.0
  2
_USER
 70
     0
 71
     0
 91
        2
 92
        7
 72
     0
 73
     1
 93
        4
 10
242.6059336186202
 20
630.3592057955336
 10
240.6059336186201
 20
630.3592057955336
 10
240.6059336186201
 20
642.1310584022867
 10
242.6059336186201
 20
642.1310584022867
 97
        0
 92
        7
 72
     1
 73
     1
 93
        6
 10
438.6059336186201
 20
642.1310584022867
 42
0.0
 10
440.6059336186201
 20
642.1310584022866
 42
0.0
 10
440.6059336186201
 20
596.1310584022867
 42
-0.4142135623730949
 10
431.60593361862
 20
587.1310584022867
 42
0.0
 10
431.60593361862
 20
589.1310584022867
 42
0.4142135623730957
 10
438.6059336186201
 20
596.1310584022867
 42
0.0
 97
        0
 75
     0
 76
     0
 52
45.0
 41
2.0
 77
     0
 78
     1
 53
135.0
 43
611.9736235331629
 44
135.089031008046
 45
1.414213562373094
 46
1.414213562373095
 79
     0
 47
0.4328310449671032
 98
        2
 10
242.0024192616879
 20
635.4655198474258
 10
439.5187045004572
 20
629.4058855887363
  0
LINE
  5
2874
330
2
100
AcDbEntity
  8
HILF
100
AcDbLine
 10
465.8783469781416
 20
677.1310584022862
 30
0.0
 11
464.8783469781417
 21
678.1310584022862
 31
0.0
  0
LINE
  5
2875
330
2
100
AcDbEntity
  8
HILF
100
AcDbLine
 10
464.8783469781417
 20
678.1310584022862
 30
0.0
 11
454.8783469781416
 21
678.1310584022862
 31
0.0
  0
LINE
  5
2876
330
2
100
AcDbEntity
  8
HILF
100
AcDbLine
 10
464.8783469781417
 20
678.1310584022862
 30
0.0
 11
454.8783469781416
 21
678.1310584022862
 31
0.0
  0
LINE
  5
2877
330
2
100
AcDbEntity
  8
HILF
100
AcDbLine
 10
464.8783469781417
 20
678.1310584022862
 30
0.0
 11
464.8783469781417
 21
648.1310584022867
 31
0.0
  0
LINE
  5
2878
330
2
100
AcDbEntity
  8
HILF
100
AcDbLine
 10
465.8783469781416
 20
677.1310584022862
 30
0.0
 11
465.8783469781416
 21
648.1310584022867
 31
0.0
  0
LINE
  5
2879
330
2
100
AcDbEntity
  8
HILF
100
AcDbLine
 10
454.8783469781416
 20
678.1310584022862
 30
0.0
 11
454.8783469781416
 21
648.1310584022867
 31
0.0
  0
LINE
  5
287A
330
2
100
AcDbEntity
  8
HILF
100
AcDbLine
 10
459.8783469781416
 20
683.1310584022864
 30
0.0
 11
459.8783469781416
 21
648.1310584022865
 31
0.0
  0
LINE
  5
287B
330
2
100
AcDbEntity
  8
HILF
100
AcDbLine
 10
512.6059336186201
 20
642.1310584022867
 30
0.0
 11
512.6059336186201
 21
646.1310584022867
 31
0.0
  0
LINE
  5
287C
330
2
100
AcDbEntity
  8
HILF
100
AcDbLine
 10
510.6059336186201
 20
648.1310584022867
 30
0.0
 11
512.6059336186201
 21
646.1310584022867
 31
0.0
  0
LINE
  5
287D
330
2
100
AcDbEntity
  8
HILF
100
AcDbLine
 10
454.8783469781416
 20
678.1310584022862
 30
0.0
 11
453.8783469781416
 21
677.1310584022862
 31
0.0
  0
LINE
  5
287E
330
2
100
AcDbEntity
  8
HILF
100
AcDbLine
 10
465.8783469781416
 20
677.1310584022862
 30
0.0
 11
453.8783469781416
 21
677.1310584022862
 31
0.0
  0
LINE
  5
287F
330
2
100
AcDbEntity
  8
HILF
100
AcDbLine
 10
510.6059336186201
 20
648.1310584022867
 30
0.0
 11
405.0949811048532
 21
648.1310584022867
 31
0.0
  0
LINE
  5
2880
330
2
100
AcDbEntity
  8
HILF
100
AcDbLine
 10
512.6059336186201
 20
642.1310584022867
 30
0.0
 11
404.1059336186201
 21
642.1310584022867
 31
0.0
  0
LINE
  5
2881
330
2
100
AcDbEntity
  8
HILF
  6
STRICHPUNKT
100
AcDbLine
 10
343.0161960214875
 20
586.6590552699635
 30
0.0
 11
85.76963780917884
 21
573.1773344258514
 31
0.0
  0
LINE
  5
2882
102
{ACAD_REACTORS
330
2EA4
102
}
330
2
100
AcDbEntity
  8
HILF
100
AcDbLine
 10
341.1225893265452
 20
535.4898259023521
 30
0.0
 11
150.3460640979719
 21
525.4916518757868
 31
0.0
  0
LINE
  5
2883
330
2
100
AcDbEntity
  8
HILF
100
AcDbLine
 10
341.0179174140593
 20
537.4870849718611
 30
0.0
 11
150.3285943996924
 21
527.4934810196909
 31
0.0
  0
LINE
  5
2884
330
2
100
AcDbEntity
  8
HILF
100
AcDbLine
 10
240.6059336186201
 20
630.3592057955337
 30
0.0
 11
145.0757153058362
 21
625.3526791993365
 31
0.0
  0
LINE
  5
2885
102
{ACAD_REACTORS
330
2EA4
102
}
330
2
100
AcDbEntity
  8
HILF
100
AcDbLine
 10
240.6059336186201
 20
632.3619504875296
 30
0.0
 11
144.883841179143
 21
627.3453681944504
 31
0.0
  0
HATCH
  5
2886
330
2
100
AcDbEntity
  8
HILF
100
AcDbHatch
 10
0.0
 20
0.0
 30
0.0
210
0.0
220
0.0
230
1.0
  2
_USER
 70
     0
 71
     0
 91
        2
 92
        7
 72
     0
 73
     1
 93
        6
 10
240.6059336186201
 20
632.3619504875296
 10
240.6059336186201
 20
630.3592057955336
 10
145.0757153058365
 20
625.3526791993365
 10
138.0737243783
 20
624.3686135498019
 10
137.9686526361131
 20
626.3735018244886
 10
144.8838411791441
 20
627.3453681944505
 97
        0
 92
        7
 72
     1
 73
     1
 93
        8
 10
150.3460640979718
 20
525.4916518757868
 42
0.0
 10
143.24264625497
 20
525.7397086928858
 42
0.0
 10
143.1375745127831
 20
527.7445969675725
 42
0.0
 10
150.328594399692
 20
527.4934810196909
 42
0.0
 10
341.0179174140593
 20
537.4870849718611
 42
0.2283288818467444
 10
431.6059336186201
 20
587.1310584022867
 42
0.0
 10
434.0539143996274
 20
587.1310584022867
 42
-0.2314252426280678
 10
341.1225893265453
 20
535.4898259023521
 42
0.0
 97
        0
 75
     0
 76
     0
 52
135.0
 41
2.0
 77
     0
 78
     1
 53
45.0
 43
611.9736235331629
 44
135.089031008046
 45
1.414213562373095
 46
-1.414213562373094
 79
     0
 47
0.4328310449671032
 98
        2
 10
230.3073753394788
 20
630.2715476256919
 10
284.0179433886292
 20
533.3173916671085
  0
LINE
  5
2906
330
2
100
AcDbEntity
  8
HILF
100
AcDbLine
 10
316.6059336186203
 20
200.7697052206204
 30
0.0
 11
301.6059336186203
 21
200.7697052206204
 31
0.0
  0
LINE
  5
2907
330
2
100
AcDbEntity
  8
HILF
100
AcDbLine
 10
316.6059336186203
 20
203.7697052206204
 30
0.0
 11
301.6059336186203
 21
203.7697052206204
 31
0.0
  0
LINE
  5
2908
330
2
100
AcDbEntity
  8
HILF
100
AcDbLine
 10
301.6059336186203
 20
203.7697052206204
 30
0.0
 11
301.6059336186204
 21
200.7697052206204
 31
0.0
  0
LINE
  5
2909
330
2
100
AcDbEntity
  8
HILF
100
AcDbLine
 10
316.6059336186203
 20
203.7697052206204
 30
0.0
 11
316.6059336186203
 21
200.7697052206204
 31
0.0
  0
HATCH
  5
290A
330
2
100
AcDbEntity
  8
HILF
100
AcDbHatch
 10
0.0
 20
0.0
 30
0.0
210
0.0
220
0.0
230
1.0
  2
_USER
 70
     0
 71
     0
 91
        2
 92
        7
 72
     1
 73
     1
 93
        2
 10
345.0161960214876
 20
175.7697052206204
 42
0.0
 10
341.0161960214876
 20
175.7697052206204
 42
0.5187465994506914
 97
        0
 92
        7
 72
     1
 73
     1
 93
        2
 10
341.0161960214876
 20
228.7697052206204
 42
0.0
 10
345.0161960214876
 20
228.7697052206204
 42
0.5187465994506914
 97
        0
 75
     0
 76
     0
 52
180.0
 41
0.1
 77
     0
 78
     1
 53
180.0
 43
657.6915959685379
 44
384.7757153186601
 45
0.0
 46
-0.1
 79
     0
 47
0.1379130603056484
 98
        2
 10
342.9210613785823
 20
175.1015012016248
 10
343.3350488903299
 20
229.0255086203629
  0
ARC
  5
290B
330
2
100
AcDbEntity
  8
HILF
100
AcDbCircle
 10
343.0161960214876
 20
177.1786821013022
 30
0.0
 40
2.446470079583225
100
AcDbArc
 50
215.1642529328365
 51
324.8357470671634
  0
ARC
  5
290C
330
2
100
AcDbEntity
  8
HILF
100
AcDbCircle
 10
343.0161960214876
 20
227.3607283399385
 30
0.0
 40
2.446470079583225
100
AcDbArc
 50
35.16425293283667
 51
144.8357470671635
  0
ARC
  5
290D
330
2
100
AcDbEntity
  8
HILF
100
AcDbCircle
 10
342.0189947852171
 20
220.6871144570115
 30
0.0
 40
5.0
100
AcDbArc
 50
68.63230111559021
 51
103.560277974442
  0
ARC
  5
290E
330
2
100
AcDbEntity
  8
HILF
100
AcDbCircle
 10
341.820325540934
 20
215.6910629629438
 30
0.0
 40
5.0
100
AcDbArc
 50
70.29158703033568
 51
105.2089259414842
  0
ARC
  5
290F
330
2
100
AcDbEntity
  8
HILF
100
AcDbCircle
 10
341.7012122040711
 20
210.6924819630018
 30
0.0
 40
5.0
100
AcDbArc
 50
71.1950695182768
 51
106.1110456276101
  0
ARC
  5
2910
330
2
100
AcDbEntity
  8
HILF
100
AcDbCircle
 10
341.6409129323168
 20
205.6928455764406
 30
0.0
 40
5.0
100
AcDbArc
 50
71.86495347668709
 51
106.7806150865949
  0
ARC
  5
2911
330
2
100
AcDbEntity
  8
HILF
100
AcDbCircle
 10
341.6317506649753
 20
200.6928539711004
 30
0.0
 40
5.0
100
AcDbArc
 50
72.45013510272984
 51
107.3658112167158
  0
ARC
  5
2912
330
2
100
AcDbEntity
  8
HILF
100
AcDbCircle
 10
341.6726827565723
 20
195.6930215175198
 30
0.0
 40
5.0
100
AcDbArc
 50
73.02417763217206
 51
107.9396882060635
  0
ARC
  5
2913
330
2
100
AcDbEntity
  8
HILF
100
AcDbCircle
 10
341.7686098968093
 20
190.6939418038359
 30
0.0
 40
5.0
100
AcDbArc
 50
73.65628537800127
 51
108.5722827741116
  0
ARC
  5
2914
330
2
100
AcDbEntity
  8
HILF
100
AcDbCircle
 10
341.9339867045057
 20
185.6966775010923
 30
0.0
 40
5.0
100
AcDbArc
 50
74.45738996932028
 51
109.3737676305727
  0
ARC
  5
2915
330
2
100
AcDbEntity
  8
HILF
100
AcDbCircle
 10
342.2101818506589
 20
180.7043117050752
 30
0.0
 40
5.0
100
AcDbArc
 50
75.74190993583648
 51
110.6608494654618
  0
ARC
  5
2916
330
2
100
AcDbEntity
  8
HILF
100
AcDbCircle
 10
343.0161960214876
 20
175.7697052206204
 30
0.0
 40
5.0
100
AcDbArc
 50
81.98812002736927
 51
117.05251605919
  0
ELLIPSE
  5
2917
330
2
100
AcDbEntity
  8
HILF
100
AcDbEllipse
 10
343.0161960214876
 20
202.2697052206204
 30
0.0
 11
-0.0000000000000032
 21
-26.49999999999997
 31
0.0
210
0.0
220
0.0
230
1.0
 40
0.0523359562429428
 41
3.141592653589793
 42
6.283185307179586
  0
CIRCLE
  5
2918
330
2
100
AcDbEntity
  8
HILF
100
AcDbCircle
 10
287.6059336186203
 20
81.26970522062009
 30
0.0
 40
2.75
  0
LINE
  5
2919
330
2
100
AcDbEntity
  8
HILF
100
AcDbLine
 10
287.6059336186203
 20
72.51970522062004
 30
0.0
 11
287.6059336186203
 21
90.01970522061993
 31
0.0
  0
LINE
  5
291A
330
2
100
AcDbEntity
  8
HILF
100
AcDbLine
 10
296.3559336186203
 20
81.26970522062004
 30
0.0
 11
278.8559336186204
 21
81.26970522062004
 31
0.0
  0
CIRCLE
  5
291B
330
2
100
AcDbEntity
  8
HILF
100
AcDbCircle
 10
287.6059336186203
 20
81.26970522062009
 30
0.0
 40
5.749999999999943
  0
CIRCLE
  5
2927
330
2
100
AcDbEntity
  8
HILF
100
AcDbCircle
 10
377.6059336186203
 20
202.2697052206204
 30
0.0
 40
25.0
  0
CIRCLE
  5
2928
330
2
100
AcDbEntity
  8
HILF
100
AcDbCircle
 10
377.6059336186203
 20
202.2697052206204
 30
0.0
 40
26.5
  0
LINE
  5
2929
330
2
100
AcDbEntity
  8
HILF
100
AcDbLine
 10
377.6059336186203
 20
175.7697052206204
 30
0.0
 11
364.4041857480249
 21
175.7697052206204
 31
0.0
  0
LINE
  5
292A
330
2
100
AcDbEntity
  8
HILF
100
AcDbLine
 10
377.6059336186203
 20
228.7697052206204
 30
0.0
 11
364.404185748025
 21
228.7697052206204
 31
0.0
  0
LINE
  5
292B
330
2
100
AcDbEntity
  8
HILF
100
AcDbLine
 10
364.404185748025
 20
175.7697052206204
 30
0.0
 11
322.6627811790306
 21
175.7697052206204
 31
0.0
  0
CIRCLE
  5
292C
330
2
100
AcDbEntity
  8
HILF
100
AcDbCircle
 10
377.6059336186203
 20
202.2697052206204
 30
0.0
 40
29.60635314993672
  0
CIRCLE
  5
292D
330
2
100
AcDbEntity
  8
HILF
100
AcDbCircle
 10
377.6059336186203
 20
202.2697052206204
 30
0.0
 40
28.10635314993673
  0
LINE
  5
292E
330
2
100
AcDbEntity
  8
HILF
100
AcDbLine
 10
364.404185748025
 20
228.7697052206204
 30
0.0
 11
322.6627811790306
 21
228.7697052206204
 31
0.0
  0
LWPOLYLINE
  5
292F
330
2
100
AcDbEntity
  8
HILF
100
AcDbPolyline
 90
        2
 70
     0
 43
0.0
 10
150.1792159326292
 20
151.2720940038389
 42
0.0219443777357397
 10
150.2336178599716
 20
151.2697052206203
 42
0.377120946588477
  0
LINE
  5
2936
330
2
100
AcDbEntity
  8
HILF
100
AcDbLine
 10
377.6059336186203
 20
67.26970522062038
 30
0.0
 11
287.6059336186204
 21
67.26970522062027
 31
0.0
  0
LINE
  5
2937
330
2
100
AcDbEntity
  8
HILF
100
AcDbLine
 10
377.6059336186203
 20
69.26970522062015
 30
0.0
 11
287.6059336186203
 21
69.26970522062004
 31
0.0
  0
LINE
  5
2938
330
2
100
AcDbEntity
  8
HILF
100
AcDbLine
 10
285.8072408174697
 20
149.2697052206202
 30
0.0
 11
304.8597997007274
 21
160.2697052206203
 31
0.0
  0
CIRCLE
  5
2939
330
2
100
AcDbEntity
  8
HILF
100
AcDbCircle
 10
295.3335202590987
 20
154.769705220637
 30
0.0
 40
6.0
  0
ARC
  5
293A
330
2
100
AcDbEntity
  8
HILF
100
AcDbCircle
 10
295.333520259113
 20
154.7697052206123
 30
0.0
 40
5.0
100
AcDbArc
 50
219.7891766374948
 51
151.4074656008441
  0
ARC
  5
293B
330
2
100
AcDbEntity
  8
HILF
100
AcDbCircle
 10
261.6059336186198
 20
150.7697052206204
 30
0.0
 40
19.0
100
AcDbArc
 50
180.0
 51
270.0
  0
ARC
  5
293C
330
2
100
AcDbEntity
  8
HILF
100
AcDbCircle
 10
261.6059336186198
 20
150.7697052206204
 30
0.0
 40
21.0
100
AcDbArc
 50
180.0
 51
270.0
  0
LINE
  5
293D
330
2
100
AcDbEntity
  8
HILF
100
AcDbLine
 10
285.8072408174697
 20
255.2697052206204
 30
0.0
 11
304.8597997007274
 21
244.2697052206205
 31
0.0
  0
CIRCLE
  5
293E
330
2
100
AcDbEntity
  8
HILF
100
AcDbCircle
 10
295.3335202590987
 20
249.7697052206039
 30
0.0
 40
6.0
  0
ARC
  5
293F
330
2
100
AcDbEntity
  8
HILF
100
AcDbCircle
 10
295.3335202590989
 20
249.7697052206039
 30
0.0
 40
5.0
100
AcDbArc
 50
219.7891766374948
 51
151.4074656008441
  0
LINE
  5
2940
330
2
100
AcDbEntity
  8
HILF
100
AcDbLine
 10
242.6059336186198
 20
150.7697052206204
 30
0.0
 11
242.6059336186199
 21
248.4666189851763
 31
0.0
  0
LINE
  5
2941
330
2
100
AcDbEntity
  8
HILF
100
AcDbLine
 10
240.6059336186198
 20
150.7697052206204
 30
0.0
 11
240.6059336186199
 21
248.4666189851763
 31
0.0
  0
ARC
  5
2942
330
2
100
AcDbEntity
  8
HILF
100
AcDbCircle
 10
377.6059336186346
 20
107.2697052206288
 30
0.0
 40
5.0
100
AcDbArc
 50
219.7891766374948
 51
151.4074656008441
  0
CIRCLE
  5
2943
330
2
100
AcDbEntity
  8
HILF
100
AcDbCircle
 10
377.6059336186203
 20
107.2697052206204
 30
0.0
 40
6.0
  0
LWPOLYLINE
  5
2945
330
2
100
AcDbEntity
  8
HILF
100
AcDbPolyline
 90
        2
 70
     0
 43
0.0
 10
338.453455558155
 20
151.2697052206203
 42
0.0081796159532764
 10
344.00161441283
 20
151.3604749110259
 42
0.0081796159532764
  0
ARC
  5
2946
330
2
100
AcDbEntity
  8
HILF
100
AcDbCircle
 10
419.6059336186202
 20
150.7697052206204
 30
0.0
 40
19.0
100
AcDbArc
 50
270.0
 51
0.0
  0
ARC
  5
2947
330
2
100
AcDbEntity
  8
HILF
100
AcDbCircle
 10
419.6059336186202
 20
150.7697052206204
 30
0.0
 40
21.0
100
AcDbArc
 50
270.0
 51
0.0
  0
ELLIPSE
  5
294B
330
2
100
AcDbEntity
  8
HILF
100
AcDbEllipse
 10
338.453455558155
 20
202.2697052206204
 30
0.0
 11
93.15247806046526
 21
-0.0000000000000114
 31
0.0
210
0.0
220
0.0
230
1.0
 40
0.5474894609555738
 41
4.771987805198579
 42
7.853981633974482
  0
LINE
  5
294C
330
2
100
AcDbEntity
  8
HILF
100
AcDbLine
 10
438.6059336186202
 20
150.7697052206203
 30
0.0
 11
438.6059336186197
 21
248.4666189851763
 31
0.0
  0
LINE
  5
294D
330
2
100
AcDbEntity
  8
HILF
100
AcDbLine
 10
440.6059336186202
 20
150.7697052206203
 30
0.0
 11
440.6059336186197
 21
248.4666189851763
 31
0.0
  0
LINE
  5
294E
330
2
100
AcDbEntity
  8
HILF
100
AcDbLine
 10
338.453455558155
 20
253.2697052206204
 30
0.0
 11
237.6059336186202
 21
253.2697052206204
 31
0.0
  0
LINE
  5
294F
330
2
100
AcDbEntity
  8
HILF
100
AcDbLine
 10
338.453455558155
 20
151.2697052206203
 30
0.0
 11
237.6059336186203
 21
151.2697052206203
 31
0.0
  0
LINE
  5
2950
330
2
100
AcDbEntity
  8
HILF
100
AcDbLine
 10
419.6059336186202
 20
131.7697052206204
 30
0.0
 11
261.6059336186198
 21
131.7697052206204
 31
0.0
  0
LINE
  5
2951
330
2
100
AcDbEntity
  8
HILF
100
AcDbLine
 10
419.6059336186202
 20
129.7697052206204
 30
0.0
 11
261.6059336186198
 21
129.7697052206204
 31
0.0
  0
LINE
  5
2952
330
2
100
AcDbEntity
  8
HILF
100
AcDbLine
 10
239.6059336186203
 20
287.2697052206206
 30
0.0
 11
239.6059336186203
 21
117.2697052206203
 31
0.0
  0
LINE
  5
2953
330
2
100
AcDbEntity
  8
HILF
100
AcDbLine
 10
237.6059336186203
 20
287.2697052206206
 30
0.0
 11
237.6059336186203
 21
117.2697052206203
 31
0.0
  0
CIRCLE
  5
2954
330
2
100
AcDbEntity
  8
HILF
100
AcDbCircle
 10
377.6059336186203
 20
202.2697052206204
 30
0.0
 40
61.0
  0
ARC
  5
2955
330
2
100
AcDbEntity
  8
HILF
100
AcDbCircle
 10
419.6059336186202
 20
248.4666189851763
 30
0.0
 40
21.0
100
AcDbArc
 50
0.0
 51
90.0
  0
ARC
  5
2956
330
2
100
AcDbEntity
  8
HILF
100
AcDbCircle
 10
419.6059336186202
 20
248.4666189851763
 30
0.0
 40
19.0
100
AcDbArc
 50
0.0
 51
90.0
  0
ARC
  5
2957
330
2
100
AcDbEntity
  8
HILF
100
AcDbCircle
 10
261.6059336186198
 20
248.4666189851763
 30
0.0
 40
21.0
100
AcDbArc
 50
90.0
 51
180.0
  0
ARC
  5
2958
330
2
100
AcDbEntity
  8
HILF
100
AcDbCircle
 10
261.6059336186198
 20
248.4666189851763
 30
0.0
 40
19.0
100
AcDbArc
 50
90.0
 51
180.0
  0
ARC
  5
2959
330
2
100
AcDbEntity
  8
HILF
100
AcDbCircle
 10
459.8783469781418
 20
154.7697052206369
 30
0.0
 40
5.0
100
AcDbArc
 50
219.7891766374948
 51
151.4074656008441
  0
ARC
  5
295A
330
2
100
AcDbEntity
  8
HILF
100
AcDbCircle
 10
459.8783469781275
 20
249.7697052206286
 30
0.0
 40
5.0
100
AcDbArc
 50
219.7891766374948
 51
151.4074656008441
  0
CIRCLE
  5
295C
330
2
100
AcDbEntity
  8
HILF
100
AcDbCircle
 10
377.6059336186203
 20
202.2697052206204
 30
0.0
 40
95.0
  0
LINE
  5
295D
330
2
100
AcDbEntity
  8
HILF
100
AcDbLine
 10
450.352067536513
 20
160.2697052206202
 30
0.0
 11
469.4046264197707
 21
149.2697052206202
 31
0.0
  0
LINE
  5
295E
330
2
100
AcDbEntity
  8
HILF
100
AcDbLine
 10
450.352067536513
 20
244.2697052206204
 30
0.0
 11
469.4046264197708
 21
255.2697052206204
 31
0.0
  0
CIRCLE
  5
295F
330
2
100
AcDbEntity
  8
HILF
100
AcDbCircle
 10
459.8783469781418
 20
154.7697052206369
 30
0.0
 40
6.0
  0
CIRCLE
  5
2960
330
2
100
AcDbEntity
  8
HILF
100
AcDbCircle
 10
459.8783469781418
 20
249.7697052206038
 30
0.0
 40
6.0
  0
ARC
  5
2961
330
2
100
AcDbEntity
  8
HILF
100
AcDbCircle
 10
287.6059336186203
 20
117.2697052206203
 30
0.0
 40
48.0
100
AcDbArc
 50
180.0
 51
270.0
  0
ARC
  5
2962
330
2
100
AcDbEntity
  8
HILF
100
AcDbCircle
 10
287.6059336186203
 20
117.2697052206203
 30
0.0
 40
50.0
100
AcDbArc
 50
180.0
 51
270.0
  0
ARC
  5
2964
330
2
100
AcDbEntity
  8
HILF
100
AcDbCircle
 10
377.6059336186203
 20
202.2697052206204
 30
0.0
 40
134.9999999999999
100
AcDbArc
 50
270.0
 51
90.0
  0
ARC
  5
2965
330
2
100
AcDbEntity
  8
HILF
100
AcDbCircle
 10
377.6059336186203
 20
202.2697052206204
 30
0.0
 40
133.0000000000001
100
AcDbArc
 50
270.0
 51
90.0
  0
LINE
  5
2966
330
2
100
AcDbEntity
  8
HILF
100
AcDbLine
 10
237.6059336186202
 20
253.2697052206204
 30
0.0
 11
216.4703953275877
 21
253.2697052206204
 31
0.0
  0
LINE
  5
2967
330
2
100
AcDbEntity
  8
HILF
100
AcDbLine
 10
237.6059336186203
 20
151.2697052206203
 30
0.0
 11
216.4703953275877
 21
151.2697052206203
 31
0.0
  0
CIRCLE
  5
2969
330
2
100
AcDbEntity
  8
HILF
100
AcDbCircle
 10
287.6059336186203
 20
323.2697052206206
 30
0.0
 40
2.75
  0
LINE
  5
296A
330
2
100
AcDbEntity
  8
HILF
100
AcDbLine
 10
287.6059336186204
 20
332.0197052206205
 30
0.0
 11
287.6059336186204
 21
314.5197052206207
 31
0.0
  0
CIRCLE
  5
296B
330
2
100
AcDbEntity
  8
HILF
100
AcDbCircle
 10
287.6059336186203
 20
323.2697052206206
 30
0.0
 40
5.749999999999943
  0
LINE
  5
296C
330
2
100
AcDbEntity
  8
HILF
100
AcDbLine
 10
296.3559336186203
 20
323.2697052206207
 30
0.0
 11
278.8559336186204
 21
323.2697052206207
 31
0.0
  0
ARC
  5
296D
330
2
100
AcDbEntity
  8
HILF
100
AcDbCircle
 10
287.6059336186203
 20
287.2697052206206
 30
0.0
 40
50.0
100
AcDbArc
 50
90.0
 51
180.0
  0
ARC
  5
296E
330
2
100
AcDbEntity
  8
HILF
100
AcDbCircle
 10
287.6059336186203
 20
287.2697052206206
 30
0.0
 40
48.0
100
AcDbArc
 50
90.0
 51
180.0
  0
ARC
  5
296F
330
2
100
AcDbEntity
  8
HILF
100
AcDbCircle
 10
377.6059336186059
 20
297.269705220612
 30
0.0
 40
5.0
100
AcDbArc
 50
219.7891766374948
 51
151.4074656008441
  0
CIRCLE
  5
2970
330
2
100
AcDbEntity
  8
HILF
100
AcDbCircle
 10
377.6059336186203
 20
297.2697052206204
 30
0.0
 40
6.0
  0
LINE
  5
2971
330
2
100
AcDbEntity
  8
HILF
100
AcDbLine
 10
377.6059336186203
 20
337.2697052206203
 30
0.0
 11
287.6059336186204
 21
337.2697052206206
 31
0.0
  0
LINE
  5
2972
330
2
100
AcDbEntity
  8
HILF
100
AcDbLine
 10
377.6059336186203
 20
335.2697052206206
 30
0.0
 11
287.6059336186204
 21
335.2697052206206
 31
0.0
  0
LINE
  5
2973
330
2
100
AcDbEntity
  8
HILF
100
AcDbLine
 10
419.6059336186202
 20
269.4666189851762
 30
0.0
 11
261.6059336186198
 21
269.4666189851763
 31
0.0
  0
LINE
  5
2974
330
2
100
AcDbEntity
  8
HILF
100
AcDbLine
 10
419.6059336186202
 20
267.4666189851762
 30
0.0
 11
261.6059336186198
 21
267.4666189851763
 31
0.0
  0
ARC
  5
2D2E
330
2
100
AcDbEntity
  8
HILF
100
AcDbCircle
 10
131.4923890574579
 20
634.6545306953619
 30
0.0
 40
8.0
100
AcDbArc
 50
273.0
 51
307.301152756791
  0
ARC
  5
2D2F
330
2
100
AcDbEntity
  8
HILF
100
AcDbCircle
 10
131.4923890574579
 20
634.6545306953617
 30
0.0
 40
10.0
100
AcDbArc
 50
273.0
 51
307.301152756791
  0
ARC
  5
2D30
330
2
100
AcDbEntity
  8
HILF
100
AcDbCircle
 10
137.6680318941253
 20
516.816245594322
 30
0.0
 40
10.0
100
AcDbArc
 50
58.69884724320894
 51
93.0
  0
ARC
  5
2D31
330
2
100
AcDbEntity
  8
HILF
100
AcDbCircle
 10
137.6680318941253
 20
516.816245594322
 30
0.0
 40
8.0
100
AcDbArc
 50
58.69884724320894
 51
93.0
  0
LINE
  5
2D33
330
2
100
AcDbEntity
  8
HILF
100
AcDbLine
 10
135.045960820327
 20
623.1927626063564
 30
0.0
 11
140.0040558143871
 21
528.5866743139552
 31
0.0
  0
LINE
  5
2D34
330
2
100
AcDbEntity
  8
HILF
100
AcDbLine
 10
132.0157486198873
 20
624.668235347816
 30
0.0
 11
88.63125598029538
 21
622.3945504332536
 31
0.0
  0
LINE
  5
2D35
330
2
100
AcDbEntity
  8
HILF
100
AcDbLine
 10
131.9110767074015
 20
626.6654944173252
 30
0.0
 11
88.18486628664858
 21
624.3739008327105
 31
0.0
  0
LINE
  5
2D36
330
2
100
AcDbEntity
  8
HILF
100
AcDbLine
 10
137.1446723316958
 20
526.8025409418678
 30
0.0
 11
93.07674412978197
 21
524.493038687201
 31
0.0
  0
LINE
  5
2D37
330
2
100
AcDbEntity
  8
HILF
100
AcDbLine
 10
137.2493442441817
 20
524.8052818723587
 30
0.0
 11
93.52313382342883
 21
522.513688287744
 31
0.0
  0
LINE
  5
2D38
102
{ACAD_REACTORS
330
2EA4
102
}
330
2
100
AcDbEntity
  8
HILF
100
AcDbLine
 10
207.4614316002889
 20
637.8848702497919
 30
0.0
 11
207.7100273924429
 21
633.1413799597076
 31
0.0
  0
LINE
  5
2D3B
102
{ACAD_REACTORS
330
2EA4
102
}
330
2
100
AcDbEntity
  8
HILF
100
AcDbLine
 10
194.9393744568281
 20
635.9769016103504
 30
0.0
 11
176.8020166497984
 21
635.026362965622
 31
0.0
  0
LINE
  5
2D3C
330
2
100
AcDbEntity
  8
HILF
100
AcDbLine
 10
194.8347025443421
 20
637.9741606798596
 30
0.0
 11
176.6975449931738
 21
637.0236325300963
 31
0.0
  0
LINE
  5
2D3D
330
2
100
AcDbEntity
  8
HILF
100
AcDbLine
 10
160.3010922138608
 20
630.1560967758256
 30
0.0
 11
144.7501229319478
 21
629.3411050100618
 31
0.0
  0
LINE
  5
2D3E
330
2
100
AcDbEntity
  8
HILF
100
AcDbLine
 10
160.1966205572361
 20
632.1533663402998
 30
0.0
 11
144.6454510194618
 21
631.3383640795709
 31
0.0
  0
ARC
  5
2D3F
330
2
100
AcDbEntity
  8
HILF
100
AcDbCircle
 10
145.430490363106
 20
616.3589210582524
 30
0.0
 40
13.0
100
AcDbArc
 50
93.0
 51
127.301152756791
  0
ARC
  5
2D40
330
2
100
AcDbEntity
  8
HILF
100
AcDbCircle
 10
145.4304903631059
 20
616.3589210582523
 30
0.0
 40
15.0
100
AcDbArc
 50
93.0
 51
127.301152756791
  0
ARC
  5
2D41
330
2
100
AcDbEntity
  8
HILF
100
AcDbCircle
 10
178.0057436433861
 20
612.0578836662668
 30
0.0
 40
23.0
100
AcDbArc
 50
93.0
 51
119.8880476177246
  0
ARC
  5
2D42
330
2
100
AcDbEntity
  8
HILF
100
AcDbCircle
 10
178.0059438992475
 20
612.0578941612318
 30
0.0
 40
25.0
100
AcDbArc
 50
93.0
 51
119.8880476177246
  0
ARC
  5
2D43
330
2
100
AcDbEntity
  8
HILF
100
AcDbCircle
 10
159.5685890823208
 20
644.1369207573546
 30
0.0
 40
12.0
100
AcDbArc
 50
273.0
 51
299.8880476177246
  0
ARC
  5
2D44
330
2
100
AcDbEntity
  8
HILF
100
AcDbCircle
 10
159.5683888264596
 20
644.1369102623898
 30
0.0
 40
14.0
100
AcDbArc
 50
273.0
 51
299.8880476177246
  0
LINE
  5
2D45
102
{ACAD_REACTORS
330
2EA4
102
}
330
2
100
AcDbEntity
  8
HILF
100
AcDbLine
 10
207.7100273924429
 20
633.1413799597076
 30
0.0
 11
204.759053098982
 21
634.3336509660314
 31
0.0
  0
ARC
  5
2D46
330
2
100
AcDbEntity
  8
HILF
100
AcDbCircle
 10
196.1431014504158
 20
613.0084223109952
 30
0.0
 40
25.0
100
AcDbArc
 50
68.00000000000064
 51
93.0
  0
ARC
  5
2D47
102
{ACAD_REACTORS
330
2EA4
102
}
330
2
100
AcDbEntity
  8
HILF
100
AcDbCircle
 10
196.1431014504158
 20
613.0084223109952
 30
0.0
 40
23.0
100
AcDbArc
 50
68.00000000000064
 51
93.0
  0
LINE
  5
2D48
330
2
100
AcDbEntity
  8
HILF
100
AcDbLine
 10
207.5945347154704
 20
635.3451115154517
 30
0.0
 11
205.5082662858132
 21
636.1880186751651
 31
0.0
  0
LINE
  5
2D49
330
2
100
AcDbEntity
  8
HILF
100
AcDbLine
 10
201.0103453810096
 20
520.1358755788199
 30
0.0
 11
182.8731878298412
 21
519.1853474290565
 31
0.0
  0
LINE
  5
2D4A
102
{ACAD_REACTORS
330
2EA4
102
}
330
2
100
AcDbEntity
  8
HILF
100
AcDbLine
 10
200.9056734685237
 20
522.133134648329
 30
0.0
 11
182.768315661494
 21
521.1825960036007
 31
0.0
  0
LINE
  5
2D4B
330
2
100
AcDbEntity
  8
HILF
100
AcDbLine
 10
165.95357574396
 20
522.3041175172967
 30
0.0
 11
150.4024062061857
 21
521.4891152565678
 31
0.0
  0
LINE
  5
2D4C
330
2
100
AcDbEntity
  8
HILF
100
AcDbLine
 10
165.8487035756129
 20
524.3013660918408
 30
0.0
 11
150.2977342936999
 21
523.486374326077
 31
0.0
  0
ARC
  5
2D4D
330
2
100
AcDbEntity
  8
HILF
100
AcDbCircle
 10
149.6173668625414
 20
536.4685582778863
 30
0.0
 40
15.0
100
AcDbArc
 50
238.698847243209
 51
273.0
  0
ARC
  5
2D4E
330
2
100
AcDbEntity
  8
HILF
100
AcDbCircle
 10
149.6173668625415
 20
536.4685582778864
 30
0.0
 40
13.0
100
AcDbArc
 50
238.698847243209
 51
273.0
  0
ARC
  5
2D4F
330
2
100
AcDbEntity
  8
HILF
100
AcDbCircle
 10
181.5647889237677
 20
544.1510857979209
 30
0.0
 40
25.0
100
AcDbArc
 50
246.1119523822754
 51
273.0
  0
ARC
  5
2D50
330
2
100
AcDbEntity
  8
HILF
100
AcDbCircle
 10
181.5645886679063
 20
544.1510753029559
 30
0.0
 40
23.0
100
AcDbArc
 50
246.1119523822754
 51
273.0
  0
ARC
  5
2D51
330
2
100
AcDbEntity
  8
HILF
100
AcDbCircle
 10
166.5816072188753
 20
510.3205631002419
 30
0.0
 40
12.0
100
AcDbArc
 50
66.11195238227537
 51
93.0
  0
ARC
  5
2D52
330
2
100
AcDbEntity
  8
HILF
100
AcDbCircle
 10
166.5814069630141
 20
510.3205526052768
 30
0.0
 40
14.0
100
AcDbArc
 50
66.11195238227537
 51
93.0
  0
ARC
  5
2D53
330
2
100
AcDbEntity
  8
HILF
100
AcDbCircle
 10
199.701946474936
 20
545.1016139476844
 30
0.0
 40
25.0
100
AcDbArc
 50
273.0
 51
297.9999999999994
  0
LINE
  5
2D54
102
{ACAD_REACTORS
330
2EA4
102
}
330
2
100
AcDbEntity
  8
HILF
100
AcDbLine
 10
213.3099747104375
 20
526.2880197409682
 30
0.0
 11
210.4997924190113
 21
524.7938193119288
 31
0.0
  0
ARC
  5
2D55
102
{ACAD_REACTORS
330
2EA4
102
}
330
2
100
AcDbEntity
  8
HILF
100
AcDbCircle
 10
199.701946474936
 20
545.1016139476843
 30
0.0
 40
23.0
100
AcDbArc
 50
273.0
 51
297.9999999999994
  0
LINE
  5
2D56
330
2
100
AcDbEntity
  8
HILF
100
AcDbLine
 10
213.4254673874104
 20
524.0842881852244
 30
0.0
 11
211.4387355445829
 21
523.027924126211
 31
0.0
  0
LINE
  5
2D86
102
{ACAD_REACTORS
330
2EA4
102
}
330
2
100
AcDbEntity
  8
HILF
100
AcDbLine
 10
214.6840909001276
 20
633.8195791657641
 30
0.0
 11
214.8312740263325
 21
631.0111578165214
 31
0.0
  0
ARC
  5
2D87
102
{ACAD_REACTORS
330
2EA4
102
}
330
2
100
AcDbEntity
  8
HILF
100
AcDbCircle
 10
207.7292159681562
 20
633.8934148498468
 30
0.0
 40
4.0
100
AcDbArc
 50
61.14570592064609
 51
93.0
  0
POINT
  5
2D88
330
2
100
AcDbEntity
  8
HILF
  6
ByBlock
 62
     0
100
AcDbPoint
 10
207.4614316002889
 20
637.8848702497919
 30
0.0
  0
LINE
  5
2D89
330
2
100
AcDbEntity
  8
HILF
100
AcDbLine
 10
207.5198721431845
 20
637.8879329888651
 30
0.0
 11
207.4614316002889
 21
637.8848702497919
 31
0.0
  0
ARC
  5
2D8A
102
{ACAD_REACTORS
330
2EA4
102
}
330
2
100
AcDbEntity
  8
HILF
100
AcDbCircle
 10
213.1861465979956
 20
633.7410752313997
 30
0.0
 40
1.5
100
AcDbArc
 50
3.000000000000004
 51
61.14570592064887
  0
LINE
  5
2D8B
102
{ACAD_REACTORS
330
2EA4
102
}
330
2
100
AcDbEntity
  8
HILF
100
AcDbLine
 10
209.659551388336
 20
637.3968139372474
 30
0.0
 11
213.910022380563
 21
635.0548498891749
 31
0.0
  0
ARC
  5
2D8C
102
{ACAD_REACTORS
330
2EA4
102
}
330
2
100
AcDbEntity
  8
HILF
100
AcDbCircle
 10
213.4076672205156
 20
525.5421103289755
 30
0.0
 40
4.0
100
AcDbArc
 50
273.0
 51
304.8542940793539
  0
LINE
  5
2D8D
330
2
100
AcDbEntity
  8
HILF
100
AcDbLine
 10
213.6170110454874
 20
521.5475921899573
 30
0.0
 11
213.5585705025919
 21
521.544529450884
 31
0.0
  0
POINT
  5
2D8E
330
2
100
AcDbEntity
  8
HILF
  6
ByBlock
 62
     0
100
AcDbPoint
 10
213.5585705025919
 20
521.544529450884
 30
0.0
  0
ARC
  5
2D8F
102
{ACAD_REACTORS
330
2EA4
102
}
330
2
100
AcDbEntity
  8
HILF
100
AcDbCircle
 10
218.8187803871856
 20
526.2640199879485
 30
0.0
 40
1.5
100
AcDbArc
 50
304.8542940793512
 51
3.000000000000004
  0
LINE
  5
2D90
102
{ACAD_REACTORS
330
2EA4
102
}
330
2
100
AcDbEntity
  8
HILF
100
AcDbLine
 10
215.6936329841086
 20
522.2596782234048
 30
0.0
 11
219.676017548533
 21
525.0331079483596
 31
0.0
  0
POLYLINE
  5
2D95
330
2
100
AcDbEntity
  8
HILF
100
AcDb2dPolyline
 66
     1
 10
0.0
 20
0.0
 30
0.0
 70
     4
 75
     6
  0
VERTEX
  5
2D96
330
2D95
100
AcDbEntity
  8
HILF
100
AcDbVertex
100
AcDb2dVertex
 10
88.18486628664858
 20
624.3739008327105
 30
0.0
 70
    16
  0
VERTEX
  5
2D9C
330
2D95
100
AcDbEntity
  8
HILF
100
AcDbVertex
100
AcDb2dVertex
 10
88.18486628664858
 20
624.3739008327105
 30
0.0
 70
     8
  0
VERTEX
  5
2D9E
330
2D95
100
AcDbEntity
  8
HILF
100
AcDbVertex
100
AcDb2dVertex
 10
90.19133128902444
 20
615.4769720718701
 30
0.0
 70
     8
  0
VERTEX
  5
2D9F
330
2D95
100
AcDbEntity
  8
HILF
100
AcDbVertex
100
AcDb2dVertex
 10
91.52866697886945
 20
607.5923095017418
 30
0.0
 70
     8
  0
VERTEX
  5
2DA0
330
2D95
100
AcDbEntity
  8
HILF
100
AcDbVertex
100
AcDb2dVertex
 10
92.29246325797374
 20
600.5753036665095
 30
0.0
 70
     8
  0
VERTEX
  5
2DA1
330
2D95
100
AcDbEntity
  8
HILF
100
AcDbVertex
100
AcDb2dVertex
 10
92.57831002812745
 20
594.2813451103571
 30
0.0
 70
     8
  0
VERTEX
  5
2DA2
330
2D95
100
AcDbEntity
  8
HILF
100
AcDbVertex
100
AcDb2dVertex
 10
92.48179719112066
 20
588.5658243774687
 30
0.0
 70
     8
  0
VERTEX
  5
2DA3
330
2D95
100
AcDbEntity
  8
HILF
100
AcDbVertex
100
AcDb2dVertex
 10
92.09851464874352
 20
583.2841320120284
 30
0.0
 70
     8
  0
VERTEX
  5
2DA4
330
2D95
100
AcDbEntity
  8
HILF
100
AcDbVertex
100
AcDb2dVertex
 10
91.52405230278615
 20
578.29165855822
 30
0.0
 70
     8
  0
VERTEX
  5
2DA5
330
2D95
100
AcDbEntity
  8
HILF
100
AcDbVertex
100
AcDb2dVertex
 10
90.85400005503869
 20
573.4437945602275
 30
0.0
 70
     8
  0
VERTEX
  5
2DA6
330
2D95
100
AcDbEntity
  8
HILF
100
AcDbVertex
100
AcDb2dVertex
 10
90.18394780729122
 20
568.5959305622351
 30
0.0
 70
     8
  0
VERTEX
  5
2DA7
330
2D95
100
AcDbEntity
  8
HILF
100
AcDbVertex
100
AcDb2dVertex
 10
89.60948546133385
 20
563.6034571084267
 30
0.0
 70
     8
  0
VERTEX
  5
2DA8
330
2D95
100
AcDbEntity
  8
HILF
100
AcDbVertex
100
AcDb2dVertex
 10
89.22620291895674
 20
558.3217647429862
 30
0.0
 70
     8
  0
VERTEX
  5
2DA9
330
2D95
100
AcDbEntity
  8
HILF
100
AcDbVertex
100
AcDb2dVertex
 10
89.12969008194997
 20
552.6062440100977
 30
0.0
 70
     8
  0
VERTEX
  5
2DAA
330
2D95
100
AcDbEntity
  8
HILF
100
AcDbVertex
100
AcDb2dVertex
 10
89.41553685210367
 20
546.3122854539452
 30
0.0
 70
     8
  0
VERTEX
  5
2DAB
330
2D95
100
AcDbEntity
  8
HILF
100
AcDbVertex
100
AcDb2dVertex
 10
90.17933313120797
 20
539.2952796187127
 30
0.0
 70
     8
  0
VERTEX
  5
2DAC
330
2D95
100
AcDbEntity
  8
HILF
100
AcDbVertex
100
AcDb2dVertex
 10
91.51666882105301
 20
531.4106170485842
 30
0.0
 70
     8
  0
VERTEX
  5
2DAD
330
2D95
100
AcDbEntity
  8
HILF
100
AcDbVertex
100
AcDb2dVertex
 10
93.52313382342888
 20
522.5136882877437
 30
0.0
 70
     8
  0
VERTEX
  5
2D97
330
2D95
100
AcDbEntity
  8
HILF
100
AcDbVertex
100
AcDb2dVertex
 10
94.51258084461652
 20
599.1705274776838
 30
0.0
 70
    16
  0
VERTEX
  5
2D98
330
2D95
100
AcDbEntity
  8
HILF
100
AcDbVertex
100
AcDb2dVertex
 10
90.85400005503869
 20
573.4437945602276
 30
0.0
 70
    16
  0
VERTEX
  5
2D99
330
2D95
100
AcDbEntity
  8
HILF
100
AcDbVertex
100
AcDb2dVertex
 10
87.1954192654609
 20
547.7170616427709
 30
0.0
 70
    16
  0
VERTEX
  5
2D9A
330
2D95
100
AcDbEntity
  8
HILF
100
AcDbVertex
100
AcDb2dVertex
 10
93.52313382342886
 20
522.513688287744
 30
0.0
 70
    16
  0
SEQEND
  5
2D9B
330
2D95
100
AcDbEntity
  8
HILF
  0
LINE
  5
2DCE
102
{ACAD_REACTORS
330
3546
102
}
330
2
100
AcDbEntity
  8
STEMPEL
100
AcDbLine
 10
222.6059336186207
 20
525.1310584022873
 30
0.0
 11
368.6059336186201
 21
525.1310584022867
 31
0.0
  0
LINE
  5
2DDA
102
{ACAD_REACTORS
330
3546
102
}
330
2
100
AcDbEntity
  8
STEMPEL
100
AcDbLine
 10
162.6059336186207
 20
512.1310584022876
 30
0.0
 11
222.6059336186207
 21
512.1310584022872
 31
0.0
  0
LINE
  5
2DDD
330
2
100
AcDbEntity
  8
STEMPEL
100
AcDbLine
 10
447.6059336186202
 20
585.1310584022883
 30
0.0
 11
222.6059336186207
 21
585.1310584022883
 31
0.0
  0
LINE
  5
2DDF
330
2
100
AcDbEntity
  8
VERDECKT
100
AcDbLine
 10
810.2086353497977
 20
525.1310584022869
 30
0.0
 11
817.198073540668
 21
525.1310584022869
 31
0.0
  0
LINE
  5
2DE9
330
2
100
AcDbEntity
  8
VERDECKT
100
AcDbLine
 10
797.7086353497976
 20
585.1310584022882
 30
0.0
 11
785.2086353497975
 21
585.1310584022883
 31
0.0
  0
LINE
  5
2DEA
330
2
100
AcDbEntity
  8
STEMPEL
100
AcDbLine
 10
927.7086353497976
 20
585.1310584022886
 30
0.0
 11
797.7086353497976
 21
585.1310584022884
 31
0.0
  0
HATCH
  5
2E3D
330
2
100
AcDbEntity
  8
HILF
100
AcDbHatch
 10
0.0
 20
0.0
 30
0.0
210
0.0
220
0.0
230
1.0
  2
_USER
 70
     0
 71
     0
 91
        4
 92
        7
 72
     1
 73
     1
 93
        8
 10
194.9393744568281
 20
635.9769016103504
 42
-0.1095178116832427
 10
204.759053098982
 20
634.3336509660314
 42
0.0
 10
207.7100273924429
 20
633.1413799597076
 42
0.0
 10
207.5945347154704
 20
635.3451115154519
 42
0.0
 10
205.5082662858132
 20
636.1880186751651
 42
0.1095178116832352
 10
194.8347025443425
 20
637.9741606798596
 42
0.0
 10
177.5853766399395
 20
637.0701618150804
 42
0.0
 10
177.5853766399395
 20
635.0674171230845
 42
0.0
 97
        0
 92
        7
 72
     1
 73
     1
 93
       16
 10
177.5853766399394
 20
637.0701618150803
 42
0.0
 10
176.6975449931738
 20
637.0236325300963
 42
0.1178625008509341
 10
165.5482717256485
 20
633.7329121315852
 42
-0.1178625008509347
 10
160.1966205572364
 20
632.1533663402998
 42
0.0
 10
144.6454510194618
 20
631.3383640795709
 42
0.1507946423587033
 10
136.3404242942051
 20
628.290840386802
 42
-0.1507946423587006
 10
131.9110767074016
 20
626.6654944173252
 42
0.0
 10
88.1848662866486
 20
624.3739008327105
 42
0.0
 10
88.63125598029537
 20
622.3945504332536
 42
0.0
 10
132.0157486198873
 20
624.668235347816
 42
0.1507946423587037
 10
137.5524331033918
 20
626.699917809662
 42
-0.1507946423587065
 10
144.7501229319478
 20
629.3411050100618
 42
0.0
 10
160.3010922138608
 20
630.1560967758256
 42
0.117862500850929
 10
166.5446852436747
 20
631.9989001989918
 42
-0.1178625008509387
 10
176.8020166497984
 20
635.026362965622
 42
0.0
 10
177.5853766399395
 20
635.0674171230845
 42
0.0
 97
        0
 92
        7
 72
     1
 73
     1
 93
       14
 10
137.1446723316959
 20
526.8025409418678
 42
0.0
 10
93.07674412978201
 20
524.493038687201
 42
0.0
 10
93.52313382342883
 20
522.5136882877438
 42
0.0
 10
137.2493442441817
 20
524.8052818723587
 42
-0.1507946423587041
 10
141.8243223179222
 20
523.6518326146922
 42
0.1507946423587052
 10
150.4024062061857
 20
521.4891152565678
 42
0.0
 10
165.95357574396
 20
522.3041175172967
 42
-0.1178625008509376
 10
171.4410175015432
 20
521.2926245157054
 42
0.0643557840854046
 10
177.5853766399394
 20
519.4698322261245
 42
0.0
 10
177.5853766399394
 20
521.4979105872592
 42
-0.0608351163920741
 10
172.2507189594595
 20
523.1212909233176
 42
0.1178625008509265
 10
165.848703575613
 20
524.3013660918408
 42
0.0
 10
150.2977342936999
 20
523.486374326077
 42
-0.1507946423587027
 10
142.8633949238716
 20
525.3607293697848
 42
0.1507946423587072
 97
        0
 92
        7
 72
     1
 73
     1
 93
       10
 10
211.4387355445829
 20
523.027924126211
 42
0.0
 10
213.4254673874104
 20
524.0842881852244
 42
0.0
 10
213.3099747104379
 20
526.2880197409682
 42
0.0
 10
210.4997924190116
 20
524.793819311929
 42
-0.1095178116832424
 10
200.9056734685238
 20
522.133134648329
 42
0.0
 10
182.768315661494
 20
521.1825960036007
 42
-0.0566213988959547
 10
177.5853766399394
 20
521.4979105872592
 42
0.0
 10
177.5853766399394
 20
519.4698322261245
 42
0.0531039164614847
 10
182.8731878298412
 20
519.1853474290565
 42
0.0
 10
201.0103453810096
 20
520.1358755788199
 42
0.1095178116832378
 97
        0
 75
     0
 76
     0
 52
138.0
 41
2.0
 77
     0
 78
     1
 53
138.0
 43
14.97944302131873
 44
0.7850393436441437
 45
-1.338261212717716
 46
-1.486289650954788
 79
     0
 47
0.2857341616154874
 98
        4
 10
184.7907870736794
 20
635.9625270055972
 10
174.4989374744623
 20
635.6767926285839
 10
129.9009214858788
 20
525.6691404669326
 10
187.9355201307462
 20
520.5259251385463
  0
LINE
  5
2E3F
330
2
100
AcDbEntity
  8
STEMPEL
100
AcDbLine
 10
797.7086353497976
 20
652.1310584022867
 30
0.0
 11
797.7086353497976
 21
567.1310584022867
 31
0.0
  0
LINE
  5
2E40
330
2
100
AcDbEntity
  8
STEMPEL
100
AcDbLine
 10
927.7086353497976
 20
652.1310584022867
 30
0.0
 11
927.7086353497976
 21
567.1310584022868
 31
0.0
  0
LINE
  5
2E7A
102
{ACAD_REACTORS
330
2EA4
102
}
330
2
100
AcDbEntity
  8
HILF
100
AcDbLine
 10
213.3099747104379
 20
526.2880197409685
 30
0.0
 11
213.5585705025919
 21
521.5445294508839
 31
0.0
  0
LINE
  5
2E7B
102
{ACAD_REACTORS
330
2EA4
102
}
330
2
100
AcDbEntity
  8
HILF
100
AcDbLine
 10
220.1695415631128
 20
529.1509452715546
 30
0.0
 11
220.3167246893176
 21
526.342523922313
 31
0.0
  0
LINE
  5
2E7C
102
{ACAD_REACTORS
330
2EA4
102
}
330
2
100
AcDbEntity
  8
HILF
100
AcDbLine
 10
187.5542608505011
 20
635.5898642064898
 30
0.0
 11
187.6327647848655
 21
634.0919199043582
 31
0.0
  0
LINE
  5
2E7E
102
{ACAD_REACTORS
330
2EA4
102
}
330
2
100
AcDbEntity
  8
HILF
100
AcDbLine
 10
190.6594447601995
 20
633.661393412892
 30
0.0
 11
187.6327647848655
 21
634.0919199043581
 31
0.0
  0
LINE
  5
2E7F
102
{ACAD_REACTORS
330
2EA4
102
}
330
2
100
AcDbEntity
  8
HILF
100
AcDbLine
 10
190.7316119650139
 20
632.2843611134573
 30
0.0
 11
183.9242419754354
 21
630.8934474215009
 31
0.0
  0
LINE
  5
2E80
102
{ACAD_REACTORS
330
2EA4
102
}
330
2
100
AcDbEntity
  8
HILF
100
AcDbLine
 10
190.6594447601995
 20
633.661393412892
 30
0.0
 11
190.7316119650139
 21
632.2843611134573
 31
0.0
  0
LINE
  5
2E81
102
{ACAD_REACTORS
330
2EA4
102
}
330
2
100
AcDbEntity
  8
HILF
100
AcDbLine
 10
183.9242419754354
 20
630.8934474215009
 30
0.0
 11
184.0027459097998
 21
629.395503119369
 31
0.0
  0
LINE
  5
2E83
102
{ACAD_REACTORS
330
2EA4
102
}
330
2
100
AcDbEntity
  8
HILF
100
AcDbLine
 10
196.4071531610255
 20
523.988583775524
 30
0.0
 11
196.3349859562112
 21
525.3656160749586
 31
0.0
  0
LINE
  5
2E84
102
{ACAD_REACTORS
330
2EA4
102
}
330
2
100
AcDbEntity
  8
HILF
100
AcDbLine
 10
196.3349859562112
 20
525.3656160749586
 30
0.0
 11
189.4195173809443
 21
526.037346272272
 31
0.0
  0
LINE
  5
2E85
102
{ACAD_REACTORS
330
2EA4
102
}
330
2
100
AcDbEntity
  8
HILF
100
AcDbLine
 10
189.4195173809443
 20
526.037346272272
 30
0.0
 11
189.3410134465799
 21
527.5352905744037
 31
0.0
  0
LINE
  5
2E86
102
{ACAD_REACTORS
330
2EA4
102
}
330
2
100
AcDbEntity
  8
HILF
100
AcDbLine
 10
196.4071531610255
 20
523.988583775524
 30
0.0
 11
193.4420559278321
 21
523.2440415466003
 31
0.0
  0
LINE
  5
2E87
102
{ACAD_REACTORS
330
2EA4
102
}
330
2
100
AcDbEntity
  8
HILF
100
AcDbLine
 10
193.5205598621965
 20
521.7460972444684
 30
0.0
 11
193.4420559278321
 21
523.2440415466002
 31
0.0
  0
HATCH
  5
2EA4
330
2
100
AcDbEntity
  8
HILF
100
AcDbHatch
 10
0.0
 20
0.0
 30
0.0
210
0.0
220
0.0
230
1.0
  2
NET
 70
     0
 71
     1
 91
        2
 92
        7
 72
     1
 73
     1
 93
       14
 10
214.8312740263325
 20
631.0111578165216
 42
0.0
 10
214.6840909001276
 20
633.8195791657641
 42
0.2592959797079758
 10
213.910022380563
 20
635.0548498891749
 42
0.0
 10
209.659551388336
 20
637.3968139372474
 42
0.1436237563963233
 10
207.4614540057089
 20
637.8844427289109
 42
0.0
 10
207.7100273924429
 20
633.1413799597076
 42
0.0
 10
204.759053098982
 20
634.3336509660314
 42
0.1095178116832383
 10
194.9393744568285
 20
635.9769016103504
 42
0.0
 10
187.5542608505011
 20
635.5898642064898
 42
0.0
 10
187.6327647848655
 20
634.0919199043582
 42
0.0
 10
190.6594447601995
 20
633.6613934128921
 42
0.0
 10
190.7316119650139
 20
632.2843611134572
 42
0.0
 10
183.9242419754354
 20
630.8934474215009
 42
0.0
 10
184.0027459097998
 20
629.395503119369
 42
0.0
 97
       14
330
2D8A
330
2D8B
330
2D87
330
2D38
330
2D45
330
2D47
330
2D3B
330
2E7C
330
2E7E
330
2E80
330
2E7F
330
2E81
330
2885
330
2D86
 92
        7
 72
     1
 73
     1
 93
       14
 10
189.34101344658
 20
527.535290574402
 42
0.0
 10
189.4195173809443
 20
526.037346272272
 42
0.0
 10
196.3349859562112
 20
525.3656160749585
 42
0.0
 10
196.4071531610256
 20
523.9885837755241
 42
0.0
 10
193.4420559278321
 20
523.2440415466003
 42
0.0
 10
193.5205598621965
 20
521.7460972444684
 42
0.0
 10
200.9056734685237
 20
522.133134648329
 42
0.1095178116832387
 10
210.4997924190113
 20
524.7938193119288
 42
0.0
 10
213.3099747104378
 20
526.2880197409684
 42
0.0
 10
213.5585480971719
 20
521.5449569717651
 42
0.1436237563963296
 10
215.6936329841087
 20
522.259678223405
 42
0.0
 10
219.676017548533
 20
525.0331079483596
 42
0.2592959797079543
 10
220.3167246893176
 20
526.342523922313
 42
0.0
 10
220.1695415631128
 20
529.1509452715546
 42
0.0
 97
       14
330
2E7A
330
2D8C
330
2D90
330
2D8F
330
2E7B
330
2882
330
2E85
330
2E84
330
2E83
330
2E86
330
2E87
330
2D4A
330
2D55
330
2D54
 75
     0
 76
     1
 52
48.0
 41
15.0
 77
     0
 78
     2
 53
48.0
 43
0.0
 44
0.0
 45
-1.393396547770114
 46
1.254619886922859
 79
     0
 53
138.0
 43
0.0
 44
0.0
 45
-1.254619886922859
 46
-1.393396547770114
 79
     0
 47
0.2562378405642007
 98
        2
 10
201.9724935232598
 20
632.5363789102977
 10
202.997982335592
 20
525.6851988838159
  0
ELLIPSE
  5
2EFC
330
2
100
AcDbEntity
  8
HILF
100
AcDbEllipse
 10
217.4152712464685
 20
202.2697052206203
 30
0.0
 11
0.0
 21
54.54115746704979
 31
0.0
210
0.0
220
0.0
230
1.0
 40
0.0488755024078646
 41
5.920855814653142
 42
9.787107453295837
  0
ELLIPSE
  5
2F01
330
2
100
AcDbEntity
  8
HILF
100
AcDbEllipse
 10
210.4248645031863
 20
202.2697052206205
 30
0.0
 11
0.0
 21
58.25
 31
0.0
210
0.0
220
0.0
230
1.0
 40
0.0523359562429433
 41
6.255254954971015
 42
9.45270831297795
  0
LINE
  5
2F03
330
2
100
AcDbEntity
  8
HILF
100
AcDbLine
 10
210.5100010514404
 20
260.4969861518867
 30
0.0
 11
217.4844510497325
 21
256.7924932876754
 31
0.0
  0
LINE
  5
2F04
330
2
100
AcDbEntity
  8
HILF
100
AcDbLine
 10
210.5100010514404
 20
144.0424242893543
 30
0.0
 11
217.4844510497325
 21
147.7469171535655
 31
0.0
  0
LINE
  5
2F0F
330
2
100
AcDbEntity
  8
HILF
100
AcDbLine
 10
179.7002298632536
 20
261.2697052206205
 30
0.0
 11
197.8373874144219
 21
261.2697052206205
 31
0.0
  0
LINE
  5
2F10
330
2
100
AcDbEntity
  8
HILF
100
AcDbLine
 10
179.7002298632536
 20
143.2697052206205
 30
0.0
 11
197.8373874144219
 21
143.2697052206205
 31
0.0
  0
ELLIPSE
  5
2F17
330
2
100
AcDbEntity
  8
HILF
100
AcDbEllipse
 10
197.8373874144219
 20
202.2697052206205
 30
0.0
 11
0.0
 21
-59.00000000000003
 31
0.0
210
0.0
220
0.0
230
1.0
 40
0.0523359562429436
 41
3.367566956810143
 42
6.057211003959236
  0
POLYLINE
  5
2F35
330
2
100
AcDbEntity
  8
HILF
100
AcDb2dPolyline
 66
     1
 10
0.0
 20
0.0
 30
0.0
  0
VERTEX
  5
2F36
330
2F35
100
AcDbEntity
  8
HILF
100
AcDbVertex
100
AcDb2dVertex
 10
209.5893903173171
 20
258.2895551565436
 30
0.0
  0
VERTEX
  5
2F37
330
2F35
100
AcDbEntity
  8
HILF
100
AcDbVertex
100
AcDb2dVertex
 10
208.0430616400429
 20
258.8690421001361
 30
0.0
  0
VERTEX
  5
2F38
330
2F35
100
AcDbEntity
  8
HILF
100
AcDbVertex
100
AcDb2dVertex
 10
206.1872401217525
 20
259.5470304398692
 30
0.0
  0
VERTEX
  5
2F39
330
2F35
100
AcDbEntity
  8
HILF
100
AcDbVertex
100
AcDb2dVertex
 10
204.7098904511811
 20
260.049018782769
 30
0.0
  0
VERTEX
  5
2F3A
330
2F35
100
AcDbEntity
  8
HILF
100
AcDbVertex
100
AcDb2dVertex
 10
203.4635031311949
 20
260.4135998338599
 30
0.0
  0
VERTEX
  5
2F3B
330
2F35
100
AcDbEntity
  8
HILF
100
AcDbVertex
100
AcDb2dVertex
 10
202.3005686646599
 20
260.6793662981662
 30
0.0
  0
VERTEX
  5
2F3C
330
2F35
100
AcDbEntity
  8
HILF
100
AcDbVertex
100
AcDb2dVertex
 10
201.073577554442
 20
260.8849108807122
 30
0.0
  0
VERTEX
  5
2F3D
330
2F35
100
AcDbEntity
  8
HILF
100
AcDbVertex
100
AcDb2dVertex
 10
199.6350203034073
 20
261.0688262865222
 30
0.0
  0
VERTEX
  5
2F3E
330
2F35
100
AcDbEntity
  8
HILF
100
AcDbVertex
100
AcDb2dVertex
 10
197.8373874144219
 20
261.2697052206205
 30
0.0
  0
SEQEND
  5
2F3F
330
2F35
100
AcDbEntity
  8
HILF
  0
ELLIPSE
  5
2F41
330
2
100
AcDbEntity
  8
HILF
100
AcDbEllipse
 10
179.7002298632537
 20
202.2697052206205
 30
0.0
 11
0.0
 21
-59.00000000000003
 31
0.0
210
0.0
220
0.0
230
1.0
 40
0.0523359562429436
 41
3.368344920847399
 42
6.056433039921984
  0
POLYLINE
  5
2F44
330
2
100
AcDbEntity
  8
HILF
100
AcDb2dPolyline
 66
     1
 10
0.0
 20
0.0
 30
0.0
  0
VERTEX
  5
2F45
330
2F44
100
AcDbEntity
  8
HILF
100
AcDbVertex
100
AcDb2dVertex
 10
209.5893903173171
 20
146.2498552846974
 30
0.0
  0
VERTEX
  5
2F46
330
2F44
100
AcDbEntity
  8
HILF
100
AcDbVertex
100
AcDb2dVertex
 10
208.0430616400429
 20
145.6703683411049
 30
0.0
  0
VERTEX
  5
2F47
330
2F44
100
AcDbEntity
  8
HILF
100
AcDbVertex
100
AcDb2dVertex
 10
206.1872401217525
 20
144.9923800013718
 30
0.0
  0
VERTEX
  5
2F48
330
2F44
100
AcDbEntity
  8
HILF
100
AcDbVertex
100
AcDb2dVertex
 10
204.7098904511811
 20
144.490391658472
 30
0.0
  0
VERTEX
  5
2F49
330
2F44
100
AcDbEntity
  8
HILF
100
AcDbVertex
100
AcDb2dVertex
 10
203.4635031311949
 20
144.125810607381
 30
0.0
  0
VERTEX
  5
2F4A
330
2F44
100
AcDbEntity
  8
HILF
100
AcDbVertex
100
AcDb2dVertex
 10
202.3005686646599
 20
143.8600441430748
 30
0.0
  0
VERTEX
  5
2F4B
330
2F44
100
AcDbEntity
  8
HILF
100
AcDbVertex
100
AcDb2dVertex
 10
201.073577554442
 20
143.6544995605288
 30
0.0
  0
VERTEX
  5
2F4C
330
2F44
100
AcDbEntity
  8
HILF
100
AcDbVertex
100
AcDb2dVertex
 10
199.6350203034073
 20
143.4705841547188
 30
0.0
  0
VERTEX
  5
2F4D
330
2F44
100
AcDbEntity
  8
HILF
100
AcDbVertex
100
AcDb2dVertex
 10
197.8373874144219
 20
143.2697052206204
 30
0.0
  0
SEQEND
  5
2F4E
330
2F44
100
AcDbEntity
  8
HILF
  0
POLYLINE
  5
2F5D
330
2
100
AcDbEntity
  8
HILF
100
AcDb2dPolyline
 66
     1
 10
0.0
 20
0.0
 30
0.0
 70
     2
  0
VERTEX
  5
2F5E
330
2F5D
100
AcDbEntity
  8
HILF
100
AcDbVertex
100
AcDb2dVertex
 10
168.4095080653417
 20
258.5670025179178
 30
0.0
 42
-0.0293764482400741
  0
VERTEX
  5
2F6D
330
2F5D
100
AcDbEntity
  8
HILF
100
AcDbVertex
100
AcDb2dVertex
 10
171.0933385142453
 20
259.7371303084835
 30
0.0
 42
-0.0293764482400705
 70
     1
  0
VERTEX
  5
2F5F
330
2F5D
100
AcDbEntity
  8
HILF
100
AcDbVertex
100
AcDb2dVertex
 10
173.8958135935006
 20
260.5846433496024
 30
0.0
 42
-0.0293721854371029
  0
VERTEX
  5
2F6C
330
2F5D
100
AcDbEntity
  8
HILF
100
AcDbVertex
100
AcDb2dVertex
 10
176.7778825895211
 20
261.0978098877885
 30
0.0
 42
-0.0293721854371106
 70
     1
  0
VERTEX
  5
2F60
330
2F5D
100
AcDbEntity
  8
HILF
100
AcDbVertex
100
AcDb2dVertex
 10
179.7002298632536
 20
261.2697052206205
 30
0.0
  0
SEQEND
  5
2F61
330
2F5D
100
AcDbEntity
  8
HILF
  0
POLYLINE
  5
2F6E
330
2
100
AcDbEntity
  8
HILF
100
AcDb2dPolyline
 66
     1
 10
0.0
 20
0.0
 30
0.0
 70
     2
  0
VERTEX
  5
2F6F
330
2F6E
100
AcDbEntity
  8
HILF
100
AcDbVertex
100
AcDb2dVertex
 10
168.4095080653417
 20
145.9724079233232
 30
0.0
 42
0.0293764482400741
  0
VERTEX
  5
2F70
330
2F6E
100
AcDbEntity
  8
HILF
100
AcDbVertex
100
AcDb2dVertex
 10
171.0933385142453
 20
144.8022801327574
 30
0.0
 42
0.0293764482400705
 70
     1
  0
VERTEX
  5
2F71
330
2F6E
100
AcDbEntity
  8
HILF
100
AcDbVertex
100
AcDb2dVertex
 10
173.8958135935006
 20
143.9547670916386
 30
0.0
 42
0.0293721854371029
  0
VERTEX
  5
2F72
330
2F6E
100
AcDbEntity
  8
HILF
100
AcDbVertex
100
AcDb2dVertex
 10
176.7778825895211
 20
143.4416005534525
 30
0.0
 42
0.0293721854371106
 70
     1
  0
VERTEX
  5
2F73
330
2F6E
100
AcDbEntity
  8
HILF
100
AcDbVertex
100
AcDb2dVertex
 10
179.7002298632536
 20
143.2697052206204
 30
0.0
  0
SEQEND
  5
2F74
330
2F6E
100
AcDbEntity
  8
HILF
  0
POLYLINE
  5
2F7C
330
2
100
AcDbEntity
  8
HILF
100
AcDb2dPolyline
 66
     1
 10
0.0
 20
0.0
 30
0.0
 70
     4
 75
     6
  0
VERTEX
  5
2F7D
330
2F7C
100
AcDbEntity
  8
HILF
100
AcDbVertex
100
AcDb2dVertex
 10
168.4095080653417
 20
258.5670025179178
 30
0.0
 70
    16
  0
VERTEX
  5
2F82
330
2F7C
100
AcDbEntity
  8
HILF
100
AcDbVertex
100
AcDb2dVertex
 10
168.4095080653417
 20
258.5670025179178
 30
0.0
 70
     8
  0
VERTEX
  5
2F83
330
2F7C
100
AcDbEntity
  8
HILF
100
AcDbVertex
100
AcDb2dVertex
 10
167.6935146910486
 20
258.2466903031437
 30
0.0
 70
     8
  0
VERTEX
  5
2F84
330
2F7C
100
AcDbEntity
  8
HILF
100
AcDbVertex
100
AcDb2dVertex
 10
167.11555498966
 20
258.0019692230926
 30
0.0
 70
     8
  0
VERTEX
  5
2F85
330
2F7C
100
AcDbEntity
  8
HILF
100
AcDbVertex
100
AcDb2dVertex
 10
166.6121174559592
 20
257.817636575062
 30
0.0
 70
     8
  0
VERTEX
  5
2F86
330
2F7C
100
AcDbEntity
  8
HILF
100
AcDbVertex
100
AcDb2dVertex
 10
166.1196905847297
 20
257.6784896563491
 30
0.0
 70
     8
  0
VERTEX
  5
2F87
330
2F7C
100
AcDbEntity
  8
HILF
100
AcDbVertex
100
AcDb2dVertex
 10
165.5747628707548
 20
257.5693257642512
 30
0.0
 70
     8
  0
VERTEX
  5
2F88
330
2F7C
100
AcDbEntity
  8
HILF
100
AcDbVertex
100
AcDb2dVertex
 10
164.9138228088181
 20
257.4749421960656
 30
0.0
 70
     8
  0
VERTEX
  5
2F89
330
2F7C
100
AcDbEntity
  8
HILF
100
AcDbVertex
100
AcDb2dVertex
 10
164.0733588937028
 20
257.3801362490895
 30
0.0
 70
     8
  0
VERTEX
  5
2F8A
330
2F7C
100
AcDbEntity
  8
HILF
100
AcDbVertex
100
AcDb2dVertex
 10
162.9898596201925
 20
257.2697052206204
 30
0.0
 70
     8
  0
VERTEX
  5
2F7E
330
2F7C
100
AcDbEntity
  8
HILF
100
AcDbVertex
100
AcDb2dVertex
 10
166.2596928320505
 20
257.5985349187092
 30
0.0
 70
    16
  0
VERTEX
  5
2F7F
330
2F7C
100
AcDbEntity
  8
HILF
100
AcDbVertex
100
AcDb2dVertex
 10
162.9898596201926
 20
257.2697052206205
 30
0.0
 70
    16
  0
SEQEND
  5
2F80
330
2F7C
100
AcDbEntity
  8
HILF
  0
POLYLINE
  5
2F8D
330
2
100
AcDbEntity
  8
HILF
100
AcDb2dPolyline
 66
     1
 10
0.0
 20
0.0
 30
0.0
 70
     4
 75
     6
  0
VERTEX
  5
2F8E
330
2F8D
100
AcDbEntity
  8
HILF
100
AcDbVertex
100
AcDb2dVertex
 10
168.4095080653417
 20
145.9724079233232
 30
0.0
 70
    16
  0
VERTEX
  5
2F8F
330
2F8D
100
AcDbEntity
  8
HILF
100
AcDbVertex
100
AcDb2dVertex
 10
168.4095080653417
 20
145.9724079233232
 30
0.0
 70
     8
  0
VERTEX
  5
2F90
330
2F8D
100
AcDbEntity
  8
HILF
100
AcDbVertex
100
AcDb2dVertex
 10
167.6935146910486
 20
146.2927201380973
 30
0.0
 70
     8
  0
VERTEX
  5
2F91
330
2F8D
100
AcDbEntity
  8
HILF
100
AcDbVertex
100
AcDb2dVertex
 10
167.11555498966
 20
146.5374412181483
 30
0.0
 70
     8
  0
VERTEX
  5
2F92
330
2F8D
100
AcDbEntity
  8
HILF
100
AcDbVertex
100
AcDb2dVertex
 10
166.6121174559592
 20
146.7217738661789
 30
0.0
 70
     8
  0
VERTEX
  5
2F93
330
2F8D
100
AcDbEntity
  8
HILF
100
AcDbVertex
100
AcDb2dVertex
 10
166.1196905847297
 20
146.8609207848918
 30
0.0
 70
     8
  0
VERTEX
  5
2F94
330
2F8D
100
AcDbEntity
  8
HILF
100
AcDbVertex
100
AcDb2dVertex
 10
165.5747628707548
 20
146.9700846769898
 30
0.0
 70
     8
  0
VERTEX
  5
2F95
330
2F8D
100
AcDbEntity
  8
HILF
100
AcDbVertex
100
AcDb2dVertex
 10
164.9138228088181
 20
147.0644682451754
 30
0.0
 70
     8
  0
VERTEX
  5
2F96
330
2F8D
100
AcDbEntity
  8
HILF
100
AcDbVertex
100
AcDb2dVertex
 10
164.0733588937028
 20
147.1592741921515
 30
0.0
 70
     8
  0
VERTEX
  5
2F97
330
2F8D
100
AcDbEntity
  8
HILF
100
AcDbVertex
100
AcDb2dVertex
 10
162.9898596201925
 20
147.2697052206206
 30
0.0
 70
     8
  0
VERTEX
  5
2F98
330
2F8D
100
AcDbEntity
  8
HILF
100
AcDbVertex
100
AcDb2dVertex
 10
166.2596928320505
 20
146.9408755225318
 30
0.0
 70
    16
  0
VERTEX
  5
2F99
330
2F8D
100
AcDbEntity
  8
HILF
100
AcDbVertex
100
AcDb2dVertex
 10
162.9898596201926
 20
147.2697052206205
 30
0.0
 70
    16
  0
SEQEND
  5
2F9A
330
2F8D
100
AcDbEntity
  8
HILF
  0
ELLIPSE
  5
2F9C
330
2
100
AcDbEntity
  8
HILF
100
AcDbEllipse
 10
166.2596928320505
 20
202.2099473702044
 30
0.0
 11
0.0000000000000142
 21
55.38858754850476
 31
0.0
210
0.0
220
0.0
230
1.0
 40
0.061020276969447
 41
0.23792695907533
 42
2.894354963708248
  0
LINE
  5
2FD2
330
2
100
AcDbEntity
  8
HILF
100
AcDbLine
 10
147.4387920645697
 20
257.2697052206205
 30
0.0
 11
162.989859620194
 21
257.2697052206205
 31
0.0
  0
LINE
  5
2FD3
330
2
100
AcDbEntity
  8
HILF
100
AcDbLine
 10
147.4387920645697
 20
147.2697052206204
 30
0.0
 11
162.9898596201936
 21
147.2697052206204
 31
0.0
  0
POLYLINE
  5
2FDD
330
2
100
AcDbEntity
  8
HILF
100
AcDb2dPolyline
 66
     1
 10
0.0
 20
0.0
 30
0.0
 70
     2
  0
VERTEX
  5
2FDE
330
2FDD
100
AcDbEntity
  8
HILF
100
AcDbVertex
100
AcDb2dVertex
 10
147.4387920645697
 20
257.2697052206205
 30
0.0
 42
0.0246705642430701
  0
VERTEX
  5
2FED
330
2FDD
100
AcDbEntity
  8
HILF
100
AcDbVertex
100
AcDb2dVertex
 10
145.5082080882048
 20
257.0307056541133
 30
0.0
 42
0.0246705642430715
 70
     1
  0
VERTEX
  5
2FDF
330
2FDD
100
AcDbEntity
  8
HILF
100
AcDbVertex
100
AcDb2dVertex
 10
143.6105548705348
 20
256.6027015092093
 30
0.0
 42
0.0318156527915132
  0
VERTEX
  5
2FEC
330
2FDD
100
AcDbEntity
  8
HILF
100
AcDbVertex
100
AcDb2dVertex
 10
141.24205702212
 20
255.7787799883015
 30
0.0
 42
0.0318156527915112
 70
     1
  0
VERTEX
  5
2FE0
330
2FDD
100
AcDbEntity
  8
HILF
100
AcDbVertex
100
AcDb2dVertex
 10
138.9972367578098
 20
254.6610095684467
 30
0.0
  0
SEQEND
  5
2FE1
330
2FDD
100
AcDbEntity
  8
HILF
  0
POLYLINE
  5
2FEE
330
2
100
AcDbEntity
  8
HILF
100
AcDb2dPolyline
 66
     1
 10
0.0
 20
0.0
 30
0.0
 70
     2
  0
VERTEX
  5
2FEF
330
2FEE
100
AcDbEntity
  8
HILF
100
AcDbVertex
100
AcDb2dVertex
 10
147.4387920645697
 20
147.2697052206205
 30
0.0
 42
-0.0246705642430701
  0
VERTEX
  5
2FF0
330
2FEE
100
AcDbEntity
  8
HILF
100
AcDbVertex
100
AcDb2dVertex
 10
145.5082080882048
 20
147.5087047871277
 30
0.0
 42
-0.0246705642430715
 70
     1
  0
VERTEX
  5
2FF1
330
2FEE
100
AcDbEntity
  8
HILF
100
AcDbVertex
100
AcDb2dVertex
 10
143.6105548705348
 20
147.9367089320317
 30
0.0
 42
-0.0318156527915132
  0
VERTEX
  5
2FF2
330
2FEE
100
AcDbEntity
  8
HILF
100
AcDbVertex
100
AcDb2dVertex
 10
141.24205702212
 20
148.7606304529395
 30
0.0
 42
-0.0318156527915112
 70
     1
  0
VERTEX
  5
2FF3
330
2FEE
100
AcDbEntity
  8
HILF
100
AcDbVertex
100
AcDb2dVertex
 10
138.9972367578098
 20
149.8784008727942
 30
0.0
  0
SEQEND
  5
2FF4
330
2FEE
100
AcDbEntity
  8
HILF
  0
LINE
  5
2FF7
330
2
100
AcDbEntity
  8
HILF
100
AcDbLine
 10
83.14596545677208
 20
253.2697052206205
 30
0.0
 11
134.4950739275377
 21
253.2697052206205
 31
0.0
  0
LINE
  5
2FFD
330
2
100
AcDbEntity
  8
HILF
100
AcDbLine
 10
83.14596545677208
 20
151.2697052206205
 30
0.0
 11
134.4950739275377
 21
151.2697052206205
 31
0.0
  0
POLYLINE
  5
2FFF
330
2
100
AcDbEntity
  8
HILF
100
AcDb2dPolyline
 66
     1
 10
0.0
 20
0.0
 30
0.0
 70
     2
  0
VERTEX
  5
3000
330
2FFF
100
AcDbEntity
  8
HILF
100
AcDbVertex
100
AcDb2dVertex
 10
138.9972367578098
 20
254.6610095684467
 30
0.0
 42
-0.0374803656535863
  0
VERTEX
  5
3005
330
2FFF
100
AcDbEntity
  8
HILF
100
AcDbVertex
100
AcDb2dVertex
 10
137.9629425864482
 20
254.062666855336
 30
0.0
 42
-0.0374803656535766
 70
     1
  0
VERTEX
  5
3001
330
2FFF
100
AcDbEntity
  8
HILF
100
AcDbVertex
100
AcDb2dVertex
 10
136.8509122007899
 20
253.6254405333733
 30
0.0
 42
-0.0374717429963746
  0
VERTEX
  5
3004
330
2FFF
100
AcDbEntity
  8
HILF
100
AcDbVertex
100
AcDb2dVertex
 10
135.6863418298003
 20
253.3591713833567
 30
0.0
 42
-0.037471742996356
 70
     1
  0
VERTEX
  5
3002
330
2FFF
100
AcDbEntity
  8
HILF
100
AcDbVertex
100
AcDb2dVertex
 10
134.4950739275377
 20
253.2697052206205
 30
0.0
  0
SEQEND
  5
3003
330
2FFF
100
AcDbEntity
  8
HILF
  0
POLYLINE
  5
3006
330
2
100
AcDbEntity
  8
HILF
100
AcDb2dPolyline
 66
     1
 10
0.0
 20
0.0
 30
0.0
 70
     2
  0
VERTEX
  5
3007
330
3006
100
AcDbEntity
  8
HILF
100
AcDbVertex
100
AcDb2dVertex
 10
138.9972367578098
 20
149.8784008727942
 30
0.0
 42
0.0374803656535863
  0
VERTEX
  5
3008
330
3006
100
AcDbEntity
  8
HILF
100
AcDbVertex
100
AcDb2dVertex
 10
137.9629425864482
 20
150.4767435859049
 30
0.0
 42
0.0374803656535766
 70
     1
  0
VERTEX
  5
3009
330
3006
100
AcDbEntity
  8
HILF
100
AcDbVertex
100
AcDb2dVertex
 10
136.8509122007899
 20
150.9139699078677
 30
0.0
 42
0.0374717429963746
  0
VERTEX
  5
300A
330
3006
100
AcDbEntity
  8
HILF
100
AcDbVertex
100
AcDb2dVertex
 10
135.6863418298003
 20
151.1802390578842
 30
0.0
 42
0.037471742996356
 70
     1
  0
VERTEX
  5
300B
330
3006
100
AcDbEntity
  8
HILF
100
AcDbVertex
100
AcDb2dVertex
 10
134.4950739275377
 20
151.2697052206205
 30
0.0
  0
SEQEND
  5
300C
330
3006
100
AcDbEntity
  8
HILF
  0
ELLIPSE
  5
3010
330
2
100
AcDbEntity
  8
HILF
100
AcDbEllipse
 10
136.8509122007899
 20
202.2697052206205
 30
0.0
 11
0.0
 21
51.35573531275278
 31
0.0
210
0.0
220
0.0
230
1.0
 40
0.0523359562429438
 41
0.2586050034675154
 42
2.882987650122277
  0
ELLIPSE
  5
3022
330
2
100
AcDbEntity
  8
HILF
100
AcDbEllipse
 10
143.0215953022217
 20
202.2697052206205
 30
0.0
 11
0.0
 21
54.15933950144569
 31
0.0
210
0.0
220
0.0
230
1.0
 40
0.0525037665245473
 41
0.2618329652013979
 42
2.879759688388034
  0
POLYLINE
  5
3037
330
2
100
AcDbEntity
  8
HILF
100
AcDb2dPolyline
 66
     1
 10
0.0
 20
0.0
 30
0.0
 70
     4
 75
     6
  0
VERTEX
  5
3038
330
3037
100
AcDbEntity
  8
HILF
100
AcDbVertex
100
AcDb2dVertex
 10
83.14596545677208
 20
253.2697052206205
 30
0.0
 70
    16
  0
VERTEX
  5
3039
330
3037
100
AcDbEntity
  8
HILF
100
AcDbVertex
100
AcDb2dVertex
 10
83.14596545677208
 20
253.2697052206205
 30
0.0
 70
     8
  0
VERTEX
  5
303A
330
3037
100
AcDbEntity
  8
HILF
100
AcDbVertex
100
AcDb2dVertex
 10
84.68405139427208
 20
244.2799591268705
 30
0.0
 70
     8
  0
VERTEX
  5
303B
330
3037
100
AcDbEntity
  8
HILF
100
AcDbVertex
100
AcDb2dVertex
 10
85.60690295677209
 20
236.3361114706207
 30
0.0
 70
     8
  0
VERTEX
  5
303C
330
3037
100
AcDbEntity
  8
HILF
100
AcDbVertex
100
AcDb2dVertex
 10
86.00241076927208
 20
229.2887481893707
 30
0.0
 70
     8
  0
VERTEX
  5
303D
330
3037
100
AcDbEntity
  8
HILF
100
AcDbVertex
100
AcDb2dVertex
 10
85.95846545677209
 20
222.9884552206208
 30
0.0
 70
     8
  0
VERTEX
  5
303E
330
3037
100
AcDbEntity
  8
HILF
100
AcDbVertex
100
AcDb2dVertex
 10
85.56295764427208
 20
217.2858185018708
 30
0.0
 70
     8
  0
VERTEX
  5
303F
330
3037
100
AcDbEntity
  8
HILF
100
AcDbVertex
100
AcDb2dVertex
 10
84.90377795677208
 20
212.0314239706208
 30
0.0
 70
     8
  0
VERTEX
  5
3040
330
3037
100
AcDbEntity
  8
HILF
100
AcDbVertex
100
AcDb2dVertex
 10
84.06881701927204
 20
207.075857564371
 30
0.0
 70
     8
  0
VERTEX
  5
3041
330
3037
100
AcDbEntity
  8
HILF
100
AcDbVertex
100
AcDb2dVertex
 10
83.14596545677202
 20
202.2697052206207
 30
0.0
 70
     8
  0
VERTEX
  5
3042
330
3037
100
AcDbEntity
  8
HILF
100
AcDbVertex
100
AcDb2dVertex
 10
82.22311389427208
 20
197.4635528768707
 30
0.0
 70
     8
  0
VERTEX
  5
3043
330
3037
100
AcDbEntity
  8
HILF
100
AcDbVertex
100
AcDb2dVertex
 10
81.38815295677208
 20
192.5079864706207
 30
0.0
 70
     8
  0
VERTEX
  5
3044
330
3037
100
AcDbEntity
  8
HILF
100
AcDbVertex
100
AcDb2dVertex
 10
80.72897326927208
 20
187.2535919393707
 30
0.0
 70
     8
  0
VERTEX
  5
3045
330
3037
100
AcDbEntity
  8
HILF
100
AcDbVertex
100
AcDb2dVertex
 10
80.33346545677202
 20
181.5509552206205
 30
0.0
 70
     8
  0
VERTEX
  5
3046
330
3037
100
AcDbEntity
  8
HILF
100
AcDbVertex
100
AcDb2dVertex
 10
80.28952014427204
 20
175.2506622518705
 30
0.0
 70
     8
  0
VERTEX
  5
3047
330
3037
100
AcDbEntity
  8
HILF
100
AcDbVertex
100
AcDb2dVertex
 10
80.68502795677208
 20
168.2032989706205
 30
0.0
 70
     8
  0
VERTEX
  5
3048
330
3037
100
AcDbEntity
  8
HILF
100
AcDbVertex
100
AcDb2dVertex
 10
81.60787951927204
 20
160.2594513143704
 30
0.0
 70
     8
  0
VERTEX
  5
3049
330
3037
100
AcDbEntity
  8
HILF
100
AcDbVertex
100
AcDb2dVertex
 10
83.14596545677208
 20
151.2697052206202
 30
0.0
 70
     8
  0
VERTEX
  5
304A
330
3037
100
AcDbEntity
  8
HILF
100
AcDbVertex
100
AcDb2dVertex
 10
88.14596545677209
 20
227.7697052206207
 30
0.0
 70
    16
  0
VERTEX
  5
304B
330
3037
100
AcDbEntity
  8
HILF
100
AcDbVertex
100
AcDb2dVertex
 10
83.14596545677204
 20
202.2697052206208
 30
0.0
 70
    16
  0
VERTEX
  5
304C
330
3037
100
AcDbEntity
  8
HILF
100
AcDbVertex
100
AcDb2dVertex
 10
78.14596545677208
 20
176.7697052206205
 30
0.0
 70
    16
  0
VERTEX
  5
304D
330
3037
100
AcDbEntity
  8
HILF
100
AcDbVertex
100
AcDb2dVertex
 10
83.14596545677202
 20
151.2697052206205
 30
0.0
 70
    16
  0
SEQEND
  5
304E
330
3037
100
AcDbEntity
  8
HILF
  0
LINE
  5
3086
330
2
100
AcDbEntity
  8
STEMPEL
100
AcDbLine
 10
915.2086353497976
 20
532.2204582928641
 30
0.0
 11
915.2086353497978
 21
585.1310584022886
 31
0.0
  0
LINE
  5
3087
330
2
100
AcDbEntity
  8
VERDECKT
100
AcDbLine
 10
908.2191971589274
 20
525.1310584022868
 30
0.0
 11
915.2086353497976
 21
525.1310584022868
 31
0.0
  0
LINE
  5
3088
330
2
100
AcDbEntity
  8
STEMPEL
100
AcDbLine
 10
810.2086353497977
 20
532.2204582928646
 30
0.0
 11
810.2086353497977
 21
585.1310584022884
 31
0.0
  0
LINE
  5
3089
330
2
100
AcDbEntity
  8
STEMPEL
100
AcDbLine
 10
817.198073540668
 20
525.1310584022871
 30
0.0
 11
908.2191971589274
 21
525.1310584022868
 31
0.0
  0
LINE
  5
308A
330
2
100
AcDbEntity
  8
STEMPEL
100
AcDbLine
 10
222.6059336186207
 20
267.2697052206205
 30
0.0
 11
162.6059336186206
 21
267.2697052206205
 31
0.0
  0
LINE
  5
308B
330
2
100
AcDbEntity
  8
STEMPEL
100
AcDbLine
 10
222.6059336186207
 20
137.2697052206205
 30
0.0
 11
162.6059336186206
 21
137.2697052206205
 31
0.0
  0
DIMENSION
  5
30F5
330
2
100
AcDbEntity
  8
BEM
100
AcDbDimension
  2
*D7
 10
552.7080834986191
 20
642.1310584022867
 30
0.0
 11
544.5830834986189
 21
613.6310584022876
 31
0.0
 70
    32
 71
     5
 42
56.99999999999841
  3
STANDARD
100
AcDbAlignedDimension
 13
447.6059336186202
 23
585.1310584022883
 33
0.0
 14
514.6059336186201
 24
642.1310584022867
 34
0.0
 50
90.0
100
AcDbRotatedDimension
1001
ACAD
1000
DSTYLE
1002
{
1070
    40
1040
2.5
1070
    41
1040
3.5
1070
    42
1040
1.0
1070
    43
1040
7.0
1070
    44
1040
1.0
1070
    47
1040
1.0
1070
    48
1040
1.0
1070
    73
1070
     0
1070
    74
1070
     0
1070
    77
1070
     1
1070
    78
1070
     8
1070
    79
1070
     2
1070
   140
1040
3.5
1070
   141
1040
1.5
1070
   145
1040
0.2857142857142857
1070
   146
1040
0.5142857142857144
1070
   147
1040
1.5
1070
   172
1070
     1
1070
   178
1070
     1
1070
   179
1070
     2
1070
   271
1070
     2
1070
   272
1070
     2
1070
   284
1070
     8
1070
   285
1070
     8
1070
   286
1070
     8
1070
   289
1070
     0
1070
   340
1005
1C
1002
}
  0
DIMENSION
  5
3102
330
2
100
AcDbEntity
  8
BEM
100
AcDbDimension
  2
*D8
 10
552.7080834986191
 20
652.1310584022867
 30
0.0
 11
544.5830834986189
 21
678.3810584022868
 31
0.0
 70
    32
 71
     5
 42
10.0
  3
STANDARD
100
AcDbAlignedDimension
 13
514.6059336186201
 23
642.1310584022867
 33
0.0
 14
532.6059336186201
 24
652.1310584022867
 34
0.0
 50
90.0
100
AcDbRotatedDimension
1001
ACAD
1000
DSTYLE
1002
{
1070
    40
1040
2.5
1070
    41
1040
3.5
1070
    42
1040
1.0
1070
    43
1040
7.0
1070
    44
1040
1.0
1070
    47
1040
1.0
1070
    48
1040
1.0
1070
    73
1070
     0
1070
    74
1070
     0
1070
    77
1070
     1
1070
    78
1070
     8
1070
    79
1070
     2
1070
   140
1040
3.5
1070
   141
1040
1.5
1070
   145
1040
0.2857142857142857
1070
   146
1040
0.5142857142857144
1070
   147
1040
1.5
1070
   172
1070
     1
1070
   178
1070
     1
1070
   179
1070
     2
1070
   271
1070
     2
1070
   272
1070
     2
1070
   284
1070
     8
1070
   285
1070
     8
1070
   286
1070
     8
1070
   289
1070
     0
1070
   340
1005
1C
1002
}
  0
DIMENSION
  5
3178
330
2
100
AcDbEntity
  8
BEM
100
AcDbDimension
  2
*D9
 10
129.2421776363039
 20
512.1310584022876
 30
0.0
 11
121.1171776363038
 21
582.1310584022872
 31
0.0
 70
    32
 71
     5
 42
139.9999999999991
  3
STANDARD
100
AcDbAlignedDimension
 13
162.6059336186208
 23
652.1310584022867
 33
0.0
 14
162.6059336186207
 24
512.1310584022876
 34
0.0
 50
90.0
100
AcDbRotatedDimension
1001
ACAD
1000
DSTYLE
1002
{
1070
    40
1040
2.5
1070
    41
1040
3.5
1070
    42
1040
1.0
1070
    43
1040
7.0
1070
    44
1040
1.0
1070
    47
1040
1.0
1070
    48
1040
1.0
1070
    73
1070
     0
1070
    74
1070
     0
1070
    77
1070
     1
1070
    78
1070
     8
1070
    79
1070
     2
1070
   140
1040
3.5
1070
   141
1040
1.5
1070
   145
1040
0.2857142857142857
1070
   146
1040
0.5142857142857144
1070
   147
1040
1.5
1070
   172
1070
     1
1070
   178
1070
     1
1070
   179
1070
     2
1070
   271
1070
     2
1070
   272
1070
     2
1070
   284
1070
     8
1070
   285
1070
     8
1070
   286
1070
     8
1070
   289
1070
     0
1070
   340
1005
1C
1002
}
  0
DIMENSION
  5
3185
330
2
100
AcDbEntity
  8
BEM
100
AcDbDimension
  2
*D10
 10
927.7086353497976
 20
681.4355678911229
 30
0.0
 11
862.7086353497976
 21
689.5605678911229
 31
0.0
 70
    32
 71
     5
 42
129.9999999999999
  3
STANDARD
100
AcDbAlignedDimension
 13
797.7086353497976
 23
652.1310584022867
 33
0.0
 14
927.7086353497976
 24
652.1310584022867
 34
0.0
100
AcDbRotatedDimension
1001
ACAD
1000
DSTYLE
1002
{
1070
    40
1040
2.5
1070
    41
1040
3.5
1070
    42
1040
1.0
1070
    43
1040
7.0
1070
    44
1040
1.0
1070
    47
1040
1.0
1070
    48
1040
1.0
1070
    73
1070
     0
1070
    74
1070
     0
1070
    77
1070
     1
1070
    78
1070
     8
1070
    79
1070
     2
1070
   140
1040
3.5
1070
   141
1040
1.5
1070
   145
1040
0.2857142857142857
1070
   146
1040
0.5142857142857144
1070
   147
1040
1.5
1070
   172
1070
     1
1070
   178
1070
     1
1070
   179
1070
     2
1070
   271
1070
     2
1070
   272
1070
     2
1070
   284
1070
     8
1070
   285
1070
     8
1070
   286
1070
     8
1070
   289
1070
     0
1070
   340
1005
1C
1002
}
  0
DIMENSION
  5
31AF
330
2
100
AcDbEntity
  8
BEM
100
AcDbDimension
  2
*D11
 10
691.9009836609966
 20
512.1310584022868
 30
0.0
 11
683.7759836609965
 21
582.1310584022869
 31
0.0
 70
    32
 71
     5
 42
139.9999999999999
  3
STANDARD
100
AcDbAlignedDimension
 13
707.7086353497978
 23
652.1310584022867
 33
0.0
 14
852.7086353497978
 24
512.1310584022867
 34
0.0
 50
90.0
100
AcDbRotatedDimension
1001
ACAD
1000
DSTYLE
1002
{
1070
    40
1040
2.5
1070
    41
1040
3.5
1070
    42
1040
1.0
1070
    43
1040
7.0
1070
    44
1040
1.0
1070
    47
1040
1.0
1070
    48
1040
1.0
1070
    73
1070
     0
1070
    74
1070
     0
1070
    77
1070
     1
1070
    78
1070
     8
1070
    79
1070
     2
1070
   140
1040
3.5
1070
   141
1040
1.5
1070
   145
1040
0.2857142857142857
1070
   146
1040
0.5142857142857144
1070
   147
1040
1.5
1070
   172
1070
     1
1070
   178
1070
     1
1070
   179
1070
     2
1070
   271
1070
     2
1070
   272
1070
     2
1070
   284
1070
     8
1070
   285
1070
     8
1070
   286
1070
     8
1070
   289
1070
     0
1070
   340
1005
1C
1002
}
  0
DIMENSION
  5
31FB
330
2
100
AcDbEntity
  8
BEM
100
AcDbDimension
  2
*D12
 10
146.6666375166651
 20
149.7697052206205
 30
0.0
 11
138.5416375166651
 21
202.2697052206205
 31
0.0
 70
    32
 71
     5
 42
105.0
  3
STANDARD
100
AcDbAlignedDimension
 13
222.6059336186208
 23
254.7697052206204
 33
0.0
 14
222.6059336186207
 24
149.7697052206204
 34
0.0
 50
90.0
100
AcDbRotatedDimension
1001
ACAD
1000
DSTYLE
1002
{
1070
    40
1040
2.5
1070
    41
1040
3.5
1070
    42
1040
1.0
1070
    43
1040
7.0
1070
    44
1040
1.0
1070
    47
1040
1.0
1070
    48
1040
1.0
1070
    73
1070
     0
1070
    74
1070
     0
1070
    77
1070
     1
1070
    78
1070
     8
1070
    79
1070
     2
1070
   140
1040
3.5
1070
   141
1040
1.5
1070
   145
1040
0.2857142857142857
1070
   146
1040
0.5142857142857144
1070
   147
1040
1.5
1070
   172
1070
     1
1070
   178
1070
     1
1070
   179
1070
     2
1070
   271
1070
     2
1070
   272
1070
     2
1070
   284
1070
     8
1070
   285
1070
     8
1070
   286
1070
     8
1070
   289
1070
     0
1070
   340
1005
1C
1002
}
  0
DIMENSION
  5
3208
330
2
100
AcDbEntity
  8
BEM
100
AcDbDimension
  2
*D13
 10
125.8262741756311
 20
137.2697052206205
 30
0.0
 11
117.7012741756311
 21
202.2697052206206
 31
0.0
 70
    32
 71
     5
 42
130.0
  3
STANDARD
100
AcDbAlignedDimension
 13
162.6059336186206
 23
267.2697052206205
 33
0.0
 14
162.6059336186206
 24
137.2697052206205
 34
0.0
 50
90.0
100
AcDbRotatedDimension
1001
ACAD
1000
DSTYLE
1002
{
1070
    40
1040
2.5
1070
    41
1040
3.5
1070
    42
1040
1.0
1070
    43
1040
7.0
1070
    44
1040
1.0
1070
    47
1040
1.0
1070
    48
1040
1.0
1070
    73
1070
     0
1070
    74
1070
     0
1070
    77
1070
     1
1070
    78
1070
     8
1070
    79
1070
     2
1070
   140
1040
3.5
1070
   141
1040
1.5
1070
   145
1040
0.2857142857142857
1070
   146
1040
0.5142857142857144
1070
   147
1040
1.5
1070
   172
1070
     1
1070
   178
1070
     1
1070
   179
1070
     2
1070
   271
1070
     2
1070
   272
1070
     2
1070
   284
1070
     8
1070
   285
1070
     8
1070
   286
1070
     8
1070
   289
1070
     0
1070
   340
1005
1C
1002
}
  0
DIMENSION
  5
3216
330
2
100
AcDbEntity
  8
BEM
100
AcDbDimension
  2
*D14
 10
108.2764936753706
 20
124.7697052206202
 30
0.0
 11
100.1514936753706
 21
202.2697052206205
 31
0.0
 70
    32
 71
     5
 42
155.0000000000004
  3
STANDARD
100
AcDbAlignedDimension
 13
222.6059336186208
 23
279.7697052206206
 33
0.0
 14
222.6059336186206
 24
124.7697052206202
 34
0.0
 50
90.0
100
AcDbRotatedDimension
1001
ACAD
1000
DSTYLE
1002
{
1070
    40
1040
2.5
1070
    41
1040
3.5
1070
    42
1040
1.0
1070
    43
1040
7.0
1070
    44
1040
1.0
1070
    47
1040
1.0
1070
    48
1040
1.0
1070
    73
1070
     0
1070
    74
1070
     0
1070
    77
1070
     1
1070
    78
1070
     8
1070
    79
1070
     2
1070
   140
1040
3.5
1070
   141
1040
1.5
1070
   145
1040
0.2857142857142857
1070
   146
1040
0.5142857142857144
1070
   147
1040
1.5
1070
   172
1070
     1
1070
   178
1070
     1
1070
   179
1070
     2
1070
   271
1070
     2
1070
   272
1070
     2
1070
   284
1070
     8
1070
   285
1070
     8
1070
   286
1070
     8
1070
   289
1070
     0
1070
   340
1005
1C
1002
}
  0
DIMENSION
  5
3223
330
2
100
AcDbEntity
  8
BEM
100
AcDbDimension
  2
*D15
 10
88.53299342104765
 20
64.76970522062053
 30
0.0
 11
80.40799342104765
 21
202.2697052206205
 31
0.0
 70
    32
 71
     5
 42
274.9999999999998
  3
STANDARD
100
AcDbAlignedDimension
 13
222.6059336186208
 23
339.7697052206203
 33
0.0
 14
222.6059336186206
 24
64.7697052206205
 34
0.0
 50
90.0
100
AcDbRotatedDimension
1001
ACAD
1000
DSTYLE
1002
{
1070
    40
1040
2.5
1070
    41
1040
3.5
1070
    42
1040
1.0
1070
    43
1040
7.0
1070
    44
1040
1.0
1070
    47
1040
1.0
1070
    48
1040
1.0
1070
    73
1070
     0
1070
    74
1070
     0
1070
    77
1070
     1
1070
    78
1070
     8
1070
    79
1070
     2
1070
   140
1040
3.5
1070
   141
1040
1.5
1070
   145
1040
0.2857142857142857
1070
   146
1040
0.5142857142857144
1070
   147
1040
1.5
1070
   172
1070
     1
1070
   178
1070
     1
1070
   179
1070
     2
1070
   271
1070
     2
1070
   272
1070
     2
1070
   284
1070
     8
1070
   285
1070
     8
1070
   286
1070
     8
1070
   289
1070
     0
1070
   340
1005
1C
1002
}
  0
DIMENSION
  5
3230
330
2
100
AcDbEntity
  8
BEM
100
AcDbDimension
  2
*D16
 10
557.9895985328289
 20
47.26970522062055
 30
0.0
 11
549.8645985328289
 21
202.2697052206205
 31
0.0
 70
    32
 71
     5
 42
309.9999999999996
  3
STANDARD
100
AcDbAlignedDimension
 13
532.6059336186201
 23
357.2697052206202
 33
0.0
 14
532.6059336186201
 24
47.26970522062055
 34
0.0
 50
90.0
100
AcDbRotatedDimension
1001
ACAD
1000
DSTYLE
1002
{
1070
    40
1040
2.5
1070
    41
1040
3.5
1070
    42
1040
1.0
1070
    43
1040
7.0
1070
    44
1040
1.0
1070
    47
1040
1.0
1070
    48
1040
1.0
1070
    73
1070
     0
1070
    74
1070
     0
1070
    77
1070
     1
1070
    78
1070
     8
1070
    79
1070
     2
1070
   140
1040
3.5
1070
   141
1040
1.5
1070
   145
1040
0.2857142857142857
1070
   146
1040
0.5142857142857144
1070
   147
1040
1.5
1070
   172
1070
     1
1070
   178
1070
     1
1070
   179
1070
     2
1070
   271
1070
     2
1070
   272
1070
     2
1070
   284
1070
     8
1070
   285
1070
     8
1070
   286
1070
     8
1070
   289
1070
     0
1070
   340
1005
1C
1002
}
  0
DIMENSION
  5
32EE
330
2
100
AcDbEntity
  8
BEM
100
AcDbDimension
  2
*D17
 10
514.6059336186201
 20
702.5818679278868
 30
0.0
 11
338.6059336186205
 21
710.7068679278868
 31
0.0
 70
    32
 71
     5
 42
351.9999999999994
  3
STANDARD
100
AcDbAlignedDimension
 13
162.6059336186208
 23
652.1310584022867
 33
0.0
 14
514.6059336186201
 24
652.1310584022867
 34
0.0
100
AcDbRotatedDimension
1001
ACAD
1000
DSTYLE
1002
{
1070
    40
1040
2.5
1070
    41
1040
3.5
1070
    42
1040
1.0
1070
    43
1040
7.0
1070
    44
1040
1.0
1070
    47
1040
1.0
1070
    48
1040
1.0
1070
    73
1070
     0
1070
    74
1070
     0
1070
    77
1070
     1
1070
    78
1070
     8
1070
    79
1070
     2
1070
   140
1040
3.5
1070
   141
1040
1.5
1070
   145
1040
0.2857142857142857
1070
   146
1040
0.5142857142857144
1070
   147
1040
1.5
1070
   172
1070
     1
1070
   178
1070
     1
1070
   179
1070
     2
1070
   271
1070
     2
1070
   272
1070
     2
1070
   284
1070
     8
1070
   285
1070
     8
1070
   286
1070
     8
1070
   289
1070
     0
1070
   340
1005
1C
1002
}
  0
DIMENSION
  5
3304
330
2
100
AcDbEntity
  8
BEM
100
AcDbDimension
  2
*D18
 10
222.6059336186208
 20
665.2596742477908
 30
0.0
 11
192.6059336186208
 21
673.3846742477908
 31
0.0
 70
    32
 71
     5
 42
60.0
  3
STANDARD
100
AcDbAlignedDimension
 13
162.6059336186208
 23
652.1310584022867
 33
0.0
 14
222.6059336186208
 24
652.1310584022867
 34
0.0
100
AcDbRotatedDimension
1001
ACAD
1000
DSTYLE
1002
{
1070
    40
1040
2.5
1070
    41
1040
3.5
1070
    42
1040
1.0
1070
    43
1040
7.0
1070
    44
1040
1.0
1070
    47
1040
1.0
1070
    48
1040
1.0
1070
    73
1070
     0
1070
    74
1070
     0
1070
    77
1070
     1
1070
    78
1070
     8
1070
    79
1070
     2
1070
   140
1040
3.5
1070
   141
1040
1.5
1070
   145
1040
0.2857142857142857
1070
   146
1040
0.5142857142857144
1070
   147
1040
1.5
1070
   172
1070
     1
1070
   178
1070
     1
1070
   179
1070
     2
1070
   271
1070
     2
1070
   272
1070
     2
1070
   284
1070
     8
1070
   285
1070
     8
1070
   286
1070
     8
1070
   289
1070
     0
1070
   340
1005
1C
1002
}
  0
DIMENSION
  5
3311
330
2
100
AcDbEntity
  8
BEM
100
AcDbDimension
  2
*D19
 10
111.3430459733135
 20
492.1310584022868
 30
0.0
 11
103.2180459733134
 21
572.1310584022867
 31
0.0
 70
    32
 71
     5
 42
159.9999999999999
  3
STANDARD
100
AcDbAlignedDimension
 13
162.6059336186208
 23
652.1310584022867
 33
0.0
 14
162.6059336186207
 24
492.1310584022867
 34
0.0
 50
90.0
100
AcDbRotatedDimension
1001
ACAD
1000
DSTYLE
1002
{
1070
    40
1040
2.5
1070
    41
1040
3.5
1070
    42
1040
1.0
1070
    43
1040
7.0
1070
    44
1040
1.0
1070
    47
1040
1.0
1070
    48
1040
1.0
1070
    73
1070
     0
1070
    74
1070
     0
1070
    77
1070
     1
1070
    78
1070
     8
1070
    79
1070
     2
1070
   140
1040
3.5
1070
   141
1040
1.5
1070
   145
1040
0.2857142857142857
1070
   146
1040
0.5142857142857144
1070
   147
1040
1.5
1070
   172
1070
     1
1070
   178
1070
     1
1070
   179
1070
     2
1070
   271
1070
     2
1070
   272
1070
     2
1070
   284
1070
     8
1070
   285
1070
     8
1070
   286
1070
     8
1070
   289
1070
     0
1070
   340
1005
1C
1002
}
  0
LINE
  5
3326
330
2
100
AcDbEntity
  8
0
100
AcDbLine
 10
575.0
 20
0.0
 30
0.0
 11
575.0
 21
12.5
 31
0.0
  0
LINE
  5
3327
330
2
100
AcDbEntity
  8
0
100
AcDbLine
 10
575.0
 20
730.0
 30
0.0
 11
575.0
 21
742.4999999999999
 31
0.0
  0
DIMENSION
  5
333F
330
2
100
AcDbEntity
  8
BEM
100
AcDbDimension
  2
*D20
 10
147.4097120779538
 20
525.1310584022873
 30
0.0
 11
139.2847120779537
 21
588.631058402287
 31
0.0
 70
    32
 71
     5
 42
126.9999999999993
  3
STANDARD
100
AcDbAlignedDimension
 13
162.6059336186208
 23
652.1310584022867
 33
0.0
 14
222.6059336186207
 24
525.1310584022873
 34
0.0
 50
90.0
100
AcDbRotatedDimension
1001
ACAD
1000
DSTYLE
1002
{
1070
    40
1040
2.5
1070
    41
1040
3.5
1070
    42
1040
1.0
1070
    43
1040
7.0
1070
    44
1040
1.0
1070
    47
1040
1.0
1070
    48
1040
1.0
1070
    73
1070
     0
1070
    74
1070
     0
1070
    77
1070
     1
1070
    78
1070
     8
1070
    79
1070
     2
1070
   140
1040
3.5
1070
   141
1040
1.5
1070
   145
1040
0.2857142857142857
1070
   146
1040
0.5142857142857144
1070
   147
1040
1.5
1070
   172
1070
     1
1070
   178
1070
     1
1070
   179
1070
     2
1070
   271
1070
     2
1070
   272
1070
     2
1070
   284
1070
     8
1070
   285
1070
     8
1070
   286
1070
     8
1070
   289
1070
     0
1070
   340
1005
1C
1002
}
  0
LINE
  5
3357
330
2
100
AcDbEntity
  8
STEMPEL
100
AcDbLine
 10
852.7086353497978
 20
512.1310584022867
 30
0.0
 11
872.7086353497979
 21
512.1310584022867
 31
0.0
  0
ARC
  5
3358
330
2
100
AcDbEntity
  8
STEMPEL
100
AcDbCircle
 10
852.7086353497978
 20
567.1310584022867
 30
0.0
 40
55.0
100
AcDbArc
 50
180.0
 51
270.0
  0
ARC
  5
3359
330
2
100
AcDbEntity
  8
STEMPEL
100
AcDbCircle
 10
872.7086353497979
 20
567.1310584022867
 30
0.0
 40
55.0
100
AcDbArc
 50
270.0
 51
0.0000000000001184
  0
DIMENSION
  5
34BE
330
2
100
AcDbEntity
  8
BEM
100
AcDbDimension
  2
*D21
 10
552.7080834986191
 20
525.1310584022867
 30
0.0
 11
544.5830834986189
 21
555.1310584022876
 31
0.0
 70
    32
 71
     5
 42
60.00000000000159
  3
STANDARD
100
AcDbAlignedDimension
 13
447.6059336186202
 23
585.1310584022883
 33
0.0
 14
368.6059336186201
 24
525.1310584022867
 34
0.0
 50
90.0
100
AcDbRotatedDimension
1001
ACAD
1000
DSTYLE
1002
{
1070
    40
1040
2.5
1070
    41
1040
3.5
1070
    42
1040
1.0
1070
    43
1040
7.0
1070
    44
1040
1.0
1070
    47
1040
1.0
1070
    48
1040
1.0
1070
    73
1070
     0
1070
    74
1070
     0
1070
    77
1070
     1
1070
    78
1070
     8
1070
    79
1070
     2
1070
   140
1040
3.5
1070
   141
1040
1.5
1070
   145
1040
0.2857142857142857
1070
   146
1040
0.5142857142857144
1070
   147
1040
1.5
1070
   172
1070
     1
1070
   178
1070
     1
1070
   179
1070
     2
1070
   271
1070
     2
1070
   272
1070
     2
1070
   284
1070
     8
1070
   285
1070
     8
1070
   286
1070
     8
1070
   340
1005
1C
1002
}
  0
LINE
  5
34CC
102
{ACAD_REACTORS
330
3546
102
}
330
2
100
AcDbEntity
  8
STEMPEL
100
AcDbLine
 10
447.6059336186202
 20
585.1310584022883
 30
0.0
 11
368.6059336186201
 21
525.1310584022867
 31
0.0
  0
LINE
  5
34D7
330
2
100
AcDbEntity
  8
STEMPEL
100
AcDbLine
 10
368.6059336186201
 20
254.7697052206202
 30
0.0
 11
368.6059336186201
 21
149.7697052206204
 31
0.0
  0
DIMENSION
  5
3506
330
2
100
AcDbEntity
  8
BEM
100
AcDbDimension
  2
*D22
 10
447.6059336186202
 20
682.174247777712
 30
0.0
 11
305.1059336186205
 21
690.299247777712
 31
0.0
 70
    32
 71
     5
 42
284.9999999999994
  3
STANDARD
100
AcDbAlignedDimension
 13
162.6059336186208
 23
652.1310584022867
 33
0.0
 14
447.6059336186202
 24
642.1310584022867
 34
0.0
100
AcDbRotatedDimension
1001
ACAD
1000
DSTYLE
1002
{
1070
    40
1040
2.5
1070
    41
1040
3.5
1070
    42
1040
1.0
1070
    43
1040
7.0
1070
    44
1040
1.0
1070
    47
1040
1.0
1070
    48
1040
1.0
1070
    73
1070
     0
1070
    74
1070
     0
1070
    77
1070
     1
1070
    78
1070
     8
1070
    79
1070
     2
1070
   140
1040
3.5
1070
   141
1040
1.5
1070
   145
1040
0.2857142857142857
1070
   146
1040
0.5142857142857144
1070
   147
1040
1.5
1070
   172
1070
     1
1070
   178
1070
     1
1070
   179
1070
     2
1070
   271
1070
     2
1070
   272
1070
     2
1070
   284
1070
     8
1070
   285
1070
     8
1070
   286
1070
     8
1070
   340
1005
1C
1002
}
  0
HATCH
  5
3546
330
2
100
AcDbEntity
  8
SCHRAFF
100
AcDbHatch
 10
0.0
 20
0.0
 30
0.0
210
0.0
220
0.0
230
1.0
  2
HONEY
 70
     0
 71
     1
 91
        2
 92
        7
 72
     0
 73
     1
 93
        8
 10
532.6059336186203
 20
652.1310584022868
 10
514.6059336186201
 20
652.1310584022868
 10
514.6059336186202
 20
642.1310584022867
 10
447.6059336186202
 20
642.1310584022868
 10
447.6059336186203
 20
585.1310584022884
 10
377.6059336186201
 20
531.9665014402615
 10
377.6059336186202
 20
492.1310584022866
 10
532.6059336186201
 20
492.1310584022868
 97
        8
330
EE5
330
18F
330
153
330
EDE
330
34CC
330
20D5
330
EE6
330
ED9
 92
        7
 72
     0
 73
     1
 93
        7
 10
222.6059336186207
 20
525.1310584022873
 10
222.6059336186207
 20
512.1310584022872
 10
162.6059336186207
 20
512.1310584022876
 10
162.6059336186207
 20
492.1310584022866
 10
377.6059336186202
 20
492.1310584022868
 10
377.6059336186202
 20
531.9665014402615
 10
368.6059336186201
 20
525.1310584022866
 97
        7
330
34CC
330
2DCE
330
1E36
330
2DDA
330
EA3
330
EE6
330
20D5
 75
     0
 76
     1
 52
0.0
 41
40.0
 77
     0
 78
     3
 53
0.0
 43
0.0
 44
0.0
 45
7.5
 46
4.330127
 79
     2
 49
5.0
 49
-10.0
 53
120.0
 43
0.0
 44
0.0
 45
-7.499999983612898
 46
4.330127028383291
 79
     2
 49
5.0
 49
-10.0
 53
60.0
 43
0.0
 44
0.0
 45
0.0000000163871017
 46
8.66025402838329
 79
     2
 49
-10.0
 49
5.0
 47
1.043369960426668
 98
        2
 10
495.2534781625614
 20
601.8347608717922
 10
331.3866786380586
 20
518.3651637402867
  0
DIMENSION
  5
3551
330
2
100
AcDbEntity
  8
BEM
100
AcDbDimension
  2
*D23
 10
810.2086353497977
 20
664.436959672289
 30
0.0
 11
862.7086353497977
 21
672.561959672289
 31
0.0
 70
    32
 71
     5
 42
105.0
  3
STANDARD
100
AcDbAlignedDimension
 13
915.2086353497978
 23
585.1310584022886
 33
0.0
 14
810.2086353497977
 24
585.1310584022884
 34
0.0
100
AcDbRotatedDimension
1001
ACAD
1000
DSTYLE
1002
{
1070
    40
1040
2.5
1070
    41
1040
3.5
1070
    42
1040
1.0
1070
    43
1040
7.0
1070
    44
1040
1.0
1070
    47
1040
1.0
1070
    48
1040
1.0
1070
    73
1070
     0
1070
    74
1070
     0
1070
    77
1070
     1
1070
    78
1070
     8
1070
    79
1070
     2
1070
   140
1040
3.5
1070
   141
1040
1.5
1070
   145
1040
0.2857142857142857
1070
   146
1040
0.5142857142857144
1070
   147
1040
1.5
1070
   172
1070
     1
1070
   178
1070
     1
1070
   179
1070
     2
1070
   271
1070
     2
1070
   272
1070
     2
1070
   284
1070
     8
1070
   285
1070
     8
1070
   286
1070
     8
1070
   340
1005
1C
1002
}
  0
ENDSEC
  0
SECTION
  2
OBJECTS
  0
DICTIONARY
  5
1A
330
0
100
AcDbDictionary
281
     1
  3
ACAD_COLOR
350
273C
  3
ACAD_GROUP
350
18
  3
ACAD_LAYOUT
350
17C9
  3
ACAD_MATERIAL
350
273B
  3
ACAD_MLINESTYLE
350
19
  3
ACAD_PLOTSETTINGS
350
17CA
  3
ACAD_PLOTSTYLENAME
350
17C7
  3
ACDBVARIABLEDICTIONARY
350
3E9
  0
DICTIONARY
  5
273C
102
{ACAD_REACTORS
330
1A
102
}
330
1A
100
AcDbDictionary
281
     1
  0
DICTIONARY
  5
18
102
{ACAD_REACTORS
330
1A
102
}
330
1A
100
AcDbDictionary
281
     1
  0
DICTIONARY
  5
17C9
102
{ACAD_REACTORS
330
1A
102
}
330
1A
100
AcDbDictionary
281
     1
  3
Layout1
350
17CC
  3
Model
350
17CB
  0
DICTIONARY
  5
273B
102
{ACAD_REACTORS
330
1A
102
}
330
1A
100
AcDbDictionary
281
     1
  0
DICTIONARY
  5
19
102
{ACAD_REACTORS
330
1A
102
}
330
1A
100
AcDbDictionary
281
     1
  3
STANDARD
350
1D
  0
DICTIONARY
  5
17CA
102
{ACAD_REACTORS
330
1A
102
}
330
1A
100
AcDbDictionary
281
     1
  0
ACDBDICTIONARYWDFLT
  5
17C7
102
{ACAD_REACTORS
330
1A
102
}
330
1A
100
AcDbDictionary
281
     1
  3
Normal
350
17C8
100
AcDbDictionaryWithDefault
340
17C8
  0
DICTIONARY
  5
3E9
102
{ACAD_REACTORS
330
1A
102
}
330
1A
100
AcDbDictionary
281
     1
  3
DIMASSOC
350
2764
  3
PROJECTNAME
350
2765
  3
SORTENTS
350
3EA
  0
LAYOUT
  5
17CC
102
{ACAD_REACTORS
330
17C9
102
}
330
17C9
100
AcDbPlotSettings
  1

  2
HP LaserJet 5000 N PS
  4

  6

 40
0.0
 41
0.0
 42
0.0
 43
0.0
 44
0.0
 45
0.0
 46
0.0
 47
0.0
 48
0.0
 49
0.0
140
0.0
141
0.0
142
1.0
143
1.0
 70
   688
 72
     0
 73
     0
 74
     5
  7
monochrome.ctb
 75
    16
147
1.0
 76
     0
 77
     2
 78
   300
148
0.0
149
0.0
100
AcDbLayout
  1
Layout1
 70
     0
 71
     1
 10
0.0
 20
0.0
 11
12.0
 21
9.0
 12
0.0
 22
0.0
 32
0.0
 14
1.000000000000000E+20
 24
1.000000000000000E+20
 34
1.000000000000000E+20
 15
-1.000000000000000E+20
 25
-1.000000000000000E+20
 35
-1.000000000000000E+20
146
0.0
 13
0.0
 23
0.0
 33
0.0
 16
1.0
 26
0.0
 36
0.0
 17
0.0
 27
1.0
 37
0.0
 76
     0
330
7
  0
LAYOUT
  5
17CB
102
{ACAD_REACTORS
330
17C9
102
}
330
17C9
100
AcDbPlotSettings
  1

  2
Tektronix Phaser 740  Büro 2000
  4
A4
  6

 40
5.873749732971191
 41
6.085414409637451
 42
5.577407836914062
 43
5.662078857421875
 44
209.9733276367187
 45
296.9683227539062
 46
0.0
 47
0.0
 48
0.0
 49
0.0
140
0.0
141
0.0
142
1.0
143
4.231265453713354
 70
 28336
 72
     1
 73
     0
 74
     2
  7
monochrome.ctb
 75
     0
147
0.2363359167462304
 76
     0
 77
     2
 78
   300
148
0.0
149
0.0
100
AcDbLayout
  1
Model
 70
     1
 71
     0
 10
0.0
 20
0.0
 11
12.0
 21
9.0
 12
0.0
 22
0.0
 32
0.0
 14
0.0
 24
0.0
 34
0.0
 15
0.0
 25
0.0
 35
0.0
146
0.0
 13
0.0
 23
0.0
 33
0.0
 16
1.0
 26
0.0
 36
0.0
 17
0.0
 27
1.0
 37
0.0
 76
     0
330
2
  0
MLINESTYLE
  5
1D
102
{ACAD_REACTORS
330
19
102
}
330
19
100
AcDbMlineStyle
  2
STANDARD
 70
     0
  3

 62
   256
 51
90.0
 52
90.0
 71
     2
 49
0.5
 62
   256
  6
BYLAYER
 49
-0.5
 62
   256
  6
BYLAYER
  0
ACDBPLACEHOLDER
  5
17C8
102
{ACAD_REACTORS
330
17C7
102
}
330
17C7
  0
DICTIONARYVAR
  5
2764
102
{ACAD_REACTORS
330
3E9
102
}
330
3E9
100
DictionaryVariables
280
     0
  1
1
  0
DICTIONARYVAR
  5
2765
102
{ACAD_REACTORS
330
3E9
102
}
330
3E9
100
DictionaryVariables
280
     0
  1

  0
DICTIONARYVAR
  5
3EA
102
{ACAD_REACTORS
330
3E9
102
}
330
3E9
100
DictionaryVariables
280
     0
  1
96
  0
ENDSEC
  0
EOF
