  0
SECTION
  2
HEADER
  9
$ACADVER
  1
AC1018
  9
$ACADMAINTVER
 70
     2
  9
$DWGCODEPAGE
  3
ANSI_1252
  9
$INSBASE
 10
0.0
 20
0.0
 30
0.0
  9
$EXTMIN
 10
-0.02563359212877
 20
-0.0362532231533805
 30
-0.0000000349181948
  9
$EXTMAX
 10
420.0256375038029
 20
594.0362587553789
 30
0.0000000814935746
  9
$LIMMIN
 10
0.0
 20
0.0
  9
$LIMMAX
 10
419.9999999999999
 20
594.0000000000002
  9
$ORTHOMODE
 70
     1
  9
$REGENMODE
 70
     1
  9
$FILLMODE
 70
     1
  9
$QTEXTMODE
 70
     0
  9
$MIRRTEXT
 70
     1
  9
$LTSCALE
 40
20.0
  9
$ATTMODE
 70
     1
  9
$TEXTSIZE
 40
2.5
  9
$TRACEWID
 40
0.5
  9
$TEXTSTYLE
  7
GREEKS
  9
$CLAYER
  8
SCHRAFF
  9
$CELTYPE
  6
BYLAYER
  9
$CECOLOR
 62
   256
  9
$CELTSCALE
 40
1.0
  9
$DISPSILH
 70
     0
  9
$DIMSCALE
 40
2.0
  9
$DIMASZ
 40
3.5
  9
$DIMEXO
 40
1.0
  9
$DIMDLI
 40
7.0
  9
$DIMRND
 40
0.0
  9
$DIMDLE
 40
0.0
  9
$DIMEXE
 40
1.0
  9
$DIMTP
 40
0.0
  9
$DIMTM
 40
0.0
  9
$DIMTXT
 40
3.5
  9
$DIMCEN
 40
1.5
  9
$DIMTSZ
 40
0.0
  9
$DIMTOL
 70
     0
  9
$DIMLIM
 70
     0
  9
$DIMTIH
 70
     0
  9
$DIMTOH
 70
     0
  9
$DIMSE1
 70
     0
  9
$DIMSE2
 70
     0
  9
$DIMTAD
 70
     1
  9
$DIMZIN
 70
     8
  9
$DIMBLK
  1

  9
$DIMASO
 70
     1
  9
$DIMSHO
 70
     0
  9
$DIMPOST
  1

  9
$DIMAPOST
  1

  9
$DIMALT
 70
     0
  9
$DIMALTD
 70
     2
  9
$DIMALTF
 40
25.4
  9
$DIMLFAC
 40
1.0
  9
$DIMTOFL
 70
     1
  9
$DIMTVP
 40
0.0
  9
$DIMTIX
 70
     0
  9
$DIMSOXD
 70
     0
  9
$DIMSAH
 70
     0
  9
$DIMBLK1
  1

  9
$DIMBLK2
  1

  9
$DIMSTYLE
  2
STANDARD
  9
$DIMCLRD
 70
     0
  9
$DIMCLRE
 70
     0
  9
$DIMCLRT
 70
     1
  9
$DIMTFAC
 40
0.5142857142857144
  9
$DIMGAP
 40
1.5
  9
$DIMJUST
 70
     0
  9
$DIMSD1
 70
     0
  9
$DIMSD2
 70
     0
  9
$DIMTOLJ
 70
     1
  9
$DIMTZIN
 70
     8
  9
$DIMALTZ
 70
     8
  9
$DIMALTTZ
 70
     8
  9
$DIMUPT
 70
     0
  9
$DIMDEC
 70
     2
  9
$DIMTDEC
 70
     2
  9
$DIMALTU
 70
     2
  9
$DIMALTTD
 70
     2
  9
$DIMTXSTY
  7
GREEKS
  9
$DIMAUNIT
 70
     0
  9
$DIMADEC
 70
     2
  9
$DIMALTRND
 40
0.0
  9
$DIMAZIN
 70
     2
  9
$DIMDSEP
 70
    46
  9
$DIMATFIT
 70
     0
  9
$DIMFRAC
 70
     0
  9
$DIMLDRBLK
  1

  9
$DIMLUNIT
 70
     2
  9
$DIMLWD
 70
    -2
  9
$DIMLWE
 70
    -2
  9
$DIMTMOVE
 70
     0
  9
$LUNITS
 70
     2
  9
$LUPREC
 70
     2
  9
$SKETCHINC
 40
1.0
  9
$FILLETRAD
 40
0.0
  9
$AUNITS
 70
     0
  9
$AUPREC
 70
     0
  9
$MENU
  1
ACAD
  9
$ELEVATION
 40
0.0
  9
$PELEVATION
 40
0.0
  9
$THICKNESS
 40
0.0
  9
$LIMCHECK
 70
     0
  9
$CHAMFERA
 40
0.0
  9
$CHAMFERB
 40
0.0
  9
$CHAMFERC
 40
0.0
  9
$CHAMFERD
 40
0.0
  9
$SKPOLY
 70
     0
  9
$TDCREATE
 40
2452380.471036111
  9
$TDUCREATE
 40
2452380.429369445
  9
$TDUPDATE
 40
2455638.348291250
  9
$TDUUPDATE
 40
2455638.306624583
  9
$TDINDWG
 40
0.3070623611
  9
$TDUSRTIMER
 40
0.3070623611
  9
$USRTIMER
 70
     1
  9
$ANGBASE
 50
0.0
  9
$ANGDIR
 70
     0
  9
$PDMODE
 70
     0
  9
$PDSIZE
 40
0.0
  9
$PLINEWID
 40
0.0
  9
$SPLFRAME
 70
     0
  9
$SPLINETYPE
 70
     6
  9
$SPLINESEGS
 70
     8
  9
$HANDSEED
  5
1769
  9
$SURFTAB1
 70
     6
  9
$SURFTAB2
 70
     6
  9
$SURFTYPE
 70
     6
  9
$SURFU
 70
     6
  9
$SURFV
 70
     6
  9
$UCSBASE
  2

  9
$UCSNAME
  2

  9
$UCSORG
 10
0.0
 20
0.0
 30
0.0
  9
$UCSXDIR
 10
1.0
 20
0.0
 30
0.0
  9
$UCSYDIR
 10
0.0
 20
1.0
 30
0.0
  9
$UCSORTHOREF
  2

  9
$UCSORTHOVIEW
 70
     0
  9
$UCSORGTOP
 10
0.0
 20
0.0
 30
0.0
  9
$UCSORGBOTTOM
 10
0.0
 20
0.0
 30
0.0
  9
$UCSORGLEFT
 10
0.0
 20
0.0
 30
0.0
  9
$UCSORGRIGHT
 10
0.0
 20
0.0
 30
0.0
  9
$UCSORGFRONT
 10
0.0
 20
0.0
 30
0.0
  9
$UCSORGBACK
 10
0.0
 20
0.0
 30
0.0
  9
$PUCSBASE
  2

  9
$PUCSNAME
  2

  9
$PUCSORG
 10
0.0
 20
0.0
 30
0.0
  9
$PUCSXDIR
 10
1.0
 20
0.0
 30
0.0
  9
$PUCSYDIR
 10
0.0
 20
1.0
 30
0.0
  9
$PUCSORTHOREF
  2

  9
$PUCSORTHOVIEW
 70
     0
  9
$PUCSORGTOP
 10
0.0
 20
0.0
 30
0.0
  9
$PUCSORGBOTTOM
 10
0.0
 20
0.0
 30
0.0
  9
$PUCSORGLEFT
 10
0.0
 20
0.0
 30
0.0
  9
$PUCSORGRIGHT
 10
0.0
 20
0.0
 30
0.0
  9
$PUCSORGFRONT
 10
0.0
 20
0.0
 30
0.0
  9
$PUCSORGBACK
 10
0.0
 20
0.0
 30
0.0
  9
$USERI1
 70
     0
  9
$USERI2
 70
     0
  9
$USERI3
 70
     0
  9
$USERI4
 70
     0
  9
$USERI5
 70
     0
  9
$USERR1
 40
0.0
  9
$USERR2
 40
0.0
  9
$USERR3
 40
0.0
  9
$USERR4
 40
0.0
  9
$USERR5
 40
0.0
  9
$WORLDVIEW
 70
     1
  9
$SHADEDGE
 70
     3
  9
$SHADEDIF
 70
    70
  9
$TILEMODE
 70
     1
  9
$MAXACTVP
 70
    16
  9
$PINSBASE
 10
0.0
 20
0.0
 30
0.0
  9
$PLIMCHECK
 70
     0
  9
$PEXTMIN
 10
1.000000000000000E+20
 20
1.000000000000000E+20
 30
1.000000000000000E+20
  9
$PEXTMAX
 10
-1.000000000000000E+20
 20
-1.000000000000000E+20
 30
-1.000000000000000E+20
  9
$PLIMMIN
 10
0.0
 20
0.0
  9
$PLIMMAX
 10
12.0
 20
9.0
  9
$UNITMODE
 70
     0
  9
$VISRETAIN
 70
     0
  9
$PLINEGEN
 70
     0
  9
$PSLTSCALE
 70
     0
  9
$TREEDEPTH
 70
  3020
  9
$CMLSTYLE
  2
STANDARD
  9
$CMLJUST
 70
     0
  9
$CMLSCALE
 40
1.0
  9
$PROXYGRAPHICS
 70
     1
  9
$MEASUREMENT
 70
     0
  9
$CELWEIGHT
370
    -1
  9
$ENDCAPS
280
     0
  9
$JOINSTYLE
280
     0
  9
$LWDISPLAY
290
     0
  9
$INSUNITS
 70
     0
  9
$HYPERLINKBASE
  1

  9
$STYLESHEET
  1
monochrome1.ctb
  9
$XEDIT
290
     1
  9
$CEPSNTYPE
380
     0
  9
$PSTYLEMODE
290
     1
  9
$FINGERPRINTGUID
  2
{42E01975-C286-11D7-804E-000021C090BC}
  9
$VERSIONGUID
  2
{52065337-3C39-4661-8CEC-F540060007E4}
  9
$EXTNAMES
290
     1
  9
$PSVPSCALE
 40
0.0
  9
$OLESTARTUP
290
     0
  9
$SORTENTS
280
    96
  9
$INDEXCTL
280
     0
  9
$HIDETEXT
280
     0
  9
$XCLIPFRAME
290
     0
  9
$HALOGAP
280
     0
  9
$OBSCOLOR
 70
   257
  9
$OBSLTYPE
280
     0
  9
$INTERSECTIONDISPLAY
280
     0
  9
$INTERSECTIONCOLOR
 70
   257
  9
$DIMASSOC
280
     1
  9
$PROJECTNAME
  1

  0
ENDSEC
  0
SECTION
  2
CLASSES
  0
CLASS
  1
DICTIONARYVAR
  2
AcDbDictionaryVar
  3
ObjectDBX Classes
 90
        0
 91
        4
280
     0
281
     0
  0
CLASS
  1
ACDBDICTIONARYWDFLT
  2
AcDbDictionaryWithDefault
  3
ObjectDBX Classes
 90
        0
 91
        1
280
     0
281
     0
  0
ENDSEC
  0
SECTION
  2
TABLES
  0
TABLE
  2
VPORT
  5
36D
330
0
100
AcDbSymbolTable
 70
     2
  0
VPORT
  5
1768
330
36D
100
AcDbSymbolTableRecord
100
AcDbViewportTableRecord
  2
*Active
 70
     0
 10
0.0
 20
0.0
 11
1.0
 21
1.0
 12
210.0000019558371
 22
297.0000027661128
 13
0.0
 23
0.0
 14
1.0
 24
1.0
 15
10.0
 25
10.0
 16
0.0
 26
0.0
 36
1.0
 17
0.0
 27
0.0
 37
0.0
 40
598.8698673915487
 41
1.334231805929919
 42
50.0
 43
0.0
 44
0.0
 50
0.0
 51
0.0
 71
     0
 72
  1500
 73
     1
 74
     0
 75
     0
 76
     0
 77
     0
 78
     0
281
     0
 65
     1
110
0.0
120
0.0
130
0.0
111
1.0
121
0.0
131
0.0
112
0.0
122
1.0
132
0.0
 79
     0
146
0.0
  0
ENDTAB
  0
TABLE
  2
LTYPE
  5
36A
330
0
100
AcDbSymbolTable
 70
     3
  0
LTYPE
  5
376
330
36A
100
AcDbSymbolTableRecord
100
AcDbLinetypeTableRecord
  2
BYBLOCK
 70
     0
  3

 72
    65
 73
     0
 40
0.0
  0
LTYPE
  5
377
330
36A
100
AcDbSymbolTableRecord
100
AcDbLinetypeTableRecord
  2
BYLAYER
 70
     0
  3

 72
    65
 73
     0
 40
0.0
  0
LTYPE
  5
378
330
36A
100
AcDbSymbolTableRecord
100
AcDbLinetypeTableRecord
  2
AUSGEZOGEN
 70
     0
  3
Ausgezogene Linie
 72
    65
 73
     0
 40
0.0
  0
LTYPE
  5
38E
330
36A
100
AcDbSymbolTableRecord
100
AcDbLinetypeTableRecord
  2
STRICHPUNKT
 70
     0
  3
__ . __ . __ . __ . __ . __ . __ . __ . __ . __
 72
    65
 73
     4
 40
1.0
 49
0.5
 74
     0
 49
-0.25
 74
     0
 49
0.0
 74
     0
 49
-0.25
 74
     0
  0
LTYPE
  5
38F
330
36A
100
AcDbSymbolTableRecord
100
AcDbLinetypeTableRecord
  2
CONTINUOUS
 70
     0
  3
Solid line
 72
    65
 73
     0
 40
0.0
  0
ENDTAB
  0
TABLE
  2
LAYER
  5
367
330
0
100
AcDbSymbolTable
 70
     9
  0
LAYER
  5
373
330
367
100
AcDbSymbolTableRecord
100
AcDbLayerTableRecord
  2
0
 70
     0
 62
     7
  6
AUSGEZOGEN
370
    -3
390
CE8
  0
LAYER
  5
392
330
367
100
AcDbSymbolTableRecord
100
AcDbLayerTableRecord
  2
VOLL
 70
     0
 62
     1
  6
AUSGEZOGEN
370
    -3
390
CE8
  0
LAYER
  5
393
330
367
100
AcDbSymbolTableRecord
100
AcDbLayerTableRecord
  2
HILF
 70
     0
 62
     2
  6
AUSGEZOGEN
370
    -3
390
CE8
  0
LAYER
  5
394
330
367
100
AcDbSymbolTableRecord
100
AcDbLayerTableRecord
  2
MITTEL
 70
     0
 62
     2
  6
STRICHPUNKT
370
    -3
390
CE8
  0
LAYER
  5
395
330
367
100
AcDbSymbolTableRecord
100
AcDbLayerTableRecord
  2
BEM
 70
     0
 62
     7
  6
AUSGEZOGEN
370
    -3
390
CE8
  0
LAYER
  5
396
330
367
100
AcDbSymbolTableRecord
100
AcDbLayerTableRecord
  2
STEMPEL
 70
     0
 62
     3
  6
AUSGEZOGEN
370
    -3
390
CE8
  0
LAYER
  5
397
330
367
100
AcDbSymbolTableRecord
100
AcDbLayerTableRecord
  2
TEXT
 70
     0
 62
     7
  6
AUSGEZOGEN
370
    -3
390
CE8
  0
LAYER
  5
398
330
367
100
AcDbSymbolTableRecord
100
AcDbLayerTableRecord
  2
DEFPOINTS
 70
     0
 62
     7
  6
AUSGEZOGEN
290
     0
370
    -3
390
CE8
  0
LAYER
  5
399
330
367
100
AcDbSymbolTableRecord
100
AcDbLayerTableRecord
  2
SCHRAFF
 70
     0
 62
     7
  6
AUSGEZOGEN
370
    -3
390
CE8
  0
ENDTAB
  0
TABLE
  2
STYLE
  5
368
330
0
100
AcDbSymbolTable
 70
     2
  0
STYLE
  5
374
330
368
100
AcDbSymbolTableRecord
100
AcDbTextStyleTableRecord
  2
STANDARD
 70
     0
 40
0.0
 41
1.0
 50
0.0
 71
     0
 42
3.5
  3
txt
  4

  0
STYLE
  5
38D
330
368
100
AcDbSymbolTableRecord
100
AcDbTextStyleTableRecord
  2
GREEKS
 70
     0
 40
0.0
 41
0.8
 50
0.0
 71
     0
 42
2.5
  3
SIMPLEX.shx
  4

  0
ENDTAB
  0
TABLE
  2
VIEW
  5
36B
330
0
100
AcDbSymbolTable
 70
     0
  0
ENDTAB
  0
TABLE
  2
UCS
  5
36C
330
0
100
AcDbSymbolTable
 70
     0
  0
ENDTAB
  0
TABLE
  2
APPID
  5
36E
330
0
100
AcDbSymbolTable
 70
     1
  0
APPID
  5
375
330
36E
100
AcDbSymbolTableRecord
100
AcDbRegAppTableRecord
  2
ACAD
 70
     0
  0
ENDTAB
  0
TABLE
  2
DIMSTYLE
  5
36F
330
0
100
AcDbSymbolTable
 70
     1
100
AcDbDimStyleTable
 71
     1
340
391
  0
DIMSTYLE
105
391
102
{ACAD_REACTORS
330
F5D
330
1023
330
EC1
330
EB4
330
16C6
330
16C8
102
}
330
36F
100
AcDbSymbolTableRecord
100
AcDbDimStyleTableRecord
  2
STANDARD
 70
     0
271
     2
272
     2
279
     2
284
     8
285
     8
286
     8
340
38D
  0
ENDTAB
  0
TABLE
  2
BLOCK_RECORD
  5
366
330
0
100
AcDbSymbolTable
 70
     8
  0
BLOCK_RECORD
  5
37C
330
366
100
AcDbSymbolTableRecord
100
AcDbBlockTableRecord
  2
*MODEL_SPACE
340
CEB
  0
BLOCK_RECORD
  5
379
330
366
100
AcDbSymbolTableRecord
100
AcDbBlockTableRecord
  2
*PAPER_SPACE
340
CEC
  0
BLOCK_RECORD
  5
381
330
366
100
AcDbSymbolTableRecord
100
AcDbBlockTableRecord
  2
LOGO
340
0
102
{BLKREFS
331
225
102
}
  0
BLOCK_RECORD
  5
EB5
330
366
100
AcDbSymbolTableRecord
100
AcDbBlockTableRecord
  2
*D1
340
0
  0
BLOCK_RECORD
  5
EC2
330
366
100
AcDbSymbolTableRecord
100
AcDbBlockTableRecord
  2
*D2
340
0
  0
BLOCK_RECORD
  5
F5E
330
366
100
AcDbSymbolTableRecord
100
AcDbBlockTableRecord
  2
*D3
340
0
  0
BLOCK_RECORD
  5
1024
330
366
100
AcDbSymbolTableRecord
100
AcDbBlockTableRecord
  2
*D4
340
0
  0
BLOCK_RECORD
  5
10F3
330
366
100
AcDbSymbolTableRecord
100
AcDbBlockTableRecord
  2
*X5
340
0
102
{BLKREFS
331
133C
102
}
  0
BLOCK_RECORD
  5
16D1
330
366
100
AcDbSymbolTableRecord
100
AcDbBlockTableRecord
  2
*D6
340
0
  0
BLOCK_RECORD
  5
16DD
330
366
100
AcDbSymbolTableRecord
100
AcDbBlockTableRecord
  2
*D7
340
0
  0
ENDTAB
  0
ENDSEC
  0
SECTION
  2
BLOCKS
  0
BLOCK
  5
39C
330
37C
100
AcDbEntity
  8
0
100
AcDbBlockBegin
  2
*MODEL_SPACE
 70
     0
 10
0.0
 20
0.0
 30
0.0
  3
*MODEL_SPACE
  1

  0
ENDBLK
  5
39D
330
37C
100
AcDbEntity
  8
0
100
AcDbBlockEnd
  0
BLOCK
  5
39A
330
379
100
AcDbEntity
 67
     1
  8
0
100
AcDbBlockBegin
  2
*PAPER_SPACE
 70
     0
 10
0.0
 20
0.0
 30
0.0
  3
*PAPER_SPACE
  1

  0
ENDBLK
  5
39B
330
379
100
AcDbEntity
 67
     1
  8
0
100
AcDbBlockEnd
  0
BLOCK
  5
3A
330
381
100
AcDbEntity
  8
0
100
AcDbBlockBegin
  2
LOGO
 70
     0
 10
0.0
 20
0.0
 30
0.0
  3
LOGO
  1

  0
ARC
  5
3B
330
381
100
AcDbEntity
  8
0
100
AcDbCircle
 10
11.59973089678112
 20
-9.271599258481501
 30
0.0
 40
4.5
100
AcDbArc
 50
270.0
 51
231.0575587310159
  0
LINE
  5
3C
330
381
100
AcDbEntity
  8
0
100
AcDbLine
 10
3.599730896781125
 20
-4.771599258481529
 30
0.0
 11
3.599730896781153
 21
-11.77159925848133
 31
0.0
  0
LINE
  5
3D
330
381
100
AcDbEntity
  8
0
100
AcDbLine
 10
2.599730896781125
 20
-4.771599258481529
 30
0.0
 11
2.599730896781153
 21
-11.77159925848133
 31
0.0
  0
CIRCLE
  5
3E
330
381
100
AcDbEntity
  8
0
100
AcDbCircle
 10
11.59973089678112
 20
-9.271599258481501
 30
0.0
 40
3.5
  0
ARC
  5
3F
330
381
100
AcDbEntity
  8
0
100
AcDbCircle
 10
31.59973089678115
 20
-9.271599258481472
 30
0.0
 40
4.5
100
AcDbArc
 50
270.0
 51
231.0575587310182
  0
LINE
  5
40
330
381
100
AcDbEntity
  8
0
100
AcDbLine
 10
17.59973089678112
 20
-4.771599258481472
 30
0.0
 11
17.59973089678115
 21
-13.77159925848147
 31
0.0
  0
ARC
  5
41
330
381
100
AcDbEntity
  8
0
100
AcDbCircle
 10
22.59973089678116
 20
-7.271599258481472
 30
0.0
 40
2.5
100
AcDbArc
 50
293.1161887722295
 51
90.0
  0
CIRCLE
  5
42
330
381
100
AcDbEntity
  8
0
100
AcDbCircle
 10
31.59973089678115
 20
-9.271599258481472
 30
0.0
 40
3.5
  0
ARC
  5
43
330
381
100
AcDbEntity
  8
0
100
AcDbCircle
 10
4.599730896781153
 20
-11.77159925848133
 30
0.0
 40
1.0
100
AcDbArc
 50
180.0
 51
270.0
  0
ARC
  5
44
330
381
100
AcDbEntity
  8
0
100
AcDbCircle
 10
4.599730896781153
 20
-11.77159925848133
 30
0.0
 40
2.0
100
AcDbArc
 50
179.9999999999992
 51
270.0
  0
LINE
  5
45
330
381
100
AcDbEntity
  8
0
100
AcDbLine
 10
11.59973089678115
 20
-13.77159925848144
 30
0.0
 11
4.599730896781153
 21
-13.77159925848147
 31
0.0
  0
LINE
  5
46
330
381
100
AcDbEntity
  8
0
100
AcDbLine
 10
8.771303772034769
 20
-12.77159925848136
 30
0.0
 11
4.599730896781153
 21
-12.77159925848133
 31
0.0
  0
LINE
  5
47
330
381
100
AcDbEntity
  8
0
100
AcDbLine
 10
31.59973089678115
 20
-13.77159925848147
 30
0.0
 11
23.6715276665056
 21
-13.77159925848144
 31
0.0
  0
LINE
  5
48
330
381
100
AcDbEntity
  8
0
100
AcDbLine
 10
23.56565672307022
 20
-9.51278021337896
 30
0.0
 11
24.4388546544846
 21
-12.77159925848144
 31
0.0
  0
LINE
  5
49
330
381
100
AcDbEntity
  8
0
100
AcDbLine
 10
22.59973089678116
 20
-9.771599258481472
 30
0.0
 11
18.59973089678112
 21
-9.771599258481472
 31
0.0
  0
LINE
  5
4A
330
381
100
AcDbEntity
  8
0
100
AcDbLine
 10
18.59973089678115
 20
-13.77159925848144
 30
0.0
 11
17.59973089678115
 21
-13.77159925848144
 31
0.0
  0
LINE
  5
4B
330
381
100
AcDbEntity
  8
0
100
AcDbLine
 10
18.59973089678115
 20
-9.771599258481472
 30
0.0
 11
18.59973089678115
 21
-13.77159925848144
 31
0.0
  0
LINE
  5
4C
330
381
100
AcDbEntity
  8
0
100
AcDbLine
 10
22.59973089678116
 20
-9.771599258481472
 30
0.0
 11
23.67152766650562
 21
-13.77159925848147
 31
0.0
  0
ARC
  5
4D
330
381
100
AcDbEntity
  8
0
100
AcDbCircle
 10
22.59973089678116
 20
-7.271599258481472
 30
0.0
 40
2.5
100
AcDbArc
 50
270.0
 51
270.0000000000007
  0
LINE
  5
4E
330
381
100
AcDbEntity
  8
0
100
AcDbLine
 10
28.77130377203494
 20
-12.77159925848147
 30
0.0
 11
24.43885465448463
 21
-12.77159925848144
 31
0.0
  0
LINE
  5
4F
330
381
100
AcDbEntity
  8
0
100
AcDbLine
 10
3.599730896781125
 20
-4.771599258481472
 30
0.0
 11
2.599730896781125
 21
-4.771599258481472
 31
0.0
  0
LINE
  5
50
330
381
100
AcDbEntity
  8
0
100
AcDbLine
 10
22.59973089678116
 20
-8.771599258481472
 30
0.0
 11
18.59973089678115
 21
-8.771599258481472
 31
0.0
  0
LINE
  5
51
330
381
100
AcDbEntity
  8
0
100
AcDbLine
 10
22.59973089678116
 20
-5.771599258481472
 30
0.0
 11
18.59973089678115
 21
-5.771599258481472
 31
0.0
  0
LINE
  5
52
330
381
100
AcDbEntity
  8
0
100
AcDbLine
 10
22.59973089678116
 20
-4.771599258481472
 30
0.0
 11
17.59973089678115
 21
-4.771599258481472
 31
0.0
  0
LINE
  5
53
330
381
100
AcDbEntity
  8
0
100
AcDbLine
 10
18.59973089678115
 20
-5.771599258481472
 30
0.0
 11
18.59973089678115
 21
-8.771599258481472
 31
0.0
  0
ARC
  5
54
330
381
100
AcDbEntity
  8
0
100
AcDbCircle
 10
22.59973089678116
 20
-7.271599258481472
 30
0.0
 40
1.5
100
AcDbArc
 50
270.0
 51
90.0
  0
ENDBLK
  5
55
330
381
100
AcDbEntity
  8
0
100
AcDbBlockEnd
  0
BLOCK
  5
EBF
330
EB5
100
AcDbEntity
  8
0
100
AcDbBlockBegin
  2
*D1
 70
     1
 10
0.0
 20
0.0
 30
0.0
  3
*D1
  1

  0
LINE
  5
172D
330
EB5
100
AcDbEntity
  8
BEM
 62
     0
370
    -2
100
AcDbLine
 10
160.3590718022274
 20
461.3549524503462
 30
0.0
 11
160.3590718022274
 21
489.9880995279543
 31
0.0
  0
LINE
  5
172E
330
EB5
100
AcDbEntity
  8
BEM
 62
     0
370
    -2
100
AcDbLine
 10
305.3590718022274
 20
461.3549524503462
 30
0.0
 11
305.3590718022274
 21
489.9880995279543
 31
0.0
  0
LINE
  5
172F
330
EB5
100
AcDbEntity
  8
BEM
 62
     0
370
    -2
100
AcDbLine
 10
167.3590718022274
 20
487.9880995279543
 30
0.0
 11
298.3590718022274
 21
487.9880995279543
 31
0.0
  0
SOLID
  5
1730
330
EB5
100
AcDbEntity
  8
BEM
 62
     0
100
AcDbTrace
 10
167.3590718022274
 20
489.1547661946209
 30
0.0
 11
167.3590718022274
 21
486.8214328612876
 31
0.0
 12
160.3590718022274
 22
487.9880995279543
 32
0.0
 13
160.3590718022274
 23
487.9880995279543
 33
0.0
  0
SOLID
  5
1731
330
EB5
100
AcDbEntity
  8
BEM
 62
     0
100
AcDbTrace
 10
298.3590718022274
 20
489.1547661946209
 30
0.0
 11
298.3590718022274
 21
486.8214328612876
 31
0.0
 12
305.3590718022274
 22
487.9880995279543
 32
0.0
 13
305.3590718022274
 23
487.9880995279543
 33
0.0
  0
MTEXT
  5
1732
330
EB5
100
AcDbEntity
  8
BEM
 62
     1
100
AcDbMText
 10
232.8590718022274
 20
494.4880995279543
 30
0.0
 40
7.0
 41
0.0
 71
     5
 72
     1
  1
\A1;145
  7
GREEKS
 73
     1
 44
1.0
  0
POINT
  5
1733
330
EB5
100
AcDbEntity
  8
DEFPOINTS
 62
     0
100
AcDbPoint
 10
160.3590718022274
 20
459.3549524503463
 30
0.0
  0
POINT
  5
1734
330
EB5
100
AcDbEntity
  8
DEFPOINTS
 62
     0
100
AcDbPoint
 10
305.3590718022274
 20
459.3549524503463
 30
0.0
  0
POINT
  5
1735
330
EB5
100
AcDbEntity
  8
DEFPOINTS
 62
     0
100
AcDbPoint
 10
305.3590718022274
 20
487.9880995279543
 30
0.0
  0
ENDBLK
  5
EC0
330
EB5
100
AcDbEntity
  8
0
100
AcDbBlockEnd
  0
BLOCK
  5
ECC
330
EC2
100
AcDbEntity
  8
0
100
AcDbBlockBegin
  2
*D2
 70
     1
 10
0.0
 20
0.0
 30
0.0
  3
*D2
  1

  0
LINE
  5
1736
330
EC2
100
AcDbEntity
  8
BEM
 62
     0
370
    -2
100
AcDbLine
 10
107.8590718022274
 20
449.3549524503462
 30
0.0
 11
107.8590718022274
 21
503.189516493079
 31
0.0
  0
LINE
  5
1737
330
EC2
100
AcDbEntity
  8
BEM
 62
     0
370
    -2
100
AcDbLine
 10
357.8590718022274
 20
449.3549524503462
 30
0.0
 11
357.8590718022274
 21
503.189516493079
 31
0.0
  0
LINE
  5
1738
330
EC2
100
AcDbEntity
  8
BEM
 62
     0
370
    -2
100
AcDbLine
 10
114.8590718022274
 20
501.189516493079
 30
0.0
 11
350.8590718022274
 21
501.189516493079
 31
0.0
  0
SOLID
  5
1739
330
EC2
100
AcDbEntity
  8
BEM
 62
     0
100
AcDbTrace
 10
114.8590718022274
 20
502.3561831597457
 30
0.0
 11
114.8590718022274
 21
500.0228498264124
 31
0.0
 12
107.8590718022274
 22
501.189516493079
 32
0.0
 13
107.8590718022274
 23
501.189516493079
 33
0.0
  0
SOLID
  5
173A
330
EC2
100
AcDbEntity
  8
BEM
 62
     0
100
AcDbTrace
 10
350.8590718022274
 20
502.3561831597457
 30
0.0
 11
350.8590718022274
 21
500.0228498264124
 31
0.0
 12
357.8590718022274
 22
501.189516493079
 32
0.0
 13
357.8590718022274
 23
501.189516493079
 33
0.0
  0
MTEXT
  5
173B
330
EC2
100
AcDbEntity
  8
BEM
 62
     1
100
AcDbMText
 10
232.8590718022274
 20
507.689516493079
 30
0.0
 40
7.0
 41
0.0
 71
     5
 72
     1
  1
\A1;250
  7
GREEKS
 73
     1
 44
1.0
  0
POINT
  5
173C
330
EC2
100
AcDbEntity
  8
DEFPOINTS
 62
     0
100
AcDbPoint
 10
107.8590718022274
 20
447.3549524503462
 30
0.0
  0
POINT
  5
173D
330
EC2
100
AcDbEntity
  8
DEFPOINTS
 62
     0
100
AcDbPoint
 10
357.8590718022274
 20
447.3549524503462
 30
0.0
  0
POINT
  5
173E
330
EC2
100
AcDbEntity
  8
DEFPOINTS
 62
     0
100
AcDbPoint
 10
357.8590718022274
 20
501.189516493079
 30
0.0
  0
ENDBLK
  5
ECD
330
EC2
100
AcDbEntity
  8
0
100
AcDbBlockEnd
  0
BLOCK
  5
F68
330
F5E
100
AcDbEntity
  8
0
100
AcDbBlockBegin
  2
*D3
 70
     1
 10
0.0
 20
0.0
 30
0.0
  3
*D3
  1

  0
LINE
  5
1751
330
F5E
100
AcDbEntity
  8
BEM
 62
     0
370
    -2
100
AcDbLine
 10
339.8590718022274
 20
302.3501839140777
 30
0.0
 11
381.9556568595181
 21
302.3501839140777
 31
0.0
  0
LINE
  5
1752
330
F5E
100
AcDbEntity
  8
BEM
 62
     0
370
    -2
100
AcDbLine
 10
339.8590718022274
 20
157.3501839140776
 30
0.0
 11
381.9556568595181
 21
157.3501839140776
 31
0.0
  0
LINE
  5
1753
330
F5E
100
AcDbEntity
  8
BEM
 62
     0
370
    -2
100
AcDbLine
 10
379.9556568595181
 20
295.3501839140777
 30
0.0
 11
379.9556568595181
 21
164.3501839140776
 31
0.0
  0
SOLID
  5
1754
330
F5E
100
AcDbEntity
  8
BEM
 62
     0
100
AcDbTrace
 10
378.7889901928514
 20
295.3501839140777
 30
0.0
 11
381.1223235261847
 21
295.3501839140777
 31
0.0
 12
379.9556568595181
 22
302.3501839140777
 32
0.0
 13
379.9556568595181
 23
302.3501839140777
 33
0.0
  0
SOLID
  5
1755
330
F5E
100
AcDbEntity
  8
BEM
 62
     0
100
AcDbTrace
 10
378.7889901928514
 20
164.3501839140776
 30
0.0
 11
381.1223235261847
 21
164.3501839140776
 31
0.0
 12
379.9556568595181
 22
157.3501839140776
 32
0.0
 13
379.9556568595181
 23
157.3501839140776
 33
0.0
  0
MTEXT
  5
1756
330
F5E
100
AcDbEntity
  8
BEM
 62
     1
100
AcDbMText
 10
374.455656859518
 20
229.8501839140777
 30
0.0
 40
7.0
 41
0.0
 71
     5
 72
     1
  1
\A1;145
  7
GREEKS
 11
0.0000000000000001
 21
1.0
 31
0.0
 73
     1
 44
1.0
  0
POINT
  5
1757
330
F5E
100
AcDbEntity
  8
DEFPOINTS
 62
     0
100
AcDbPoint
 10
337.8590718022274
 20
302.3501839140777
 30
0.0
  0
POINT
  5
1758
330
F5E
100
AcDbEntity
  8
DEFPOINTS
 62
     0
100
AcDbPoint
 10
337.8590718022274
 20
157.3501839140776
 30
0.0
  0
POINT
  5
1759
330
F5E
100
AcDbEntity
  8
DEFPOINTS
 62
     0
100
AcDbPoint
 10
379.9556568595181
 20
157.3501839140776
 30
0.0
  0
ENDBLK
  5
F69
330
F5E
100
AcDbEntity
  8
0
100
AcDbBlockEnd
  0
BLOCK
  5
102E
330
1024
100
AcDbEntity
  8
0
100
AcDbBlockBegin
  2
*D4
 70
     1
 10
0.0
 20
0.0
 30
0.0
  3
*D4
  1

  0
LINE
  5
1748
330
1024
100
AcDbEntity
  8
BEM
 62
     0
370
    -2
100
AcDbLine
 10
130.3590718022274
 20
202.8501839140777
 30
0.0
 11
130.3590718022274
 21
131.5817705719171
 31
0.0
  0
LINE
  5
1749
330
1024
100
AcDbEntity
  8
BEM
 62
     0
370
    -2
100
AcDbLine
 10
335.3590718022274
 20
202.8501839140777
 30
0.0
 11
335.3590718022274
 21
131.5817705719171
 31
0.0
  0
LINE
  5
174A
330
1024
100
AcDbEntity
  8
BEM
 62
     0
370
    -2
100
AcDbLine
 10
137.3590718022274
 20
133.5817705719171
 30
0.0
 11
328.3590718022274
 21
133.5817705719171
 31
0.0
  0
SOLID
  5
174B
330
1024
100
AcDbEntity
  8
BEM
 62
     0
100
AcDbTrace
 10
137.3590718022274
 20
134.7484372385837
 30
0.0
 11
137.3590718022274
 21
132.4151039052504
 31
0.0
 12
130.3590718022274
 22
133.5817705719171
 32
0.0
 13
130.3590718022274
 23
133.5817705719171
 33
0.0
  0
SOLID
  5
174C
330
1024
100
AcDbEntity
  8
BEM
 62
     0
100
AcDbTrace
 10
328.3590718022274
 20
134.7484372385837
 30
0.0
 11
328.3590718022274
 21
132.4151039052504
 31
0.0
 12
335.3590718022274
 22
133.5817705719171
 32
0.0
 13
335.3590718022274
 23
133.5817705719171
 33
0.0
  0
MTEXT
  5
174D
330
1024
100
AcDbEntity
  8
BEM
 62
     1
100
AcDbMText
 10
232.8590718022274
 20
139.0817705719171
 30
0.0
 40
7.0
 41
0.0
 71
     5
 72
     1
  1
\A1;205
  7
GREEKS
 73
     1
 44
1.0
  0
POINT
  5
174E
330
1024
100
AcDbEntity
  8
DEFPOINTS
 62
     0
100
AcDbPoint
 10
130.3590718022274
 20
204.8501839140777
 30
0.0
  0
POINT
  5
174F
330
1024
100
AcDbEntity
  8
DEFPOINTS
 62
     0
100
AcDbPoint
 10
335.3590718022274
 20
204.8501839140777
 30
0.0
  0
POINT
  5
1750
330
1024
100
AcDbEntity
  8
DEFPOINTS
 62
     0
100
AcDbPoint
 10
335.3590718022274
 20
133.5817705719171
 30
0.0
  0
ENDBLK
  5
102F
330
1024
100
AcDbEntity
  8
0
100
AcDbBlockEnd
  0
BLOCK
  5
112D
330
10F3
100
AcDbEntity
  8
0
100
AcDbBlockBegin
  2
*X5
 70
     1
 10
0.0
 20
0.0
 30
0.0
  3
*X5
  1

  0
LINE
  5
10F4
330
10F3
100
AcDbEntity
  8
0
 62
     0
100
AcDbLine
 10
87.33892251857872
 20
173.9595032139307
 30
0.0
 11
88.34303183385502
 21
174.963612529207
 31
0.0
  0
LINE
  5
10F5
330
10F3
100
AcDbEntity
  8
0
 62
     0
100
AcDbLine
 10
85.81507846863159
 20
174.20342611695
 30
0.0
 11
86.98298029704258
 21
175.371327945361
 31
0.0
  0
LINE
  5
10F6
330
10F3
100
AcDbEntity
  8
0
 62
     0
100
AcDbLine
 10
84.78265301588242
 20
174.9387676171672
 30
0.0
 11
86.05916398545526
 21
176.21527858674
 31
0.0
  0
LINE
  5
10F7
330
10F3
100
AcDbEntity
  8
0
 62
     0
100
AcDbLine
 10
84.137570304263
 20
176.0614518585141
 30
0.0
 11
85.54104800624806
 21
177.4649295604992
 31
0.0
  0
LINE
  5
10F8
330
10F3
100
AcDbEntity
  8
0
 62
     0
100
AcDbLine
 10
81.26785470671322
 20
174.9595032139307
 30
0.0
 11
82.49999999999998
 21
176.1916485072175
 31
0.0
  0
LINE
  5
10F9
330
10F3
100
AcDbEntity
  8
0
 62
     0
100
AcDbLine
 10
83.26785470671323
 20
176.9595032139307
 30
0.0
 11
85.49999999999995
 21
179.1916485072175
 31
0.0
  0
LINE
  5
10FA
330
10F3
100
AcDbEntity
  8
0
 62
     0
100
AcDbLine
 10
81.3736620358817
 20
176.8330774960656
 30
0.0
 11
85.49999999999995
 21
180.9594154601838
 31
0.0
  0
LINE
  5
10FB
330
10F3
100
AcDbEntity
  8
0
 62
     0
100
AcDbLine
 10
82.19116040039022
 20
179.4183428135404
 30
0.0
 11
85.49999999999995
 21
182.7271824131502
 31
0.0
  0
LINE
  5
10FC
330
10F3
100
AcDbEntity
  8
0
 62
     0
100
AcDbLine
 10
81.64999999999997
 20
180.6449493661166
 30
0.0
 11
85.49999999999995
 21
184.4949493661166
 31
0.0
  0
LINE
  5
10FD
330
10F3
100
AcDbEntity
  8
0
 62
     0
100
AcDbLine
 10
82.58565575195552
 20
183.3483720710385
 30
0.0
 11
85.45454949837962
 21
186.2172658174626
 31
0.0
  0
LINE
  5
10FE
330
10F3
100
AcDbEntity
  8
0
 62
     0
100
AcDbLine
 10
83.59726650771458
 20
186.127749779764
 30
0.0
 11
85.18956789502897
 21
187.7200511670783
 31
0.0
  0
LINE
  5
10FF
330
10F3
100
AcDbEntity
  8
0
 62
     0
100
AcDbLine
 10
82.66125298891498
 20
186.9595032139307
 30
0.0
 11
84.92458629167833
 21
189.2228365166941
 31
0.0
  0
LINE
  5
1100
330
10F3
100
AcDbEntity
  8
0
 62
     0
100
AcDbLine
 10
80.89348603594862
 20
186.9595032139307
 30
0.0
 11
84.65960468832767
 21
190.7256218663098
 31
0.0
  0
LINE
  5
1101
330
10F3
100
AcDbEntity
  8
0
 62
     0
100
AcDbLine
 10
82.37730264458237
 20
190.2110867755308
 30
0.0
 11
84.11981447244734
 21
191.9535986033958
 31
0.0
  0
LINE
  5
1102
330
10F3
100
AcDbEntity
  8
0
 62
     0
100
AcDbLine
 10
140.5287836631717
 20
191.7940252991964
 30
0.0
 11
140.694261577906
 21
191.9595032139307
 31
0.0
  0
LINE
  5
1103
330
10F3
100
AcDbEntity
  8
0
 62
     0
100
AcDbLine
 10
140.1503507145231
 20
189.6478253975815
 30
0.0
 11
141.9098342457565
 21
191.4073089288148
 31
0.0
  0
LINE
  5
1104
330
10F3
100
AcDbEntity
  8
0
 62
     0
100
AcDbLine
 10
139.7719177658746
 20
187.5016254959666
 30
0.0
 11
142.5709712639455
 21
190.3006789940374
 31
0.0
  0
LINE
  5
1105
330
10F3
100
AcDbEntity
  8
0
 62
     0
100
AcDbLine
 10
139.5
 20
185.4619407771256
 30
0.0
 11
143.2180188767018
 21
189.1799596538274
 31
0.0
  0
LINE
  5
1106
330
10F3
100
AcDbEntity
  8
0
 62
     0
100
AcDbLine
 10
139.5
 20
183.6941738241592
 30
0.0
 11
141.5443867709852
 21
185.7385605951444
 31
0.0
  0
LINE
  5
1107
330
10F3
100
AcDbEntity
  8
0
 62
     0
100
AcDbLine
 10
142.7653293897715
 20
186.9595032139307
 30
0.0
 11
143.8650664894581
 21
188.0592403136173
 31
0.0
  0
LINE
  5
1108
330
10F3
100
AcDbEntity
  8
0
 62
     0
100
AcDbLine
 10
139.5
 20
181.9264068711928
 30
0.0
 11
142.0161086134676
 21
184.4425154846604
 31
0.0
  0
LINE
  5
1109
330
10F3
100
AcDbEntity
  8
0
 62
     0
100
AcDbLine
 10
139.5
 20
180.1586399182264
 30
0.0
 11
142.48783045595
 21
183.1464703741765
 31
0.0
  0
LINE
  5
110A
330
10F3
100
AcDbEntity
  8
0
 62
     0
100
AcDbLine
 10
139.5
 20
178.3908729652601
 30
0.0
 11
142.75
 21
181.64087296526
 31
0.0
  0
LINE
  5
110B
330
10F3
100
AcDbEntity
  8
0
 62
     0
100
AcDbLine
 10
136.836397201637
 20
173.9595032139308
 30
0.0
 11
143.3499999999999
 21
180.4731060122937
 31
0.0
  0
LINE
  5
110C
330
10F3
100
AcDbEntity
  8
0
 62
     0
100
AcDbLine
 10
138.682930529625
 20
174.0382695889524
 30
0.0
 11
140.9212336249784
 21
176.2765726843058
 31
0.0
  0
LINE
  5
110D
330
10F3
100
AcDbEntity
  8
0
 62
     0
100
AcDbLine
 10
141.6005342031842
 20
176.9558732625116
 30
0.0
 11
142.9430513370906
 21
178.2983903964179
 31
0.0
  0
LINE
  5
110E
330
10F3
100
AcDbEntity
  8
0
 62
     0
100
AcDbLine
 10
142.5
 20
176.087572106361
 30
0.0
 11
143.5052275375741
 21
177.0927996439352
 31
0.0
  0
LINE
  5
110F
330
10F3
100
AcDbEntity
  8
0
 62
     0
100
AcDbLine
 10
143.1396980605361
 20
174.9595032139307
 30
0.0
 11
144.0674037380577
 21
175.8872088914524
 31
0.0
  0
LINE
  5
1110
330
10F3
100
AcDbEntity
  8
0
 62
     0
100
AcDbLine
 10
84.57688261694817
 20
191.1947620458053
 30
0.0
 11
83.86352677936438
 21
191.9081178833891
 31
0.0
  0
LINE
  5
1111
330
10F3
100
AcDbEntity
  8
0
 62
     0
100
AcDbLine
 10
84.95531556559674
 20
189.0485621441904
 30
0.0
 11
82.89540731736241
 21
191.1084703924247
 31
0.0
  0
LINE
  5
1112
330
10F3
100
AcDbEntity
  8
0
 62
     0
100
AcDbLine
 10
85.33374851424531
 20
186.9023622425754
 30
0.0
 11
82.24835970460611
 21
189.9877510522146
 31
0.0
  0
LINE
  5
1113
330
10F3
100
AcDbEntity
  8
0
 62
     0
100
AcDbLine
 10
85.49999999999995
 20
184.9683438038544
 30
0.0
 11
81.6013120918498
 21
188.8670317120046
 31
0.0
  0
LINE
  5
1114
330
10F3
100
AcDbEntity
  8
0
 62
     0
100
AcDbLine
 10
85.49999999999995
 20
183.2005768508881
 30
0.0
 11
83.3238987667184
 21
185.3766780841696
 31
0.0
  0
LINE
  5
1115
330
10F3
100
AcDbEntity
  8
0
 62
     0
100
AcDbLine
 10
81.74107363695732
 20
186.9595032139307
 30
0.0
 11
80.95426447909352
 21
187.7463123717945
 31
0.0
  0
LINE
  5
1116
330
10F3
100
AcDbEntity
  8
0
 62
     0
100
AcDbLine
 10
85.49999999999995
 20
181.4328098979217
 30
0.0
 11
82.85217692423598
 21
184.0806329736857
 31
0.0
  0
LINE
  5
1117
330
10F3
100
AcDbEntity
  8
0
 62
     0
100
AcDbLine
 10
85.49999999999995
 20
179.6650429449553
 30
0.0
 11
82.38045508175359
 21
182.7845878632017
 31
0.0
  0
LINE
  5
1118
330
10F3
100
AcDbEntity
  8
0
 62
     0
100
AcDbLine
 10
88.49999999999997
 20
174.897275991989
 30
0.0
 11
88.43711358885142
 21
174.9601624031375
 31
0.0
  0
LINE
  5
1119
330
10F3
100
AcDbEntity
  8
0
 62
     0
100
AcDbLine
 10
85.50065918920674
 20
177.8966168027822
 30
0.0
 11
82.04388638902909
 21
181.3533896029598
 31
0.0
  0
LINE
  5
111A
330
10F3
100
AcDbEntity
  8
0
 62
     0
100
AcDbLine
 10
87.67000582509181
 20
173.9595032139307
 30
0.0
 11
81.64999999999997
 21
179.9795090390226
 31
0.0
  0
LINE
  5
111B
330
10F3
100
AcDbEntity
  8
0
 62
     0
100
AcDbLine
 10
85.50074515846047
 20
174.3609969275957
 30
0.0
 11
84.40149371366485
 21
175.4602483723913
 31
0.0
  0
LINE
  5
111C
330
10F3
100
AcDbEntity
  8
0
 62
     0
100
AcDbLine
 10
82.96040467936991
 20
176.9013374066862
 30
0.0
 11
81.89997747927106
 21
177.9617646067851
 31
0.0
  0
LINE
  5
111D
330
10F3
100
AcDbEntity
  8
0
 62
     0
100
AcDbLine
 10
82.49999999999998
 20
175.5939751330898
 30
0.0
 11
81.33780127878749
 21
176.7561738543023
 31
0.0
  0
LINE
  5
111E
330
10F3
100
AcDbEntity
  8
0
 62
     0
100
AcDbLine
 10
81.3667049661927
 20
174.9595032139307
 30
0.0
 11
80.77562507830391
 21
175.5505831018195
 31
0.0
  0
LINE
  5
111F
330
10F3
100
AcDbEntity
  8
0
 62
     0
100
AcDbLine
 10
137.1674805081501
 20
173.9595032139308
 30
0.0
 11
136.5
 21
174.6269837220809
 31
0.0
  0
LINE
  5
1120
330
10F3
100
AcDbEntity
  8
0
 62
     0
100
AcDbLine
 10
138.8207829893087
 20
174.0739676857385
 30
0.0
 11
137.6893963779527
 21
175.2053542970945
 31
0.0
  0
LINE
  5
1121
330
10F3
100
AcDbEntity
  8
0
 62
     0
100
AcDbLine
 10
139.9676239076131
 20
174.6948937204005
 30
0.0
 11
138.7203975503384
 21
175.9421200776752
 31
0.0
  0
LINE
  5
1122
330
10F3
100
AcDbEntity
  8
0
 62
     0
100
AcDbLine
 10
140.7251646763651
 20
175.7051199046149
 30
0.0
 11
139.3639553485871
 21
177.0663292323928
 31
0.0
  0
LINE
  5
1123
330
10F3
100
AcDbEntity
  8
0
 62
     0
100
AcDbLine
 10
143.2385483200156
 20
174.9595032139307
 30
0.0
 11
142.5
 21
175.6980515339464
 31
0.0
  0
LINE
  5
1124
330
10F3
100
AcDbEntity
  8
0
 62
     0
100
AcDbLine
 10
141.324882115178
 20
176.8731694187683
 30
0.0
 11
139.5
 21
178.6980515339464
 31
0.0
  0
LINE
  5
1125
330
10F3
100
AcDbEntity
  8
0
 62
     0
100
AcDbLine
 10
144.0576127466694
 20
175.9082057402433
 30
0.0
 11
139.5
 21
180.4658184869127
 31
0.0
  0
LINE
  5
1126
330
10F3
100
AcDbEntity
  8
0
 62
     0
100
AcDbLine
 10
142.75
 20
178.9835854398791
 30
0.0
 11
139.5
 21
182.2335854398791
 31
0.0
  0
LINE
  5
1127
330
10F3
100
AcDbEntity
  8
0
 62
     0
100
AcDbLine
 10
143.3499999999999
 20
180.1513523928455
 30
0.0
 11
139.5
 21
184.0013523928455
 31
0.0
  0
LINE
  5
1128
330
10F3
100
AcDbEntity
  8
0
 62
     0
100
AcDbLine
 10
142.6968068239701
 20
182.5723125218417
 30
0.0
 11
139.5
 21
185.7691193458118
 31
0.0
  0
LINE
  5
1129
330
10F3
100
AcDbEntity
  8
0
 62
     0
100
AcDbLine
 10
141.685196068211
 20
185.3516902305672
 30
0.0
 11
139.7364437790964
 21
187.3004425196818
 31
0.0
  0
LINE
  5
112A
330
10F3
100
AcDbEntity
  8
0
 62
     0
100
AcDbLine
 10
141.8451500378139
 20
186.9595032139307
 30
0.0
 11
140.001425382447
 21
188.8032278692975
 31
0.0
  0
LINE
  5
112B
330
10F3
100
AcDbEntity
  8
0
 62
     0
100
AcDbLine
 10
143.6129169907802
 20
186.9595032139307
 30
0.0
 11
140.2664069857977
 21
190.3060132189132
 31
0.0
  0
LINE
  5
112C
330
10F3
100
AcDbEntity
  8
0
 62
     0
100
AcDbLine
 10
143.2969633601371
 20
189.0432237975402
 30
0.0
 11
140.5313885891483
 21
191.8087985685289
 31
0.0
  0
ENDBLK
  5
112E
330
10F3
100
AcDbEntity
  8
0
100
AcDbBlockEnd
  0
BLOCK
  5
16DB
330
16D1
100
AcDbEntity
  8
0
100
AcDbBlockBegin
  2
*D6
 70
     1
 10
0.0
 20
0.0
 30
0.0
  3
*D6
  1

  0
LINE
  5
173F
330
16D1
100
AcDbEntity
  8
BEM
 62
     0
370
    -2
100
AcDbLine
 10
201.9590718022274
 20
415.354952450346
 30
0.0
 11
201.9590718022274
 21
395.5478821788979
 31
0.0
  0
LINE
  5
1740
330
16D1
100
AcDbEntity
  8
BEM
 62
     0
370
    -2
100
AcDbLine
 10
263.7590718022273
 20
415.3549524503465
 30
0.0
 11
263.7590718022273
 21
395.5478821788979
 31
0.0
  0
LINE
  5
1741
330
16D1
100
AcDbEntity
  8
BEM
 62
     0
370
    -2
100
AcDbLine
 10
208.9590718022274
 20
397.5478821788979
 30
0.0
 11
256.7590718022274
 21
397.5478821788979
 31
0.0
  0
SOLID
  5
1742
330
16D1
100
AcDbEntity
  8
BEM
 62
     0
100
AcDbTrace
 10
208.9590718022274
 20
398.7145488455646
 30
0.0
 11
208.9590718022274
 21
396.3812155122312
 31
0.0
 12
201.9590718022274
 22
397.5478821788979
 32
0.0
 13
201.9590718022274
 23
397.5478821788979
 33
0.0
  0
SOLID
  5
1743
330
16D1
100
AcDbEntity
  8
BEM
 62
     0
100
AcDbTrace
 10
256.7590718022274
 20
398.7145488455646
 30
0.0
 11
256.7590718022274
 21
396.3812155122312
 31
0.0
 12
263.7590718022273
 22
397.5478821788979
 32
0.0
 13
263.7590718022273
 23
397.5478821788979
 33
0.0
  0
MTEXT
  5
1744
330
16D1
100
AcDbEntity
  8
BEM
 62
     1
100
AcDbMText
 10
232.8590718022274
 20
404.0478821788979
 30
0.0
 40
7.0
 41
0.0
 71
     5
 72
     1
  1
\A1;%%c61.8
  7
GREEKS
 73
     1
 44
1.0
  0
POINT
  5
1745
330
16D1
100
AcDbEntity
  8
DEFPOINTS
 62
     0
100
AcDbPoint
 10
201.9590718022274
 20
417.354952450346
 30
0.0
  0
POINT
  5
1746
330
16D1
100
AcDbEntity
  8
DEFPOINTS
 62
     0
100
AcDbPoint
 10
263.7590718022273
 20
417.3549524503465
 30
0.0
  0
POINT
  5
1747
330
16D1
100
AcDbEntity
  8
DEFPOINTS
 62
     0
100
AcDbPoint
 10
263.7590718022273
 20
397.5478821788979
 30
0.0
  0
ENDBLK
  5
16DC
330
16D1
100
AcDbEntity
  8
0
100
AcDbBlockEnd
  0
BLOCK
  5
16E7
330
16DD
100
AcDbEntity
  8
0
100
AcDbBlockBegin
  2
*D7
 70
     1
 10
0.0
 20
0.0
 30
0.0
  3
*D7
  1

  0
LINE
  5
175A
330
16DD
100
AcDbEntity
  8
BEM
 62
     0
370
    -2
100
AcDbLine
 10
265.7590718022273
 20
417.3549524503465
 30
0.0
 11
378.9804356742935
 21
417.3549524503465
 31
0.0
  0
LINE
  5
175B
330
16DD
100
AcDbEntity
  8
BEM
 62
     0
370
    -2
100
AcDbLine
 10
359.8590718022274
 20
447.3549524503462
 30
0.0
 11
378.9804356742935
 21
447.3549524503462
 31
0.0
  0
LINE
  5
175C
330
16DD
100
AcDbEntity
  8
BEM
 62
     0
370
    -2
100
AcDbLine
 10
376.9804356742935
 20
424.3549524503465
 30
0.0
 11
376.9804356742935
 21
440.3549524503461
 31
0.0
  0
SOLID
  5
175D
330
16DD
100
AcDbEntity
  8
BEM
 62
     0
100
AcDbTrace
 10
375.8137690076268
 20
424.3549524503465
 30
0.0
 11
378.1471023409602
 21
424.3549524503465
 31
0.0
 12
376.9804356742935
 22
417.3549524503465
 32
0.0
 13
376.9804356742935
 23
417.3549524503465
 33
0.0
  0
SOLID
  5
175E
330
16DD
100
AcDbEntity
  8
BEM
 62
     0
100
AcDbTrace
 10
375.8137690076268
 20
440.3549524503461
 30
0.0
 11
378.1471023409602
 21
440.3549524503461
 31
0.0
 12
376.9804356742935
 22
447.3549524503462
 32
0.0
 13
376.9804356742935
 23
447.3549524503462
 33
0.0
  0
MTEXT
  5
175F
330
16DD
100
AcDbEntity
  8
BEM
 62
     1
100
AcDbMText
 10
370.4804356742934
 20
432.1278937160855
 30
0.0
 40
7.0
 41
0.0
 71
     5
 72
     1
  1
\A1;30
  7
GREEKS
 11
0.0000000000000001
 21
1.0
 31
0.0
 73
     1
 44
1.0
  0
POINT
  5
1760
330
16DD
100
AcDbEntity
  8
DEFPOINTS
 62
     0
100
AcDbPoint
 10
263.7590718022273
 20
417.3549524503465
 30
0.0
  0
POINT
  5
1761
330
16DD
100
AcDbEntity
  8
DEFPOINTS
 62
     0
100
AcDbPoint
 10
357.8590718022274
 20
447.3549524503462
 30
0.0
  0
POINT
  5
1762
330
16DD
100
AcDbEntity
  8
DEFPOINTS
 62
     0
100
AcDbPoint
 10
376.9804356742935
 20
447.3549524503462
 30
0.0
  0
ENDBLK
  5
16E8
330
16DD
100
AcDbEntity
  8
0
100
AcDbBlockEnd
  0
ENDSEC
  0
SECTION
  2
ENTITIES
  0
LINE
  5
219
330
37C
100
AcDbEntity
  8
STEMPEL
100
AcDbLine
 10
410.0
 20
584.0
 30
0.0
 11
39.99999999999989
 21
584.0
 31
0.0
  0
LINE
  5
21A
330
37C
100
AcDbEntity
  8
HILF
100
AcDbLine
 10
419.9999999999999
 20
594.0000000000002
 30
0.0
 11
0.0
 21
594.0
 31
0.0
  0
TEXT
  5
21E
330
37C
100
AcDbEntity
  8
TEXT
100
AcDbText
 10
202.4626584226295
 20
73.30961091915225
 30
0.0
 40
4.0
  1
Name
 41
0.8
  7
GREEKS
100
AcDbText
  0
TEXT
  5
21F
330
37C
100
AcDbEntity
  8
TEXT
100
AcDbText
 10
192.3308941128459
 20
90.76363841023022
 30
0.0
 40
4.0
  1
DIN EN 1124-3
 41
0.75
  7
GREEKS
 72
     1
 11
209.6166083985602
 21
90.76363841023022
 31
0.0
100
AcDbText
  0
TEXT
  5
220
330
37C
100
AcDbEntity
  8
TEXT
100
AcDbText
 10
194.2858954734051
 20
102.4184168434819
 30
0.0
 40
5.0
  1
Zul. Abw.
 41
0.8
  7
GREEKS
100
AcDbText
  0
TEXT
  5
221
330
37C
100
AcDbEntity
  8
TEXT
100
AcDbText
 10
204.4216048581257
 20
63.0896391972351
 30
0.0
 40
4.0
  1
Koeh
 41
0.8
  7
GREEKS
 72
     1
 11
209.6787477152686
 21
63.0896391972351
 31
0.0
100
AcDbText
  0
LINE
  5
222
330
37C
100
AcDbEntity
  8
HILF
100
AcDbLine
 10
146.0000000000001
 20
69.99999999999994
 30
0.0
 11
230.0
 21
69.99999999999994
 31
0.0
  0
LINE
  5
223
330
37C
100
AcDbEntity
  8
HILF
100
AcDbLine
 10
146.0000000000001
 20
59.99999999999997
 30
0.0
 11
230.0
 21
59.99999999999997
 31
0.0
  0
LINE
  5
224
330
37C
100
AcDbEntity
  8
HILF
100
AcDbLine
 10
146.0000000000001
 20
49.99999999999997
 30
0.0
 11
230.0
 21
49.99999999999997
 31
0.0
  0
INSERT
  5
225
330
37C
100
AcDbEntity
  8
STEMPEL
100
AcDbBlockReference
  2
LOGO
 10
150.9955485457794
 20
45.02105276448322
 30
0.0
 41
2.0
 42
2.0
 43
2.0
  0
LINE
  5
226
330
37C
100
AcDbEntity
  8
STEMPEL
100
AcDbLine
 10
410.0
 20
40.0
 30
0.0
 11
146.0000000000001
 21
39.99999999999997
 31
0.0
  0
LINE
  5
227
330
37C
100
AcDbEntity
  8
STEMPEL
100
AcDbLine
 10
410.0
 20
80.0
 30
0.0
 11
146.0000000000001
 21
79.99999999999994
 31
0.0
  0
LINE
  5
228
330
37C
100
AcDbEntity
  8
STEMPEL
100
AcDbLine
 10
410.0
 20
110.0
 30
0.0
 11
39.99999999999997
 21
110.0
 31
0.0
  0
LINE
  5
229
330
37C
100
AcDbEntity
  8
STEMPEL
100
AcDbLine
 10
49.99999999999989
 20
10.0
 30
0.0
 11
410.0
 21
10.0
 31
0.0
  0
LINE
  5
22A
330
37C
100
AcDbEntity
  8
STEMPEL
100
AcDbLine
 10
410.0
 20
10.0
 30
0.0
 11
39.99999999999989
 21
10.0
 31
0.0
  0
LINE
  5
22B
330
37C
100
AcDbEntity
  8
HILF
100
AcDbLine
 10
420.0
 20
0.0
 30
0.0
 11
0.0
 21
0.0
 31
0.0
  0
LINE
  5
230
330
37C
100
AcDbEntity
  8
STEMPEL
100
AcDbLine
 10
40.0
 20
10.0
 30
0.0
 11
39.99999999999989
 21
584.0
 31
0.0
  0
LINE
  5
231
330
37C
100
AcDbEntity
  8
HILF
100
AcDbLine
 10
0.0
 20
0.0
 30
0.0
 11
-0.0000000000001137
 21
594.0
 31
0.0
  0
TEXT
  5
232
330
37C
100
AcDbEntity
  8
TEXT
100
AcDbText
 10
66.95616801269422
 20
18.67381894984132
 30
0.0
 40
4.0
  1
Änderung
 41
0.8
  7
GREEKS
 72
     1
 11
77.69902515555137
 21
18.67381894984132
 31
0.0
100
AcDbText
  0
LINE
  5
233
330
37C
100
AcDbEntity
  8
STEMPEL
100
AcDbLine
 10
145.9999999999999
 20
29.99999999999997
 30
0.0
 11
39.99999999999997
 21
29.99999999999997
 31
0.0
  0
LINE
  5
234
330
37C
100
AcDbEntity
  8
HILF
100
AcDbLine
 10
40.00000000000008
 20
100.0
 30
0.0
 11
146.0000000000001
 21
100.0
 31
0.0
  0
LINE
  5
235
330
37C
100
AcDbEntity
  8
HILF
100
AcDbLine
 10
40.00000000000008
 20
90.00000000000005
 30
0.0
 11
146.0000000000001
 21
90.00000000000005
 31
0.0
  0
LINE
  5
236
330
37C
100
AcDbEntity
  8
HILF
100
AcDbLine
 10
40.00000000000008
 20
79.99999999999994
 30
0.0
 11
146.0000000000001
 21
79.99999999999994
 31
0.0
  0
LINE
  5
237
330
37C
100
AcDbEntity
  8
HILF
100
AcDbLine
 10
40.00000000000008
 20
69.99999999999994
 30
0.0
 11
146.0000000000001
 21
69.99999999999994
 31
0.0
  0
LINE
  5
238
330
37C
100
AcDbEntity
  8
HILF
100
AcDbLine
 10
40.00000000000008
 20
59.99999999999997
 30
0.0
 11
146.0000000000001
 21
59.99999999999997
 31
0.0
  0
LINE
  5
239
330
37C
100
AcDbEntity
  8
HILF
100
AcDbLine
 10
40.00000000000008
 20
49.99999999999997
 30
0.0
 11
146.0000000000001
 21
49.99999999999997
 31
0.0
  0
LINE
  5
23A
330
37C
100
AcDbEntity
  8
HILF
100
AcDbLine
 10
40.00000000000008
 20
39.99999999999997
 30
0.0
 11
146.0000000000001
 21
39.99999999999997
 31
0.0
  0
TEXT
  5
23C
330
37C
100
AcDbEntity
  8
TEXT
100
AcDbText
 10
48.26641107045756
 20
13.65465846027192
 30
0.0
 40
4.0
  1
Index
 50
90.0
 41
0.8
  7
GREEKS
100
AcDbText
  0
LINE
  5
23D
330
37C
100
AcDbEntity
  8
VOLL
100
AcDbLine
 10
54.00000000000009
 20
110.0
 30
0.0
 11
53.99999999999997
 21
9.999999999999971
 31
0.0
  0
LINE
  5
23E
330
37C
100
AcDbEntity
  8
HILF
100
AcDbLine
 10
31.08767135713856
 20
297.0
 30
0.0
 11
0.0000000000001137
 21
297.0
 31
0.0
  0
TEXT
  5
23F
330
37C
100
AcDbEntity
  8
TEXT
100
AcDbText
 10
110.140136838985
 20
18.6715626933981
 30
0.0
 40
4.0
  1
Tag
 41
0.8
  7
GREEKS
 72
     1
 11
113.8734701723183
 21
18.6715626933981
 31
0.0
100
AcDbText
  0
LINE
  5
240
330
37C
100
AcDbEntity
  8
VOLL
100
AcDbLine
 10
124.0000000000001
 20
109.9999999999999
 30
0.0
 11
124.0
 21
9.999999999999971
 31
0.0
  0
LINE
  5
241
330
37C
100
AcDbEntity
  8
VOLL
100
AcDbLine
 10
104.0000000000001
 20
109.9999999999999
 30
0.0
 11
104.0
 21
9.999999999999971
 31
0.0
  0
TEXT
  5
242
330
37C
100
AcDbEntity
  8
TEXT
100
AcDbText
 10
128.9695614838521
 20
18.59324216966408
 30
0.0
 40
4.0
  1
Name
 41
0.8
  7
GREEKS
 72
     1
 11
135.2933710076617
 21
18.59324216966408
 31
0.0
100
AcDbText
  0
LINE
  5
243
330
37C
100
AcDbEntity
  8
STEMPEL
100
AcDbLine
 10
146.0000000000001
 20
109.9999999999999
 30
0.0
 11
146.0
 21
9.999999999999971
 31
0.0
  0
TEXT
  5
244
330
37C
100
AcDbEntity
  8
TEXT
100
AcDbText
 10
172.331167315365
 20
73.31880501229926
 30
0.0
 40
4.0
  1
Tag
 41
0.8
  7
GREEKS
100
AcDbText
  0
TEXT
  5
245
330
37C
100
AcDbEntity
  8
TEXT
100
AcDbText
 10
170.7037590129979
 20
63.10765040825732
 30
0.0
 40
4.0
  1
17.03.
 41
0.8
  7
GREEKS
 72
     1
 11
177.4085209177598
 21
63.10765040825732
 31
0.0
100
AcDbText
  0
LINE
  5
246
330
37C
100
AcDbEntity
  8
VOLL
100
AcDbLine
 10
164.0000000000001
 20
79.99999999999994
 30
0.0
 11
164.0000000000001
 21
39.99999999999997
 31
0.0
  0
TEXT
  5
247
330
37C
100
AcDbEntity
  8
TEXT
100
AcDbText
 10
147.5836127167615
 20
63.62990369617964
 30
0.0
 40
4.0
  1
Gez.
 41
0.8
  7
GREEKS
100
AcDbText
  0
TEXT
  5
248
330
37C
100
AcDbEntity
  8
TEXT
100
AcDbText
 10
147.6006777387303
 20
43.52946389649807
 30
0.0
 40
4.0
  1
Norm.
 41
0.8
  7
GREEKS
100
AcDbText
  0
TEXT
  5
249
330
37C
100
AcDbEntity
  8
TEXT
100
AcDbText
 10
147.5515086571672
 20
53.68926291428377
 30
0.0
 40
4.0
  1
Gepr.
 41
0.8
  7
GREEKS
100
AcDbText
  0
TEXT
  5
24A
330
37C
100
AcDbEntity
  8
TEXT
 62
     1
100
AcDbText
 10
160.5006306481887
 20
88.14901428913959
 30
0.0
 40
7.0
  1
1:2
 41
0.8
  7
GREEKS
100
AcDbText
  0
TEXT
  5
24B
330
37C
100
AcDbEntity
  8
TEXT
100
AcDbText
 10
153.5163572150377
 20
102.4620895087088
 30
0.0
 40
5.0
  1
Maßstab
 41
0.8
  7
GREEKS
100
AcDbText
  0
TEXT
  5
24C
330
37C
100
AcDbEntity
  8
TEXT
100
AcDbText
 10
148.622109822104
 20
73.14025471151666
 30
0.0
 40
4.0
  1
2011
 41
0.8
  7
GREEKS
100
AcDbText
  0
LINE
  5
24D
330
37C
100
AcDbEntity
  8
VOLL
100
AcDbLine
 10
190.0000000000001
 20
109.9999999999998
 30
0.0
 11
190.0
 21
39.99999999999997
 31
0.0
  0
LINE
  5
2BA
330
37C
100
AcDbEntity
  8
STEMPEL
100
AcDbLine
 10
410.0
 20
10.0
 30
0.0
 11
410.0
 21
584.0
 31
0.0
  0
LINE
  5
2BB
330
37C
100
AcDbEntity
  8
HILF
100
AcDbLine
 10
420.0
 20
-0.0000000000001137
 30
0.0
 11
419.9999999999999
 21
594.0
 31
0.0
  0
TEXT
  5
2BD
330
37C
100
AcDbEntity
  8
TEXT
100
AcDbText
 10
336.7238616296993
 20
73.1811823709997
 30
0.0
 40
5.0
  1
Ersatz für:
 41
0.8
  7
GREEKS
100
AcDbText
  0
LINE
  5
2BE
330
37C
100
AcDbEntity
  8
VOLL
100
AcDbLine
 10
332.0
 20
60.0
 30
0.0
 11
410.0
 21
60.0
 31
0.0
  0
LINE
  5
2BF
330
37C
100
AcDbEntity
  8
HILF
100
AcDbLine
 10
336.7238616296993
 20
83.77983636955827
 30
0.0
 11
404.8588839326728
 21
83.77983636955827
 31
0.0
  0
TEXT
  5
2C0
330
37C
100
AcDbEntity
  8
TEXT
100
AcDbText
 10
336.178754957634
 20
102.3132034537136
 30
0.0
 40
5.0
  1
Zeichnungs Nr.
 41
0.8
  7
GREEKS
100
AcDbText
  0
TEXT
  5
2C1
330
37C
100
AcDbEntity
  8
TEXT
100
AcDbText
 10
337.2400861497006
 20
52.07416177878602
 30
0.0
 40
5.0
  1
ersetzt durch:
 41
0.8
  7
GREEKS
100
AcDbText
  0
LINE
  5
2C2
330
37C
100
AcDbEntity
  8
HILF
100
AcDbLine
 10
233.4909699289885
 20
14.89398258028314
 30
0.0
 11
404.8588839326728
 21
14.89398258028314
 31
0.0
  0
TEXT
  5
2C5
330
37C
100
AcDbEntity
  8
TEXT
 62
     1
100
AcDbText
 10
234.4197382422869
 20
87.41748789253779
 30
0.0
 40
7.0
  1
Schiebeflansch DN50
 41
0.8
  7
GREEKS
100
AcDbText
  0
LINE
  5
2C6
330
37C
100
AcDbEntity
  8
HILF
100
AcDbLine
 10
234.7736801096947
 20
84.03758247564139
 30
0.0
 11
324.8353916556311
 21
84.03758247564139
 31
0.0
  0
LINE
  5
2C7
330
37C
100
AcDbEntity
  8
HILF
100
AcDbLine
 10
234.7736801096947
 20
69.99999999999994
 30
0.0
 11
324.835391655631
 21
69.99999999999994
 31
0.0
  0
LINE
  5
2C8
330
37C
100
AcDbEntity
  8
HILF
100
AcDbLine
 10
234.7736801096947
 20
59.99999999999997
 30
0.0
 11
324.835391655631
 21
59.99999999999997
 31
0.0
  0
LINE
  5
2C9
330
37C
100
AcDbEntity
  8
HILF
100
AcDbLine
 10
234.7736801096947
 20
49.99999999999997
 30
0.0
 11
324.835391655631
 21
49.99999999999997
 31
0.0
  0
LINE
  5
2CA
330
37C
100
AcDbEntity
  8
STEMPEL
100
AcDbLine
 10
230.0
 20
110.0
 30
0.0
 11
230.0
 21
9.999999999999971
 31
0.0
  0
TEXT
  5
2CB
330
37C
100
AcDbEntity
  8
TEXT
100
AcDbText
 10
234.877940380901
 20
102.5489328011779
 30
0.0
 40
5.0
  1
Benennung
 41
0.8
  7
GREEKS
100
AcDbText
  0
TEXT
  5
2CC
330
37C
100
AcDbEntity
  8
TEXT
100
AcDbText
 10
234.9837501577827
 20
42.62974153022632
 30
0.0
 40
4.0
  1
13232050W.DWG
 41
0.8
  7
GREEKS
100
AcDbText
  0
TEXT
  5
2CD
330
37C
100
AcDbEntity
  8
TEXT
100
AcDbText
 10
234.742238391136
 20
30.84560570193057
 30
0.0
 40
5.0
  1
Bauvorhaben
 41
0.8
  7
GREEKS
100
AcDbText
  0
LINE
  5
2CE
330
37C
100
AcDbEntity
  8
STEMPEL
100
AcDbLine
 10
332.0
 20
109.9999999999997
 30
0.0
 11
332.0
 21
40.0
 31
0.0
  0
TEXT
  5
2D1
330
37C
100
AcDbEntity
  8
TEXT
 62
     1
100
AcDbText
 10
343.7810507876003
 20
88.14901428913959
 30
0.0
 40
7.0
  1
13232050W
 41
0.8
  7
GREEKS
 72
     1
 11
367.247717454267
 21
88.14901428913959
 31
0.0
100
AcDbText
  0
LINE
  5
D3F
330
37C
100
AcDbEntity
  8
STEMPEL
100
AcDbLine
 10
107.8590718022274
 20
447.3549524503462
 30
0.0
 11
357.8590718022274
 21
447.3549524503462
 31
0.0
  0
LINE
  5
D40
330
37C
100
AcDbEntity
  8
STEMPEL
100
AcDbLine
 10
107.8590718022274
 20
451.3549524503463
 30
0.0
 11
357.8590718022274
 21
451.3549524503462
 31
0.0
  0
LINE
  5
D41
330
37C
100
AcDbEntity
  8
STEMPEL
100
AcDbLine
 10
160.3590718022274
 20
453.3549524503462
 30
0.0
 11
305.3590718022274
 21
453.3549524503462
 31
0.0
  0
LINE
  5
D43
330
37C
100
AcDbEntity
  8
STEMPEL
  6
Continuous
100
AcDbLine
 10
160.3590718022274
 20
459.3549524503463
 30
0.0
 11
305.3590718022273
 21
459.3549524503463
 31
0.0
  0
LINE
  5
D44
330
37C
100
AcDbEntity
  8
MITTEL
100
AcDbLine
 10
232.8590718022273
 20
464.3549524503462
 30
0.0
 11
232.8590718022273
 21
414.3549524503463
 31
0.0
  0
LINE
  5
D46
330
37C
100
AcDbEntity
  8
STEMPEL
100
AcDbLine
 10
160.3590718022274
 20
459.3549524503463
 30
0.0
 11
160.3590718022274
 21
456.3549524503463
 31
0.0
  0
LINE
  5
D47
330
37C
100
AcDbEntity
  8
STEMPEL
100
AcDbLine
 10
107.8590718022274
 20
451.3549524503463
 30
0.0
 11
107.8590718022274
 21
447.3549524503462
 31
0.0
  0
LINE
  5
D48
330
37C
100
AcDbEntity
  8
STEMPEL
100
AcDbLine
 10
357.8590718022274
 20
451.3549524503463
 30
0.0
 11
357.8590718022274
 21
447.3549524503462
 31
0.0
  0
LINE
  5
D4B
330
37C
100
AcDbEntity
  8
MITTEL
100
AcDbLine
 10
130.3590718022274
 20
456.3549524503462
 30
0.0
 11
130.3590718022274
 21
442.3549524503462
 31
0.0
  0
LINE
  5
D4D
330
37C
100
AcDbEntity
  8
STEMPEL
100
AcDbLine
 10
124.3590718022274
 20
451.3549524503462
 30
0.0
 11
124.3590718022274
 21
447.3549524503462
 31
0.0
  0
LINE
  5
D4E
330
37C
100
AcDbEntity
  8
STEMPEL
100
AcDbLine
 10
136.3590718022274
 20
451.3549524503462
 30
0.0
 11
136.3590718022274
 21
447.3549524503462
 31
0.0
  0
LINE
  5
D4F
330
37C
100
AcDbEntity
  8
STEMPEL
100
AcDbLine
 10
341.3590718022274
 20
451.3549524503462
 30
0.0
 11
341.3590718022274
 21
447.3549524503462
 31
0.0
  0
LINE
  5
D50
330
37C
100
AcDbEntity
  8
MITTEL
100
AcDbLine
 10
335.3590718022274
 20
456.3549524503462
 30
0.0
 11
335.3590718022274
 21
442.3549524503461
 31
0.0
  0
LINE
  5
D51
330
37C
100
AcDbEntity
  8
STEMPEL
100
AcDbLine
 10
329.3590718022274
 20
451.3549524503462
 30
0.0
 11
329.3590718022274
 21
447.3549524503462
 31
0.0
  0
LINE
  5
D52
330
37C
100
AcDbEntity
  8
MITTEL
100
AcDbLine
 10
277.8590718022274
 20
481.3549524503462
 30
0.0
 11
277.8590718022274
 21
442.3549524503461
 31
0.0
  0
LINE
  5
D53
330
37C
100
AcDbEntity
  8
STEMPEL
100
AcDbLine
 10
192.8590718022273
 20
475.3549524503459
 30
0.0
 11
192.8590718022273
 21
468.9549524503465
 31
0.0
  0
LINE
  5
D54
330
37C
100
AcDbEntity
  8
HILF
100
AcDbLine
 10
191.8590718022273
 20
476.3549524503458
 30
0.0
 11
191.8590718022273
 21
468.9549524503465
 31
0.0
  0
LINE
  5
D55
330
37C
100
AcDbEntity
  8
STEMPEL
100
AcDbLine
 10
182.8590718022273
 20
475.3549524503458
 30
0.0
 11
182.8590718022273
 21
468.9549524503465
 31
0.0
  0
LINE
  5
D56
330
37C
100
AcDbEntity
  8
HILF
100
AcDbLine
 10
183.8590718022273
 20
476.3549524503459
 30
0.0
 11
183.8590718022273
 21
468.9549524503465
 31
0.0
  0
LINE
  5
D57
330
37C
100
AcDbEntity
  8
MITTEL
100
AcDbLine
 10
187.8590718022273
 20
481.3549524503462
 30
0.0
 11
187.8590718022273
 21
442.3549524503461
 31
0.0
  0
ARC
  5
D58
330
37C
100
AcDbEntity
  8
STEMPEL
100
AcDbCircle
 10
187.8590718022275
 20
457.5271399503468
 30
0.0
 40
11.42781249999961
100
AcDbArc
 50
65.85233813009799
 51
114.147661869902
  0
LINE
  5
D59
330
37C
100
AcDbEntity
  8
STEMPEL
100
AcDbLine
 10
194.8715718022274
 20
468.9549524503465
 30
0.0
 11
180.8465718022273
 21
468.9549524503465
 31
0.0
  0
ARC
  5
D5A
330
37C
100
AcDbEntity
  8
STEMPEL
100
AcDbCircle
 10
187.8590718022275
 20
472.7827649503459
 30
0.0
 40
11.42781249999961
100
AcDbArc
 50
245.852338130098
 51
294.147661869902
  0
LINE
  5
D5B
330
37C
100
AcDbEntity
  8
STEMPEL
100
AcDbLine
 10
198.3590718022273
 20
461.3549524503465
 30
0.0
 11
177.3590718022273
 21
461.3549524503463
 31
0.0
  0
LINE
  5
D5C
330
37C
100
AcDbEntity
  8
STEMPEL
100
AcDbLine
 10
197.8590718022273
 20
459.3549524503463
 30
0.0
 11
197.8590718022273
 21
456.3549524503463
 31
0.0
  0
ARC
  5
D5D
330
37C
100
AcDbEntity
  8
STEMPEL
100
AcDbCircle
 10
194.8715718022274
 20
464.5869055753459
 30
0.0
 40
3.231953125000015
100
AcDbArc
 50
223.6767967280955
 51
316.3232032718998
  0
ARC
  5
D5E
330
37C
100
AcDbEntity
  8
STEMPEL
100
AcDbCircle
 10
194.8715718022274
 20
465.7229993253467
 30
0.0
 40
3.231953125000015
100
AcDbArc
 50
43.67679672810015
 51
136.3232032719045
  0
LINE
  5
D5F
330
37C
100
AcDbEntity
  8
STEMPEL
100
AcDbLine
 10
198.3590718022273
 20
461.3549524503463
 30
0.0
 11
198.3590718022273
 21
459.3549524503463
 31
0.0
  0
LINE
  5
D60
330
37C
100
AcDbEntity
  8
STEMPEL
100
AcDbLine
 10
197.2090718022272
 20
467.9549524503469
 30
0.0
 11
197.2090718022274
 21
462.3549524503459
 31
0.0
  0
LINE
  5
D61
330
37C
100
AcDbEntity
  8
STEMPEL
100
AcDbLine
 10
192.5340718022273
 20
467.9549524503467
 30
0.0
 11
192.5340718022274
 21
462.3549524503459
 31
0.0
  0
ARC
  5
D62
330
37C
100
AcDbEntity
  8
STEMPEL
100
AcDbCircle
 10
180.8465718022274
 20
465.7229993253464
 30
0.0
 40
3.231953125000015
100
AcDbArc
 50
43.67679672810015
 51
136.3232032719004
  0
ARC
  5
D63
330
37C
100
AcDbEntity
  8
STEMPEL
100
AcDbCircle
 10
180.8465718022274
 20
464.5869055753463
 30
0.0
 40
3.231953125000015
100
AcDbArc
 50
223.6767967280996
 51
316.3232032718998
  0
LINE
  5
D64
330
37C
100
AcDbEntity
  8
STEMPEL
100
AcDbLine
 10
183.1840718022274
 20
467.9549524503464
 30
0.0
 11
183.1840718022272
 21
462.3549524503463
 31
0.0
  0
LINE
  5
D65
330
37C
100
AcDbEntity
  8
STEMPEL
100
AcDbLine
 10
177.3590718022273
 20
461.3549524503463
 30
0.0
 11
177.3590718022273
 21
459.3549524503464
 31
0.0
  0
LINE
  5
D66
330
37C
100
AcDbEntity
  8
STEMPEL
100
AcDbLine
 10
178.5090718022273
 20
467.9549524503463
 30
0.0
 11
178.5090718022273
 21
462.3549524503463
 31
0.0
  0
LINE
  5
D67
330
37C
100
AcDbEntity
  8
STEMPEL
100
AcDbLine
 10
192.8590718022273
 20
475.3549524503459
 30
0.0
 11
182.8590718022275
 21
475.3549524503459
 31
0.0
  0
LINE
  5
D68
330
37C
100
AcDbEntity
  8
STEMPEL
100
AcDbLine
 10
182.8590718022273
 20
475.3549524503459
 30
0.0
 11
183.8590718022273
 21
476.3549524503459
 31
0.0
  0
LINE
  5
D69
330
37C
100
AcDbEntity
  8
STEMPEL
100
AcDbLine
 10
183.8590718022273
 20
476.3549524503459
 30
0.0
 11
191.8590718022273
 21
476.3549524503459
 31
0.0
  0
LINE
  5
D6A
330
37C
100
AcDbEntity
  8
STEMPEL
100
AcDbLine
 10
191.8590718022273
 20
476.3549524503459
 30
0.0
 11
192.8590718022273
 21
475.3549524503459
 31
0.0
  0
LINE
  5
D6D
330
37C
100
AcDbEntity
  8
STEMPEL
100
AcDbLine
 10
127.8590718022274
 20
302.3501839140777
 30
0.0
 11
337.8590718022274
 21
302.3501839140777
 31
0.0
  0
LINE
  5
D6E
330
37C
100
AcDbEntity
  8
STEMPEL
100
AcDbLine
 10
127.8590718022274
 20
157.3501839140776
 30
0.0
 11
337.8590718022274
 21
157.3501839140776
 31
0.0
  0
LINE
  5
D6F
330
37C
100
AcDbEntity
  8
STEMPEL
100
AcDbLine
 10
160.3590718022274
 20
302.3501839140777
 30
0.0
 11
160.3590718022274
 21
157.3501839140776
 31
0.0
  0
LINE
  5
D70
330
37C
100
AcDbEntity
  8
STEMPEL
100
AcDbLine
 10
305.3590718022273
 20
302.3501839140777
 30
0.0
 11
305.3590718022273
 21
157.3501839140776
 31
0.0
  0
LINE
  5
D72
330
37C
100
AcDbEntity
  8
STEMPEL
100
AcDbLine
 10
107.8590718022274
 20
282.3501839140777
 30
0.0
 11
107.8590718022274
 21
177.3501839140776
 31
0.0
  0
LINE
  5
D74
330
37C
100
AcDbEntity
  8
STEMPEL
100
AcDbLine
 10
357.8590718022274
 20
282.3501839140777
 30
0.0
 11
357.8590718022274
 21
177.3501839140776
 31
0.0
  0
LINE
  5
D75
330
37C
100
AcDbEntity
  8
MITTEL
100
AcDbLine
 10
102.8590718022274
 20
229.8501839140777
 30
0.0
 11
362.8590718022274
 21
229.8501839140777
 31
0.0
  0
LINE
  5
D76
330
37C
100
AcDbEntity
  8
MITTEL
100
AcDbLine
 10
232.8590718022274
 20
307.3501839140777
 30
0.0
 11
232.8590718022274
 21
152.3501839140776
 31
0.0
  0
CIRCLE
  5
D77
330
37C
100
AcDbEntity
  8
STEMPEL
100
AcDbCircle
 10
232.8590718022274
 20
229.8501839140777
 30
0.0
 40
35.0
  0
LINE
  5
D78
330
37C
100
AcDbEntity
  8
MITTEL
100
AcDbLine
 10
172.735569110331
 20
274.8501839140776
 30
0.0
 11
202.9825744941237
 21
274.8501839140776
 31
0.0
  0
LINE
  5
D7A
330
37C
100
AcDbEntity
  8
MITTEL
100
AcDbLine
 10
187.8590718022273
 20
287.9475214394622
 30
0.0
 11
187.8590718022273
 21
261.7528463886931
 31
0.0
  0
LWPOLYLINE
  5
D7D
330
37C
100
AcDbEntity
  8
STEMPEL
100
AcDbPolyline
 90
        6
 70
     1
 43
0.0
 10
178.5090718022273
 20
274.8501839140776
 10
183.1840718022273
 20
266.7528463886931
 10
192.5340718022274
 20
266.7528463886931
 10
197.2090718022274
 20
274.8501839140776
 10
192.5340718022274
 20
282.9475214394622
 10
183.1840718022274
 20
282.9475214394622
  0
CIRCLE
  5
D7E
330
37C
100
AcDbEntity
  8
HILF
100
AcDbCircle
 10
187.8590718022273
 20
274.8501839140776
 30
0.0
 40
8.097337525384546
  0
CIRCLE
  5
D7F
330
37C
100
AcDbEntity
  8
STEMPEL
100
AcDbCircle
 10
187.8590718022273
 20
274.8501839140776
 30
0.0
 40
5.0
  0
ARC
  5
D80
330
37C
100
AcDbEntity
  8
HILF
100
AcDbCircle
 10
187.8590718022273
 20
274.8501839140776
 30
0.0
 40
4.0
100
AcDbArc
 50
74.02008240871722
 51
14.50017138603134
  0
LINE
  5
D81
330
37C
100
AcDbEntity
  8
MITTEL
100
AcDbLine
 10
277.8590718022274
 20
287.9475214394622
 30
0.0
 11
277.8590718022274
 21
261.7528463886931
 31
0.0
  0
CIRCLE
  5
D82
330
37C
100
AcDbEntity
  8
HILF
100
AcDbCircle
 10
277.8590718022274
 20
274.8501839140776
 30
0.0
 40
8.097337525384546
  0
LINE
  5
D83
330
37C
100
AcDbEntity
  8
MITTEL
100
AcDbLine
 10
262.7355691103311
 20
274.8501839140776
 30
0.0
 11
292.9825744941237
 21
274.8501839140776
 31
0.0
  0
CIRCLE
  5
D85
330
37C
100
AcDbEntity
  8
STEMPEL
100
AcDbCircle
 10
277.8590718022274
 20
274.8501839140776
 30
0.0
 40
5.0
  0
LWPOLYLINE
  5
D86
330
37C
100
AcDbEntity
  8
STEMPEL
100
AcDbPolyline
 90
        6
 70
     1
 43
0.0
 10
268.5090718022273
 20
274.8501839140776
 10
273.1840718022273
 20
266.7528463886931
 10
282.5340718022273
 20
266.7528463886931
 10
287.2090718022274
 20
274.8501839140776
 10
282.5340718022274
 20
282.9475214394622
 10
273.1840718022273
 20
282.9475214394622
  0
LINE
  5
D87
330
37C
100
AcDbEntity
  8
MITTEL
100
AcDbLine
 10
187.8590718022273
 20
197.9475214394622
 30
0.0
 11
187.8590718022273
 21
171.7528463886931
 31
0.0
  0
CIRCLE
  5
D88
330
37C
100
AcDbEntity
  8
HILF
100
AcDbCircle
 10
187.8590718022273
 20
184.8501839140776
 30
0.0
 40
8.097337525384546
  0
LINE
  5
D89
330
37C
100
AcDbEntity
  8
MITTEL
100
AcDbLine
 10
172.735569110331
 20
184.8501839140776
 30
0.0
 11
202.9825744941237
 21
184.8501839140776
 31
0.0
  0
CIRCLE
  5
D8B
330
37C
100
AcDbEntity
  8
STEMPEL
100
AcDbCircle
 10
187.8590718022273
 20
184.8501839140776
 30
0.0
 40
5.0
  0
LWPOLYLINE
  5
D8C
330
37C
100
AcDbEntity
  8
STEMPEL
100
AcDbPolyline
 90
        6
 70
     1
 43
0.0
 10
178.5090718022273
 20
184.8501839140776
 10
183.1840718022273
 20
176.7528463886931
 10
192.5340718022274
 20
176.7528463886931
 10
197.2090718022274
 20
184.8501839140776
 10
192.5340718022274
 20
192.9475214394622
 10
183.1840718022274
 20
192.9475214394622
  0
LINE
  5
D8D
330
37C
100
AcDbEntity
  8
MITTEL
100
AcDbLine
 10
277.8590718022274
 20
197.9475214394622
 30
0.0
 11
277.8590718022274
 21
171.7528463886931
 31
0.0
  0
LWPOLYLINE
  5
D8E
330
37C
100
AcDbEntity
  8
STEMPEL
100
AcDbPolyline
 90
        6
 70
     1
 43
0.0
 10
268.5090718022273
 20
184.8501839140776
 10
273.1840718022273
 20
176.7528463886931
 10
282.5340718022273
 20
176.7528463886931
 10
287.2090718022274
 20
184.8501839140776
 10
282.5340718022274
 20
192.9475214394622
 10
273.1840718022273
 20
192.9475214394622
  0
CIRCLE
  5
D8F
330
37C
100
AcDbEntity
  8
STEMPEL
100
AcDbCircle
 10
277.8590718022274
 20
184.8501839140776
 30
0.0
 40
5.0
  0
LINE
  5
D90
330
37C
100
AcDbEntity
  8
MITTEL
100
AcDbLine
 10
262.7355691103311
 20
184.8501839140776
 30
0.0
 11
292.9825744941237
 21
184.8501839140776
 31
0.0
  0
CIRCLE
  5
D91
330
37C
100
AcDbEntity
  8
HILF
100
AcDbCircle
 10
277.8590718022274
 20
184.8501839140776
 30
0.0
 40
8.097337525384546
  0
LINE
  5
D97
330
37C
100
AcDbEntity
  8
STEMPEL
100
AcDbLine
 10
127.8590718022274
 20
302.3501839140777
 30
0.0
 11
107.8590718022274
 21
282.3501839140777
 31
0.0
  0
LINE
  5
D98
330
37C
100
AcDbEntity
  8
STEMPEL
100
AcDbLine
 10
107.8590718022274
 20
177.3501839140776
 30
0.0
 11
127.8590718022274
 21
157.3501839140776
 31
0.0
  0
LINE
  5
D99
330
37C
100
AcDbEntity
  8
STEMPEL
100
AcDbLine
 10
337.8590718022274
 20
157.3501839140776
 30
0.0
 11
357.8590718022274
 21
177.3501839140776
 31
0.0
  0
LINE
  5
D9A
330
37C
100
AcDbEntity
  8
STEMPEL
100
AcDbLine
 10
357.8590718022274
 20
282.3501839140777
 30
0.0
 11
337.8590718022274
 21
302.3501839140777
 31
0.0
  0
LINE
  5
E17
330
37C
100
AcDbEntity
  8
STEMPEL
100
AcDbLine
 10
204.8590718022273
 20
447.3549524503462
 30
0.0
 11
204.8590718022273
 21
451.3549524503463
 31
0.0
  0
LINE
  5
E19
330
37C
100
AcDbEntity
  8
STEMPEL
100
AcDbLine
 10
260.8590718022274
 20
447.3549524503462
 30
0.0
 11
260.8590718022274
 21
451.3549524503463
 31
0.0
  0
HATCH
  5
E48
330
37C
100
AcDbEntity
  8
SCHRAFF
100
AcDbHatch
 10
0.0
 20
0.0
 30
0.0
210
0.0
220
0.0
230
1.0
  2
_U
 70
     0
 71
     0
 91
        6
 92
        7
 72
     0
 73
     1
 93
        4
 10
124.3590718022274
 20
447.3549524503461
 10
124.3590718022274
 20
451.3549524503463
 10
107.8590718022274
 20
451.3549524503463
 10
107.8590718022274
 20
447.3549524503462
 97
        0
 92
        7
 72
     0
 73
     1
 93
        4
 10
187.8590718022273
 20
447.3549524503463
 10
187.8590718022273
 20
451.3549524503462
 10
136.3590718022274
 20
451.3549524503462
 10
136.3590718022274
 20
447.3549524503462
 97
        0
 92
        7
 72
     0
 73
     1
 93
        4
 10
204.8590718022273
 20
447.3549524503462
 10
204.8590718022274
 20
451.3549524503462
 10
187.8590718022273
 20
451.3549524503461
 10
187.8590718022273
 20
447.3549524503462
 97
        0
 92
        7
 72
     0
 73
     1
 93
        5
 10
277.8590718022274
 20
447.3549524503462
 10
277.8590718022274
 20
451.3549524503461
 10
260.8590718022274
 20
451.3549524503461
 10
260.8590718022274
 20
447.3549524503463
 10
262.4661166514183
 20
447.3549524503463
 97
        0
 92
        7
 72
     0
 73
     1
 93
        4
 10
329.3590718022274
 20
447.3549524503462
 10
329.3590718022274
 20
451.3549524503462
 10
277.8590718022274
 20
451.3549524503463
 10
277.8590718022274
 20
447.3549524503463
 97
        0
 92
        7
 72
     0
 73
     1
 93
        4
 10
357.8590718022274
 20
447.3549524503462
 10
357.8590718022274
 20
451.3549524503462
 10
341.3590718022274
 20
451.3549524503462
 10
341.3590718022274
 20
447.3549524503462
 97
        0
 75
     0
 76
     0
 52
135.0
 41
5.0
 77
     0
 78
     1
 53
135.0
 43
23.19220669251127
 44
32.77792750185176
 45
-3.535533905932737
 46
-3.535533905932737
 79
     0
 47
0.4165638472980479
 98
        6
 10
118.6924767708533
 20
448.7186815520622
 10
151.6216778357589
 20
447.8855548693745
 10
197.8892920384205
 20
447.8855548693745
 10
265.8318216141501
 20
447.8855548693745
 10
281.254359681704
 20
449.1352457513283
 10
349.613714746617
 20
448.3021190686407
  0
HATCH
  5
E9A
330
37C
100
AcDbEntity
  8
SCHRAFF
100
AcDbHatch
 10
0.0
 20
0.0
 30
0.0
210
0.0
220
0.0
230
1.0
  2
ANSI37
 70
     0
 71
     0
 91
        8
 92
        7
 72
     0
 73
     1
 93
        4
 10
187.8590718022273
 20
453.3549524503462
 10
187.8590718022273
 20
455.3549524503463
 10
160.3590718022274
 20
455.3549524503463
 10
160.3590718022274
 20
453.3549524503462
 97
        0
 92
        7
 72
     0
 73
     1
 93
        4
 10
187.8590718022273
 20
453.3549524503462
 10
160.3590718022274
 20
453.3549524503463
 10
160.3590718022273
 20
451.3549524503462
 10
187.8590718022273
 20
451.3549524503463
 97
        0
 92
        7
 72
     0
 73
     1
 93
        4
 10
187.8590718022273
 20
453.3549524503462
 10
197.8590718022273
 20
453.3549524503462
 10
197.8590718022273
 20
455.3549524503463
 10
187.8590718022273
 20
455.3549524503463
 97
        0
 92
        7
 72
     0
 73
     1
 93
        4
 10
197.8590718022273
 20
453.3549524503462
 10
187.8590718022273
 20
453.3549524503461
 10
187.8590718022273
 20
451.3549524503462
 10
197.8590718022273
 20
451.3549524503461
 97
        0
 92
        7
 72
     0
 73
     1
 93
        4
 10
267.8590718022274
 20
455.3549524503463
 10
267.8590718022274
 20
453.3549524503462
 10
277.8590718022274
 20
453.3549524503461
 10
277.8590718022274
 20
455.3549524503463
 97
        0
 92
        7
 72
     0
 73
     1
 93
        4
 10
277.8590718022274
 20
453.3549524503462
 10
305.3590718022273
 20
453.3549524503463
 10
305.3590718022273
 20
455.3549524503463
 10
277.8590718022274
 20
455.3549524503463
 97
        0
 92
        7
 72
     0
 73
     1
 93
        4
 10
277.8590718022274
 20
453.3549524503462
 10
277.8590718022274
 20
451.3549524503463
 10
305.3590718022273
 20
451.3549524503463
 10
305.3590718022273
 20
453.3549524503462
 97
        0
 92
        7
 72
     0
 73
     1
 93
        4
 10
277.8590718022273
 20
453.3549524503462
 10
267.8590718022274
 20
453.3549524503463
 10
267.8590718022273
 20
451.3549524503462
 10
277.8590718022273
 20
451.3549524503461
 97
        0
 75
     0
 76
     1
 52
0.0
 41
20.0
 77
     0
 78
     2
 53
45.0
 43
23.19220669251127
 44
32.77792750185176
 45
-1.767766952966368
 46
1.767766952966368
 79
     0
 53
135.0
 43
23.19220669251127
 44
32.77792750185176
 45
-1.767766952966368
 46
-1.767766952966368
 79
     0
 47
0.231548948812835
 98
       16
 10
171.9891769432524
 20
453.7554487204316
 10
190.5247217103219
 20
454.6816445359886
 10
191.4514993260936
 20
452.5977048089073
 10
184.7323641278704
 20
453.0608027166861
 10
275.556530215556
 20
454.4500964400217
 10
274.6297551159046
 20
452.1346069011287
 10
282.2756654137793
 20
452.8292529048744
 10
282.5073598177223
 20
455.6078403515459
 10
166.4285137647434
 20
455.1447424437674
 10
167.1235969765721
 20
452.5977048089073
 10
190.756416114265
 20
454.21854662821
 10
191.6831937300362
 20
452.1346069011287
 10
272.7761998843616
 20
454.9131943478005
 10
281.5805822019506
 20
454.21854662821
 10
282.0439710098362
 20
452.3661549970957
 10
273.2395886922473
 20
452.1346069011287
  0
CIRCLE
  5
EA6
330
37C
100
AcDbEntity
  8
STEMPEL
100
AcDbCircle
 10
232.8590718022274
 20
229.8501839140777
 30
0.0
 40
28.0
  0
LINE
  5
EA9
330
37C
100
AcDbEntity
  8
STEMPEL
100
AcDbLine
 10
124.3590718022274
 20
243.8501839140776
 30
0.0
 11
124.3590718022274
 21
215.8501839140777
 31
0.0
  0
LINE
  5
EAA
330
37C
100
AcDbEntity
  8
MITTEL
100
AcDbLine
 10
130.3590718022274
 20
254.8501839140777
 30
0.0
 11
130.3590718022274
 21
204.8501839140777
 31
0.0
  0
LINE
  5
EAB
330
37C
100
AcDbEntity
  8
STEMPEL
100
AcDbLine
 10
136.3590718022274
 20
243.8501839140776
 30
0.0
 11
136.3590718022274
 21
215.8501839140777
 31
0.0
  0
ARC
  5
EAD
330
37C
100
AcDbEntity
  8
STEMPEL
100
AcDbCircle
 10
130.3590718022274
 20
243.8501839140776
 30
0.0
 40
6.0
100
AcDbArc
 50
0.0
 51
180.0
  0
ARC
  5
EAE
330
37C
100
AcDbEntity
  8
STEMPEL
100
AcDbCircle
 10
130.3590718022274
 20
215.8501839140777
 30
0.0
 40
6.0
100
AcDbArc
 50
180.0
 51
0.0
  0
LINE
  5
EAF
330
37C
100
AcDbEntity
  8
MITTEL
100
AcDbLine
 10
335.3590718022274
 20
254.8501839140777
 30
0.0
 11
335.3590718022274
 21
204.8501839140777
 31
0.0
  0
LINE
  5
EB0
330
37C
100
AcDbEntity
  8
STEMPEL
100
AcDbLine
 10
329.3590718022274
 20
243.8501839140776
 30
0.0
 11
329.3590718022274
 21
215.8501839140777
 31
0.0
  0
LINE
  5
EB1
330
37C
100
AcDbEntity
  8
STEMPEL
100
AcDbLine
 10
341.3590718022274
 20
243.8501839140776
 30
0.0
 11
341.3590718022274
 21
215.8501839140777
 31
0.0
  0
ARC
  5
EB2
330
37C
100
AcDbEntity
  8
STEMPEL
100
AcDbCircle
 10
335.3590718022274
 20
215.8501839140777
 30
0.0
 40
6.0
100
AcDbArc
 50
180.0
 51
0.000000000000007
  0
ARC
  5
EB3
330
37C
100
AcDbEntity
  8
STEMPEL
100
AcDbCircle
 10
335.3590718022274
 20
243.8501839140776
 30
0.0
 40
6.0
100
AcDbArc
 50
0.000000000000007
 51
180.0
  0
DIMENSION
  5
EB4
330
37C
100
AcDbEntity
  8
BEM
100
AcDbDimension
  2
*D1
 10
305.3590718022274
 20
487.9880995279543
 30
0.0
 11
232.8590718022274
 21
494.4880995279543
 31
0.0
 70
    32
 71
     5
 42
145.0
  3
STANDARD
100
AcDbAlignedDimension
 13
160.3590718022274
 23
459.3549524503463
 33
0.0
 14
305.3590718022274
 24
459.3549524503463
 34
0.0
100
AcDbRotatedDimension
1001
ACAD
1000
DSTYLE
1002
{
1070
    40
1040
2.0
1070
    41
1040
3.5
1070
    42
1040
1.0
1070
    43
1040
7.0
1070
    44
1040
1.0
1070
    73
1070
     0
1070
    74
1070
     0
1070
    77
1070
     1
1070
    78
1070
     8
1070
    79
1070
     2
1070
   140
1040
3.5
1070
   141
1040
1.5
1070
   146
1040
0.5142857142857144
1070
   147
1040
1.5
1070
   172
1070
     1
1070
   178
1070
     1
1070
   179
1070
     2
1070
   279
1070
     0
1070
   289
1070
     0
1002
}
  0
DIMENSION
  5
EC1
330
37C
100
AcDbEntity
  8
BEM
100
AcDbDimension
  2
*D2
 10
357.8590718022274
 20
501.189516493079
 30
0.0
 11
232.8590718022274
 21
507.689516493079
 31
0.0
 70
    32
 71
     5
 42
250.0
  3
STANDARD
100
AcDbAlignedDimension
 13
107.8590718022274
 23
447.3549524503462
 33
0.0
 14
357.8590718022274
 24
447.3549524503462
 34
0.0
100
AcDbRotatedDimension
1001
ACAD
1000
DSTYLE
1002
{
1070
    40
1040
2.0
1070
    41
1040
3.5
1070
    42
1040
1.0
1070
    43
1040
7.0
1070
    44
1040
1.0
1070
    73
1070
     0
1070
    74
1070
     0
1070
    77
1070
     1
1070
    78
1070
     8
1070
    79
1070
     2
1070
   140
1040
3.5
1070
   141
1040
1.5
1070
   146
1040
0.5142857142857144
1070
   147
1040
1.5
1070
   172
1070
     1
1070
   178
1070
     1
1070
   179
1070
     2
1070
   279
1070
     0
1070
   289
1070
     0
1002
}
  0
DIMENSION
  5
F5D
330
37C
100
AcDbEntity
  8
BEM
100
AcDbDimension
  2
*D3
 10
379.9556568595181
 20
157.3501839140776
 30
0.0
 11
374.455656859518
 21
229.8501839140777
 31
0.0
 70
    32
 71
     5
 42
145.0
  3
STANDARD
100
AcDbAlignedDimension
 13
337.8590718022274
 23
302.3501839140777
 33
0.0
 14
337.8590718022274
 24
157.3501839140776
 34
0.0
 50
90.0
100
AcDbRotatedDimension
1001
ACAD
1000
DSTYLE
1002
{
1070
    40
1040
2.0
1070
    41
1040
3.5
1070
    42
1040
1.0
1070
    43
1040
7.0
1070
    44
1040
1.0
1070
    73
1070
     0
1070
    74
1070
     0
1070
    77
1070
     1
1070
    78
1070
     8
1070
   140
1040
3.5
1070
   141
1040
1.5
1070
   146
1040
0.5142857142857144
1070
   147
1040
1.0
1070
   172
1070
     1
1070
   178
1070
     1
1070
   279
1070
     0
1070
   289
1070
     0
1002
}
  0
LINE
  5
FB6
330
37C
100
AcDbEntity
  8
STEMPEL
100
AcDbLine
 10
160.3590718022274
 20
456.3549524503463
 30
0.0
 11
161.3590718022274
 21
455.3549524503463
 31
0.0
  0
LINE
  5
FB7
330
37C
100
AcDbEntity
  8
STEMPEL
100
AcDbLine
 10
197.8590718022273
 20
456.3549524503463
 30
0.0
 11
196.8590718022273
 21
455.3549524503464
 31
0.0
  0
LINE
  5
FB8
330
37C
100
AcDbEntity
  8
STEMPEL
100
AcDbLine
 10
160.3590718022274
 20
455.3549524503463
 30
0.0
 11
160.3590718022274
 21
451.3549524503463
 31
0.0
  0
LINE
  5
FB9
330
37C
100
AcDbEntity
  8
STEMPEL
100
AcDbLine
 10
305.3590718022273
 20
455.3549524503463
 30
0.0
 11
160.3590718022274
 21
455.3549524503465
 31
0.0
  0
LINE
  5
FBA
330
37C
100
AcDbEntity
  8
STEMPEL
100
AcDbLine
 10
305.3590718022273
 20
459.3549524503463
 30
0.0
 11
305.3590718022273
 21
456.3549524503463
 31
0.0
  0
LINE
  5
FBB
330
37C
100
AcDbEntity
  8
STEMPEL
100
AcDbLine
 10
305.3590718022273
 20
455.3549524503463
 30
0.0
 11
305.3590718022273
 21
451.3549524503463
 31
0.0
  0
LINE
  5
FBC
330
37C
100
AcDbEntity
  8
STEMPEL
100
AcDbLine
 10
305.3590718022273
 20
456.3549524503463
 30
0.0
 11
304.3590718022273
 21
455.3549524503463
 31
0.0
  0
LINE
  5
FBD
330
37C
100
AcDbEntity
  8
HILF
100
AcDbLine
 10
281.8590718022274
 20
476.3549524503459
 30
0.0
 11
281.8590718022274
 21
468.9549524503465
 31
0.0
  0
LINE
  5
FBE
330
37C
100
AcDbEntity
  8
STEMPEL
100
AcDbLine
 10
282.8590718022274
 20
475.3549524503458
 30
0.0
 11
282.8590718022274
 21
468.9549524503465
 31
0.0
  0
LINE
  5
FBF
330
37C
100
AcDbEntity
  8
HILF
100
AcDbLine
 10
273.8590718022274
 20
476.3549524503458
 30
0.0
 11
273.8590718022274
 21
468.9549524503465
 31
0.0
  0
LINE
  5
FC0
330
37C
100
AcDbEntity
  8
STEMPEL
100
AcDbLine
 10
272.8590718022274
 20
475.3549524503459
 30
0.0
 11
272.8590718022274
 21
468.9549524503465
 31
0.0
  0
LINE
  5
FC1
330
37C
100
AcDbEntity
  8
STEMPEL
100
AcDbLine
 10
267.3590718022274
 20
461.3549524503465
 30
0.0
 11
288.3590718022274
 21
461.3549524503463
 31
0.0
  0
ARC
  5
FC2
330
37C
100
AcDbEntity
  8
STEMPEL
100
AcDbCircle
 10
277.8590718022273
 20
472.7827649503459
 30
0.0
 40
11.42781249999961
100
AcDbArc
 50
245.852338130098
 51
294.147661869902
  0
LINE
  5
FC3
330
37C
100
AcDbEntity
  8
STEMPEL
100
AcDbLine
 10
270.8465718022273
 20
468.9549524503465
 30
0.0
 11
284.8715718022274
 21
468.9549524503465
 31
0.0
  0
ARC
  5
FC4
330
37C
100
AcDbEntity
  8
STEMPEL
100
AcDbCircle
 10
277.8590718022273
 20
457.5271399503468
 30
0.0
 40
11.42781249999961
100
AcDbArc
 50
65.85233813009799
 51
114.147661869902
  0
ARC
  5
FC5
330
37C
100
AcDbEntity
  8
STEMPEL
100
AcDbCircle
 10
284.8715718022273
 20
464.5869055753463
 30
0.0
 40
3.231953125000015
100
AcDbArc
 50
223.6767967281001
 51
316.3232032719004
  0
ARC
  5
FC6
330
37C
100
AcDbEntity
  8
STEMPEL
100
AcDbCircle
 10
284.8715718022273
 20
465.7229993253464
 30
0.0
 40
3.231953125000015
100
AcDbArc
 50
43.67679672809958
 51
136.3232032718998
  0
LINE
  5
FC7
330
37C
100
AcDbEntity
  8
STEMPEL
100
AcDbLine
 10
287.2090718022274
 20
467.9549524503463
 30
0.0
 11
287.2090718022274
 21
462.3549524503463
 31
0.0
  0
LINE
  5
FC8
330
37C
100
AcDbEntity
  8
STEMPEL
100
AcDbLine
 10
288.3590718022274
 20
461.3549524503463
 30
0.0
 11
288.3590718022274
 21
459.3549524503464
 31
0.0
  0
LINE
  5
FC9
330
37C
100
AcDbEntity
  8
STEMPEL
100
AcDbLine
 10
282.5340718022273
 20
467.9549524503464
 30
0.0
 11
282.5340718022275
 21
462.3549524503463
 31
0.0
  0
LINE
  5
FCA
330
37C
100
AcDbEntity
  8
STEMPEL
100
AcDbLine
 10
267.8590718022274
 20
459.3549524503463
 30
0.0
 11
267.8590718022273
 21
456.3549524503463
 31
0.0
  0
LINE
  5
FCB
330
37C
100
AcDbEntity
  8
STEMPEL
100
AcDbLine
 10
267.8590718022274
 20
456.3549524503463
 30
0.0
 11
268.8590718022274
 21
455.3549524503464
 31
0.0
  0
ARC
  5
FCC
330
37C
100
AcDbEntity
  8
STEMPEL
100
AcDbCircle
 10
270.8465718022273
 20
465.7229993253467
 30
0.0
 40
3.231953125000015
100
AcDbArc
 50
43.67679672809553
 51
136.3232032718998
  0
ARC
  5
FCD
330
37C
100
AcDbEntity
  8
STEMPEL
100
AcDbCircle
 10
270.8465718022273
 20
464.5869055753459
 30
0.0
 40
3.231953125000015
100
AcDbArc
 50
223.6767967281001
 51
316.3232032719045
  0
LINE
  5
FCE
330
37C
100
AcDbEntity
  8
STEMPEL
100
AcDbLine
 10
273.1840718022275
 20
467.9549524503467
 30
0.0
 11
273.1840718022273
 21
462.3549524503459
 31
0.0
  0
LINE
  5
FCF
330
37C
100
AcDbEntity
  8
STEMPEL
100
AcDbLine
 10
268.5090718022275
 20
467.9549524503469
 30
0.0
 11
268.5090718022274
 21
462.3549524503459
 31
0.0
  0
LINE
  5
FD0
330
37C
100
AcDbEntity
  8
STEMPEL
100
AcDbLine
 10
267.3590718022274
 20
461.3549524503463
 30
0.0
 11
267.3590718022274
 21
459.3549524503463
 31
0.0
  0
LINE
  5
FD1
330
37C
100
AcDbEntity
  8
STEMPEL
100
AcDbLine
 10
281.8590718022274
 20
476.3549524503459
 30
0.0
 11
273.8590718022274
 21
476.3549524503459
 31
0.0
  0
LINE
  5
FD2
330
37C
100
AcDbEntity
  8
STEMPEL
100
AcDbLine
 10
272.8590718022274
 20
475.3549524503459
 30
0.0
 11
282.8590718022272
 21
475.3549524503459
 31
0.0
  0
LINE
  5
FD3
330
37C
100
AcDbEntity
  8
STEMPEL
100
AcDbLine
 10
282.8590718022274
 20
475.3549524503459
 30
0.0
 11
281.8590718022274
 21
476.3549524503459
 31
0.0
  0
LINE
  5
FD4
330
37C
100
AcDbEntity
  8
STEMPEL
100
AcDbLine
 10
273.8590718022274
 20
476.3549524503459
 30
0.0
 11
272.8590718022274
 21
475.3549524503459
 31
0.0
  0
LINE
  5
FD5
330
37C
100
AcDbEntity
  8
STEMPEL
100
AcDbLine
 10
267.8590718022274
 20
456.3549524503463
 30
0.0
 11
197.8590718022273
 21
456.3549524503463
 31
0.0
  0
LINE
  5
FD6
330
37C
100
AcDbEntity
  8
STEMPEL
100
AcDbLine
 10
197.8590718022274
 20
455.3549524503465
 30
0.0
 11
197.8590718022274
 21
451.3549524503462
 31
0.0
  0
LINE
  5
FD7
330
37C
100
AcDbEntity
  8
STEMPEL
100
AcDbLine
 10
267.8590718022273
 20
455.3549524503464
 30
0.0
 11
267.8590718022273
 21
451.3549524503462
 31
0.0
  0
DIMENSION
  5
1023
330
37C
100
AcDbEntity
  8
BEM
100
AcDbDimension
  2
*D4
 10
335.3590718022274
 20
133.5817705719171
 30
0.0
 11
232.8590718022274
 21
139.0817705719171
 31
0.0
 70
    32
 71
     5
 42
205.0
  3
STANDARD
100
AcDbAlignedDimension
 13
130.3590718022274
 23
204.8501839140777
 33
0.0
 14
335.3590718022274
 24
204.8501839140777
 34
0.0
100
AcDbRotatedDimension
1001
ACAD
1000
DSTYLE
1002
{
1070
    40
1040
2.0
1070
    41
1040
3.5
1070
    42
1040
1.0
1070
    43
1040
7.0
1070
    44
1040
1.0
1070
    73
1070
     0
1070
    74
1070
     0
1070
    77
1070
     1
1070
    78
1070
     8
1070
   140
1040
3.5
1070
   141
1040
1.5
1070
   146
1040
0.5142857142857144
1070
   147
1040
1.0
1070
   172
1070
     1
1070
   178
1070
     1
1070
   279
1070
     0
1070
   289
1070
     0
1002
}
  0
ARC
  5
105F
330
37C
100
AcDbEntity
  8
HILF
100
AcDbCircle
 10
277.8590718022274
 20
274.8501839140776
 30
0.0
 40
4.0
100
AcDbArc
 50
74.02008240871722
 51
14.50017138603134
  0
ARC
  5
1060
330
37C
100
AcDbEntity
  8
HILF
100
AcDbCircle
 10
277.8590718022274
 20
184.8501839140776
 30
0.0
 40
4.0
100
AcDbArc
 50
74.02008240871722
 51
14.50017138603134
  0
ARC
  5
1061
330
37C
100
AcDbEntity
  8
HILF
100
AcDbCircle
 10
187.8590718022273
 20
184.8501839140776
 30
0.0
 40
4.0
100
AcDbArc
 50
74.02008240871722
 51
14.50017138603134
  0
TEXT
  5
10DE
330
37C
100
AcDbEntity
  8
TEXT
100
AcDbText
 10
43.18334050378325
 20
113.8351891759161
 30
0.0
 40
5.0
  1
Erstellt mit AUTOCAD 2004
 41
0.8
  7
GREEKS
100
AcDbText
  0
LINE
  5
1338
330
37C
100
AcDbEntity
  8
STEMPEL
100
AcDbLine
 10
259.8590718022275
 20
378.7528379573003
 30
0.0
 11
260.9170336864782
 21
384.7528379573003
 31
0.0
  0
ARC
  5
1339
330
37C
100
AcDbEntity
  8
STEMPEL
100
AcDbCircle
 10
258.3590718022275
 20
369.7528379573004
 30
0.0
 40
3.0
100
AcDbArc
 50
270.0
 51
348.4630409671851
  0
ARC
  5
133A
330
37C
100
AcDbEntity
  8
STEMPEL
100
AcDbCircle
 10
256.8590718022275
 20
370.7528379573003
 30
0.0
 40
3.0
100
AcDbArc
 50
270.0
 51
0.0
  0
LINE
  5
133B
330
37C
100
AcDbEntity
  8
STEMPEL
100
AcDbLine
 10
232.8590718022274
 20
384.7528379573004
 30
0.0
 11
261.1062950524948
 21
384.7528379573003
 31
0.0
  0
INSERT
  5
133C
330
37C
100
AcDbEntity
  8
SCHRAFF
100
AcDbBlockReference
  2
*X5
 10
120.3590718022274
 20
192.7933347433695
 30
0.0
1001
ACAD
1000
HATCH
1002
{
1070
    16
1000
NET,I
1040
10.0
1040
0.7853981633974483
1002
}
  0
LINE
  5
133D
330
37C
100
AcDbEntity
  8
STEMPEL
100
AcDbLine
 10
232.8590718022274
 20
384.7528379573004
 30
0.0
 11
204.61184855196
 21
384.7528379573003
 31
0.0
  0
LINE
  5
133E
330
37C
100
AcDbEntity
  8
STEMPEL
100
AcDbLine
 10
232.8590718022274
 20
366.7528379573004
 30
0.0
 11
207.3590718022273
 21
366.7528379573004
 31
0.0
  0
LINE
  5
133F
330
37C
100
AcDbEntity
  8
STEMPEL
100
AcDbLine
 10
232.8590718022274
 20
367.7528379573003
 30
0.0
 11
208.8590718022274
 21
367.7528379573003
 31
0.0
  0
LINE
  5
1340
330
37C
100
AcDbEntity
  8
STEMPEL
100
AcDbLine
 10
232.8590718022274
 20
378.7528379573004
 30
0.0
 11
205.8590718022274
 21
378.7528379573003
 31
0.0
  0
ARC
  5
1341
330
37C
100
AcDbEntity
  8
STEMPEL
100
AcDbCircle
 10
207.3590718022273
 20
369.7528379573004
 30
0.0
 40
3.0
100
AcDbArc
 50
191.5369590328149
 51
270.0
  0
LINE
  5
1342
330
37C
100
AcDbEntity
  8
STEMPEL
100
AcDbLine
 10
205.8590718022274
 20
378.7528379573003
 30
0.0
 11
204.8011099179766
 21
384.7528379573003
 31
0.0
  0
LINE
  5
1343
330
37C
100
AcDbEntity
  8
STEMPEL
100
AcDbLine
 10
204.0148441092493
 20
379.0818278856375
 30
0.0
 11
202.6090718022275
 21
375.2195002152001
 31
0.0
  0
LINE
  5
1344
330
37C
100
AcDbEntity
  8
STEMPEL
100
AcDbLine
 10
205.1230038247276
 20
367.7528379573003
 30
0.0
 11
200.8590718022275
 21
367.7528379573004
 31
0.0
  0
LINE
  5
1345
330
37C
100
AcDbEntity
  8
STEMPEL
100
AcDbLine
 10
200.8590718022275
 20
367.7528379573004
 30
0.0
 11
202.6090718022275
 21
371.5057250681921
 31
0.0
  0
LINE
  5
1346
330
37C
100
AcDbEntity
  8
STEMPEL
100
AcDbLine
 10
202.0090718022275
 20
372.7528379573003
 30
0.0
 11
202.6090718022275
 21
372.1528379573003
 31
0.0
  0
LINE
  5
1347
330
37C
100
AcDbEntity
  8
STEMPEL
100
AcDbLine
 10
205.8590718022274
 20
378.7528379573003
 30
0.0
 11
205.8590718022274
 21
370.7528379573003
 31
0.0
  0
ARC
  5
1348
330
37C
100
AcDbEntity
  8
STEMPEL
100
AcDbCircle
 10
208.8590718022274
 20
370.7528379573003
 30
0.0
 40
3.0
100
AcDbArc
 50
180.0
 51
270.0
  0
LINE
  5
1349
330
37C
100
AcDbEntity
  8
STEMPEL
100
AcDbLine
 10
202.6090718022275
 20
372.1528379573003
 30
0.0
 11
202.6090718022275
 21
371.5057250681921
 31
0.0
  0
LINE
  5
134A
330
37C
100
AcDbEntity
  8
STEMPEL
100
AcDbLine
 10
203.6848371880523
 20
369.7528379573004
 30
0.0
 11
203.6090718022275
 21
369.7528379573004
 31
0.0
  0
LINE
  5
134B
330
37C
100
AcDbEntity
  8
STEMPEL
100
AcDbLine
 10
202.8590718022275
 20
369.0028379573004
 30
0.0
 11
202.8590718022275
 21
367.7528379573003
 31
0.0
  0
ARC
  5
134C
330
37C
100
AcDbEntity
  8
STEMPEL
100
AcDbCircle
 10
203.6090718022275
 20
369.0028379573004
 30
0.0
 40
0.75
100
AcDbArc
 50
90.0
 51
180.0
  0
ARC
  5
134D
330
37C
100
AcDbEntity
  8
STEMPEL
100
AcDbCircle
 10
203.6848371880523
 20
369.0028379573003
 30
0.0
 40
0.75
100
AcDbArc
 50
11.53695903281494
 51
90.0
  0
LINE
  5
134E
330
37C
100
AcDbEntity
  8
STEMPEL
100
AcDbLine
 10
208.8590718022274
 20
367.7528379573002
 30
0.0
 11
208.8590718022274
 21
366.7528379573004
 31
0.0
  0
POINT
  5
134F
330
37C
100
AcDbEntity
  8
DEFPOINTS
  6
ByBlock
 62
     0
100
AcDbPoint
 10
205.8590718022274
 20
370.7528379573003
 30
0.0
  0
LINE
  5
1350
330
37C
100
AcDbEntity
  8
STEMPEL
100
AcDbLine
 10
202.0090718022275
 20
373.7528379573003
 30
0.0
 11
202.0090718022275
 21
372.7528379573003
 31
0.0
  0
LINE
  5
1351
330
37C
100
AcDbEntity
  8
STEMPEL
100
AcDbLine
 10
202.6090718022275
 20
375.2195002152001
 30
0.0
 11
202.6090718022275
 21
374.3528379573003
 31
0.0
  0
LINE
  5
1352
330
37C
100
AcDbEntity
  8
STEMPEL
100
AcDbLine
 10
202.0090718022275
 20
373.7528379573003
 30
0.0
 11
202.6090718022275
 21
374.3528379573003
 31
0.0
  0
POINT
  5
1353
330
37C
100
AcDbEntity
  8
DEFPOINTS
  6
ByBlock
 62
     0
100
AcDbPoint
 10
205.8590718022274
 20
378.7528379573003
 30
0.0
  0
POINT
  5
1354
330
37C
100
AcDbEntity
  8
DEFPOINTS
  6
ByBlock
 62
     0
100
AcDbPoint
 10
205.8590718022274
 20
378.7528379573003
 30
0.0
  0
LINE
  5
1355
330
37C
100
AcDbEntity
  8
STEMPEL
100
AcDbLine
 10
203.5449977988564
 20
379.7528379573003
 30
0.0
 11
200.8590718022275
 21
379.7528379573003
 31
0.0
  0
LINE
  5
1356
330
37C
100
AcDbEntity
  8
STEMPEL
100
AcDbLine
 10
200.8590718022275
 20
379.7528379573003
 30
0.0
 11
203.3128104462833
 21
384.0028379573003
 31
0.0
  0
ARC
  5
1357
330
37C
100
AcDbEntity
  8
STEMPEL
100
AcDbCircle
 10
204.61184855196
 20
383.2528379573003
 30
0.0
 40
1.5
100
AcDbArc
 50
90.0
 51
149.9999999999994
  0
POINT
  5
1358
330
37C
100
AcDbEntity
  8
DEFPOINTS
  6
ByBlock
 62
     0
100
AcDbPoint
 10
204.8011099179766
 20
384.7528379573003
 30
0.0
  0
ARC
  5
1359
330
37C
100
AcDbEntity
  8
STEMPEL
100
AcDbCircle
 10
203.5449977988564
 20
379.2528379573003
 30
0.0
 40
0.5
100
AcDbArc
 50
340.0000000000005
 51
90.0
  0
LINE
  5
135A
330
37C
100
AcDbEntity
  8
MITTEL
100
AcDbLine
 10
232.8590718022274
 20
387.7528379573003
 30
0.0
 11
232.8590718022274
 21
363.7528379573003
 31
0.0
  0
LINE
  5
135B
330
37C
100
AcDbEntity
  8
MITTEL
100
AcDbLine
 10
232.8590718022273
 20
389.7528379573003
 30
0.0
 11
232.8590718022273
 21
361.7528379573004
 31
0.0
  0
LINE
  5
135C
330
37C
100
AcDbEntity
  8
STEMPEL
100
AcDbLine
 10
232.8590718022274
 20
378.7528379573004
 30
0.0
 11
259.8590718022275
 21
378.7528379573003
 31
0.0
  0
LINE
  5
135D
330
37C
100
AcDbEntity
  8
STEMPEL
100
AcDbLine
 10
232.8590718022274
 20
367.7528379573003
 30
0.0
 11
256.8590718022275
 21
367.7528379573003
 31
0.0
  0
LINE
  5
135E
330
37C
100
AcDbEntity
  8
STEMPEL
100
AcDbLine
 10
232.8590718022274
 20
366.7528379573004
 30
0.0
 11
258.3590718022275
 21
366.7528379573004
 31
0.0
  0
LINE
  5
135F
330
37C
100
AcDbEntity
  8
STEMPEL
100
AcDbLine
 10
259.8590718022275
 20
378.7528379573003
 30
0.0
 11
259.8590718022275
 21
370.7528379573003
 31
0.0
  0
LINE
  5
1360
330
37C
100
AcDbEntity
  8
STEMPEL
100
AcDbLine
 10
256.8590718022275
 20
367.7528379573002
 30
0.0
 11
256.8590718022275
 21
366.7528379573004
 31
0.0
  0
POINT
  5
1361
330
37C
100
AcDbEntity
  8
DEFPOINTS
  6
ByBlock
 62
     0
100
AcDbPoint
 10
258.3590718022275
 20
366.7528379573004
 30
0.0
  0
LINE
  5
1362
330
37C
100
AcDbEntity
  8
STEMPEL
100
AcDbLine
 10
261.7032994952055
 20
379.0818278856375
 30
0.0
 11
263.1090718022275
 21
375.2195002152001
 31
0.0
  0
LINE
  5
1363
330
37C
100
AcDbEntity
  8
STEMPEL
100
AcDbLine
 10
263.7090718022274
 20
372.7528379573003
 30
0.0
 11
263.1090718022275
 21
372.1528379573003
 31
0.0
  0
LINE
  5
1364
330
37C
100
AcDbEntity
  8
STEMPEL
100
AcDbLine
 10
264.8590718022275
 20
367.7528379573004
 30
0.0
 11
263.1090718022275
 21
371.5057250681921
 31
0.0
  0
LINE
  5
1365
330
37C
100
AcDbEntity
  8
STEMPEL
100
AcDbLine
 10
260.5951397797272
 20
367.7528379573003
 30
0.0
 11
264.8590718022275
 21
367.7528379573004
 31
0.0
  0
LINE
  5
1366
330
37C
100
AcDbEntity
  8
STEMPEL
100
AcDbLine
 10
263.1090718022275
 20
372.1528379573003
 30
0.0
 11
263.1090718022275
 21
371.5057250681921
 31
0.0
  0
LINE
  5
1367
330
37C
100
AcDbEntity
  8
STEMPEL
100
AcDbLine
 10
262.8590718022275
 20
369.0028379573004
 30
0.0
 11
262.8590718022275
 21
367.7528379573003
 31
0.0
  0
ARC
  5
1368
330
37C
100
AcDbEntity
  8
STEMPEL
100
AcDbCircle
 10
262.1090718022275
 20
369.0028379573004
 30
0.0
 40
0.75
100
AcDbArc
 50
0.0
 51
90.0
  0
LINE
  5
1369
330
37C
100
AcDbEntity
  8
STEMPEL
100
AcDbLine
 10
262.0333064164025
 20
369.7528379573004
 30
0.0
 11
262.1090718022275
 21
369.7528379573004
 31
0.0
  0
ARC
  5
136A
330
37C
100
AcDbEntity
  8
STEMPEL
100
AcDbCircle
 10
262.0333064164025
 20
369.0028379573003
 30
0.0
 40
0.75
100
AcDbArc
 50
90.0
 51
168.463040967185
  0
LINE
  5
136B
330
37C
100
AcDbEntity
  8
STEMPEL
100
AcDbLine
 10
263.7090718022274
 20
373.7528379573003
 30
0.0
 11
263.7090718022274
 21
372.7528379573003
 31
0.0
  0
LINE
  5
136C
330
37C
100
AcDbEntity
  8
STEMPEL
100
AcDbLine
 10
263.1090718022275
 20
375.2195002152001
 30
0.0
 11
263.1090718022275
 21
374.3528379573003
 31
0.0
  0
LINE
  5
136D
330
37C
100
AcDbEntity
  8
STEMPEL
100
AcDbLine
 10
263.7090718022274
 20
373.7528379573003
 30
0.0
 11
263.1090718022275
 21
374.3528379573003
 31
0.0
  0
ARC
  5
136E
330
37C
100
AcDbEntity
  8
STEMPEL
100
AcDbCircle
 10
261.1062950524948
 20
383.2528379573003
 30
0.0
 40
1.5
100
AcDbArc
 50
30.00000000000055
 51
90.0
  0
LINE
  5
136F
330
37C
100
AcDbEntity
  8
STEMPEL
100
AcDbLine
 10
264.8590718022275
 20
379.7528379573003
 30
0.0
 11
262.4053331581716
 21
384.0028379573003
 31
0.0
  0
LINE
  5
1370
330
37C
100
AcDbEntity
  8
STEMPEL
100
AcDbLine
 10
262.1731458055984
 20
379.7528379573003
 30
0.0
 11
264.8590718022275
 21
379.7528379573003
 31
0.0
  0
POINT
  5
1371
330
37C
100
AcDbEntity
  8
DEFPOINTS
  6
ByBlock
 62
     0
100
AcDbPoint
 10
261.1062950524948
 20
384.7528379573003
 30
0.0
  0
ARC
  5
1372
330
37C
100
AcDbEntity
  8
STEMPEL
100
AcDbCircle
 10
262.1731458055984
 20
379.2528379573003
 30
0.0
 40
0.5
100
AcDbArc
 50
90.0
 51
199.9999999999995
  0
TEXT
  5
14F8
330
37C
100
AcDbEntity
  8
TEXT
 62
     1
100
AcDbText
 10
69.62919206418405
 20
381.6212369030516
 30
0.0
 40
7.0
  1
Dichtelement DN50
 41
0.8
  7
GREEKS
100
AcDbText
  0
TEXT
  5
14F9
330
37C
100
AcDbEntity
  8
TEXT
 62
     1
100
AcDbText
 10
69.88066869724548
 20
368.8733845249478
 30
0.0
 40
7.0
  1
EDV-Art.Nr. 00911.050X
 41
0.8
  7
GREEKS
100
AcDbText
  0
LINE
  5
14FA
330
37C
100
AcDbEntity
  8
TEXT
 62
     2
100
AcDbLine
 10
172.6885750570291
 20
377.9786542568491
 30
0.0
 11
69.82314480582909
 21
377.9786542568491
 31
0.0
  0
LINE
  5
14FB
330
37C
100
AcDbEntity
  8
TEXT
 62
     2
100
AcDbLine
 10
172.6885750570291
 20
377.9786542568491
 30
0.0
 11
203.7550559267029
 21
373.9871910202956
 31
0.0
  0
TEXT
  5
1506
330
37C
100
AcDbEntity
  8
TEXT
100
AcDbText
 10
234.877940380901
 20
52.081113428435
 30
0.0
 40
5.0
  1
EDV-Art.Nr. 13232.050X
 41
0.8
  7
GREEKS
100
AcDbText
  0
TEXT
  5
15E8
330
37C
100
AcDbEntity
  8
BEM
100
AcDbText
 10
416.5811541437437
 20
12.14804815338303
 30
0.0
 40
4.0
  1
Diese Zeichnung ist urheberrechtlich geschützt und bleibt unser Eigentum. Sie darf weder ganz noch teilweise vervielfältigt und nicht an Dritte weitergegeben werden.
 50
90.0
 41
0.8
  7
GREEKS
100
AcDbText
  0
HATCH
  5
165D
330
37C
100
AcDbEntity
  8
SCHRAFF
100
AcDbHatch
 10
0.0
 20
0.0
 30
0.0
210
0.0
220
0.0
230
1.0
  2
_USER
 70
     0
 71
     0
 91
        6
 92
        7
 72
     0
 73
     1
 93
        5
 10
187.8590718022273
 20
455.3549524503465
 10
187.8590718022273
 20
459.3549524503463
 10
160.3590718022274
 20
459.3549524503462
 10
160.3590718022274
 20
456.3549524503462
 10
161.3590718022271
 20
455.3549524503465
 97
        0
 92
        7
 72
     0
 73
     1
 93
        5
 10
196.8590718022276
 20
455.3549524503467
 10
197.8590718022274
 20
456.3549524503463
 10
197.8590718022273
 20
459.3549524503463
 10
187.8590718022273
 20
459.3549524503463
 10
187.8590718022273
 20
455.3549524503465
 97
        0
 92
        7
 72
     0
 73
     1
 93
        5
 10
277.8590718022273
 20
455.3549524503464
 10
277.8590718022273
 20
459.3549524503461
 10
267.8590718022274
 20
459.3549524503461
 10
267.8590718022274
 20
456.3549524503463
 10
268.8590718022273
 20
455.3549524503464
 97
        0
 92
        7
 72
     0
 73
     1
 93
        4
 10
277.8590718022273
 20
459.3549524503463
 10
277.8590718022274
 20
455.3549524503464
 10
297.0860866533507
 20
455.3549524503463
 10
298.4582937785559
 20
459.3549524503463
 97
        0
 92
        7
 72
     0
 73
     1
 93
        4
 10
303.9493045737467
 20
455.3549524503463
 10
304.9403380591467
 20
459.3549524503462
 10
298.4582937785559
 20
459.3549524503462
 10
297.0860866533508
 20
455.3549524503464
 97
        0
 92
        7
 72
     0
 73
     1
 93
        5
 10
303.9493045737467
 20
455.3549524503463
 10
304.3590718022273
 20
455.3549524503463
 10
305.3590718022273
 20
456.3549524503463
 10
305.3590718022273
 20
459.3549524503463
 10
304.9403380591468
 20
459.3549524503463
 97
        0
 75
     0
 76
     0
 52
45.0
 41
5.0
 77
     0
 78
     1
 53
45.0
 43
23.19220669251127
 44
32.77792750185176
 45
-3.535533905932737
 46
3.535533905932737
 79
     0
 47
0.2433659009131525
 98
        6
 10
169.7037864118031
 20
457.2166402830475
 10
190.8837611564486
 20
455.7564446910419
 10
274.6298677251584
 20
457.2166402830475
 10
282.1767542789082
 20
457.4600057530842
 10
301.1656970258937
 20
457.2166402830475
 10
304.8174176383609
 20
456.9732748130106
  0
HATCH
  5
16C5
330
37C
100
AcDbEntity
  8
SCHRAFF
100
AcDbHatch
 10
0.0
 20
0.0
 30
0.0
210
0.0
220
0.0
230
1.0
  2
_USER
 70
     0
 71
     0
 91
        2
 92
        7
 72
     0
 73
     1
 93
        4
 10
263.7590718022273
 20
447.3549524503462
 10
262.7590718022273
 20
447.3549524503462
 10
262.7590718022275
 20
417.3549524503465
 10
263.7590718022274
 20
417.3549524503465
 97
        0
 92
        7
 72
     0
 73
     1
 93
        4
 10
201.9590718022274
 20
417.354952450346
 10
202.9590718022274
 20
417.3549524503461
 10
202.9590718022273
 20
447.3549524503462
 10
201.9590718022273
 20
447.3549524503463
 97
        0
 75
     0
 76
     0
 52
45.0
 41
2.0
 77
     0
 78
     1
 53
45.0
 43
23.19220669251127
 44
32.77792750185176
 45
-1.414213562373094
 46
1.414213562373095
 79
     0
 47
0.1485493487087087
 98
        2
 10
263.5070985525604
 20
428.4621825444362
 10
202.4327237461057
 20
432.7701124262027
  0
DIMENSION
  5
16C6
330
37C
100
AcDbEntity
  8
BEM
100
AcDbDimension
  2
*D6
 10
263.7590718022273
 20
397.5478821788979
 30
0.0
 11
232.8590718022274
 21
404.0478821788979
 31
0.0
 70
    32
  1
%%c<>
 71
     5
 42
61.79999999999998
  3
STANDARD
100
AcDbAlignedDimension
 13
201.9590718022274
 23
417.354952450346
 33
0.0
 14
263.7590718022273
 24
417.3549524503465
 34
0.0
100
AcDbRotatedDimension
1001
ACAD
1000
DSTYLE
1002
{
1070
    40
1040
2.0
1070
    41
1040
3.5
1070
    42
1040
1.0
1070
    43
1040
7.0
1070
    44
1040
1.0
1070
    47
1040
3.0
1070
    48
1040
0.000000001
1070
    73
1070
     0
1070
    74
1070
     0
1070
    77
1070
     1
1070
    78
1070
     8
1070
    79
1070
     2
1070
   140
1040
3.5
1070
   141
1040
1.5
1070
   146
1040
0.5
1070
   147
1040
1.5
1070
   172
1070
     1
1070
   178
1070
     1
1070
   179
1070
     2
1070
   279
1070
     0
1002
}
  0
LINE
  5
16C7
330
37C
100
AcDbEntity
  8
STEMPEL
  6
Continuous
100
AcDbLine
 10
263.7590718022273
 20
417.3549524503465
 30
0.0
 11
201.9590718022274
 21
417.354952450346
 31
0.0
  0
DIMENSION
  5
16C8
330
37C
100
AcDbEntity
  8
BEM
100
AcDbDimension
  2
*D7
 10
376.9804356742935
 20
447.3549524503462
 30
0.0
 11
376.9804356742934
 21
432.1278937160855
 31
0.0
 70
   160
 71
     5
 42
29.99999999999971
  3
STANDARD
100
AcDbAlignedDimension
 13
263.7590718022273
 23
417.3549524503465
 33
0.0
 14
357.8590718022274
 24
447.3549524503462
 34
0.0
 50
90.0
100
AcDbRotatedDimension
1001
ACAD
1000
DSTYLE
1002
{
1070
    40
1040
2.0
1070
    41
1040
3.5
1070
    42
1040
1.0
1070
    43
1040
7.0
1070
    44
1040
1.0
1070
    73
1070
     0
1070
    74
1070
     0
1070
    77
1070
     1
1070
    78
1070
     8
1070
   140
1040
3.5
1070
   141
1040
1.5
1070
   146
1040
0.5142857142857144
1070
   147
1040
1.5
1070
   172
1070
     1
1070
   178
1070
     1
1070
   279
1070
     0
1002
}
  0
LINE
  5
16C9
330
37C
100
AcDbEntity
  8
STEMPEL
100
AcDbLine
 10
262.7590718022273
 20
447.3549524503461
 30
0.0
 11
262.7590718022274
 21
417.3549524503465
 31
0.0
  0
LINE
  5
16CA
330
37C
100
AcDbEntity
  8
STEMPEL
100
AcDbLine
 10
263.7590718022273
 20
447.3549524503461
 30
0.0
 11
263.7590718022273
 21
417.3549524503465
 31
0.0
  0
HATCH
  5
16CB
330
37C
100
AcDbEntity
  8
SCHRAFF
100
AcDbHatch
 10
0.0
 20
0.0
 30
0.0
210
0.0
220
0.0
230
1.0
  2
_USER
 70
     0
 71
     0
 91
        1
 92
        7
 72
     1
 73
     1
 93
        3
 10
267.7590718022273
 20
447.3549524503462
 42
0.0
 10
263.7590718022273
 20
447.3549524503462
 42
0.0
 10
263.7590718022273
 20
443.3549524503462
 42
0.4142135623730909
 97
        0
 75
     0
 76
     0
 52
0.0
 41
0.1
 77
     0
 78
     1
 53
0.0
 43
23.19220669251127
 44
32.77792750185176
 45
0.0
 46
0.1
 79
     0
 47
0.072206506534675
 98
        1
 10
266.3717175403176
 20
445.7381929693324
  0
ARC
  5
16CC
330
37C
100
AcDbEntity
  8
SCHRAFF
100
AcDbCircle
 10
263.7590718022273
 20
447.3549524503462
 30
0.0
 40
4.0
100
AcDbArc
 50
270.0
 51
0.0
  0
LINE
  5
16CD
330
37C
100
AcDbEntity
  8
STEMPEL
100
AcDbLine
 10
202.9590718022273
 20
447.3549524503461
 30
0.0
 11
202.9590718022274
 21
417.354952450346
 31
0.0
  0
LINE
  5
16CE
330
37C
100
AcDbEntity
  8
STEMPEL
100
AcDbLine
 10
201.9590718022273
 20
447.3549524503461
 30
0.0
 11
201.9590718022274
 21
417.354952450346
 31
0.0
  0
HATCH
  5
16CF
330
37C
100
AcDbEntity
  8
SCHRAFF
100
AcDbHatch
 10
0.0
 20
0.0
 30
0.0
210
0.0
220
0.0
230
1.0
  2
_USER
 70
     0
 71
     0
 91
        1
 92
        7
 72
     1
 73
     1
 93
        3
 10
197.9590718022274
 20
447.3549524503461
 42
0.0
 10
201.9590718022274
 20
447.3549524503461
 42
0.0
 10
201.9590718022274
 20
443.3549524503461
 42
-0.4142135623730929
 97
        0
 75
     0
 76
     0
 52
0.0
 41
0.1
 77
     0
 78
     1
 53
180.0000000000001
 43
442.5259369119445
 44
32.77792750185233
 45
-0.0000000000000003
 46
0.1
 79
     0
 47
0.072206506534675
 98
        1
 10
199.3464260641371
 20
445.7381929693323
  0
ARC
  5
16D0
330
37C
100
AcDbEntity
  8
SCHRAFF
100
AcDbCircle
 10
201.9590718022274
 20
447.3549524503461
 30
0.0
 40
4.0
100
AcDbArc
 50
180.0
 51
270.0
  0
ENDSEC
  0
SECTION
  2
OBJECTS
  0
DICTIONARY
  5
371
330
0
100
AcDbDictionary
281
     1
  3
ACAD_COLOR
350
158A
  3
ACAD_GROUP
350
372
  3
ACAD_LAYOUT
350
CE9
  3
ACAD_MATERIAL
350
1589
  3
ACAD_MLINESTYLE
350
37F
  3
ACAD_PLOTSETTINGS
350
CEA
  3
ACAD_PLOTSTYLENAME
350
CE7
  3
ACDBVARIABLEDICTIONARY
350
39E
  0
DICTIONARY
  5
158A
102
{ACAD_REACTORS
330
371
102
}
330
371
100
AcDbDictionary
281
     1
  0
DICTIONARY
  5
372
102
{ACAD_REACTORS
330
371
102
}
330
371
100
AcDbDictionary
281
     1
  0
DICTIONARY
  5
CE9
102
{ACAD_REACTORS
330
371
102
}
330
371
100
AcDbDictionary
281
     1
  3
Layout1
350
CEC
  3
Model
350
CEB
  0
DICTIONARY
  5
1589
102
{ACAD_REACTORS
330
371
102
}
330
371
100
AcDbDictionary
281
     1
  0
DICTIONARY
  5
37F
102
{ACAD_REACTORS
330
371
102
}
330
371
100
AcDbDictionary
281
     1
  3
STANDARD
350
380
  0
DICTIONARY
  5
CEA
102
{ACAD_REACTORS
330
371
102
}
330
371
100
AcDbDictionary
281
     1
  0
ACDBDICTIONARYWDFLT
  5
CE7
102
{ACAD_REACTORS
330
371
102
}
330
371
100
AcDbDictionary
281
     1
  3
Normal
350
CE8
100
AcDbDictionaryWithDefault
340
CE8
  0
DICTIONARY
  5
39E
102
{ACAD_REACTORS
330
371
102
}
330
371
100
AcDbDictionary
281
     1
  3
DIMADEC
350
39F
  3
DIMASSOC
350
161B
  3
PROJECTNAME
350
161C
  3
SORTENTS
350
E1D
  0
LAYOUT
  5
CEC
102
{ACAD_REACTORS
330
CE9
102
}
330
CE9
100
AcDbPlotSettings
  1

  2
HP LaserJet 5000 N PS
  4

  6

 40
0.0
 41
0.0
 42
0.0
 43
0.0
 44
0.0
 45
0.0
 46
0.0
 47
0.0
 48
0.0
 49
0.0
140
0.0
141
0.0
142
1.0
143
1.0
 70
   688
 72
     0
 73
     0
 74
     5
  7
monochrome.ctb
 75
    16
147
1.0
 76
     0
 77
     2
 78
   300
148
0.0
149
0.0
100
AcDbLayout
  1
Layout1
 70
     0
 71
     1
 10
0.0
 20
0.0
 11
12.0
 21
9.0
 12
0.0
 22
0.0
 32
0.0
 14
1.000000000000000E+20
 24
1.000000000000000E+20
 34
1.000000000000000E+20
 15
-1.000000000000000E+20
 25
-1.000000000000000E+20
 35
-1.000000000000000E+20
146
0.0
 13
0.0
 23
0.0
 33
0.0
 16
1.0
 26
0.0
 36
0.0
 17
0.0
 27
1.0
 37
0.0
 76
     0
330
379
  0
LAYOUT
  5
CEB
102
{ACAD_REACTORS
330
CE9
102
}
330
CE9
100
AcDbPlotSettings
  1

  2
Tektronix Phaser 740  Büro 2000
  4
A4
  6

 40
5.873749732971191
 41
6.085414409637451
 42
5.577407836914062
 43
5.662078857421875
 44
209.9733276367187
 45
296.9683227539062
 46
0.0
 47
0.0
 48
0.0
 49
0.0
140
0.0
141
0.0
142
1.0
143
2.115632726856676
 70
 28336
 72
     1
 73
     0
 74
     2
  7
monochrome.ctb
 75
     0
147
0.4726718334924608
 76
     0
 77
     2
 78
   300
148
0.0
149
0.0
100
AcDbLayout
  1
Model
 70
     1
 71
     0
 10
0.0
 20
0.0
 11
12.0
 21
9.0
 12
0.0
 22
0.0
 32
0.0
 14
0.0
 24
0.0
 34
0.0
 15
0.0
 25
0.0
 35
0.0
146
0.0
 13
0.0
 23
0.0
 33
0.0
 16
1.0
 26
0.0
 36
0.0
 17
0.0
 27
1.0
 37
0.0
 76
     0
330
37C
  0
MLINESTYLE
  5
380
102
{ACAD_REACTORS
330
37F
102
}
330
37F
100
AcDbMlineStyle
  2
STANDARD
 70
     0
  3

 62
   256
 51
90.0
 52
90.0
 71
     2
 49
0.5
 62
   256
  6
BYLAYER
 49
-0.5
 62
   256
  6
BYLAYER
  0
ACDBPLACEHOLDER
  5
CE8
102
{ACAD_REACTORS
330
CE7
102
}
330
CE7
  0
DICTIONARYVAR
  5
39F
102
{ACAD_REACTORS
330
39E
102
}
330
39E
100
DictionaryVariables
280
     0
  1
0
  0
DICTIONARYVAR
  5
161B
102
{ACAD_REACTORS
330
39E
102
}
330
39E
100
DictionaryVariables
280
     0
  1
1
  0
DICTIONARYVAR
  5
161C
102
{ACAD_REACTORS
330
39E
102
}
330
39E
100
DictionaryVariables
280
     0
  1

  0
DICTIONARYVAR
  5
E1D
102
{ACAD_REACTORS
330
39E
102
}
330
39E
100
DictionaryVariables
280
     0
  1
96
  0
ENDSEC
  0
EOF
