  0
SECTION
  2
HEADER
  9
$ACADVER
  1
AC1018
  9
$ACADMAINTVER
 70
     2
  9
$DWGCODEPAGE
  3
ANSI_1252
  9
$INSBASE
 10
0.0
 20
0.0
 30
0.0
  9
$EXTMIN
 10
-0.02563359212877
 20
-0.0362532231533805
 30
-0.0000000349181948
  9
$EXTMAX
 10
420.0256375038029
 20
594.0362587553789
 30
0.0000000814935746
  9
$LIMMIN
 10
0.0
 20
0.0
  9
$LIMMAX
 10
419.9999999999999
 20
594.0000000000002
  9
$ORTHOMODE
 70
     1
  9
$REGENMODE
 70
     1
  9
$FILLMODE
 70
     1
  9
$QTEXTMODE
 70
     0
  9
$MIRRTEXT
 70
     1
  9
$LTSCALE
 40
20.0
  9
$ATTMODE
 70
     1
  9
$TEXTSIZE
 40
2.5
  9
$TRACEWID
 40
0.5
  9
$TEXTSTYLE
  7
GREEKS
  9
$CLAYER
  8
SCHRAFF
  9
$CELTYPE
  6
BYLAYER
  9
$CECOLOR
 62
   256
  9
$CELTSCALE
 40
1.0
  9
$DISPSILH
 70
     0
  9
$DIMSCALE
 40
2.0
  9
$DIMASZ
 40
3.5
  9
$DIMEXO
 40
1.0
  9
$DIMDLI
 40
7.0
  9
$DIMRND
 40
0.0
  9
$DIMDLE
 40
0.0
  9
$DIMEXE
 40
1.0
  9
$DIMTP
 40
0.0
  9
$DIMTM
 40
0.0
  9
$DIMTXT
 40
3.5
  9
$DIMCEN
 40
1.5
  9
$DIMTSZ
 40
0.0
  9
$DIMTOL
 70
     0
  9
$DIMLIM
 70
     0
  9
$DIMTIH
 70
     0
  9
$DIMTOH
 70
     0
  9
$DIMSE1
 70
     0
  9
$DIMSE2
 70
     0
  9
$DIMTAD
 70
     1
  9
$DIMZIN
 70
     8
  9
$DIMBLK
  1

  9
$DIMASO
 70
     1
  9
$DIMSHO
 70
     0
  9
$DIMPOST
  1

  9
$DIMAPOST
  1

  9
$DIMALT
 70
     0
  9
$DIMALTD
 70
     2
  9
$DIMALTF
 40
25.4
  9
$DIMLFAC
 40
1.0
  9
$DIMTOFL
 70
     1
  9
$DIMTVP
 40
0.0
  9
$DIMTIX
 70
     0
  9
$DIMSOXD
 70
     0
  9
$DIMSAH
 70
     0
  9
$DIMBLK1
  1

  9
$DIMBLK2
  1

  9
$DIMSTYLE
  2
STANDARD
  9
$DIMCLRD
 70
     0
  9
$DIMCLRE
 70
     0
  9
$DIMCLRT
 70
     1
  9
$DIMTFAC
 40
0.5142857142857144
  9
$DIMGAP
 40
1.5
  9
$DIMJUST
 70
     0
  9
$DIMSD1
 70
     0
  9
$DIMSD2
 70
     0
  9
$DIMTOLJ
 70
     1
  9
$DIMTZIN
 70
     8
  9
$DIMALTZ
 70
     8
  9
$DIMALTTZ
 70
     8
  9
$DIMUPT
 70
     0
  9
$DIMDEC
 70
     2
  9
$DIMTDEC
 70
     2
  9
$DIMALTU
 70
     2
  9
$DIMALTTD
 70
     2
  9
$DIMTXSTY
  7
GREEKS
  9
$DIMAUNIT
 70
     0
  9
$DIMADEC
 70
     2
  9
$DIMALTRND
 40
0.0
  9
$DIMAZIN
 70
     2
  9
$DIMDSEP
 70
    46
  9
$DIMATFIT
 70
     0
  9
$DIMFRAC
 70
     0
  9
$DIMLDRBLK
  1

  9
$DIMLUNIT
 70
     2
  9
$DIMLWD
 70
    -2
  9
$DIMLWE
 70
    -2
  9
$DIMTMOVE
 70
     0
  9
$LUNITS
 70
     2
  9
$LUPREC
 70
     2
  9
$SKETCHINC
 40
1.0
  9
$FILLETRAD
 40
0.0
  9
$AUNITS
 70
     0
  9
$AUPREC
 70
     0
  9
$MENU
  1
ACAD
  9
$ELEVATION
 40
0.0
  9
$PELEVATION
 40
0.0
  9
$THICKNESS
 40
0.0
  9
$LIMCHECK
 70
     0
  9
$CHAMFERA
 40
0.0
  9
$CHAMFERB
 40
0.0
  9
$CHAMFERC
 40
0.0
  9
$CHAMFERD
 40
0.0
  9
$SKPOLY
 70
     0
  9
$TDCREATE
 40
2452380.512702778
  9
$TDUCREATE
 40
2452380.429369445
  9
$TDUPDATE
 40
2455651.576254375
  9
$TDUUPDATE
 40
2455651.492921042
  9
$TDINDWG
 40
0.3138192361
  9
$TDUSRTIMER
 40
0.3138192361
  9
$USRTIMER
 70
     1
  9
$ANGBASE
 50
0.0
  9
$ANGDIR
 70
     0
  9
$PDMODE
 70
     0
  9
$PDSIZE
 40
0.0
  9
$PLINEWID
 40
0.0
  9
$SPLFRAME
 70
     0
  9
$SPLINETYPE
 70
     6
  9
$SPLINESEGS
 70
     8
  9
$HANDSEED
  5
17A5
  9
$SURFTAB1
 70
     6
  9
$SURFTAB2
 70
     6
  9
$SURFTYPE
 70
     6
  9
$SURFU
 70
     6
  9
$SURFV
 70
     6
  9
$UCSBASE
  2

  9
$UCSNAME
  2

  9
$UCSORG
 10
0.0
 20
0.0
 30
0.0
  9
$UCSXDIR
 10
1.0
 20
0.0
 30
0.0
  9
$UCSYDIR
 10
0.0
 20
1.0
 30
0.0
  9
$UCSORTHOREF
  2

  9
$UCSORTHOVIEW
 70
     0
  9
$UCSORGTOP
 10
0.0
 20
0.0
 30
0.0
  9
$UCSORGBOTTOM
 10
0.0
 20
0.0
 30
0.0
  9
$UCSORGLEFT
 10
0.0
 20
0.0
 30
0.0
  9
$UCSORGRIGHT
 10
0.0
 20
0.0
 30
0.0
  9
$UCSORGFRONT
 10
0.0
 20
0.0
 30
0.0
  9
$UCSORGBACK
 10
0.0
 20
0.0
 30
0.0
  9
$PUCSBASE
  2

  9
$PUCSNAME
  2

  9
$PUCSORG
 10
0.0
 20
0.0
 30
0.0
  9
$PUCSXDIR
 10
1.0
 20
0.0
 30
0.0
  9
$PUCSYDIR
 10
0.0
 20
1.0
 30
0.0
  9
$PUCSORTHOREF
  2

  9
$PUCSORTHOVIEW
 70
     0
  9
$PUCSORGTOP
 10
0.0
 20
0.0
 30
0.0
  9
$PUCSORGBOTTOM
 10
0.0
 20
0.0
 30
0.0
  9
$PUCSORGLEFT
 10
0.0
 20
0.0
 30
0.0
  9
$PUCSORGRIGHT
 10
0.0
 20
0.0
 30
0.0
  9
$PUCSORGFRONT
 10
0.0
 20
0.0
 30
0.0
  9
$PUCSORGBACK
 10
0.0
 20
0.0
 30
0.0
  9
$USERI1
 70
     0
  9
$USERI2
 70
     0
  9
$USERI3
 70
     0
  9
$USERI4
 70
     0
  9
$USERI5
 70
     0
  9
$USERR1
 40
0.0
  9
$USERR2
 40
0.0
  9
$USERR3
 40
0.0
  9
$USERR4
 40
0.0
  9
$USERR5
 40
0.0
  9
$WORLDVIEW
 70
     1
  9
$SHADEDGE
 70
     3
  9
$SHADEDIF
 70
    70
  9
$TILEMODE
 70
     1
  9
$MAXACTVP
 70
    16
  9
$PINSBASE
 10
0.0
 20
0.0
 30
0.0
  9
$PLIMCHECK
 70
     0
  9
$PEXTMIN
 10
1.000000000000000E+20
 20
1.000000000000000E+20
 30
1.000000000000000E+20
  9
$PEXTMAX
 10
-1.000000000000000E+20
 20
-1.000000000000000E+20
 30
-1.000000000000000E+20
  9
$PLIMMIN
 10
0.0
 20
0.0
  9
$PLIMMAX
 10
12.0
 20
9.0
  9
$UNITMODE
 70
     0
  9
$VISRETAIN
 70
     0
  9
$PLINEGEN
 70
     0
  9
$PSLTSCALE
 70
     0
  9
$TREEDEPTH
 70
  3020
  9
$CMLSTYLE
  2
STANDARD
  9
$CMLJUST
 70
     0
  9
$CMLSCALE
 40
1.0
  9
$PROXYGRAPHICS
 70
     1
  9
$MEASUREMENT
 70
     0
  9
$CELWEIGHT
370
    -1
  9
$ENDCAPS
280
     0
  9
$JOINSTYLE
280
     0
  9
$LWDISPLAY
290
     0
  9
$INSUNITS
 70
     0
  9
$HYPERLINKBASE
  1

  9
$STYLESHEET
  1
monochrome 1.ctb
  9
$XEDIT
290
     1
  9
$CEPSNTYPE
380
     0
  9
$PSTYLEMODE
290
     1
  9
$FINGERPRINTGUID
  2
{42E01975-C286-11D7-804E-000021C090BC}
  9
$VERSIONGUID
  2
{94E4A5E1-9D32-4B3B-9E44-FCAA009D439E}
  9
$EXTNAMES
290
     1
  9
$PSVPSCALE
 40
0.0
  9
$OLESTARTUP
290
     0
  9
$SORTENTS
280
    96
  9
$INDEXCTL
280
     0
  9
$HIDETEXT
280
     0
  9
$XCLIPFRAME
290
     0
  9
$HALOGAP
280
     0
  9
$OBSCOLOR
 70
   257
  9
$OBSLTYPE
280
     0
  9
$INTERSECTIONDISPLAY
280
     0
  9
$INTERSECTIONCOLOR
 70
   257
  9
$DIMASSOC
280
     1
  9
$PROJECTNAME
  1

  0
ENDSEC
  0
SECTION
  2
CLASSES
  0
CLASS
  1
DICTIONARYVAR
  2
AcDbDictionaryVar
  3
ObjectDBX Classes
 90
        0
 91
        4
280
     0
281
     0
  0
CLASS
  1
ACDBDICTIONARYWDFLT
  2
AcDbDictionaryWithDefault
  3
ObjectDBX Classes
 90
        0
 91
        1
280
     0
281
     0
  0
ENDSEC
  0
SECTION
  2
TABLES
  0
TABLE
  2
VPORT
  5
36D
330
0
100
AcDbSymbolTable
 70
     3
  0
VPORT
  5
17A4
330
36D
100
AcDbSymbolTableRecord
100
AcDbViewportTableRecord
  2
*Active
 70
     0
 10
0.0
 20
0.0
 11
1.0
 21
1.0
 12
210.0
 22
297.0
 13
0.0
 23
0.0
 14
1.0
 24
1.0
 15
10.0
 25
10.0
 16
0.0
 26
0.0
 36
1.0
 17
0.0
 27
0.0
 37
0.0
 40
594.0
 41
1.334231805929919
 42
50.0
 43
0.0
 44
0.0
 50
0.0
 51
0.0
 71
     0
 72
  1500
 73
     1
 74
     0
 75
     0
 76
     0
 77
     0
 78
     0
281
     0
 65
     1
110
0.0
120
0.0
130
0.0
111
1.0
121
0.0
131
0.0
112
0.0
122
1.0
132
0.0
 79
     0
146
0.0
  0
ENDTAB
  0
TABLE
  2
LTYPE
  5
36A
330
0
100
AcDbSymbolTable
 70
     3
  0
LTYPE
  5
376
330
36A
100
AcDbSymbolTableRecord
100
AcDbLinetypeTableRecord
  2
BYBLOCK
 70
     0
  3

 72
    65
 73
     0
 40
0.0
  0
LTYPE
  5
377
330
36A
100
AcDbSymbolTableRecord
100
AcDbLinetypeTableRecord
  2
BYLAYER
 70
     0
  3

 72
    65
 73
     0
 40
0.0
  0
LTYPE
  5
378
330
36A
100
AcDbSymbolTableRecord
100
AcDbLinetypeTableRecord
  2
AUSGEZOGEN
 70
     0
  3
Ausgezogene Linie
 72
    65
 73
     0
 40
0.0
  0
LTYPE
  5
38E
330
36A
100
AcDbSymbolTableRecord
100
AcDbLinetypeTableRecord
  2
STRICHPUNKT
 70
     0
  3
__ . __ . __ . __ . __ . __ . __ . __ . __ . __
 72
    65
 73
     4
 40
1.0
 49
0.5
 74
     0
 49
-0.25
 74
     0
 49
0.0
 74
     0
 49
-0.25
 74
     0
  0
LTYPE
  5
38F
330
36A
100
AcDbSymbolTableRecord
100
AcDbLinetypeTableRecord
  2
CONTINUOUS
 70
     0
  3
Solid line
 72
    65
 73
     0
 40
0.0
  0
ENDTAB
  0
TABLE
  2
LAYER
  5
367
330
0
100
AcDbSymbolTable
 70
     9
  0
LAYER
  5
373
330
367
100
AcDbSymbolTableRecord
100
AcDbLayerTableRecord
  2
0
 70
     0
 62
     7
  6
AUSGEZOGEN
370
    -3
390
CE8
  0
LAYER
  5
392
330
367
100
AcDbSymbolTableRecord
100
AcDbLayerTableRecord
  2
VOLL
 70
     0
 62
     1
  6
AUSGEZOGEN
370
    -3
390
CE8
  0
LAYER
  5
393
330
367
100
AcDbSymbolTableRecord
100
AcDbLayerTableRecord
  2
HILF
 70
     0
 62
     2
  6
AUSGEZOGEN
370
    -3
390
CE8
  0
LAYER
  5
394
330
367
100
AcDbSymbolTableRecord
100
AcDbLayerTableRecord
  2
MITTEL
 70
     0
 62
     2
  6
STRICHPUNKT
370
    -3
390
CE8
  0
LAYER
  5
395
330
367
100
AcDbSymbolTableRecord
100
AcDbLayerTableRecord
  2
BEM
 70
     0
 62
     7
  6
AUSGEZOGEN
370
    -3
390
CE8
  0
LAYER
  5
396
330
367
100
AcDbSymbolTableRecord
100
AcDbLayerTableRecord
  2
STEMPEL
 70
     0
 62
     3
  6
AUSGEZOGEN
370
    -3
390
CE8
  0
LAYER
  5
397
330
367
100
AcDbSymbolTableRecord
100
AcDbLayerTableRecord
  2
TEXT
 70
     0
 62
     7
  6
AUSGEZOGEN
370
    -3
390
CE8
  0
LAYER
  5
398
330
367
100
AcDbSymbolTableRecord
100
AcDbLayerTableRecord
  2
DEFPOINTS
 70
     0
 62
     7
  6
AUSGEZOGEN
290
     0
370
    -3
390
CE8
  0
LAYER
  5
399
330
367
100
AcDbSymbolTableRecord
100
AcDbLayerTableRecord
  2
SCHRAFF
 70
     0
 62
     7
  6
AUSGEZOGEN
370
    -3
390
CE8
  0
ENDTAB
  0
TABLE
  2
STYLE
  5
368
330
0
100
AcDbSymbolTable
 70
     2
  0
STYLE
  5
374
330
368
100
AcDbSymbolTableRecord
100
AcDbTextStyleTableRecord
  2
STANDARD
 70
     0
 40
0.0
 41
1.0
 50
0.0
 71
     0
 42
3.5
  3
txt
  4

  0
STYLE
  5
38D
330
368
100
AcDbSymbolTableRecord
100
AcDbTextStyleTableRecord
  2
GREEKS
 70
     0
 40
0.0
 41
0.8
 50
0.0
 71
     0
 42
2.5
  3
SIMPLEX.shx
  4

  0
ENDTAB
  0
TABLE
  2
VIEW
  5
36B
330
0
100
AcDbSymbolTable
 70
     0
  0
ENDTAB
  0
TABLE
  2
UCS
  5
36C
330
0
100
AcDbSymbolTable
 70
     0
  0
ENDTAB
  0
TABLE
  2
APPID
  5
36E
330
0
100
AcDbSymbolTable
 70
     1
  0
APPID
  5
375
330
36E
100
AcDbSymbolTableRecord
100
AcDbRegAppTableRecord
  2
ACAD
 70
     0
  0
ENDTAB
  0
TABLE
  2
DIMSTYLE
  5
36F
330
0
100
AcDbSymbolTable
 70
     1
100
AcDbDimStyleTable
 71
     1
340
391
  0
DIMSTYLE
105
391
102
{ACAD_REACTORS
330
F5D
330
1023
330
EC1
330
EB4
330
16C6
330
16C8
102
}
330
36F
100
AcDbSymbolTableRecord
100
AcDbDimStyleTableRecord
  2
STANDARD
 70
     0
271
     2
272
     2
279
     2
284
     8
285
     8
286
     8
340
38D
  0
ENDTAB
  0
TABLE
  2
BLOCK_RECORD
  5
366
330
0
100
AcDbSymbolTable
 70
     7
  0
BLOCK_RECORD
  5
37C
330
366
100
AcDbSymbolTableRecord
100
AcDbBlockTableRecord
  2
*MODEL_SPACE
340
CEB
  0
BLOCK_RECORD
  5
379
330
366
100
AcDbSymbolTableRecord
100
AcDbBlockTableRecord
  2
*PAPER_SPACE
340
CEC
  0
BLOCK_RECORD
  5
381
330
366
100
AcDbSymbolTableRecord
100
AcDbBlockTableRecord
  2
LOGO
340
0
102
{BLKREFS
331
225
102
}
  0
BLOCK_RECORD
  5
EB5
330
366
100
AcDbSymbolTableRecord
100
AcDbBlockTableRecord
  2
*D1
340
0
  0
BLOCK_RECORD
  5
EC2
330
366
100
AcDbSymbolTableRecord
100
AcDbBlockTableRecord
  2
*D2
340
0
  0
BLOCK_RECORD
  5
F5E
330
366
100
AcDbSymbolTableRecord
100
AcDbBlockTableRecord
  2
*D3
340
0
  0
BLOCK_RECORD
  5
1024
330
366
100
AcDbSymbolTableRecord
100
AcDbBlockTableRecord
  2
*D4
340
0
  0
BLOCK_RECORD
  5
16D1
330
366
100
AcDbSymbolTableRecord
100
AcDbBlockTableRecord
  2
*D5
340
0
  0
BLOCK_RECORD
  5
16DD
330
366
100
AcDbSymbolTableRecord
100
AcDbBlockTableRecord
  2
*D6
340
0
  0
ENDTAB
  0
ENDSEC
  0
SECTION
  2
BLOCKS
  0
BLOCK
  5
39C
330
37C
100
AcDbEntity
  8
0
100
AcDbBlockBegin
  2
*MODEL_SPACE
 70
     0
 10
0.0
 20
0.0
 30
0.0
  3
*MODEL_SPACE
  1

  0
ENDBLK
  5
39D
330
37C
100
AcDbEntity
  8
0
100
AcDbBlockEnd
  0
BLOCK
  5
39A
330
379
100
AcDbEntity
 67
     1
  8
0
100
AcDbBlockBegin
  2
*PAPER_SPACE
 70
     0
 10
0.0
 20
0.0
 30
0.0
  3
*PAPER_SPACE
  1

  0
ENDBLK
  5
39B
330
379
100
AcDbEntity
 67
     1
  8
0
100
AcDbBlockEnd
  0
BLOCK
  5
3A
330
381
100
AcDbEntity
  8
0
100
AcDbBlockBegin
  2
LOGO
 70
     0
 10
0.0
 20
0.0
 30
0.0
  3
LOGO
  1

  0
ARC
  5
3B
330
381
100
AcDbEntity
  8
0
100
AcDbCircle
 10
11.59973089678112
 20
-9.271599258481501
 30
0.0
 40
4.5
100
AcDbArc
 50
270.0
 51
231.0575587310159
  0
LINE
  5
3C
330
381
100
AcDbEntity
  8
0
100
AcDbLine
 10
3.599730896781125
 20
-4.771599258481529
 30
0.0
 11
3.599730896781153
 21
-11.77159925848133
 31
0.0
  0
LINE
  5
3D
330
381
100
AcDbEntity
  8
0
100
AcDbLine
 10
2.599730896781125
 20
-4.771599258481529
 30
0.0
 11
2.599730896781153
 21
-11.77159925848133
 31
0.0
  0
CIRCLE
  5
3E
330
381
100
AcDbEntity
  8
0
100
AcDbCircle
 10
11.59973089678112
 20
-9.271599258481501
 30
0.0
 40
3.5
  0
ARC
  5
3F
330
381
100
AcDbEntity
  8
0
100
AcDbCircle
 10
31.59973089678115
 20
-9.271599258481472
 30
0.0
 40
4.5
100
AcDbArc
 50
270.0
 51
231.0575587310182
  0
LINE
  5
40
330
381
100
AcDbEntity
  8
0
100
AcDbLine
 10
17.59973089678112
 20
-4.771599258481472
 30
0.0
 11
17.59973089678115
 21
-13.77159925848147
 31
0.0
  0
ARC
  5
41
330
381
100
AcDbEntity
  8
0
100
AcDbCircle
 10
22.59973089678116
 20
-7.271599258481472
 30
0.0
 40
2.5
100
AcDbArc
 50
293.1161887722295
 51
90.0
  0
CIRCLE
  5
42
330
381
100
AcDbEntity
  8
0
100
AcDbCircle
 10
31.59973089678115
 20
-9.271599258481472
 30
0.0
 40
3.5
  0
ARC
  5
43
330
381
100
AcDbEntity
  8
0
100
AcDbCircle
 10
4.599730896781153
 20
-11.77159925848133
 30
0.0
 40
1.0
100
AcDbArc
 50
180.0
 51
270.0
  0
ARC
  5
44
330
381
100
AcDbEntity
  8
0
100
AcDbCircle
 10
4.599730896781153
 20
-11.77159925848133
 30
0.0
 40
2.0
100
AcDbArc
 50
179.9999999999992
 51
270.0
  0
LINE
  5
45
330
381
100
AcDbEntity
  8
0
100
AcDbLine
 10
11.59973089678115
 20
-13.77159925848144
 30
0.0
 11
4.599730896781153
 21
-13.77159925848147
 31
0.0
  0
LINE
  5
46
330
381
100
AcDbEntity
  8
0
100
AcDbLine
 10
8.771303772034769
 20
-12.77159925848136
 30
0.0
 11
4.599730896781153
 21
-12.77159925848133
 31
0.0
  0
LINE
  5
47
330
381
100
AcDbEntity
  8
0
100
AcDbLine
 10
31.59973089678115
 20
-13.77159925848147
 30
0.0
 11
23.6715276665056
 21
-13.77159925848144
 31
0.0
  0
LINE
  5
48
330
381
100
AcDbEntity
  8
0
100
AcDbLine
 10
23.56565672307022
 20
-9.51278021337896
 30
0.0
 11
24.4388546544846
 21
-12.77159925848144
 31
0.0
  0
LINE
  5
49
330
381
100
AcDbEntity
  8
0
100
AcDbLine
 10
22.59973089678116
 20
-9.771599258481472
 30
0.0
 11
18.59973089678112
 21
-9.771599258481472
 31
0.0
  0
LINE
  5
4A
330
381
100
AcDbEntity
  8
0
100
AcDbLine
 10
18.59973089678115
 20
-13.77159925848144
 30
0.0
 11
17.59973089678115
 21
-13.77159925848144
 31
0.0
  0
LINE
  5
4B
330
381
100
AcDbEntity
  8
0
100
AcDbLine
 10
18.59973089678115
 20
-9.771599258481472
 30
0.0
 11
18.59973089678115
 21
-13.77159925848144
 31
0.0
  0
LINE
  5
4C
330
381
100
AcDbEntity
  8
0
100
AcDbLine
 10
22.59973089678116
 20
-9.771599258481472
 30
0.0
 11
23.67152766650562
 21
-13.77159925848147
 31
0.0
  0
ARC
  5
4D
330
381
100
AcDbEntity
  8
0
100
AcDbCircle
 10
22.59973089678116
 20
-7.271599258481472
 30
0.0
 40
2.5
100
AcDbArc
 50
270.0
 51
270.0000000000007
  0
LINE
  5
4E
330
381
100
AcDbEntity
  8
0
100
AcDbLine
 10
28.77130377203494
 20
-12.77159925848147
 30
0.0
 11
24.43885465448463
 21
-12.77159925848144
 31
0.0
  0
LINE
  5
4F
330
381
100
AcDbEntity
  8
0
100
AcDbLine
 10
3.599730896781125
 20
-4.771599258481472
 30
0.0
 11
2.599730896781125
 21
-4.771599258481472
 31
0.0
  0
LINE
  5
50
330
381
100
AcDbEntity
  8
0
100
AcDbLine
 10
22.59973089678116
 20
-8.771599258481472
 30
0.0
 11
18.59973089678115
 21
-8.771599258481472
 31
0.0
  0
LINE
  5
51
330
381
100
AcDbEntity
  8
0
100
AcDbLine
 10
22.59973089678116
 20
-5.771599258481472
 30
0.0
 11
18.59973089678115
 21
-5.771599258481472
 31
0.0
  0
LINE
  5
52
330
381
100
AcDbEntity
  8
0
100
AcDbLine
 10
22.59973089678116
 20
-4.771599258481472
 30
0.0
 11
17.59973089678115
 21
-4.771599258481472
 31
0.0
  0
LINE
  5
53
330
381
100
AcDbEntity
  8
0
100
AcDbLine
 10
18.59973089678115
 20
-5.771599258481472
 30
0.0
 11
18.59973089678115
 21
-8.771599258481472
 31
0.0
  0
ARC
  5
54
330
381
100
AcDbEntity
  8
0
100
AcDbCircle
 10
22.59973089678116
 20
-7.271599258481472
 30
0.0
 40
1.5
100
AcDbArc
 50
270.0
 51
90.0
  0
ENDBLK
  5
55
330
381
100
AcDbEntity
  8
0
100
AcDbBlockEnd
  0
BLOCK
  5
EBF
330
EB5
100
AcDbEntity
  8
0
100
AcDbBlockBegin
  2
*D1
 70
     1
 10
0.0
 20
0.0
 30
0.0
  3
*D1
  1

  0
LINE
  5
177F
330
EB5
100
AcDbEntity
  8
BEM
 62
     0
370
    -2
100
AcDbLine
 10
137.1668651097161
 20
484.9981439932242
 30
0.0
 11
137.1668651097161
 21
513.6312910708323
 31
0.0
  0
LINE
  5
1780
330
EB5
100
AcDbEntity
  8
BEM
 62
     0
370
    -2
100
AcDbLine
 10
282.1668651097161
 20
484.9981439932242
 30
0.0
 11
282.1668651097161
 21
513.6312910708323
 31
0.0
  0
LINE
  5
1781
330
EB5
100
AcDbEntity
  8
BEM
 62
     0
370
    -2
100
AcDbLine
 10
144.1668651097161
 20
511.6312910708322
 30
0.0
 11
275.1668651097161
 21
511.6312910708322
 31
0.0
  0
SOLID
  5
1782
330
EB5
100
AcDbEntity
  8
BEM
 62
     0
100
AcDbTrace
 10
144.1668651097161
 20
512.7979577374989
 30
0.0
 11
144.1668651097161
 21
510.4646244041656
 31
0.0
 12
137.1668651097161
 22
511.6312910708322
 32
0.0
 13
137.1668651097161
 23
511.6312910708322
 33
0.0
  0
SOLID
  5
1783
330
EB5
100
AcDbEntity
  8
BEM
 62
     0
100
AcDbTrace
 10
275.1668651097161
 20
512.7979577374989
 30
0.0
 11
275.1668651097161
 21
510.4646244041656
 31
0.0
 12
282.1668651097161
 22
511.6312910708322
 32
0.0
 13
282.1668651097161
 23
511.6312910708322
 33
0.0
  0
MTEXT
  5
1784
330
EB5
100
AcDbEntity
  8
BEM
 62
     1
100
AcDbMText
 10
209.6668651097161
 20
518.1312910708323
 30
0.0
 40
7.0
 41
0.0
 71
     5
 72
     1
  1
\A1;145
  7
GREEKS
 73
     1
 44
1.0
  0
POINT
  5
1785
330
EB5
100
AcDbEntity
  8
DEFPOINTS
 62
     0
100
AcDbPoint
 10
137.1668651097161
 20
482.9981439932242
 30
0.0
  0
POINT
  5
1786
330
EB5
100
AcDbEntity
  8
DEFPOINTS
 62
     0
100
AcDbPoint
 10
282.1668651097161
 20
482.9981439932242
 30
0.0
  0
POINT
  5
1787
330
EB5
100
AcDbEntity
  8
DEFPOINTS
 62
     0
100
AcDbPoint
 10
282.1668651097161
 20
511.6312910708322
 30
0.0
  0
ENDBLK
  5
EC0
330
EB5
100
AcDbEntity
  8
0
100
AcDbBlockEnd
  0
BLOCK
  5
ECC
330
EC2
100
AcDbEntity
  8
0
100
AcDbBlockBegin
  2
*D2
 70
     1
 10
0.0
 20
0.0
 30
0.0
  3
*D2
  1

  0
LINE
  5
1776
330
EC2
100
AcDbEntity
  8
BEM
 62
     0
370
    -2
100
AcDbLine
 10
84.66686510971614
 20
472.9981439932242
 30
0.0
 11
84.66686510971614
 21
526.8327080359569
 31
0.0
  0
LINE
  5
1777
330
EC2
100
AcDbEntity
  8
BEM
 62
     0
370
    -2
100
AcDbLine
 10
334.6668651097161
 20
472.9981439932242
 30
0.0
 11
334.6668651097161
 21
526.8327080359569
 31
0.0
  0
LINE
  5
1778
330
EC2
100
AcDbEntity
  8
BEM
 62
     0
370
    -2
100
AcDbLine
 10
91.66686510971613
 20
524.832708035957
 30
0.0
 11
327.6668651097161
 21
524.832708035957
 31
0.0
  0
SOLID
  5
1779
330
EC2
100
AcDbEntity
  8
BEM
 62
     0
100
AcDbTrace
 10
91.66686510971613
 20
525.9993747026236
 30
0.0
 11
91.66686510971613
 21
523.6660413692903
 31
0.0
 12
84.66686510971614
 22
524.832708035957
 32
0.0
 13
84.66686510971614
 23
524.832708035957
 33
0.0
  0
SOLID
  5
177A
330
EC2
100
AcDbEntity
  8
BEM
 62
     0
100
AcDbTrace
 10
327.6668651097161
 20
525.9993747026236
 30
0.0
 11
327.6668651097161
 21
523.6660413692903
 31
0.0
 12
334.6668651097161
 22
524.832708035957
 32
0.0
 13
334.6668651097161
 23
524.832708035957
 33
0.0
  0
MTEXT
  5
177B
330
EC2
100
AcDbEntity
  8
BEM
 62
     1
100
AcDbMText
 10
209.6668651097161
 20
531.3327080359569
 30
0.0
 40
7.0
 41
0.0
 71
     5
 72
     1
  1
\A1;250
  7
GREEKS
 73
     1
 44
1.0
  0
POINT
  5
177C
330
EC2
100
AcDbEntity
  8
DEFPOINTS
 62
     0
100
AcDbPoint
 10
84.66686510971614
 20
470.9981439932241
 30
0.0
  0
POINT
  5
177D
330
EC2
100
AcDbEntity
  8
DEFPOINTS
 62
     0
100
AcDbPoint
 10
334.6668651097161
 20
470.9981439932241
 30
0.0
  0
POINT
  5
177E
330
EC2
100
AcDbEntity
  8
DEFPOINTS
 62
     0
100
AcDbPoint
 10
334.6668651097161
 20
524.832708035957
 30
0.0
  0
ENDBLK
  5
ECD
330
EC2
100
AcDbEntity
  8
0
100
AcDbBlockEnd
  0
BLOCK
  5
F68
330
F5E
100
AcDbEntity
  8
0
100
AcDbBlockBegin
  2
*D3
 70
     1
 10
0.0
 20
0.0
 30
0.0
  3
*D3
  1

  0
LINE
  5
179A
330
F5E
100
AcDbEntity
  8
BEM
 62
     0
370
    -2
100
AcDbLine
 10
316.6668651097162
 20
317.6644874176873
 30
0.0
 11
358.7634501670068
 21
317.6644874176873
 31
0.0
  0
LINE
  5
179B
330
F5E
100
AcDbEntity
  8
BEM
 62
     0
370
    -2
100
AcDbLine
 10
316.6668651097162
 20
172.6644874176872
 30
0.0
 11
358.7634501670068
 21
172.6644874176872
 31
0.0
  0
LINE
  5
179C
330
F5E
100
AcDbEntity
  8
BEM
 62
     0
370
    -2
100
AcDbLine
 10
356.7634501670068
 20
310.6644874176873
 30
0.0
 11
356.7634501670068
 21
179.6644874176872
 31
0.0
  0
SOLID
  5
179D
330
F5E
100
AcDbEntity
  8
BEM
 62
     0
100
AcDbTrace
 10
355.5967835003401
 20
310.6644874176873
 30
0.0
 11
357.9301168336735
 21
310.6644874176873
 31
0.0
 12
356.7634501670068
 22
317.6644874176873
 32
0.0
 13
356.7634501670068
 23
317.6644874176873
 33
0.0
  0
SOLID
  5
179E
330
F5E
100
AcDbEntity
  8
BEM
 62
     0
100
AcDbTrace
 10
355.5967835003401
 20
179.6644874176872
 30
0.0
 11
357.9301168336735
 21
179.6644874176872
 31
0.0
 12
356.7634501670068
 22
172.6644874176872
 32
0.0
 13
356.7634501670068
 23
172.6644874176872
 33
0.0
  0
MTEXT
  5
179F
330
F5E
100
AcDbEntity
  8
BEM
 62
     1
100
AcDbMText
 10
351.2634501670067
 20
245.1644874176873
 30
0.0
 40
7.0
 41
0.0
 71
     5
 72
     1
  1
\A1;145
  7
GREEKS
 11
0.0000000000000001
 21
1.0
 31
0.0
 73
     1
 44
1.0
  0
POINT
  5
17A0
330
F5E
100
AcDbEntity
  8
DEFPOINTS
 62
     0
100
AcDbPoint
 10
314.6668651097161
 20
317.6644874176873
 30
0.0
  0
POINT
  5
17A1
330
F5E
100
AcDbEntity
  8
DEFPOINTS
 62
     0
100
AcDbPoint
 10
314.6668651097161
 20
172.6644874176872
 30
0.0
  0
POINT
  5
17A2
330
F5E
100
AcDbEntity
  8
DEFPOINTS
 62
     0
100
AcDbPoint
 10
356.7634501670068
 20
172.6644874176872
 30
0.0
  0
ENDBLK
  5
F69
330
F5E
100
AcDbEntity
  8
0
100
AcDbBlockEnd
  0
BLOCK
  5
102E
330
1024
100
AcDbEntity
  8
0
100
AcDbBlockBegin
  2
*D4
 70
     1
 10
0.0
 20
0.0
 30
0.0
  3
*D4
  1

  0
LINE
  5
1791
330
1024
100
AcDbEntity
  8
BEM
 62
     0
370
    -2
100
AcDbLine
 10
107.1668651097161
 20
218.1644874176873
 30
0.0
 11
107.1668651097161
 21
146.8960740755267
 31
0.0
  0
LINE
  5
1792
330
1024
100
AcDbEntity
  8
BEM
 62
     0
370
    -2
100
AcDbLine
 10
312.1668651097161
 20
218.1644874176873
 30
0.0
 11
312.1668651097161
 21
146.8960740755267
 31
0.0
  0
LINE
  5
1793
330
1024
100
AcDbEntity
  8
BEM
 62
     0
370
    -2
100
AcDbLine
 10
114.1668651097161
 20
148.8960740755267
 30
0.0
 11
305.1668651097161
 21
148.8960740755267
 31
0.0
  0
SOLID
  5
1794
330
1024
100
AcDbEntity
  8
BEM
 62
     0
100
AcDbTrace
 10
114.1668651097161
 20
150.0627407421933
 30
0.0
 11
114.1668651097161
 21
147.72940740886
 31
0.0
 12
107.1668651097161
 22
148.8960740755267
 32
0.0
 13
107.1668651097161
 23
148.8960740755267
 33
0.0
  0
SOLID
  5
1795
330
1024
100
AcDbEntity
  8
BEM
 62
     0
100
AcDbTrace
 10
305.1668651097161
 20
150.0627407421933
 30
0.0
 11
305.1668651097161
 21
147.72940740886
 31
0.0
 12
312.1668651097161
 22
148.8960740755267
 32
0.0
 13
312.1668651097161
 23
148.8960740755267
 33
0.0
  0
MTEXT
  5
1796
330
1024
100
AcDbEntity
  8
BEM
 62
     1
100
AcDbMText
 10
209.6668651097161
 20
154.3960740755267
 30
0.0
 40
7.0
 41
0.0
 71
     5
 72
     1
  1
\A1;205
  7
GREEKS
 73
     1
 44
1.0
  0
POINT
  5
1797
330
1024
100
AcDbEntity
  8
DEFPOINTS
 62
     0
100
AcDbPoint
 10
107.1668651097161
 20
220.1644874176873
 30
0.0
  0
POINT
  5
1798
330
1024
100
AcDbEntity
  8
DEFPOINTS
 62
     0
100
AcDbPoint
 10
312.1668651097161
 20
220.1644874176873
 30
0.0
  0
POINT
  5
1799
330
1024
100
AcDbEntity
  8
DEFPOINTS
 62
     0
100
AcDbPoint
 10
312.1668651097161
 20
148.8960740755267
 30
0.0
  0
ENDBLK
  5
102F
330
1024
100
AcDbEntity
  8
0
100
AcDbBlockEnd
  0
BLOCK
  5
16DB
330
16D1
100
AcDbEntity
  8
0
100
AcDbBlockBegin
  2
*D5
 70
     1
 10
0.0
 20
0.0
 30
0.0
  3
*D5
  1

  0
LINE
  5
176D
330
16D1
100
AcDbEntity
  8
BEM
 62
     0
370
    -2
100
AcDbLine
 10
178.7668651097161
 20
438.998143993224
 30
0.0
 11
178.7668651097161
 21
419.1910737217758
 31
0.0
  0
LINE
  5
176E
330
16D1
100
AcDbEntity
  8
BEM
 62
     0
370
    -2
100
AcDbLine
 10
240.5668651097161
 20
438.9981439932244
 30
0.0
 11
240.5668651097161
 21
419.1910737217758
 31
0.0
  0
LINE
  5
176F
330
16D1
100
AcDbEntity
  8
BEM
 62
     0
370
    -2
100
AcDbLine
 10
185.7668651097161
 20
421.1910737217758
 30
0.0
 11
233.5668651097162
 21
421.1910737217758
 31
0.0
  0
SOLID
  5
1770
330
16D1
100
AcDbEntity
  8
BEM
 62
     0
100
AcDbTrace
 10
185.7668651097161
 20
422.3577403884425
 30
0.0
 11
185.7668651097161
 21
420.0244070551091
 31
0.0
 12
178.7668651097161
 22
421.1910737217758
 32
0.0
 13
178.7668651097161
 23
421.1910737217758
 33
0.0
  0
SOLID
  5
1771
330
16D1
100
AcDbEntity
  8
BEM
 62
     0
100
AcDbTrace
 10
233.5668651097162
 20
422.3577403884425
 30
0.0
 11
233.5668651097162
 21
420.0244070551091
 31
0.0
 12
240.5668651097161
 22
421.1910737217758
 32
0.0
 13
240.5668651097161
 23
421.1910737217758
 33
0.0
  0
MTEXT
  5
1772
330
16D1
100
AcDbEntity
  8
BEM
 62
     1
100
AcDbMText
 10
209.6668651097161
 20
427.6910737217758
 30
0.0
 40
7.0
 41
0.0
 71
     5
 72
     1
  1
\A1;%%c61.8
  7
GREEKS
 73
     1
 44
1.0
  0
POINT
  5
1773
330
16D1
100
AcDbEntity
  8
DEFPOINTS
 62
     0
100
AcDbPoint
 10
178.7668651097161
 20
440.998143993224
 30
0.0
  0
POINT
  5
1774
330
16D1
100
AcDbEntity
  8
DEFPOINTS
 62
     0
100
AcDbPoint
 10
240.5668651097161
 20
440.9981439932244
 30
0.0
  0
POINT
  5
1775
330
16D1
100
AcDbEntity
  8
DEFPOINTS
 62
     0
100
AcDbPoint
 10
240.5668651097161
 20
421.1910737217758
 30
0.0
  0
ENDBLK
  5
16DC
330
16D1
100
AcDbEntity
  8
0
100
AcDbBlockEnd
  0
BLOCK
  5
16E7
330
16DD
100
AcDbEntity
  8
0
100
AcDbBlockBegin
  2
*D6
 70
     1
 10
0.0
 20
0.0
 30
0.0
  3
*D6
  1

  0
LINE
  5
1788
330
16DD
100
AcDbEntity
  8
BEM
 62
     0
370
    -2
100
AcDbLine
 10
242.5668651097161
 20
440.9981439932244
 30
0.0
 11
355.7882289817822
 21
440.9981439932244
 31
0.0
  0
LINE
  5
1789
330
16DD
100
AcDbEntity
  8
BEM
 62
     0
370
    -2
100
AcDbLine
 10
336.6668651097161
 20
470.9981439932241
 30
0.0
 11
355.7882289817822
 21
470.9981439932241
 31
0.0
  0
LINE
  5
178A
330
16DD
100
AcDbEntity
  8
BEM
 62
     0
370
    -2
100
AcDbLine
 10
353.7882289817823
 20
447.9981439932244
 30
0.0
 11
353.7882289817823
 21
463.9981439932241
 31
0.0
  0
SOLID
  5
178B
330
16DD
100
AcDbEntity
  8
BEM
 62
     0
100
AcDbTrace
 10
352.6215623151156
 20
447.9981439932244
 30
0.0
 11
354.9548956484489
 21
447.9981439932244
 31
0.0
 12
353.7882289817823
 22
440.9981439932244
 32
0.0
 13
353.7882289817823
 23
440.9981439932244
 33
0.0
  0
SOLID
  5
178C
330
16DD
100
AcDbEntity
  8
BEM
 62
     0
100
AcDbTrace
 10
352.6215623151156
 20
463.9981439932241
 30
0.0
 11
354.9548956484489
 21
463.9981439932241
 31
0.0
 12
353.7882289817823
 22
470.9981439932241
 32
0.0
 13
353.7882289817823
 23
470.9981439932241
 33
0.0
  0
MTEXT
  5
178D
330
16DD
100
AcDbEntity
  8
BEM
 62
     1
100
AcDbMText
 10
347.2882289817821
 20
455.7710852589634
 30
0.0
 40
7.0
 41
0.0
 71
     5
 72
     1
  1
\A1;30
  7
GREEKS
 11
0.0000000000000001
 21
1.0
 31
0.0
 73
     1
 44
1.0
  0
POINT
  5
178E
330
16DD
100
AcDbEntity
  8
DEFPOINTS
 62
     0
100
AcDbPoint
 10
240.5668651097161
 20
440.9981439932244
 30
0.0
  0
POINT
  5
178F
330
16DD
100
AcDbEntity
  8
DEFPOINTS
 62
     0
100
AcDbPoint
 10
334.6668651097161
 20
470.9981439932241
 30
0.0
  0
POINT
  5
1790
330
16DD
100
AcDbEntity
  8
DEFPOINTS
 62
     0
100
AcDbPoint
 10
353.7882289817823
 20
470.9981439932241
 30
0.0
  0
ENDBLK
  5
16E8
330
16DD
100
AcDbEntity
  8
0
100
AcDbBlockEnd
  0
ENDSEC
  0
SECTION
  2
ENTITIES
  0
LINE
  5
219
330
37C
100
AcDbEntity
  8
STEMPEL
100
AcDbLine
 10
410.0
 20
584.0
 30
0.0
 11
39.99999999999989
 21
584.0
 31
0.0
  0
LINE
  5
21A
330
37C
100
AcDbEntity
  8
HILF
100
AcDbLine
 10
419.9999999999999
 20
594.0000000000002
 30
0.0
 11
0.0
 21
594.0
 31
0.0
  0
TEXT
  5
21E
330
37C
100
AcDbEntity
  8
TEXT
100
AcDbText
 10
202.4626584226295
 20
73.30961091915225
 30
0.0
 40
4.0
  1
Name
 41
0.8
  7
GREEKS
100
AcDbText
  0
TEXT
  5
21F
330
37C
100
AcDbEntity
  8
TEXT
100
AcDbText
 10
192.3308941128459
 20
90.76363841023022
 30
0.0
 40
4.0
  1
DIN EN 1124-3
 41
0.75
  7
GREEKS
 72
     1
 11
209.6166083985602
 21
90.76363841023022
 31
0.0
100
AcDbText
  0
TEXT
  5
220
330
37C
100
AcDbEntity
  8
TEXT
100
AcDbText
 10
194.2858954734051
 20
102.4184168434819
 30
0.0
 40
5.0
  1
Zul. Abw.
 41
0.8
  7
GREEKS
100
AcDbText
  0
TEXT
  5
221
330
37C
100
AcDbEntity
  8
TEXT
100
AcDbText
 10
204.4216048581257
 20
63.0896391972351
 30
0.0
 40
4.0
  1
Koeh
 41
0.8
  7
GREEKS
 72
     1
 11
209.6787477152686
 21
63.0896391972351
 31
0.0
100
AcDbText
  0
LINE
  5
222
330
37C
100
AcDbEntity
  8
HILF
100
AcDbLine
 10
146.0000000000001
 20
69.99999999999994
 30
0.0
 11
230.0
 21
69.99999999999994
 31
0.0
  0
LINE
  5
223
330
37C
100
AcDbEntity
  8
HILF
100
AcDbLine
 10
146.0000000000001
 20
59.99999999999997
 30
0.0
 11
230.0
 21
59.99999999999997
 31
0.0
  0
LINE
  5
224
330
37C
100
AcDbEntity
  8
HILF
100
AcDbLine
 10
146.0000000000001
 20
49.99999999999997
 30
0.0
 11
230.0
 21
49.99999999999997
 31
0.0
  0
INSERT
  5
225
330
37C
100
AcDbEntity
  8
STEMPEL
100
AcDbBlockReference
  2
LOGO
 10
150.9955485457794
 20
45.02105276448322
 30
0.0
 41
2.0
 42
2.0
 43
2.0
  0
LINE
  5
226
330
37C
100
AcDbEntity
  8
STEMPEL
100
AcDbLine
 10
410.0
 20
40.0
 30
0.0
 11
146.0000000000001
 21
39.99999999999997
 31
0.0
  0
LINE
  5
227
330
37C
100
AcDbEntity
  8
STEMPEL
100
AcDbLine
 10
410.0
 20
80.0
 30
0.0
 11
146.0000000000001
 21
79.99999999999994
 31
0.0
  0
LINE
  5
228
330
37C
100
AcDbEntity
  8
STEMPEL
100
AcDbLine
 10
410.0
 20
110.0
 30
0.0
 11
39.99999999999997
 21
110.0
 31
0.0
  0
LINE
  5
229
330
37C
100
AcDbEntity
  8
STEMPEL
100
AcDbLine
 10
49.99999999999989
 20
10.0
 30
0.0
 11
410.0
 21
10.0
 31
0.0
  0
LINE
  5
22A
330
37C
100
AcDbEntity
  8
STEMPEL
100
AcDbLine
 10
410.0
 20
10.0
 30
0.0
 11
39.99999999999989
 21
10.0
 31
0.0
  0
LINE
  5
22B
330
37C
100
AcDbEntity
  8
HILF
100
AcDbLine
 10
420.0
 20
0.0
 30
0.0
 11
0.0
 21
0.0
 31
0.0
  0
LINE
  5
230
330
37C
100
AcDbEntity
  8
STEMPEL
100
AcDbLine
 10
40.0
 20
10.0
 30
0.0
 11
39.99999999999989
 21
584.0
 31
0.0
  0
LINE
  5
231
330
37C
100
AcDbEntity
  8
HILF
100
AcDbLine
 10
0.0
 20
0.0
 30
0.0
 11
-0.0000000000001137
 21
594.0
 31
0.0
  0
TEXT
  5
232
330
37C
100
AcDbEntity
  8
TEXT
100
AcDbText
 10
66.95616801269422
 20
18.67381894984132
 30
0.0
 40
4.0
  1
Änderung
 41
0.8
  7
GREEKS
 72
     1
 11
77.69902515555137
 21
18.67381894984132
 31
0.0
100
AcDbText
  0
LINE
  5
233
330
37C
100
AcDbEntity
  8
STEMPEL
100
AcDbLine
 10
145.9999999999999
 20
29.99999999999997
 30
0.0
 11
39.99999999999997
 21
29.99999999999997
 31
0.0
  0
LINE
  5
234
330
37C
100
AcDbEntity
  8
HILF
100
AcDbLine
 10
40.00000000000008
 20
100.0
 30
0.0
 11
146.0000000000001
 21
100.0
 31
0.0
  0
LINE
  5
235
330
37C
100
AcDbEntity
  8
HILF
100
AcDbLine
 10
40.00000000000008
 20
90.00000000000005
 30
0.0
 11
146.0000000000001
 21
90.00000000000005
 31
0.0
  0
LINE
  5
236
330
37C
100
AcDbEntity
  8
HILF
100
AcDbLine
 10
40.00000000000008
 20
79.99999999999994
 30
0.0
 11
146.0000000000001
 21
79.99999999999994
 31
0.0
  0
LINE
  5
237
330
37C
100
AcDbEntity
  8
HILF
100
AcDbLine
 10
40.00000000000008
 20
69.99999999999994
 30
0.0
 11
146.0000000000001
 21
69.99999999999994
 31
0.0
  0
LINE
  5
238
330
37C
100
AcDbEntity
  8
HILF
100
AcDbLine
 10
40.00000000000008
 20
59.99999999999997
 30
0.0
 11
146.0000000000001
 21
59.99999999999997
 31
0.0
  0
LINE
  5
239
330
37C
100
AcDbEntity
  8
HILF
100
AcDbLine
 10
40.00000000000008
 20
49.99999999999997
 30
0.0
 11
146.0000000000001
 21
49.99999999999997
 31
0.0
  0
LINE
  5
23A
330
37C
100
AcDbEntity
  8
HILF
100
AcDbLine
 10
40.00000000000008
 20
39.99999999999997
 30
0.0
 11
146.0000000000001
 21
39.99999999999997
 31
0.0
  0
TEXT
  5
23C
330
37C
100
AcDbEntity
  8
TEXT
100
AcDbText
 10
48.26641107045756
 20
13.65465846027192
 30
0.0
 40
4.0
  1
Index
 50
90.0
 41
0.8
  7
GREEKS
100
AcDbText
  0
LINE
  5
23D
330
37C
100
AcDbEntity
  8
VOLL
100
AcDbLine
 10
54.00000000000009
 20
110.0
 30
0.0
 11
53.99999999999997
 21
9.999999999999971
 31
0.0
  0
LINE
  5
23E
330
37C
100
AcDbEntity
  8
HILF
100
AcDbLine
 10
31.08767135713856
 20
297.0
 30
0.0
 11
0.0000000000001137
 21
297.0
 31
0.0
  0
TEXT
  5
23F
330
37C
100
AcDbEntity
  8
TEXT
100
AcDbText
 10
110.140136838985
 20
18.6715626933981
 30
0.0
 40
4.0
  1
Tag
 41
0.8
  7
GREEKS
 72
     1
 11
113.8734701723183
 21
18.6715626933981
 31
0.0
100
AcDbText
  0
LINE
  5
240
330
37C
100
AcDbEntity
  8
VOLL
100
AcDbLine
 10
124.0000000000001
 20
109.9999999999999
 30
0.0
 11
124.0
 21
9.999999999999971
 31
0.0
  0
LINE
  5
241
330
37C
100
AcDbEntity
  8
VOLL
100
AcDbLine
 10
104.0000000000001
 20
109.9999999999999
 30
0.0
 11
104.0
 21
9.999999999999971
 31
0.0
  0
TEXT
  5
242
330
37C
100
AcDbEntity
  8
TEXT
100
AcDbText
 10
128.9695614838521
 20
18.59324216966408
 30
0.0
 40
4.0
  1
Name
 41
0.8
  7
GREEKS
 72
     1
 11
135.2933710076617
 21
18.59324216966408
 31
0.0
100
AcDbText
  0
LINE
  5
243
330
37C
100
AcDbEntity
  8
STEMPEL
100
AcDbLine
 10
146.0000000000001
 20
109.9999999999999
 30
0.0
 11
146.0
 21
9.999999999999971
 31
0.0
  0
TEXT
  5
244
330
37C
100
AcDbEntity
  8
TEXT
100
AcDbText
 10
172.331167315365
 20
73.31880501229926
 30
0.0
 40
4.0
  1
Tag
 41
0.8
  7
GREEKS
100
AcDbText
  0
TEXT
  5
245
330
37C
100
AcDbEntity
  8
TEXT
100
AcDbText
 10
170.398997108236
 20
63.10765040825732
 30
0.0
 40
4.0
  1
30.03.
 41
0.8
  7
GREEKS
 72
     1
 11
177.4085209177598
 21
63.10765040825732
 31
0.0
100
AcDbText
  0
LINE
  5
246
330
37C
100
AcDbEntity
  8
VOLL
100
AcDbLine
 10
164.0000000000001
 20
79.99999999999994
 30
0.0
 11
164.0000000000001
 21
39.99999999999997
 31
0.0
  0
TEXT
  5
247
330
37C
100
AcDbEntity
  8
TEXT
100
AcDbText
 10
147.5836127167615
 20
63.62990369617964
 30
0.0
 40
4.0
  1
Gez.
 41
0.8
  7
GREEKS
100
AcDbText
  0
TEXT
  5
248
330
37C
100
AcDbEntity
  8
TEXT
100
AcDbText
 10
147.6006777387303
 20
43.52946389649807
 30
0.0
 40
4.0
  1
Norm.
 41
0.8
  7
GREEKS
100
AcDbText
  0
TEXT
  5
249
330
37C
100
AcDbEntity
  8
TEXT
100
AcDbText
 10
147.5515086571672
 20
53.68926291428377
 30
0.0
 40
4.0
  1
Gepr.
 41
0.8
  7
GREEKS
100
AcDbText
  0
TEXT
  5
24A
330
37C
100
AcDbEntity
  8
TEXT
 62
     1
100
AcDbText
 10
160.5006306481887
 20
88.14901428913959
 30
0.0
 40
7.0
  1
1:2
 41
0.8
  7
GREEKS
100
AcDbText
  0
TEXT
  5
24B
330
37C
100
AcDbEntity
  8
TEXT
100
AcDbText
 10
153.5163572150377
 20
102.4620895087088
 30
0.0
 40
5.0
  1
Maßstab
 41
0.8
  7
GREEKS
100
AcDbText
  0
TEXT
  5
24C
330
37C
100
AcDbEntity
  8
TEXT
100
AcDbText
 10
148.622109822104
 20
73.14025471151666
 30
0.0
 40
4.0
  1
2011
 41
0.8
  7
GREEKS
100
AcDbText
  0
LINE
  5
24D
330
37C
100
AcDbEntity
  8
VOLL
100
AcDbLine
 10
190.0000000000001
 20
109.9999999999998
 30
0.0
 11
190.0
 21
39.99999999999997
 31
0.0
  0
LINE
  5
2BA
330
37C
100
AcDbEntity
  8
STEMPEL
100
AcDbLine
 10
410.0
 20
10.0
 30
0.0
 11
410.0
 21
584.0
 31
0.0
  0
LINE
  5
2BB
330
37C
100
AcDbEntity
  8
HILF
100
AcDbLine
 10
420.0
 20
-0.0000000000001137
 30
0.0
 11
419.9999999999999
 21
594.0
 31
0.0
  0
TEXT
  5
2BD
330
37C
100
AcDbEntity
  8
TEXT
100
AcDbText
 10
336.7238616296993
 20
73.1811823709997
 30
0.0
 40
5.0
  1
Ersatz für:
 41
0.8
  7
GREEKS
100
AcDbText
  0
LINE
  5
2BE
330
37C
100
AcDbEntity
  8
VOLL
100
AcDbLine
 10
332.0
 20
60.0
 30
0.0
 11
410.0
 21
60.0
 31
0.0
  0
LINE
  5
2BF
330
37C
100
AcDbEntity
  8
HILF
100
AcDbLine
 10
336.7238616296993
 20
83.77983636955827
 30
0.0
 11
404.8588839326728
 21
83.77983636955827
 31
0.0
  0
TEXT
  5
2C0
330
37C
100
AcDbEntity
  8
TEXT
100
AcDbText
 10
336.178754957634
 20
102.3132034537136
 30
0.0
 40
5.0
  1
Zeichnungs Nr.
 41
0.8
  7
GREEKS
100
AcDbText
  0
TEXT
  5
2C1
330
37C
100
AcDbEntity
  8
TEXT
100
AcDbText
 10
337.2400861497006
 20
52.07416177878602
 30
0.0
 40
5.0
  1
ersetzt durch:
 41
0.8
  7
GREEKS
100
AcDbText
  0
LINE
  5
2C2
330
37C
100
AcDbEntity
  8
HILF
100
AcDbLine
 10
233.4909699289885
 20
14.89398258028314
 30
0.0
 11
404.8588839326728
 21
14.89398258028314
 31
0.0
  0
TEXT
  5
2C5
330
37C
100
AcDbEntity
  8
TEXT
 62
     1
100
AcDbText
 10
234.4197382422869
 20
87.41748789253779
 30
0.0
 40
7.0
  1
Schiebeflansch DN40
 41
0.8
  7
GREEKS
100
AcDbText
  0
LINE
  5
2C6
330
37C
100
AcDbEntity
  8
HILF
100
AcDbLine
 10
234.7736801096947
 20
84.03758247564139
 30
0.0
 11
324.8353916556311
 21
84.03758247564139
 31
0.0
  0
LINE
  5
2C7
330
37C
100
AcDbEntity
  8
HILF
100
AcDbLine
 10
234.7736801096947
 20
69.99999999999994
 30
0.0
 11
324.835391655631
 21
69.99999999999994
 31
0.0
  0
LINE
  5
2C8
330
37C
100
AcDbEntity
  8
HILF
100
AcDbLine
 10
234.7736801096947
 20
59.99999999999997
 30
0.0
 11
324.835391655631
 21
59.99999999999997
 31
0.0
  0
LINE
  5
2C9
330
37C
100
AcDbEntity
  8
HILF
100
AcDbLine
 10
234.7736801096947
 20
49.99999999999997
 30
0.0
 11
324.835391655631
 21
49.99999999999997
 31
0.0
  0
LINE
  5
2CA
330
37C
100
AcDbEntity
  8
STEMPEL
100
AcDbLine
 10
230.0
 20
110.0
 30
0.0
 11
230.0
 21
9.999999999999971
 31
0.0
  0
TEXT
  5
2CB
330
37C
100
AcDbEntity
  8
TEXT
100
AcDbText
 10
234.877940380901
 20
102.5489328011779
 30
0.0
 40
5.0
  1
Benennung
 41
0.8
  7
GREEKS
100
AcDbText
  0
TEXT
  5
2CC
330
37C
100
AcDbEntity
  8
TEXT
100
AcDbText
 10
234.9837501577827
 20
42.62974153022632
 30
0.0
 40
4.0
  1
13232040W.DWG
 41
0.8
  7
GREEKS
100
AcDbText
  0
TEXT
  5
2CD
330
37C
100
AcDbEntity
  8
TEXT
100
AcDbText
 10
234.742238391136
 20
30.84560570193057
 30
0.0
 40
5.0
  1
Bauvorhaben
 41
0.8
  7
GREEKS
100
AcDbText
  0
LINE
  5
2CE
330
37C
100
AcDbEntity
  8
STEMPEL
100
AcDbLine
 10
332.0
 20
109.9999999999997
 30
0.0
 11
332.0
 21
40.0
 31
0.0
  0
TEXT
  5
2D1
330
37C
100
AcDbEntity
  8
TEXT
 62
     1
100
AcDbText
 10
346.2219256262016
 20
88.14901428913959
 30
0.0
 40
7.0
  1
13232040W
 41
0.8
  7
GREEKS
 72
     1
 11
369.6885922928683
 21
88.14901428913959
 31
0.0
100
AcDbText
  0
LINE
  5
D3F
330
37C
100
AcDbEntity
  8
STEMPEL
100
AcDbLine
 10
84.66686510971612
 20
470.9981439932241
 30
0.0
 11
334.6668651097161
 21
470.9981439932241
 31
0.0
  0
LINE
  5
D40
330
37C
100
AcDbEntity
  8
STEMPEL
100
AcDbLine
 10
84.66686510971612
 20
474.9981439932242
 30
0.0
 11
334.6668651097161
 21
474.9981439932241
 31
0.0
  0
LINE
  5
D41
330
37C
100
AcDbEntity
  8
STEMPEL
100
AcDbLine
 10
137.1668651097161
 20
476.9981439932242
 30
0.0
 11
282.1668651097161
 21
476.9981439932242
 31
0.0
  0
LINE
  5
D43
330
37C
100
AcDbEntity
  8
STEMPEL
  6
Continuous
100
AcDbLine
 10
137.1668651097161
 20
482.9981439932242
 30
0.0
 11
282.1668651097161
 21
482.9981439932242
 31
0.0
  0
LINE
  5
D44
330
37C
100
AcDbEntity
  8
MITTEL
100
AcDbLine
 10
209.666865109716
 20
487.9981439932241
 30
0.0
 11
209.6668651097161
 21
437.9981439932242
 31
0.0
  0
LINE
  5
D46
330
37C
100
AcDbEntity
  8
STEMPEL
100
AcDbLine
 10
137.1668651097161
 20
482.9981439932242
 30
0.0
 11
137.1668651097161
 21
479.9981439932243
 31
0.0
  0
LINE
  5
D47
330
37C
100
AcDbEntity
  8
STEMPEL
100
AcDbLine
 10
84.66686510971612
 20
474.9981439932242
 30
0.0
 11
84.66686510971612
 21
470.9981439932241
 31
0.0
  0
LINE
  5
D48
330
37C
100
AcDbEntity
  8
STEMPEL
100
AcDbLine
 10
334.6668651097161
 20
474.9981439932242
 30
0.0
 11
334.6668651097161
 21
470.9981439932241
 31
0.0
  0
LINE
  5
D4B
330
37C
100
AcDbEntity
  8
MITTEL
100
AcDbLine
 10
107.1668651097161
 20
479.9981439932242
 30
0.0
 11
107.1668651097161
 21
465.9981439932241
 31
0.0
  0
LINE
  5
D4D
330
37C
100
AcDbEntity
  8
STEMPEL
100
AcDbLine
 10
101.1668651097161
 20
474.9981439932241
 30
0.0
 11
101.1668651097161
 21
470.9981439932241
 31
0.0
  0
LINE
  5
D4E
330
37C
100
AcDbEntity
  8
STEMPEL
100
AcDbLine
 10
113.1668651097161
 20
474.9981439932241
 30
0.0
 11
113.1668651097161
 21
470.9981439932241
 31
0.0
  0
LINE
  5
D4F
330
37C
100
AcDbEntity
  8
STEMPEL
100
AcDbLine
 10
318.1668651097161
 20
474.9981439932241
 30
0.0
 11
318.1668651097161
 21
470.9981439932241
 31
0.0
  0
LINE
  5
D50
330
37C
100
AcDbEntity
  8
MITTEL
100
AcDbLine
 10
312.1668651097161
 20
479.9981439932241
 30
0.0
 11
312.1668651097161
 21
465.9981439932241
 31
0.0
  0
LINE
  5
D51
330
37C
100
AcDbEntity
  8
STEMPEL
100
AcDbLine
 10
306.1668651097161
 20
474.9981439932241
 30
0.0
 11
306.1668651097161
 21
470.9981439932241
 31
0.0
  0
LINE
  5
D52
330
37C
100
AcDbEntity
  8
MITTEL
100
AcDbLine
 10
254.6668651097161
 20
504.9981439932242
 30
0.0
 11
254.6668651097161
 21
465.9981439932241
 31
0.0
  0
LINE
  5
D53
330
37C
100
AcDbEntity
  8
STEMPEL
100
AcDbLine
 10
169.6668651097161
 20
498.9981439932239
 30
0.0
 11
169.6668651097161
 21
492.5981439932244
 31
0.0
  0
LINE
  5
D54
330
37C
100
AcDbEntity
  8
HILF
100
AcDbLine
 10
168.6668651097161
 20
499.9981439932238
 30
0.0
 11
168.666865109716
 21
492.5981439932245
 31
0.0
  0
LINE
  5
D55
330
37C
100
AcDbEntity
  8
STEMPEL
100
AcDbLine
 10
159.6668651097161
 20
498.9981439932237
 30
0.0
 11
159.6668651097161
 21
492.5981439932244
 31
0.0
  0
LINE
  5
D56
330
37C
100
AcDbEntity
  8
HILF
100
AcDbLine
 10
160.6668651097161
 20
499.9981439932239
 30
0.0
 11
160.6668651097161
 21
492.5981439932244
 31
0.0
  0
LINE
  5
D57
330
37C
100
AcDbEntity
  8
MITTEL
100
AcDbLine
 10
164.666865109716
 20
504.9981439932241
 30
0.0
 11
164.6668651097161
 21
465.9981439932241
 31
0.0
  0
ARC
  5
D58
330
37C
100
AcDbEntity
  8
STEMPEL
100
AcDbCircle
 10
164.6668651097162
 20
481.1703314932247
 30
0.0
 40
11.42781249999961
100
AcDbArc
 50
65.85233813009799
 51
114.147661869902
  0
LINE
  5
D59
330
37C
100
AcDbEntity
  8
STEMPEL
100
AcDbLine
 10
171.6793651097161
 20
492.5981439932245
 30
0.0
 11
157.654365109716
 21
492.5981439932244
 31
0.0
  0
ARC
  5
D5A
330
37C
100
AcDbEntity
  8
STEMPEL
100
AcDbCircle
 10
164.6668651097162
 20
496.4259564932238
 30
0.0
 40
11.42781249999961
100
AcDbArc
 50
245.852338130098
 51
294.147661869902
  0
LINE
  5
D5B
330
37C
100
AcDbEntity
  8
STEMPEL
100
AcDbLine
 10
175.1668651097161
 20
484.9981439932244
 30
0.0
 11
154.166865109716
 21
484.9981439932243
 31
0.0
  0
LINE
  5
D5C
330
37C
100
AcDbEntity
  8
STEMPEL
100
AcDbLine
 10
174.666865109716
 20
482.9981439932242
 30
0.0
 11
174.6668651097161
 21
479.9981439932243
 31
0.0
  0
ARC
  5
D5D
330
37C
100
AcDbEntity
  8
STEMPEL
100
AcDbCircle
 10
171.6793651097161
 20
488.2300971182239
 30
0.0
 40
3.231953125000015
100
AcDbArc
 50
223.6767967280955
 51
316.3232032718998
  0
ARC
  5
D5E
330
37C
100
AcDbEntity
  8
STEMPEL
100
AcDbCircle
 10
171.6793651097161
 20
489.3661908682247
 30
0.0
 40
3.231953125000015
100
AcDbArc
 50
43.67679672810015
 51
136.3232032719045
  0
LINE
  5
D5F
330
37C
100
AcDbEntity
  8
STEMPEL
100
AcDbLine
 10
175.1668651097161
 20
484.9981439932243
 30
0.0
 11
175.1668651097161
 21
482.9981439932242
 31
0.0
  0
LINE
  5
D60
330
37C
100
AcDbEntity
  8
STEMPEL
100
AcDbLine
 10
174.016865109716
 20
491.5981439932249
 30
0.0
 11
174.0168651097161
 21
485.9981439932238
 31
0.0
  0
LINE
  5
D61
330
37C
100
AcDbEntity
  8
STEMPEL
100
AcDbLine
 10
169.341865109716
 20
491.5981439932246
 30
0.0
 11
169.3418651097161
 21
485.9981439932239
 31
0.0
  0
ARC
  5
D62
330
37C
100
AcDbEntity
  8
STEMPEL
100
AcDbCircle
 10
157.6543651097161
 20
489.3661908682243
 30
0.0
 40
3.231953125000015
100
AcDbArc
 50
43.67679672810015
 51
136.3232032719004
  0
ARC
  5
D63
330
37C
100
AcDbEntity
  8
STEMPEL
100
AcDbCircle
 10
157.6543651097161
 20
488.2300971182242
 30
0.0
 40
3.231953125000015
100
AcDbArc
 50
223.6767967280996
 51
316.3232032718998
  0
LINE
  5
D64
330
37C
100
AcDbEntity
  8
STEMPEL
100
AcDbLine
 10
159.9918651097161
 20
491.5981439932244
 30
0.0
 11
159.991865109716
 21
485.9981439932242
 31
0.0
  0
LINE
  5
D65
330
37C
100
AcDbEntity
  8
STEMPEL
100
AcDbLine
 10
154.166865109716
 20
484.9981439932243
 30
0.0
 11
154.166865109716
 21
482.9981439932244
 31
0.0
  0
LINE
  5
D66
330
37C
100
AcDbEntity
  8
STEMPEL
100
AcDbLine
 10
155.316865109716
 20
491.5981439932243
 30
0.0
 11
155.316865109716
 21
485.9981439932242
 31
0.0
  0
LINE
  5
D67
330
37C
100
AcDbEntity
  8
STEMPEL
100
AcDbLine
 10
169.6668651097161
 20
498.9981439932239
 30
0.0
 11
159.6668651097163
 21
498.9981439932239
 31
0.0
  0
LINE
  5
D68
330
37C
100
AcDbEntity
  8
STEMPEL
100
AcDbLine
 10
159.6668651097161
 20
498.9981439932239
 30
0.0
 11
160.6668651097161
 21
499.9981439932239
 31
0.0
  0
LINE
  5
D69
330
37C
100
AcDbEntity
  8
STEMPEL
100
AcDbLine
 10
160.6668651097161
 20
499.9981439932239
 30
0.0
 11
168.6668651097161
 21
499.9981439932239
 31
0.0
  0
LINE
  5
D6A
330
37C
100
AcDbEntity
  8
STEMPEL
100
AcDbLine
 10
168.6668651097161
 20
499.9981439932239
 30
0.0
 11
169.6668651097161
 21
498.9981439932239
 31
0.0
  0
LINE
  5
D6D
330
37C
100
AcDbEntity
  8
STEMPEL
100
AcDbLine
 10
104.6668651097161
 20
317.6644874176873
 30
0.0
 11
314.6668651097161
 21
317.6644874176873
 31
0.0
  0
LINE
  5
D6E
330
37C
100
AcDbEntity
  8
STEMPEL
100
AcDbLine
 10
104.6668651097161
 20
172.6644874176872
 30
0.0
 11
314.6668651097161
 21
172.6644874176872
 31
0.0
  0
LINE
  5
D6F
330
37C
100
AcDbEntity
  8
STEMPEL
100
AcDbLine
 10
137.1668651097161
 20
317.6644874176873
 30
0.0
 11
137.1668651097161
 21
172.6644874176872
 31
0.0
  0
LINE
  5
D70
330
37C
100
AcDbEntity
  8
STEMPEL
100
AcDbLine
 10
282.1668651097161
 20
317.6644874176873
 30
0.0
 11
282.1668651097161
 21
172.6644874176872
 31
0.0
  0
LINE
  5
D72
330
37C
100
AcDbEntity
  8
STEMPEL
100
AcDbLine
 10
84.66686510971612
 20
297.6644874176873
 30
0.0
 11
84.66686510971612
 21
192.6644874176872
 31
0.0
  0
LINE
  5
D74
330
37C
100
AcDbEntity
  8
STEMPEL
100
AcDbLine
 10
334.6668651097161
 20
297.6644874176873
 30
0.0
 11
334.6668651097161
 21
192.6644874176872
 31
0.0
  0
LINE
  5
D75
330
37C
100
AcDbEntity
  8
MITTEL
100
AcDbLine
 10
79.66686510971612
 20
245.1644874176873
 30
0.0
 11
339.6668651097161
 21
245.1644874176873
 31
0.0
  0
LINE
  5
D76
330
37C
100
AcDbEntity
  8
MITTEL
100
AcDbLine
 10
209.6668651097161
 20
322.6644874176873
 30
0.0
 11
209.6668651097161
 21
167.6644874176872
 31
0.0
  0
CIRCLE
  5
D77
330
37C
100
AcDbEntity
  8
STEMPEL
100
AcDbCircle
 10
209.6668651097161
 20
245.1644874176873
 30
0.0
 40
35.0
  0
LINE
  5
D78
330
37C
100
AcDbEntity
  8
MITTEL
100
AcDbLine
 10
149.5433624178198
 20
290.1644874176873
 30
0.0
 11
179.7903678016124
 21
290.1644874176873
 31
0.0
  0
LINE
  5
D7A
330
37C
100
AcDbEntity
  8
MITTEL
100
AcDbLine
 10
164.6668651097161
 20
303.2618249430718
 30
0.0
 11
164.6668651097161
 21
277.0671498923027
 31
0.0
  0
LWPOLYLINE
  5
D7D
330
37C
100
AcDbEntity
  8
STEMPEL
100
AcDbPolyline
 90
        6
 70
     1
 43
0.0
 10
155.316865109716
 20
290.1644874176873
 10
159.991865109716
 20
282.0671498923027
 10
169.3418651097161
 20
282.0671498923027
 10
174.0168651097162
 20
290.1644874176873
 10
169.3418651097161
 20
298.2618249430718
 10
159.9918651097161
 20
298.2618249430718
  0
CIRCLE
  5
D7E
330
37C
100
AcDbEntity
  8
HILF
100
AcDbCircle
 10
164.6668651097161
 20
290.1644874176873
 30
0.0
 40
8.097337525384546
  0
CIRCLE
  5
D7F
330
37C
100
AcDbEntity
  8
STEMPEL
100
AcDbCircle
 10
164.6668651097161
 20
290.1644874176873
 30
0.0
 40
5.0
  0
ARC
  5
D80
330
37C
100
AcDbEntity
  8
HILF
100
AcDbCircle
 10
164.6668651097161
 20
290.1644874176873
 30
0.0
 40
4.0
100
AcDbArc
 50
74.02008240871722
 51
14.50017138603134
  0
LINE
  5
D81
330
37C
100
AcDbEntity
  8
MITTEL
100
AcDbLine
 10
254.6668651097161
 20
303.2618249430718
 30
0.0
 11
254.6668651097161
 21
277.0671498923027
 31
0.0
  0
CIRCLE
  5
D82
330
37C
100
AcDbEntity
  8
HILF
100
AcDbCircle
 10
254.6668651097161
 20
290.1644874176873
 30
0.0
 40
8.097337525384546
  0
LINE
  5
D83
330
37C
100
AcDbEntity
  8
MITTEL
100
AcDbLine
 10
239.5433624178198
 20
290.1644874176873
 30
0.0
 11
269.7903678016124
 21
290.1644874176873
 31
0.0
  0
CIRCLE
  5
D85
330
37C
100
AcDbEntity
  8
STEMPEL
100
AcDbCircle
 10
254.6668651097161
 20
290.1644874176873
 30
0.0
 40
5.0
  0
LWPOLYLINE
  5
D86
330
37C
100
AcDbEntity
  8
STEMPEL
100
AcDbPolyline
 90
        6
 70
     1
 43
0.0
 10
245.316865109716
 20
290.1644874176873
 10
249.9918651097161
 20
282.0671498923027
 10
259.3418651097161
 20
282.0671498923027
 10
264.0168651097162
 20
290.1644874176873
 10
259.3418651097161
 20
298.2618249430718
 10
249.9918651097161
 20
298.2618249430718
  0
LINE
  5
D87
330
37C
100
AcDbEntity
  8
MITTEL
100
AcDbLine
 10
164.6668651097161
 20
213.2618249430718
 30
0.0
 11
164.6668651097161
 21
187.0671498923027
 31
0.0
  0
CIRCLE
  5
D88
330
37C
100
AcDbEntity
  8
HILF
100
AcDbCircle
 10
164.6668651097161
 20
200.1644874176873
 30
0.0
 40
8.097337525384546
  0
LINE
  5
D89
330
37C
100
AcDbEntity
  8
MITTEL
100
AcDbLine
 10
149.5433624178198
 20
200.1644874176873
 30
0.0
 11
179.7903678016124
 21
200.1644874176873
 31
0.0
  0
CIRCLE
  5
D8B
330
37C
100
AcDbEntity
  8
STEMPEL
100
AcDbCircle
 10
164.6668651097161
 20
200.1644874176873
 30
0.0
 40
5.0
  0
LWPOLYLINE
  5
D8C
330
37C
100
AcDbEntity
  8
STEMPEL
100
AcDbPolyline
 90
        6
 70
     1
 43
0.0
 10
155.316865109716
 20
200.1644874176873
 10
159.991865109716
 20
192.0671498923027
 10
169.3418651097161
 20
192.0671498923027
 10
174.0168651097162
 20
200.1644874176873
 10
169.3418651097161
 20
208.2618249430718
 10
159.9918651097161
 20
208.2618249430718
  0
LINE
  5
D8D
330
37C
100
AcDbEntity
  8
MITTEL
100
AcDbLine
 10
254.6668651097161
 20
213.2618249430718
 30
0.0
 11
254.6668651097161
 21
187.0671498923027
 31
0.0
  0
LWPOLYLINE
  5
D8E
330
37C
100
AcDbEntity
  8
STEMPEL
100
AcDbPolyline
 90
        6
 70
     1
 43
0.0
 10
245.316865109716
 20
200.1644874176873
 10
249.9918651097161
 20
192.0671498923027
 10
259.3418651097161
 20
192.0671498923027
 10
264.0168651097162
 20
200.1644874176873
 10
259.3418651097161
 20
208.2618249430718
 10
249.9918651097161
 20
208.2618249430718
  0
CIRCLE
  5
D8F
330
37C
100
AcDbEntity
  8
STEMPEL
100
AcDbCircle
 10
254.6668651097161
 20
200.1644874176873
 30
0.0
 40
5.0
  0
LINE
  5
D90
330
37C
100
AcDbEntity
  8
MITTEL
100
AcDbLine
 10
239.5433624178198
 20
200.1644874176873
 30
0.0
 11
269.7903678016124
 21
200.1644874176873
 31
0.0
  0
CIRCLE
  5
D91
330
37C
100
AcDbEntity
  8
HILF
100
AcDbCircle
 10
254.6668651097161
 20
200.1644874176873
 30
0.0
 40
8.097337525384546
  0
LINE
  5
D97
330
37C
100
AcDbEntity
  8
STEMPEL
100
AcDbLine
 10
104.6668651097161
 20
317.6644874176873
 30
0.0
 11
84.66686510971612
 21
297.6644874176873
 31
0.0
  0
LINE
  5
D98
330
37C
100
AcDbEntity
  8
STEMPEL
100
AcDbLine
 10
84.66686510971612
 20
192.6644874176872
 30
0.0
 11
104.6668651097161
 21
172.6644874176872
 31
0.0
  0
LINE
  5
D99
330
37C
100
AcDbEntity
  8
STEMPEL
100
AcDbLine
 10
314.6668651097161
 20
172.6644874176872
 30
0.0
 11
334.6668651097161
 21
192.6644874176872
 31
0.0
  0
LINE
  5
D9A
330
37C
100
AcDbEntity
  8
STEMPEL
100
AcDbLine
 10
334.6668651097161
 20
297.6644874176873
 30
0.0
 11
314.6668651097161
 21
317.6644874176873
 31
0.0
  0
LINE
  5
E17
330
37C
100
AcDbEntity
  8
STEMPEL
100
AcDbLine
 10
181.6668651097161
 20
470.9981439932241
 30
0.0
 11
181.6668651097161
 21
474.9981439932242
 31
0.0
  0
LINE
  5
E19
330
37C
100
AcDbEntity
  8
STEMPEL
100
AcDbLine
 10
237.6668651097161
 20
470.9981439932241
 30
0.0
 11
237.6668651097161
 21
474.9981439932242
 31
0.0
  0
HATCH
  5
E48
330
37C
100
AcDbEntity
  8
SCHRAFF
100
AcDbHatch
 10
0.0
 20
0.0
 30
0.0
210
0.0
220
0.0
230
1.0
  2
_U
 70
     0
 71
     0
 91
        6
 92
        7
 72
     0
 73
     1
 93
        4
 10
101.1668651097161
 20
470.9981439932241
 10
101.1668651097161
 20
474.9981439932242
 10
84.66686510971614
 20
474.9981439932242
 10
84.66686510971614
 20
470.9981439932241
 97
        0
 92
        7
 72
     0
 73
     1
 93
        4
 10
164.6668651097161
 20
470.9981439932242
 10
164.666865109716
 20
474.9981439932241
 10
113.1668651097161
 20
474.9981439932241
 10
113.1668651097161
 20
470.9981439932241
 97
        0
 92
        7
 72
     0
 73
     1
 93
        4
 10
181.6668651097161
 20
470.9981439932241
 10
181.6668651097161
 20
474.9981439932241
 10
164.6668651097161
 20
474.998143993224
 10
164.6668651097161
 20
470.9981439932241
 97
        0
 92
        7
 72
     0
 73
     1
 93
        5
 10
254.6668651097161
 20
470.9981439932241
 10
254.6668651097161
 20
474.998143993224
 10
237.6668651097161
 20
474.998143993224
 10
237.6668651097161
 20
470.9981439932242
 10
239.273909958907
 20
470.9981439932242
 97
        0
 92
        7
 72
     0
 73
     1
 93
        4
 10
306.1668651097161
 20
470.9981439932241
 10
306.1668651097161
 20
474.9981439932241
 10
254.6668651097161
 20
474.9981439932242
 10
254.6668651097161
 20
470.9981439932242
 97
        0
 92
        7
 72
     0
 73
     1
 93
        4
 10
334.6668651097161
 20
470.9981439932241
 10
334.6668651097161
 20
474.9981439932241
 10
318.1668651097161
 20
474.9981439932241
 10
318.1668651097161
 20
470.9981439932241
 97
        0
 75
     0
 76
     0
 52
135.0
 41
5.0
 77
     0
 78
     1
 53
135.0
 43
0.0
 44
56.42111904472972
 45
-3.535533905932737
 46
-3.535533905932737
 79
     0
 47
0.4165638472980479
 98
        6
 10
95.50027007834206
 20
472.3618730949401
 10
128.4294711432476
 20
471.5287464122525
 10
174.6970853459093
 20
471.5287464122525
 10
242.6396149216389
 20
471.5287464122525
 10
258.0621529891928
 20
472.7784372942062
 10
326.4215080541057
 20
471.9453106115186
  0
HATCH
  5
E9A
330
37C
100
AcDbEntity
  8
SCHRAFF
100
AcDbHatch
 10
0.0
 20
0.0
 30
0.0
210
0.0
220
0.0
230
1.0
  2
ANSI37
 70
     0
 71
     0
 91
        8
 92
        7
 72
     0
 73
     1
 93
        4
 10
164.6668651097161
 20
476.9981439932242
 10
164.6668651097161
 20
478.9981439932242
 10
137.1668651097161
 20
478.9981439932242
 10
137.1668651097161
 20
476.9981439932242
 97
        0
 92
        7
 72
     0
 73
     1
 93
        4
 10
164.6668651097161
 20
476.9981439932242
 10
137.1668651097161
 20
476.9981439932243
 10
137.1668651097161
 20
474.9981439932241
 10
164.6668651097161
 20
474.9981439932242
 97
        0
 92
        7
 72
     0
 73
     1
 93
        4
 10
164.6668651097161
 20
476.9981439932242
 10
174.666865109716
 20
476.9981439932242
 10
174.666865109716
 20
478.9981439932242
 10
164.6668651097161
 20
478.9981439932242
 97
        0
 92
        7
 72
     0
 73
     1
 93
        4
 10
174.666865109716
 20
476.9981439932242
 10
164.6668651097161
 20
476.9981439932241
 10
164.6668651097161
 20
474.9981439932241
 10
174.6668651097161
 20
474.998143993224
 97
        0
 92
        7
 72
     0
 73
     1
 93
        4
 10
244.6668651097161
 20
478.9981439932242
 10
244.6668651097161
 20
476.9981439932242
 10
254.6668651097161
 20
476.9981439932241
 10
254.6668651097161
 20
478.9981439932242
 97
        0
 92
        7
 72
     0
 73
     1
 93
        4
 10
254.6668651097161
 20
476.9981439932242
 10
282.1668651097161
 20
476.9981439932243
 10
282.1668651097161
 20
478.9981439932242
 10
254.6668651097161
 20
478.9981439932242
 97
        0
 92
        7
 72
     0
 73
     1
 93
        4
 10
254.6668651097161
 20
476.9981439932242
 10
254.6668651097161
 20
474.9981439932242
 10
282.1668651097161
 20
474.9981439932242
 10
282.1668651097161
 20
476.9981439932242
 97
        0
 92
        7
 72
     0
 73
     1
 93
        4
 10
254.6668651097161
 20
476.9981439932242
 10
244.6668651097161
 20
476.9981439932243
 10
244.6668651097161
 20
474.9981439932241
 10
254.6668651097161
 20
474.998143993224
 97
        0
 75
     0
 76
     1
 52
0.0
 41
20.0
 77
     0
 78
     2
 53
45.0
 43
0.0
 44
56.42111904472972
 45
-1.767766952966368
 46
1.767766952966368
 79
     0
 53
135.0
 43
0.0
 44
56.42111904472972
 45
-1.767766952966368
 46
-1.767766952966368
 79
     0
 47
0.231548948812835
 98
       16
 10
148.7969702507412
 20
477.3986402633095
 10
167.3325150178107
 20
478.3248360788665
 10
168.2592926335824
 20
476.2408963517852
 10
161.5401574353591
 20
476.7039942595641
 10
252.3643235230447
 20
478.0932879828997
 10
251.4375484233933
 20
475.7777984440067
 10
259.083458721268
 20
476.4724444477524
 10
259.315153125211
 20
479.2510318944239
 10
143.2363070722322
 20
478.7879339866454
 10
143.9313902840608
 20
476.2408963517852
 10
167.5642094217537
 20
477.861738171088
 10
168.490987037525
 20
475.7777984440067
 10
249.5839931918504
 20
478.5563858906784
 10
258.3883755094394
 20
477.861738171088
 10
258.851764317325
 20
476.0093465399736
 10
250.047381999736
 20
475.7777984440067
  0
CIRCLE
  5
EA6
330
37C
100
AcDbEntity
  8
STEMPEL
100
AcDbCircle
 10
209.6668651097161
 20
245.1644874176873
 30
0.0
 40
28.0
  0
LINE
  5
EA9
330
37C
100
AcDbEntity
  8
STEMPEL
100
AcDbLine
 10
101.1668651097161
 20
259.1644874176873
 30
0.0
 11
101.1668651097161
 21
231.1644874176873
 31
0.0
  0
LINE
  5
EAA
330
37C
100
AcDbEntity
  8
MITTEL
100
AcDbLine
 10
107.1668651097161
 20
270.1644874176873
 30
0.0
 11
107.1668651097161
 21
220.1644874176873
 31
0.0
  0
LINE
  5
EAB
330
37C
100
AcDbEntity
  8
STEMPEL
100
AcDbLine
 10
113.1668651097161
 20
259.1644874176873
 30
0.0
 11
113.1668651097161
 21
231.1644874176873
 31
0.0
  0
ARC
  5
EAD
330
37C
100
AcDbEntity
  8
STEMPEL
100
AcDbCircle
 10
107.1668651097161
 20
259.1644874176873
 30
0.0
 40
6.0
100
AcDbArc
 50
0.0
 51
180.0
  0
ARC
  5
EAE
330
37C
100
AcDbEntity
  8
STEMPEL
100
AcDbCircle
 10
107.1668651097161
 20
231.1644874176873
 30
0.0
 40
6.0
100
AcDbArc
 50
180.0
 51
0.0
  0
LINE
  5
EAF
330
37C
100
AcDbEntity
  8
MITTEL
100
AcDbLine
 10
312.1668651097161
 20
270.1644874176873
 30
0.0
 11
312.1668651097161
 21
220.1644874176873
 31
0.0
  0
LINE
  5
EB0
330
37C
100
AcDbEntity
  8
STEMPEL
100
AcDbLine
 10
306.1668651097161
 20
259.1644874176873
 30
0.0
 11
306.1668651097161
 21
231.1644874176873
 31
0.0
  0
LINE
  5
EB1
330
37C
100
AcDbEntity
  8
STEMPEL
100
AcDbLine
 10
318.1668651097161
 20
259.1644874176873
 30
0.0
 11
318.1668651097161
 21
231.1644874176873
 31
0.0
  0
ARC
  5
EB2
330
37C
100
AcDbEntity
  8
STEMPEL
100
AcDbCircle
 10
312.1668651097161
 20
231.1644874176873
 30
0.0
 40
6.0
100
AcDbArc
 50
180.0
 51
0.000000000000007
  0
ARC
  5
EB3
330
37C
100
AcDbEntity
  8
STEMPEL
100
AcDbCircle
 10
312.1668651097161
 20
259.1644874176873
 30
0.0
 40
6.0
100
AcDbArc
 50
0.000000000000007
 51
180.0
  0
DIMENSION
  5
EB4
330
37C
100
AcDbEntity
  8
BEM
100
AcDbDimension
  2
*D1
 10
282.1668651097161
 20
511.6312910708322
 30
0.0
 11
209.6668651097161
 21
518.1312910708323
 31
0.0
 70
    32
 71
     5
 42
145.0
  3
STANDARD
100
AcDbAlignedDimension
 13
137.1668651097161
 23
482.9981439932242
 33
0.0
 14
282.1668651097161
 24
482.9981439932242
 34
0.0
100
AcDbRotatedDimension
1001
ACAD
1000
DSTYLE
1002
{
1070
    40
1040
2.0
1070
    41
1040
3.5
1070
    42
1040
1.0
1070
    43
1040
7.0
1070
    44
1040
1.0
1070
    73
1070
     0
1070
    74
1070
     0
1070
    77
1070
     1
1070
    78
1070
     8
1070
    79
1070
     2
1070
   140
1040
3.5
1070
   141
1040
1.5
1070
   146
1040
0.5142857142857144
1070
   147
1040
1.5
1070
   172
1070
     1
1070
   178
1070
     1
1070
   179
1070
     2
1070
   279
1070
     0
1070
   289
1070
     0
1002
}
  0
DIMENSION
  5
EC1
330
37C
100
AcDbEntity
  8
BEM
100
AcDbDimension
  2
*D2
 10
334.6668651097161
 20
524.832708035957
 30
0.0
 11
209.6668651097161
 21
531.3327080359569
 31
0.0
 70
    32
 71
     5
 42
250.0
  3
STANDARD
100
AcDbAlignedDimension
 13
84.66686510971614
 23
470.9981439932241
 33
0.0
 14
334.6668651097161
 24
470.9981439932241
 34
0.0
100
AcDbRotatedDimension
1001
ACAD
1000
DSTYLE
1002
{
1070
    40
1040
2.0
1070
    41
1040
3.5
1070
    42
1040
1.0
1070
    43
1040
7.0
1070
    44
1040
1.0
1070
    73
1070
     0
1070
    74
1070
     0
1070
    77
1070
     1
1070
    78
1070
     8
1070
    79
1070
     2
1070
   140
1040
3.5
1070
   141
1040
1.5
1070
   146
1040
0.5142857142857144
1070
   147
1040
1.5
1070
   172
1070
     1
1070
   178
1070
     1
1070
   179
1070
     2
1070
   279
1070
     0
1070
   289
1070
     0
1002
}
  0
DIMENSION
  5
F5D
330
37C
100
AcDbEntity
  8
BEM
100
AcDbDimension
  2
*D3
 10
356.7634501670068
 20
172.6644874176872
 30
0.0
 11
351.2634501670067
 21
245.1644874176873
 31
0.0
 70
    32
 71
     5
 42
145.0
  3
STANDARD
100
AcDbAlignedDimension
 13
314.6668651097161
 23
317.6644874176873
 33
0.0
 14
314.6668651097161
 24
172.6644874176872
 34
0.0
 50
90.0
100
AcDbRotatedDimension
1001
ACAD
1000
DSTYLE
1002
{
1070
    40
1040
2.0
1070
    41
1040
3.5
1070
    42
1040
1.0
1070
    43
1040
7.0
1070
    44
1040
1.0
1070
    73
1070
     0
1070
    74
1070
     0
1070
    77
1070
     1
1070
    78
1070
     8
1070
   140
1040
3.5
1070
   141
1040
1.5
1070
   146
1040
0.5142857142857144
1070
   147
1040
1.0
1070
   172
1070
     1
1070
   178
1070
     1
1070
   279
1070
     0
1070
   289
1070
     0
1002
}
  0
LINE
  5
FB6
330
37C
100
AcDbEntity
  8
STEMPEL
100
AcDbLine
 10
137.1668651097161
 20
479.9981439932243
 30
0.0
 11
138.1668651097161
 21
478.9981439932242
 31
0.0
  0
LINE
  5
FB7
330
37C
100
AcDbEntity
  8
STEMPEL
100
AcDbLine
 10
174.6668651097161
 20
479.9981439932243
 30
0.0
 11
173.6668651097161
 21
478.9981439932243
 31
0.0
  0
LINE
  5
FB8
330
37C
100
AcDbEntity
  8
STEMPEL
100
AcDbLine
 10
137.1668651097161
 20
478.9981439932242
 30
0.0
 11
137.1668651097161
 21
474.9981439932242
 31
0.0
  0
LINE
  5
FB9
330
37C
100
AcDbEntity
  8
STEMPEL
100
AcDbLine
 10
282.1668651097161
 20
478.9981439932242
 30
0.0
 11
137.1668651097161
 21
478.9981439932246
 31
0.0
  0
LINE
  5
FBA
330
37C
100
AcDbEntity
  8
STEMPEL
100
AcDbLine
 10
282.1668651097161
 20
482.9981439932242
 30
0.0
 11
282.1668651097161
 21
479.9981439932243
 31
0.0
  0
LINE
  5
FBB
330
37C
100
AcDbEntity
  8
STEMPEL
100
AcDbLine
 10
282.1668651097161
 20
478.9981439932242
 30
0.0
 11
282.1668651097161
 21
474.9981439932242
 31
0.0
  0
LINE
  5
FBC
330
37C
100
AcDbEntity
  8
STEMPEL
100
AcDbLine
 10
282.1668651097161
 20
479.9981439932243
 30
0.0
 11
281.1668651097161
 21
478.9981439932242
 31
0.0
  0
LINE
  5
FBD
330
37C
100
AcDbEntity
  8
HILF
100
AcDbLine
 10
258.6668651097161
 20
499.9981439932239
 30
0.0
 11
258.6668651097161
 21
492.5981439932244
 31
0.0
  0
LINE
  5
FBE
330
37C
100
AcDbEntity
  8
STEMPEL
100
AcDbLine
 10
259.6668651097161
 20
498.9981439932237
 30
0.0
 11
259.6668651097161
 21
492.5981439932244
 31
0.0
  0
LINE
  5
FBF
330
37C
100
AcDbEntity
  8
HILF
100
AcDbLine
 10
250.6668651097161
 20
499.9981439932238
 30
0.0
 11
250.6668651097161
 21
492.5981439932245
 31
0.0
  0
LINE
  5
FC0
330
37C
100
AcDbEntity
  8
STEMPEL
100
AcDbLine
 10
249.6668651097161
 20
498.9981439932239
 30
0.0
 11
249.6668651097161
 21
492.5981439932244
 31
0.0
  0
LINE
  5
FC1
330
37C
100
AcDbEntity
  8
STEMPEL
100
AcDbLine
 10
244.1668651097161
 20
484.9981439932244
 30
0.0
 11
265.1668651097161
 21
484.9981439932243
 31
0.0
  0
ARC
  5
FC2
330
37C
100
AcDbEntity
  8
STEMPEL
100
AcDbCircle
 10
254.666865109716
 20
496.4259564932238
 30
0.0
 40
11.42781249999961
100
AcDbArc
 50
245.852338130098
 51
294.147661869902
  0
LINE
  5
FC3
330
37C
100
AcDbEntity
  8
STEMPEL
100
AcDbLine
 10
247.6543651097161
 20
492.5981439932245
 30
0.0
 11
261.6793651097162
 21
492.5981439932244
 31
0.0
  0
ARC
  5
FC4
330
37C
100
AcDbEntity
  8
STEMPEL
100
AcDbCircle
 10
254.666865109716
 20
481.1703314932247
 30
0.0
 40
11.42781249999961
100
AcDbArc
 50
65.85233813009799
 51
114.147661869902
  0
ARC
  5
FC5
330
37C
100
AcDbEntity
  8
STEMPEL
100
AcDbCircle
 10
261.679365109716
 20
488.2300971182242
 30
0.0
 40
3.231953125000015
100
AcDbArc
 50
223.6767967281001
 51
316.3232032719004
  0
ARC
  5
FC6
330
37C
100
AcDbEntity
  8
STEMPEL
100
AcDbCircle
 10
261.679365109716
 20
489.3661908682243
 30
0.0
 40
3.231953125000015
100
AcDbArc
 50
43.67679672809958
 51
136.3232032718998
  0
LINE
  5
FC7
330
37C
100
AcDbEntity
  8
STEMPEL
100
AcDbLine
 10
264.0168651097162
 20
491.5981439932243
 30
0.0
 11
264.0168651097162
 21
485.9981439932242
 31
0.0
  0
LINE
  5
FC8
330
37C
100
AcDbEntity
  8
STEMPEL
100
AcDbLine
 10
265.1668651097161
 20
484.9981439932243
 30
0.0
 11
265.1668651097161
 21
482.9981439932244
 31
0.0
  0
LINE
  5
FC9
330
37C
100
AcDbEntity
  8
STEMPEL
100
AcDbLine
 10
259.3418651097161
 20
491.5981439932244
 30
0.0
 11
259.3418651097162
 21
485.9981439932242
 31
0.0
  0
LINE
  5
FCA
330
37C
100
AcDbEntity
  8
STEMPEL
100
AcDbLine
 10
244.6668651097161
 20
482.9981439932242
 30
0.0
 11
244.6668651097161
 21
479.9981439932243
 31
0.0
  0
LINE
  5
FCB
330
37C
100
AcDbEntity
  8
STEMPEL
100
AcDbLine
 10
244.6668651097161
 20
479.9981439932243
 30
0.0
 11
245.6668651097161
 21
478.9981439932243
 31
0.0
  0
ARC
  5
FCC
330
37C
100
AcDbEntity
  8
STEMPEL
100
AcDbCircle
 10
247.6543651097161
 20
489.3661908682247
 30
0.0
 40
3.231953125000015
100
AcDbArc
 50
43.67679672809553
 51
136.3232032718998
  0
ARC
  5
FCD
330
37C
100
AcDbEntity
  8
STEMPEL
100
AcDbCircle
 10
247.6543651097161
 20
488.2300971182239
 30
0.0
 40
3.231953125000015
100
AcDbArc
 50
223.6767967281001
 51
316.3232032719045
  0
LINE
  5
FCE
330
37C
100
AcDbEntity
  8
STEMPEL
100
AcDbLine
 10
249.9918651097162
 20
491.5981439932246
 30
0.0
 11
249.991865109716
 21
485.9981439932239
 31
0.0
  0
LINE
  5
FCF
330
37C
100
AcDbEntity
  8
STEMPEL
100
AcDbLine
 10
245.3168651097162
 20
491.5981439932249
 30
0.0
 11
245.3168651097161
 21
485.9981439932238
 31
0.0
  0
LINE
  5
FD0
330
37C
100
AcDbEntity
  8
STEMPEL
100
AcDbLine
 10
244.1668651097161
 20
484.9981439932243
 30
0.0
 11
244.1668651097161
 21
482.9981439932242
 31
0.0
  0
LINE
  5
FD1
330
37C
100
AcDbEntity
  8
STEMPEL
100
AcDbLine
 10
258.6668651097161
 20
499.9981439932239
 30
0.0
 11
250.6668651097161
 21
499.9981439932239
 31
0.0
  0
LINE
  5
FD2
330
37C
100
AcDbEntity
  8
STEMPEL
100
AcDbLine
 10
249.6668651097161
 20
498.9981439932239
 30
0.0
 11
259.6668651097159
 21
498.9981439932239
 31
0.0
  0
LINE
  5
FD3
330
37C
100
AcDbEntity
  8
STEMPEL
100
AcDbLine
 10
259.6668651097161
 20
498.9981439932239
 30
0.0
 11
258.6668651097161
 21
499.9981439932239
 31
0.0
  0
LINE
  5
FD4
330
37C
100
AcDbEntity
  8
STEMPEL
100
AcDbLine
 10
250.6668651097161
 20
499.9981439932239
 30
0.0
 11
249.6668651097161
 21
498.9981439932239
 31
0.0
  0
LINE
  5
FD5
330
37C
100
AcDbEntity
  8
STEMPEL
100
AcDbLine
 10
244.6668651097161
 20
479.9981439932243
 30
0.0
 11
174.6668651097161
 21
479.9981439932243
 31
0.0
  0
LINE
  5
FD6
330
37C
100
AcDbEntity
  8
STEMPEL
100
AcDbLine
 10
174.6668651097161
 20
478.9981439932245
 30
0.0
 11
174.6668651097162
 21
474.9981439932241
 31
0.0
  0
LINE
  5
FD7
330
37C
100
AcDbEntity
  8
STEMPEL
100
AcDbLine
 10
244.6668651097161
 20
478.9981439932244
 30
0.0
 11
244.666865109716
 21
474.9981439932241
 31
0.0
  0
DIMENSION
  5
1023
330
37C
100
AcDbEntity
  8
BEM
100
AcDbDimension
  2
*D4
 10
312.1668651097161
 20
148.8960740755267
 30
0.0
 11
209.6668651097161
 21
154.3960740755267
 31
0.0
 70
    32
 71
     5
 42
205.0
  3
STANDARD
100
AcDbAlignedDimension
 13
107.1668651097161
 23
220.1644874176873
 33
0.0
 14
312.1668651097161
 24
220.1644874176873
 34
0.0
100
AcDbRotatedDimension
1001
ACAD
1000
DSTYLE
1002
{
1070
    40
1040
2.0
1070
    41
1040
3.5
1070
    42
1040
1.0
1070
    43
1040
7.0
1070
    44
1040
1.0
1070
    73
1070
     0
1070
    74
1070
     0
1070
    77
1070
     1
1070
    78
1070
     8
1070
   140
1040
3.5
1070
   141
1040
1.5
1070
   146
1040
0.5142857142857144
1070
   147
1040
1.0
1070
   172
1070
     1
1070
   178
1070
     1
1070
   279
1070
     0
1070
   289
1070
     0
1002
}
  0
ARC
  5
105F
330
37C
100
AcDbEntity
  8
HILF
100
AcDbCircle
 10
254.6668651097161
 20
290.1644874176873
 30
0.0
 40
4.0
100
AcDbArc
 50
74.02008240871722
 51
14.50017138603134
  0
ARC
  5
1060
330
37C
100
AcDbEntity
  8
HILF
100
AcDbCircle
 10
254.6668651097161
 20
200.1644874176873
 30
0.0
 40
4.0
100
AcDbArc
 50
74.02008240871722
 51
14.50017138603134
  0
ARC
  5
1061
330
37C
100
AcDbEntity
  8
HILF
100
AcDbCircle
 10
164.6668651097161
 20
200.1644874176873
 30
0.0
 40
4.0
100
AcDbArc
 50
74.02008240871722
 51
14.50017138603134
  0
TEXT
  5
10DE
330
37C
100
AcDbEntity
  8
TEXT
100
AcDbText
 10
43.18334050378325
 20
113.8351891759161
 30
0.0
 40
5.0
  1
Erstellt mit AUTOCAD 2004
 41
0.8
  7
GREEKS
100
AcDbText
  0
TEXT
  5
1506
330
37C
100
AcDbEntity
  8
TEXT
100
AcDbText
 10
234.877940380901
 20
52.081113428435
 30
0.0
 40
5.0
  1
EDV-Art.Nr. 13232.040X
 41
0.8
  7
GREEKS
100
AcDbText
  0
TEXT
  5
15E8
330
37C
100
AcDbEntity
  8
BEM
100
AcDbText
 10
416.5811541437437
 20
12.14804815338303
 30
0.0
 40
4.0
  1
Diese Zeichnung ist urheberrechtlich geschützt und bleibt unser Eigentum. Sie darf weder ganz noch teilweise vervielfältigt und nicht an Dritte weitergegeben werden.
 50
90.0
 41
0.8
  7
GREEKS
100
AcDbText
  0
HATCH
  5
165D
330
37C
100
AcDbEntity
  8
SCHRAFF
100
AcDbHatch
 10
0.0
 20
0.0
 30
0.0
210
0.0
220
0.0
230
1.0
  2
_USER
 70
     0
 71
     0
 91
        6
 92
        7
 72
     0
 73
     1
 93
        5
 10
164.6668651097161
 20
478.9981439932245
 10
164.6668651097161
 20
482.9981439932242
 10
137.1668651097161
 20
482.9981439932241
 10
137.1668651097161
 20
479.9981439932242
 10
138.1668651097158
 20
478.9981439932246
 97
        0
 92
        7
 72
     0
 73
     1
 93
        5
 10
173.6668651097164
 20
478.9981439932247
 10
174.6668651097161
 20
479.9981439932243
 10
174.666865109716
 20
482.9981439932242
 10
164.666865109716
 20
482.9981439932242
 10
164.666865109716
 20
478.9981439932246
 97
        0
 92
        7
 72
     0
 73
     1
 93
        5
 10
254.6668651097161
 20
478.9981439932243
 10
254.6668651097161
 20
482.998143993224
 10
244.6668651097161
 20
482.998143993224
 10
244.6668651097161
 20
479.9981439932243
 10
245.666865109716
 20
478.9981439932243
 97
        0
 92
        7
 72
     0
 73
     1
 93
        4
 10
254.6668651097161
 20
482.9981439932242
 10
254.6668651097161
 20
478.9981439932244
 10
273.8938799608395
 20
478.9981439932242
 10
275.2660870860446
 20
482.9981439932242
 97
        0
 92
        7
 72
     0
 73
     1
 93
        4
 10
280.7570978812354
 20
478.9981439932242
 10
281.7481313666355
 20
482.9981439932241
 10
275.2660870860446
 20
482.9981439932241
 10
273.8938799608395
 20
478.9981439932243
 97
        0
 92
        7
 72
     0
 73
     1
 93
        5
 10
280.7570978812354
 20
478.9981439932242
 10
281.1668651097161
 20
478.9981439932242
 10
282.1668651097161
 20
479.9981439932243
 10
282.1668651097161
 20
482.9981439932242
 10
281.7481313666355
 20
482.9981439932242
 97
        0
 75
     0
 76
     0
 52
45.0
 41
5.0
 77
     0
 78
     1
 53
45.0
 43
0.0
 44
56.42111904472972
 45
-3.535533905932737
 46
3.535533905932737
 79
     0
 47
0.2433659009131525
 98
        6
 10
146.5115797192918
 20
480.8598318259255
 10
167.6915544639373
 20
479.3996362339198
 10
251.4376610326471
 20
480.8598318259255
 10
258.9845475863969
 20
481.1031972959622
 10
277.9734903333824
 20
480.8598318259255
 10
281.6252109458496
 20
480.6164663558886
  0
HATCH
  5
16C5
330
37C
100
AcDbEntity
  8
SCHRAFF
100
AcDbHatch
 10
0.0
 20
0.0
 30
0.0
210
0.0
220
0.0
230
1.0
  2
_USER
 70
     0
 71
     0
 91
        2
 92
        7
 72
     0
 73
     1
 93
        4
 10
240.566865109716
 20
470.9981439932241
 10
239.566865109716
 20
470.9981439932241
 10
239.5668651097162
 20
440.9981439932244
 10
240.5668651097162
 20
440.9981439932244
 97
        0
 92
        7
 72
     0
 73
     1
 93
        4
 10
178.7668651097161
 20
440.998143993224
 10
179.7668651097161
 20
440.9981439932241
 10
179.7668651097161
 20
470.9981439932241
 10
178.766865109716
 20
470.9981439932242
 97
        0
 75
     0
 76
     0
 52
45.0
 41
2.0
 77
     0
 78
     1
 53
45.0
 43
0.0
 44
56.42111904472972
 45
-1.414213562373094
 46
1.414213562373095
 79
     0
 47
0.1485493487087087
 98
        2
 10
240.3148918600491
 20
452.1053740873141
 10
179.2405170535944
 20
456.4133039690807
  0
DIMENSION
  5
16C6
330
37C
100
AcDbEntity
  8
BEM
100
AcDbDimension
  2
*D5
 10
240.5668651097161
 20
421.1910737217758
 30
0.0
 11
209.6668651097161
 21
427.6910737217758
 31
0.0
 70
    32
  1
%%c<>
 71
     5
 42
61.80000000000001
  3
STANDARD
100
AcDbAlignedDimension
 13
178.7668651097161
 23
440.998143993224
 33
0.0
 14
240.5668651097161
 24
440.9981439932244
 34
0.0
100
AcDbRotatedDimension
1001
ACAD
1000
DSTYLE
1002
{
1070
    40
1040
2.0
1070
    41
1040
3.5
1070
    42
1040
1.0
1070
    43
1040
7.0
1070
    44
1040
1.0
1070
    47
1040
3.0
1070
    48
1040
0.000000001
1070
    73
1070
     0
1070
    74
1070
     0
1070
    77
1070
     1
1070
    78
1070
     8
1070
    79
1070
     2
1070
   140
1040
3.5
1070
   141
1040
1.5
1070
   146
1040
0.5
1070
   147
1040
1.5
1070
   172
1070
     1
1070
   178
1070
     1
1070
   179
1070
     2
1070
   279
1070
     0
1002
}
  0
LINE
  5
16C7
330
37C
100
AcDbEntity
  8
STEMPEL
  6
Continuous
100
AcDbLine
 10
240.5668651097161
 20
440.9981439932244
 30
0.0
 11
178.7668651097161
 21
440.998143993224
 31
0.0
  0
DIMENSION
  5
16C8
330
37C
100
AcDbEntity
  8
BEM
100
AcDbDimension
  2
*D6
 10
353.7882289817823
 20
470.9981439932241
 30
0.0
 11
353.7882289817821
 21
455.7710852589634
 31
0.0
 70
   160
 71
     5
 42
29.99999999999971
  3
STANDARD
100
AcDbAlignedDimension
 13
240.5668651097161
 23
440.9981439932244
 33
0.0
 14
334.6668651097161
 24
470.9981439932241
 34
0.0
 50
90.0
100
AcDbRotatedDimension
1001
ACAD
1000
DSTYLE
1002
{
1070
    40
1040
2.0
1070
    41
1040
3.5
1070
    42
1040
1.0
1070
    43
1040
7.0
1070
    44
1040
1.0
1070
    73
1070
     0
1070
    74
1070
     0
1070
    77
1070
     1
1070
    78
1070
     8
1070
   140
1040
3.5
1070
   141
1040
1.5
1070
   146
1040
0.5142857142857144
1070
   147
1040
1.5
1070
   172
1070
     1
1070
   178
1070
     1
1070
   279
1070
     0
1002
}
  0
LINE
  5
16C9
330
37C
100
AcDbEntity
  8
STEMPEL
100
AcDbLine
 10
239.566865109716
 20
470.9981439932241
 30
0.0
 11
239.5668651097161
 21
440.9981439932244
 31
0.0
  0
LINE
  5
16CA
330
37C
100
AcDbEntity
  8
STEMPEL
100
AcDbLine
 10
240.566865109716
 20
470.9981439932241
 30
0.0
 11
240.5668651097161
 21
440.9981439932244
 31
0.0
  0
HATCH
  5
16CB
330
37C
100
AcDbEntity
  8
SCHRAFF
100
AcDbHatch
 10
0.0
 20
0.0
 30
0.0
210
0.0
220
0.0
230
1.0
  2
_USER
 70
     0
 71
     0
 91
        1
 92
        7
 72
     1
 73
     1
 93
        3
 10
244.5668651097161
 20
470.9981439932241
 42
0.0
 10
240.5668651097161
 20
470.9981439932241
 42
0.0
 10
240.5668651097161
 20
466.9981439932241
 42
0.4142135623730909
 97
        0
 75
     0
 76
     0
 52
0.0
 41
0.1
 77
     0
 78
     1
 53
0.0
 43
0.0
 44
56.42111904472972
 45
0.0
 46
0.1
 79
     0
 47
0.072206506534675
 98
        1
 10
243.1795108478064
 20
469.3813845122104
  0
ARC
  5
16CC
330
37C
100
AcDbEntity
  8
SCHRAFF
100
AcDbCircle
 10
240.566865109716
 20
470.9981439932241
 30
0.0
 40
4.0
100
AcDbArc
 50
270.0
 51
0.0
  0
LINE
  5
16CD
330
37C
100
AcDbEntity
  8
STEMPEL
100
AcDbLine
 10
179.766865109716
 20
470.9981439932241
 30
0.0
 11
179.7668651097161
 21
440.998143993224
 31
0.0
  0
LINE
  5
16CE
330
37C
100
AcDbEntity
  8
STEMPEL
100
AcDbLine
 10
178.766865109716
 20
470.9981439932241
 30
0.0
 11
178.7668651097161
 21
440.998143993224
 31
0.0
  0
HATCH
  5
16CF
330
37C
100
AcDbEntity
  8
SCHRAFF
100
AcDbHatch
 10
0.0
 20
0.0
 30
0.0
210
0.0
220
0.0
230
1.0
  2
_USER
 70
     0
 71
     0
 91
        1
 92
        7
 72
     1
 73
     1
 93
        3
 10
174.7668651097161
 20
470.998143993224
 42
0.0
 10
178.7668651097161
 20
470.9981439932241
 42
0.0
 10
178.7668651097161
 20
466.9981439932241
 42
-0.4142135623730929
 97
        0
 75
     0
 76
     0
 52
0.0
 41
0.1
 77
     0
 78
     1
 53
180.0000000000001
 43
419.3337302194333
 44
56.42111904473029
 45
-0.0000000000000003
 46
0.1
 79
     0
 47
0.072206506534675
 98
        1
 10
176.1542193716258
 20
469.3813845122102
  0
ARC
  5
16D0
330
37C
100
AcDbEntity
  8
SCHRAFF
100
AcDbCircle
 10
178.7668651097161
 20
470.9981439932241
 30
0.0
 40
4.0
100
AcDbArc
 50
180.0
 51
270.0
  0
LINE
  5
1738
102
{ACAD_REACTORS
330
173C
102
}
330
37C
100
AcDbEntity
  8
STEMPEL
100
AcDbLine
 10
235.6668651097161
 20
376.1553894532907
 30
0.0
 11
183.6668651097161
 21
376.1553894532907
 31
0.0
  0
LINE
  5
1739
330
37C
100
AcDbEntity
  8
STEMPEL
100
AcDbLine
 10
190.1668651097161
 20
365.2175672797818
 30
0.0
 11
229.1668651097162
 21
365.2175672797818
 31
0.0
  0
LINE
  5
173A
330
37C
100
AcDbEntity
  8
STEMPEL
100
AcDbLine
 10
190.1668651097161
 20
370.5573132419374
 30
0.0
 11
229.1668651097162
 21
370.5573132419374
 31
0.0
  0
LINE
  5
173B
102
{ACAD_REACTORS
330
173C
102
}
330
37C
100
AcDbEntity
  8
STEMPEL
100
AcDbLine
 10
226.6668651097162
 20
359.1553894532907
 30
0.0
 11
192.6668651097161
 21
359.1553894532907
 31
0.0
  0
HATCH
  5
173C
330
37C
100
AcDbEntity
  8
SCHRAFF
100
AcDbHatch
 10
0.0
 20
0.0
 30
0.0
210
0.0
220
0.0
230
1.0
  2
NET
 70
     0
 71
     1
 91
        2
 92
        7
 72
     1
 73
     1
 93
       15
 10
230.6668651097162
 20
376.1553894532907
 42
0.0
 10
229.1668651097162
 20
370.5573132419374
 42
0.0
 10
229.1668651097162
 20
365.2175672797817
 42
0.0
 10
225.6668651097161
 20
359.1553894532906
 42
0.0
 10
226.6668651097161
 20
359.1553894532906
 42
0.0
 10
231.6668651097161
 20
364.1553894532906
 42
0.0
 10
236.6668651097162
 20
364.1553894532906
 42
0.0
 10
239.6668651097161
 20
361.1553894532907
 42
0.0
 10
240.6668651097162
 20
361.1553894532906
 42
0.0
 10
240.6668651097162
 20
364.1553894532908
 42
0.0
 10
238.3010585869858
 20
370.6553894532906
 42
0.0
 10
237.6668651097161
 20
370.6553894532906
 42
0.0
 10
237.6668651097161
 20
372.1553894532906
 42
0.0
 10
239.6668651097161
 20
372.1553894532906
 42
0.4142135623730951
 10
235.6668651097161
 20
376.1553894532907
 42
0.0
 97
       15
330
1738
330
175F
330
1757
330
1759
330
173B
330
175C
330
175A
330
175D
330
175B
330
175E
330
1758
330
1764
330
1765
330
1761
330
1762
 92
        7
 72
     1
 73
     1
 93
       15
 10
188.666865109716
 20
376.1553894532907
 42
0.0
 10
183.6668651097161
 20
376.1553894532907
 42
0.4142135623730951
 10
179.6668651097161
 20
372.1553894532906
 42
0.0
 10
181.6668651097161
 20
372.1553894532906
 42
0.0
 10
181.6668651097161
 20
370.6553894532906
 42
0.0
 10
181.0326716324464
 20
370.6553894532906
 42
0.0
 10
178.666865109716
 20
364.1553894532906
 42
0.0
 10
178.6668651097161
 20
361.1553894532907
 42
0.0
 10
179.6668651097161
 20
361.1553894532907
 42
0.0
 10
182.6668651097161
 20
364.1553894532906
 42
0.0
 10
187.666865109716
 20
364.1553894532906
 42
0.0
 10
192.666865109716
 20
359.1553894532907
 42
0.0
 10
193.666865109716
 20
359.1553894532907
 42
0.0
 10
190.1668651097161
 20
365.2175672797818
 42
0.0
 10
190.1668651097161
 20
370.5573132419374
 42
0.0
 97
       15
330
1738
330
174F
330
174E
330
1752
330
174D
330
1742
330
1748
330
1745
330
1747
330
1746
330
1749
330
173B
330
1744
330
1743
330
1755
 75
     0
 76
     1
 52
45.0
 41
10.0
 77
     0
 78
     2
 53
45.0
 43
150.8146777593784
 44
284.0372818345346
 45
-0.8838834764831842
 46
0.8838834764831844
 79
     0
 53
135.0
 43
150.8146777593784
 44
284.0372818345346
 45
-0.8838834764831844
 46
-0.8838834764831842
 79
     0
 47
0.1010237210944639
 98
        2
 10
233.4524111237472
 20
373.1893912374903
 10
187.6540019057877
 20
371.7750592060649
  0
LINE
  5
173D
330
37C
100
AcDbEntity
  8
TEXT
 62
     2
100
AcDbLine
 10
149.4963683645178
 20
369.3812057528394
 30
0.0
 11
46.63093811331783
 21
369.3812057528394
 31
0.0
  0
TEXT
  5
173E
330
37C
100
AcDbEntity
  8
TEXT
 62
     1
100
AcDbText
 10
46.68846200473422
 20
360.2759360209382
 30
0.0
 40
7.0
  1
EDV-Art.Nr. 00914.050X
 41
0.8
  7
GREEKS
100
AcDbText
  0
TEXT
  5
173F
330
37C
100
AcDbEntity
  8
TEXT
 62
     1
100
AcDbText
 10
46.43698537167279
 20
373.0237883990419
 30
0.0
 40
7.0
  1
Dichtelement DN50
 41
0.8
  7
GREEKS
100
AcDbText
  0
LINE
  5
1740
330
37C
100
AcDbEntity
  8
TEXT
 62
     2
100
AcDbLine
 10
149.4963683645178
 20
369.3812057528394
 30
0.0
 11
180.5628492341916
 21
365.3897425162859
 31
0.0
  0
LINE
  5
1741
330
37C
100
AcDbEntity
  8
MITTEL
100
AcDbLine
 10
209.6668651097161
 20
381.1553894532906
 30
0.0
 11
209.6668651097161
 21
354.1553894532907
 31
0.0
  0
LINE
  5
1742
102
{ACAD_REACTORS
330
173C
102
}
330
37C
100
AcDbEntity
  8
STEMPEL
100
AcDbLine
 10
178.6668651097161
 20
364.1553894532906
 30
0.0
 11
181.0326716324464
 21
370.6553894532906
 31
0.0
  0
LINE
  5
1743
102
{ACAD_REACTORS
330
173C
102
}
330
37C
100
AcDbEntity
  8
STEMPEL
100
AcDbLine
 10
190.1668651097161
 20
370.5573132419374
 30
0.0
 11
190.1668651097161
 21
365.2175672797818
 31
0.0
  0
LINE
  5
1744
102
{ACAD_REACTORS
330
173C
102
}
330
37C
100
AcDbEntity
  8
STEMPEL
100
AcDbLine
 10
193.6668651097161
 20
359.1553894532907
 30
0.0
 11
190.1668651097161
 21
365.2175672797818
 31
0.0
  0
LINE
  5
1745
102
{ACAD_REACTORS
330
173C
102
}
330
37C
100
AcDbEntity
  8
STEMPEL
100
AcDbLine
 10
190.6668651097161
 20
361.1553894532907
 30
0.0
 11
178.6668651097161
 21
361.1553894532907
 31
0.0
  0
LINE
  5
1746
102
{ACAD_REACTORS
330
173C
102
}
330
37C
100
AcDbEntity
  8
STEMPEL
100
AcDbLine
 10
187.6668651097161
 20
364.1553894532906
 30
0.0
 11
182.6668651097161
 21
364.1553894532906
 31
0.0
  0
LINE
  5
1747
102
{ACAD_REACTORS
330
173C
102
}
330
37C
100
AcDbEntity
  8
STEMPEL
100
AcDbLine
 10
179.6668651097161
 20
361.1553894532907
 30
0.0
 11
182.6668651097161
 21
364.1553894532906
 31
0.0
  0
LINE
  5
1748
102
{ACAD_REACTORS
330
173C
102
}
330
37C
100
AcDbEntity
  8
STEMPEL
100
AcDbLine
 10
178.6668651097161
 20
364.1553894532906
 30
0.0
 11
178.6668651097161
 21
361.1553894532907
 31
0.0
  0
LINE
  5
1749
102
{ACAD_REACTORS
330
173C
102
}
330
37C
100
AcDbEntity
  8
STEMPEL
100
AcDbLine
 10
192.6668651097161
 20
359.1553894532907
 30
0.0
 11
187.6668651097161
 21
364.1553894532906
 31
0.0
  0
POINT
  5
174A
330
37C
100
AcDbEntity
  8
DEFPOINTS
  6
ByBlock
 62
     0
100
AcDbPoint
 10
192.6668651097161
 20
359.1553894532907
 30
0.0
  0
POINT
  5
174B
330
37C
100
AcDbEntity
  8
DEFPOINTS
  6
ByBlock
 62
     0
100
AcDbPoint
 10
192.6668651097161
 20
359.1553894532907
 30
0.0
  0
POINT
  5
174C
330
37C
100
AcDbEntity
  8
DEFPOINTS
  6
ByBlock
 62
     0
100
AcDbPoint
 10
193.6668651097161
 20
359.1553894532907
 30
0.0
  0
LINE
  5
174D
102
{ACAD_REACTORS
330
173C
102
}
330
37C
100
AcDbEntity
  8
STEMPEL
100
AcDbLine
 10
181.6668651097161
 20
370.6553894532906
 30
0.0
 11
181.0326716324464
 21
370.6553894532906
 31
0.0
  0
LINE
  5
174E
102
{ACAD_REACTORS
330
173C
102
}
330
37C
100
AcDbEntity
  8
STEMPEL
100
AcDbLine
 10
181.6668651097161
 20
372.1553894532906
 30
0.0
 11
179.6668651097161
 21
372.1553894532906
 31
0.0
  0
ARC
  5
174F
102
{ACAD_REACTORS
330
173C
102
}
330
37C
100
AcDbEntity
  8
STEMPEL
100
AcDbCircle
 10
183.6668651097161
 20
372.1553894532907
 30
0.0
 40
4.0
100
AcDbArc
 50
90.0
 51
180.0
  0
POINT
  5
1750
330
37C
100
AcDbEntity
  8
DEFPOINTS
  6
ByBlock
 62
     0
100
AcDbPoint
 10
179.6668651097161
 20
372.1553894532906
 30
0.0
  0
POINT
  5
1751
330
37C
100
AcDbEntity
  8
DEFPOINTS
  6
ByBlock
 62
     0
100
AcDbPoint
 10
181.0326716324464
 20
370.6553894532906
 30
0.0
  0
LINE
  5
1752
102
{ACAD_REACTORS
330
173C
102
}
330
37C
100
AcDbEntity
  8
STEMPEL
100
AcDbLine
 10
181.6668651097161
 20
372.1553894532906
 30
0.0
 11
181.6668651097161
 21
370.6553894532906
 31
0.0
  0
POINT
  5
1753
330
37C
100
AcDbEntity
  8
DEFPOINTS
  6
ByBlock
 62
     0
100
AcDbPoint
 10
183.6668651097161
 20
376.1553894532907
 30
0.0
  0
POINT
  5
1754
330
37C
100
AcDbEntity
  8
DEFPOINTS
  6
ByBlock
 62
     0
100
AcDbPoint
 10
183.6668651097161
 20
376.1553894532907
 30
0.0
  0
LINE
  5
1755
102
{ACAD_REACTORS
330
173C
102
}
330
37C
100
AcDbEntity
  8
STEMPEL
100
AcDbLine
 10
188.6668651097161
 20
376.1553894532907
 30
0.0
 11
190.1668651097161
 21
370.5573132419374
 31
0.0
  0
POINT
  5
1756
330
37C
100
AcDbEntity
  8
DEFPOINTS
  6
ByBlock
 62
     0
100
AcDbPoint
 10
188.6668651097161
 20
376.1553894532907
 30
0.0
  0
LINE
  5
1757
102
{ACAD_REACTORS
330
173C
102
}
330
37C
100
AcDbEntity
  8
STEMPEL
100
AcDbLine
 10
229.1668651097162
 20
370.5573132419374
 30
0.0
 11
229.1668651097162
 21
365.2175672797818
 31
0.0
  0
LINE
  5
1758
102
{ACAD_REACTORS
330
173C
102
}
330
37C
100
AcDbEntity
  8
STEMPEL
100
AcDbLine
 10
240.6668651097162
 20
364.1553894532906
 30
0.0
 11
238.3010585869858
 21
370.6553894532906
 31
0.0
  0
LINE
  5
1759
102
{ACAD_REACTORS
330
173C
102
}
330
37C
100
AcDbEntity
  8
STEMPEL
100
AcDbLine
 10
225.6668651097161
 20
359.1553894532907
 30
0.0
 11
229.1668651097162
 21
365.2175672797818
 31
0.0
  0
LINE
  5
175A
102
{ACAD_REACTORS
330
173C
102
}
330
37C
100
AcDbEntity
  8
STEMPEL
100
AcDbLine
 10
231.6668651097161
 20
364.1553894532906
 30
0.0
 11
236.6668651097162
 21
364.1553894532906
 31
0.0
  0
LINE
  5
175B
102
{ACAD_REACTORS
330
173C
102
}
330
37C
100
AcDbEntity
  8
STEMPEL
100
AcDbLine
 10
228.6668651097162
 20
361.1553894532907
 30
0.0
 11
240.6668651097162
 21
361.1553894532907
 31
0.0
  0
LINE
  5
175C
102
{ACAD_REACTORS
330
173C
102
}
330
37C
100
AcDbEntity
  8
STEMPEL
100
AcDbLine
 10
226.6668651097162
 20
359.1553894532907
 30
0.0
 11
231.6668651097161
 21
364.1553894532906
 31
0.0
  0
LINE
  5
175D
102
{ACAD_REACTORS
330
173C
102
}
330
37C
100
AcDbEntity
  8
STEMPEL
100
AcDbLine
 10
239.6668651097161
 20
361.1553894532907
 30
0.0
 11
236.6668651097162
 21
364.1553894532906
 31
0.0
  0
LINE
  5
175E
102
{ACAD_REACTORS
330
173C
102
}
330
37C
100
AcDbEntity
  8
STEMPEL
100
AcDbLine
 10
240.6668651097162
 20
364.1553894532906
 30
0.0
 11
240.6668651097162
 21
361.1553894532907
 31
0.0
  0
LINE
  5
175F
102
{ACAD_REACTORS
330
173C
102
}
330
37C
100
AcDbEntity
  8
STEMPEL
100
AcDbLine
 10
230.6668651097162
 20
376.1553894532907
 30
0.0
 11
229.1668651097162
 21
370.5573132419374
 31
0.0
  0
POINT
  5
1760
330
37C
100
AcDbEntity
  8
DEFPOINTS
  6
ByBlock
 62
     0
100
AcDbPoint
 10
230.6668651097162
 20
376.1553894532907
 30
0.0
  0
LINE
  5
1761
102
{ACAD_REACTORS
330
173C
102
}
330
37C
100
AcDbEntity
  8
STEMPEL
100
AcDbLine
 10
237.6668651097161
 20
372.1553894532906
 30
0.0
 11
239.6668651097161
 21
372.1553894532906
 31
0.0
  0
ARC
  5
1762
102
{ACAD_REACTORS
330
173C
102
}
330
37C
100
AcDbEntity
  8
STEMPEL
100
AcDbCircle
 10
235.6668651097161
 20
372.1553894532907
 30
0.0
 40
4.0
100
AcDbArc
 50
0.0
 51
90.0
  0
POINT
  5
1763
330
37C
100
AcDbEntity
  8
DEFPOINTS
  6
ByBlock
 62
     0
100
AcDbPoint
 10
235.6668651097161
 20
372.1553894532907
 30
0.0
  0
LINE
  5
1764
102
{ACAD_REACTORS
330
173C
102
}
330
37C
100
AcDbEntity
  8
STEMPEL
100
AcDbLine
 10
237.6668651097161
 20
370.6553894532906
 30
0.0
 11
238.3010585869858
 21
370.6553894532906
 31
0.0
  0
LINE
  5
1765
102
{ACAD_REACTORS
330
173C
102
}
330
37C
100
AcDbEntity
  8
STEMPEL
100
AcDbLine
 10
237.6668651097161
 20
372.1553894532906
 30
0.0
 11
237.6668651097161
 21
370.6553894532906
 31
0.0
  0
POINT
  5
1766
330
37C
100
AcDbEntity
  8
DEFPOINTS
  6
ByBlock
 62
     0
100
AcDbPoint
 10
238.9034637113613
 20
374.5057999476146
 30
0.0
  0
ENDSEC
  0
SECTION
  2
OBJECTS
  0
DICTIONARY
  5
371
330
0
100
AcDbDictionary
281
     1
  3
ACAD_COLOR
350
158A
  3
ACAD_GROUP
350
372
  3
ACAD_LAYOUT
350
CE9
  3
ACAD_MATERIAL
350
1589
  3
ACAD_MLINESTYLE
350
37F
  3
ACAD_PLOTSETTINGS
350
CEA
  3
ACAD_PLOTSTYLENAME
350
CE7
  3
ACDBVARIABLEDICTIONARY
350
39E
  0
DICTIONARY
  5
158A
102
{ACAD_REACTORS
330
371
102
}
330
371
100
AcDbDictionary
281
     1
  0
DICTIONARY
  5
372
102
{ACAD_REACTORS
330
371
102
}
330
371
100
AcDbDictionary
281
     1
  0
DICTIONARY
  5
CE9
102
{ACAD_REACTORS
330
371
102
}
330
371
100
AcDbDictionary
281
     1
  3
Layout1
350
CEC
  3
Model
350
CEB
  0
DICTIONARY
  5
1589
102
{ACAD_REACTORS
330
371
102
}
330
371
100
AcDbDictionary
281
     1
  0
DICTIONARY
  5
37F
102
{ACAD_REACTORS
330
371
102
}
330
371
100
AcDbDictionary
281
     1
  3
STANDARD
350
380
  0
DICTIONARY
  5
CEA
102
{ACAD_REACTORS
330
371
102
}
330
371
100
AcDbDictionary
281
     1
  0
ACDBDICTIONARYWDFLT
  5
CE7
102
{ACAD_REACTORS
330
371
102
}
330
371
100
AcDbDictionary
281
     1
  3
Normal
350
CE8
100
AcDbDictionaryWithDefault
340
CE8
  0
DICTIONARY
  5
39E
102
{ACAD_REACTORS
330
371
102
}
330
371
100
AcDbDictionary
281
     1
  3
DIMADEC
350
39F
  3
DIMASSOC
350
161B
  3
PROJECTNAME
350
161C
  3
SORTENTS
350
E1D
  0
LAYOUT
  5
CEC
102
{ACAD_REACTORS
330
CE9
102
}
330
CE9
100
AcDbPlotSettings
  1

  2
HP LaserJet 5000 N PS
  4

  6

 40
0.0
 41
0.0
 42
0.0
 43
0.0
 44
0.0
 45
0.0
 46
0.0
 47
0.0
 48
0.0
 49
0.0
140
0.0
141
0.0
142
1.0
143
1.0
 70
   688
 72
     0
 73
     0
 74
     5
  7
monochrome.ctb
 75
    16
147
1.0
 76
     0
 77
     2
 78
   300
148
0.0
149
0.0
100
AcDbLayout
  1
Layout1
 70
     0
 71
     1
 10
0.0
 20
0.0
 11
12.0
 21
9.0
 12
0.0
 22
0.0
 32
0.0
 14
1.000000000000000E+20
 24
1.000000000000000E+20
 34
1.000000000000000E+20
 15
-1.000000000000000E+20
 25
-1.000000000000000E+20
 35
-1.000000000000000E+20
146
0.0
 13
0.0
 23
0.0
 33
0.0
 16
1.0
 26
0.0
 36
0.0
 17
0.0
 27
1.0
 37
0.0
 76
     0
330
379
  0
LAYOUT
  5
CEB
102
{ACAD_REACTORS
330
CE9
102
}
330
CE9
100
AcDbPlotSettings
  1

  2
Tektronix Phaser 740  Büro 2000
  4
A4
  6

 40
5.873749732971191
 41
6.085414409637451
 42
5.577407836914062
 43
5.662078857421875
 44
209.9733276367187
 45
296.9683227539062
 46
0.0
 47
0.0
 48
0.0
 49
0.0
140
0.0
141
0.0
142
1.0
143
2.115632726856676
 70
 28336
 72
     1
 73
     0
 74
     2
  7
monochrome.ctb
 75
     0
147
0.4726718334924608
 76
     0
 77
     2
 78
   300
148
0.0
149
0.0
100
AcDbLayout
  1
Model
 70
     1
 71
     0
 10
0.0
 20
0.0
 11
12.0
 21
9.0
 12
0.0
 22
0.0
 32
0.0
 14
0.0
 24
0.0
 34
0.0
 15
0.0
 25
0.0
 35
0.0
146
0.0
 13
0.0
 23
0.0
 33
0.0
 16
1.0
 26
0.0
 36
0.0
 17
0.0
 27
1.0
 37
0.0
 76
     0
330
37C
  0
MLINESTYLE
  5
380
102
{ACAD_REACTORS
330
37F
102
}
330
37F
100
AcDbMlineStyle
  2
STANDARD
 70
     0
  3

 62
   256
 51
90.0
 52
90.0
 71
     2
 49
0.5
 62
   256
  6
BYLAYER
 49
-0.5
 62
   256
  6
BYLAYER
  0
ACDBPLACEHOLDER
  5
CE8
102
{ACAD_REACTORS
330
CE7
102
}
330
CE7
  0
DICTIONARYVAR
  5
39F
102
{ACAD_REACTORS
330
39E
102
}
330
39E
100
DictionaryVariables
280
     0
  1
0
  0
DICTIONARYVAR
  5
161B
102
{ACAD_REACTORS
330
39E
102
}
330
39E
100
DictionaryVariables
280
     0
  1
1
  0
DICTIONARYVAR
  5
161C
102
{ACAD_REACTORS
330
39E
102
}
330
39E
100
DictionaryVariables
280
     0
  1

  0
DICTIONARYVAR
  5
E1D
102
{ACAD_REACTORS
330
39E
102
}
330
39E
100
DictionaryVariables
280
     0
  1
96
  0
ENDSEC
  0
EOF
