  0
SECTION
  2
HEADER
  9
$ACADVER
  1
AC1018
  9
$ACADMAINTVER
 70
     2
  9
$DWGCODEPAGE
  3
ANSI_1252
  9
$INSBASE
 10
0.0
 20
0.0
 30
0.0
  9
$EXTMIN
 10
-0.0128164049388033
 20
-0.0181260584133725
 30
-0.0015258207003583
  9
$EXTMAX
 10
420.012818360716
 20
594.0181288244416
 30
0.0000000349246037
  9
$LIMMIN
 10
0.0
 20
0.0
  9
$LIMMAX
 10
419.9999999999999
 20
594.0
  9
$ORTHOMODE
 70
     1
  9
$REGENMODE
 70
     1
  9
$FILLMODE
 70
     1
  9
$QTEXTMODE
 70
     0
  9
$MIRRTEXT
 70
     1
  9
$LTSCALE
 40
20.0
  9
$ATTMODE
 70
     1
  9
$TEXTSIZE
 40
2.5
  9
$TRACEWID
 40
0.5
  9
$TEXTSTYLE
  7
GREEKS
  9
$CLAYER
  8
BEM
  9
$CELTYPE
  6
ByLayer
  9
$CECOLOR
 62
   256
  9
$CELTSCALE
 40
1.0
  9
$DISPSILH
 70
     0
  9
$DIMSCALE
 40
2.0
  9
$DIMASZ
 40
3.5
  9
$DIMEXO
 40
1.0
  9
$DIMDLI
 40
7.0
  9
$DIMRND
 40
0.0
  9
$DIMDLE
 40
0.0
  9
$DIMEXE
 40
1.0
  9
$DIMTP
 40
0.0
  9
$DIMTM
 40
0.0
  9
$DIMTXT
 40
3.5
  9
$DIMCEN
 40
1.5
  9
$DIMTSZ
 40
0.0
  9
$DIMTOL
 70
     0
  9
$DIMLIM
 70
     0
  9
$DIMTIH
 70
     0
  9
$DIMTOH
 70
     0
  9
$DIMSE1
 70
     0
  9
$DIMSE2
 70
     0
  9
$DIMTAD
 70
     1
  9
$DIMZIN
 70
     8
  9
$DIMBLK
  1

  9
$DIMASO
 70
     1
  9
$DIMSHO
 70
     0
  9
$DIMPOST
  1

  9
$DIMAPOST
  1

  9
$DIMALT
 70
     0
  9
$DIMALTD
 70
     2
  9
$DIMALTF
 40
25.4
  9
$DIMLFAC
 40
1.0
  9
$DIMTOFL
 70
     1
  9
$DIMTVP
 40
0.0
  9
$DIMTIX
 70
     0
  9
$DIMSOXD
 70
     0
  9
$DIMSAH
 70
     0
  9
$DIMBLK1
  1

  9
$DIMBLK2
  1

  9
$DIMSTYLE
  2
Standard
  9
$DIMCLRD
 70
     0
  9
$DIMCLRE
 70
     0
  9
$DIMCLRT
 70
     1
  9
$DIMTFAC
 40
0.5
  9
$DIMGAP
 40
1.5
  9
$DIMJUST
 70
     0
  9
$DIMSD1
 70
     0
  9
$DIMSD2
 70
     0
  9
$DIMTOLJ
 70
     1
  9
$DIMTZIN
 70
     8
  9
$DIMALTZ
 70
     8
  9
$DIMALTTZ
 70
     8
  9
$DIMUPT
 70
     0
  9
$DIMDEC
 70
     2
  9
$DIMTDEC
 70
     2
  9
$DIMALTU
 70
     2
  9
$DIMALTTD
 70
     2
  9
$DIMTXSTY
  7
STANDARD
  9
$DIMAUNIT
 70
     0
  9
$DIMADEC
 70
     2
  9
$DIMALTRND
 40
0.0
  9
$DIMAZIN
 70
     2
  9
$DIMDSEP
 70
    46
  9
$DIMATFIT
 70
     3
  9
$DIMFRAC
 70
     0
  9
$DIMLDRBLK
  1

  9
$DIMLUNIT
 70
     2
  9
$DIMLWD
 70
    -2
  9
$DIMLWE
 70
    -2
  9
$DIMTMOVE
 70
     0
  9
$LUNITS
 70
     2
  9
$LUPREC
 70
     2
  9
$SKETCHINC
 40
1.0
  9
$FILLETRAD
 40
0.0
  9
$AUNITS
 70
     0
  9
$AUPREC
 70
     0
  9
$MENU
  1
ACAD
  9
$ELEVATION
 40
0.0
  9
$PELEVATION
 40
0.0
  9
$THICKNESS
 40
0.0
  9
$LIMCHECK
 70
     0
  9
$CHAMFERA
 40
0.0
  9
$CHAMFERB
 40
0.0
  9
$CHAMFERC
 40
0.0
  9
$CHAMFERD
 40
0.0
  9
$SKPOLY
 70
     0
  9
$TDCREATE
 40
2455397.823042361
  9
$TDUCREATE
 40
2455397.781375695
  9
$TDUPDATE
 40
2456283.409481493
  9
$TDUUPDATE
 40
2456283.367814826
  9
$TDINDWG
 40
0.3602603125
  9
$TDUSRTIMER
 40
0.3602603125
  9
$USRTIMER
 70
     1
  9
$ANGBASE
 50
0.0
  9
$ANGDIR
 70
     0
  9
$PDMODE
 70
     0
  9
$PDSIZE
 40
0.0
  9
$PLINEWID
 40
0.0
  9
$SPLFRAME
 70
     0
  9
$SPLINETYPE
 70
     6
  9
$SPLINESEGS
 70
     8
  9
$HANDSEED
  5
2094
  9
$SURFTAB1
 70
     6
  9
$SURFTAB2
 70
     6
  9
$SURFTYPE
 70
     6
  9
$SURFU
 70
     6
  9
$SURFV
 70
     6
  9
$UCSBASE
  2

  9
$UCSNAME
  2

  9
$UCSORG
 10
0.0
 20
0.0
 30
0.0
  9
$UCSXDIR
 10
1.0
 20
0.0
 30
0.0
  9
$UCSYDIR
 10
0.0
 20
1.0
 30
0.0
  9
$UCSORTHOREF
  2

  9
$UCSORTHOVIEW
 70
     0
  9
$UCSORGTOP
 10
0.0
 20
0.0
 30
0.0
  9
$UCSORGBOTTOM
 10
0.0
 20
0.0
 30
0.0
  9
$UCSORGLEFT
 10
0.0
 20
0.0
 30
0.0
  9
$UCSORGRIGHT
 10
0.0
 20
0.0
 30
0.0
  9
$UCSORGFRONT
 10
0.0
 20
0.0
 30
0.0
  9
$UCSORGBACK
 10
0.0
 20
0.0
 30
0.0
  9
$PUCSBASE
  2

  9
$PUCSNAME
  2

  9
$PUCSORG
 10
0.0
 20
0.0
 30
0.0
  9
$PUCSXDIR
 10
1.0
 20
0.0
 30
0.0
  9
$PUCSYDIR
 10
0.0
 20
1.0
 30
0.0
  9
$PUCSORTHOREF
  2

  9
$PUCSORTHOVIEW
 70
     0
  9
$PUCSORGTOP
 10
0.0
 20
0.0
 30
0.0
  9
$PUCSORGBOTTOM
 10
0.0
 20
0.0
 30
0.0
  9
$PUCSORGLEFT
 10
0.0
 20
0.0
 30
0.0
  9
$PUCSORGRIGHT
 10
0.0
 20
0.0
 30
0.0
  9
$PUCSORGFRONT
 10
0.0
 20
0.0
 30
0.0
  9
$PUCSORGBACK
 10
0.0
 20
0.0
 30
0.0
  9
$USERI1
 70
     0
  9
$USERI2
 70
     0
  9
$USERI3
 70
     0
  9
$USERI4
 70
     0
  9
$USERI5
 70
     0
  9
$USERR1
 40
0.0
  9
$USERR2
 40
0.0
  9
$USERR3
 40
0.0
  9
$USERR4
 40
0.0
  9
$USERR5
 40
0.0
  9
$WORLDVIEW
 70
     1
  9
$SHADEDGE
 70
     3
  9
$SHADEDIF
 70
    70
  9
$TILEMODE
 70
     1
  9
$MAXACTVP
 70
    16
  9
$PINSBASE
 10
0.0
 20
0.0
 30
0.0
  9
$PLIMCHECK
 70
     0
  9
$PEXTMIN
 10
1.000000000000000E+20
 20
1.000000000000000E+20
 30
1.000000000000000E+20
  9
$PEXTMAX
 10
-1.000000000000000E+20
 20
-1.000000000000000E+20
 30
-1.000000000000000E+20
  9
$PLIMMIN
 10
0.0
 20
0.0
  9
$PLIMMAX
 10
12.0
 20
9.0
  9
$UNITMODE
 70
     0
  9
$VISRETAIN
 70
     0
  9
$PLINEGEN
 70
     0
  9
$PSLTSCALE
 70
     0
  9
$TREEDEPTH
 70
  3020
  9
$CMLSTYLE
  2
Standard
  9
$CMLJUST
 70
     0
  9
$CMLSCALE
 40
1.0
  9
$PROXYGRAPHICS
 70
     1
  9
$MEASUREMENT
 70
     0
  9
$CELWEIGHT
370
    -1
  9
$ENDCAPS
280
     0
  9
$JOINSTYLE
280
     0
  9
$LWDISPLAY
290
     0
  9
$INSUNITS
 70
     0
  9
$HYPERLINKBASE
  1

  9
$STYLESHEET
  1
monochrome 1.ctb
  9
$XEDIT
290
     1
  9
$CEPSNTYPE
380
     0
  9
$PSTYLEMODE
290
     1
  9
$FINGERPRINTGUID
  2
{D68B0D02-A558-11D7-B632-000102183313}
  9
$VERSIONGUID
  2
{6188D312-4E07-490C-964D-0D0E3BBBE249}
  9
$EXTNAMES
290
     1
  9
$PSVPSCALE
 40
0.0
  9
$OLESTARTUP
290
     0
  9
$SORTENTS
280
   127
  9
$INDEXCTL
280
     0
  9
$HIDETEXT
280
     0
  9
$XCLIPFRAME
290
     0
  9
$HALOGAP
280
     0
  9
$OBSCOLOR
 70
   257
  9
$OBSLTYPE
280
     0
  9
$INTERSECTIONDISPLAY
280
     0
  9
$INTERSECTIONCOLOR
 70
   257
  9
$DIMASSOC
280
     1
  9
$PROJECTNAME
  1

  0
ENDSEC
  0
SECTION
  2
CLASSES
  0
CLASS
  1
ACDBDICTIONARYWDFLT
  2
AcDbDictionaryWithDefault
  3
ObjectDBX Classes
 90
        0
 91
        1
280
     0
281
     0
  0
CLASS
  1
DICTIONARYVAR
  2
AcDbDictionaryVar
  3
ObjectDBX Classes
 90
        0
 91
        2
280
     0
281
     0
  0
ENDSEC
  0
SECTION
  2
TABLES
  0
TABLE
  2
VPORT
  5
8
330
0
100
AcDbSymbolTable
 70
     3
  0
VPORT
  5
2093
330
8
100
AcDbSymbolTableRecord
100
AcDbViewportTableRecord
  2
*Active
 70
     0
 10
0.0
 20
0.0
 11
1.0
 21
1.0
 12
210.0
 22
297.0
 13
0.0
 23
0.0
 14
1.0
 24
1.0
 15
10.0
 25
10.0
 16
0.0
 26
0.0
 36
1.0
 17
0.0
 27
0.0
 37
0.0
 40
594.0
 41
1.403508771929824
 42
50.0
 43
0.0
 44
0.0
 50
0.0
 51
0.0
 71
     0
 72
  1500
 73
     1
 74
     0
 75
     0
 76
     0
 77
     0
 78
     0
281
     0
 65
     1
110
0.0
120
0.0
130
0.0
111
1.0
121
0.0
131
0.0
112
0.0
122
1.0
132
0.0
 79
     0
146
0.0
  0
ENDTAB
  0
TABLE
  2
LTYPE
  5
5
330
0
100
AcDbSymbolTable
 70
     2
  0
LTYPE
  5
13
330
5
100
AcDbSymbolTableRecord
100
AcDbLinetypeTableRecord
  2
ByBlock
 70
     0
  3

 72
    65
 73
     0
 40
0.0
  0
LTYPE
  5
14
330
5
100
AcDbSymbolTableRecord
100
AcDbLinetypeTableRecord
  2
ByLayer
 70
     0
  3

 72
    65
 73
     0
 40
0.0
  0
LTYPE
  5
15
330
5
100
AcDbSymbolTableRecord
100
AcDbLinetypeTableRecord
  2
Continuous
 70
     0
  3
Solid line
 72
    65
 73
     0
 40
0.0
  0
LTYPE
  5
25
330
5
100
AcDbSymbolTableRecord
100
AcDbLinetypeTableRecord
  2
STRICHPUNKT
 70
     0
  3
__ . __ . __ . __ . __ . __ . __ . __ . __ . __
 72
    65
 73
     4
 40
1.0
 49
0.5
 74
     0
 49
-0.25
 74
     0
 49
0.0
 74
     0
 49
-0.25
 74
     0
  0
ENDTAB
  0
TABLE
  2
LAYER
  5
2
330
0
100
AcDbSymbolTable
 70
     8
  0
LAYER
  5
10
330
2
100
AcDbSymbolTableRecord
100
AcDbLayerTableRecord
  2
0
 70
     0
 62
     7
  6
Continuous
370
    -3
390
F
  0
LAYER
  5
2A
330
2
100
AcDbSymbolTableRecord
100
AcDbLayerTableRecord
  2
VOLL
 70
     0
 62
     1
  6
Continuous
370
    -3
390
F
  0
LAYER
  5
2B
330
2
100
AcDbSymbolTableRecord
100
AcDbLayerTableRecord
  2
HILF
 70
     0
 62
     2
  6
Continuous
370
    -3
390
F
  0
LAYER
  5
2C
330
2
100
AcDbSymbolTableRecord
100
AcDbLayerTableRecord
  2
MITTEL
 70
     0
 62
     2
  6
STRICHPUNKT
370
    -3
390
F
  0
LAYER
  5
2F
330
2
100
AcDbSymbolTableRecord
100
AcDbLayerTableRecord
  2
BEM
 70
     0
 62
     7
  6
Continuous
370
    -3
390
F
  0
LAYER
  5
30
330
2
100
AcDbSymbolTableRecord
100
AcDbLayerTableRecord
  2
STEMPEL
 70
     0
 62
     3
  6
Continuous
370
    -3
390
F
  0
LAYER
  5
31
330
2
100
AcDbSymbolTableRecord
100
AcDbLayerTableRecord
  2
TEXT
 70
     0
 62
     7
  6
Continuous
370
    -3
390
F
  0
LAYER
  5
1A8
330
2
100
AcDbSymbolTableRecord
100
AcDbLayerTableRecord
  2
Defpoints
 70
     0
 62
     7
  6
Continuous
290
     0
370
    -3
390
F
  0
ENDTAB
  0
TABLE
  2
STYLE
  5
3
330
0
100
AcDbSymbolTable
 70
     2
  0
STYLE
  5
11
330
3
100
AcDbSymbolTableRecord
100
AcDbTextStyleTableRecord
  2
STANDARD
 70
     0
 40
0.0
 41
0.8
 50
0.0
 71
     0
 42
3.5
  3
simplex.shx
  4

  0
STYLE
  5
24
330
3
100
AcDbSymbolTableRecord
100
AcDbTextStyleTableRecord
  2
GREEKS
 70
     0
 40
0.0
 41
0.8
 50
0.0
 71
     0
 42
2.5
  3
SIMPLEX.shx
  4

  0
ENDTAB
  0
TABLE
  2
VIEW
  5
6
330
0
100
AcDbSymbolTable
 70
     0
  0
ENDTAB
  0
TABLE
  2
UCS
  5
7
330
0
100
AcDbSymbolTable
 70
     0
  0
ENDTAB
  0
TABLE
  2
APPID
  5
9
330
0
100
AcDbSymbolTable
 70
     1
  0
APPID
  5
12
330
9
100
AcDbSymbolTableRecord
100
AcDbRegAppTableRecord
  2
ACAD
 70
     0
  0
ENDTAB
  0
TABLE
  2
DIMSTYLE
  5
A
330
0
100
AcDbSymbolTable
 70
     1
100
AcDbDimStyleTable
 71
     1
340
9D
  0
DIMSTYLE
105
9D
102
{ACAD_REACTORS
330
1D93
330
1DA0
330
1DD2
330
1E30
330
1E3D
330
1E4C
330
1E5A
330
1EFA
330
1FA8
102
}
330
A
100
AcDbSymbolTableRecord
100
AcDbDimStyleTableRecord
  2
Standard
 70
     0
340
11
  0
ENDTAB
  0
TABLE
  2
BLOCK_RECORD
  5
1
330
0
100
AcDbSymbolTable
 70
    10
  0
BLOCK_RECORD
  5
1E
102
{ACAD_XDICTIONARY
360
A0
102
}
330
1
100
AcDbSymbolTableRecord
100
AcDbBlockTableRecord
  2
*Model_Space
340
21
  0
BLOCK_RECORD
  5
1A
102
{ACAD_XDICTIONARY
360
A2
102
}
330
1
100
AcDbSymbolTableRecord
100
AcDbBlockTableRecord
  2
*Paper_Space
340
1D
  0
BLOCK_RECORD
  5
22
330
1
100
AcDbSymbolTableRecord
100
AcDbBlockTableRecord
  2
LOGO
340
0
102
{BLKREFS
331
9B
102
}
  0
BLOCK_RECORD
  5
1D94
330
1
100
AcDbSymbolTableRecord
100
AcDbBlockTableRecord
  2
*D1
340
0
  0
BLOCK_RECORD
  5
1DA1
330
1
100
AcDbSymbolTableRecord
100
AcDbBlockTableRecord
  2
*D2
340
0
  0
BLOCK_RECORD
  5
1DD4
330
1
100
AcDbSymbolTableRecord
100
AcDbBlockTableRecord
  2
*D3
340
0
  0
BLOCK_RECORD
  5
1E31
330
1
100
AcDbSymbolTableRecord
100
AcDbBlockTableRecord
  2
*D4
340
0
  0
BLOCK_RECORD
  5
1E3E
330
1
100
AcDbSymbolTableRecord
100
AcDbBlockTableRecord
  2
*D5
340
0
  0
BLOCK_RECORD
  5
1E4D
330
1
100
AcDbSymbolTableRecord
100
AcDbBlockTableRecord
  2
*D6
340
0
  0
BLOCK_RECORD
  5
1E5B
330
1
100
AcDbSymbolTableRecord
100
AcDbBlockTableRecord
  2
*D7
340
0
  0
BLOCK_RECORD
  5
1EFB
330
1
100
AcDbSymbolTableRecord
100
AcDbBlockTableRecord
  2
*D8
340
0
  0
BLOCK_RECORD
  5
1FA9
330
1
100
AcDbSymbolTableRecord
100
AcDbBlockTableRecord
  2
*D9
340
0
  0
ENDTAB
  0
ENDSEC
  0
SECTION
  2
BLOCKS
  0
BLOCK
  5
35
330
1E
100
AcDbEntity
  8
0
100
AcDbBlockBegin
  2
*Model_Space
 70
     0
 10
0.0
 20
0.0
 30
0.0
  3
*Model_Space
  1

  0
ENDBLK
  5
36
330
1E
100
AcDbEntity
  8
0
100
AcDbBlockEnd
  0
BLOCK
  5
33
330
1A
100
AcDbEntity
 67
     1
  8
0
100
AcDbBlockBegin
  2
*Paper_Space
 70
     0
 10
0.0
 20
0.0
 30
0.0
  3
*Paper_Space
  1

  0
ENDBLK
  5
34
330
1A
100
AcDbEntity
 67
     1
  8
0
100
AcDbBlockEnd
  0
BLOCK
  5
37
330
22
100
AcDbEntity
  8
0
100
AcDbBlockBegin
  2
LOGO
 70
     0
 10
0.0
 20
0.0
 30
0.0
  3
LOGO
  1

  0
ARC
  5
38
330
22
100
AcDbEntity
  8
0
100
AcDbCircle
 10
11.59973089678112
 20
-9.271599258481501
 30
0.0
 40
4.5
100
AcDbArc
 50
270.0
 51
231.0575587310159
  0
LINE
  5
39
330
22
100
AcDbEntity
  8
0
100
AcDbLine
 10
3.599730896781125
 20
-4.771599258481529
 30
0.0
 11
3.599730896781153
 21
-11.77159925848133
 31
0.0
  0
LINE
  5
3A
330
22
100
AcDbEntity
  8
0
100
AcDbLine
 10
2.599730896781125
 20
-4.771599258481529
 30
0.0
 11
2.599730896781153
 21
-11.77159925848133
 31
0.0
  0
CIRCLE
  5
3B
330
22
100
AcDbEntity
  8
0
100
AcDbCircle
 10
11.59973089678112
 20
-9.271599258481501
 30
0.0
 40
3.5
  0
ARC
  5
3C
330
22
100
AcDbEntity
  8
0
100
AcDbCircle
 10
31.59973089678115
 20
-9.271599258481472
 30
0.0
 40
4.5
100
AcDbArc
 50
270.0
 51
231.0575587310182
  0
LINE
  5
3D
330
22
100
AcDbEntity
  8
0
100
AcDbLine
 10
17.59973089678112
 20
-4.771599258481472
 30
0.0
 11
17.59973089678115
 21
-13.77159925848147
 31
0.0
  0
ARC
  5
3E
330
22
100
AcDbEntity
  8
0
100
AcDbCircle
 10
22.59973089678116
 20
-7.271599258481472
 30
0.0
 40
2.5
100
AcDbArc
 50
293.1161887722295
 51
90.0
  0
CIRCLE
  5
3F
330
22
100
AcDbEntity
  8
0
100
AcDbCircle
 10
31.59973089678115
 20
-9.271599258481472
 30
0.0
 40
3.5
  0
ARC
  5
40
330
22
100
AcDbEntity
  8
0
100
AcDbCircle
 10
4.599730896781153
 20
-11.77159925848133
 30
0.0
 40
1.0
100
AcDbArc
 50
180.0
 51
270.0
  0
ARC
  5
41
330
22
100
AcDbEntity
  8
0
100
AcDbCircle
 10
4.599730896781153
 20
-11.77159925848133
 30
0.0
 40
2.0
100
AcDbArc
 50
179.9999999999992
 51
270.0
  0
LINE
  5
42
330
22
100
AcDbEntity
  8
0
100
AcDbLine
 10
11.59973089678115
 20
-13.77159925848144
 30
0.0
 11
4.599730896781153
 21
-13.77159925848147
 31
0.0
  0
LINE
  5
43
330
22
100
AcDbEntity
  8
0
100
AcDbLine
 10
8.771303772034769
 20
-12.77159925848136
 30
0.0
 11
4.599730896781153
 21
-12.77159925848133
 31
0.0
  0
LINE
  5
44
330
22
100
AcDbEntity
  8
0
100
AcDbLine
 10
31.59973089678115
 20
-13.77159925848147
 30
0.0
 11
23.6715276665056
 21
-13.77159925848144
 31
0.0
  0
LINE
  5
45
330
22
100
AcDbEntity
  8
0
100
AcDbLine
 10
23.56565672307022
 20
-9.51278021337896
 30
0.0
 11
24.4388546544846
 21
-12.77159925848144
 31
0.0
  0
LINE
  5
46
330
22
100
AcDbEntity
  8
0
100
AcDbLine
 10
22.59973089678116
 20
-9.771599258481472
 30
0.0
 11
18.59973089678112
 21
-9.771599258481472
 31
0.0
  0
LINE
  5
47
330
22
100
AcDbEntity
  8
0
100
AcDbLine
 10
18.59973089678115
 20
-13.77159925848144
 30
0.0
 11
17.59973089678115
 21
-13.77159925848144
 31
0.0
  0
LINE
  5
48
330
22
100
AcDbEntity
  8
0
100
AcDbLine
 10
18.59973089678115
 20
-9.771599258481472
 30
0.0
 11
18.59973089678115
 21
-13.77159925848144
 31
0.0
  0
LINE
  5
49
330
22
100
AcDbEntity
  8
0
100
AcDbLine
 10
22.59973089678116
 20
-9.771599258481472
 30
0.0
 11
23.67152766650562
 21
-13.77159925848147
 31
0.0
  0
ARC
  5
4A
330
22
100
AcDbEntity
  8
0
100
AcDbCircle
 10
22.59973089678116
 20
-7.271599258481472
 30
0.0
 40
2.5
100
AcDbArc
 50
270.0
 51
270.0000000000007
  0
LINE
  5
4B
330
22
100
AcDbEntity
  8
0
100
AcDbLine
 10
28.77130377203494
 20
-12.77159925848147
 30
0.0
 11
24.43885465448463
 21
-12.77159925848144
 31
0.0
  0
LINE
  5
4C
330
22
100
AcDbEntity
  8
0
100
AcDbLine
 10
3.599730896781125
 20
-4.771599258481472
 30
0.0
 11
2.599730896781125
 21
-4.771599258481472
 31
0.0
  0
LINE
  5
4D
330
22
100
AcDbEntity
  8
0
100
AcDbLine
 10
22.59973089678116
 20
-8.771599258481472
 30
0.0
 11
18.59973089678115
 21
-8.771599258481472
 31
0.0
  0
LINE
  5
4E
330
22
100
AcDbEntity
  8
0
100
AcDbLine
 10
22.59973089678116
 20
-5.771599258481472
 30
0.0
 11
18.59973089678115
 21
-5.771599258481472
 31
0.0
  0
LINE
  5
4F
330
22
100
AcDbEntity
  8
0
100
AcDbLine
 10
22.59973089678116
 20
-4.771599258481472
 30
0.0
 11
17.59973089678115
 21
-4.771599258481472
 31
0.0
  0
LINE
  5
50
330
22
100
AcDbEntity
  8
0
100
AcDbLine
 10
18.59973089678115
 20
-5.771599258481472
 30
0.0
 11
18.59973089678115
 21
-8.771599258481472
 31
0.0
  0
ARC
  5
51
330
22
100
AcDbEntity
  8
0
100
AcDbCircle
 10
22.59973089678116
 20
-7.271599258481472
 30
0.0
 40
1.5
100
AcDbArc
 50
270.0
 51
90.0
  0
ENDBLK
  5
52
330
22
100
AcDbEntity
  8
0
100
AcDbBlockEnd
  0
BLOCK
  5
1D9E
330
1D94
100
AcDbEntity
  8
0
100
AcDbBlockBegin
  2
*D1
 70
     1
 10
0.0
 20
0.0
 30
0.0
  3
*D1
  1

  0
LINE
  5
2059
330
1D94
100
AcDbEntity
  8
BEM
 62
     0
370
    -2
100
AcDbLine
 10
168.6062651669413
 20
182.3016107353229
 30
0.0
 11
168.6062651669413
 21
158.9314883740289
 31
0.0
  0
LINE
  5
205A
330
1D94
100
AcDbEntity
  8
BEM
 62
     0
370
    -2
100
AcDbLine
 10
302.6062651669413
 20
182.3016107353229
 30
0.0
 11
302.6062651669413
 21
158.9314883740289
 31
0.0
  0
LINE
  5
205B
330
1D94
100
AcDbEntity
  8
BEM
 62
     0
370
    -2
100
AcDbLine
 10
175.6062651669413
 20
160.9314883740289
 30
0.0
 11
295.6062651669413
 21
160.9314883740289
 31
0.0
  0
SOLID
  5
205C
330
1D94
100
AcDbEntity
  8
BEM
 62
     0
100
AcDbTrace
 10
175.6062651669413
 20
162.0981550406956
 30
0.0
 11
175.6062651669413
 21
159.7648217073623
 31
0.0
 12
168.6062651669413
 22
160.9314883740289
 32
0.0
 13
168.6062651669413
 23
160.9314883740289
 33
0.0
  0
SOLID
  5
205D
330
1D94
100
AcDbEntity
  8
BEM
 62
     0
100
AcDbTrace
 10
295.6062651669413
 20
162.0981550406956
 30
0.0
 11
295.6062651669413
 21
159.7648217073623
 31
0.0
 12
302.6062651669413
 22
160.9314883740289
 32
0.0
 13
302.6062651669413
 23
160.9314883740289
 33
0.0
  0
MTEXT
  5
205E
330
1D94
100
AcDbEntity
  8
BEM
 62
     1
100
AcDbMText
 10
235.6062651669413
 20
167.4314883740289
 30
0.0
 40
7.0
 41
0.0
 71
     5
 72
     1
  1
\A1;134
 73
     1
 44
1.0
  0
POINT
  5
205F
330
1D94
100
AcDbEntity
  8
Defpoints
 62
     0
100
AcDbPoint
 10
168.6062651669413
 20
184.3016107353229
 30
0.0
  0
POINT
  5
2060
330
1D94
100
AcDbEntity
  8
Defpoints
 62
     0
100
AcDbPoint
 10
302.6062651669413
 20
184.3016107353229
 30
0.0
  0
POINT
  5
2061
330
1D94
100
AcDbEntity
  8
Defpoints
 62
     0
100
AcDbPoint
 10
302.6062651669413
 20
160.9314883740289
 30
0.0
  0
ENDBLK
  5
1D9F
330
1D94
100
AcDbEntity
  8
0
100
AcDbBlockEnd
  0
BLOCK
  5
1DAB
330
1DA1
100
AcDbEntity
  8
0
100
AcDbBlockBegin
  2
*D2
 70
     1
 10
0.0
 20
0.0
 30
0.0
  3
*D2
  1

  0
LINE
  5
2050
330
1DA1
100
AcDbEntity
  8
BEM
 62
     0
370
    -2
100
AcDbLine
 10
158.1062651669413
 20
192.3016107353229
 30
0.0
 11
158.1062651669413
 21
143.9626493476364
 31
0.0
  0
LINE
  5
2051
330
1DA1
100
AcDbEntity
  8
BEM
 62
     0
370
    -2
100
AcDbLine
 10
313.1062651669413
 20
192.3016107353229
 30
0.0
 11
313.1062651669413
 21
143.9626493476364
 31
0.0
  0
LINE
  5
2052
330
1DA1
100
AcDbEntity
  8
BEM
 62
     0
370
    -2
100
AcDbLine
 10
165.1062651669413
 20
145.9626493476364
 30
0.0
 11
306.1062651669413
 21
145.9626493476364
 31
0.0
  0
SOLID
  5
2053
330
1DA1
100
AcDbEntity
  8
BEM
 62
     0
100
AcDbTrace
 10
165.1062651669413
 20
147.1293160143031
 30
0.0
 11
165.1062651669413
 21
144.7959826809698
 31
0.0
 12
158.1062651669413
 22
145.9626493476364
 32
0.0
 13
158.1062651669413
 23
145.9626493476364
 33
0.0
  0
SOLID
  5
2054
330
1DA1
100
AcDbEntity
  8
BEM
 62
     0
100
AcDbTrace
 10
306.1062651669413
 20
147.1293160143031
 30
0.0
 11
306.1062651669413
 21
144.7959826809698
 31
0.0
 12
313.1062651669413
 22
145.9626493476364
 32
0.0
 13
313.1062651669413
 23
145.9626493476364
 33
0.0
  0
MTEXT
  5
2055
330
1DA1
100
AcDbEntity
  8
BEM
 62
     1
100
AcDbMText
 10
235.6062651669413
 20
152.4626493476364
 30
0.0
 40
7.0
 41
0.0
 71
     5
 72
     1
  1
\A1;155
 73
     1
 44
1.0
  0
POINT
  5
2056
330
1DA1
100
AcDbEntity
  8
Defpoints
 62
     0
100
AcDbPoint
 10
158.1062651669413
 20
194.3016107353229
 30
0.0
  0
POINT
  5
2057
330
1DA1
100
AcDbEntity
  8
Defpoints
 62
     0
100
AcDbPoint
 10
313.1062651669413
 20
194.3016107353229
 30
0.0
  0
POINT
  5
2058
330
1DA1
100
AcDbEntity
  8
Defpoints
 62
     0
100
AcDbPoint
 10
313.1062651669413
 20
145.9626493476364
 30
0.0
  0
ENDBLK
  5
1DAC
330
1DA1
100
AcDbEntity
  8
0
100
AcDbBlockEnd
  0
BLOCK
  5
1DE0
330
1DD4
100
AcDbEntity
  8
0
100
AcDbBlockBegin
  2
*D3
 70
     1
 10
0.0
 20
0.0
 30
0.0
  3
*D3
  1

  0
LINE
  5
2045
330
1DD4
100
AcDbEntity
  8
BEM
 62
     0
370
    -2
100
AcDbLine
 10
239.1072651669412
 20
387.2776196647325
 30
0.0
 11
239.1072651669412
 21
387.3350256659671
 31
0.0
  0
LINE
  5
2046
330
1DD4
100
AcDbEntity
  8
BEM
 62
     0
370
    -2
100
AcDbLine
 10
232.1072651669413
 20
387.2776196647325
 30
0.0
 11
232.1072651669413
 21
387.3350256659671
 31
0.0
  0
LINE
  5
2047
330
1DD4
100
AcDbEntity
  8
BEM
 62
     0
370
    -2
100
AcDbLine
 10
246.1072651669413
 20
385.3350256659671
 30
0.0
 11
253.1072651669413
 21
385.3350256659671
 31
0.0
  0
LINE
  5
2048
330
1DD4
100
AcDbEntity
  8
BEM
 62
     0
370
    -2
100
AcDbLine
 10
225.1072651669413
 20
385.3350256659671
 30
0.0
 11
208.3739318336079
 21
385.3350256659671
 31
0.0
  0
LINE
  5
2049
330
1DD4
100
AcDbEntity
  8
BEM
 62
     0
370
    -2
100
AcDbLine
 10
239.1072651669412
 20
385.3350256659671
 30
0.0
 11
232.1072651669413
 21
385.3350256659671
 31
0.0
  0
SOLID
  5
204A
330
1DD4
100
AcDbEntity
  8
BEM
 62
     0
100
AcDbTrace
 10
246.1072651669413
 20
386.5016923326338
 30
0.0
 11
246.1072651669413
 21
384.1683589993004
 31
0.0
 12
239.1072651669412
 22
385.3350256659671
 32
0.0
 13
239.1072651669412
 23
385.3350256659671
 33
0.0
  0
SOLID
  5
204B
330
1DD4
100
AcDbEntity
  8
BEM
 62
     0
100
AcDbTrace
 10
225.1072651669413
 20
386.5016923326338
 30
0.0
 11
225.1072651669413
 21
384.1683589993004
 31
0.0
 12
232.1072651669413
 22
385.3350256659671
 32
0.0
 13
232.1072651669413
 23
385.3350256659671
 33
0.0
  0
MTEXT
  5
204C
330
1DD4
100
AcDbEntity
  8
BEM
 62
     1
100
AcDbMText
 10
213.2405985002746
 20
391.8350256659671
 30
0.0
 40
7.0
 41
0.0
 71
     5
 72
     1
  1
\A1;7
 73
     1
 44
1.0
  0
POINT
  5
204D
330
1DD4
100
AcDbEntity
  8
Defpoints
 62
     0
100
AcDbPoint
 10
239.1072651669412
 20
385.2776196647324
 30
0.0
  0
POINT
  5
204E
330
1DD4
100
AcDbEntity
  8
Defpoints
 62
     0
100
AcDbPoint
 10
232.1072651669413
 20
385.2776196647324
 30
0.0
  0
POINT
  5
204F
330
1DD4
100
AcDbEntity
  8
Defpoints
 62
     0
100
AcDbPoint
 10
232.1072651669413
 20
385.3350256659671
 30
0.0
  0
ENDBLK
  5
1DE1
330
1DD4
100
AcDbEntity
  8
0
100
AcDbBlockEnd
  0
BLOCK
  5
1E3B
330
1E31
100
AcDbEntity
  8
0
100
AcDbBlockBegin
  2
*D4
 70
     1
 10
0.0
 20
0.0
 30
0.0
  3
*D4
  1

  0
LINE
  5
2085
330
1E31
100
AcDbEntity
  8
BEM
 62
     0
370
    -2
100
AcDbLine
 10
233.6072651669413
 20
236.5419154265552
 30
0.0
 11
142.5527488069492
 21
236.5419154265553
 31
0.0
  0
LINE
  5
2086
330
1E31
100
AcDbEntity
  8
BEM
 62
     0
370
    -2
100
AcDbLine
 10
223.1072651669413
 20
441.5419154265552
 30
0.0
 11
142.5527488069492
 21
441.5419154265552
 31
0.0
  0
LINE
  5
2087
330
1E31
100
AcDbEntity
  8
BEM
 62
     0
370
    -2
100
AcDbLine
 10
144.5527488069492
 20
243.5419154265553
 30
0.0
 11
144.5527488069492
 21
434.5419154265552
 31
0.0
  0
SOLID
  5
2088
330
1E31
100
AcDbEntity
  8
BEM
 62
     0
100
AcDbTrace
 10
143.3860821402825
 20
243.5419154265553
 30
0.0
 11
145.7194154736158
 21
243.5419154265553
 31
0.0
 12
144.5527488069492
 22
236.5419154265553
 32
0.0
 13
144.5527488069492
 23
236.5419154265553
 33
0.0
  0
SOLID
  5
2089
330
1E31
100
AcDbEntity
  8
BEM
 62
     0
100
AcDbTrace
 10
143.3860821402826
 20
434.5419154265552
 30
0.0
 11
145.7194154736159
 21
434.5419154265552
 31
0.0
 12
144.5527488069492
 22
441.5419154265552
 32
0.0
 13
144.5527488069492
 23
441.5419154265552
 33
0.0
  0
MTEXT
  5
208A
330
1E31
100
AcDbEntity
  8
BEM
 62
     1
100
AcDbMText
 10
138.0527488069492
 20
339.0419154265553
 30
0.0
 40
7.0
 41
0.0
 71
     5
 72
     1
  1
\A1;303
 11
0.0000000000000001
 21
1.0
 31
0.0
 73
     1
 44
1.0
  0
POINT
  5
208B
330
1E31
100
AcDbEntity
  8
Defpoints
 62
     0
100
AcDbPoint
 10
235.6072651669413
 20
236.5419154265552
 30
0.0
  0
POINT
  5
208C
330
1E31
100
AcDbEntity
  8
Defpoints
 62
     0
100
AcDbPoint
 10
225.1072651669413
 20
441.5419154265552
 30
0.0
  0
POINT
  5
208D
330
1E31
100
AcDbEntity
  8
Defpoints
 62
     0
100
AcDbPoint
 10
144.5527488069492
 20
441.5419154265552
 30
0.0
  0
ENDBLK
  5
1E3C
330
1E31
100
AcDbEntity
  8
0
100
AcDbBlockEnd
  0
BLOCK
  5
1E4A
330
1E3E
100
AcDbEntity
  8
0
100
AcDbBlockBegin
  2
*D5
 70
     1
 10
0.0
 20
0.0
 30
0.0
  3
*D5
  1

  0
LINE
  5
2031
330
1E3E
100
AcDbEntity
  8
BEM
 62
     0
370
    -2
100
AcDbLine
 10
156.1062651669413
 20
508.0419154265553
 30
0.0
 11
142.5527488069493
 21
508.0419154265553
 31
0.0
  0
LINE
  5
2032
330
1E3E
100
AcDbEntity
  8
BEM
 62
     0
370
    -2
100
AcDbLine
 10
156.1062651669413
 20
511.0419154265553
 30
0.0
 11
142.5527488069493
 21
511.0419154265553
 31
0.0
  0
LINE
  5
2033
330
1E3E
100
AcDbEntity
  8
BEM
 62
     0
370
    -2
100
AcDbLine
 10
144.5527488069492
 20
501.0419154265552
 30
0.0
 11
144.5527488069492
 21
494.0419154265553
 31
0.0
  0
LINE
  5
2034
330
1E3E
100
AcDbEntity
  8
BEM
 62
     0
370
    -2
100
AcDbLine
 10
144.5527488069492
 20
518.0419154265552
 30
0.0
 11
144.5527488069492
 21
534.7752487598886
 31
0.0
  0
LINE
  5
2035
330
1E3E
100
AcDbEntity
  8
BEM
 62
     0
370
    -2
100
AcDbLine
 10
144.5527488069492
 20
508.0419154265553
 30
0.0
 11
144.5527488069492
 21
511.0419154265553
 31
0.0
  0
SOLID
  5
2036
330
1E3E
100
AcDbEntity
  8
BEM
 62
     0
100
AcDbTrace
 10
143.3860821402826
 20
501.0419154265552
 30
0.0
 11
145.7194154736159
 21
501.0419154265552
 31
0.0
 12
144.5527488069492
 22
508.0419154265553
 32
0.0
 13
144.5527488069492
 23
508.0419154265553
 33
0.0
  0
SOLID
  5
2037
330
1E3E
100
AcDbEntity
  8
BEM
 62
     0
100
AcDbTrace
 10
143.3860821402826
 20
518.0419154265552
 30
0.0
 11
145.7194154736159
 21
518.0419154265552
 31
0.0
 12
144.5527488069492
 22
511.0419154265553
 32
0.0
 13
144.5527488069492
 23
511.0419154265553
 33
0.0
  0
MTEXT
  5
2038
330
1E3E
100
AcDbEntity
  8
BEM
 62
     1
100
AcDbMText
 10
138.0527488069492
 20
529.9085820932219
 30
0.0
 40
7.0
 41
0.0
 71
     5
 72
     1
  1
\A1;3
 11
0.0000000000000001
 21
1.0
 31
0.0
 73
     1
 44
1.0
  0
POINT
  5
2039
330
1E3E
100
AcDbEntity
  8
Defpoints
 62
     0
100
AcDbPoint
 10
158.1062651669413
 20
508.0419154265553
 30
0.0
  0
POINT
  5
203A
330
1E3E
100
AcDbEntity
  8
Defpoints
 62
     0
100
AcDbPoint
 10
158.1062651669413
 20
511.0419154265553
 30
0.0
  0
POINT
  5
203B
330
1E3E
100
AcDbEntity
  8
Defpoints
 62
     0
100
AcDbPoint
 10
144.5527488069492
 20
511.0419154265553
 30
0.0
  0
ENDBLK
  5
1E4B
330
1E3E
100
AcDbEntity
  8
0
100
AcDbBlockEnd
  0
BLOCK
  5
1E57
330
1E4D
100
AcDbEntity
  8
0
100
AcDbBlockBegin
  2
*D6
 70
     1
 10
0.0
 20
0.0
 30
0.0
  3
*D6
  1

  0
LINE
  5
207C
330
1E4D
100
AcDbEntity
  8
BEM
 62
     0
370
    -2
100
AcDbLine
 10
233.6072651669413
 20
236.5419154265552
 30
0.0
 11
126.2164721398844
 21
236.5419154265553
 31
0.0
  0
LINE
  5
207D
330
1E4D
100
AcDbEntity
  8
BEM
 62
     0
370
    -2
100
AcDbLine
 10
233.6072651669413
 20
563.5419154265552
 30
0.0
 11
126.2164721398844
 21
563.5419154265552
 31
0.0
  0
LINE
  5
207E
330
1E4D
100
AcDbEntity
  8
BEM
 62
     0
370
    -2
100
AcDbLine
 10
128.2164721398844
 20
243.5419154265553
 30
0.0
 11
128.2164721398844
 21
556.5419154265553
 31
0.0
  0
SOLID
  5
207F
330
1E4D
100
AcDbEntity
  8
BEM
 62
     0
100
AcDbTrace
 10
127.0498054732177
 20
243.5419154265553
 30
0.0
 11
129.383138806551
 21
243.5419154265553
 31
0.0
 12
128.2164721398844
 22
236.5419154265553
 32
0.0
 13
128.2164721398844
 23
236.5419154265553
 33
0.0
  0
SOLID
  5
2080
330
1E4D
100
AcDbEntity
  8
BEM
 62
     0
100
AcDbTrace
 10
127.0498054732178
 20
556.5419154265553
 30
0.0
 11
129.3831388065511
 21
556.5419154265553
 31
0.0
 12
128.2164721398844
 22
563.5419154265552
 32
0.0
 13
128.2164721398844
 23
563.5419154265552
 33
0.0
  0
MTEXT
  5
2081
330
1E4D
100
AcDbEntity
  8
BEM
 62
     1
100
AcDbMText
 10
121.7164721398843
 20
400.0419154265553
 30
0.0
 40
7.0
 41
0.0
 71
     5
 72
     1
  1
\A1;425
 11
0.0000000000000001
 21
1.0
 31
0.0
 73
     1
 44
1.0
  0
POINT
  5
2082
330
1E4D
100
AcDbEntity
  8
Defpoints
 62
     0
100
AcDbPoint
 10
235.6072651669413
 20
236.5419154265552
 30
0.0
  0
POINT
  5
2083
330
1E4D
100
AcDbEntity
  8
Defpoints
 62
     0
100
AcDbPoint
 10
235.6072651669413
 20
563.5419154265552
 30
0.0
  0
POINT
  5
2084
330
1E4D
100
AcDbEntity
  8
Defpoints
 62
     0
100
AcDbPoint
 10
128.2164721398844
 20
563.5419154265552
 30
0.0
  0
ENDBLK
  5
1E58
330
1E4D
100
AcDbEntity
  8
0
100
AcDbBlockEnd
  0
BLOCK
  5
1E63
330
1E5B
100
AcDbEntity
  8
0
100
AcDbBlockBegin
  2
*D7
 70
     1
 10
0.0
 20
0.0
 30
0.0
  3
*D7
  1

  0
LINE
  5
201F
330
1E5B
100
AcDbEntity
  8
BEM
 62
     0
370
    -2
100
AcDbLine
 10
205.1426548338024
 20
468.5918694983272
 30
0.0
 11
205.2117848971483
 21
468.5361032395659
 31
0.0
  0
LINE
  5
2020
330
1E5B
100
AcDbEntity
  8
BEM
 62
     0
370
    -2
100
AcDbLine
 10
269.1846822708243
 20
547.9809035103463
 30
0.0
 11
269.2538123341702
 21
547.925137251585
 31
0.0
  0
LINE
  5
2021
330
1E5B
100
AcDbEntity
  8
BEM
 62
     0
370
    -2
100
AcDbLine
 10
208.0501782700954
 20
475.2400963079103
 30
0.0
 11
263.3021235097124
 21
543.732596239642
 31
0.0
  0
SOLID
  5
2022
330
1E5B
100
AcDbEntity
  8
BEM
 62
     0
100
AcDbTrace
 10
207.1421337634048
 20
475.972603157694
 30
0.0
 11
208.958222776786
 21
474.5075894581266
 31
0.0
 12
203.6551371713929
 22
469.7918292677666
 32
0.0
 13
203.6551371713929
 23
469.7918292677666
 33
0.0
  0
SOLID
  5
2023
330
1E5B
100
AcDbEntity
  8
BEM
 62
     0
100
AcDbTrace
 10
262.3940790030218
 20
544.4651030894257
 30
0.0
 11
264.210168016403
 21
543.0000893898583
 31
0.0
 12
267.6971646084148
 22
549.1808632797857
 32
0.0
 13
267.6971646084148
 23
549.1808632797857
 33
0.0
  0
MTEXT
  5
2024
330
1E5B
100
AcDbEntity
  8
BEM
 62
     1
100
AcDbMText
 10
244.4065276636444
 20
530.6614438290377
 30
0.0
 40
7.0
 41
0.0
 71
     5
 72
     1
  1
\A1;102
 11
0.6278630141003444
 21
0.7783238628776783
 31
0.0
 73
     1
 44
1.0
  0
POINT
  5
2025
330
1E5B
100
AcDbEntity
  8
Defpoints
 62
     0
100
AcDbPoint
 10
203.586007108047
 20
469.8475955265279
 30
0.0
  0
POINT
  5
2026
330
1E5B
100
AcDbEntity
  8
Defpoints
 62
     0
100
AcDbPoint
 10
267.628034545069
 20
549.236629538547
 30
0.0
  0
POINT
  5
2027
330
1E5B
100
AcDbEntity
  8
Defpoints
 62
     0
100
AcDbPoint
 10
267.6971646084148
 20
549.1808632797857
 30
0.0
  0
ENDBLK
  5
1E64
330
1E5B
100
AcDbEntity
  8
0
100
AcDbBlockEnd
  0
BLOCK
  5
1F05
330
1EFB
100
AcDbEntity
  8
0
100
AcDbBlockBegin
  2
*D8
 70
     1
 10
0.0
 20
0.0
 30
0.0
  3
*D8
  1

  0
LINE
  5
2016
330
1EFB
100
AcDbEntity
  8
BEM
 62
     0
370
    -2
100
AcDbLine
 10
159.4556212625684
 20
206.8015954763553
 30
0.0
 11
139.2059944279053
 21
206.8015954763553
 31
0.0
  0
LINE
  5
2017
330
1EFB
100
AcDbEntity
  8
BEM
 62
     0
370
    -2
100
AcDbLine
 10
159.4556388821032
 20
181.801595476361
 30
0.0
 11
139.2059944279053
 21
181.801595476361
 31
0.0
  0
LINE
  5
2018
330
1EFB
100
AcDbEntity
  8
BEM
 62
     0
370
    -2
100
AcDbLine
 10
141.2059944279053
 20
199.8015954763552
 30
0.0
 11
141.2059944279053
 21
188.801595476361
 31
0.0
  0
SOLID
  5
2019
330
1EFB
100
AcDbEntity
  8
BEM
 62
     0
100
AcDbTrace
 10
140.0393277612387
 20
199.8015954763552
 30
0.0
 11
142.372661094572
 21
199.8015954763552
 31
0.0
 12
141.2059944279053
 22
206.8015954763553
 32
0.0
 13
141.2059944279053
 23
206.8015954763553
 33
0.0
  0
SOLID
  5
201A
330
1EFB
100
AcDbEntity
  8
BEM
 62
     0
100
AcDbTrace
 10
140.0393277612386
 20
188.801595476361
 30
0.0
 11
142.372661094572
 21
188.801595476361
 31
0.0
 12
141.2059944279053
 22
181.801595476361
 32
0.0
 13
141.2059944279053
 23
181.801595476361
 33
0.0
  0
MTEXT
  5
201B
330
1EFB
100
AcDbEntity
  8
BEM
 62
     1
100
AcDbMText
 10
134.7059944279053
 20
194.3015954763581
 30
0.0
 40
7.0
 41
0.0
 71
     5
 72
     1
  1
\A1;25
 11
0.0000000000000001
 21
1.0
 31
0.0
 73
     1
 44
1.0
  0
POINT
  5
201C
330
1EFB
100
AcDbEntity
  8
Defpoints
 62
     0
100
AcDbPoint
 10
161.4556212625684
 20
206.8015954763553
 30
0.0
  0
POINT
  5
201D
330
1EFB
100
AcDbEntity
  8
Defpoints
 62
     0
100
AcDbPoint
 10
161.4556388821032
 20
181.801595476361
 30
0.0
  0
POINT
  5
201E
330
1EFB
100
AcDbEntity
  8
Defpoints
 62
     0
100
AcDbPoint
 10
141.2059944279053
 20
181.801595476361
 30
0.0
  0
ENDBLK
  5
1F06
330
1EFB
100
AcDbEntity
  8
0
100
AcDbBlockEnd
  0
BLOCK
  5
1FB5
330
1FA9
100
AcDbEntity
  8
0
100
AcDbBlockBegin
  2
*D9
 70
     1
 10
0.0
 20
0.0
 30
0.0
  3
*D9
  1

  0
LINE
  5
200B
330
1FA9
100
AcDbEntity
  8
BEM
 62
     0
370
    -2
100
AcDbLine
 10
315.1062651669413
 20
508.0419154265553
 30
0.0
 11
328.5786413404673
 21
508.0419154265553
 31
0.0
  0
LINE
  5
200C
330
1FA9
100
AcDbEntity
  8
BEM
 62
     0
370
    -2
100
AcDbLine
 10
315.1062651669413
 20
506.0419154265552
 30
0.0
 11
328.5786413404673
 21
506.0419154265552
 31
0.0
  0
LINE
  5
200D
330
1FA9
100
AcDbEntity
  8
BEM
 62
     0
370
    -2
100
AcDbLine
 10
326.5786413404673
 20
515.0419154265551
 30
0.0
 11
326.5786413404673
 21
522.0419154265552
 31
0.0
  0
LINE
  5
200E
330
1FA9
100
AcDbEntity
  8
BEM
 62
     0
370
    -2
100
AcDbLine
 10
326.5786413404673
 20
499.0419154265553
 30
0.0
 11
326.5786413404673
 21
482.3085820932219
 31
0.0
  0
LINE
  5
200F
330
1FA9
100
AcDbEntity
  8
BEM
 62
     0
370
    -2
100
AcDbLine
 10
326.5786413404673
 20
508.0419154265553
 30
0.0
 11
326.5786413404673
 21
506.0419154265552
 31
0.0
  0
SOLID
  5
2010
330
1FA9
100
AcDbEntity
  8
BEM
 62
     0
100
AcDbTrace
 10
325.4119746738007
 20
515.0419154265551
 30
0.0
 11
327.7453080071341
 21
515.0419154265551
 31
0.0
 12
326.5786413404673
 22
508.0419154265553
 32
0.0
 13
326.5786413404673
 23
508.0419154265553
 33
0.0
  0
SOLID
  5
2011
330
1FA9
100
AcDbEntity
  8
BEM
 62
     0
100
AcDbTrace
 10
325.4119746738007
 20
499.0419154265553
 30
0.0
 11
327.7453080071341
 21
499.0419154265553
 31
0.0
 12
326.5786413404673
 22
506.0419154265552
 32
0.0
 13
326.5786413404673
 23
506.0419154265552
 33
0.0
  0
MTEXT
  5
2012
330
1FA9
100
AcDbEntity
  8
BEM
 62
     1
100
AcDbMText
 10
320.0786413404673
 20
487.1752487598887
 30
0.0
 40
7.0
 41
0.0
 71
     5
 72
     1
  1
\A1;2
 11
0.0000000000000001
 21
1.0
 31
0.0
 73
     1
 44
1.0
  0
POINT
  5
2013
330
1FA9
100
AcDbEntity
  8
Defpoints
 62
     0
100
AcDbPoint
 10
313.1062651669413
 20
508.0419154265553
 30
0.0
  0
POINT
  5
2014
330
1FA9
100
AcDbEntity
  8
Defpoints
 62
     0
100
AcDbPoint
 10
313.1062651669413
 20
506.0419154265552
 30
0.0
  0
POINT
  5
2015
330
1FA9
100
AcDbEntity
  8
Defpoints
 62
     0
100
AcDbPoint
 10
326.5786413404673
 20
506.0419154265552
 30
0.0
  0
ENDBLK
  5
1FB6
330
1FA9
100
AcDbEntity
  8
0
100
AcDbBlockEnd
  0
ENDSEC
  0
SECTION
  2
ENTITIES
  0
LINE
  5
57
330
1E
100
AcDbEntity
  8
STEMPEL
100
AcDbLine
 10
410.0
 20
110.0
 30
0.0
 11
39.99999999999997
 21
110.0
 31
0.0
  0
LINE
  5
58
330
1E
100
AcDbEntity
  8
STEMPEL
100
AcDbLine
 10
136.0000000000001
 20
109.9999999999999
 30
0.0
 11
136.0
 21
9.999999999999971
 31
0.0
  0
LINE
  5
59
330
1E
100
AcDbEntity
  8
STEMPEL
100
AcDbLine
 10
220.0
 20
110.0
 30
0.0
 11
220.0
 21
9.999999999999971
 31
0.0
  0
LINE
  5
5A
330
1E
100
AcDbEntity
  8
STEMPEL
100
AcDbLine
 10
332.0
 20
109.9999999999997
 30
0.0
 11
332.0
 21
40.0
 31
0.0
  0
LINE
  5
5B
330
1E
100
AcDbEntity
  8
STEMPEL
100
AcDbLine
 10
135.9999999999999
 20
29.99999999999997
 30
0.0
 11
39.99999999999997
 21
29.99999999999997
 31
0.0
  0
LINE
  5
5C
330
1E
100
AcDbEntity
  8
STEMPEL
100
AcDbLine
 10
410.0
 20
40.0
 30
0.0
 11
136.0000000000001
 21
39.99999999999997
 31
0.0
  0
LINE
  5
5D
330
1E
100
AcDbEntity
  8
STEMPEL
100
AcDbLine
 10
410.0
 20
80.0
 30
0.0
 11
136.0000000000001
 21
79.99999999999994
 31
0.0
  0
LINE
  5
5E
330
1E
100
AcDbEntity
  8
VOLL
100
AcDbLine
 10
54.00000000000009
 20
110.0
 30
0.0
 11
53.99999999999997
 21
9.999999999999971
 31
0.0
  0
LINE
  5
5F
330
1E
100
AcDbEntity
  8
VOLL
100
AcDbLine
 10
94.00000000000011
 20
109.9999999999999
 30
0.0
 11
94.0
 21
9.999999999999971
 31
0.0
  0
LINE
  5
60
330
1E
100
AcDbEntity
  8
VOLL
100
AcDbLine
 10
114.0000000000001
 20
109.9999999999999
 30
0.0
 11
114.0
 21
9.999999999999971
 31
0.0
  0
LINE
  5
61
330
1E
100
AcDbEntity
  8
VOLL
100
AcDbLine
 10
154.0000000000001
 20
79.99999999999994
 30
0.0
 11
154.0000000000001
 21
39.99999999999997
 31
0.0
  0
LINE
  5
62
330
1E
100
AcDbEntity
  8
VOLL
100
AcDbLine
 10
180.0000000000001
 20
109.9999999999998
 30
0.0
 11
180.0
 21
39.99999999999997
 31
0.0
  0
LINE
  5
63
330
1E
100
AcDbEntity
  8
HILF
100
AcDbLine
 10
40.00000000000008
 20
100.0
 30
0.0
 11
136.0000000000001
 21
100.0
 31
0.0
  0
LINE
  5
64
330
1E
100
AcDbEntity
  8
HILF
100
AcDbLine
 10
40.00000000000008
 20
90.00000000000005
 30
0.0
 11
136.0000000000001
 21
90.00000000000005
 31
0.0
  0
LINE
  5
65
330
1E
100
AcDbEntity
  8
HILF
100
AcDbLine
 10
40.00000000000008
 20
79.99999999999994
 30
0.0
 11
136.0000000000001
 21
79.99999999999994
 31
0.0
  0
LINE
  5
66
330
1E
100
AcDbEntity
  8
HILF
100
AcDbLine
 10
40.00000000000008
 20
69.99999999999994
 30
0.0
 11
136.0000000000001
 21
69.99999999999994
 31
0.0
  0
LINE
  5
67
330
1E
100
AcDbEntity
  8
HILF
100
AcDbLine
 10
40.00000000000008
 20
59.99999999999997
 30
0.0
 11
136.0000000000001
 21
59.99999999999997
 31
0.0
  0
LINE
  5
68
330
1E
100
AcDbEntity
  8
HILF
100
AcDbLine
 10
40.00000000000008
 20
49.99999999999997
 30
0.0
 11
136.0000000000001
 21
49.99999999999997
 31
0.0
  0
LINE
  5
69
330
1E
100
AcDbEntity
  8
HILF
100
AcDbLine
 10
40.00000000000008
 20
39.99999999999997
 30
0.0
 11
136.0000000000001
 21
39.99999999999997
 31
0.0
  0
LINE
  5
6A
330
1E
100
AcDbEntity
  8
HILF
100
AcDbLine
 10
136.0000000000001
 20
69.99999999999994
 30
0.0
 11
220.0
 21
69.99999999999994
 31
0.0
  0
LINE
  5
6B
330
1E
100
AcDbEntity
  8
HILF
100
AcDbLine
 10
136.0000000000001
 20
59.99999999999997
 30
0.0
 11
220.0
 21
59.99999999999997
 31
0.0
  0
LINE
  5
6C
330
1E
100
AcDbEntity
  8
HILF
100
AcDbLine
 10
136.0000000000001
 20
49.99999999999997
 30
0.0
 11
220.0
 21
49.99999999999997
 31
0.0
  0
LINE
  5
6D
330
1E
100
AcDbEntity
  8
HILF
100
AcDbLine
 10
224.7736801096948
 20
84.03758247564139
 30
0.0
 11
324.8353916556311
 21
84.03758247564139
 31
0.0
  0
LINE
  5
6E
330
1E
100
AcDbEntity
  8
HILF
100
AcDbLine
 10
224.7736801096948
 20
69.99999999999994
 30
0.0
 11
324.835391655631
 21
69.99999999999994
 31
0.0
  0
LINE
  5
6F
330
1E
100
AcDbEntity
  8
HILF
100
AcDbLine
 10
224.7736801096948
 20
59.99999999999997
 30
0.0
 11
324.835391655631
 21
59.99999999999997
 31
0.0
  0
LINE
  5
70
330
1E
100
AcDbEntity
  8
HILF
100
AcDbLine
 10
224.7736801096948
 20
49.99999999999997
 30
0.0
 11
324.835391655631
 21
49.99999999999997
 31
0.0
  0
LINE
  5
71
330
1E
100
AcDbEntity
  8
VOLL
100
AcDbLine
 10
332.0
 20
60.0
 30
0.0
 11
410.0
 21
60.0
 31
0.0
  0
LINE
  5
72
330
1E
100
AcDbEntity
  8
HILF
100
AcDbLine
 10
336.7238616296993
 20
83.77983636955827
 30
0.0
 11
404.8588839326728
 21
83.77983636955827
 31
0.0
  0
LINE
  5
73
330
1E
100
AcDbEntity
  8
HILF
100
AcDbLine
 10
223.4909699289885
 20
14.89398258028314
 30
0.0
 11
404.8588839326728
 21
14.89398258028314
 31
0.0
  0
TEXT
  5
74
330
1E
100
AcDbEntity
  8
TEXT
100
AcDbText
 10
63.86165979631819
 20
18.67381894984132
 30
0.0
 40
4.0
  1
Änderung
 41
0.8
  7
GREEKS
 72
     1
 11
74.60451693917534
 21
18.67381894984132
 31
0.0
100
AcDbText
  0
TEXT
  5
75
330
1E
100
AcDbEntity
  8
TEXT
100
AcDbText
 10
143.5163572150377
 20
102.4620895087088
 30
0.0
 40
5.0
  1
Maßstab
 41
0.8
  7
GREEKS
100
AcDbText
  0
TEXT
  5
76
330
1E
100
AcDbEntity
  8
TEXT
100
AcDbText
 10
184.2858954734051
 20
102.4184168434819
 30
0.0
 40
5.0
  1
Zul. Abw.
 41
0.8
  7
GREEKS
100
AcDbText
  0
TEXT
  5
77
330
1E
100
AcDbEntity
  8
TEXT
100
AcDbText
 10
224.877940380901
 20
102.5489328011779
 30
0.0
 40
5.0
  1
Benennung
 41
0.8
  7
GREEKS
100
AcDbText
  0
TEXT
  5
78
330
1E
100
AcDbEntity
  8
TEXT
100
AcDbText
 10
336.178754957634
 20
102.3132034537136
 30
0.0
 40
5.0
  1
Zeichnungs Nr.
 41
0.8
  7
GREEKS
100
AcDbText
  0
TEXT
  5
79
330
1E
100
AcDbEntity
  8
TEXT
100
AcDbText
 10
224.742238391136
 20
30.84560570193057
 30
0.0
 40
5.0
  1
Bauvorhaben
 41
0.8
  7
GREEKS
100
AcDbText
  0
TEXT
  5
7A
330
1E
100
AcDbEntity
  8
TEXT
100
AcDbText
 10
336.7238616296993
 20
73.1811823709997
 30
0.0
 40
5.0
  1
Ersatz für:
 41
0.8
  7
GREEKS
100
AcDbText
  0
TEXT
  5
7B
330
1E
100
AcDbEntity
  8
TEXT
100
AcDbText
 10
48.26641107045756
 20
13.65465846027192
 30
0.0
 40
4.0
  1
Index
 50
90.0
 41
0.8
  7
GREEKS
100
AcDbText
  0
TEXT
  5
7C
330
1E
100
AcDbEntity
  8
TEXT
100
AcDbText
 10
100.0934676075481
 20
18.6715626933981
 30
0.0
 40
4.0
  1
Tag
 41
0.8
  7
GREEKS
 72
     1
 11
103.8268009408814
 21
18.6715626933981
 31
0.0
100
AcDbText
  0
TEXT
  5
7D
330
1E
100
AcDbEntity
  8
TEXT
100
AcDbText
 10
119.0122744386592
 20
18.59324216966408
 30
0.0
 40
4.0
  1
Name
 41
0.8
  7
GREEKS
 72
     1
 11
125.3360839624688
 21
18.59324216966408
 31
0.0
100
AcDbText
  0
TEXT
  5
7E
330
1E
100
AcDbEntity
  8
TEXT
100
AcDbText
 10
162.3311673153651
 20
73.31880501229926
 30
0.0
 40
4.0
  1
Tag
 41
0.8
  7
GREEKS
100
AcDbText
  0
TEXT
  5
7F
330
1E
100
AcDbEntity
  8
TEXT
100
AcDbText
 10
192.4626584226295
 20
73.30961091915225
 30
0.0
 40
4.0
  1
Name
 41
0.8
  7
GREEKS
100
AcDbText
  0
TEXT
  5
80
330
1E
100
AcDbEntity
  8
TEXT
100
AcDbText
 10
137.5836127167615
 20
63.62990369617964
 30
0.0
 40
4.0
  1
Gez.
 41
0.8
  7
GREEKS
100
AcDbText
  0
TEXT
  5
81
330
1E
100
AcDbEntity
  8
TEXT
100
AcDbText
 10
137.5515086571672
 20
53.68926291428377
 30
0.0
 40
4.0
  1
Gepr.
 41
0.8
  7
GREEKS
100
AcDbText
  0
TEXT
  5
82
330
1E
100
AcDbEntity
  8
TEXT
100
AcDbText
 10
137.6006777387304
 20
43.52946389649807
 30
0.0
 40
4.0
  1
Norm.
 41
0.8
  7
GREEKS
100
AcDbText
  0
LINE
  5
83
330
1E
100
AcDbEntity
  8
STEMPEL
100
AcDbLine
 10
49.99999999999989
 20
10.0
 30
0.0
 11
410.0
 21
10.0
 31
0.0
  0
TEXT
  5
84
330
1E
100
AcDbEntity
  8
TEXT
100
AcDbText
 10
337.2400861497006
 20
52.07416177878602
 30
0.0
 40
5.0
  1
ersetzt durch:
 41
0.8
  7
GREEKS
100
AcDbText
  0
LINE
  5
85
330
1E
100
AcDbEntity
  8
STEMPEL
100
AcDbLine
 10
410.0
 20
10.0
 30
0.0
 11
39.99999999999989
 21
10.0
 31
0.0
  0
LINE
  5
86
330
1E
100
AcDbEntity
  8
STEMPEL
100
AcDbLine
 10
410.0
 20
10.0
 30
0.0
 11
410.0
 21
584.0
 31
0.0
  0
LINE
  5
87
330
1E
100
AcDbEntity
  8
STEMPEL
100
AcDbLine
 10
40.0
 20
10.0
 30
0.0
 11
39.99999999999989
 21
584.0
 31
0.0
  0
LINE
  5
88
330
1E
100
AcDbEntity
  8
STEMPEL
100
AcDbLine
 10
410.0
 20
584.0
 30
0.0
 11
39.99999999999989
 21
584.0
 31
0.0
  0
LINE
  5
89
330
1E
100
AcDbEntity
  8
HILF
100
AcDbLine
 10
0.0
 20
0.0
 30
0.0
 11
-0.0000000000001137
 21
594.0
 31
0.0
  0
LINE
  5
8A
330
1E
100
AcDbEntity
  8
HILF
100
AcDbLine
 10
419.9999999999999
 20
594.0000000000002
 30
0.0
 11
0.0
 21
594.0
 31
0.0
  0
LINE
  5
8B
330
1E
100
AcDbEntity
  8
HILF
100
AcDbLine
 10
420.0
 20
0.0
 30
0.0
 11
0.0
 21
0.0
 31
0.0
  0
LINE
  5
8C
330
1E
100
AcDbEntity
  8
HILF
100
AcDbLine
 10
31.08767135713856
 20
297.0
 30
0.0
 11
0.0000000000001137
 21
297.0
 31
0.0
  0
TEXT
  5
8D
330
1E
100
AcDbEntity
  8
TEXT
100
AcDbText
 10
138.622109822104
 20
73.14025471151666
 30
0.0
 40
4.0
  1
2012
 41
0.8
  7
GREEKS
100
AcDbText
  0
LINE
  5
8E
330
1E
100
AcDbEntity
  8
HILF
100
AcDbLine
 10
420.0
 20
-0.0000000000001137
 30
0.0
 11
419.9999999999999
 21
594.0
 31
0.0
  0
TEXT
  5
8F
330
1E
100
AcDbEntity
  8
VOLL
100
AcDbText
 10
78.07675471698113
 20
31.02594776470585
 30
0.0
 40
1.8
  1

  7
GREEKS
100
AcDbText
  0
TEXT
  5
90
330
1E
100
AcDbEntity
  8
TEXT
100
AcDbText
 10
41.85509950977674
 20
111.6719999999999
 30
0.0
 40
5.0
  1
Erstellt mit AUTOCAD 2004
 41
0.8
  7
GREEKS
100
AcDbText
  0
TEXT
  5
91
330
1E
100
AcDbEntity
  8
TEXT
100
AcDbText
 10
194.4216048581257
 20
63.0896391972351
 30
0.0
 40
4.0
  1
Koeh
 41
0.8
  7
GREEKS
 72
     1
 11
199.6787477152685
 21
63.0896391972351
 31
0.0
100
AcDbText
  0
TEXT
  5
92
330
1E
100
AcDbEntity
  8
TEXT
 62
     1
100
AcDbText
 10
347.4257426630412
 20
88.14901428913959
 30
0.0
 40
7.0
  1
09919100W
 41
0.8
  7
GREEKS
 72
     1
 11
370.3590759963746
 21
88.14901428913959
 31
0.0
100
AcDbText
  0
TEXT
  5
93
330
1E
100
AcDbEntity
  8
TEXT
 62
     1
100
AcDbText
 10
150.5006306481887
 20
88.14901428913959
 30
0.0
 40
7.0
  1
1:2
 41
0.8
  7
GREEKS
100
AcDbText
  0
TEXT
  5
94
330
1E
100
AcDbEntity
  8
TEXT
100
AcDbText
 10
161.0085209177598
 20
63.10765040825732
 30
0.0
 40
4.0
  1
21.12.
 41
0.8
  7
GREEKS
 72
     1
 11
167.4085209177598
 21
63.10765040825732
 31
0.0
100
AcDbText
  0
TEXT
  5
95
330
1E
100
AcDbEntity
  8
TEXT
 62
     1
100
AcDbText
 10
226.8935731057402
 20
87.41748789253779
 30
0.0
 40
7.0
  1
Rohrschelle DN100
 41
0.8
  7
GREEKS
100
AcDbText
  0
TEXT
  5
96
330
1E
100
AcDbEntity
  8
TEXT
100
AcDbText
 10
225.1296391125315
 20
71.50334417585288
 30
0.0
 40
5.0
  1
mit Schlagstift
 41
0.8
  7
GREEKS
100
AcDbText
  0
TEXT
  5
98
330
1E
100
AcDbEntity
  8
TEXT
100
AcDbText
 10
225.1296391125315
 20
51.64011943042158
 30
0.0
 40
5.0
  1
EDV-Art.Nr. 09919.100X
 41
0.8
  7
GREEKS
100
AcDbText
  0
TEXT
  5
99
330
1E
100
AcDbEntity
  8
TEXT
100
AcDbText
 10
224.9837501577827
 20
42.62974153022632
 30
0.0
 40
4.0
  1
09919100W.DWG
 41
0.8
  7
GREEKS
100
AcDbText
  0
TEXT
  5
9A
330
1E
100
AcDbEntity
  8
TEXT
100
AcDbText
 10
182.626132208084
 20
90.76363841023022
 30
0.0
 40
4.0
  1
DIN EN1123-2
 41
0.8
  7
GREEKS
 72
     1
 11
199.6166083985602
 21
90.76363841023022
 31
0.0
100
AcDbText
  0
INSERT
  5
9B
330
1E
100
AcDbEntity
  8
STEMPEL
100
AcDbBlockReference
  2
LOGO
 10
140.9955485457794
 20
45.02105276448322
 30
0.0
 41
2.0
 42
2.0
 43
2.0
  0
TEXT
  5
118
330
1E
100
AcDbEntity
  8
BEM
100
AcDbText
 10
417.3022923857165
 20
10.16790107998849
 30
0.0
 40
4.0
  1
Diese Zeichnung ist urheberrechtlich geschützt und bleibt unser Eigentum. Sie darf weder ganz noch teilweise verfielfältigt und nicht an Dritte weitergegeben werden.
 50
90.0
 41
0.8
  7
GREEKS
100
AcDbText
  0
TEXT
  5
C1B
330
1E
100
AcDbEntity
  8
TEXT
 62
     1
100
AcDbText
 10
320.7946818445432
 20
542.6933378449082
 30
0.0
 40
7.0
  1
Schraube M6x20
 41
0.8
  7
GREEKS
100
AcDbText
  0
LINE
  5
C1C
330
1E
100
AcDbEntity
  8
TEXT
 62
     2
100
AcDbLine
 10
318.6747888484978
 20
539.3134324280118
 30
0.0
 11
393.6764706661282
 21
539.3134324280118
 31
0.0
  0
LINE
  5
C1D
330
1E
100
AcDbEntity
  8
TEXT
 62
     2
100
AcDbLine
 10
318.6747888484978
 20
539.3134324280118
 30
0.0
 11
304.7660114788767
 21
514.3010139284999
 31
0.0
  0
LINE
  5
1C95
330
1E
100
AcDbEntity
  8
HILF
100
AcDbLine
 10
181.6172651669413
 20
189.3016107353229
 30
0.0
 11
290.2112651669413
 21
189.3016107353229
 31
0.0
  0
LINE
  5
1C96
330
1E
100
AcDbEntity
  8
HILF
100
AcDbLine
 10
181.6172651669413
 20
199.3016107353229
 30
0.0
 11
290.2112651669413
 21
199.3016107353229
 31
0.0
  0
CIRCLE
  5
1C97
330
1E
100
AcDbEntity
  8
STEMPEL
100
AcDbCircle
 10
302.6062651669413
 20
194.3016107353229
 30
0.0
 40
5.0
  0
LINE
  5
1C98
330
1E
100
AcDbEntity
  8
HILF
100
AcDbLine
 10
303.3562651669413
 20
191.2326107353228
 30
0.0
 11
301.8562651669413
 21
191.2326107353228
 31
0.0
  0
LINE
  5
1C99
330
1E
100
AcDbEntity
  8
HILF
100
AcDbLine
 10
303.3562651669413
 20
197.3696107353229
 30
0.0
 11
301.8562651669413
 21
197.3696107353229
 31
0.0
  0
LINE
  5
1C9A
330
1E
100
AcDbEntity
  8
HILF
100
AcDbLine
 10
300.5602651669412
 20
192.2546107353229
 30
0.0
 11
301.6162651669413
 21
193.5516107353229
 31
0.0
  0
LINE
  5
1C9B
330
1E
100
AcDbEntity
  8
HILF
100
AcDbLine
 10
301.8562651669413
 20
193.3116107353229
 30
0.0
 11
300.5602651669412
 21
192.2546107353229
 31
0.0
  0
LINE
  5
1C9C
330
1E
100
AcDbEntity
  8
HILF
100
AcDbLine
 10
304.6532651669413
 20
192.2546107353229
 30
0.0
 11
303.3562651669413
 21
193.3116107353229
 31
0.0
  0
LINE
  5
1C9D
330
1E
100
AcDbEntity
  8
HILF
100
AcDbLine
 10
303.5962651669413
 20
193.5516107353229
 30
0.0
 11
304.6532651669413
 21
192.2546107353229
 31
0.0
  0
LINE
  5
1C9E
330
1E
100
AcDbEntity
  8
HILF
100
AcDbLine
 10
304.6532651669413
 20
196.3476107353228
 30
0.0
 11
303.5962651669413
 21
195.0516107353229
 31
0.0
  0
LINE
  5
1C9F
330
1E
100
AcDbEntity
  8
HILF
100
AcDbLine
 10
303.3562651669413
 20
195.2906107353228
 30
0.0
 11
304.6532651669413
 21
196.3476107353228
 31
0.0
  0
LINE
  5
1CA0
330
1E
100
AcDbEntity
  8
HILF
100
AcDbLine
 10
300.5602651669412
 20
196.3476107353228
 30
0.0
 11
301.8562651669413
 21
195.2906107353228
 31
0.0
  0
LINE
  5
1CA1
330
1E
100
AcDbEntity
  8
HILF
100
AcDbLine
 10
301.6162651669413
 20
195.0516107353229
 30
0.0
 11
300.5602651669412
 21
196.3476107353228
 31
0.0
  0
ARC
  5
1CA2
330
1E
100
AcDbEntity
  8
HILF
100
AcDbCircle
 10
302.6062651669413
 20
194.3016107353229
 30
0.0
 40
1.274999999999999
100
AcDbArc
 50
143.96879496
 51
216.03120504
  0
ARC
  5
1CA3
330
1E
100
AcDbEntity
  8
HILF
100
AcDbCircle
 10
302.6062651669413
 20
194.3016107353229
 30
0.0
 40
1.274999999999999
100
AcDbArc
 50
233.9687889640004
 51
306.0312110359996
  0
ARC
  5
1CA4
330
1E
100
AcDbEntity
  8
HILF
100
AcDbCircle
 10
302.6062651669413
 20
194.3016107353229
 30
0.0
 40
1.274999999999999
100
AcDbArc
 50
323.9688056879998
 51
36.03120504000001
  0
ARC
  5
1CA5
330
1E
100
AcDbEntity
  8
HILF
100
AcDbCircle
 10
302.6062651669413
 20
194.3016107353229
 30
0.0
 40
1.274999999999999
100
AcDbArc
 50
53.96878896400039
 51
126.0312110359996
  0
LINE
  5
1CA6
330
1E
100
AcDbEntity
  8
STEMPEL
100
AcDbLine
 10
301.8562651669413
 20
195.2516107353228
 30
0.0
 11
301.8562651669413
 21
199.2446107353229
 31
0.0
  0
ARC
  5
1CA7
330
1E
100
AcDbEntity
  8
STEMPEL
100
AcDbCircle
 10
301.6562651669413
 20
195.2516107353228
 30
0.0
 40
0.2
100
AcDbArc
 50
270.0
 51
0.0087434429995984
  0
LINE
  5
1CA8
330
1E
100
AcDbEntity
  8
STEMPEL
100
AcDbLine
 10
299.2562651669414
 20
195.0516107353229
 30
0.0
 11
301.6562651669413
 21
195.0516107353229
 31
0.0
  0
LINE
  5
1CA9
330
1E
100
AcDbEntity
  8
STEMPEL
100
AcDbLine
 10
299.2562651669414
 20
193.5516107353229
 30
0.0
 11
299.2562651669414
 21
195.0516107353229
 31
0.0
  0
LINE
  5
1CAA
330
1E
100
AcDbEntity
  8
STEMPEL
100
AcDbLine
 10
301.6562651669413
 20
193.5516107353229
 30
0.0
 11
299.2562651669414
 21
193.5516107353229
 31
0.0
  0
ARC
  5
1CAB
330
1E
100
AcDbEntity
  8
STEMPEL
100
AcDbCircle
 10
301.6562651669413
 20
193.351610735323
 30
0.0
 40
0.2
100
AcDbArc
 50
0.0
 51
90.0
  0
LINE
  5
1CAC
330
1E
100
AcDbEntity
  8
STEMPEL
100
AcDbLine
 10
301.8562651669413
 20
189.3576107353228
 30
0.0
 11
301.8562651669413
 21
193.351610735323
 31
0.0
  0
LINE
  5
1CAD
330
1E
100
AcDbEntity
  8
STEMPEL
100
AcDbLine
 10
303.3562651669413
 20
193.351610735323
 30
0.0
 11
303.3562651669413
 21
189.3576107353228
 31
0.0
  0
ARC
  5
1CAE
330
1E
100
AcDbEntity
  8
STEMPEL
100
AcDbCircle
 10
303.5562651669413
 20
193.351610735323
 30
0.0
 40
0.2
100
AcDbArc
 50
90.0
 51
180.0
  0
LINE
  5
1CAF
330
1E
100
AcDbEntity
  8
STEMPEL
100
AcDbLine
 10
305.9562651669413
 20
193.5516107353229
 30
0.0
 11
303.5562651669413
 21
193.5516107353229
 31
0.0
  0
LINE
  5
1CB0
330
1E
100
AcDbEntity
  8
STEMPEL
100
AcDbLine
 10
305.9562651669413
 20
195.0516107353229
 30
0.0
 11
305.9562651669413
 21
193.5516107353229
 31
0.0
  0
LINE
  5
1CB1
330
1E
100
AcDbEntity
  8
STEMPEL
100
AcDbLine
 10
303.5562651669413
 20
195.0516107353229
 30
0.0
 11
305.9562651669413
 21
195.0516107353229
 31
0.0
  0
ARC
  5
1CB2
330
1E
100
AcDbEntity
  8
STEMPEL
100
AcDbCircle
 10
303.5562651669413
 20
195.2516107353228
 30
0.0
 40
0.2
100
AcDbArc
 50
180.0
 51
270.008743442998
  0
LINE
  5
1CB3
330
1E
100
AcDbEntity
  8
STEMPEL
100
AcDbLine
 10
303.3562651669413
 20
199.2446107353229
 30
0.0
 11
303.3562651669413
 21
195.2516107353228
 31
0.0
  0
CIRCLE
  5
1CB4
330
1E
100
AcDbEntity
  8
STEMPEL
100
AcDbCircle
 10
168.6062651669413
 20
194.3016107353229
 30
0.0
 40
5.0
  0
LINE
  5
1CB5
330
1E
100
AcDbEntity
  8
HILF
100
AcDbLine
 10
169.3562651669413
 20
191.2326107353228
 30
0.0
 11
167.8562651669413
 21
191.2326107353228
 31
0.0
  0
LINE
  5
1CB6
330
1E
100
AcDbEntity
  8
HILF
100
AcDbLine
 10
169.3562651669413
 20
197.3696107353229
 30
0.0
 11
167.8562651669413
 21
197.3696107353229
 31
0.0
  0
LINE
  5
1CB7
330
1E
100
AcDbEntity
  8
HILF
100
AcDbLine
 10
166.5602651669413
 20
192.2546107353229
 30
0.0
 11
167.6162651669413
 21
193.5516107353229
 31
0.0
  0
LINE
  5
1CB8
330
1E
100
AcDbEntity
  8
HILF
100
AcDbLine
 10
167.8562651669413
 20
193.3116107353229
 30
0.0
 11
166.5602651669413
 21
192.2546107353229
 31
0.0
  0
LINE
  5
1CB9
330
1E
100
AcDbEntity
  8
HILF
100
AcDbLine
 10
170.6532651669413
 20
192.2546107353229
 30
0.0
 11
169.3562651669413
 21
193.3116107353229
 31
0.0
  0
LINE
  5
1CBA
330
1E
100
AcDbEntity
  8
HILF
100
AcDbLine
 10
169.5962651669413
 20
193.5516107353229
 30
0.0
 11
170.6532651669413
 21
192.2546107353229
 31
0.0
  0
LINE
  5
1CBB
330
1E
100
AcDbEntity
  8
HILF
100
AcDbLine
 10
170.6532651669413
 20
196.3476107353228
 30
0.0
 11
169.5962651669413
 21
195.0516107353229
 31
0.0
  0
LINE
  5
1CBC
330
1E
100
AcDbEntity
  8
HILF
100
AcDbLine
 10
169.3562651669413
 20
195.2906107353228
 30
0.0
 11
170.6532651669413
 21
196.3476107353228
 31
0.0
  0
LINE
  5
1CBD
330
1E
100
AcDbEntity
  8
HILF
100
AcDbLine
 10
166.5602651669413
 20
196.3476107353228
 30
0.0
 11
167.8562651669413
 21
195.2906107353228
 31
0.0
  0
LINE
  5
1CBE
330
1E
100
AcDbEntity
  8
HILF
100
AcDbLine
 10
167.6162651669413
 20
195.0516107353229
 30
0.0
 11
166.5602651669413
 21
196.3476107353228
 31
0.0
  0
ARC
  5
1CBF
330
1E
100
AcDbEntity
  8
HILF
100
AcDbCircle
 10
168.6062651669413
 20
194.3016107353229
 30
0.0
 40
1.274999999999999
100
AcDbArc
 50
143.96879496
 51
216.03120504
  0
ARC
  5
1CC0
330
1E
100
AcDbEntity
  8
HILF
100
AcDbCircle
 10
168.6062651669413
 20
194.3016107353229
 30
0.0
 40
1.274999999999999
100
AcDbArc
 50
233.9687889640004
 51
306.0312110359996
  0
ARC
  5
1CC1
330
1E
100
AcDbEntity
  8
HILF
100
AcDbCircle
 10
168.6062651669413
 20
194.3016107353229
 30
0.0
 40
1.274999999999999
100
AcDbArc
 50
323.9688056879998
 51
36.03120504000001
  0
ARC
  5
1CC2
330
1E
100
AcDbEntity
  8
HILF
100
AcDbCircle
 10
168.6062651669413
 20
194.3016107353229
 30
0.0
 40
1.274999999999999
100
AcDbArc
 50
53.96878896400039
 51
126.0312110359996
  0
LINE
  5
1CC3
330
1E
100
AcDbEntity
  8
STEMPEL
100
AcDbLine
 10
167.8562651669413
 20
195.2516107353228
 30
0.0
 11
167.8562651669413
 21
199.2446107353229
 31
0.0
  0
ARC
  5
1CC4
330
1E
100
AcDbEntity
  8
STEMPEL
100
AcDbCircle
 10
167.6562651669413
 20
195.2516107353228
 30
0.0
 40
0.2
100
AcDbArc
 50
270.0
 51
0.0087434429995984
  0
LINE
  5
1CC5
330
1E
100
AcDbEntity
  8
STEMPEL
100
AcDbLine
 10
165.2562651669413
 20
195.0516107353229
 30
0.0
 11
167.6562651669413
 21
195.0516107353229
 31
0.0
  0
LINE
  5
1CC6
330
1E
100
AcDbEntity
  8
STEMPEL
100
AcDbLine
 10
165.2562651669413
 20
193.5516107353229
 30
0.0
 11
165.2562651669413
 21
195.0516107353229
 31
0.0
  0
LINE
  5
1CC7
330
1E
100
AcDbEntity
  8
STEMPEL
100
AcDbLine
 10
167.6562651669413
 20
193.5516107353229
 30
0.0
 11
165.2562651669413
 21
193.5516107353229
 31
0.0
  0
ARC
  5
1CC8
330
1E
100
AcDbEntity
  8
STEMPEL
100
AcDbCircle
 10
167.6562651669413
 20
193.351610735323
 30
0.0
 40
0.2
100
AcDbArc
 50
0.0
 51
90.0
  0
LINE
  5
1CC9
330
1E
100
AcDbEntity
  8
STEMPEL
100
AcDbLine
 10
167.8562651669413
 20
189.3576107353228
 30
0.0
 11
167.8562651669413
 21
193.351610735323
 31
0.0
  0
LINE
  5
1CCA
330
1E
100
AcDbEntity
  8
STEMPEL
100
AcDbLine
 10
169.3562651669413
 20
193.351610735323
 30
0.0
 11
169.3562651669413
 21
189.3576107353228
 31
0.0
  0
ARC
  5
1CCB
330
1E
100
AcDbEntity
  8
STEMPEL
100
AcDbCircle
 10
169.5562651669413
 20
193.351610735323
 30
0.0
 40
0.2
100
AcDbArc
 50
90.0
 51
180.0
  0
LINE
  5
1CCC
330
1E
100
AcDbEntity
  8
STEMPEL
100
AcDbLine
 10
171.9562651669413
 20
193.5516107353229
 30
0.0
 11
169.5562651669413
 21
193.5516107353229
 31
0.0
  0
LINE
  5
1CCD
330
1E
100
AcDbEntity
  8
STEMPEL
100
AcDbLine
 10
171.9562651669413
 20
195.0516107353229
 30
0.0
 11
171.9562651669413
 21
193.5516107353229
 31
0.0
  0
LINE
  5
1CCE
330
1E
100
AcDbEntity
  8
STEMPEL
100
AcDbLine
 10
169.5562651669413
 20
195.0516107353229
 30
0.0
 11
171.9562651669413
 21
195.0516107353229
 31
0.0
  0
ARC
  5
1CCF
330
1E
100
AcDbEntity
  8
STEMPEL
100
AcDbCircle
 10
169.5562651669413
 20
195.2516107353228
 30
0.0
 40
0.2
100
AcDbArc
 50
180.0
 51
270.008743442998
  0
LINE
  5
1CD0
330
1E
100
AcDbEntity
  8
STEMPEL
100
AcDbLine
 10
169.3562651669413
 20
199.2446107353229
 30
0.0
 11
169.3562651669413
 21
195.2516107353228
 31
0.0
  0
ARC
  5
1CD1
330
1E
100
AcDbEntity
  8
STEMPEL
100
AcDbCircle
 10
288.1062651669413
 20
194.3016107353229
 30
0.0
 40
25.0
100
AcDbArc
 50
329.9999596190001
 51
29.99995961900127
  0
ARC
  5
1CD2
330
1E
100
AcDbEntity
  8
STEMPEL
100
AcDbCircle
 10
183.1062651669413
 20
194.3016107353229
 30
0.0
 40
25.0
100
AcDbArc
 50
150.0000403809987
 51
210.000040381
  0
LINE
  5
1CD3
330
1E
100
AcDbEntity
  8
STEMPEL
100
AcDbLine
 10
305.1122651669414
 20
186.9836107353229
 30
0.0
 11
306.5582651669413
 21
186.7806107353228
 31
0.0
  0
LINE
  5
1CD4
330
1E
100
AcDbEntity
  8
HILF
100
AcDbLine
 10
181.6172651669413
 20
206.8016107353229
 30
0.0
 11
181.6172651669413
 21
181.8016107353229
 31
0.0
  0
LINE
  5
1CD5
330
1E
100
AcDbEntity
  8
HILF
100
AcDbLine
 10
290.2112651669413
 20
206.8016107353229
 30
0.0
 11
290.2112651669413
 21
181.8016107353229
 31
0.0
  0
LINE
  5
1CD6
330
1E
100
AcDbEntity
  8
MITTEL
100
AcDbLine
 10
235.6072651669413
 20
211.8016107353229
 30
0.0
 11
235.6072651669413
 21
176.8016107353229
 31
0.0
  0
LINE
  5
1CD7
330
1E
100
AcDbEntity
  8
MITTEL
100
AcDbLine
 10
168.6062651669413
 20
204.3016107353229
 30
0.0
 11
168.6062651669413
 21
184.3016107353229
 31
0.0
  0
LINE
  5
1CD8
330
1E
100
AcDbEntity
  8
MITTEL
100
AcDbLine
 10
153.1062651669413
 20
194.3016107353229
 30
0.0
 11
318.1062651669413
 21
194.3016107353229
 31
0.0
  0
LINE
  5
1CD9
330
1E
100
AcDbEntity
  8
MITTEL
100
AcDbLine
 10
302.6062651669413
 20
184.3016107353229
 30
0.0
 11
302.6062651669413
 21
204.3016107353229
 31
0.0
  0
LINE
  5
1CDA
330
1E
100
AcDbEntity
  8
STEMPEL
100
AcDbLine
 10
306.5582651669413
 20
186.7806107353228
 30
0.0
 11
305.8582651669413
 21
181.8016107353229
 31
0.0
  0
LINE
  5
1CDB
330
1E
100
AcDbEntity
  8
STEMPEL
100
AcDbLine
 10
304.3842651669413
 20
181.8016107353229
 30
0.0
 11
309.7572651669413
 21
181.8016107353229
 31
0.0
  0
LINE
  5
1CDC
330
1E
100
AcDbEntity
  8
STEMPEL
100
AcDbLine
 10
305.5752651669414
 20
190.2776107353229
 30
0.0
 11
304.3842651669413
 21
181.8016107353229
 31
0.0
  0
LINE
  5
1CDD
330
1E
100
AcDbEntity
  8
STEMPEL
100
AcDbLine
 10
297.3152651669413
 20
181.8016107353229
 30
0.0
 11
298.6432651669413
 21
191.2526107353228
 31
0.0
  0
LINE
  5
1CDE
330
1E
100
AcDbEntity
  8
STEMPEL
100
AcDbLine
 10
161.4562651669413
 20
181.8016107353229
 30
0.0
 11
304.3842651669413
 21
181.8016107353229
 31
0.0
  0
LINE
  5
1CDF
330
1E
100
AcDbEntity
  8
STEMPEL
100
AcDbLine
 10
309.7572651669413
 20
206.8016107353229
 30
0.0
 11
161.4562651669413
 21
206.8016107353229
 31
0.0
  0
LINE
  5
1CE0
330
1E
100
AcDbEntity
  8
HILF
100
AcDbLine
 10
300.3072651669413
 20
510.5419154265551
 30
0.0
 11
300.3072651669413
 21
508.0419154265553
 31
0.0
  0
LINE
  5
1CE1
330
1E
100
AcDbEntity
  8
HILF
100
AcDbLine
 10
304.9072651669413
 20
510.5419154265551
 30
0.0
 11
304.9072651669413
 21
508.0419154265553
 31
0.0
  0
LINE
  5
1CE2
330
1E
100
AcDbEntity
  8
STEMPEL
100
AcDbLine
 10
297.6072651669412
 20
515.5029154265553
 30
0.0
 11
297.6072651669412
 21
513.0419154265553
 31
0.0
  0
LINE
  5
1CE3
330
1E
100
AcDbEntity
  8
HILF
100
AcDbLine
 10
297.6085574339366
 20
515.5029154265553
 30
0.0
 11
301.9072651669414
 21
515.5029154265553
 31
0.0
  0
ARC
  5
1CE4
330
1E
100
AcDbEntity
  8
STEMPEL
100
AcDbCircle
 10
302.6072651669413
 20
506.8419154265552
 30
0.0
 40
10.0
100
AcDbArc
 50
94.01396748800069
 51
119.9999850769986
  0
LINE
  5
1CE5
330
1E
100
AcDbEntity
  8
STEMPEL
100
AcDbLine
 10
301.9072651669413
 20
515.2139154265552
 30
0.0
 11
301.9072651669413
 21
516.8179154265552
 31
0.0
  0
LINE
  5
1CE6
330
1E
100
AcDbEntity
  8
STEMPEL
100
AcDbLine
 10
303.3072651669413
 20
515.2139154265552
 30
0.0
 11
301.9072651669413
 21
515.2139154265552
 31
0.0
  0
LINE
  5
1CE7
330
1E
100
AcDbEntity
  8
STEMPEL
100
AcDbLine
 10
303.3072651669413
 20
516.8179154265552
 30
0.0
 11
303.3072651669413
 21
515.2139154265552
 31
0.0
  0
LINE
  5
1CE8
330
1E
100
AcDbEntity
  8
HILF
100
AcDbLine
 10
303.3072651669414
 20
515.5029154265552
 30
0.0
 11
307.6059728999459
 21
515.5029154265552
 31
0.0
  0
ARC
  5
1CE9
330
1E
100
AcDbEntity
  8
STEMPEL
100
AcDbCircle
 10
302.6072651669413
 20
506.8419154265552
 30
0.0
 40
10.0
100
AcDbArc
 50
59.99999358400174
 51
85.98594517699948
  0
LINE
  5
1CEA
330
1E
100
AcDbEntity
  8
STEMPEL
100
AcDbLine
 10
307.6072651669413
 20
513.0419154265553
 30
0.0
 11
307.6072651669413
 21
515.5029154265553
 31
0.0
  0
LINE
  5
1CEB
330
1E
100
AcDbEntity
  8
STEMPEL
100
AcDbLine
 10
305.6072651669412
 20
508.0419154265553
 30
0.0
 11
305.6072651669412
 21
511.2259154265553
 31
0.0
  0
LINE
  5
1CEC
330
1E
100
AcDbEntity
  8
STEMPEL
100
AcDbLine
 10
299.6072651669413
 20
508.0419154265553
 30
0.0
 11
299.6072651669413
 21
513.0419154265553
 31
0.0
  0
LINE
  5
1CED
330
1E
100
AcDbEntity
  8
STEMPEL
100
AcDbLine
 10
299.6072651669413
 20
495.0419154265552
 30
0.0
 11
299.6072651669413
 21
504.5419154265553
 31
0.0
  0
LINE
  5
1CEE
330
1E
100
AcDbEntity
  8
HILF
100
AcDbLine
 10
300.3072651669413
 20
493.8299154265552
 30
0.0
 11
300.3072651669413
 21
504.5419154265553
 31
0.0
  0
LINE
  5
1CEF
330
1E
100
AcDbEntity
  8
STEMPEL
100
AcDbLine
 10
299.6072651669413
 20
495.0419154265552
 30
0.0
 11
300.7622651669412
 21
493.0419154265552
 31
0.0
  0
LINE
  5
1CF0
330
1E
100
AcDbEntity
  8
STEMPEL
100
AcDbLine
 10
300.7622651669412
 20
493.0419154265552
 30
0.0
 11
304.4522651669413
 21
493.0419154265552
 31
0.0
  0
LINE
  5
1CF1
330
1E
100
AcDbEntity
  8
STEMPEL
100
AcDbLine
 10
304.4522651669413
 20
493.0419154265552
 30
0.0
 11
305.6072651669412
 21
495.0419154265552
 31
0.0
  0
LINE
  5
1CF2
330
1E
100
AcDbEntity
  8
STEMPEL
100
AcDbLine
 10
305.6072651669412
 20
495.0419154265552
 30
0.0
 11
299.6072651669413
 21
495.0419154265552
 31
0.0
  0
LINE
  5
1CF3
330
1E
100
AcDbEntity
  8
HILF
100
AcDbLine
 10
304.9072651669413
 20
493.8299154265552
 30
0.0
 11
304.9072651669413
 21
504.5419154265553
 31
0.0
  0
LINE
  5
1CF4
330
1E
100
AcDbEntity
  8
STEMPEL
100
AcDbLine
 10
305.6072651669412
 20
495.0419154265552
 30
0.0
 11
305.6072651669412
 21
504.5419154265553
 31
0.0
  0
LINE
  5
1CF5
330
1E
100
AcDbEntity
  8
STEMPEL
100
AcDbLine
 10
173.6072651669412
 20
513.0419154265553
 30
0.0
 11
173.6072651669412
 21
515.5029154265553
 31
0.0
  0
LINE
  5
1CF6
330
1E
100
AcDbEntity
  8
HILF
100
AcDbLine
 10
169.8572651669412
 20
515.5029154265553
 30
0.0
 11
173.1072651669412
 21
515.5029154265553
 31
0.0
  0
ARC
  5
1CF7
330
1E
100
AcDbEntity
  8
STEMPEL
100
AcDbCircle
 10
168.6072651669412
 20
506.8419154265552
 30
0.0
 40
10.0
100
AcDbArc
 50
59.99999358400174
 51
85.98594517699948
  0
LINE
  5
1CF8
330
1E
100
AcDbEntity
  8
STEMPEL
100
AcDbLine
 10
169.3072651669412
 20
516.8179154265552
 30
0.0
 11
169.3072651669412
 21
515.2139154265552
 31
0.0
  0
LINE
  5
1CF9
330
1E
100
AcDbEntity
  8
STEMPEL
100
AcDbLine
 10
169.3072651669412
 20
515.2139154265552
 30
0.0
 11
167.9072651669413
 21
515.2139154265552
 31
0.0
  0
LINE
  5
1CFA
330
1E
100
AcDbEntity
  8
STEMPEL
100
AcDbLine
 10
167.9072651669413
 20
515.2139154265552
 30
0.0
 11
167.9072651669413
 21
516.8179154265552
 31
0.0
  0
LINE
  5
1CFB
330
1E
100
AcDbEntity
  8
HILF
100
AcDbLine
 10
164.1072651669412
 20
515.5029154265553
 30
0.0
 11
167.3572651669412
 21
515.5029154265553
 31
0.0
  0
ARC
  5
1CFC
330
1E
100
AcDbEntity
  8
STEMPEL
100
AcDbCircle
 10
168.6072651669412
 20
506.8419154265552
 30
0.0
 40
10.0
100
AcDbArc
 50
94.01396748800069
 51
119.9999850769986
  0
LINE
  5
1CFD
330
1E
100
AcDbEntity
  8
STEMPEL
100
AcDbLine
 10
163.6072651669412
 20
515.5029154265553
 30
0.0
 11
163.6072651669412
 21
513.0419154265553
 31
0.0
  0
LINE
  5
1D00
330
1E
100
AcDbEntity
  8
STEMPEL
100
AcDbLine
 10
171.6072651669412
 20
508.0419154265553
 30
0.0
 11
171.6072651669412
 21
511.0419154265553
 31
0.0
  0
LINE
  5
1D01
330
1E
100
AcDbEntity
  8
HILF
100
AcDbLine
 10
170.9072651669413
 20
508.0419154265553
 30
0.0
 11
170.9072651669413
 21
510.5419154265553
 31
0.0
  0
LINE
  5
1D02
330
1E
100
AcDbEntity
  8
STEMPEL
100
AcDbLine
 10
165.6072651669412
 20
510.5419154265553
 30
0.0
 11
171.6072651669412
 21
510.5419154265553
 31
0.0
  0
LINE
  5
1D03
330
1E
100
AcDbEntity
  8
HILF
100
AcDbLine
 10
166.3072651669412
 20
508.0419154265553
 30
0.0
 11
166.3072651669412
 21
510.5419154265553
 31
0.0
  0
LINE
  5
1D04
330
1E
100
AcDbEntity
  8
STEMPEL
100
AcDbLine
 10
165.6072651669412
 20
508.0419154265553
 30
0.0
 11
165.6072651669412
 21
511.0419154265553
 31
0.0
  0
LINE
  5
1D05
330
1E
100
AcDbEntity
  8
STEMPEL
100
AcDbLine
 10
165.6072651669412
 20
495.0419154265552
 30
0.0
 11
165.6072651669412
 21
504.5419154265553
 31
0.0
  0
LINE
  5
1D06
330
1E
100
AcDbEntity
  8
HILF
100
AcDbLine
 10
166.3072651669412
 20
493.8299154265552
 30
0.0
 11
166.3072651669412
 21
504.5419154265553
 31
0.0
  0
LINE
  5
1D07
330
1E
100
AcDbEntity
  8
STEMPEL
100
AcDbLine
 10
165.6072651669412
 20
495.0419154265552
 30
0.0
 11
166.7622651669413
 21
493.0419154265552
 31
0.0
  0
LINE
  5
1D08
330
1E
100
AcDbEntity
  8
STEMPEL
100
AcDbLine
 10
166.7622651669413
 20
493.0419154265552
 30
0.0
 11
170.4532651669412
 21
493.0419154265552
 31
0.0
  0
LINE
  5
1D09
330
1E
100
AcDbEntity
  8
STEMPEL
100
AcDbLine
 10
170.4532651669412
 20
493.0419154265552
 30
0.0
 11
171.6072651669412
 21
495.0419154265552
 31
0.0
  0
LINE
  5
1D0A
330
1E
100
AcDbEntity
  8
STEMPEL
100
AcDbLine
 10
171.6072651669412
 20
495.0419154265552
 30
0.0
 11
165.6072651669412
 21
495.0419154265552
 31
0.0
  0
LINE
  5
1D0B
330
1E
100
AcDbEntity
  8
HILF
100
AcDbLine
 10
170.9072651669413
 20
493.8299154265552
 30
0.0
 11
170.9072651669413
 21
504.5419154265553
 31
0.0
  0
LINE
  5
1D0C
330
1E
100
AcDbEntity
  8
STEMPEL
100
AcDbLine
 10
171.6072651669412
 20
495.0419154265552
 30
0.0
 11
171.6072651669412
 21
504.5419154265553
 31
0.0
  0
LINE
  5
1D0D
330
1E
100
AcDbEntity
  8
HILF
100
AcDbLine
 10
305.6072651669412
 20
510.5419154265553
 30
0.0
 11
299.6072651669413
 21
510.5419154265553
 31
0.0
  0
LINE
  5
1D10
330
1E
100
AcDbEntity
  8
STEMPEL
100
AcDbLine
 10
297.0522651669413
 20
513.0419154265553
 30
0.0
 11
297.0522651669413
 21
511.0419154265553
 31
0.0
  0
LINE
  5
1D11
330
1E
100
AcDbEntity
  8
STEMPEL
100
AcDbLine
 10
310.4272651669413
 20
511.0419154265553
 30
0.0
 11
310.4272651669413
 21
513.0419154265553
 31
0.0
  0
LINE
  5
1D12
330
1E
100
AcDbEntity
  8
STEMPEL
100
AcDbLine
 10
306.2962651669413
 20
513.0419154265553
 30
0.0
 11
306.9922651669413
 21
513.0419154265553
 31
0.0
  0
LINE
  5
1D13
330
1E
100
AcDbEntity
  8
STEMPEL
100
AcDbLine
 10
160.7862651669413
 20
511.0419154265553
 30
0.0
 11
160.7862651669413
 21
513.0419154265553
 31
0.0
  0
ARC
  5
1D14
330
1E
100
AcDbEntity
  8
HILF
100
AcDbCircle
 10
235.6072651669413
 20
509.5419154265552
 30
0.0
 40
54.0
100
AcDbArc
 50
3.918114418001038
 51
176.0818855819989
  0
LINE
  5
1D15
330
1E
100
AcDbEntity
  8
STEMPEL
100
AcDbLine
 10
306.1532651669413
 20
514.0419154265552
 30
0.0
 11
306.1532651669413
 21
513.0569154265551
 31
0.0
  0
LINE
  5
1D16
330
1E
100
AcDbEntity
  8
STEMPEL
100
AcDbLine
 10
304.1212651669414
 20
514.0419154265552
 30
0.0
 11
306.1532651669413
 21
514.0419154265552
 31
0.0
  0
LINE
  5
1D17
330
1E
100
AcDbEntity
  8
STEMPEL
100
AcDbLine
 10
304.1212651669414
 20
513.2419154265552
 30
0.0
 11
304.1212651669414
 21
514.0419154265552
 31
0.0
  0
ARC
  5
1D18
330
1E
100
AcDbEntity
  8
STEMPEL
100
AcDbCircle
 10
306.5712651669413
 20
513.4919154265552
 30
0.0
 40
2.463
100
AcDbArc
 50
185.837524417999
 51
264.1736792309999
  0
LINE
  5
1D19
330
1E
100
AcDbEntity
  8
STEMPEL
100
AcDbLine
 10
290.3312651669413
 20
513.0419154265553
 30
0.0
 11
304.1502651669414
 21
513.0419154265553
 31
0.0
  0
ARC
  5
1D1A
330
1E
100
AcDbEntity
  8
STEMPEL
100
AcDbCircle
 10
290.3312651669413
 20
515.0419154265553
 30
0.0
 40
2.0
100
AcDbArc
 50
185.7391704769995
 51
270.0
  0
ARC
  5
1D1B
330
1E
100
AcDbEntity
  8
STEMPEL
100
AcDbCircle
 10
235.6072651669413
 20
509.5419154265552
 30
0.0
 40
53.0
100
AcDbArc
 50
5.73917047699953
 51
174.2608295230004
  0
ARC
  5
1D1C
330
1E
100
AcDbEntity
  8
STEMPEL
100
AcDbCircle
 10
180.8822651669413
 20
515.0419154265553
 30
0.0
 40
2.0
100
AcDbArc
 50
270.0
 51
354.2608295230005
  0
LINE
  5
1D1D
330
1E
100
AcDbEntity
  8
STEMPEL
100
AcDbLine
 10
158.1062651669413
 20
513.0419154265553
 30
0.0
 11
180.8822651669413
 21
513.0419154265553
 31
0.0
  0
LINE
  5
1D1E
330
1E
100
AcDbEntity
  8
STEMPEL
100
AcDbLine
 10
158.1062651669413
 20
511.0419154265553
 30
0.0
 11
158.1062651669413
 21
513.0419154265553
 31
0.0
  0
LINE
  5
1D1F
330
1E
100
AcDbEntity
  8
STEMPEL
100
AcDbLine
 10
180.8822651669413
 20
511.0419154265553
 30
0.0
 11
158.1062651669413
 21
511.0419154265553
 31
0.0
  0
ARC
  5
1D20
330
1E
100
AcDbEntity
  8
STEMPEL
100
AcDbCircle
 10
180.8822651669413
 20
515.0419154265553
 30
0.0
 40
4.0
100
AcDbArc
 50
270.0
 51
354.2608295230005
  0
ARC
  5
1D21
330
1E
100
AcDbEntity
  8
STEMPEL
100
AcDbCircle
 10
235.6072651669413
 20
509.5419154265552
 30
0.0
 40
51.0
100
AcDbArc
 50
5.73917047699953
 51
174.2608295230004
  0
ARC
  5
1D22
330
1E
100
AcDbEntity
  8
STEMPEL
100
AcDbCircle
 10
290.3312651669413
 20
515.0419154265553
 30
0.0
 40
4.0
100
AcDbArc
 50
185.7391704769995
 51
270.0
  0
LINE
  5
1D23
330
1E
100
AcDbEntity
  8
STEMPEL
100
AcDbLine
 10
299.6072651669413
 20
511.0419154265553
 30
0.0
 11
290.3312651669413
 21
511.0419154265553
 31
0.0
  0
LINE
  5
1D24
330
1E
100
AcDbEntity
  8
STEMPEL
100
AcDbLine
 10
313.1062651669413
 20
511.0419154265553
 30
0.0
 11
305.6072651669412
 21
511.0419154265553
 31
0.0
  0
LINE
  5
1D25
330
1E
100
AcDbEntity
  8
STEMPEL
100
AcDbLine
 10
313.1062651669413
 20
513.0419154265553
 30
0.0
 11
313.1062651669413
 21
511.0419154265553
 31
0.0
  0
LINE
  5
1D26
330
1E
100
AcDbEntity
  8
STEMPEL
100
AcDbLine
 10
306.2962651669413
 20
513.0419154265553
 30
0.0
 11
313.1062651669413
 21
513.0419154265553
 31
0.0
  0
ARC
  5
1D27
330
1E
100
AcDbEntity
  8
STEMPEL
100
AcDbCircle
 10
306.2962651669413
 20
513.7419154265552
 30
0.0
 40
0.7
100
AcDbArc
 50
180.0
 51
270.0
  0
LINE
  5
1D28
330
1E
100
AcDbEntity
  8
STEMPEL
100
AcDbLine
 10
305.5962651669413
 20
514.0419154265552
 30
0.0
 11
305.5962651669413
 21
513.7419154265552
 31
0.0
  0
LINE
  5
1D29
330
1E
100
AcDbEntity
  8
STEMPEL
100
AcDbLine
 10
232.1072651669413
 20
438.2919154265552
 30
0.0
 11
228.6072651669412
 21
441.5419154265552
 31
0.0
  0
LINE
  5
1D2A
330
1E
100
AcDbEntity
  8
STEMPEL
100
AcDbLine
 10
239.1072651669412
 20
438.2919154265552
 30
0.0
 11
242.6072651669413
 21
441.5419154265552
 31
0.0
  0
LINE
  5
1D2B
330
1E
100
AcDbEntity
  8
STEMPEL
100
AcDbLine
 10
235.6072651669413
 20
236.5419154265552
 30
0.0
 11
232.1072651669413
 21
247.7389154265552
 31
0.0
  0
LINE
  5
1D2C
330
1E
100
AcDbEntity
  8
STEMPEL
100
AcDbLine
 10
239.1072651669412
 20
247.7379154265552
 30
0.0
 11
235.6072651669413
 21
236.5419154265552
 31
0.0
  0
LINE
  5
1D2D
330
1E
100
AcDbEntity
  8
STEMPEL
100
AcDbLine
 10
232.1072651669413
 20
247.7389154265552
 30
0.0
 11
232.1072651669412
 21
334.3806376641867
 31
0.0
  0
LINE
  5
1D2E
330
1E
100
AcDbEntity
  8
STEMPEL
100
AcDbLine
 10
239.1072651669412
 20
247.7379154265552
 30
0.0
 11
239.1072651669413
 21
336.2562820112046
 31
0.0
  0
LINE
  5
1D2F
330
1E
100
AcDbEntity
  8
HILF
100
AcDbLine
 10
238.6072651669413
 20
411.2919154265552
 30
0.0
 11
238.9912651669413
 21
411.2919154265552
 31
0.0
  0
LINE
  5
1D30
330
1E
100
AcDbEntity
  8
HILF
100
AcDbLine
 10
238.6072651669413
 20
415.2919154265552
 30
0.0
 11
238.9912651669413
 21
415.2919154265552
 31
0.0
  0
LINE
  5
1D31
330
1E
100
AcDbEntity
  8
HILF
100
AcDbLine
 10
238.6072651669413
 20
419.2919154265552
 30
0.0
 11
238.9912651669413
 21
419.2919154265552
 31
0.0
  0
LINE
  5
1D32
330
1E
100
AcDbEntity
  8
HILF
100
AcDbLine
 10
238.6072651669413
 20
423.2919154265552
 30
0.0
 11
238.9912651669413
 21
423.2919154265552
 31
0.0
  0
LINE
  5
1D33
330
1E
100
AcDbEntity
  8
HILF
100
AcDbLine
 10
238.6072651669413
 20
427.2919154265552
 30
0.0
 11
238.9912651669413
 21
427.2919154265552
 31
0.0
  0
LINE
  5
1D34
330
1E
100
AcDbEntity
  8
HILF
100
AcDbLine
 10
232.6072651669413
 20
427.2919154265552
 30
0.0
 11
232.2222651669413
 21
427.2919154265552
 31
0.0
  0
LINE
  5
1D35
330
1E
100
AcDbEntity
  8
HILF
100
AcDbLine
 10
232.6072651669413
 20
423.2919154265552
 30
0.0
 11
232.2222651669413
 21
423.2919154265552
 31
0.0
  0
LINE
  5
1D36
330
1E
100
AcDbEntity
  8
HILF
100
AcDbLine
 10
232.6072651669413
 20
419.2919154265552
 30
0.0
 11
232.2222651669413
 21
419.2919154265552
 31
0.0
  0
LINE
  5
1D37
330
1E
100
AcDbEntity
  8
HILF
100
AcDbLine
 10
232.6072651669413
 20
415.2919154265552
 30
0.0
 11
232.2222651669413
 21
415.2919154265552
 31
0.0
  0
LINE
  5
1D38
330
1E
100
AcDbEntity
  8
HILF
100
AcDbLine
 10
232.6072651669413
 20
411.2919154265552
 30
0.0
 11
232.2222651669413
 21
411.2919154265552
 31
0.0
  0
ARC
  5
1D39
330
1E
100
AcDbEntity
  8
HILF
100
AcDbCircle
 10
235.6072651669413
 20
442.7919154265552
 30
0.0
 40
5.315
100
AcDbArc
 50
244.9837960419997
 51
295.0163005179997
  0
LINE
  5
1D3A
330
1E
100
AcDbEntity
  8
HILF
100
AcDbLine
 10
233.1072651669412
 20
427.2919154265552
 30
0.0
 11
238.1072651669413
 21
427.2919154265552
 31
0.0
  0
LINE
  5
1D3B
330
1E
100
AcDbEntity
  8
HILF
100
AcDbLine
 10
233.1072651669412
 20
423.2919154265552
 30
0.0
 11
238.1072651669413
 21
423.2919154265552
 31
0.0
  0
LINE
  5
1D3C
330
1E
100
AcDbEntity
  8
HILF
100
AcDbLine
 10
233.1072651669412
 20
419.2919154265552
 30
0.0
 11
238.1072651669413
 21
419.2919154265552
 31
0.0
  0
LINE
  5
1D3D
330
1E
100
AcDbEntity
  8
HILF
100
AcDbLine
 10
233.1072651669412
 20
415.2919154265552
 30
0.0
 11
238.1072651669413
 21
415.2919154265552
 31
0.0
  0
LINE
  5
1D3E
330
1E
100
AcDbEntity
  8
HILF
100
AcDbLine
 10
233.1072651669412
 20
411.2919154265552
 30
0.0
 11
238.1072651669413
 21
411.2919154265552
 31
0.0
  0
LINE
  5
1D3F
330
1E
100
AcDbEntity
  8
STEMPEL
100
AcDbLine
 10
228.6072651669412
 20
441.5419154265552
 30
0.0
 11
242.6072651669413
 21
441.5419154265552
 31
0.0
  0
LINE
  5
1D40
330
1E
100
AcDbEntity
  8
STEMPEL
100
AcDbLine
 10
232.1072651669412
 20
247.7389154265552
 30
0.0
 11
239.1072651669412
 21
247.7389154265552
 31
0.0
  0
ARC
  5
1D41
330
1E
100
AcDbEntity
  8
STEMPEL
100
AcDbCircle
 10
239.1072651669412
 20
443.5419154265552
 30
0.0
 40
1.0
100
AcDbArc
 50
0.0
 51
90.0
  0
LINE
  5
1D42
330
1E
100
AcDbEntity
  8
STEMPEL
100
AcDbLine
 10
232.1072651669413
 20
444.5419154265552
 30
0.0
 11
239.1072651669412
 21
444.5419154265552
 31
0.0
  0
ARC
  5
1D43
330
1E
100
AcDbEntity
  8
STEMPEL
100
AcDbCircle
 10
232.1072651669413
 20
443.5419154265552
 30
0.0
 40
1.0
100
AcDbArc
 50
90.0
 51
180.0
  0
ARC
  5
1D44
330
1E
100
AcDbEntity
  8
HILF
100
AcDbCircle
 10
235.6072651669413
 20
509.5419154265552
 30
0.0
 40
54.0
100
AcDbArc
 50
183.918114418001
 51
254.3634529349988
  0
ARC
  5
1D45
330
1E
100
AcDbEntity
  8
HILF
100
AcDbCircle
 10
235.6072651669413
 20
509.5419154265552
 30
0.0
 40
54.0
100
AcDbArc
 50
285.576129076999
 51
356.081885581999
  0
ARC
  5
1D47
330
1E
100
AcDbEntity
  8
STEMPEL
100
AcDbCircle
 10
172.8572651669412
 20
505.5419154265552
 30
0.0
 40
0.5
100
AcDbArc
 50
90.0
 51
180.0
  0
LINE
  5
1D48
330
1E
100
AcDbEntity
  8
STEMPEL
100
AcDbLine
 10
172.3572651669412
 20
505.5419154265552
 30
0.0
 11
172.3572651669412
 21
504.5419154265553
 31
0.0
  0
LINE
  5
1D49
330
1E
100
AcDbEntity
  8
STEMPEL
100
AcDbLine
 10
172.3572651669412
 20
504.5419154265553
 30
0.0
 11
164.8572651669412
 21
504.5419154265553
 31
0.0
  0
ARC
  5
1D4A
330
1E
100
AcDbEntity
  8
STEMPEL
100
AcDbCircle
 10
164.3572651669412
 20
505.5419154265552
 30
0.0
 40
0.5
100
AcDbArc
 50
0.0
 51
90.0
  0
LINE
  5
1D4B
330
1E
100
AcDbEntity
  8
STEMPEL
100
AcDbLine
 10
164.8572651669412
 20
504.5419154265553
 30
0.0
 11
164.8572651669412
 21
505.5419154265552
 31
0.0
  0
LINE
  5
1D4C
330
1E
100
AcDbEntity
  8
STEMPEL
100
AcDbLine
 10
160.7862651669413
 20
506.0419154265552
 30
0.0
 11
160.7862651669413
 21
508.0419154265553
 31
0.0
  0
ARC
  5
1D4D
330
1E
100
AcDbEntity
  8
STEMPEL
100
AcDbCircle
 10
306.8572651669413
 20
505.5419154265552
 30
0.0
 40
0.5
100
AcDbArc
 50
90.0
 51
180.0
  0
LINE
  5
1D4E
330
1E
100
AcDbEntity
  8
STEMPEL
100
AcDbLine
 10
306.3572651669413
 20
504.5419154265553
 30
0.0
 11
306.3572651669413
 21
505.5419154265552
 31
0.0
  0
LINE
  5
1D4F
330
1E
100
AcDbEntity
  8
STEMPEL
100
AcDbLine
 10
298.8572651669413
 20
504.5419154265553
 30
0.0
 11
306.3572651669413
 21
504.5419154265553
 31
0.0
  0
LINE
  5
1D50
330
1E
100
AcDbEntity
  8
STEMPEL
100
AcDbLine
 10
298.8572651669413
 20
505.5419154265552
 30
0.0
 11
298.8572651669413
 21
504.5419154265553
 31
0.0
  0
ARC
  5
1D51
330
1E
100
AcDbEntity
  8
STEMPEL
100
AcDbCircle
 10
298.3572651669413
 20
505.5419154265552
 30
0.0
 40
0.5
100
AcDbArc
 50
0.0
 51
90.0
  0
LINE
  5
1D52
330
1E
100
AcDbEntity
  8
STEMPEL
100
AcDbLine
 10
310.4272651669413
 20
506.0419154265552
 30
0.0
 11
310.4272651669413
 21
508.0419154265553
 31
0.0
  0
ARC
  5
1D53
330
1E
100
AcDbEntity
  8
STEMPEL
100
AcDbCircle
 10
235.6072651669413
 20
509.5419154265552
 30
0.0
 40
53.0
100
AcDbArc
 50
185.7391704769995
 51
252.5423968760006
  0
ARC
  5
1D54
330
1E
100
AcDbEntity
  8
STEMPEL
100
AcDbCircle
 10
180.8822651669413
 20
504.0419154265553
 30
0.0
 40
2.0
100
AcDbArc
 50
5.73917047699953
 51
90.0
  0
LINE
  5
1D55
330
1E
100
AcDbEntity
  8
STEMPEL
100
AcDbLine
 10
158.1062651669413
 20
506.0419154265552
 30
0.0
 11
180.8822651669413
 21
506.0419154265552
 31
0.0
  0
LINE
  5
1D56
330
1E
100
AcDbEntity
  8
STEMPEL
100
AcDbLine
 10
158.1062651669413
 20
508.0419154265553
 30
0.0
 11
158.1062651669413
 21
506.0419154265552
 31
0.0
  0
LINE
  5
1D57
330
1E
100
AcDbEntity
  8
STEMPEL
100
AcDbLine
 10
180.8822651669413
 20
508.0419154265553
 30
0.0
 11
158.1062651669413
 21
508.0419154265553
 31
0.0
  0
ARC
  5
1D58
330
1E
100
AcDbEntity
  8
STEMPEL
100
AcDbCircle
 10
180.8822651669413
 20
504.0419154265553
 30
0.0
 40
4.0
100
AcDbArc
 50
5.73917047699953
 51
90.0
  0
ARC
  5
1D59
330
1E
100
AcDbEntity
  8
STEMPEL
100
AcDbCircle
 10
235.6072651669413
 20
509.5419154265552
 30
0.0
 40
51.0
100
AcDbArc
 50
185.7391704769995
 51
252.5423968760006
  0
ARC
  5
1D5A
330
1E
100
AcDbEntity
  8
STEMPEL
100
AcDbCircle
 10
219.1072651669413
 20
457.0759154265552
 30
0.0
 40
4.0
100
AcDbArc
 50
0.0
 51
72.54239687600068
  0
LINE
  5
1D5B
330
1E
100
AcDbEntity
  8
STEMPEL
100
AcDbLine
 10
223.1072651669413
 20
445.5419154265552
 30
0.0
 11
223.1072651669413
 21
457.0759154265552
 31
0.0
  0
ARC
  5
1D5C
330
1E
100
AcDbEntity
  8
STEMPEL
100
AcDbCircle
 10
225.1072651669413
 20
445.5419154265552
 30
0.0
 40
2.0
100
AcDbArc
 50
180.0
 51
270.0
  0
LINE
  5
1D5D
330
1E
100
AcDbEntity
  8
STEMPEL
100
AcDbLine
 10
246.1072651669413
 20
443.5419154265552
 30
0.0
 11
225.1072651669413
 21
443.5419154265552
 31
0.0
  0
ARC
  5
1D5E
330
1E
100
AcDbEntity
  8
STEMPEL
100
AcDbCircle
 10
246.1072651669413
 20
445.5419154265552
 30
0.0
 40
2.0
100
AcDbArc
 50
270.0
 51
0.0
  0
LINE
  5
1D5F
330
1E
100
AcDbEntity
  8
STEMPEL
100
AcDbLine
 10
248.1072651669413
 20
457.0759154265552
 30
0.0
 11
248.1072651669413
 21
445.5419154265552
 31
0.0
  0
ARC
  5
1D60
330
1E
100
AcDbEntity
  8
STEMPEL
100
AcDbCircle
 10
252.1072651669413
 20
457.0759154265552
 30
0.0
 40
4.0
100
AcDbArc
 50
107.4576031239993
 51
180.0
  0
ARC
  5
1D61
330
1E
100
AcDbEntity
  8
STEMPEL
100
AcDbCircle
 10
235.6072651669413
 20
509.5419154265552
 30
0.0
 40
51.0
100
AcDbArc
 50
287.4576031239993
 51
354.2608295230005
  0
ARC
  5
1D62
330
1E
100
AcDbEntity
  8
STEMPEL
100
AcDbCircle
 10
290.3312651669413
 20
504.0419154265553
 30
0.0
 40
4.0
100
AcDbArc
 50
90.0
 51
174.2608295230004
  0
LINE
  5
1D63
330
1E
100
AcDbEntity
  8
STEMPEL
100
AcDbLine
 10
313.1062651669413
 20
508.0419154265553
 30
0.0
 11
290.3312651669413
 21
508.0419154265553
 31
0.0
  0
LINE
  5
1D64
330
1E
100
AcDbEntity
  8
STEMPEL
100
AcDbLine
 10
313.1062651669413
 20
506.0419154265552
 30
0.0
 11
313.1062651669413
 21
508.0419154265553
 31
0.0
  0
LINE
  5
1D65
330
1E
100
AcDbEntity
  8
STEMPEL
100
AcDbLine
 10
290.3312651669413
 20
506.0419154265552
 30
0.0
 11
313.1062651669413
 21
506.0419154265552
 31
0.0
  0
ARC
  5
1D66
330
1E
100
AcDbEntity
  8
STEMPEL
100
AcDbCircle
 10
290.3312651669413
 20
504.0419154265553
 30
0.0
 40
2.0
100
AcDbArc
 50
90.0
 51
174.2608295230004
  0
ARC
  5
1D67
330
1E
100
AcDbEntity
  8
STEMPEL
100
AcDbCircle
 10
235.6072651669413
 20
509.5419154265552
 30
0.0
 40
53.0
100
AcDbArc
 50
287.4576031239993
 51
354.2608295230005
  0
ARC
  5
1D68
330
1E
100
AcDbEntity
  8
STEMPEL
100
AcDbCircle
 10
252.1072651669413
 20
457.0759154265552
 30
0.0
 40
2.0
100
AcDbArc
 50
107.4576031239993
 51
180.0
  0
LINE
  5
1D69
330
1E
100
AcDbEntity
  8
STEMPEL
100
AcDbLine
 10
250.1072651669413
 20
445.5419154265552
 30
0.0
 11
250.1072651669413
 21
457.0759154265552
 31
0.0
  0
ARC
  5
1D6A
330
1E
100
AcDbEntity
  8
STEMPEL
100
AcDbCircle
 10
246.1072651669413
 20
445.5419154265552
 30
0.0
 40
4.0
100
AcDbArc
 50
270.0
 51
0.0
  0
LINE
  5
1D6B
330
1E
100
AcDbEntity
  8
STEMPEL
100
AcDbLine
 10
225.1072651669413
 20
441.5419154265552
 30
0.0
 11
246.1072651669413
 21
441.5419154265552
 31
0.0
  0
ARC
  5
1D6C
330
1E
100
AcDbEntity
  8
STEMPEL
100
AcDbCircle
 10
225.1072651669413
 20
445.5419154265552
 30
0.0
 40
4.0
100
AcDbArc
 50
180.0
 51
270.0
  0
LINE
  5
1D6D
330
1E
100
AcDbEntity
  8
STEMPEL
100
AcDbLine
 10
221.1072651669413
 20
457.0759154265552
 30
0.0
 11
221.1072651669413
 21
445.5419154265552
 31
0.0
  0
ARC
  5
1D6E
330
1E
100
AcDbEntity
  8
STEMPEL
100
AcDbCircle
 10
219.1072651669413
 20
457.0759154265552
 30
0.0
 40
2.0
100
AcDbArc
 50
0.0
 51
72.54239687600068
  0
LINE
  5
1D6F
330
1E
100
AcDbEntity
  8
MITTEL
100
AcDbLine
 10
302.6072651669413
 20
521.8419154265553
 30
0.0
 11
302.6072651669413
 21
488.0419154265552
 31
0.0
  0
LINE
  5
1D70
330
1E
100
AcDbEntity
  8
MITTEL
100
AcDbLine
 10
168.6072651669412
 20
488.0419154265552
 30
0.0
 11
168.6072651669412
 21
521.8419154265553
 31
0.0
  0
LINE
  5
1D71
330
1E
100
AcDbEntity
  8
MITTEL
100
AcDbLine
 10
153.1062651669413
 20
509.5419154265552
 30
0.0
 11
318.1062651669413
 21
509.5419154265552
 31
0.0
  0
LINE
  5
1D72
330
1E
100
AcDbEntity
  8
MITTEL
100
AcDbLine
 10
235.6072651669413
 20
231.5419154265553
 30
0.0
 11
235.6072651669413
 21
568.5419154265552
 31
0.0
  0
DIMENSION
  5
1D93
330
1E
100
AcDbEntity
  8
BEM
100
AcDbDimension
  2
*D1
 10
302.6062651669413
 20
160.9314883740289
 30
0.0
 11
235.6062651669413
 21
167.4314883740289
 31
0.0
 70
    32
 71
     5
 42
134.0
  3
Standard
100
AcDbAlignedDimension
 13
168.6062651669413
 23
184.3016107353229
 33
0.0
 14
302.6062651669413
 24
184.3016107353229
 34
0.0
100
AcDbRotatedDimension
1001
ACAD
1000
DSTYLE
1002
{
1070
    40
1040
2.0
1070
    41
1040
3.5
1070
    42
1040
1.0
1070
    43
1040
7.0
1070
    44
1040
1.0
1070
    73
1070
     0
1070
    74
1070
     0
1070
    77
1070
     1
1070
    78
1070
     8
1070
    79
1070
     2
1070
   140
1040
3.5
1070
   141
1040
1.5
1070
   146
1040
0.5
1070
   147
1040
1.5
1070
   172
1070
     1
1070
   178
1070
     1
1070
   179
1070
     2
1070
   271
1070
     2
1070
   272
1070
     2
1070
   284
1070
     8
1070
   285
1070
     8
1070
   286
1070
     8
1002
}
  0
DIMENSION
  5
1DA0
330
1E
100
AcDbEntity
  8
BEM
100
AcDbDimension
  2
*D2
 10
313.1062651669413
 20
145.9626493476364
 30
0.0
 11
235.6062651669413
 21
152.4626493476364
 31
0.0
 70
    32
 71
     5
 42
155.0
  3
Standard
100
AcDbAlignedDimension
 13
158.1062651669413
 23
194.3016107353229
 33
0.0
 14
313.1062651669413
 24
194.3016107353229
 34
0.0
100
AcDbRotatedDimension
1001
ACAD
1000
DSTYLE
1002
{
1070
    40
1040
2.0
1070
    41
1040
3.5
1070
    42
1040
1.0
1070
    43
1040
7.0
1070
    44
1040
1.0
1070
    73
1070
     0
1070
    74
1070
     0
1070
    77
1070
     1
1070
    78
1070
     8
1070
    79
1070
     2
1070
   140
1040
3.5
1070
   141
1040
1.5
1070
   146
1040
0.5
1070
   147
1040
1.5
1070
   172
1070
     1
1070
   178
1070
     1
1070
   179
1070
     2
1070
   271
1070
     2
1070
   272
1070
     2
1070
   284
1070
     8
1070
   285
1070
     8
1070
   286
1070
     8
1002
}
  0
DIMENSION
  5
1DD2
330
1E
100
AcDbEntity
  8
BEM
100
AcDbDimension
  2
*D3
 10
232.1072651669413
 20
385.3350256659671
 30
0.0
 11
213.2405985002746
 21
385.3350256659671
 31
0.0
 70
   160
 71
     5
 42
7.0
  3
Standard
100
AcDbAlignedDimension
 13
239.1072651669412
 23
385.2776196647324
 33
0.0
 14
232.1072651669413
 24
385.2776196647324
 34
0.0
100
AcDbRotatedDimension
1001
ACAD
1000
DSTYLE
1002
{
1070
    40
1040
2.0
1070
    41
1040
3.5
1070
    42
1040
1.0
1070
    43
1040
7.0
1070
    44
1040
1.0
1070
    73
1070
     0
1070
    74
1070
     0
1070
    77
1070
     1
1070
    78
1070
     8
1070
    79
1070
     2
1070
   140
1040
3.5
1070
   141
1040
1.5
1070
   146
1040
0.5
1070
   147
1040
1.5
1070
   172
1070
     1
1070
   178
1070
     1
1070
   179
1070
     2
1070
   271
1070
     2
1070
   272
1070
     2
1070
   284
1070
     8
1070
   285
1070
     8
1070
   286
1070
     8
1002
}
  0
LWPOLYLINE
  5
1DD3
330
1E
100
AcDbEntity
  8
BEM
 62
     1
100
AcDbPolyline
 90
        4
 70
     1
 43
0.0
 10
201.9330242803667
 20
395.4839628064398
 10
201.9330242803667
 20
388.4839628064398
 10
208.9330242803667
 20
388.4839628064398
 10
208.9330242803667
 20
395.4839628064398
  0
DIMENSION
  5
1E30
330
1E
100
AcDbEntity
  8
BEM
100
AcDbDimension
  2
*D4
 10
144.5527488069492
 20
441.5419154265552
 30
0.0
 11
138.0527488069492
 21
339.0419154265553
 31
0.0
 70
    32
  1
303
 71
     5
 42
205.0
  3
Standard
100
AcDbAlignedDimension
 13
235.6072651669413
 23
236.5419154265552
 33
0.0
 14
225.1072651669413
 24
441.5419154265552
 34
0.0
 50
90.0
100
AcDbRotatedDimension
1001
ACAD
1000
DSTYLE
1002
{
1070
    40
1040
2.0
1070
    41
1040
3.5
1070
    42
1040
1.0
1070
    43
1040
7.0
1070
    44
1040
1.0
1070
    73
1070
     0
1070
    74
1070
     0
1070
    77
1070
     1
1070
    78
1070
     8
1070
    79
1070
     2
1070
   140
1040
3.5
1070
   141
1040
1.5
1070
   146
1040
0.5
1070
   147
1040
1.5
1070
   172
1070
     1
1070
   178
1070
     1
1070
   179
1070
     2
1070
   271
1070
     2
1070
   272
1070
     2
1070
   284
1070
     8
1070
   285
1070
     8
1070
   286
1070
     8
1002
}
  0
DIMENSION
  5
1E3D
330
1E
100
AcDbEntity
  8
BEM
100
AcDbDimension
  2
*D5
 10
144.5527488069492
 20
511.0419154265553
 30
0.0
 11
138.0527488069492
 21
529.9085820932219
 31
0.0
 70
    32
 71
     5
 42
3.0
  3
Standard
100
AcDbAlignedDimension
 13
158.1062651669413
 23
508.0419154265553
 33
0.0
 14
158.1062651669413
 24
511.0419154265553
 34
0.0
 50
90.0
100
AcDbRotatedDimension
1001
ACAD
1000
DSTYLE
1002
{
1070
    40
1040
2.0
1070
    41
1040
3.5
1070
    42
1040
1.0
1070
    43
1040
7.0
1070
    44
1040
1.0
1070
    73
1070
     0
1070
    74
1070
     0
1070
    77
1070
     1
1070
    78
1070
     8
1070
    79
1070
     2
1070
   140
1040
3.5
1070
   141
1040
1.5
1070
   146
1040
0.5
1070
   147
1040
1.5
1070
   172
1070
     1
1070
   178
1070
     1
1070
   179
1070
     2
1070
   271
1070
     2
1070
   272
1070
     2
1070
   284
1070
     8
1070
   285
1070
     8
1070
   286
1070
     8
1002
}
  0
DIMENSION
  5
1E4C
330
1E
100
AcDbEntity
  8
BEM
100
AcDbDimension
  2
*D6
 10
128.2164721398844
 20
563.5419154265552
 30
0.0
 11
121.7164721398843
 21
400.0419154265553
 31
0.0
 70
    32
  1
425
 71
     5
 42
327.0
  3
Standard
100
AcDbAlignedDimension
 13
235.6072651669413
 23
236.5419154265552
 33
0.0
 14
235.6072651669413
 24
563.5419154265552
 34
0.0
 50
90.0
100
AcDbRotatedDimension
1001
ACAD
1000
DSTYLE
1002
{
1070
    40
1040
2.0
1070
    41
1040
3.5
1070
    42
1040
1.0
1070
    43
1040
7.0
1070
    44
1040
1.0
1070
    73
1070
     0
1070
    74
1070
     0
1070
    77
1070
     1
1070
    78
1070
     8
1070
    79
1070
     2
1070
   140
1040
3.5
1070
   141
1040
1.5
1070
   146
1040
0.5
1070
   147
1040
1.5
1070
   172
1070
     1
1070
   178
1070
     1
1070
   179
1070
     2
1070
   271
1070
     2
1070
   272
1070
     2
1070
   284
1070
     8
1070
   285
1070
     8
1070
   286
1070
     8
1002
}
  0
DIMENSION
  5
1E5A
330
1E
100
AcDbEntity
  8
BEM
100
AcDbDimension
  2
*D7
 10
267.6971646084148
 20
549.1808632797857
 30
0.0
 11
249.4656327723493
 21
526.5803342373855
 31
0.0
 70
   161
 71
     5
 42
101.9999999980676
  3
Standard
100
AcDbAlignedDimension
 13
203.5860071080471
 23
469.8475955265279
 33
0.0
 14
267.628034545069
 24
549.236629538547
 34
0.0
1001
ACAD
1000
DSTYLE
1002
{
1070
    40
1040
2.0
1070
    41
1040
3.5
1070
    42
1040
1.0
1070
    43
1040
7.0
1070
    44
1040
1.0
1070
    73
1070
     0
1070
    74
1070
     0
1070
    77
1070
     1
1070
    78
1070
     8
1070
    79
1070
     2
1070
   140
1040
3.5
1070
   141
1040
1.5
1070
   146
1040
0.5
1070
   147
1040
1.5
1070
   172
1070
     1
1070
   178
1070
     1
1070
   179
1070
     2
1070
   271
1070
     2
1070
   272
1070
     2
1070
   284
1070
     8
1070
   285
1070
     8
1070
   286
1070
     8
1002
}
  0
DIMENSION
  5
1EFA
330
1E
100
AcDbEntity
  8
BEM
100
AcDbDimension
  2
*D8
 10
141.2059944279053
 20
181.801595476361
 30
0.0
 11
134.7059944279053
 21
194.3015954763581
 31
0.0
 70
    32
 71
     5
 42
24.99999999999423
  3
Standard
100
AcDbAlignedDimension
 13
161.4556212625684
 23
206.8015954763553
 33
0.0
 14
161.4556388821032
 24
181.801595476361
 34
0.0
 50
90.0
100
AcDbRotatedDimension
1001
ACAD
1000
DSTYLE
1002
{
1070
    40
1040
2.0
1070
    41
1040
3.5
1070
    42
1040
1.0
1070
    43
1040
7.0
1070
    44
1040
1.0
1070
    73
1070
     0
1070
    74
1070
     0
1070
    77
1070
     1
1070
    78
1070
     8
1070
    79
1070
     2
1070
   140
1040
3.5
1070
   141
1040
1.5
1070
   146
1040
0.5
1070
   147
1040
1.5
1070
   172
1070
     1
1070
   178
1070
     1
1070
   179
1070
     2
1070
   271
1070
     2
1070
   272
1070
     2
1070
   284
1070
     8
1070
   285
1070
     8
1070
   286
1070
     8
1002
}
  0
TEXT
  5
1F12
330
1E
100
AcDbEntity
  8
TEXT
 62
     1
100
AcDbText
 10
227.8365522679116
 20
115.6405708316599
 30
0.0
 40
7.0
  1
Werkstoff: St37 Dickschichtpassiviert
 41
0.8
  7
GREEKS
100
AcDbText
  0
DIMENSION
  5
1FA8
330
1E
100
AcDbEntity
  8
BEM
100
AcDbDimension
  2
*D9
 10
326.5786413404673
 20
506.0419154265552
 30
0.0
 11
320.0786413404673
 21
487.1752487598887
 31
0.0
 70
    32
 71
     5
 42
2.0
  3
Standard
100
AcDbAlignedDimension
 13
313.1062651669413
 23
508.0419154265553
 33
0.0
 14
313.1062651669413
 24
506.0419154265552
 34
0.0
 50
90.0
100
AcDbRotatedDimension
1001
ACAD
1000
DSTYLE
1002
{
1070
    40
1040
2.0
1070
    41
1040
3.5
1070
    42
1040
1.0
1070
    43
1040
7.0
1070
    44
1040
1.0
1070
    73
1070
     0
1070
    74
1070
     0
1070
    77
1070
     1
1070
    78
1070
     8
1070
    79
1070
     2
1070
   140
1040
3.5
1070
   141
1040
1.5
1070
   146
1040
0.5
1070
   147
1040
1.5
1070
   172
1070
     1
1070
   178
1070
     1
1070
   179
1070
     2
1070
   271
1070
     2
1070
   272
1070
     2
1070
   284
1070
     8
1070
   285
1070
     8
1070
   286
1070
     8
1002
}
  0
LINE
  5
206A
330
1E
100
AcDbEntity
  8
MITTEL
100
AcDbLine
 10
229.6072651669413
 20
333.7107646831089
 30
0.0
 11
241.6072651669413
 21
336.9261549922824
 31
0.0
  0
LINE
  5
206B
330
1E
100
AcDbEntity
  8
MITTEL
100
AcDbLine
 10
229.6072651669413
 20
336.8165932243392
 30
0.0
 11
241.6072651669413
 21
340.0319835335126
 31
0.0
  0
LINE
  5
206C
330
1E
100
AcDbEntity
  8
STEMPEL
100
AcDbLine
 10
232.1072651669413
 20
337.4864662054171
 30
0.0
 11
232.1072651669413
 21
438.2919154265552
 31
0.0
  0
LINE
  5
206D
330
1E
100
AcDbEntity
  8
STEMPEL
100
AcDbLine
 10
239.1072651669413
 20
339.3621105524349
 30
0.0
 11
239.1072651669412
 21
438.2919154265552
 31
0.0
  0
ENDSEC
  0
SECTION
  2
OBJECTS
  0
DICTIONARY
  5
C
330
0
100
AcDbDictionary
281
     1
  3
ACAD_COLOR
350
DF
  3
ACAD_GROUP
350
D
  3
ACAD_LAYOUT
350
19
  3
ACAD_MATERIAL
350
DE
  3
ACAD_MLINESTYLE
350
16
  3
ACAD_PLOTSETTINGS
350
18
  3
ACAD_PLOTSTYLENAME
350
E
  3
AcDbVariableDictionary
350
EA
  0
DICTIONARY
  5
A0
330
1E
100
AcDbDictionary
280
     1
281
     1
  3
ACAD_LAYOUTSELFREF
360
D4
  0
DICTIONARY
  5
A2
330
1A
100
AcDbDictionary
280
     1
281
     1
  3
ACAD_LAYOUTSELFREF
360
D3
  0
DICTIONARY
  5
DF
102
{ACAD_REACTORS
330
C
102
}
330
C
100
AcDbDictionary
281
     1
  0
DICTIONARY
  5
D
102
{ACAD_REACTORS
330
C
102
}
330
C
100
AcDbDictionary
281
     1
  0
DICTIONARY
  5
19
102
{ACAD_REACTORS
330
C
102
}
330
C
100
AcDbDictionary
281
     1
  3
Layout1
350
1D
  3
Model
350
21
  0
DICTIONARY
  5
DE
102
{ACAD_REACTORS
330
C
102
}
330
C
100
AcDbDictionary
281
     1
  0
DICTIONARY
  5
16
102
{ACAD_REACTORS
330
C
102
}
330
C
100
AcDbDictionary
281
     1
  3
Standard
350
17
  0
DICTIONARY
  5
18
102
{ACAD_REACTORS
330
C
102
}
330
C
100
AcDbDictionary
281
     1
  0
ACDBDICTIONARYWDFLT
  5
E
102
{ACAD_REACTORS
330
C
102
}
330
C
100
AcDbDictionary
281
     1
  3
Normal
350
F
100
AcDbDictionaryWithDefault
340
F
  0
DICTIONARY
  5
EA
102
{ACAD_REACTORS
330
C
102
}
330
C
100
AcDbDictionary
281
     1
  3
DIMASSOC
350
EB
  3
PROJECTNAME
350
EC
  0
XRECORD
  5
D4
102
{ACAD_REACTORS
330
A0
102
}
330
A0
100
AcDbXrecord
280
     1
340
1E
  0
XRECORD
  5
D3
102
{ACAD_REACTORS
330
A2
102
}
330
A2
100
AcDbXrecord
280
     1
340
1A
  0
LAYOUT
  5
1D
102
{ACAD_REACTORS
330
19
102
}
330
19
100
AcDbPlotSettings
  1

  2
\\NT_WORK01\HP LaserJet 5000 PCL 6
  4

  6

 40
0.0
 41
0.0
 42
0.0
 43
0.0
 44
0.0
 45
0.0
 46
0.0
 47
0.0
 48
0.0
 49
0.0
140
0.0
141
0.0
142
1.0
143
1.0
 70
   688
 72
     0
 73
     0
 74
     5
  7

 75
    16
147
1.0
 76
     0
 77
     2
 78
   300
148
0.0
149
0.0
100
AcDbLayout
  1
Layout1
 70
     0
 71
     1
 10
0.0
 20
0.0
 11
12.0
 21
9.0
 12
0.0
 22
0.0
 32
0.0
 14
1.000000000000000E+20
 24
1.000000000000000E+20
 34
1.000000000000000E+20
 15
-1.000000000000000E+20
 25
-1.000000000000000E+20
 35
-1.000000000000000E+20
146
0.0
 13
0.0
 23
0.0
 33
0.0
 16
1.0
 26
0.0
 36
0.0
 17
0.0
 27
1.0
 37
0.0
 76
     0
330
1A
  0
LAYOUT
  5
21
102
{ACAD_REACTORS
330
19
102
}
330
19
100
AcDbPlotSettings
  1

  2
none_device
  4
Letter_(8.50_x_11.00_Inches)
  6

 40
6.349999904632568
 41
6.349999904632568
 42
6.350006103515625
 43
6.350006103515625
 44
215.8999938964844
 45
279.3999938964844
 46
0.0
 47
0.0
 48
0.0
 49
0.0
140
0.0
141
0.0
142
1.0
143
1.0
 70
 11952
 72
     0
 73
     1
 74
     0
  7

 75
     0
147
1.0
 76
     0
 77
     2
 78
   300
148
-230.4417396561563
149
47.00486644638983
100
AcDbLayout
  1
Model
 70
     1
 71
     0
 10
0.0
 20
0.0
 11
12.0
 21
9.0
 12
0.0
 22
0.0
 32
0.0
 14
0.0
 24
0.0
 34
0.0
 15
0.0
 25
0.0
 35
0.0
146
0.0
 13
0.0
 23
0.0
 33
0.0
 16
1.0
 26
0.0
 36
0.0
 17
0.0
 27
1.0
 37
0.0
 76
     0
330
1E
  0
MLINESTYLE
  5
17
102
{ACAD_REACTORS
330
16
102
}
330
16
100
AcDbMlineStyle
  2
STANDARD
 70
     0
  3

 62
   256
 51
90.0
 52
90.0
 71
     2
 49
0.5
 62
   256
  6
BYLAYER
 49
-0.5
 62
   256
  6
BYLAYER
  0
ACDBPLACEHOLDER
  5
F
102
{ACAD_REACTORS
330
E
102
}
330
E
  0
DICTIONARYVAR
  5
EB
102
{ACAD_REACTORS
330
EA
102
}
330
EA
100
DictionaryVariables
280
     0
  1
1
  0
DICTIONARYVAR
  5
EC
102
{ACAD_REACTORS
330
EA
102
}
330
EA
100
DictionaryVariables
280
     0
  1

  0
ENDSEC
  0
EOF
