  0
SECTION
  2
HEADER
  9
$ACADVER
  1
AC1018
  9
$ACADMAINTVER
 70
     2
  9
$DWGCODEPAGE
  3
ANSI_1252
  9
$INSBASE
 10
0.0
 20
0.0
 30
0.0
  9
$EXTMIN
 10
-0.0160019244119667
 20
-0.0226312930976747
 30
-0.0000000000000129
  9
$EXTMAX
 10
420.0160227065394
 20
594.0226606849619
 30
0.0000000000000023
  9
$LIMMIN
 10
0.0
 20
0.0
  9
$LIMMAX
 10
419.9999999999999
 20
594.0
  9
$ORTHOMODE
 70
     1
  9
$REGENMODE
 70
     1
  9
$FILLMODE
 70
     1
  9
$QTEXTMODE
 70
     0
  9
$MIRRTEXT
 70
     1
  9
$LTSCALE
 40
20.0
  9
$ATTMODE
 70
     1
  9
$TEXTSIZE
 40
2.5
  9
$TRACEWID
 40
0.5
  9
$TEXTSTYLE
  7
GREEKS
  9
$CLAYER
  8
BEM
  9
$CELTYPE
  6
ByLayer
  9
$CECOLOR
 62
   256
  9
$CELTSCALE
 40
1.0
  9
$DISPSILH
 70
     0
  9
$DIMSCALE
 40
2.0
  9
$DIMASZ
 40
3.5
  9
$DIMEXO
 40
1.0
  9
$DIMDLI
 40
7.0
  9
$DIMRND
 40
0.0
  9
$DIMDLE
 40
0.0
  9
$DIMEXE
 40
1.0
  9
$DIMTP
 40
0.0
  9
$DIMTM
 40
0.0
  9
$DIMTXT
 40
3.5
  9
$DIMCEN
 40
1.5
  9
$DIMTSZ
 40
0.0
  9
$DIMTOL
 70
     0
  9
$DIMLIM
 70
     0
  9
$DIMTIH
 70
     0
  9
$DIMTOH
 70
     0
  9
$DIMSE1
 70
     0
  9
$DIMSE2
 70
     0
  9
$DIMTAD
 70
     1
  9
$DIMZIN
 70
     8
  9
$DIMBLK
  1

  9
$DIMASO
 70
     1
  9
$DIMSHO
 70
     0
  9
$DIMPOST
  1

  9
$DIMAPOST
  1

  9
$DIMALT
 70
     0
  9
$DIMALTD
 70
     2
  9
$DIMALTF
 40
25.4
  9
$DIMLFAC
 40
1.0
  9
$DIMTOFL
 70
     1
  9
$DIMTVP
 40
0.0
  9
$DIMTIX
 70
     0
  9
$DIMSOXD
 70
     0
  9
$DIMSAH
 70
     0
  9
$DIMBLK1
  1

  9
$DIMBLK2
  1

  9
$DIMSTYLE
  2
Standard
  9
$DIMCLRD
 70
     0
  9
$DIMCLRE
 70
     0
  9
$DIMCLRT
 70
     1
  9
$DIMTFAC
 40
0.5
  9
$DIMGAP
 40
1.5
  9
$DIMJUST
 70
     0
  9
$DIMSD1
 70
     0
  9
$DIMSD2
 70
     0
  9
$DIMTOLJ
 70
     1
  9
$DIMTZIN
 70
     8
  9
$DIMALTZ
 70
     8
  9
$DIMALTTZ
 70
     8
  9
$DIMUPT
 70
     0
  9
$DIMDEC
 70
     2
  9
$DIMTDEC
 70
     2
  9
$DIMALTU
 70
     2
  9
$DIMALTTD
 70
     2
  9
$DIMTXSTY
  7
STANDARD
  9
$DIMAUNIT
 70
     0
  9
$DIMADEC
 70
     2
  9
$DIMALTRND
 40
0.0
  9
$DIMAZIN
 70
     2
  9
$DIMDSEP
 70
    46
  9
$DIMATFIT
 70
     3
  9
$DIMFRAC
 70
     0
  9
$DIMLDRBLK
  1

  9
$DIMLUNIT
 70
     2
  9
$DIMLWD
 70
    -2
  9
$DIMLWE
 70
    -2
  9
$DIMTMOVE
 70
     0
  9
$LUNITS
 70
     2
  9
$LUPREC
 70
     2
  9
$SKETCHINC
 40
1.0
  9
$FILLETRAD
 40
0.0
  9
$AUNITS
 70
     0
  9
$AUPREC
 70
     0
  9
$MENU
  1
ACAD
  9
$ELEVATION
 40
0.0
  9
$PELEVATION
 40
0.0
  9
$THICKNESS
 40
0.0
  9
$LIMCHECK
 70
     0
  9
$CHAMFERA
 40
0.0
  9
$CHAMFERB
 40
0.0
  9
$CHAMFERC
 40
0.0
  9
$CHAMFERD
 40
0.0
  9
$SKPOLY
 70
     0
  9
$TDCREATE
 40
2455397.823042361
  9
$TDUCREATE
 40
2455397.781375695
  9
$TDUPDATE
 40
2456230.340211169
  9
$TDUUPDATE
 40
2456230.298544503
  9
$TDINDWG
 40
0.3493931829
  9
$TDUSRTIMER
 40
0.3493931829
  9
$USRTIMER
 70
     1
  9
$ANGBASE
 50
0.0
  9
$ANGDIR
 70
     0
  9
$PDMODE
 70
     0
  9
$PDSIZE
 40
0.0
  9
$PLINEWID
 40
0.0
  9
$SPLFRAME
 70
     0
  9
$SPLINETYPE
 70
     6
  9
$SPLINESEGS
 70
     8
  9
$HANDSEED
  5
2217
  9
$SURFTAB1
 70
     6
  9
$SURFTAB2
 70
     6
  9
$SURFTYPE
 70
     6
  9
$SURFU
 70
     6
  9
$SURFV
 70
     6
  9
$UCSBASE
  2

  9
$UCSNAME
  2

  9
$UCSORG
 10
0.0
 20
0.0
 30
0.0
  9
$UCSXDIR
 10
1.0
 20
0.0
 30
0.0
  9
$UCSYDIR
 10
0.0
 20
1.0
 30
0.0
  9
$UCSORTHOREF
  2

  9
$UCSORTHOVIEW
 70
     0
  9
$UCSORGTOP
 10
0.0
 20
0.0
 30
0.0
  9
$UCSORGBOTTOM
 10
0.0
 20
0.0
 30
0.0
  9
$UCSORGLEFT
 10
0.0
 20
0.0
 30
0.0
  9
$UCSORGRIGHT
 10
0.0
 20
0.0
 30
0.0
  9
$UCSORGFRONT
 10
0.0
 20
0.0
 30
0.0
  9
$UCSORGBACK
 10
0.0
 20
0.0
 30
0.0
  9
$PUCSBASE
  2

  9
$PUCSNAME
  2

  9
$PUCSORG
 10
0.0
 20
0.0
 30
0.0
  9
$PUCSXDIR
 10
1.0
 20
0.0
 30
0.0
  9
$PUCSYDIR
 10
0.0
 20
1.0
 30
0.0
  9
$PUCSORTHOREF
  2

  9
$PUCSORTHOVIEW
 70
     0
  9
$PUCSORGTOP
 10
0.0
 20
0.0
 30
0.0
  9
$PUCSORGBOTTOM
 10
0.0
 20
0.0
 30
0.0
  9
$PUCSORGLEFT
 10
0.0
 20
0.0
 30
0.0
  9
$PUCSORGRIGHT
 10
0.0
 20
0.0
 30
0.0
  9
$PUCSORGFRONT
 10
0.0
 20
0.0
 30
0.0
  9
$PUCSORGBACK
 10
0.0
 20
0.0
 30
0.0
  9
$USERI1
 70
     0
  9
$USERI2
 70
     0
  9
$USERI3
 70
     0
  9
$USERI4
 70
     0
  9
$USERI5
 70
     0
  9
$USERR1
 40
0.0
  9
$USERR2
 40
0.0
  9
$USERR3
 40
0.0
  9
$USERR4
 40
0.0
  9
$USERR5
 40
0.0
  9
$WORLDVIEW
 70
     1
  9
$SHADEDGE
 70
     3
  9
$SHADEDIF
 70
    70
  9
$TILEMODE
 70
     1
  9
$MAXACTVP
 70
    16
  9
$PINSBASE
 10
0.0
 20
0.0
 30
0.0
  9
$PLIMCHECK
 70
     0
  9
$PEXTMIN
 10
1.000000000000000E+20
 20
1.000000000000000E+20
 30
1.000000000000000E+20
  9
$PEXTMAX
 10
-1.000000000000000E+20
 20
-1.000000000000000E+20
 30
-1.000000000000000E+20
  9
$PLIMMIN
 10
0.0
 20
0.0
  9
$PLIMMAX
 10
12.0
 20
9.0
  9
$UNITMODE
 70
     0
  9
$VISRETAIN
 70
     0
  9
$PLINEGEN
 70
     0
  9
$PSLTSCALE
 70
     0
  9
$TREEDEPTH
 70
  3020
  9
$CMLSTYLE
  2
Standard
  9
$CMLJUST
 70
     0
  9
$CMLSCALE
 40
1.0
  9
$PROXYGRAPHICS
 70
     1
  9
$MEASUREMENT
 70
     0
  9
$CELWEIGHT
370
    -1
  9
$ENDCAPS
280
     0
  9
$JOINSTYLE
280
     0
  9
$LWDISPLAY
290
     0
  9
$INSUNITS
 70
     0
  9
$HYPERLINKBASE
  1

  9
$STYLESHEET
  1
monochrome 1.ctb
  9
$XEDIT
290
     1
  9
$CEPSNTYPE
380
     0
  9
$PSTYLEMODE
290
     1
  9
$FINGERPRINTGUID
  2
{D68B0D02-A558-11D7-B632-000102183313}
  9
$VERSIONGUID
  2
{5A0C1587-265F-4471-9374-1E87D63729F6}
  9
$EXTNAMES
290
     1
  9
$PSVPSCALE
 40
0.0
  9
$OLESTARTUP
290
     0
  9
$SORTENTS
280
   127
  9
$INDEXCTL
280
     0
  9
$HIDETEXT
280
     0
  9
$XCLIPFRAME
290
     0
  9
$HALOGAP
280
     0
  9
$OBSCOLOR
 70
   257
  9
$OBSLTYPE
280
     0
  9
$INTERSECTIONDISPLAY
280
     0
  9
$INTERSECTIONCOLOR
 70
   257
  9
$DIMASSOC
280
     1
  9
$PROJECTNAME
  1

  0
ENDSEC
  0
SECTION
  2
CLASSES
  0
CLASS
  1
ACDBDICTIONARYWDFLT
  2
AcDbDictionaryWithDefault
  3
ObjectDBX Classes
 90
        0
 91
        1
280
     0
281
     0
  0
CLASS
  1
DICTIONARYVAR
  2
AcDbDictionaryVar
  3
ObjectDBX Classes
 90
        0
 91
        2
280
     0
281
     0
  0
ENDSEC
  0
SECTION
  2
TABLES
  0
TABLE
  2
VPORT
  5
8
330
0
100
AcDbSymbolTable
 70
     3
  0
VPORT
  5
2216
330
8
100
AcDbSymbolTableRecord
100
AcDbViewportTableRecord
  2
*Active
 70
     0
 10
0.0
 20
0.0
 11
1.0
 21
1.0
 12
209.9999999999999
 22
297.0
 13
0.0
 23
0.0
 14
1.0
 24
1.0
 15
10.0
 25
10.0
 16
0.0
 26
0.0
 36
1.0
 17
0.0
 27
0.0
 37
0.0
 40
594.2320476305747
 41
1.404858299595141
 42
50.0
 43
0.0
 44
0.0
 50
0.0
 51
0.0
 71
     0
 72
  1500
 73
     1
 74
     0
 75
     0
 76
     0
 77
     0
 78
     0
281
     0
 65
     1
110
0.0
120
0.0
130
0.0
111
1.0
121
0.0
131
0.0
112
0.0
122
1.0
132
0.0
 79
     0
146
0.0
  0
ENDTAB
  0
TABLE
  2
LTYPE
  5
5
330
0
100
AcDbSymbolTable
 70
     2
  0
LTYPE
  5
13
330
5
100
AcDbSymbolTableRecord
100
AcDbLinetypeTableRecord
  2
ByBlock
 70
     0
  3

 72
    65
 73
     0
 40
0.0
  0
LTYPE
  5
14
330
5
100
AcDbSymbolTableRecord
100
AcDbLinetypeTableRecord
  2
ByLayer
 70
     0
  3

 72
    65
 73
     0
 40
0.0
  0
LTYPE
  5
15
330
5
100
AcDbSymbolTableRecord
100
AcDbLinetypeTableRecord
  2
Continuous
 70
     0
  3
Solid line
 72
    65
 73
     0
 40
0.0
  0
LTYPE
  5
25
330
5
100
AcDbSymbolTableRecord
100
AcDbLinetypeTableRecord
  2
STRICHPUNKT
 70
     0
  3
__ . __ . __ . __ . __ . __ . __ . __ . __ . __
 72
    65
 73
     4
 40
1.0
 49
0.5
 74
     0
 49
-0.25
 74
     0
 49
0.0
 74
     0
 49
-0.25
 74
     0
  0
ENDTAB
  0
TABLE
  2
LAYER
  5
2
330
0
100
AcDbSymbolTable
 70
     8
  0
LAYER
  5
10
330
2
100
AcDbSymbolTableRecord
100
AcDbLayerTableRecord
  2
0
 70
     0
 62
     7
  6
Continuous
370
    -3
390
F
  0
LAYER
  5
2A
330
2
100
AcDbSymbolTableRecord
100
AcDbLayerTableRecord
  2
VOLL
 70
     0
 62
     1
  6
Continuous
370
    -3
390
F
  0
LAYER
  5
2B
330
2
100
AcDbSymbolTableRecord
100
AcDbLayerTableRecord
  2
HILF
 70
     0
 62
     2
  6
Continuous
370
    -3
390
F
  0
LAYER
  5
2C
330
2
100
AcDbSymbolTableRecord
100
AcDbLayerTableRecord
  2
MITTEL
 70
     0
 62
     2
  6
STRICHPUNKT
370
    -3
390
F
  0
LAYER
  5
2F
330
2
100
AcDbSymbolTableRecord
100
AcDbLayerTableRecord
  2
BEM
 70
     0
 62
     7
  6
Continuous
370
    -3
390
F
  0
LAYER
  5
30
330
2
100
AcDbSymbolTableRecord
100
AcDbLayerTableRecord
  2
STEMPEL
 70
     0
 62
     3
  6
Continuous
370
    -3
390
F
  0
LAYER
  5
31
330
2
100
AcDbSymbolTableRecord
100
AcDbLayerTableRecord
  2
TEXT
 70
     0
 62
     7
  6
Continuous
370
    -3
390
F
  0
LAYER
  5
1A8
330
2
100
AcDbSymbolTableRecord
100
AcDbLayerTableRecord
  2
Defpoints
 70
     0
 62
     7
  6
Continuous
290
     0
370
    -3
390
F
  0
ENDTAB
  0
TABLE
  2
STYLE
  5
3
330
0
100
AcDbSymbolTable
 70
     2
  0
STYLE
  5
11
330
3
100
AcDbSymbolTableRecord
100
AcDbTextStyleTableRecord
  2
STANDARD
 70
     0
 40
0.0
 41
0.8
 50
0.0
 71
     0
 42
3.5
  3
simplex.shx
  4

  0
STYLE
  5
24
330
3
100
AcDbSymbolTableRecord
100
AcDbTextStyleTableRecord
  2
GREEKS
 70
     0
 40
0.0
 41
0.8
 50
0.0
 71
     0
 42
2.5
  3
SIMPLEX.shx
  4

  0
ENDTAB
  0
TABLE
  2
VIEW
  5
6
330
0
100
AcDbSymbolTable
 70
     0
  0
ENDTAB
  0
TABLE
  2
UCS
  5
7
330
0
100
AcDbSymbolTable
 70
     0
  0
ENDTAB
  0
TABLE
  2
APPID
  5
9
330
0
100
AcDbSymbolTable
 70
     1
  0
APPID
  5
12
330
9
100
AcDbSymbolTableRecord
100
AcDbRegAppTableRecord
  2
ACAD
 70
     0
  0
ENDTAB
  0
TABLE
  2
DIMSTYLE
  5
A
330
0
100
AcDbSymbolTable
 70
     1
100
AcDbDimStyleTable
 71
     1
340
9D
  0
DIMSTYLE
105
9D
102
{ACAD_REACTORS
330
1DD2
330
20BE
330
20CB
330
20E8
330
210C
330
2119
330
2128
330
21F4
102
}
330
A
100
AcDbSymbolTableRecord
100
AcDbDimStyleTableRecord
  2
Standard
 70
     0
340
11
  0
ENDTAB
  0
TABLE
  2
BLOCK_RECORD
  5
1
330
0
100
AcDbSymbolTable
 70
     9
  0
BLOCK_RECORD
  5
1E
102
{ACAD_XDICTIONARY
360
A0
102
}
330
1
100
AcDbSymbolTableRecord
100
AcDbBlockTableRecord
  2
*Model_Space
340
21
  0
BLOCK_RECORD
  5
1A
102
{ACAD_XDICTIONARY
360
A2
102
}
330
1
100
AcDbSymbolTableRecord
100
AcDbBlockTableRecord
  2
*Paper_Space
340
1D
  0
BLOCK_RECORD
  5
22
330
1
100
AcDbSymbolTableRecord
100
AcDbBlockTableRecord
  2
LOGO
340
0
102
{BLKREFS
331
9B
102
}
  0
BLOCK_RECORD
  5
1DD4
330
1
100
AcDbSymbolTableRecord
100
AcDbBlockTableRecord
  2
*D1
340
0
  0
BLOCK_RECORD
  5
20BF
330
1
100
AcDbSymbolTableRecord
100
AcDbBlockTableRecord
  2
*D2
340
0
  0
BLOCK_RECORD
  5
20CC
330
1
100
AcDbSymbolTableRecord
100
AcDbBlockTableRecord
  2
*D3
340
0
  0
BLOCK_RECORD
  5
20E9
330
1
100
AcDbSymbolTableRecord
100
AcDbBlockTableRecord
  2
*D4
340
0
  0
BLOCK_RECORD
  5
210D
330
1
100
AcDbSymbolTableRecord
100
AcDbBlockTableRecord
  2
*D5
340
0
  0
BLOCK_RECORD
  5
211A
330
1
100
AcDbSymbolTableRecord
100
AcDbBlockTableRecord
  2
*D6
340
0
  0
BLOCK_RECORD
  5
2129
330
1
100
AcDbSymbolTableRecord
100
AcDbBlockTableRecord
  2
*D7
340
0
  0
BLOCK_RECORD
  5
21F5
330
1
100
AcDbSymbolTableRecord
100
AcDbBlockTableRecord
  2
*D8
340
0
  0
ENDTAB
  0
ENDSEC
  0
SECTION
  2
BLOCKS
  0
BLOCK
  5
35
330
1E
100
AcDbEntity
  8
0
100
AcDbBlockBegin
  2
*Model_Space
 70
     0
 10
0.0
 20
0.0
 30
0.0
  3
*Model_Space
  1

  0
ENDBLK
  5
36
330
1E
100
AcDbEntity
  8
0
100
AcDbBlockEnd
  0
BLOCK
  5
33
330
1A
100
AcDbEntity
 67
     1
  8
0
100
AcDbBlockBegin
  2
*Paper_Space
 70
     0
 10
0.0
 20
0.0
 30
0.0
  3
*Paper_Space
  1

  0
ENDBLK
  5
34
330
1A
100
AcDbEntity
 67
     1
  8
0
100
AcDbBlockEnd
  0
BLOCK
  5
37
330
22
100
AcDbEntity
  8
0
100
AcDbBlockBegin
  2
LOGO
 70
     0
 10
0.0
 20
0.0
 30
0.0
  3
LOGO
  1

  0
ARC
  5
38
330
22
100
AcDbEntity
  8
0
100
AcDbCircle
 10
11.59973089678112
 20
-9.271599258481501
 30
0.0
 40
4.5
100
AcDbArc
 50
270.0
 51
231.0575587310159
  0
LINE
  5
39
330
22
100
AcDbEntity
  8
0
100
AcDbLine
 10
3.599730896781125
 20
-4.771599258481529
 30
0.0
 11
3.599730896781153
 21
-11.77159925848133
 31
0.0
  0
LINE
  5
3A
330
22
100
AcDbEntity
  8
0
100
AcDbLine
 10
2.599730896781125
 20
-4.771599258481529
 30
0.0
 11
2.599730896781153
 21
-11.77159925848133
 31
0.0
  0
CIRCLE
  5
3B
330
22
100
AcDbEntity
  8
0
100
AcDbCircle
 10
11.59973089678112
 20
-9.271599258481501
 30
0.0
 40
3.5
  0
ARC
  5
3C
330
22
100
AcDbEntity
  8
0
100
AcDbCircle
 10
31.59973089678115
 20
-9.271599258481472
 30
0.0
 40
4.5
100
AcDbArc
 50
270.0
 51
231.0575587310182
  0
LINE
  5
3D
330
22
100
AcDbEntity
  8
0
100
AcDbLine
 10
17.59973089678112
 20
-4.771599258481472
 30
0.0
 11
17.59973089678115
 21
-13.77159925848147
 31
0.0
  0
ARC
  5
3E
330
22
100
AcDbEntity
  8
0
100
AcDbCircle
 10
22.59973089678116
 20
-7.271599258481472
 30
0.0
 40
2.5
100
AcDbArc
 50
293.1161887722295
 51
90.0
  0
CIRCLE
  5
3F
330
22
100
AcDbEntity
  8
0
100
AcDbCircle
 10
31.59973089678115
 20
-9.271599258481472
 30
0.0
 40
3.5
  0
ARC
  5
40
330
22
100
AcDbEntity
  8
0
100
AcDbCircle
 10
4.599730896781153
 20
-11.77159925848133
 30
0.0
 40
1.0
100
AcDbArc
 50
180.0
 51
270.0
  0
ARC
  5
41
330
22
100
AcDbEntity
  8
0
100
AcDbCircle
 10
4.599730896781153
 20
-11.77159925848133
 30
0.0
 40
2.0
100
AcDbArc
 50
179.9999999999992
 51
270.0
  0
LINE
  5
42
330
22
100
AcDbEntity
  8
0
100
AcDbLine
 10
11.59973089678115
 20
-13.77159925848144
 30
0.0
 11
4.599730896781153
 21
-13.77159925848147
 31
0.0
  0
LINE
  5
43
330
22
100
AcDbEntity
  8
0
100
AcDbLine
 10
8.771303772034769
 20
-12.77159925848136
 30
0.0
 11
4.599730896781153
 21
-12.77159925848133
 31
0.0
  0
LINE
  5
44
330
22
100
AcDbEntity
  8
0
100
AcDbLine
 10
31.59973089678115
 20
-13.77159925848147
 30
0.0
 11
23.6715276665056
 21
-13.77159925848144
 31
0.0
  0
LINE
  5
45
330
22
100
AcDbEntity
  8
0
100
AcDbLine
 10
23.56565672307022
 20
-9.51278021337896
 30
0.0
 11
24.4388546544846
 21
-12.77159925848144
 31
0.0
  0
LINE
  5
46
330
22
100
AcDbEntity
  8
0
100
AcDbLine
 10
22.59973089678116
 20
-9.771599258481472
 30
0.0
 11
18.59973089678112
 21
-9.771599258481472
 31
0.0
  0
LINE
  5
47
330
22
100
AcDbEntity
  8
0
100
AcDbLine
 10
18.59973089678115
 20
-13.77159925848144
 30
0.0
 11
17.59973089678115
 21
-13.77159925848144
 31
0.0
  0
LINE
  5
48
330
22
100
AcDbEntity
  8
0
100
AcDbLine
 10
18.59973089678115
 20
-9.771599258481472
 30
0.0
 11
18.59973089678115
 21
-13.77159925848144
 31
0.0
  0
LINE
  5
49
330
22
100
AcDbEntity
  8
0
100
AcDbLine
 10
22.59973089678116
 20
-9.771599258481472
 30
0.0
 11
23.67152766650562
 21
-13.77159925848147
 31
0.0
  0
ARC
  5
4A
330
22
100
AcDbEntity
  8
0
100
AcDbCircle
 10
22.59973089678116
 20
-7.271599258481472
 30
0.0
 40
2.5
100
AcDbArc
 50
270.0
 51
270.0000000000007
  0
LINE
  5
4B
330
22
100
AcDbEntity
  8
0
100
AcDbLine
 10
28.77130377203494
 20
-12.77159925848147
 30
0.0
 11
24.43885465448463
 21
-12.77159925848144
 31
0.0
  0
LINE
  5
4C
330
22
100
AcDbEntity
  8
0
100
AcDbLine
 10
3.599730896781125
 20
-4.771599258481472
 30
0.0
 11
2.599730896781125
 21
-4.771599258481472
 31
0.0
  0
LINE
  5
4D
330
22
100
AcDbEntity
  8
0
100
AcDbLine
 10
22.59973089678116
 20
-8.771599258481472
 30
0.0
 11
18.59973089678115
 21
-8.771599258481472
 31
0.0
  0
LINE
  5
4E
330
22
100
AcDbEntity
  8
0
100
AcDbLine
 10
22.59973089678116
 20
-5.771599258481472
 30
0.0
 11
18.59973089678115
 21
-5.771599258481472
 31
0.0
  0
LINE
  5
4F
330
22
100
AcDbEntity
  8
0
100
AcDbLine
 10
22.59973089678116
 20
-4.771599258481472
 30
0.0
 11
17.59973089678115
 21
-4.771599258481472
 31
0.0
  0
LINE
  5
50
330
22
100
AcDbEntity
  8
0
100
AcDbLine
 10
18.59973089678115
 20
-5.771599258481472
 30
0.0
 11
18.59973089678115
 21
-8.771599258481472
 31
0.0
  0
ARC
  5
51
330
22
100
AcDbEntity
  8
0
100
AcDbCircle
 10
22.59973089678116
 20
-7.271599258481472
 30
0.0
 40
1.5
100
AcDbArc
 50
270.0
 51
90.0
  0
ENDBLK
  5
52
330
22
100
AcDbEntity
  8
0
100
AcDbBlockEnd
  0
BLOCK
  5
1DE0
330
1DD4
100
AcDbEntity
  8
0
100
AcDbBlockBegin
  2
*D1
 70
     1
 10
0.0
 20
0.0
 30
0.0
  3
*D1
  1

  0
LINE
  5
21BB
330
1DD4
100
AcDbEntity
  8
BEM
 62
     0
370
    -2
100
AcDbLine
 10
226.024317299783
 20
330.936266965265
 30
0.0
 11
226.024317299783
 21
330.9936729664997
 31
0.0
  0
LINE
  5
21BC
330
1DD4
100
AcDbEntity
  8
BEM
 62
     0
370
    -2
100
AcDbLine
 10
219.024317299783
 20
330.936266965265
 30
0.0
 11
219.024317299783
 21
330.9936729664997
 31
0.0
  0
LINE
  5
21BD
330
1DD4
100
AcDbEntity
  8
BEM
 62
     0
370
    -2
100
AcDbLine
 10
233.024317299783
 20
328.9936729664997
 30
0.0
 11
240.024317299783
 21
328.9936729664997
 31
0.0
  0
LINE
  5
21BE
330
1DD4
100
AcDbEntity
  8
BEM
 62
     0
370
    -2
100
AcDbLine
 10
212.024317299783
 20
328.9936729664997
 30
0.0
 11
195.2909839664496
 21
328.9936729664997
 31
0.0
  0
LINE
  5
21BF
330
1DD4
100
AcDbEntity
  8
BEM
 62
     0
370
    -2
100
AcDbLine
 10
226.024317299783
 20
328.9936729664997
 30
0.0
 11
219.024317299783
 21
328.9936729664997
 31
0.0
  0
SOLID
  5
21C0
330
1DD4
100
AcDbEntity
  8
BEM
 62
     0
100
AcDbTrace
 10
233.024317299783
 20
330.1603396331663
 30
0.0
 11
233.024317299783
 21
327.827006299833
 31
0.0
 12
226.024317299783
 22
328.9936729664997
 32
0.0
 13
226.024317299783
 23
328.9936729664997
 33
0.0
  0
SOLID
  5
21C1
330
1DD4
100
AcDbEntity
  8
BEM
 62
     0
100
AcDbTrace
 10
212.024317299783
 20
330.1603396331663
 30
0.0
 11
212.024317299783
 21
327.827006299833
 31
0.0
 12
219.024317299783
 22
328.9936729664997
 32
0.0
 13
219.024317299783
 23
328.9936729664997
 33
0.0
  0
MTEXT
  5
21C2
330
1DD4
100
AcDbEntity
  8
BEM
 62
     1
100
AcDbMText
 10
200.1576506331163
 20
335.4936729664997
 30
0.0
 40
7.0
 41
0.0
 71
     5
 72
     1
  1
\A1;7
 73
     1
 44
1.0
  0
POINT
  5
21C3
330
1DD4
100
AcDbEntity
  8
Defpoints
 62
     0
100
AcDbPoint
 10
226.024317299783
 20
328.936266965265
 30
0.0
  0
POINT
  5
21C4
330
1DD4
100
AcDbEntity
  8
Defpoints
 62
     0
100
AcDbPoint
 10
219.024317299783
 20
328.936266965265
 30
0.0
  0
POINT
  5
21C5
330
1DD4
100
AcDbEntity
  8
Defpoints
 62
     0
100
AcDbPoint
 10
219.024317299783
 20
328.9936729664997
 30
0.0
  0
ENDBLK
  5
1DE1
330
1DD4
100
AcDbEntity
  8
0
100
AcDbBlockEnd
  0
BLOCK
  5
20C9
330
20BF
100
AcDbEntity
  8
0
100
AcDbBlockBegin
  2
*D2
 70
     1
 10
0.0
 20
0.0
 30
0.0
  3
*D2
  1

  0
LINE
  5
21CF
330
20BF
100
AcDbEntity
  8
BEM
 62
     0
370
    -2
100
AcDbLine
 10
141.524317299783
 20
179.3573420572463
 30
0.0
 11
141.524317299783
 21
157.0781479989934
 31
0.0
  0
LINE
  5
21D0
330
20BF
100
AcDbEntity
  8
BEM
 62
     0
370
    -2
100
AcDbLine
 10
303.524317299783
 20
179.3573420572463
 30
0.0
 11
303.524317299783
 21
157.0781479989934
 31
0.0
  0
LINE
  5
21D1
330
20BF
100
AcDbEntity
  8
BEM
 62
     0
370
    -2
100
AcDbLine
 10
148.524317299783
 20
159.0781479989934
 30
0.0
 11
296.524317299783
 21
159.0781479989934
 31
0.0
  0
SOLID
  5
21D2
330
20BF
100
AcDbEntity
  8
BEM
 62
     0
100
AcDbTrace
 10
148.524317299783
 20
160.2448146656601
 30
0.0
 11
148.524317299783
 21
157.9114813323268
 31
0.0
 12
141.524317299783
 22
159.0781479989934
 32
0.0
 13
141.524317299783
 23
159.0781479989934
 33
0.0
  0
SOLID
  5
21D3
330
20BF
100
AcDbEntity
  8
BEM
 62
     0
100
AcDbTrace
 10
296.524317299783
 20
160.2448146656601
 30
0.0
 11
296.524317299783
 21
157.9114813323268
 31
0.0
 12
303.524317299783
 22
159.0781479989934
 32
0.0
 13
303.524317299783
 23
159.0781479989934
 33
0.0
  0
MTEXT
  5
21D4
330
20BF
100
AcDbEntity
  8
BEM
 62
     1
100
AcDbMText
 10
222.524317299783
 20
165.5781479989935
 30
0.0
 40
7.0
 41
0.0
 71
     5
 72
     1
  1
\A1;162
 73
     1
 44
1.0
  0
POINT
  5
21D5
330
20BF
100
AcDbEntity
  8
Defpoints
 62
     0
100
AcDbPoint
 10
141.524317299783
 20
181.3573420572463
 30
0.0
  0
POINT
  5
21D6
330
20BF
100
AcDbEntity
  8
Defpoints
 62
     0
100
AcDbPoint
 10
303.524317299783
 20
181.3573420572463
 30
0.0
  0
POINT
  5
21D7
330
20BF
100
AcDbEntity
  8
Defpoints
 62
     0
100
AcDbPoint
 10
303.524317299783
 20
159.0781479989934
 30
0.0
  0
ENDBLK
  5
20CA
330
20BF
100
AcDbEntity
  8
0
100
AcDbBlockEnd
  0
BLOCK
  5
20D6
330
20CC
100
AcDbEntity
  8
0
100
AcDbBlockBegin
  2
*D3
 70
     1
 10
0.0
 20
0.0
 30
0.0
  3
*D3
  1

  0
LINE
  5
21C6
330
20CC
100
AcDbEntity
  8
BEM
 62
     0
370
    -2
100
AcDbLine
 10
131.024317299783
 20
190.8573420572463
 30
0.0
 11
131.024317299783
 21
141.5905264275359
 31
0.0
  0
LINE
  5
21C7
330
20CC
100
AcDbEntity
  8
BEM
 62
     0
370
    -2
100
AcDbLine
 10
314.024317299783
 20
190.8573420572463
 30
0.0
 11
314.024317299783
 21
141.5905264275359
 31
0.0
  0
LINE
  5
21C8
330
20CC
100
AcDbEntity
  8
BEM
 62
     0
370
    -2
100
AcDbLine
 10
138.0243172997829
 20
143.5905264275359
 30
0.0
 11
307.024317299783
 21
143.5905264275359
 31
0.0
  0
SOLID
  5
21C9
330
20CC
100
AcDbEntity
  8
BEM
 62
     0
100
AcDbTrace
 10
138.0243172997829
 20
144.7571930942025
 30
0.0
 11
138.0243172997829
 21
142.4238597608692
 31
0.0
 12
131.024317299783
 22
143.5905264275359
 32
0.0
 13
131.024317299783
 23
143.5905264275359
 33
0.0
  0
SOLID
  5
21CA
330
20CC
100
AcDbEntity
  8
BEM
 62
     0
100
AcDbTrace
 10
307.024317299783
 20
144.7571930942025
 30
0.0
 11
307.024317299783
 21
142.4238597608692
 31
0.0
 12
314.024317299783
 22
143.5905264275359
 32
0.0
 13
314.024317299783
 23
143.5905264275359
 33
0.0
  0
MTEXT
  5
21CB
330
20CC
100
AcDbEntity
  8
BEM
 62
     1
100
AcDbMText
 10
222.524317299783
 20
150.0905264275359
 30
0.0
 40
7.0
 41
0.0
 71
     5
 72
     1
  1
\A1;183
 73
     1
 44
1.0
  0
POINT
  5
21CC
330
20CC
100
AcDbEntity
  8
Defpoints
 62
     0
100
AcDbPoint
 10
131.024317299783
 20
192.8573420572463
 30
0.0
  0
POINT
  5
21CD
330
20CC
100
AcDbEntity
  8
Defpoints
 62
     0
100
AcDbPoint
 10
314.024317299783
 20
192.8573420572463
 30
0.0
  0
POINT
  5
21CE
330
20CC
100
AcDbEntity
  8
Defpoints
 62
     0
100
AcDbPoint
 10
314.024317299783
 20
143.5905264275359
 30
0.0
  0
ENDBLK
  5
20D7
330
20CC
100
AcDbEntity
  8
0
100
AcDbBlockEnd
  0
BLOCK
  5
20F1
330
20E9
100
AcDbEntity
  8
0
100
AcDbBlockBegin
  2
*D4
 70
     1
 10
0.0
 20
0.0
 30
0.0
  3
*D4
  1

  0
LINE
  5
21B2
330
20E9
100
AcDbEntity
  8
BEM
 62
     0
370
    -2
100
AcDbLine
 10
170.6878963620722
 20
446.9964211753111
 30
0.0
 11
170.6688134737765
 21
447.0187324135125
 31
0.0
  0
LINE
  5
21B3
330
20E9
100
AcDbEntity
  8
BEM
 62
     0
370
    -2
100
AcDbLine
 10
271.7608103445432
 20
533.4444752834953
 30
0.0
 11
271.7417274562475
 21
533.4667865216967
 31
0.0
  0
LINE
  5
21B4
330
20E9
100
AcDbEntity
  8
BEM
 62
     0
370
    -2
100
AcDbLine
 10
177.2884112639545
 20
450.0487365548084
 30
0.0
 11
267.7220711430074
 21
527.3969954937099
 31
0.0
  0
SOLID
  5
21B5
330
20E9
100
AcDbEntity
  8
BEM
 62
     0
100
AcDbTrace
 10
176.5300949998476
 20
450.9353410634266
 30
0.0
 11
178.0467275280614
 21
449.1621320461903
 31
0.0
 12
171.9687842122454
 22
445.4988389701671
 32
0.0
 13
171.9687842122454
 23
445.4988389701671
 33
0.0
  0
SOLID
  5
21B6
330
20E9
100
AcDbEntity
  8
BEM
 62
     0
100
AcDbTrace
 10
266.9637548789005
 20
528.283600002328
 30
0.0
 11
268.4803874071142
 21
526.5103909850918
 31
0.0
 12
273.0416981947164
 22
531.9468930783513
 32
0.0
 13
273.0416981947164
 23
531.9468930783513
 33
0.0
  0
MTEXT
  5
21B7
330
20E9
100
AcDbEntity
  8
BEM
 62
     1
100
AcDbMText
 10
237.030160521599
 20
509.699316861497
 30
0.0
 40
7.0
 41
0.0
 71
     5
 72
     1
  1
\A1;133
 11
0.7599467216727247
 21
0.6499853692344761
 31
0.0
 73
     1
 44
1.0
  0
POINT
  5
21B8
330
20E9
100
AcDbEntity
  8
Defpoints
 62
     0
100
AcDbPoint
 10
171.9878671005412
 20
445.4765277319657
 30
0.0
  0
POINT
  5
21B9
330
20E9
100
AcDbEntity
  8
Defpoints
 62
     0
100
AcDbPoint
 10
273.0607810830122
 20
531.9245818401499
 30
0.0
  0
POINT
  5
21BA
330
20E9
100
AcDbEntity
  8
Defpoints
 62
     0
100
AcDbPoint
 10
273.0416981947164
 20
531.9468930783513
 30
0.0
  0
ENDBLK
  5
20F2
330
20E9
100
AcDbEntity
  8
0
100
AcDbBlockEnd
  0
BLOCK
  5
2117
330
210D
100
AcDbEntity
  8
0
100
AcDbBlockBegin
  2
*D5
 70
     1
 10
0.0
 20
0.0
 30
0.0
  3
*D5
  1

  0
LINE
  5
21E1
330
210D
100
AcDbEntity
  8
BEM
 62
     0
370
    -2
100
AcDbLine
 10
220.524317299783
 20
255.2005627270878
 30
0.0
 11
111.8420958200103
 21
255.2005627270878
 31
0.0
  0
LINE
  5
21E2
330
210D
100
AcDbEntity
  8
BEM
 62
     0
370
    -2
100
AcDbLine
 10
209.782317299783
 20
405.2005627270878
 30
0.0
 11
111.8420958200104
 21
405.2005627270878
 31
0.0
  0
LINE
  5
21E3
330
210D
100
AcDbEntity
  8
BEM
 62
     0
370
    -2
100
AcDbLine
 10
113.8420958200103
 20
262.2005627270878
 30
0.0
 11
113.8420958200104
 21
398.2005627270879
 31
0.0
  0
SOLID
  5
21E4
330
210D
100
AcDbEntity
  8
BEM
 62
     0
100
AcDbTrace
 10
112.6754291533437
 20
262.2005627270878
 30
0.0
 11
115.008762486677
 21
262.2005627270878
 31
0.0
 12
113.8420958200103
 22
255.2005627270878
 32
0.0
 13
113.8420958200103
 23
255.2005627270878
 33
0.0
  0
SOLID
  5
21E5
330
210D
100
AcDbEntity
  8
BEM
 62
     0
100
AcDbTrace
 10
112.6754291533437
 20
398.2005627270879
 30
0.0
 11
115.008762486677
 21
398.2005627270879
 31
0.0
 12
113.8420958200104
 22
405.2005627270878
 32
0.0
 13
113.8420958200104
 23
405.2005627270878
 33
0.0
  0
MTEXT
  5
21E6
330
210D
100
AcDbEntity
  8
BEM
 62
     1
100
AcDbMText
 10
107.3420958200103
 20
330.2005627270879
 30
0.0
 40
7.0
 41
0.0
 71
     5
 72
     1
  1
\A1;150
 11
0.0000000000000001
 21
1.0
 31
0.0
 73
     1
 44
1.0
  0
POINT
  5
21E7
330
210D
100
AcDbEntity
  8
Defpoints
 62
     0
100
AcDbPoint
 10
222.524317299783
 20
255.2005627270878
 30
0.0
  0
POINT
  5
21E8
330
210D
100
AcDbEntity
  8
Defpoints
 62
     0
100
AcDbPoint
 10
211.782317299783
 20
405.2005627270878
 30
0.0
  0
POINT
  5
21E9
330
210D
100
AcDbEntity
  8
Defpoints
 62
     0
100
AcDbPoint
 10
113.8420958200104
 20
405.2005627270878
 30
0.0
  0
ENDBLK
  5
2118
330
210D
100
AcDbEntity
  8
0
100
AcDbBlockEnd
  0
BLOCK
  5
2126
330
211A
100
AcDbEntity
  8
0
100
AcDbBlockBegin
  2
*D6
 70
     1
 10
0.0
 20
0.0
 30
0.0
  3
*D6
  1

  0
LINE
  5
219E
330
211A
100
AcDbEntity
  8
BEM
 62
     0
370
    -2
100
AcDbLine
 10
129.024317299783
 20
490.2005627270877
 30
0.0
 11
111.8420958200104
 21
490.2005627270878
 31
0.0
  0
LINE
  5
219F
330
211A
100
AcDbEntity
  8
BEM
 62
     0
370
    -2
100
AcDbLine
 10
129.024317299783
 20
487.2005627270878
 30
0.0
 11
111.8420958200104
 21
487.2005627270878
 31
0.0
  0
LINE
  5
21A0
330
211A
100
AcDbEntity
  8
BEM
 62
     0
370
    -2
100
AcDbLine
 10
113.8420958200104
 20
497.2005627270879
 30
0.0
 11
113.8420958200104
 21
504.2005627270878
 31
0.0
  0
LINE
  5
21A1
330
211A
100
AcDbEntity
  8
BEM
 62
     0
370
    -2
100
AcDbLine
 10
113.8420958200104
 20
480.2005627270879
 30
0.0
 11
113.8420958200104
 21
463.4672293937545
 31
0.0
  0
LINE
  5
21A2
330
211A
100
AcDbEntity
  8
BEM
 62
     0
370
    -2
100
AcDbLine
 10
113.8420958200104
 20
490.2005627270878
 30
0.0
 11
113.8420958200104
 21
487.2005627270878
 31
0.0
  0
SOLID
  5
21A3
330
211A
100
AcDbEntity
  8
BEM
 62
     0
100
AcDbTrace
 10
112.6754291533438
 20
497.2005627270879
 30
0.0
 11
115.0087624866771
 21
497.2005627270879
 31
0.0
 12
113.8420958200104
 22
490.2005627270878
 32
0.0
 13
113.8420958200104
 23
490.2005627270878
 33
0.0
  0
SOLID
  5
21A4
330
211A
100
AcDbEntity
  8
BEM
 62
     0
100
AcDbTrace
 10
112.6754291533438
 20
480.2005627270879
 30
0.0
 11
115.0087624866771
 21
480.2005627270879
 31
0.0
 12
113.8420958200104
 22
487.2005627270878
 32
0.0
 13
113.8420958200104
 23
487.2005627270878
 33
0.0
  0
MTEXT
  5
21A5
330
211A
100
AcDbEntity
  8
BEM
 62
     1
100
AcDbMText
 10
107.3420958200103
 20
468.3338960604212
 30
0.0
 40
7.0
 41
0.0
 71
     5
 72
     1
  1
\A1;3
 11
0.0000000000000001
 21
1.0
 31
0.0
 73
     1
 44
1.0
  0
POINT
  5
21A6
330
211A
100
AcDbEntity
  8
Defpoints
 62
     0
100
AcDbPoint
 10
131.024317299783
 20
490.2005627270877
 30
0.0
  0
POINT
  5
21A7
330
211A
100
AcDbEntity
  8
Defpoints
 62
     0
100
AcDbPoint
 10
131.024317299783
 20
487.2005627270878
 30
0.0
  0
POINT
  5
21A8
330
211A
100
AcDbEntity
  8
Defpoints
 62
     0
100
AcDbPoint
 10
113.8420958200104
 20
487.2005627270878
 30
0.0
  0
ENDBLK
  5
2127
330
211A
100
AcDbEntity
  8
0
100
AcDbBlockEnd
  0
BLOCK
  5
2133
330
2129
100
AcDbEntity
  8
0
100
AcDbBlockBegin
  2
*D7
 70
     1
 10
0.0
 20
0.0
 30
0.0
  3
*D7
  1

  0
LINE
  5
21D8
330
2129
100
AcDbEntity
  8
BEM
 62
     0
370
    -2
100
AcDbLine
 10
220.524317299783
 20
255.2005627270878
 30
0.0
 11
93.20987053948369
 21
255.2005627270878
 31
0.0
  0
LINE
  5
21D9
330
2129
100
AcDbEntity
  8
BEM
 62
     0
370
    -2
100
AcDbLine
 10
220.524317299783
 20
559.2005627270878
 30
0.0
 11
93.20987053948377
 21
559.2005627270878
 31
0.0
  0
LINE
  5
21DA
330
2129
100
AcDbEntity
  8
BEM
 62
     0
370
    -2
100
AcDbLine
 10
95.20987053948367
 20
262.2005627270878
 30
0.0
 11
95.20987053948374
 21
552.2005627270877
 31
0.0
  0
SOLID
  5
21DB
330
2129
100
AcDbEntity
  8
BEM
 62
     0
100
AcDbTrace
 10
94.043203872817
 20
262.2005627270878
 30
0.0
 11
96.37653720615034
 21
262.2005627270878
 31
0.0
 12
95.20987053948367
 22
255.2005627270878
 32
0.0
 13
95.20987053948367
 23
255.2005627270878
 33
0.0
  0
SOLID
  5
21DC
330
2129
100
AcDbEntity
  8
BEM
 62
     0
100
AcDbTrace
 10
94.04320387281707
 20
552.2005627270877
 30
0.0
 11
96.37653720615041
 21
552.2005627270877
 31
0.0
 12
95.20987053948374
 22
559.2005627270878
 32
0.0
 13
95.20987053948374
 23
559.2005627270878
 33
0.0
  0
MTEXT
  5
21DD
330
2129
100
AcDbEntity
  8
BEM
 62
     1
100
AcDbMText
 10
88.70987053948365
 20
407.2005627270877
 30
0.0
 40
7.0
 41
0.0
 71
     5
 72
     1
  1
\A1;304
 11
0.0000000000000001
 21
1.0
 31
0.0
 73
     1
 44
1.0
  0
POINT
  5
21DE
330
2129
100
AcDbEntity
  8
Defpoints
 62
     0
100
AcDbPoint
 10
222.524317299783
 20
255.2005627270878
 30
0.0
  0
POINT
  5
21DF
330
2129
100
AcDbEntity
  8
Defpoints
 62
     0
100
AcDbPoint
 10
222.524317299783
 20
559.2005627270878
 30
0.0
  0
POINT
  5
21E0
330
2129
100
AcDbEntity
  8
Defpoints
 62
     0
100
AcDbPoint
 10
95.20987053948374
 20
559.2005627270878
 30
0.0
  0
ENDBLK
  5
2134
330
2129
100
AcDbEntity
  8
0
100
AcDbBlockEnd
  0
BLOCK
  5
21FF
330
21F5
100
AcDbEntity
  8
0
100
AcDbBlockBegin
  2
*D8
 70
     1
 10
0.0
 20
0.0
 30
0.0
  3
*D8
  1

  0
LINE
  5
21F6
330
21F5
100
AcDbEntity
  8
BEM
 62
     0
370
    -2
100
AcDbLine
 10
132.3733172997829
 20
205.3573420572464
 30
0.0
 11
112.5877772577505
 21
205.3573420572464
 31
0.0
  0
LINE
  5
21F7
330
21F5
100
AcDbEntity
  8
BEM
 62
     0
370
    -2
100
AcDbLine
 10
132.3733172997829
 20
180.3573420572463
 30
0.0
 11
112.5877772577505
 21
180.3573420572463
 31
0.0
  0
LINE
  5
21F8
330
21F5
100
AcDbEntity
  8
BEM
 62
     0
370
    -2
100
AcDbLine
 10
114.5877772577505
 20
198.3573420572463
 30
0.0
 11
114.5877772577505
 21
187.3573420572463
 31
0.0
  0
SOLID
  5
21F9
330
21F5
100
AcDbEntity
  8
BEM
 62
     0
100
AcDbTrace
 10
113.4211105910838
 20
198.3573420572463
 30
0.0
 11
115.7544439244172
 21
198.3573420572463
 31
0.0
 12
114.5877772577505
 22
205.3573420572464
 32
0.0
 13
114.5877772577505
 23
205.3573420572464
 33
0.0
  0
SOLID
  5
21FA
330
21F5
100
AcDbEntity
  8
BEM
 62
     0
100
AcDbTrace
 10
113.4211105910838
 20
187.3573420572463
 30
0.0
 11
115.7544439244172
 21
187.3573420572463
 31
0.0
 12
114.5877772577505
 22
180.3573420572463
 32
0.0
 13
114.5877772577505
 23
180.3573420572463
 33
0.0
  0
MTEXT
  5
21FB
330
21F5
100
AcDbEntity
  8
BEM
 62
     1
100
AcDbMText
 10
108.0877772577505
 20
192.8573420572464
 30
0.0
 40
7.0
 41
0.0
 71
     5
 72
     1
  1
\A1;25
 11
0.0000000000000001
 21
1.0
 31
0.0
 73
     1
 44
1.0
  0
POINT
  5
21FC
330
21F5
100
AcDbEntity
  8
Defpoints
 62
     0
100
AcDbPoint
 10
134.3733172997829
 20
205.3573420572464
 30
0.0
  0
POINT
  5
21FD
330
21F5
100
AcDbEntity
  8
Defpoints
 62
     0
100
AcDbPoint
 10
134.3733172997829
 20
180.3573420572463
 30
0.0
  0
POINT
  5
21FE
330
21F5
100
AcDbEntity
  8
Defpoints
 62
     0
100
AcDbPoint
 10
114.5877772577505
 20
180.3573420572463
 30
0.0
  0
ENDBLK
  5
2200
330
21F5
100
AcDbEntity
  8
0
100
AcDbBlockEnd
  0
ENDSEC
  0
SECTION
  2
ENTITIES
  0
LINE
  5
57
330
1E
100
AcDbEntity
  8
STEMPEL
100
AcDbLine
 10
410.0
 20
110.0
 30
0.0
 11
39.99999999999997
 21
110.0
 31
0.0
  0
LINE
  5
58
330
1E
100
AcDbEntity
  8
STEMPEL
100
AcDbLine
 10
136.0000000000001
 20
109.9999999999999
 30
0.0
 11
136.0
 21
9.999999999999971
 31
0.0
  0
LINE
  5
59
330
1E
100
AcDbEntity
  8
STEMPEL
100
AcDbLine
 10
220.0
 20
110.0
 30
0.0
 11
220.0
 21
9.999999999999971
 31
0.0
  0
LINE
  5
5A
330
1E
100
AcDbEntity
  8
STEMPEL
100
AcDbLine
 10
332.0
 20
109.9999999999997
 30
0.0
 11
332.0
 21
40.0
 31
0.0
  0
LINE
  5
5B
330
1E
100
AcDbEntity
  8
STEMPEL
100
AcDbLine
 10
135.9999999999999
 20
29.99999999999997
 30
0.0
 11
39.99999999999997
 21
29.99999999999997
 31
0.0
  0
LINE
  5
5C
330
1E
100
AcDbEntity
  8
STEMPEL
100
AcDbLine
 10
410.0
 20
40.0
 30
0.0
 11
136.0000000000001
 21
39.99999999999997
 31
0.0
  0
LINE
  5
5D
330
1E
100
AcDbEntity
  8
STEMPEL
100
AcDbLine
 10
410.0
 20
80.0
 30
0.0
 11
136.0000000000001
 21
79.99999999999994
 31
0.0
  0
LINE
  5
5E
330
1E
100
AcDbEntity
  8
VOLL
100
AcDbLine
 10
54.00000000000009
 20
110.0
 30
0.0
 11
53.99999999999997
 21
9.999999999999971
 31
0.0
  0
LINE
  5
5F
330
1E
100
AcDbEntity
  8
VOLL
100
AcDbLine
 10
94.00000000000011
 20
109.9999999999999
 30
0.0
 11
94.0
 21
9.999999999999971
 31
0.0
  0
LINE
  5
60
330
1E
100
AcDbEntity
  8
VOLL
100
AcDbLine
 10
114.0000000000001
 20
109.9999999999999
 30
0.0
 11
114.0
 21
9.999999999999971
 31
0.0
  0
LINE
  5
61
330
1E
100
AcDbEntity
  8
VOLL
100
AcDbLine
 10
154.0000000000001
 20
79.99999999999994
 30
0.0
 11
154.0000000000001
 21
39.99999999999997
 31
0.0
  0
LINE
  5
62
330
1E
100
AcDbEntity
  8
VOLL
100
AcDbLine
 10
180.0000000000001
 20
109.9999999999998
 30
0.0
 11
180.0
 21
39.99999999999997
 31
0.0
  0
LINE
  5
63
330
1E
100
AcDbEntity
  8
HILF
100
AcDbLine
 10
40.00000000000008
 20
100.0
 30
0.0
 11
136.0000000000001
 21
100.0
 31
0.0
  0
LINE
  5
64
330
1E
100
AcDbEntity
  8
HILF
100
AcDbLine
 10
40.00000000000008
 20
90.00000000000005
 30
0.0
 11
136.0000000000001
 21
90.00000000000005
 31
0.0
  0
LINE
  5
65
330
1E
100
AcDbEntity
  8
HILF
100
AcDbLine
 10
40.00000000000008
 20
79.99999999999994
 30
0.0
 11
136.0000000000001
 21
79.99999999999994
 31
0.0
  0
LINE
  5
66
330
1E
100
AcDbEntity
  8
HILF
100
AcDbLine
 10
40.00000000000008
 20
69.99999999999994
 30
0.0
 11
136.0000000000001
 21
69.99999999999994
 31
0.0
  0
LINE
  5
67
330
1E
100
AcDbEntity
  8
HILF
100
AcDbLine
 10
40.00000000000008
 20
59.99999999999997
 30
0.0
 11
136.0000000000001
 21
59.99999999999997
 31
0.0
  0
LINE
  5
68
330
1E
100
AcDbEntity
  8
HILF
100
AcDbLine
 10
40.00000000000008
 20
49.99999999999997
 30
0.0
 11
136.0000000000001
 21
49.99999999999997
 31
0.0
  0
LINE
  5
69
330
1E
100
AcDbEntity
  8
HILF
100
AcDbLine
 10
40.00000000000008
 20
39.99999999999997
 30
0.0
 11
136.0000000000001
 21
39.99999999999997
 31
0.0
  0
LINE
  5
6A
330
1E
100
AcDbEntity
  8
HILF
100
AcDbLine
 10
136.0000000000001
 20
69.99999999999994
 30
0.0
 11
220.0
 21
69.99999999999994
 31
0.0
  0
LINE
  5
6B
330
1E
100
AcDbEntity
  8
HILF
100
AcDbLine
 10
136.0000000000001
 20
59.99999999999997
 30
0.0
 11
220.0
 21
59.99999999999997
 31
0.0
  0
LINE
  5
6C
330
1E
100
AcDbEntity
  8
HILF
100
AcDbLine
 10
136.0000000000001
 20
49.99999999999997
 30
0.0
 11
220.0
 21
49.99999999999997
 31
0.0
  0
LINE
  5
6D
330
1E
100
AcDbEntity
  8
HILF
100
AcDbLine
 10
224.7736801096948
 20
84.03758247564139
 30
0.0
 11
324.8353916556311
 21
84.03758247564139
 31
0.0
  0
LINE
  5
6E
330
1E
100
AcDbEntity
  8
HILF
100
AcDbLine
 10
224.7736801096948
 20
69.99999999999994
 30
0.0
 11
324.835391655631
 21
69.99999999999994
 31
0.0
  0
LINE
  5
6F
330
1E
100
AcDbEntity
  8
HILF
100
AcDbLine
 10
224.7736801096948
 20
59.99999999999997
 30
0.0
 11
324.835391655631
 21
59.99999999999997
 31
0.0
  0
LINE
  5
70
330
1E
100
AcDbEntity
  8
HILF
100
AcDbLine
 10
224.7736801096948
 20
49.99999999999997
 30
0.0
 11
324.835391655631
 21
49.99999999999997
 31
0.0
  0
LINE
  5
71
330
1E
100
AcDbEntity
  8
VOLL
100
AcDbLine
 10
332.0
 20
60.0
 30
0.0
 11
410.0
 21
60.0
 31
0.0
  0
LINE
  5
72
330
1E
100
AcDbEntity
  8
HILF
100
AcDbLine
 10
336.7238616296993
 20
83.77983636955827
 30
0.0
 11
404.8588839326728
 21
83.77983636955827
 31
0.0
  0
LINE
  5
73
330
1E
100
AcDbEntity
  8
HILF
100
AcDbLine
 10
223.4909699289885
 20
14.89398258028314
 30
0.0
 11
404.8588839326728
 21
14.89398258028314
 31
0.0
  0
TEXT
  5
74
330
1E
100
AcDbEntity
  8
TEXT
100
AcDbText
 10
63.86165979631819
 20
18.67381894984132
 30
0.0
 40
4.0
  1
Änderung
 41
0.8
  7
GREEKS
 72
     1
 11
74.60451693917534
 21
18.67381894984132
 31
0.0
100
AcDbText
  0
TEXT
  5
75
330
1E
100
AcDbEntity
  8
TEXT
100
AcDbText
 10
143.5163572150377
 20
102.4620895087088
 30
0.0
 40
5.0
  1
Maßstab
 41
0.8
  7
GREEKS
100
AcDbText
  0
TEXT
  5
76
330
1E
100
AcDbEntity
  8
TEXT
100
AcDbText
 10
184.2858954734051
 20
102.4184168434819
 30
0.0
 40
5.0
  1
Zul. Abw.
 41
0.8
  7
GREEKS
100
AcDbText
  0
TEXT
  5
77
330
1E
100
AcDbEntity
  8
TEXT
100
AcDbText
 10
224.877940380901
 20
102.5489328011779
 30
0.0
 40
5.0
  1
Benennung
 41
0.8
  7
GREEKS
100
AcDbText
  0
TEXT
  5
78
330
1E
100
AcDbEntity
  8
TEXT
100
AcDbText
 10
336.178754957634
 20
102.3132034537136
 30
0.0
 40
5.0
  1
Zeichnungs Nr.
 41
0.8
  7
GREEKS
100
AcDbText
  0
TEXT
  5
79
330
1E
100
AcDbEntity
  8
TEXT
100
AcDbText
 10
224.742238391136
 20
30.84560570193057
 30
0.0
 40
5.0
  1
Bauvorhaben
 41
0.8
  7
GREEKS
100
AcDbText
  0
TEXT
  5
7A
330
1E
100
AcDbEntity
  8
TEXT
100
AcDbText
 10
336.7238616296993
 20
73.1811823709997
 30
0.0
 40
5.0
  1
Ersatz für:
 41
0.8
  7
GREEKS
100
AcDbText
  0
TEXT
  5
7B
330
1E
100
AcDbEntity
  8
TEXT
100
AcDbText
 10
48.26641107045756
 20
13.65465846027192
 30
0.0
 40
4.0
  1
Index
 50
90.0
 41
0.8
  7
GREEKS
100
AcDbText
  0
TEXT
  5
7C
330
1E
100
AcDbEntity
  8
TEXT
100
AcDbText
 10
100.0934676075481
 20
18.6715626933981
 30
0.0
 40
4.0
  1
Tag
 41
0.8
  7
GREEKS
 72
     1
 11
103.8268009408814
 21
18.6715626933981
 31
0.0
100
AcDbText
  0
TEXT
  5
7D
330
1E
100
AcDbEntity
  8
TEXT
100
AcDbText
 10
119.0122744386592
 20
18.59324216966408
 30
0.0
 40
4.0
  1
Name
 41
0.8
  7
GREEKS
 72
     1
 11
125.3360839624688
 21
18.59324216966408
 31
0.0
100
AcDbText
  0
TEXT
  5
7E
330
1E
100
AcDbEntity
  8
TEXT
100
AcDbText
 10
162.3311673153651
 20
73.31880501229926
 30
0.0
 40
4.0
  1
Tag
 41
0.8
  7
GREEKS
100
AcDbText
  0
TEXT
  5
7F
330
1E
100
AcDbEntity
  8
TEXT
100
AcDbText
 10
192.4626584226295
 20
73.30961091915225
 30
0.0
 40
4.0
  1
Name
 41
0.8
  7
GREEKS
100
AcDbText
  0
TEXT
  5
80
330
1E
100
AcDbEntity
  8
TEXT
100
AcDbText
 10
137.5836127167615
 20
63.62990369617964
 30
0.0
 40
4.0
  1
Gez.
 41
0.8
  7
GREEKS
100
AcDbText
  0
TEXT
  5
81
330
1E
100
AcDbEntity
  8
TEXT
100
AcDbText
 10
137.5515086571672
 20
53.68926291428377
 30
0.0
 40
4.0
  1
Gepr.
 41
0.8
  7
GREEKS
100
AcDbText
  0
TEXT
  5
82
330
1E
100
AcDbEntity
  8
TEXT
100
AcDbText
 10
137.6006777387304
 20
43.52946389649807
 30
0.0
 40
4.0
  1
Norm.
 41
0.8
  7
GREEKS
100
AcDbText
  0
LINE
  5
83
330
1E
100
AcDbEntity
  8
STEMPEL
100
AcDbLine
 10
49.99999999999989
 20
10.0
 30
0.0
 11
410.0
 21
10.0
 31
0.0
  0
TEXT
  5
84
330
1E
100
AcDbEntity
  8
TEXT
100
AcDbText
 10
337.2400861497006
 20
52.07416177878602
 30
0.0
 40
5.0
  1
ersetzt durch:
 41
0.8
  7
GREEKS
100
AcDbText
  0
LINE
  5
85
330
1E
100
AcDbEntity
  8
STEMPEL
100
AcDbLine
 10
410.0
 20
10.0
 30
0.0
 11
39.99999999999989
 21
10.0
 31
0.0
  0
LINE
  5
86
330
1E
100
AcDbEntity
  8
STEMPEL
100
AcDbLine
 10
410.0
 20
10.0
 30
0.0
 11
410.0
 21
584.0
 31
0.0
  0
LINE
  5
87
330
1E
100
AcDbEntity
  8
STEMPEL
100
AcDbLine
 10
40.0
 20
10.0
 30
0.0
 11
39.99999999999989
 21
584.0
 31
0.0
  0
LINE
  5
88
330
1E
100
AcDbEntity
  8
STEMPEL
100
AcDbLine
 10
410.0
 20
584.0
 30
0.0
 11
39.99999999999989
 21
584.0
 31
0.0
  0
LINE
  5
89
330
1E
100
AcDbEntity
  8
HILF
100
AcDbLine
 10
0.0
 20
0.0
 30
0.0
 11
-0.0000000000001137
 21
594.0
 31
0.0
  0
LINE
  5
8A
330
1E
100
AcDbEntity
  8
HILF
100
AcDbLine
 10
419.9999999999999
 20
594.0000000000002
 30
0.0
 11
0.0
 21
594.0
 31
0.0
  0
LINE
  5
8B
330
1E
100
AcDbEntity
  8
HILF
100
AcDbLine
 10
420.0
 20
0.0
 30
0.0
 11
0.0
 21
0.0
 31
0.0
  0
LINE
  5
8C
330
1E
100
AcDbEntity
  8
HILF
100
AcDbLine
 10
31.08767135713856
 20
297.0
 30
0.0
 11
0.0000000000001137
 21
297.0
 31
0.0
  0
TEXT
  5
8D
330
1E
100
AcDbEntity
  8
TEXT
100
AcDbText
 10
138.622109822104
 20
73.14025471151666
 30
0.0
 40
4.0
  1
2012
 41
0.8
  7
GREEKS
100
AcDbText
  0
LINE
  5
8E
330
1E
100
AcDbEntity
  8
HILF
100
AcDbLine
 10
420.0
 20
-0.0000000000001137
 30
0.0
 11
419.9999999999999
 21
594.0
 31
0.0
  0
TEXT
  5
8F
330
1E
100
AcDbEntity
  8
VOLL
100
AcDbText
 10
78.07675471698113
 20
31.02594776470585
 30
0.0
 40
1.8
  1

  7
GREEKS
100
AcDbText
  0
TEXT
  5
90
330
1E
100
AcDbEntity
  8
TEXT
100
AcDbText
 10
41.85509950977674
 20
111.6719999999999
 30
0.0
 40
5.0
  1
Erstellt mit AUTOCAD 2004
 41
0.8
  7
GREEKS
100
AcDbText
  0
TEXT
  5
91
330
1E
100
AcDbEntity
  8
TEXT
100
AcDbText
 10
194.4216048581257
 20
63.0896391972351
 30
0.0
 40
4.0
  1
Koeh
 41
0.8
  7
GREEKS
 72
     1
 11
199.6787477152685
 21
63.0896391972351
 31
0.0
100
AcDbText
  0
TEXT
  5
92
330
1E
100
AcDbEntity
  8
TEXT
 62
     1
100
AcDbText
 10
346.7344400940603
 20
88.14901428913959
 30
0.0
 40
7.0
  1
09917125W
 41
0.8
  7
GREEKS
 72
     1
 11
369.6677734273936
 21
88.14901428913959
 31
0.0
100
AcDbText
  0
TEXT
  5
93
330
1E
100
AcDbEntity
  8
TEXT
 62
     1
100
AcDbText
 10
150.5006306481887
 20
88.14901428913959
 30
0.0
 40
7.0
  1
1:2
 41
0.8
  7
GREEKS
100
AcDbText
  0
TEXT
  5
94
330
1E
100
AcDbEntity
  8
TEXT
100
AcDbText
 10
160.7037590129979
 20
63.10765040825732
 30
0.0
 40
4.0
  1
29.10.
 41
0.8
  7
GREEKS
 72
     1
 11
167.4085209177598
 21
63.10765040825732
 31
0.0
100
AcDbText
  0
TEXT
  5
95
330
1E
100
AcDbEntity
  8
TEXT
 62
     1
100
AcDbText
 10
226.8935731057402
 20
87.41748789253779
 30
0.0
 40
7.0
  1
Rohrschelle DN125
 41
0.8
  7
GREEKS
100
AcDbText
  0
TEXT
  5
96
330
1E
100
AcDbEntity
  8
TEXT
100
AcDbText
 10
225.1296391125315
 20
71.50334417585288
 30
0.0
 40
5.0
  1
mit Schlagstift
 41
0.8
  7
GREEKS
100
AcDbText
  0
TEXT
  5
98
330
1E
100
AcDbEntity
  8
TEXT
100
AcDbText
 10
225.1296391125315
 20
51.64011943042158
 30
0.0
 40
5.0
  1
EDV-Art.Nr. 09917.125X
 41
0.8
  7
GREEKS
100
AcDbText
  0
TEXT
  5
99
330
1E
100
AcDbEntity
  8
TEXT
100
AcDbText
 10
224.9837501577827
 20
42.62974153022632
 30
0.0
 40
4.0
  1
09917125W.DWG
 41
0.8
  7
GREEKS
100
AcDbText
  0
TEXT
  5
9A
330
1E
100
AcDbEntity
  8
TEXT
100
AcDbText
 10
182.626132208084
 20
90.76363841023022
 30
0.0
 40
4.0
  1
DIN EN1123-2
 41
0.8
  7
GREEKS
 72
     1
 11
199.6166083985602
 21
90.76363841023022
 31
0.0
100
AcDbText
  0
INSERT
  5
9B
330
1E
100
AcDbEntity
  8
STEMPEL
100
AcDbBlockReference
  2
LOGO
 10
140.9955485457794
 20
45.02105276448322
 30
0.0
 41
2.0
 42
2.0
 43
2.0
  0
TEXT
  5
118
330
1E
100
AcDbEntity
  8
BEM
100
AcDbText
 10
417.3022923857165
 20
10.16790107998849
 30
0.0
 40
4.0
  1
Diese Zeichnung ist urheberrechtlich geschützt und bleibt unser Eigentum. Sie darf weder ganz noch teilweise verfielfältigt und nicht an Dritte weitergegeben werden.
 50
90.0
 41
0.8
  7
GREEKS
100
AcDbText
  0
TEXT
  5
C1B
330
1E
100
AcDbEntity
  8
TEXT
 62
     1
100
AcDbText
 10
327.863600903607
 20
523.5511664719451
 30
0.0
 40
7.0
  1
Schraube M8x30
 41
0.8
  7
GREEKS
100
AcDbText
  0
LINE
  5
C1C
330
1E
100
AcDbEntity
  8
TEXT
 62
     2
100
AcDbLine
 10
325.7437079075615
 20
520.1712610550487
 30
0.0
 11
400.7453897251919
 21
520.1712610550487
 31
0.0
  0
LINE
  5
C1D
330
1E
100
AcDbEntity
  8
TEXT
 62
     2
100
AcDbLine
 10
325.7437079075615
 20
520.1712610550487
 30
0.0
 11
305.7189305379405
 21
495.1588425555369
 31
0.0
  0
DIMENSION
  5
1DD2
330
1E
100
AcDbEntity
  8
BEM
100
AcDbDimension
  2
*D1
 10
219.024317299783
 20
328.9936729664997
 30
0.0
 11
200.1576506331163
 21
328.9936729664997
 31
0.0
 70
   160
 71
     5
 42
7.0
  3
Standard
100
AcDbAlignedDimension
 13
226.024317299783
 23
328.936266965265
 33
0.0
 14
219.024317299783
 24
328.936266965265
 34
0.0
100
AcDbRotatedDimension
1001
ACAD
1000
DSTYLE
1002
{
1070
    40
1040
2.0
1070
    41
1040
3.5
1070
    42
1040
1.0
1070
    43
1040
7.0
1070
    44
1040
1.0
1070
    73
1070
     0
1070
    74
1070
     0
1070
    77
1070
     1
1070
    78
1070
     8
1070
    79
1070
     2
1070
   140
1040
3.5
1070
   141
1040
1.5
1070
   146
1040
0.5
1070
   147
1040
1.5
1070
   172
1070
     1
1070
   178
1070
     1
1070
   179
1070
     2
1070
   271
1070
     2
1070
   272
1070
     2
1070
   284
1070
     8
1070
   285
1070
     8
1070
   286
1070
     8
1002
}
  0
LWPOLYLINE
  5
1DD3
330
1E
100
AcDbEntity
  8
BEM
 62
     1
100
AcDbPolyline
 90
        4
 70
     1
 43
0.0
 10
188.8500764132084
 20
339.1426101069723
 10
188.8500764132084
 20
332.1426101069723
 10
195.8500764132084
 20
332.1426101069723
 10
195.8500764132084
 20
339.1426101069723
  0
LINE
  5
1FDA
330
1E
100
AcDbEntity
  8
HILF
100
AcDbLine
 10
300.274317299783
 20
462.2005627270878
 30
0.0
 11
300.274317299783
 21
483.2005627270878
 31
0.0
  0
LINE
  5
1FDB
330
1E
100
AcDbEntity
  8
HILF
100
AcDbLine
 10
306.774317299783
 20
462.2005627270878
 30
0.0
 11
306.774317299783
 21
483.2005627270878
 31
0.0
  0
LINE
  5
1FDC
330
1E
100
AcDbEntity
  8
STEMPEL
100
AcDbLine
 10
307.524317299783
 20
462.9505627270877
 30
0.0
 11
299.524317299783
 21
462.9505627270877
 31
0.0
  0
LINE
  5
1FDD
330
1E
100
AcDbEntity
  8
HILF
100
AcDbLine
 10
307.524317299783
 20
489.4015627270878
 30
0.0
 11
299.524317299783
 21
489.4015627270878
 31
0.0
  0
LINE
  5
1FDF
330
1E
100
AcDbEntity
  8
HILF
100
AcDbLine
 10
300.274317299783
 20
487.2005627270878
 30
0.0
 11
300.274317299783
 21
489.4015627270878
 31
0.0
  0
LINE
  5
1FE1
330
1E
100
AcDbEntity
  8
HILF
100
AcDbLine
 10
306.774317299783
 20
487.2005627270878
 30
0.0
 11
306.774317299783
 21
489.4015627270878
 31
0.0
  0
LINE
  5
1FE2
330
1E
100
AcDbEntity
  8
STEMPEL
100
AcDbLine
 10
299.524317299783
 20
487.2005627270878
 30
0.0
 11
299.524317299783
 21
492.2005627270878
 31
0.0
  0
LINE
  5
1FE3
330
1E
100
AcDbEntity
  8
STEMPEL
100
AcDbLine
 10
307.524317299783
 20
490.9865627270877
 30
0.0
 11
307.524317299783
 21
487.2005627270878
 31
0.0
  0
ARC
  5
1FE4
330
1E
100
AcDbEntity
  8
STEMPEL
100
AcDbCircle
 10
303.524317299783
 20
486.3425627270878
 30
0.0
 40
11.158
100
AcDbArc
 50
95.9155207670004
 51
109.652859632001
  0
ARC
  5
1FE5
330
1E
100
AcDbEntity
  8
STEMPEL
100
AcDbCircle
 10
303.524317299783
 20
486.3425627270878
 30
0.0
 40
11.158
100
AcDbArc
 50
70.34714036799893
 51
84.08447923299958
  0
LINE
  5
1FE6
330
1E
100
AcDbEntity
  8
STEMPEL
100
AcDbLine
 10
302.3743172997829
 20
497.5005627270878
 30
0.0
 11
297.895317299783
 21
497.5005627270878
 31
0.0
  0
LINE
  5
1FE7
330
1E
100
AcDbEntity
  8
STEMPEL
100
AcDbLine
 10
302.3743172997829
 20
495.0005627270877
 30
0.0
 11
302.3743172997829
 21
497.5005627270878
 31
0.0
  0
LINE
  5
1FE8
330
1E
100
AcDbEntity
  8
STEMPEL
100
AcDbLine
 10
304.674317299783
 20
495.0005627270877
 30
0.0
 11
302.3743172997829
 21
495.0005627270877
 31
0.0
  0
LINE
  5
1FE9
330
1E
100
AcDbEntity
  8
STEMPEL
100
AcDbLine
 10
304.674317299783
 20
497.5005627270878
 30
0.0
 11
304.674317299783
 21
495.0005627270877
 31
0.0
  0
LINE
  5
1FEA
330
1E
100
AcDbEntity
  8
STEMPEL
100
AcDbLine
 10
309.1533172997829
 20
497.5005627270878
 30
0.0
 11
304.674317299783
 21
497.5005627270878
 31
0.0
  0
LINE
  5
1FEB
330
1E
100
AcDbEntity
  8
STEMPEL
100
AcDbLine
 10
299.524317299783
 20
462.9505627270877
 30
0.0
 11
299.524317299783
 21
483.2005627270878
 31
0.0
  0
LINE
  5
1FEC
330
1E
100
AcDbEntity
  8
STEMPEL
100
AcDbLine
 10
300.274317299783
 20
462.2005627270878
 30
0.0
 11
299.524317299783
 21
462.9505627270877
 31
0.0
  0
LINE
  5
1FED
330
1E
100
AcDbEntity
  8
STEMPEL
100
AcDbLine
 10
306.774317299783
 20
462.2005627270878
 30
0.0
 11
300.274317299783
 21
462.2005627270878
 31
0.0
  0
LINE
  5
1FEE
330
1E
100
AcDbEntity
  8
STEMPEL
100
AcDbLine
 10
307.524317299783
 20
462.9505627270877
 30
0.0
 11
306.774317299783
 21
462.2005627270878
 31
0.0
  0
LINE
  5
1FEF
330
1E
100
AcDbEntity
  8
STEMPEL
100
AcDbLine
 10
307.524317299783
 20
483.2005627270878
 30
0.0
 11
307.524317299783
 21
462.9505627270877
 31
0.0
  0
LINE
  5
1FF0
330
1E
100
AcDbEntity
  8
STEMPEL
100
AcDbLine
 10
307.2773172997829
 20
496.8505627270878
 30
0.0
 11
307.2773172997829
 21
494.2005627270877
 31
0.0
  0
ARC
  5
1FF1
330
1E
100
AcDbEntity
  8
STEMPEL
100
AcDbCircle
 10
309.1533172997829
 20
494.4675627270878
 30
0.0
 40
3.032999999999999
100
AcDbArc
 50
90.0
 51
128.2132107020002
  0
ARC
  5
1FF2
330
1E
100
AcDbEntity
  8
STEMPEL
100
AcDbCircle
 10
309.1533172997829
 20
494.4675627270878
 30
0.0
 40
3.032999999999999
100
AcDbArc
 50
51.78678929799973
 51
90.0
  0
LINE
  5
1FF3
330
1E
100
AcDbEntity
  8
STEMPEL
100
AcDbLine
 10
311.0303172997829
 20
492.2005627270878
 30
0.0
 11
311.0303172997829
 21
496.8505627270878
 31
0.0
  0
LINE
  5
1FF4
330
1E
100
AcDbEntity
  8
STEMPEL
100
AcDbLine
 10
309.0643172997829
 20
492.2005627270878
 30
0.0
 11
311.0303172997829
 21
492.2005627270878
 31
0.0
  0
LINE
  5
1FF5
330
1E
100
AcDbEntity
  8
STEMPEL
100
AcDbLine
 10
299.1243172997829
 20
492.2005627270878
 30
0.0
 11
306.919317299783
 21
492.2005627270878
 31
0.0
  0
LINE
  5
1FF6
330
1E
100
AcDbEntity
  8
STEMPEL
100
AcDbLine
 10
296.0183172997829
 20
492.2005627270878
 30
0.0
 11
299.1243172997829
 21
492.2005627270878
 31
0.0
  0
LINE
  5
1FF7
330
1E
100
AcDbEntity
  8
STEMPEL
100
AcDbLine
 10
296.0183172997829
 20
496.8505627270878
 30
0.0
 11
296.0183172997829
 21
492.2005627270878
 31
0.0
  0
ARC
  5
1FF8
330
1E
100
AcDbEntity
  8
STEMPEL
100
AcDbCircle
 10
297.895317299783
 20
494.4675627270878
 30
0.0
 40
3.032999999999999
100
AcDbArc
 50
90.0
 51
128.2132107020002
  0
ARC
  5
1FF9
330
1E
100
AcDbEntity
  8
STEMPEL
100
AcDbCircle
 10
297.895317299783
 20
494.4675627270878
 30
0.0
 40
3.032999999999999
100
AcDbArc
 50
51.78678929799973
 51
90.0
  0
LINE
  5
1FFA
330
1E
100
AcDbEntity
  8
STEMPEL
100
AcDbLine
 10
299.771317299783
 20
492.2005627270878
 30
0.0
 11
299.771317299783
 21
496.8505627270878
 31
0.0
  0
LINE
  5
1FFB
330
1E
100
AcDbEntity
  8
STEMPEL
100
AcDbLine
 10
302.3743172997829
 20
186.3573420572463
 30
0.0
 11
302.3743172997829
 21
199.3573420572463
 31
0.0
  0
LINE
  5
1FFC
330
1E
100
AcDbEntity
  8
STEMPEL
100
AcDbLine
 10
304.674317299783
 20
186.3573420572463
 30
0.0
 11
304.674317299783
 21
199.3573420572463
 31
0.0
  0
ARC
  5
1FFE
330
1E
100
AcDbEntity
  8
STEMPEL
100
AcDbCircle
 10
303.524317299783
 20
192.8573420572463
 30
0.0
 40
6.5
100
AcDbArc
 50
280.1905887679999
 51
79.80941123200008
  0
ARC
  5
1FFF
330
1E
100
AcDbEntity
  8
STEMPEL
100
AcDbCircle
 10
303.524317299783
 20
192.8573420572463
 30
0.0
 40
6.5
100
AcDbArc
 50
100.1905887679999
 51
259.8094112320001
  0
LINE
  5
2000
330
1E
100
AcDbEntity
  8
STEMPEL
100
AcDbLine
 10
299.771317299783
 20
186.3573420572463
 30
0.0
 11
296.0183172997829
 21
192.8573420572463
 31
0.0
  0
LINE
  5
2001
330
1E
100
AcDbEntity
  8
STEMPEL
100
AcDbLine
 10
307.2773172997829
 20
186.3573420572463
 30
0.0
 11
299.771317299783
 21
186.3573420572463
 31
0.0
  0
LINE
  5
2002
330
1E
100
AcDbEntity
  8
STEMPEL
100
AcDbLine
 10
311.0303172997829
 20
192.8573420572463
 30
0.0
 11
307.2773172997829
 21
186.3573420572463
 31
0.0
  0
LINE
  5
2003
330
1E
100
AcDbEntity
  8
STEMPEL
100
AcDbLine
 10
307.2773172997829
 20
199.3573420572463
 30
0.0
 11
311.0303172997829
 21
192.8573420572463
 31
0.0
  0
LINE
  5
2004
330
1E
100
AcDbEntity
  8
STEMPEL
100
AcDbLine
 10
299.771317299783
 20
199.3573420572463
 30
0.0
 11
307.2773172997829
 21
199.3573420572463
 31
0.0
  0
LINE
  5
2005
330
1E
100
AcDbEntity
  8
STEMPEL
100
AcDbLine
 10
296.0183172997829
 20
192.8573420572463
 30
0.0
 11
299.771317299783
 21
199.3573420572463
 31
0.0
  0
LINE
  5
2006
330
1E
100
AcDbEntity
  8
HILF
100
AcDbLine
 10
138.274317299783
 20
462.2005627270878
 30
0.0
 11
138.274317299783
 21
483.2005627270878
 31
0.0
  0
LINE
  5
2007
330
1E
100
AcDbEntity
  8
HILF
100
AcDbLine
 10
144.774317299783
 20
462.2005627270878
 30
0.0
 11
144.774317299783
 21
483.2005627270878
 31
0.0
  0
LINE
  5
2008
330
1E
100
AcDbEntity
  8
STEMPEL
100
AcDbLine
 10
145.524317299783
 20
462.9505627270877
 30
0.0
 11
137.524317299783
 21
462.9505627270877
 31
0.0
  0
LINE
  5
2009
330
1E
100
AcDbEntity
  8
HILF
100
AcDbLine
 10
145.524317299783
 20
489.4015627270878
 30
0.0
 11
137.524317299783
 21
489.4015627270878
 31
0.0
  0
LINE
  5
200B
330
1E
100
AcDbEntity
  8
HILF
100
AcDbLine
 10
138.274317299783
 20
487.2005627270878
 30
0.0
 11
138.274317299783
 21
489.4015627270878
 31
0.0
  0
LINE
  5
200D
330
1E
100
AcDbEntity
  8
HILF
100
AcDbLine
 10
144.774317299783
 20
487.2005627270878
 30
0.0
 11
144.774317299783
 21
489.4015627270878
 31
0.0
  0
LINE
  5
200E
330
1E
100
AcDbEntity
  8
STEMPEL
100
AcDbLine
 10
137.524317299783
 20
487.2005627270878
 30
0.0
 11
137.524317299783
 21
490.2005627270877
 31
0.0
  0
LINE
  5
200F
330
1E
100
AcDbEntity
  8
STEMPEL
100
AcDbLine
 10
145.524317299783
 20
490.2005627270877
 30
0.0
 11
145.524317299783
 21
487.2005627270878
 31
0.0
  0
ARC
  5
2010
330
1E
100
AcDbEntity
  8
STEMPEL
100
AcDbCircle
 10
141.524317299783
 20
486.3425627270878
 30
0.0
 40
11.158
100
AcDbArc
 50
95.9155207670004
 51
109.652859632001
  0
ARC
  5
2011
330
1E
100
AcDbEntity
  8
STEMPEL
100
AcDbCircle
 10
141.524317299783
 20
486.3425627270878
 30
0.0
 40
11.158
100
AcDbArc
 50
70.34714036799893
 51
84.08447923299958
  0
LINE
  5
2012
330
1E
100
AcDbEntity
  8
STEMPEL
100
AcDbLine
 10
140.3743172997829
 20
497.5005627270878
 30
0.0
 11
135.8953172997829
 21
497.5005627270878
 31
0.0
  0
LINE
  5
2013
330
1E
100
AcDbEntity
  8
STEMPEL
100
AcDbLine
 10
140.3743172997829
 20
495.0005627270877
 30
0.0
 11
140.3743172997829
 21
497.5005627270878
 31
0.0
  0
LINE
  5
2014
330
1E
100
AcDbEntity
  8
STEMPEL
100
AcDbLine
 10
142.6743172997829
 20
495.0005627270877
 30
0.0
 11
140.3743172997829
 21
495.0005627270877
 31
0.0
  0
LINE
  5
2015
330
1E
100
AcDbEntity
  8
STEMPEL
100
AcDbLine
 10
142.6743172997829
 20
497.5005627270878
 30
0.0
 11
142.6743172997829
 21
495.0005627270877
 31
0.0
  0
LINE
  5
2016
330
1E
100
AcDbEntity
  8
STEMPEL
100
AcDbLine
 10
147.153317299783
 20
497.5005627270878
 30
0.0
 11
142.6743172997829
 21
497.5005627270878
 31
0.0
  0
LINE
  5
2017
330
1E
100
AcDbEntity
  8
STEMPEL
100
AcDbLine
 10
137.524317299783
 20
462.9505627270877
 30
0.0
 11
137.524317299783
 21
483.2005627270878
 31
0.0
  0
LINE
  5
2018
330
1E
100
AcDbEntity
  8
STEMPEL
100
AcDbLine
 10
138.274317299783
 20
462.2005627270878
 30
0.0
 11
137.524317299783
 21
462.9505627270877
 31
0.0
  0
LINE
  5
2019
330
1E
100
AcDbEntity
  8
STEMPEL
100
AcDbLine
 10
144.774317299783
 20
462.2005627270878
 30
0.0
 11
138.274317299783
 21
462.2005627270878
 31
0.0
  0
LINE
  5
201A
330
1E
100
AcDbEntity
  8
STEMPEL
100
AcDbLine
 10
145.524317299783
 20
462.9505627270877
 30
0.0
 11
144.774317299783
 21
462.2005627270878
 31
0.0
  0
LINE
  5
201B
330
1E
100
AcDbEntity
  8
STEMPEL
100
AcDbLine
 10
145.524317299783
 20
483.2005627270878
 30
0.0
 11
145.524317299783
 21
462.9505627270877
 31
0.0
  0
LINE
  5
201C
330
1E
100
AcDbEntity
  8
STEMPEL
100
AcDbLine
 10
145.2773172997829
 20
496.8505627270878
 30
0.0
 11
145.2773172997829
 21
492.2005627270878
 31
0.0
  0
ARC
  5
201D
330
1E
100
AcDbEntity
  8
STEMPEL
100
AcDbCircle
 10
147.153317299783
 20
494.4675627270878
 30
0.0
 40
3.032999999999999
100
AcDbArc
 50
90.0
 51
128.2132107020002
  0
ARC
  5
201E
330
1E
100
AcDbEntity
  8
STEMPEL
100
AcDbCircle
 10
147.153317299783
 20
494.4675627270878
 30
0.0
 40
3.032999999999999
100
AcDbArc
 50
51.78678929799973
 51
90.0
  0
LINE
  5
201F
330
1E
100
AcDbEntity
  8
STEMPEL
100
AcDbLine
 10
149.0303172997829
 20
492.2005627270878
 30
0.0
 11
149.0303172997829
 21
496.8505627270878
 31
0.0
  0
LINE
  5
2020
330
1E
100
AcDbEntity
  8
STEMPEL
100
AcDbLine
 10
145.9243172997829
 20
492.2005627270878
 30
0.0
 11
149.0303172997829
 21
492.2005627270878
 31
0.0
  0
LINE
  5
2021
330
1E
100
AcDbEntity
  8
STEMPEL
100
AcDbLine
 10
137.1243172997829
 20
492.2005627270878
 30
0.0
 11
145.9243172997829
 21
492.2005627270878
 31
0.0
  0
LINE
  5
2022
330
1E
100
AcDbEntity
  8
STEMPEL
100
AcDbLine
 10
134.0183172997829
 20
492.2005627270878
 30
0.0
 11
137.1243172997829
 21
492.2005627270878
 31
0.0
  0
LINE
  5
2023
330
1E
100
AcDbEntity
  8
STEMPEL
100
AcDbLine
 10
134.0183172997829
 20
496.8505627270878
 30
0.0
 11
134.0183172997829
 21
492.2005627270878
 31
0.0
  0
ARC
  5
2024
330
1E
100
AcDbEntity
  8
STEMPEL
100
AcDbCircle
 10
135.8953172997829
 20
494.4675627270878
 30
0.0
 40
3.032999999999999
100
AcDbArc
 50
90.0
 51
128.2132107020002
  0
ARC
  5
2025
330
1E
100
AcDbEntity
  8
STEMPEL
100
AcDbCircle
 10
135.8953172997829
 20
494.4675627270878
 30
0.0
 40
3.032999999999999
100
AcDbArc
 50
51.78678929799973
 51
90.0
  0
LINE
  5
2026
330
1E
100
AcDbEntity
  8
STEMPEL
100
AcDbLine
 10
137.7713172997829
 20
492.2005627270878
 30
0.0
 11
137.7713172997829
 21
496.8505627270878
 31
0.0
  0
LINE
  5
2027
330
1E
100
AcDbEntity
  8
STEMPEL
100
AcDbLine
 10
140.3743172997829
 20
186.3573420572463
 30
0.0
 11
140.3743172997829
 21
199.3573420572463
 31
0.0
  0
LINE
  5
2028
330
1E
100
AcDbEntity
  8
STEMPEL
100
AcDbLine
 10
142.6743172997829
 20
186.3573420572463
 30
0.0
 11
142.6743172997829
 21
199.3573420572463
 31
0.0
  0
ARC
  5
202A
330
1E
100
AcDbEntity
  8
STEMPEL
100
AcDbCircle
 10
141.524317299783
 20
192.8573420572463
 30
0.0
 40
6.5
100
AcDbArc
 50
280.1905887679999
 51
79.80941123200008
  0
ARC
  5
202B
330
1E
100
AcDbEntity
  8
STEMPEL
100
AcDbCircle
 10
141.524317299783
 20
192.8573420572463
 30
0.0
 40
6.5
100
AcDbArc
 50
100.1905887679999
 51
259.8094112320001
  0
LINE
  5
202C
330
1E
100
AcDbEntity
  8
STEMPEL
100
AcDbLine
 10
137.7713172997829
 20
186.3573420572463
 30
0.0
 11
134.0183172997829
 21
192.8573420572463
 31
0.0
  0
LINE
  5
202D
330
1E
100
AcDbEntity
  8
STEMPEL
100
AcDbLine
 10
145.2773172997829
 20
186.3573420572463
 30
0.0
 11
137.7713172997829
 21
186.3573420572463
 31
0.0
  0
LINE
  5
202E
330
1E
100
AcDbEntity
  8
STEMPEL
100
AcDbLine
 10
149.0303172997829
 20
192.8573420572463
 30
0.0
 11
145.2773172997829
 21
186.3573420572463
 31
0.0
  0
LINE
  5
202F
330
1E
100
AcDbEntity
  8
STEMPEL
100
AcDbLine
 10
145.2773172997829
 20
199.3573420572463
 30
0.0
 11
149.0303172997829
 21
192.8573420572463
 31
0.0
  0
LINE
  5
2030
330
1E
100
AcDbEntity
  8
STEMPEL
100
AcDbLine
 10
137.7713172997829
 20
199.3573420572463
 30
0.0
 11
145.2773172997829
 21
199.3573420572463
 31
0.0
  0
LINE
  5
2031
330
1E
100
AcDbEntity
  8
STEMPEL
100
AcDbLine
 10
134.0183172997829
 20
192.8573420572463
 30
0.0
 11
137.7713172997829
 21
199.3573420572463
 31
0.0
  0
ARC
  5
2032
330
1E
100
AcDbEntity
  8
HILF
100
AcDbCircle
 10
222.524317299783
 20
488.7005627270878
 30
0.0
 40
70.5
100
AcDbArc
 50
2.848963386999984
 51
177.1543589339991
  0
LINE
  5
2033
330
1E
100
AcDbEntity
  8
STEMPEL
100
AcDbLine
 10
297.223317299783
 20
490.2005627270877
 30
0.0
 11
297.223317299783
 21
492.2005627270878
 31
0.0
  0
LINE
  5
2034
330
1E
100
AcDbEntity
  8
STEMPEL
100
AcDbLine
 10
310.6753172997829
 20
492.2005627270878
 30
0.0
 11
310.6753172997829
 21
490.2005627270877
 31
0.0
  0
LINE
  5
2035
330
1E
100
AcDbEntity
  8
STEMPEL
100
AcDbLine
 10
134.3733172997829
 20
492.2005627270878
 30
0.0
 11
134.3733172997829
 21
490.2005627270877
 31
0.0
  0
LINE
  5
2036
330
1E
100
AcDbEntity
  8
STEMPEL
100
AcDbLine
 10
308.9213172997829
 20
494.2005627270877
 30
0.0
 11
308.9213172997829
 21
492.2145627270878
 31
0.0
  0
LINE
  5
2037
330
1E
100
AcDbEntity
  8
STEMPEL
100
AcDbLine
 10
306.8903172997829
 20
494.2005627270877
 30
0.0
 11
308.9213172997829
 21
494.2005627270877
 31
0.0
  0
LINE
  5
2038
330
1E
100
AcDbEntity
  8
STEMPEL
100
AcDbLine
 10
306.8903172997829
 20
492.3995627270878
 30
0.0
 11
306.8903172997829
 21
494.2005627270877
 31
0.0
  0
ARC
  5
2039
330
1E
100
AcDbEntity
  8
STEMPEL
100
AcDbCircle
 10
309.340317299783
 20
492.6505627270877
 30
0.0
 40
2.463
100
AcDbArc
 50
185.8375244180006
 51
264.0930946060002
  0
LINE
  5
203A
330
1E
100
AcDbEntity
  8
STEMPEL
100
AcDbLine
 10
292.8093172997829
 20
492.2005627270878
 30
0.0
 11
306.919317299783
 21
492.2005627270878
 31
0.0
  0
ARC
  5
203B
330
1E
100
AcDbEntity
  8
STEMPEL
100
AcDbCircle
 10
292.8093172997829
 20
494.2005627270877
 30
0.0
 40
2.0
100
AcDbArc
 50
184.4744300819997
 51
270.0
  0
ARC
  5
203C
330
1E
100
AcDbEntity
  8
STEMPEL
100
AcDbCircle
 10
222.524317299783
 20
488.7005627270878
 30
0.0
 40
68.5
100
AcDbArc
 50
4.474430081999793
 51
175.5255699180002
  0
ARC
  5
203D
330
1E
100
AcDbEntity
  8
STEMPEL
100
AcDbCircle
 10
152.2393172997829
 20
494.2005627270877
 30
0.0
 40
2.0
100
AcDbArc
 50
270.0
 51
355.5255699180002
  0
LINE
  5
203E
330
1E
100
AcDbEntity
  8
STEMPEL
100
AcDbLine
 10
131.024317299783
 20
492.2005627270878
 30
0.0
 11
152.2393172997829
 21
492.2005627270878
 31
0.0
  0
LINE
  5
203F
330
1E
100
AcDbEntity
  8
STEMPEL
100
AcDbLine
 10
131.024317299783
 20
490.2005627270877
 30
0.0
 11
131.024317299783
 21
492.2005627270878
 31
0.0
  0
LINE
  5
2040
330
1E
100
AcDbEntity
  8
STEMPEL
100
AcDbLine
 10
152.2393172997829
 20
490.2005627270877
 30
0.0
 11
131.024317299783
 21
490.2005627270877
 31
0.0
  0
ARC
  5
2041
330
1E
100
AcDbEntity
  8
STEMPEL
100
AcDbCircle
 10
152.2393172997829
 20
494.2005627270877
 30
0.0
 40
4.0
100
AcDbArc
 50
270.0
 51
355.5255699180002
  0
ARC
  5
2042
330
1E
100
AcDbEntity
  8
STEMPEL
100
AcDbCircle
 10
222.524317299783
 20
488.7005627270878
 30
0.0
 40
66.5
100
AcDbArc
 50
4.474430081999793
 51
175.5255699180002
  0
ARC
  5
2043
330
1E
100
AcDbEntity
  8
STEMPEL
100
AcDbCircle
 10
292.8093172997829
 20
494.2005627270877
 30
0.0
 40
4.0
100
AcDbArc
 50
184.4744300819997
 51
270.0
  0
LINE
  5
2044
330
1E
100
AcDbEntity
  8
STEMPEL
100
AcDbLine
 10
299.524317299783
 20
490.2005627270877
 30
0.0
 11
292.8093172997829
 21
490.2005627270877
 31
0.0
  0
LINE
  5
2045
330
1E
100
AcDbEntity
  8
STEMPEL
100
AcDbLine
 10
314.024317299783
 20
490.2005627270877
 30
0.0
 11
307.524317299783
 21
490.2005627270877
 31
0.0
  0
LINE
  5
2046
330
1E
100
AcDbEntity
  8
STEMPEL
100
AcDbLine
 10
314.024317299783
 20
492.2005627270878
 30
0.0
 11
314.024317299783
 21
490.2005627270877
 31
0.0
  0
LINE
  5
2047
330
1E
100
AcDbEntity
  8
STEMPEL
100
AcDbLine
 10
309.0643172997829
 20
492.2005627270878
 30
0.0
 11
314.024317299783
 21
492.2005627270878
 31
0.0
  0
ARC
  5
2048
330
1E
100
AcDbEntity
  8
STEMPEL
100
AcDbCircle
 10
309.0643172997829
 20
492.9005627270877
 30
0.0
 40
0.7
100
AcDbArc
 50
180.0
 51
270.0
  0
LINE
  5
2049
330
1E
100
AcDbEntity
  8
STEMPEL
100
AcDbLine
 10
308.3643172997829
 20
494.2005627270877
 30
0.0
 11
308.3643172997829
 21
492.9005627270877
 31
0.0
  0
LINE
  5
204A
330
1E
100
AcDbEntity
  8
HILF
100
AcDbLine
 10
219.024317299783
 20
400.2005627270878
 30
0.0
 11
226.024317299783
 21
400.2005627270878
 31
0.0
  0
LINE
  5
204B
330
1E
100
AcDbEntity
  8
STEMPEL
100
AcDbLine
 10
222.524317299783
 20
255.2005627270878
 30
0.0
 11
226.024317299783
 21
265.2005627270878
 31
0.0
  0
LINE
  5
204C
330
1E
100
AcDbEntity
  8
STEMPEL
100
AcDbLine
 10
219.024317299783
 20
265.2005627270878
 30
0.0
 11
222.524317299783
 21
255.2005627270878
 31
0.0
  0
LINE
  5
204D
330
1E
100
AcDbEntity
  8
STEMPEL
100
AcDbLine
 10
228.024317299783
 20
407.7005627270877
 30
0.0
 11
228.024317299783
 21
407.2005627270877
 31
0.0
  0
ARC
  5
204E
330
1E
100
AcDbEntity
  8
STEMPEL
100
AcDbCircle
 10
227.024317299783
 20
407.7005627270877
 30
0.0
 40
1.0
100
AcDbArc
 50
0.0
 51
90.0
  0
LINE
  5
204F
330
1E
100
AcDbEntity
  8
STEMPEL
100
AcDbLine
 10
218.024317299783
 20
408.7005627270878
 30
0.0
 11
227.024317299783
 21
408.7005627270878
 31
0.0
  0
ARC
  5
2050
330
1E
100
AcDbEntity
  8
STEMPEL
100
AcDbCircle
 10
218.024317299783
 20
407.7005627270877
 30
0.0
 40
1.0
100
AcDbArc
 50
90.0
 51
180.0
  0
LINE
  5
2051
330
1E
100
AcDbEntity
  8
STEMPEL
100
AcDbLine
 10
217.024317299783
 20
407.2005627270877
 30
0.0
 11
217.024317299783
 21
407.7005627270877
 31
0.0
  0
LINE
  5
2052
330
1E
100
AcDbEntity
  8
STEMPEL
100
AcDbLine
 10
219.024317299783
 20
265.2005627270878
 30
0.0
 11
226.024317299783
 21
265.2005627270878
 31
0.0
  0
LINE
  5
2053
330
1E
100
AcDbEntity
  8
STEMPEL
100
AcDbLine
 10
219.024317299783
 20
399.8495627270878
 30
0.0
 11
219.024317299783
 21
265.2005627270878
 31
0.0
  0
ARC
  5
2054
330
1E
100
AcDbEntity
  8
STEMPEL
100
AcDbCircle
 10
218.024317299783
 20
399.8495627270878
 30
0.0
 40
1.0
100
AcDbArc
 50
0.0
 51
38.65980825399905
  0
LINE
  5
2055
330
1E
100
AcDbEntity
  8
STEMPEL
100
AcDbLine
 10
215.024317299783
 20
405.2005627270878
 30
0.0
 11
218.8053172997829
 21
400.4745627270877
 31
0.0
  0
LINE
  5
2056
330
1E
100
AcDbEntity
  8
STEMPEL
100
AcDbLine
 10
230.024317299783
 20
405.2005627270878
 30
0.0
 11
215.024317299783
 21
405.2005627270878
 31
0.0
  0
LINE
  5
2057
330
1E
100
AcDbEntity
  8
STEMPEL
100
AcDbLine
 10
226.2433172997829
 20
400.4745627270877
 30
0.0
 11
230.024317299783
 21
405.2005627270878
 31
0.0
  0
ARC
  5
2058
330
1E
100
AcDbEntity
  8
STEMPEL
100
AcDbCircle
 10
227.024317299783
 20
399.8495627270878
 30
0.0
 40
1.0
100
AcDbArc
 50
141.3401917460009
 51
180.0
  0
LINE
  5
2059
330
1E
100
AcDbEntity
  8
STEMPEL
100
AcDbLine
 10
226.024317299783
 20
265.2005627270878
 30
0.0
 11
226.024317299783
 21
399.8495627270878
 31
0.0
  0
LINE
  5
205A
330
1E
100
AcDbEntity
  8
STEMPEL
100
AcDbLine
 10
299.024317299783
 20
484.2005627270878
 30
0.0
 11
299.024317299783
 21
483.2005627270878
 31
0.0
  0
ARC
  5
205B
330
1E
100
AcDbEntity
  8
STEMPEL
100
AcDbCircle
 10
298.024317299783
 20
484.2005627270878
 30
0.0
 40
1.0
100
AcDbArc
 50
0.0
 51
90.0
  0
LINE
  5
205C
330
1E
100
AcDbEntity
  8
STEMPEL
100
AcDbLine
 10
308.024317299783
 20
483.2005627270878
 30
0.0
 11
308.024317299783
 21
484.2005627270878
 31
0.0
  0
LINE
  5
205D
330
1E
100
AcDbEntity
  8
STEMPEL
100
AcDbLine
 10
299.024317299783
 20
483.2005627270878
 30
0.0
 11
308.024317299783
 21
483.2005627270878
 31
0.0
  0
ARC
  5
205E
330
1E
100
AcDbEntity
  8
STEMPEL
100
AcDbCircle
 10
309.024317299783
 20
484.2005627270878
 30
0.0
 40
1.0
100
AcDbArc
 50
90.0
 51
180.0
  0
LINE
  5
205F
330
1E
100
AcDbEntity
  8
STEMPEL
100
AcDbLine
 10
146.024317299783
 20
483.2005627270878
 30
0.0
 11
146.024317299783
 21
484.2005627270878
 31
0.0
  0
LINE
  5
2060
330
1E
100
AcDbEntity
  8
STEMPEL
100
AcDbLine
 10
137.0243172997829
 20
483.2005627270878
 30
0.0
 11
146.024317299783
 21
483.2005627270878
 31
0.0
  0
ARC
  5
2061
330
1E
100
AcDbEntity
  8
STEMPEL
100
AcDbCircle
 10
147.024317299783
 20
484.2005627270878
 30
0.0
 40
1.0
100
AcDbArc
 50
90.0
 51
180.0
  0
ARC
  5
2062
330
1E
100
AcDbEntity
  8
STEMPEL
100
AcDbCircle
 10
136.0243172997829
 20
484.2005627270878
 30
0.0
 40
1.0
100
AcDbArc
 50
0.0
 51
90.0
  0
LINE
  5
2063
330
1E
100
AcDbEntity
  8
STEMPEL
100
AcDbLine
 10
137.0243172997829
 20
484.2005627270878
 30
0.0
 11
137.0243172997829
 21
483.2005627270878
 31
0.0
  0
LINE
  5
2064
330
1E
100
AcDbEntity
  8
STEMPEL
100
AcDbLine
 10
134.3733172997829
 20
487.2005627270878
 30
0.0
 11
134.3733172997829
 21
485.2005627270878
 31
0.0
  0
ARC
  5
2065
330
1E
100
AcDbEntity
  8
HILF
100
AcDbCircle
 10
222.524317299783
 20
488.7005627270878
 30
0.0
 40
69.5
100
AcDbArc
 50
183.056654868999
 51
256.4698366279987
  0
LINE
  5
2066
330
1E
100
AcDbEntity
  8
STEMPEL
100
AcDbLine
 10
310.6753172997829
 20
487.2005627270878
 30
0.0
 11
310.6753172997829
 21
485.2005627270878
 31
0.0
  0
ARC
  5
2067
330
1E
100
AcDbEntity
  8
HILF
100
AcDbCircle
 10
222.524317299783
 20
488.7005627270878
 30
0.0
 40
69.5
100
AcDbArc
 50
283.5301633720013
 51
356.9433451309994
  0
ARC
  5
2068
330
1E
100
AcDbEntity
  8
STEMPEL
100
AcDbCircle
 10
204.3393172997829
 20
420.5865627270878
 30
0.0
 40
2.0
100
AcDbArc
 50
6.999999999999538
 51
75.05206141600028
  0
LINE
  5
2069
330
1E
100
AcDbEntity
  8
STEMPEL
100
AcDbLine
 10
207.812317299783
 20
408.7135627270878
 30
0.0
 11
206.3243172997829
 21
420.8305627270878
 31
0.0
  0
ARC
  5
206A
330
1E
100
AcDbEntity
  8
STEMPEL
100
AcDbCircle
 10
211.782317299783
 20
409.2005627270878
 30
0.0
 40
4.0
100
AcDbArc
 50
186.9999999999995
 51
270.0
  0
LINE
  5
206B
330
1E
100
AcDbEntity
  8
STEMPEL
100
AcDbLine
 10
233.2663172997829
 20
405.2005627270878
 30
0.0
 11
211.782317299783
 21
405.2005627270878
 31
0.0
  0
ARC
  5
206C
330
1E
100
AcDbEntity
  8
STEMPEL
100
AcDbCircle
 10
233.2663172997829
 20
409.2005627270878
 30
0.0
 40
4.0
100
AcDbArc
 50
270.0
 51
353.0000000000005
  0
LINE
  5
206D
330
1E
100
AcDbEntity
  8
STEMPEL
100
AcDbLine
 10
238.724317299783
 20
420.8305627270878
 30
0.0
 11
237.236317299783
 21
408.7135627270878
 31
0.0
  0
ARC
  5
206E
330
1E
100
AcDbEntity
  8
STEMPEL
100
AcDbCircle
 10
240.7093172997829
 20
420.5865627270878
 30
0.0
 40
2.0
100
AcDbArc
 50
104.9479385839997
 51
173.0000000000004
  0
ARC
  5
206F
330
1E
100
AcDbEntity
  8
STEMPEL
100
AcDbCircle
 10
222.524317299783
 20
488.7005627270878
 30
0.0
 40
68.5
100
AcDbArc
 50
284.9479385839997
 51
355.5255699180002
  0
ARC
  5
2070
330
1E
100
AcDbEntity
  8
STEMPEL
100
AcDbCircle
 10
292.8093172997829
 20
483.2005627270878
 30
0.0
 40
2.0
100
AcDbArc
 50
90.0
 51
175.5255699180002
  0
LINE
  5
2071
330
1E
100
AcDbEntity
  8
STEMPEL
100
AcDbLine
 10
298.524317299783
 20
485.2005627270878
 30
0.0
 11
292.8093172997829
 21
485.2005627270878
 31
0.0
  0
LINE
  5
2072
330
1E
100
AcDbEntity
  8
STEMPEL
100
AcDbLine
 10
314.024317299783
 20
485.2005627270878
 30
0.0
 11
298.524317299783
 21
485.2005627270878
 31
0.0
  0
LINE
  5
2073
330
1E
100
AcDbEntity
  8
STEMPEL
100
AcDbLine
 10
314.024317299783
 20
487.2005627270878
 30
0.0
 11
314.024317299783
 21
485.2005627270878
 31
0.0
  0
LINE
  5
2074
330
1E
100
AcDbEntity
  8
STEMPEL
100
AcDbLine
 10
292.8093172997829
 20
487.2005627270878
 30
0.0
 11
314.024317299783
 21
487.2005627270878
 31
0.0
  0
ARC
  5
2075
330
1E
100
AcDbEntity
  8
STEMPEL
100
AcDbCircle
 10
292.8093172997829
 20
483.2005627270878
 30
0.0
 40
4.0
100
AcDbArc
 50
90.0
 51
175.5255699180002
  0
ARC
  5
2076
330
1E
100
AcDbEntity
  8
STEMPEL
100
AcDbCircle
 10
222.524317299783
 20
488.7005627270878
 30
0.0
 40
66.5
100
AcDbArc
 50
284.9479385839997
 51
355.5255699180002
  0
ARC
  5
2077
330
1E
100
AcDbEntity
  8
STEMPEL
100
AcDbCircle
 10
240.7093172997829
 20
420.5865627270878
 30
0.0
 40
4.0
100
AcDbArc
 50
104.9479385839997
 51
173.0000000000004
  0
LINE
  5
2078
330
1E
100
AcDbEntity
  8
STEMPEL
100
AcDbLine
 10
235.2513172997829
 20
408.9565627270877
 30
0.0
 11
236.7393172997829
 21
421.0735627270877
 31
0.0
  0
ARC
  5
2079
330
1E
100
AcDbEntity
  8
STEMPEL
100
AcDbCircle
 10
233.2663172997829
 20
409.2005627270878
 30
0.0
 40
2.0
100
AcDbArc
 50
270.0
 51
353.0000000000005
  0
LINE
  5
207A
330
1E
100
AcDbEntity
  8
STEMPEL
100
AcDbLine
 10
211.782317299783
 20
407.2005627270877
 30
0.0
 11
233.2663172997829
 21
407.2005627270877
 31
0.0
  0
ARC
  5
207B
330
1E
100
AcDbEntity
  8
STEMPEL
100
AcDbCircle
 10
211.782317299783
 20
409.2005627270878
 30
0.0
 40
2.0
100
AcDbArc
 50
186.9999999999995
 51
270.0
  0
LINE
  5
207C
330
1E
100
AcDbEntity
  8
STEMPEL
100
AcDbLine
 10
208.309317299783
 20
421.0735627270877
 30
0.0
 11
209.7973172997829
 21
408.9565627270877
 31
0.0
  0
ARC
  5
207D
330
1E
100
AcDbEntity
  8
STEMPEL
100
AcDbCircle
 10
204.3393172997829
 20
420.5865627270878
 30
0.0
 40
4.0
100
AcDbArc
 50
6.999999999999538
 51
75.05206141600028
  0
ARC
  5
207E
330
1E
100
AcDbEntity
  8
STEMPEL
100
AcDbCircle
 10
222.524317299783
 20
488.7005627270878
 30
0.0
 40
66.5
100
AcDbArc
 50
184.4744300819997
 51
255.0520614160003
  0
ARC
  5
207F
330
1E
100
AcDbEntity
  8
STEMPEL
100
AcDbCircle
 10
152.2393172997829
 20
483.2005627270878
 30
0.0
 40
4.0
100
AcDbArc
 50
4.474430081999793
 51
90.0
  0
LINE
  5
2080
330
1E
100
AcDbEntity
  8
STEMPEL
100
AcDbLine
 10
131.024317299783
 20
487.2005627270878
 30
0.0
 11
152.2393172997829
 21
487.2005627270878
 31
0.0
  0
LINE
  5
2081
330
1E
100
AcDbEntity
  8
STEMPEL
100
AcDbLine
 10
131.024317299783
 20
485.2005627270878
 30
0.0
 11
131.024317299783
 21
487.2005627270878
 31
0.0
  0
LINE
  5
2082
330
1E
100
AcDbEntity
  8
STEMPEL
100
AcDbLine
 10
152.2393172997829
 20
485.2005627270878
 30
0.0
 11
131.024317299783
 21
485.2005627270878
 31
0.0
  0
ARC
  5
2083
330
1E
100
AcDbEntity
  8
STEMPEL
100
AcDbCircle
 10
152.2393172997829
 20
483.2005627270878
 30
0.0
 40
2.0
100
AcDbArc
 50
4.474430081999793
 51
90.0
  0
ARC
  5
2084
330
1E
100
AcDbEntity
  8
STEMPEL
100
AcDbCircle
 10
222.524317299783
 20
488.7005627270878
 30
0.0
 40
68.5
100
AcDbArc
 50
184.4744300819997
 51
255.0520614160003
  0
LINE
  5
2085
330
1E
100
AcDbEntity
  8
MITTEL
100
AcDbLine
 10
319.024317299783
 20
488.7005627270877
 30
0.0
 11
126.024317299783
 21
488.7005627270878
 31
0.0
  0
LINE
  5
2086
330
1E
100
AcDbEntity
  8
MITTEL
100
AcDbLine
 10
222.524317299783
 20
566.9365627270877
 30
0.0
 11
222.524317299783
 21
250.2005627270878
 31
0.0
  0
LINE
  5
2087
330
1E
100
AcDbEntity
  8
MITTEL
100
AcDbLine
 10
141.524317299783
 20
502.5005627270878
 30
0.0
 11
141.5243172997828
 21
457.2005627270877
 31
0.0
  0
LINE
  5
2088
330
1E
100
AcDbEntity
  8
MITTEL
100
AcDbLine
 10
303.524317299783
 20
502.5005627270878
 30
0.0
 11
303.524317299783
 21
457.2005627270877
 31
0.0
  0
ARC
  5
2097
330
1E
100
AcDbEntity
  8
STEMPEL
100
AcDbCircle
 10
156.024317299783
 20
192.8573420572463
 30
0.0
 40
25.0
100
AcDbArc
 50
149.9999937530001
 51
209.9999937529995
  0
ARC
  5
2098
330
1E
100
AcDbEntity
  8
STEMPEL
100
AcDbCircle
 10
289.024317299783
 20
192.8573420572463
 30
0.0
 40
25.0
100
AcDbArc
 50
330.0000062470004
 51
30.00000624699991
  0
LINE
  5
2099
330
1E
100
AcDbEntity
  8
MITTEL
100
AcDbLine
 10
303.524317299783
 20
181.3573420572463
 30
0.0
 11
303.5243172997831
 21
204.3573420572463
 31
0.0
  0
LINE
  5
209A
330
1E
100
AcDbEntity
  8
STEMPEL
100
AcDbLine
 10
299.2043172997829
 20
187.3393420572463
 30
0.0
 11
298.2233172997829
 21
180.3573420572463
 31
0.0
  0
LINE
  5
209B
330
1E
100
AcDbEntity
  8
STEMPEL
100
AcDbLine
 10
306.135317299783
 20
186.3573420572463
 30
0.0
 11
305.292317299783
 21
180.3573420572463
 31
0.0
  0
LINE
  5
209C
330
1E
100
AcDbEntity
  8
MITTEL
100
AcDbLine
 10
141.524317299783
 20
181.3573420572463
 30
0.0
 11
141.5243172997829
 21
204.3573420572463
 31
0.0
  0
LINE
  5
209D
330
1E
100
AcDbEntity
  8
HILF
100
AcDbLine
 10
151.0853172997829
 20
205.3573420572464
 30
0.0
 11
151.0853172997829
 21
180.3573420572463
 31
0.0
  0
LINE
  5
209E
330
1E
100
AcDbEntity
  8
HILF
100
AcDbLine
 10
293.963317299783
 20
205.3573420572464
 30
0.0
 11
293.963317299783
 21
180.3573420572463
 31
0.0
  0
LINE
  5
209F
330
1E
100
AcDbEntity
  8
HILF
100
AcDbLine
 10
293.963317299783
 20
187.8573420572463
 30
0.0
 11
151.0853172997829
 21
187.8573420572463
 31
0.0
  0
LINE
  5
20A0
330
1E
100
AcDbEntity
  8
HILF
100
AcDbLine
 10
293.963317299783
 20
197.8573420572463
 30
0.0
 11
151.0853172997829
 21
197.8573420572463
 31
0.0
  0
LINE
  5
20A1
330
1E
100
AcDbEntity
  8
MITTEL
100
AcDbLine
 10
319.024317299783
 20
192.8573420572463
 30
0.0
 11
126.024317299783
 21
192.8573420572463
 31
0.0
  0
LINE
  5
20A2
330
1E
100
AcDbEntity
  8
MITTEL
100
AcDbLine
 10
222.524317299783
 20
210.3573420572463
 30
0.0
 11
222.524317299783
 21
175.3573420572463
 31
0.0
  0
LINE
  5
20A3
330
1E
100
AcDbEntity
  8
STEMPEL
100
AcDbLine
 10
307.346317299783
 20
184.4853420572462
 30
0.0
 11
306.7663172997829
 21
180.3573420572463
 31
0.0
  0
LINE
  5
20A4
330
1E
100
AcDbEntity
  8
STEMPEL
100
AcDbLine
 10
305.901317299783
 20
184.6883420572462
 30
0.0
 11
307.346317299783
 21
184.4853420572462
 31
0.0
  0
LINE
  5
20A5
330
1E
100
AcDbEntity
  8
STEMPEL
100
AcDbLine
 10
310.6753172997829
 20
205.3573420572464
 30
0.0
 11
134.3733172997829
 21
205.3573420572464
 31
0.0
  0
LINE
  5
20A6
330
1E
100
AcDbEntity
  8
STEMPEL
100
AcDbLine
 10
134.3733172997829
 20
180.3573420572463
 30
0.0
 11
310.6753172997829
 21
180.3573420572463
 31
0.0
  0
DIMENSION
  5
20BE
330
1E
100
AcDbEntity
  8
BEM
100
AcDbDimension
  2
*D2
 10
303.524317299783
 20
159.0781479989934
 30
0.0
 11
222.524317299783
 21
165.5781479989935
 31
0.0
 70
    32
 71
     5
 42
161.9999999999999
  3
Standard
100
AcDbAlignedDimension
 13
141.524317299783
 23
181.3573420572463
 33
0.0
 14
303.524317299783
 24
181.3573420572463
 34
0.0
100
AcDbRotatedDimension
1001
ACAD
1000
DSTYLE
1002
{
1070
    40
1040
2.0
1070
    41
1040
3.5
1070
    42
1040
1.0
1070
    43
1040
7.0
1070
    44
1040
1.0
1070
    73
1070
     0
1070
    74
1070
     0
1070
    77
1070
     1
1070
    78
1070
     8
1070
    79
1070
     2
1070
   140
1040
3.5
1070
   141
1040
1.5
1070
   146
1040
0.5
1070
   147
1040
1.5
1070
   172
1070
     1
1070
   178
1070
     1
1070
   179
1070
     2
1070
   271
1070
     2
1070
   272
1070
     2
1070
   284
1070
     8
1070
   285
1070
     8
1070
   286
1070
     8
1002
}
  0
DIMENSION
  5
20CB
330
1E
100
AcDbEntity
  8
BEM
100
AcDbDimension
  2
*D3
 10
314.024317299783
 20
143.5905264275359
 30
0.0
 11
222.524317299783
 21
150.0905264275359
 31
0.0
 70
    32
 71
     5
 42
183.0
  3
Standard
100
AcDbAlignedDimension
 13
131.024317299783
 23
192.8573420572463
 33
0.0
 14
314.024317299783
 24
192.8573420572463
 34
0.0
100
AcDbRotatedDimension
1001
ACAD
1000
DSTYLE
1002
{
1070
    40
1040
2.0
1070
    41
1040
3.5
1070
    42
1040
1.0
1070
    43
1040
7.0
1070
    44
1040
1.0
1070
    73
1070
     0
1070
    74
1070
     0
1070
    77
1070
     1
1070
    78
1070
     8
1070
    79
1070
     2
1070
   140
1040
3.5
1070
   141
1040
1.5
1070
   146
1040
0.5
1070
   147
1040
1.5
1070
   172
1070
     1
1070
   178
1070
     1
1070
   179
1070
     2
1070
   271
1070
     2
1070
   272
1070
     2
1070
   284
1070
     8
1070
   285
1070
     8
1070
   286
1070
     8
1002
}
  0
DIMENSION
  5
20E8
330
1E
100
AcDbEntity
  8
BEM
100
AcDbDimension
  2
*D4
 10
273.0416981947164
 20
531.9468930783513
 30
0.0
 11
241.2550654216231
 21
504.7596631706243
 31
0.0
 70
   161
 71
     5
 42
132.9999999999982
  3
Standard
100
AcDbAlignedDimension
 13
171.9878671005411
 23
445.4765277319657
 33
0.0
 14
273.0607810830122
 24
531.9245818401499
 34
0.0
1001
ACAD
1000
DSTYLE
1002
{
1070
    40
1040
2.0
1070
    41
1040
3.5
1070
    42
1040
1.0
1070
    43
1040
7.0
1070
    44
1040
1.0
1070
    73
1070
     0
1070
    74
1070
     0
1070
    77
1070
     1
1070
    78
1070
     8
1070
    79
1070
     2
1070
   140
1040
3.5
1070
   141
1040
1.5
1070
   146
1040
0.5
1070
   147
1040
1.5
1070
   172
1070
     1
1070
   178
1070
     1
1070
   179
1070
     2
1070
   271
1070
     2
1070
   272
1070
     2
1070
   284
1070
     8
1070
   285
1070
     8
1070
   286
1070
     8
1002
}
  0
DIMENSION
  5
210C
330
1E
100
AcDbEntity
  8
BEM
100
AcDbDimension
  2
*D5
 10
113.8420958200104
 20
405.2005627270878
 30
0.0
 11
107.3420958200103
 21
330.2005627270879
 31
0.0
 70
    32
 71
     5
 42
150.0
  3
Standard
100
AcDbAlignedDimension
 13
222.524317299783
 23
255.2005627270878
 33
0.0
 14
211.782317299783
 24
405.2005627270878
 34
0.0
 50
90.0
100
AcDbRotatedDimension
1001
ACAD
1000
DSTYLE
1002
{
1070
    40
1040
2.0
1070
    41
1040
3.5
1070
    42
1040
1.0
1070
    43
1040
7.0
1070
    44
1040
1.0
1070
    73
1070
     0
1070
    74
1070
     0
1070
    77
1070
     1
1070
    78
1070
     8
1070
    79
1070
     2
1070
   140
1040
3.5
1070
   141
1040
1.5
1070
   146
1040
0.5
1070
   147
1040
1.5
1070
   172
1070
     1
1070
   178
1070
     1
1070
   179
1070
     2
1070
   271
1070
     2
1070
   272
1070
     2
1070
   284
1070
     8
1070
   285
1070
     8
1070
   286
1070
     8
1002
}
  0
DIMENSION
  5
2119
330
1E
100
AcDbEntity
  8
BEM
100
AcDbDimension
  2
*D6
 10
113.8420958200104
 20
487.2005627270878
 30
0.0
 11
107.3420958200103
 21
468.3338960604212
 31
0.0
 70
    32
 71
     5
 42
3.0
  3
Standard
100
AcDbAlignedDimension
 13
131.024317299783
 23
490.2005627270877
 33
0.0
 14
131.024317299783
 24
487.2005627270878
 34
0.0
 50
90.0
100
AcDbRotatedDimension
1001
ACAD
1000
DSTYLE
1002
{
1070
    40
1040
2.0
1070
    41
1040
3.5
1070
    42
1040
1.0
1070
    43
1040
7.0
1070
    44
1040
1.0
1070
    73
1070
     0
1070
    74
1070
     0
1070
    77
1070
     1
1070
    78
1070
     8
1070
    79
1070
     2
1070
   140
1040
3.5
1070
   141
1040
1.5
1070
   146
1040
0.5
1070
   147
1040
1.5
1070
   172
1070
     1
1070
   178
1070
     1
1070
   179
1070
     2
1070
   271
1070
     2
1070
   272
1070
     2
1070
   284
1070
     8
1070
   285
1070
     8
1070
   286
1070
     8
1002
}
  0
DIMENSION
  5
2128
330
1E
100
AcDbEntity
  8
BEM
100
AcDbDimension
  2
*D7
 10
95.20987053948374
 20
559.2005627270878
 30
0.0
 11
88.70987053948365
 21
407.2005627270877
 31
0.0
 70
    32
 71
     5
 42
304.0
  3
Standard
100
AcDbAlignedDimension
 13
222.524317299783
 23
255.2005627270878
 33
0.0
 14
222.524317299783
 24
559.2005627270878
 34
0.0
 50
90.0
100
AcDbRotatedDimension
1001
ACAD
1000
DSTYLE
1002
{
1070
    40
1040
2.0
1070
    41
1040
3.5
1070
    42
1040
1.0
1070
    43
1040
7.0
1070
    44
1040
1.0
1070
    73
1070
     0
1070
    74
1070
     0
1070
    77
1070
     1
1070
    78
1070
     8
1070
    79
1070
     2
1070
   140
1040
3.5
1070
   141
1040
1.5
1070
   146
1040
0.5
1070
   147
1040
1.5
1070
   172
1070
     1
1070
   178
1070
     1
1070
   179
1070
     2
1070
   271
1070
     2
1070
   272
1070
     2
1070
   284
1070
     8
1070
   285
1070
     8
1070
   286
1070
     8
1002
}
  0
DIMENSION
  5
21F4
330
1E
100
AcDbEntity
  8
BEM
100
AcDbDimension
  2
*D8
 10
114.5877772577505
 20
180.3573420572463
 30
0.0
 11
108.0877772577505
 21
192.8573420572464
 31
0.0
 70
    32
 71
     5
 42
25.0
  3
Standard
100
AcDbAlignedDimension
 13
134.3733172997829
 23
205.3573420572464
 33
0.0
 14
134.3733172997829
 24
180.3573420572463
 34
0.0
 50
90.0
100
AcDbRotatedDimension
1001
ACAD
1000
DSTYLE
1002
{
1070
    40
1040
2.0
1070
    41
1040
3.5
1070
    42
1040
1.0
1070
    43
1040
7.0
1070
    44
1040
1.0
1070
    73
1070
     0
1070
    74
1070
     0
1070
    77
1070
     1
1070
    78
1070
     8
1070
    79
1070
     2
1070
   140
1040
3.5
1070
   141
1040
1.5
1070
   146
1040
0.5
1070
   147
1040
1.5
1070
   172
1070
     1
1070
   178
1070
     1
1070
   179
1070
     2
1070
   271
1070
     2
1070
   272
1070
     2
1070
   284
1070
     8
1070
   285
1070
     8
1070
   286
1070
     8
1002
}
  0
TEXT
  5
220C
330
1E
100
AcDbEntity
  8
TEXT
 62
     1
100
AcDbText
 10
227.8365522679116
 20
115.6405708316599
 30
0.0
 40
7.0
  1
Werkstoff: St37 Dickschichtpassiviert
 41
0.8
  7
GREEKS
100
AcDbText
  0
ENDSEC
  0
SECTION
  2
OBJECTS
  0
DICTIONARY
  5
C
330
0
100
AcDbDictionary
281
     1
  3
ACAD_COLOR
350
DF
  3
ACAD_GROUP
350
D
  3
ACAD_LAYOUT
350
19
  3
ACAD_MATERIAL
350
DE
  3
ACAD_MLINESTYLE
350
16
  3
ACAD_PLOTSETTINGS
350
18
  3
ACAD_PLOTSTYLENAME
350
E
  3
AcDbVariableDictionary
350
EA
  0
DICTIONARY
  5
A0
330
1E
100
AcDbDictionary
280
     1
281
     1
  3
ACAD_LAYOUTSELFREF
360
D4
  0
DICTIONARY
  5
A2
330
1A
100
AcDbDictionary
280
     1
281
     1
  3
ACAD_LAYOUTSELFREF
360
D3
  0
DICTIONARY
  5
DF
102
{ACAD_REACTORS
330
C
102
}
330
C
100
AcDbDictionary
281
     1
  0
DICTIONARY
  5
D
102
{ACAD_REACTORS
330
C
102
}
330
C
100
AcDbDictionary
281
     1
  0
DICTIONARY
  5
19
102
{ACAD_REACTORS
330
C
102
}
330
C
100
AcDbDictionary
281
     1
  3
Layout1
350
1D
  3
Model
350
21
  0
DICTIONARY
  5
DE
102
{ACAD_REACTORS
330
C
102
}
330
C
100
AcDbDictionary
281
     1
  0
DICTIONARY
  5
16
102
{ACAD_REACTORS
330
C
102
}
330
C
100
AcDbDictionary
281
     1
  3
Standard
350
17
  0
DICTIONARY
  5
18
102
{ACAD_REACTORS
330
C
102
}
330
C
100
AcDbDictionary
281
     1
  0
ACDBDICTIONARYWDFLT
  5
E
102
{ACAD_REACTORS
330
C
102
}
330
C
100
AcDbDictionary
281
     1
  3
Normal
350
F
100
AcDbDictionaryWithDefault
340
F
  0
DICTIONARY
  5
EA
102
{ACAD_REACTORS
330
C
102
}
330
C
100
AcDbDictionary
281
     1
  3
DIMASSOC
350
EB
  3
PROJECTNAME
350
EC
  0
XRECORD
  5
D4
102
{ACAD_REACTORS
330
A0
102
}
330
A0
100
AcDbXrecord
280
     1
340
1E
  0
XRECORD
  5
D3
102
{ACAD_REACTORS
330
A2
102
}
330
A2
100
AcDbXrecord
280
     1
340
1A
  0
LAYOUT
  5
1D
102
{ACAD_REACTORS
330
19
102
}
330
19
100
AcDbPlotSettings
  1

  2
\\NT_WORK01\HP LaserJet 5000 PCL 6
  4

  6

 40
0.0
 41
0.0
 42
0.0
 43
0.0
 44
0.0
 45
0.0
 46
0.0
 47
0.0
 48
0.0
 49
0.0
140
0.0
141
0.0
142
1.0
143
1.0
 70
   688
 72
     0
 73
     0
 74
     5
  7

 75
    16
147
1.0
 76
     0
 77
     2
 78
   300
148
0.0
149
0.0
100
AcDbLayout
  1
Layout1
 70
     0
 71
     1
 10
0.0
 20
0.0
 11
12.0
 21
9.0
 12
0.0
 22
0.0
 32
0.0
 14
1.000000000000000E+20
 24
1.000000000000000E+20
 34
1.000000000000000E+20
 15
-1.000000000000000E+20
 25
-1.000000000000000E+20
 35
-1.000000000000000E+20
146
0.0
 13
0.0
 23
0.0
 33
0.0
 16
1.0
 26
0.0
 36
0.0
 17
0.0
 27
1.0
 37
0.0
 76
     0
330
1A
  0
LAYOUT
  5
21
102
{ACAD_REACTORS
330
19
102
}
330
19
100
AcDbPlotSettings
  1

  2
none_device
  4
Letter_(8.50_x_11.00_Inches)
  6

 40
6.349999904632568
 41
6.349999904632568
 42
6.350006103515625
 43
6.350006103515625
 44
215.8999938964844
 45
279.3999938964844
 46
0.0
 47
0.0
 48
0.0
 49
0.0
140
0.0
141
0.0
142
1.0
143
1.0
 70
 11952
 72
     0
 73
     1
 74
     0
  7

 75
     0
147
1.0
 76
     0
 77
     2
 78
   300
148
-230.4417396561563
149
47.00486644638983
100
AcDbLayout
  1
Model
 70
     1
 71
     0
 10
0.0
 20
0.0
 11
12.0
 21
9.0
 12
0.0
 22
0.0
 32
0.0
 14
0.0
 24
0.0
 34
0.0
 15
0.0
 25
0.0
 35
0.0
146
0.0
 13
0.0
 23
0.0
 33
0.0
 16
1.0
 26
0.0
 36
0.0
 17
0.0
 27
1.0
 37
0.0
 76
     0
330
1E
  0
MLINESTYLE
  5
17
102
{ACAD_REACTORS
330
16
102
}
330
16
100
AcDbMlineStyle
  2
STANDARD
 70
     0
  3

 62
   256
 51
90.0
 52
90.0
 71
     2
 49
0.5
 62
   256
  6
BYLAYER
 49
-0.5
 62
   256
  6
BYLAYER
  0
ACDBPLACEHOLDER
  5
F
102
{ACAD_REACTORS
330
E
102
}
330
E
  0
DICTIONARYVAR
  5
EB
102
{ACAD_REACTORS
330
EA
102
}
330
EA
100
DictionaryVariables
280
     0
  1
1
  0
DICTIONARYVAR
  5
EC
102
{ACAD_REACTORS
330
EA
102
}
330
EA
100
DictionaryVariables
280
     0
  1

  0
ENDSEC
  0
EOF
