  0
SECTION
  2
HEADER
  9
$ACADVER
  1
AC1018
  9
$ACADMAINTVER
 70
     2
  9
$DWGCODEPAGE
  3
ANSI_1252
  9
$INSBASE
 10
0.0
 20
0.0
 30
0.0
  9
$EXTMIN
 10
-0.0128164049388033
 20
-0.0181260584133725
 30
-0.0015258207003583
  9
$EXTMAX
 10
420.012818360716
 20
594.0181288244416
 30
0.0000000349246037
  9
$LIMMIN
 10
0.0
 20
0.0
  9
$LIMMAX
 10
419.9999999999999
 20
594.0
  9
$ORTHOMODE
 70
     1
  9
$REGENMODE
 70
     1
  9
$FILLMODE
 70
     1
  9
$QTEXTMODE
 70
     0
  9
$MIRRTEXT
 70
     1
  9
$LTSCALE
 40
20.0
  9
$ATTMODE
 70
     1
  9
$TEXTSIZE
 40
2.5
  9
$TRACEWID
 40
0.5
  9
$TEXTSTYLE
  7
GREEKS
  9
$CLAYER
  8
BEM
  9
$CELTYPE
  6
ByLayer
  9
$CECOLOR
 62
   256
  9
$CELTSCALE
 40
1.0
  9
$DISPSILH
 70
     0
  9
$DIMSCALE
 40
2.0
  9
$DIMASZ
 40
3.5
  9
$DIMEXO
 40
1.0
  9
$DIMDLI
 40
7.0
  9
$DIMRND
 40
0.0
  9
$DIMDLE
 40
0.0
  9
$DIMEXE
 40
1.0
  9
$DIMTP
 40
0.0
  9
$DIMTM
 40
0.0
  9
$DIMTXT
 40
3.5
  9
$DIMCEN
 40
1.5
  9
$DIMTSZ
 40
0.0
  9
$DIMTOL
 70
     0
  9
$DIMLIM
 70
     0
  9
$DIMTIH
 70
     0
  9
$DIMTOH
 70
     0
  9
$DIMSE1
 70
     0
  9
$DIMSE2
 70
     0
  9
$DIMTAD
 70
     1
  9
$DIMZIN
 70
     8
  9
$DIMBLK
  1

  9
$DIMASO
 70
     1
  9
$DIMSHO
 70
     0
  9
$DIMPOST
  1

  9
$DIMAPOST
  1

  9
$DIMALT
 70
     0
  9
$DIMALTD
 70
     2
  9
$DIMALTF
 40
25.4
  9
$DIMLFAC
 40
1.0
  9
$DIMTOFL
 70
     1
  9
$DIMTVP
 40
0.0
  9
$DIMTIX
 70
     0
  9
$DIMSOXD
 70
     0
  9
$DIMSAH
 70
     0
  9
$DIMBLK1
  1

  9
$DIMBLK2
  1

  9
$DIMSTYLE
  2
Standard
  9
$DIMCLRD
 70
     0
  9
$DIMCLRE
 70
     0
  9
$DIMCLRT
 70
     1
  9
$DIMTFAC
 40
0.5
  9
$DIMGAP
 40
1.5
  9
$DIMJUST
 70
     0
  9
$DIMSD1
 70
     0
  9
$DIMSD2
 70
     0
  9
$DIMTOLJ
 70
     1
  9
$DIMTZIN
 70
     8
  9
$DIMALTZ
 70
     8
  9
$DIMALTTZ
 70
     8
  9
$DIMUPT
 70
     0
  9
$DIMDEC
 70
     2
  9
$DIMTDEC
 70
     2
  9
$DIMALTU
 70
     2
  9
$DIMALTTD
 70
     2
  9
$DIMTXSTY
  7
STANDARD
  9
$DIMAUNIT
 70
     0
  9
$DIMADEC
 70
     2
  9
$DIMALTRND
 40
0.0
  9
$DIMAZIN
 70
     2
  9
$DIMDSEP
 70
    46
  9
$DIMATFIT
 70
     3
  9
$DIMFRAC
 70
     0
  9
$DIMLDRBLK
  1

  9
$DIMLUNIT
 70
     2
  9
$DIMLWD
 70
    -2
  9
$DIMLWE
 70
    -2
  9
$DIMTMOVE
 70
     0
  9
$LUNITS
 70
     2
  9
$LUPREC
 70
     2
  9
$SKETCHINC
 40
1.0
  9
$FILLETRAD
 40
0.0
  9
$AUNITS
 70
     0
  9
$AUPREC
 70
     0
  9
$MENU
  1
ACAD
  9
$ELEVATION
 40
0.0
  9
$PELEVATION
 40
0.0
  9
$THICKNESS
 40
0.0
  9
$LIMCHECK
 70
     0
  9
$CHAMFERA
 40
0.0
  9
$CHAMFERB
 40
0.0
  9
$CHAMFERC
 40
0.0
  9
$CHAMFERD
 40
0.0
  9
$SKPOLY
 70
     0
  9
$TDCREATE
 40
2455397.823042361
  9
$TDUCREATE
 40
2455397.781375695
  9
$TDUPDATE
 40
2456230.342282975
  9
$TDUUPDATE
 40
2456230.300616308
  9
$TDINDWG
 40
0.3207897917
  9
$TDUSRTIMER
 40
0.3207897917
  9
$USRTIMER
 70
     1
  9
$ANGBASE
 50
0.0
  9
$ANGDIR
 70
     0
  9
$PDMODE
 70
     0
  9
$PDSIZE
 40
0.0
  9
$PLINEWID
 40
0.0
  9
$SPLFRAME
 70
     0
  9
$SPLINETYPE
 70
     6
  9
$SPLINESEGS
 70
     8
  9
$HANDSEED
  5
1B67
  9
$SURFTAB1
 70
     6
  9
$SURFTAB2
 70
     6
  9
$SURFTYPE
 70
     6
  9
$SURFU
 70
     6
  9
$SURFV
 70
     6
  9
$UCSBASE
  2

  9
$UCSNAME
  2

  9
$UCSORG
 10
0.0
 20
0.0
 30
0.0
  9
$UCSXDIR
 10
1.0
 20
0.0
 30
0.0
  9
$UCSYDIR
 10
0.0
 20
1.0
 30
0.0
  9
$UCSORTHOREF
  2

  9
$UCSORTHOVIEW
 70
     0
  9
$UCSORGTOP
 10
0.0
 20
0.0
 30
0.0
  9
$UCSORGBOTTOM
 10
0.0
 20
0.0
 30
0.0
  9
$UCSORGLEFT
 10
0.0
 20
0.0
 30
0.0
  9
$UCSORGRIGHT
 10
0.0
 20
0.0
 30
0.0
  9
$UCSORGFRONT
 10
0.0
 20
0.0
 30
0.0
  9
$UCSORGBACK
 10
0.0
 20
0.0
 30
0.0
  9
$PUCSBASE
  2

  9
$PUCSNAME
  2

  9
$PUCSORG
 10
0.0
 20
0.0
 30
0.0
  9
$PUCSXDIR
 10
1.0
 20
0.0
 30
0.0
  9
$PUCSYDIR
 10
0.0
 20
1.0
 30
0.0
  9
$PUCSORTHOREF
  2

  9
$PUCSORTHOVIEW
 70
     0
  9
$PUCSORGTOP
 10
0.0
 20
0.0
 30
0.0
  9
$PUCSORGBOTTOM
 10
0.0
 20
0.0
 30
0.0
  9
$PUCSORGLEFT
 10
0.0
 20
0.0
 30
0.0
  9
$PUCSORGRIGHT
 10
0.0
 20
0.0
 30
0.0
  9
$PUCSORGFRONT
 10
0.0
 20
0.0
 30
0.0
  9
$PUCSORGBACK
 10
0.0
 20
0.0
 30
0.0
  9
$USERI1
 70
     0
  9
$USERI2
 70
     0
  9
$USERI3
 70
     0
  9
$USERI4
 70
     0
  9
$USERI5
 70
     0
  9
$USERR1
 40
0.0
  9
$USERR2
 40
0.0
  9
$USERR3
 40
0.0
  9
$USERR4
 40
0.0
  9
$USERR5
 40
0.0
  9
$WORLDVIEW
 70
     1
  9
$SHADEDGE
 70
     3
  9
$SHADEDIF
 70
    70
  9
$TILEMODE
 70
     1
  9
$MAXACTVP
 70
    16
  9
$PINSBASE
 10
0.0
 20
0.0
 30
0.0
  9
$PLIMCHECK
 70
     0
  9
$PEXTMIN
 10
1.000000000000000E+20
 20
1.000000000000000E+20
 30
1.000000000000000E+20
  9
$PEXTMAX
 10
-1.000000000000000E+20
 20
-1.000000000000000E+20
 30
-1.000000000000000E+20
  9
$PLIMMIN
 10
0.0
 20
0.0
  9
$PLIMMAX
 10
12.0
 20
9.0
  9
$UNITMODE
 70
     0
  9
$VISRETAIN
 70
     0
  9
$PLINEGEN
 70
     0
  9
$PSLTSCALE
 70
     0
  9
$TREEDEPTH
 70
  3020
  9
$CMLSTYLE
  2
Standard
  9
$CMLJUST
 70
     0
  9
$CMLSCALE
 40
1.0
  9
$PROXYGRAPHICS
 70
     1
  9
$MEASUREMENT
 70
     0
  9
$CELWEIGHT
370
    -1
  9
$ENDCAPS
280
     0
  9
$JOINSTYLE
280
     0
  9
$LWDISPLAY
290
     0
  9
$INSUNITS
 70
     0
  9
$HYPERLINKBASE
  1

  9
$STYLESHEET
  1
monochrome 1.ctb
  9
$XEDIT
290
     1
  9
$CEPSNTYPE
380
     0
  9
$PSTYLEMODE
290
     1
  9
$FINGERPRINTGUID
  2
{D68B0D02-A558-11D7-B632-000102183313}
  9
$VERSIONGUID
  2
{2C4934B0-4C92-484F-B8BB-3CD7705A7CCC}
  9
$EXTNAMES
290
     1
  9
$PSVPSCALE
 40
0.0
  9
$OLESTARTUP
290
     0
  9
$SORTENTS
280
   127
  9
$INDEXCTL
280
     0
  9
$HIDETEXT
280
     0
  9
$XCLIPFRAME
290
     0
  9
$HALOGAP
280
     0
  9
$OBSCOLOR
 70
   257
  9
$OBSLTYPE
280
     0
  9
$INTERSECTIONDISPLAY
280
     0
  9
$INTERSECTIONCOLOR
 70
   257
  9
$DIMASSOC
280
     1
  9
$PROJECTNAME
  1

  0
ENDSEC
  0
SECTION
  2
CLASSES
  0
CLASS
  1
ACDBDICTIONARYWDFLT
  2
AcDbDictionaryWithDefault
  3
ObjectDBX Classes
 90
        0
 91
        1
280
     0
281
     0
  0
CLASS
  1
DICTIONARYVAR
  2
AcDbDictionaryVar
  3
ObjectDBX Classes
 90
        0
 91
        2
280
     0
281
     0
  0
ENDSEC
  0
SECTION
  2
TABLES
  0
TABLE
  2
VPORT
  5
8
330
0
100
AcDbSymbolTable
 70
     3
  0
VPORT
  5
1B66
330
8
100
AcDbSymbolTableRecord
100
AcDbViewportTableRecord
  2
*Active
 70
     0
 10
0.0
 20
0.0
 11
1.0
 21
1.0
 12
209.9999999999999
 22
297.0
 13
0.0
 23
0.0
 14
1.0
 24
1.0
 15
10.0
 25
10.0
 16
0.0
 26
0.0
 36
1.0
 17
0.0
 27
0.0
 37
0.0
 40
594.0
 41
1.404858299595141
 42
50.0
 43
0.0
 44
0.0
 50
0.0
 51
0.0
 71
     0
 72
  1500
 73
     1
 74
     0
 75
     0
 76
     0
 77
     0
 78
     0
281
     0
 65
     1
110
0.0
120
0.0
130
0.0
111
1.0
121
0.0
131
0.0
112
0.0
122
1.0
132
0.0
 79
     0
146
0.0
  0
ENDTAB
  0
TABLE
  2
LTYPE
  5
5
330
0
100
AcDbSymbolTable
 70
     2
  0
LTYPE
  5
13
330
5
100
AcDbSymbolTableRecord
100
AcDbLinetypeTableRecord
  2
ByBlock
 70
     0
  3

 72
    65
 73
     0
 40
0.0
  0
LTYPE
  5
14
330
5
100
AcDbSymbolTableRecord
100
AcDbLinetypeTableRecord
  2
ByLayer
 70
     0
  3

 72
    65
 73
     0
 40
0.0
  0
LTYPE
  5
15
330
5
100
AcDbSymbolTableRecord
100
AcDbLinetypeTableRecord
  2
Continuous
 70
     0
  3
Solid line
 72
    65
 73
     0
 40
0.0
  0
LTYPE
  5
25
330
5
100
AcDbSymbolTableRecord
100
AcDbLinetypeTableRecord
  2
STRICHPUNKT
 70
     0
  3
__ . __ . __ . __ . __ . __ . __ . __ . __ . __
 72
    65
 73
     4
 40
1.0
 49
0.5
 74
     0
 49
-0.25
 74
     0
 49
0.0
 74
     0
 49
-0.25
 74
     0
  0
ENDTAB
  0
TABLE
  2
LAYER
  5
2
330
0
100
AcDbSymbolTable
 70
     8
  0
LAYER
  5
10
330
2
100
AcDbSymbolTableRecord
100
AcDbLayerTableRecord
  2
0
 70
     0
 62
     7
  6
Continuous
370
    -3
390
F
  0
LAYER
  5
2A
330
2
100
AcDbSymbolTableRecord
100
AcDbLayerTableRecord
  2
VOLL
 70
     0
 62
     1
  6
Continuous
370
    -3
390
F
  0
LAYER
  5
2B
330
2
100
AcDbSymbolTableRecord
100
AcDbLayerTableRecord
  2
HILF
 70
     0
 62
     2
  6
Continuous
370
    -3
390
F
  0
LAYER
  5
2C
330
2
100
AcDbSymbolTableRecord
100
AcDbLayerTableRecord
  2
MITTEL
 70
     0
 62
     2
  6
STRICHPUNKT
370
    -3
390
F
  0
LAYER
  5
2F
330
2
100
AcDbSymbolTableRecord
100
AcDbLayerTableRecord
  2
BEM
 70
     0
 62
     7
  6
Continuous
370
    -3
390
F
  0
LAYER
  5
30
330
2
100
AcDbSymbolTableRecord
100
AcDbLayerTableRecord
  2
STEMPEL
 70
     0
 62
     3
  6
Continuous
370
    -3
390
F
  0
LAYER
  5
31
330
2
100
AcDbSymbolTableRecord
100
AcDbLayerTableRecord
  2
TEXT
 70
     0
 62
     7
  6
Continuous
370
    -3
390
F
  0
LAYER
  5
1A8
330
2
100
AcDbSymbolTableRecord
100
AcDbLayerTableRecord
  2
Defpoints
 70
     0
 62
     7
  6
Continuous
290
     0
370
    -3
390
F
  0
ENDTAB
  0
TABLE
  2
STYLE
  5
3
330
0
100
AcDbSymbolTable
 70
     2
  0
STYLE
  5
11
330
3
100
AcDbSymbolTableRecord
100
AcDbTextStyleTableRecord
  2
STANDARD
 70
     0
 40
0.0
 41
0.8
 50
0.0
 71
     0
 42
3.5
  3
simplex.shx
  4

  0
STYLE
  5
24
330
3
100
AcDbSymbolTableRecord
100
AcDbTextStyleTableRecord
  2
GREEKS
 70
     0
 40
0.0
 41
0.8
 50
0.0
 71
     0
 42
2.5
  3
SIMPLEX.shx
  4

  0
ENDTAB
  0
TABLE
  2
VIEW
  5
6
330
0
100
AcDbSymbolTable
 70
     0
  0
ENDTAB
  0
TABLE
  2
UCS
  5
7
330
0
100
AcDbSymbolTable
 70
     0
  0
ENDTAB
  0
TABLE
  2
APPID
  5
9
330
0
100
AcDbSymbolTable
 70
     1
  0
APPID
  5
12
330
9
100
AcDbSymbolTableRecord
100
AcDbRegAppTableRecord
  2
ACAD
 70
     0
  0
ENDTAB
  0
TABLE
  2
DIMSTYLE
  5
A
330
0
100
AcDbSymbolTable
 70
     1
100
AcDbDimStyleTable
 71
     1
340
9D
  0
DIMSTYLE
105
9D
102
{ACAD_REACTORS
330
19B3
330
19C0
330
19FA
330
1A24
330
1A33
330
1A40
330
1ACF
102
}
330
A
100
AcDbSymbolTableRecord
100
AcDbDimStyleTableRecord
  2
Standard
 70
     0
340
11
  0
ENDTAB
  0
TABLE
  2
BLOCK_RECORD
  5
1
330
0
100
AcDbSymbolTable
 70
     8
  0
BLOCK_RECORD
  5
1E
102
{ACAD_XDICTIONARY
360
A0
102
}
330
1
100
AcDbSymbolTableRecord
100
AcDbBlockTableRecord
  2
*Model_Space
340
21
  0
BLOCK_RECORD
  5
1A
102
{ACAD_XDICTIONARY
360
A2
102
}
330
1
100
AcDbSymbolTableRecord
100
AcDbBlockTableRecord
  2
*Paper_Space
340
1D
  0
BLOCK_RECORD
  5
22
330
1
100
AcDbSymbolTableRecord
100
AcDbBlockTableRecord
  2
LOGO
340
0
102
{BLKREFS
331
9B
102
}
  0
BLOCK_RECORD
  5
19B4
330
1
100
AcDbSymbolTableRecord
100
AcDbBlockTableRecord
  2
*D1
340
0
  0
BLOCK_RECORD
  5
19C1
330
1
100
AcDbSymbolTableRecord
100
AcDbBlockTableRecord
  2
*D2
340
0
  0
BLOCK_RECORD
  5
19FB
330
1
100
AcDbSymbolTableRecord
100
AcDbBlockTableRecord
  2
*D3
340
0
  0
BLOCK_RECORD
  5
1A25
330
1
100
AcDbSymbolTableRecord
100
AcDbBlockTableRecord
  2
*D4
340
0
  0
BLOCK_RECORD
  5
1A34
330
1
100
AcDbSymbolTableRecord
100
AcDbBlockTableRecord
  2
*D5
340
0
  0
BLOCK_RECORD
  5
1A41
330
1
100
AcDbSymbolTableRecord
100
AcDbBlockTableRecord
  2
*D6
340
0
  0
BLOCK_RECORD
  5
1AD0
330
1
100
AcDbSymbolTableRecord
100
AcDbBlockTableRecord
  2
*D7
340
0
  0
ENDTAB
  0
ENDSEC
  0
SECTION
  2
BLOCKS
  0
BLOCK
  5
35
330
1E
100
AcDbEntity
  8
0
100
AcDbBlockBegin
  2
*Model_Space
 70
     0
 10
0.0
 20
0.0
 30
0.0
  3
*Model_Space
  1

  0
ENDBLK
  5
36
330
1E
100
AcDbEntity
  8
0
100
AcDbBlockEnd
  0
BLOCK
  5
33
330
1A
100
AcDbEntity
 67
     1
  8
0
100
AcDbBlockBegin
  2
*Paper_Space
 70
     0
 10
0.0
 20
0.0
 30
0.0
  3
*Paper_Space
  1

  0
ENDBLK
  5
34
330
1A
100
AcDbEntity
 67
     1
  8
0
100
AcDbBlockEnd
  0
BLOCK
  5
37
330
22
100
AcDbEntity
  8
0
100
AcDbBlockBegin
  2
LOGO
 70
     0
 10
0.0
 20
0.0
 30
0.0
  3
LOGO
  1

  0
ARC
  5
38
330
22
100
AcDbEntity
  8
0
100
AcDbCircle
 10
11.59973089678112
 20
-9.271599258481501
 30
0.0
 40
4.5
100
AcDbArc
 50
270.0
 51
231.0575587310159
  0
LINE
  5
39
330
22
100
AcDbEntity
  8
0
100
AcDbLine
 10
3.599730896781125
 20
-4.771599258481529
 30
0.0
 11
3.599730896781153
 21
-11.77159925848133
 31
0.0
  0
LINE
  5
3A
330
22
100
AcDbEntity
  8
0
100
AcDbLine
 10
2.599730896781125
 20
-4.771599258481529
 30
0.0
 11
2.599730896781153
 21
-11.77159925848133
 31
0.0
  0
CIRCLE
  5
3B
330
22
100
AcDbEntity
  8
0
100
AcDbCircle
 10
11.59973089678112
 20
-9.271599258481501
 30
0.0
 40
3.5
  0
ARC
  5
3C
330
22
100
AcDbEntity
  8
0
100
AcDbCircle
 10
31.59973089678115
 20
-9.271599258481472
 30
0.0
 40
4.5
100
AcDbArc
 50
270.0
 51
231.0575587310182
  0
LINE
  5
3D
330
22
100
AcDbEntity
  8
0
100
AcDbLine
 10
17.59973089678112
 20
-4.771599258481472
 30
0.0
 11
17.59973089678115
 21
-13.77159925848147
 31
0.0
  0
ARC
  5
3E
330
22
100
AcDbEntity
  8
0
100
AcDbCircle
 10
22.59973089678116
 20
-7.271599258481472
 30
0.0
 40
2.5
100
AcDbArc
 50
293.1161887722295
 51
90.0
  0
CIRCLE
  5
3F
330
22
100
AcDbEntity
  8
0
100
AcDbCircle
 10
31.59973089678115
 20
-9.271599258481472
 30
0.0
 40
3.5
  0
ARC
  5
40
330
22
100
AcDbEntity
  8
0
100
AcDbCircle
 10
4.599730896781153
 20
-11.77159925848133
 30
0.0
 40
1.0
100
AcDbArc
 50
180.0
 51
270.0
  0
ARC
  5
41
330
22
100
AcDbEntity
  8
0
100
AcDbCircle
 10
4.599730896781153
 20
-11.77159925848133
 30
0.0
 40
2.0
100
AcDbArc
 50
179.9999999999992
 51
270.0
  0
LINE
  5
42
330
22
100
AcDbEntity
  8
0
100
AcDbLine
 10
11.59973089678115
 20
-13.77159925848144
 30
0.0
 11
4.599730896781153
 21
-13.77159925848147
 31
0.0
  0
LINE
  5
43
330
22
100
AcDbEntity
  8
0
100
AcDbLine
 10
8.771303772034769
 20
-12.77159925848136
 30
0.0
 11
4.599730896781153
 21
-12.77159925848133
 31
0.0
  0
LINE
  5
44
330
22
100
AcDbEntity
  8
0
100
AcDbLine
 10
31.59973089678115
 20
-13.77159925848147
 30
0.0
 11
23.6715276665056
 21
-13.77159925848144
 31
0.0
  0
LINE
  5
45
330
22
100
AcDbEntity
  8
0
100
AcDbLine
 10
23.56565672307022
 20
-9.51278021337896
 30
0.0
 11
24.4388546544846
 21
-12.77159925848144
 31
0.0
  0
LINE
  5
46
330
22
100
AcDbEntity
  8
0
100
AcDbLine
 10
22.59973089678116
 20
-9.771599258481472
 30
0.0
 11
18.59973089678112
 21
-9.771599258481472
 31
0.0
  0
LINE
  5
47
330
22
100
AcDbEntity
  8
0
100
AcDbLine
 10
18.59973089678115
 20
-13.77159925848144
 30
0.0
 11
17.59973089678115
 21
-13.77159925848144
 31
0.0
  0
LINE
  5
48
330
22
100
AcDbEntity
  8
0
100
AcDbLine
 10
18.59973089678115
 20
-9.771599258481472
 30
0.0
 11
18.59973089678115
 21
-13.77159925848144
 31
0.0
  0
LINE
  5
49
330
22
100
AcDbEntity
  8
0
100
AcDbLine
 10
22.59973089678116
 20
-9.771599258481472
 30
0.0
 11
23.67152766650562
 21
-13.77159925848147
 31
0.0
  0
ARC
  5
4A
330
22
100
AcDbEntity
  8
0
100
AcDbCircle
 10
22.59973089678116
 20
-7.271599258481472
 30
0.0
 40
2.5
100
AcDbArc
 50
270.0
 51
270.0000000000007
  0
LINE
  5
4B
330
22
100
AcDbEntity
  8
0
100
AcDbLine
 10
28.77130377203494
 20
-12.77159925848147
 30
0.0
 11
24.43885465448463
 21
-12.77159925848144
 31
0.0
  0
LINE
  5
4C
330
22
100
AcDbEntity
  8
0
100
AcDbLine
 10
3.599730896781125
 20
-4.771599258481472
 30
0.0
 11
2.599730896781125
 21
-4.771599258481472
 31
0.0
  0
LINE
  5
4D
330
22
100
AcDbEntity
  8
0
100
AcDbLine
 10
22.59973089678116
 20
-8.771599258481472
 30
0.0
 11
18.59973089678115
 21
-8.771599258481472
 31
0.0
  0
LINE
  5
4E
330
22
100
AcDbEntity
  8
0
100
AcDbLine
 10
22.59973089678116
 20
-5.771599258481472
 30
0.0
 11
18.59973089678115
 21
-5.771599258481472
 31
0.0
  0
LINE
  5
4F
330
22
100
AcDbEntity
  8
0
100
AcDbLine
 10
22.59973089678116
 20
-4.771599258481472
 30
0.0
 11
17.59973089678115
 21
-4.771599258481472
 31
0.0
  0
LINE
  5
50
330
22
100
AcDbEntity
  8
0
100
AcDbLine
 10
18.59973089678115
 20
-5.771599258481472
 30
0.0
 11
18.59973089678115
 21
-8.771599258481472
 31
0.0
  0
ARC
  5
51
330
22
100
AcDbEntity
  8
0
100
AcDbCircle
 10
22.59973089678116
 20
-7.271599258481472
 30
0.0
 40
1.5
100
AcDbArc
 50
270.0
 51
90.0
  0
ENDBLK
  5
52
330
22
100
AcDbEntity
  8
0
100
AcDbBlockEnd
  0
BLOCK
  5
19BE
330
19B4
100
AcDbEntity
  8
0
100
AcDbBlockBegin
  2
*D1
 70
     1
 10
0.0
 20
0.0
 30
0.0
  3
*D1
  1

  0
LINE
  5
1B28
330
19B4
100
AcDbEntity
  8
BEM
 62
     0
370
    -2
100
AcDbLine
 10
170.4082261329395
 20
180.8949925924461
 30
0.0
 11
170.4082261329395
 21
156.3050339079975
 31
0.0
  0
LINE
  5
1B29
330
19B4
100
AcDbEntity
  8
BEM
 62
     0
370
    -2
100
AcDbLine
 10
279.4042261329395
 20
180.8949925924461
 30
0.0
 11
279.4042261329395
 21
156.3050339079975
 31
0.0
  0
LINE
  5
1B2A
330
19B4
100
AcDbEntity
  8
BEM
 62
     0
370
    -2
100
AcDbLine
 10
177.4082261329395
 20
158.3050339079975
 30
0.0
 11
272.4042261329395
 21
158.3050339079975
 31
0.0
  0
SOLID
  5
1B2B
330
19B4
100
AcDbEntity
  8
BEM
 62
     0
100
AcDbTrace
 10
177.4082261329395
 20
159.4717005746642
 30
0.0
 11
177.4082261329395
 21
157.1383672413309
 31
0.0
 12
170.4082261329395
 22
158.3050339079975
 32
0.0
 13
170.4082261329395
 23
158.3050339079975
 33
0.0
  0
SOLID
  5
1B2C
330
19B4
100
AcDbEntity
  8
BEM
 62
     0
100
AcDbTrace
 10
272.4042261329395
 20
159.4717005746642
 30
0.0
 11
272.4042261329395
 21
157.1383672413309
 31
0.0
 12
279.4042261329395
 22
158.3050339079975
 32
0.0
 13
279.4042261329395
 23
158.3050339079975
 33
0.0
  0
MTEXT
  5
1B2D
330
19B4
100
AcDbEntity
  8
BEM
 62
     1
100
AcDbMText
 10
224.9062261329395
 20
164.8050339079975
 30
0.0
 40
7.0
 41
0.0
 71
     5
 72
     1
  1
\A1;109
 73
     1
 44
1.0
  0
POINT
  5
1B2E
330
19B4
100
AcDbEntity
  8
Defpoints
 62
     0
100
AcDbPoint
 10
170.4082261329395
 20
182.8949925924461
 30
0.0
  0
POINT
  5
1B2F
330
19B4
100
AcDbEntity
  8
Defpoints
 62
     0
100
AcDbPoint
 10
279.4042261329395
 20
182.8949925924461
 30
0.0
  0
POINT
  5
1B30
330
19B4
100
AcDbEntity
  8
Defpoints
 62
     0
100
AcDbPoint
 10
279.4042261329395
 20
158.3050339079975
 30
0.0
  0
ENDBLK
  5
19BF
330
19B4
100
AcDbEntity
  8
0
100
AcDbBlockEnd
  0
BLOCK
  5
19CB
330
19C1
100
AcDbEntity
  8
0
100
AcDbBlockBegin
  2
*D2
 70
     1
 10
0.0
 20
0.0
 30
0.0
  3
*D2
  1

  0
LINE
  5
1B1F
330
19C1
100
AcDbEntity
  8
BEM
 62
     0
370
    -2
100
AcDbLine
 10
162.4082261329396
 20
190.8949925924461
 30
0.0
 11
162.4082261329396
 21
142.2699318078673
 31
0.0
  0
LINE
  5
1B20
330
19C1
100
AcDbEntity
  8
BEM
 62
     0
370
    -2
100
AcDbLine
 10
287.4042261329395
 20
190.8949925924461
 30
0.0
 11
287.4042261329395
 21
142.2699318078673
 31
0.0
  0
LINE
  5
1B21
330
19C1
100
AcDbEntity
  8
BEM
 62
     0
370
    -2
100
AcDbLine
 10
169.4082261329396
 20
144.2699318078673
 30
0.0
 11
280.4042261329395
 21
144.2699318078673
 31
0.0
  0
SOLID
  5
1B22
330
19C1
100
AcDbEntity
  8
BEM
 62
     0
100
AcDbTrace
 10
169.4082261329396
 20
145.436598474534
 30
0.0
 11
169.4082261329396
 21
143.1032651412007
 31
0.0
 12
162.4082261329396
 22
144.2699318078673
 32
0.0
 13
162.4082261329396
 23
144.2699318078673
 33
0.0
  0
SOLID
  5
1B23
330
19C1
100
AcDbEntity
  8
BEM
 62
     0
100
AcDbTrace
 10
280.4042261329395
 20
145.436598474534
 30
0.0
 11
280.4042261329395
 21
143.1032651412007
 31
0.0
 12
287.4042261329395
 22
144.2699318078673
 32
0.0
 13
287.4042261329395
 23
144.2699318078673
 33
0.0
  0
MTEXT
  5
1B24
330
19C1
100
AcDbEntity
  8
BEM
 62
     1
100
AcDbMText
 10
224.9062261329395
 20
150.7699318078673
 30
0.0
 40
7.0
 41
0.0
 71
     5
 72
     1
  1
\A1;125
 73
     1
 44
1.0
  0
POINT
  5
1B25
330
19C1
100
AcDbEntity
  8
Defpoints
 62
     0
100
AcDbPoint
 10
162.4082261329396
 20
192.8949925924461
 30
0.0
  0
POINT
  5
1B26
330
19C1
100
AcDbEntity
  8
Defpoints
 62
     0
100
AcDbPoint
 10
287.4042261329395
 20
192.8949925924461
 30
0.0
  0
POINT
  5
1B27
330
19C1
100
AcDbEntity
  8
Defpoints
 62
     0
100
AcDbPoint
 10
287.4042261329395
 20
144.2699318078673
 30
0.0
  0
ENDBLK
  5
19CC
330
19C1
100
AcDbEntity
  8
0
100
AcDbBlockEnd
  0
BLOCK
  5
1A07
330
19FB
100
AcDbEntity
  8
0
100
AcDbBlockBegin
  2
*D3
 70
     1
 10
0.0
 20
0.0
 30
0.0
  3
*D3
  1

  0
LINE
  5
1AA8
330
19FB
100
AcDbEntity
  8
BEM
 62
     0
370
    -2
100
AcDbLine
 10
227.9062261329396
 20
344.8520462032146
 30
0.0
 11
227.9062261329396
 21
345.0898419650374
 31
0.0
  0
LINE
  5
1AA9
330
19FB
100
AcDbEntity
  8
BEM
 62
     0
370
    -2
100
AcDbLine
 10
221.9062261329395
 20
344.8520462032146
 30
0.0
 11
221.9062261329395
 21
345.0898419650374
 31
0.0
  0
LINE
  5
1AAA
330
19FB
100
AcDbEntity
  8
BEM
 62
     0
370
    -2
100
AcDbLine
 10
234.9062261329395
 20
343.0898419650374
 30
0.0
 11
241.9062261329395
 21
343.0898419650374
 31
0.0
  0
LINE
  5
1AAB
330
19FB
100
AcDbEntity
  8
BEM
 62
     0
370
    -2
100
AcDbLine
 10
214.9062261329395
 20
343.0898419650374
 30
0.0
 11
198.4395594662728
 21
343.0898419650374
 31
0.0
  0
LINE
  5
1AAC
330
19FB
100
AcDbEntity
  8
BEM
 62
     0
370
    -2
100
AcDbLine
 10
227.9062261329396
 20
343.0898419650374
 30
0.0
 11
221.9062261329395
 21
343.0898419650374
 31
0.0
  0
SOLID
  5
1AAD
330
19FB
100
AcDbEntity
  8
BEM
 62
     0
100
AcDbTrace
 10
234.9062261329395
 20
344.256508631704
 30
0.0
 11
234.9062261329395
 21
341.9231752983707
 31
0.0
 12
227.9062261329396
 22
343.0898419650374
 32
0.0
 13
227.9062261329396
 23
343.0898419650374
 33
0.0
  0
SOLID
  5
1AAE
330
19FB
100
AcDbEntity
  8
BEM
 62
     0
100
AcDbTrace
 10
214.9062261329395
 20
344.256508631704
 30
0.0
 11
214.9062261329395
 21
341.9231752983707
 31
0.0
 12
221.9062261329395
 22
343.0898419650374
 32
0.0
 13
221.9062261329395
 23
343.0898419650374
 33
0.0
  0
MTEXT
  5
1AAF
330
19FB
100
AcDbEntity
  8
BEM
 62
     1
100
AcDbMText
 10
203.1728927996062
 20
349.5898419650373
 30
0.0
 40
7.0
 41
0.0
 71
     5
 72
     1
  1
\A1;6
 73
     1
 44
1.0
  0
POINT
  5
1AB0
330
19FB
100
AcDbEntity
  8
Defpoints
 62
     0
100
AcDbPoint
 10
227.9062261329396
 20
342.8520462032146
 30
0.0
  0
POINT
  5
1AB1
330
19FB
100
AcDbEntity
  8
Defpoints
 62
     0
100
AcDbPoint
 10
221.9062261329395
 20
342.8520462032146
 30
0.0
  0
POINT
  5
1AB2
330
19FB
100
AcDbEntity
  8
Defpoints
 62
     0
100
AcDbPoint
 10
221.9062261329395
 20
343.0898419650374
 30
0.0
  0
ENDBLK
  5
1A08
330
19FB
100
AcDbEntity
  8
0
100
AcDbBlockEnd
  0
BLOCK
  5
1A31
330
1A25
100
AcDbEntity
  8
0
100
AcDbBlockBegin
  2
*D4
 70
     1
 10
0.0
 20
0.0
 30
0.0
  3
*D4
  1

  0
LINE
  5
1A9D
330
1A25
100
AcDbEntity
  8
BEM
 62
     0
370
    -2
100
AcDbLine
 10
160.4082261329395
 20
439.1163419650373
 30
0.0
 11
149.9982640231169
 21
439.1163419650373
 31
0.0
  0
LINE
  5
1A9E
330
1A25
100
AcDbEntity
  8
BEM
 62
     0
370
    -2
100
AcDbLine
 10
160.4082261329395
 20
442.1163419650373
 30
0.0
 11
149.9982640231169
 21
442.1163419650373
 31
0.0
  0
LINE
  5
1A9F
330
1A25
100
AcDbEntity
  8
BEM
 62
     0
370
    -2
100
AcDbLine
 10
151.9982640231169
 20
432.1163419650373
 30
0.0
 11
151.9982640231169
 21
425.1163419650373
 31
0.0
  0
LINE
  5
1AA0
330
1A25
100
AcDbEntity
  8
BEM
 62
     0
370
    -2
100
AcDbLine
 10
151.9982640231169
 20
449.1163419650373
 30
0.0
 11
151.9982640231169
 21
465.8496752983706
 31
0.0
  0
LINE
  5
1AA1
330
1A25
100
AcDbEntity
  8
BEM
 62
     0
370
    -2
100
AcDbLine
 10
151.9982640231169
 20
439.1163419650373
 30
0.0
 11
151.9982640231169
 21
442.1163419650373
 31
0.0
  0
SOLID
  5
1AA2
330
1A25
100
AcDbEntity
  8
BEM
 62
     0
100
AcDbTrace
 10
150.8315973564502
 20
432.1163419650373
 30
0.0
 11
153.1649306897836
 21
432.1163419650373
 31
0.0
 12
151.9982640231169
 22
439.1163419650373
 32
0.0
 13
151.9982640231169
 23
439.1163419650373
 33
0.0
  0
SOLID
  5
1AA3
330
1A25
100
AcDbEntity
  8
BEM
 62
     0
100
AcDbTrace
 10
150.8315973564503
 20
449.1163419650373
 30
0.0
 11
153.1649306897836
 21
449.1163419650373
 31
0.0
 12
151.9982640231169
 22
442.1163419650373
 32
0.0
 13
151.9982640231169
 23
442.1163419650373
 33
0.0
  0
MTEXT
  5
1AA4
330
1A25
100
AcDbEntity
  8
BEM
 62
     1
100
AcDbMText
 10
145.4982640231168
 20
460.9830086317041
 30
0.0
 40
7.0
 41
0.0
 71
     5
 72
     1
  1
\A1;3
 11
0.0000000000000001
 21
1.0
 31
0.0
 73
     1
 44
1.0
  0
POINT
  5
1AA5
330
1A25
100
AcDbEntity
  8
Defpoints
 62
     0
100
AcDbPoint
 10
162.4082261329395
 20
439.1163419650373
 30
0.0
  0
POINT
  5
1AA6
330
1A25
100
AcDbEntity
  8
Defpoints
 62
     0
100
AcDbPoint
 10
162.4082261329395
 20
442.1163419650373
 30
0.0
  0
POINT
  5
1AA7
330
1A25
100
AcDbEntity
  8
Defpoints
 62
     0
100
AcDbPoint
 10
151.9982640231169
 20
442.1163419650373
 30
0.0
  0
ENDBLK
  5
1A32
330
1A25
100
AcDbEntity
  8
0
100
AcDbBlockEnd
  0
BLOCK
  5
1A3E
330
1A34
100
AcDbEntity
  8
0
100
AcDbBlockBegin
  2
*D5
 70
     1
 10
0.0
 20
0.0
 30
0.0
  3
*D5
  1

  0
LINE
  5
1B3A
330
1A34
100
AcDbEntity
  8
BEM
 62
     0
370
    -2
100
AcDbLine
 10
222.9062261329395
 20
229.1163419650374
 30
0.0
 11
149.9982640231168
 21
229.1163419650374
 31
0.0
  0
LINE
  5
1B3B
330
1A34
100
AcDbEntity
  8
BEM
 62
     0
370
    -2
100
AcDbLine
 10
212.4062261329395
 20
379.1163419650374
 30
0.0
 11
149.9982640231168
 21
379.1163419650374
 31
0.0
  0
LINE
  5
1B3C
330
1A34
100
AcDbEntity
  8
BEM
 62
     0
370
    -2
100
AcDbLine
 10
151.9982640231168
 20
236.1163419650374
 30
0.0
 11
151.9982640231168
 21
372.1163419650374
 31
0.0
  0
SOLID
  5
1B3D
330
1A34
100
AcDbEntity
  8
BEM
 62
     0
100
AcDbTrace
 10
150.8315973564501
 20
236.1163419650374
 30
0.0
 11
153.1649306897835
 21
236.1163419650374
 31
0.0
 12
151.9982640231168
 22
229.1163419650374
 32
0.0
 13
151.9982640231168
 23
229.1163419650374
 33
0.0
  0
SOLID
  5
1B3E
330
1A34
100
AcDbEntity
  8
BEM
 62
     0
100
AcDbTrace
 10
150.8315973564502
 20
372.1163419650374
 30
0.0
 11
153.1649306897835
 21
372.1163419650374
 31
0.0
 12
151.9982640231168
 22
379.1163419650374
 32
0.0
 13
151.9982640231168
 23
379.1163419650374
 33
0.0
  0
MTEXT
  5
1B3F
330
1A34
100
AcDbEntity
  8
BEM
 62
     1
100
AcDbMText
 10
145.4982640231168
 20
304.1163419650374
 30
0.0
 40
7.0
 41
0.0
 71
     5
 72
     1
  1
\A1;150
 11
0.0000000000000001
 21
1.0
 31
0.0
 73
     1
 44
1.0
  0
POINT
  5
1B40
330
1A34
100
AcDbEntity
  8
Defpoints
 62
     0
100
AcDbPoint
 10
224.9062261329395
 20
229.1163419650374
 30
0.0
  0
POINT
  5
1B41
330
1A34
100
AcDbEntity
  8
Defpoints
 62
     0
100
AcDbPoint
 10
214.4062261329395
 20
379.1163419650374
 30
0.0
  0
POINT
  5
1B42
330
1A34
100
AcDbEntity
  8
Defpoints
 62
     0
100
AcDbPoint
 10
151.9982640231168
 20
379.1163419650374
 30
0.0
  0
ENDBLK
  5
1A3F
330
1A34
100
AcDbEntity
  8
0
100
AcDbBlockEnd
  0
BLOCK
  5
1A4B
330
1A41
100
AcDbEntity
  8
0
100
AcDbBlockBegin
  2
*D6
 70
     1
 10
0.0
 20
0.0
 30
0.0
  3
*D6
  1

  0
LINE
  5
1B43
330
1A41
100
AcDbEntity
  8
BEM
 62
     0
370
    -2
100
AcDbLine
 10
222.9062261329395
 20
488.1163419650373
 30
0.0
 11
133.1860823137095
 21
488.1163419650373
 31
0.0
  0
LINE
  5
1B44
330
1A41
100
AcDbEntity
  8
BEM
 62
     0
370
    -2
100
AcDbLine
 10
222.9062261329395
 20
229.1163419650374
 30
0.0
 11
133.1860823137094
 21
229.1163419650374
 31
0.0
  0
LINE
  5
1B45
330
1A41
100
AcDbEntity
  8
BEM
 62
     0
370
    -2
100
AcDbLine
 10
135.1860823137095
 20
481.1163419650373
 30
0.0
 11
135.1860823137094
 21
236.1163419650374
 31
0.0
  0
SOLID
  5
1B46
330
1A41
100
AcDbEntity
  8
BEM
 62
     0
100
AcDbTrace
 10
134.0194156470428
 20
481.1163419650373
 30
0.0
 11
136.3527489803761
 21
481.1163419650373
 31
0.0
 12
135.1860823137095
 22
488.1163419650373
 32
0.0
 13
135.1860823137095
 23
488.1163419650373
 33
0.0
  0
SOLID
  5
1B47
330
1A41
100
AcDbEntity
  8
BEM
 62
     0
100
AcDbTrace
 10
134.0194156470428
 20
236.1163419650374
 30
0.0
 11
136.3527489803761
 21
236.1163419650374
 31
0.0
 12
135.1860823137094
 22
229.1163419650374
 32
0.0
 13
135.1860823137094
 23
229.1163419650374
 33
0.0
  0
MTEXT
  5
1B48
330
1A41
100
AcDbEntity
  8
BEM
 62
     1
100
AcDbMText
 10
128.6860823137094
 20
358.6163419650374
 30
0.0
 40
7.0
 41
0.0
 71
     5
 72
     1
  1
\A1;259
 11
0.0000000000000001
 21
1.0
 31
0.0
 73
     1
 44
1.0
  0
POINT
  5
1B49
330
1A41
100
AcDbEntity
  8
Defpoints
 62
     0
100
AcDbPoint
 10
224.9062261329395
 20
488.1163419650373
 30
0.0
  0
POINT
  5
1B4A
330
1A41
100
AcDbEntity
  8
Defpoints
 62
     0
100
AcDbPoint
 10
224.9062261329395
 20
229.1163419650374
 30
0.0
  0
POINT
  5
1B4B
330
1A41
100
AcDbEntity
  8
Defpoints
 62
     0
100
AcDbPoint
 10
135.1860823137094
 20
229.1163419650374
 30
0.0
  0
ENDBLK
  5
1A4C
330
1A41
100
AcDbEntity
  8
0
100
AcDbBlockEnd
  0
BLOCK
  5
1AD8
330
1AD0
100
AcDbEntity
  8
0
100
AcDbBlockBegin
  2
*D7
 70
     1
 10
0.0
 20
0.0
 30
0.0
  3
*D7
  1

  0
LINE
  5
1AF8
330
1AD0
100
AcDbEntity
  8
BEM
 62
     0
370
    -2
100
AcDbLine
 10
195.1003056099127
 20
407.5189282047976
 30
0.0
 11
195.0196882436469
 21
407.5855393932027
 31
0.0
  0
LINE
  5
1AF9
330
1AD0
100
AcDbEntity
  8
BEM
 62
     0
370
    -2
100
AcDbLine
 10
251.789954187529
 20
476.128575807334
 30
0.0
 11
251.7093368212631
 21
476.195186995739
 31
0.0
  0
LINE
  5
1AFA
330
1AD0
100
AcDbEntity
  8
BEM
 62
     0
370
    -2
100
AcDbLine
 10
201.0202144823936
 20
411.7078791242428
 30
0.0
 11
248.7923902500466
 21
469.5249978904237
 31
0.0
  0
SOLID
  5
1AFB
330
1AD0
100
AcDbEntity
  8
BEM
 62
     0
100
AcDbTrace
 10
200.120837079364
 20
412.4510018584063
 30
0.0
 11
201.9195918854232
 21
410.9647563900791
 31
0.0
 12
196.5614780774119
 22
406.311614706065
 32
0.0
 13
196.5614780774119
 23
406.311614706065
 33
0.0
  0
SOLID
  5
1AFC
330
1AD0
100
AcDbEntity
  8
BEM
 62
     0
100
AcDbTrace
 10
247.8930128470169
 20
470.2681206245872
 30
0.0
 11
249.6917676530762
 21
468.78187515626
 31
0.0
 12
253.2511266550282
 22
474.9212623086014
 32
0.0
 13
253.2511266550282
 23
474.9212623086014
 33
0.0
  0
MTEXT
  5
1AFD
330
1AD0
100
AcDbEntity
  8
BEM
 62
     1
100
AcDbMText
 10
232.5133147720737
 20
460.0276443991292
 30
0.0
 40
7.0
 41
0.0
 71
     5
 72
     1
  1
\A1;89
 11
0.6369623435688078
 21
0.770894916882536
 31
0.0
 73
     1
 44
1.0
  0
POINT
  5
1AFE
330
1AD0
100
AcDbEntity
  8
Defpoints
 62
     0
100
AcDbPoint
 10
196.6420954436777
 20
406.2450035176599
 30
0.0
  0
POINT
  5
1AFF
330
1AD0
100
AcDbEntity
  8
Defpoints
 62
     0
100
AcDbPoint
 10
253.331744021294
 20
474.8546511201963
 30
0.0
  0
POINT
  5
1B00
330
1AD0
100
AcDbEntity
  8
Defpoints
 62
     0
100
AcDbPoint
 10
253.2511266550282
 20
474.9212623086014
 30
0.0
  0
ENDBLK
  5
1AD9
330
1AD0
100
AcDbEntity
  8
0
100
AcDbBlockEnd
  0
ENDSEC
  0
SECTION
  2
ENTITIES
  0
LINE
  5
57
330
1E
100
AcDbEntity
  8
STEMPEL
100
AcDbLine
 10
410.0
 20
110.0
 30
0.0
 11
39.99999999999997
 21
110.0
 31
0.0
  0
LINE
  5
58
330
1E
100
AcDbEntity
  8
STEMPEL
100
AcDbLine
 10
136.0000000000001
 20
109.9999999999999
 30
0.0
 11
136.0
 21
9.999999999999971
 31
0.0
  0
LINE
  5
59
330
1E
100
AcDbEntity
  8
STEMPEL
100
AcDbLine
 10
220.0
 20
110.0
 30
0.0
 11
220.0
 21
9.999999999999971
 31
0.0
  0
LINE
  5
5A
330
1E
100
AcDbEntity
  8
STEMPEL
100
AcDbLine
 10
332.0
 20
109.9999999999997
 30
0.0
 11
332.0
 21
40.0
 31
0.0
  0
LINE
  5
5B
330
1E
100
AcDbEntity
  8
STEMPEL
100
AcDbLine
 10
135.9999999999999
 20
29.99999999999997
 30
0.0
 11
39.99999999999997
 21
29.99999999999997
 31
0.0
  0
LINE
  5
5C
330
1E
100
AcDbEntity
  8
STEMPEL
100
AcDbLine
 10
410.0
 20
40.0
 30
0.0
 11
136.0000000000001
 21
39.99999999999997
 31
0.0
  0
LINE
  5
5D
330
1E
100
AcDbEntity
  8
STEMPEL
100
AcDbLine
 10
410.0
 20
80.0
 30
0.0
 11
136.0000000000001
 21
79.99999999999994
 31
0.0
  0
LINE
  5
5E
330
1E
100
AcDbEntity
  8
VOLL
100
AcDbLine
 10
54.00000000000009
 20
110.0
 30
0.0
 11
53.99999999999997
 21
9.999999999999971
 31
0.0
  0
LINE
  5
5F
330
1E
100
AcDbEntity
  8
VOLL
100
AcDbLine
 10
94.00000000000011
 20
109.9999999999999
 30
0.0
 11
94.0
 21
9.999999999999971
 31
0.0
  0
LINE
  5
60
330
1E
100
AcDbEntity
  8
VOLL
100
AcDbLine
 10
114.0000000000001
 20
109.9999999999999
 30
0.0
 11
114.0
 21
9.999999999999971
 31
0.0
  0
LINE
  5
61
330
1E
100
AcDbEntity
  8
VOLL
100
AcDbLine
 10
154.0000000000001
 20
79.99999999999994
 30
0.0
 11
154.0000000000001
 21
39.99999999999997
 31
0.0
  0
LINE
  5
62
330
1E
100
AcDbEntity
  8
VOLL
100
AcDbLine
 10
180.0000000000001
 20
109.9999999999998
 30
0.0
 11
180.0
 21
39.99999999999997
 31
0.0
  0
LINE
  5
63
330
1E
100
AcDbEntity
  8
HILF
100
AcDbLine
 10
40.00000000000008
 20
100.0
 30
0.0
 11
136.0000000000001
 21
100.0
 31
0.0
  0
LINE
  5
64
330
1E
100
AcDbEntity
  8
HILF
100
AcDbLine
 10
40.00000000000008
 20
90.00000000000005
 30
0.0
 11
136.0000000000001
 21
90.00000000000005
 31
0.0
  0
LINE
  5
65
330
1E
100
AcDbEntity
  8
HILF
100
AcDbLine
 10
40.00000000000008
 20
79.99999999999994
 30
0.0
 11
136.0000000000001
 21
79.99999999999994
 31
0.0
  0
LINE
  5
66
330
1E
100
AcDbEntity
  8
HILF
100
AcDbLine
 10
40.00000000000008
 20
69.99999999999994
 30
0.0
 11
136.0000000000001
 21
69.99999999999994
 31
0.0
  0
LINE
  5
67
330
1E
100
AcDbEntity
  8
HILF
100
AcDbLine
 10
40.00000000000008
 20
59.99999999999997
 30
0.0
 11
136.0000000000001
 21
59.99999999999997
 31
0.0
  0
LINE
  5
68
330
1E
100
AcDbEntity
  8
HILF
100
AcDbLine
 10
40.00000000000008
 20
49.99999999999997
 30
0.0
 11
136.0000000000001
 21
49.99999999999997
 31
0.0
  0
LINE
  5
69
330
1E
100
AcDbEntity
  8
HILF
100
AcDbLine
 10
40.00000000000008
 20
39.99999999999997
 30
0.0
 11
136.0000000000001
 21
39.99999999999997
 31
0.0
  0
LINE
  5
6A
330
1E
100
AcDbEntity
  8
HILF
100
AcDbLine
 10
136.0000000000001
 20
69.99999999999994
 30
0.0
 11
220.0
 21
69.99999999999994
 31
0.0
  0
LINE
  5
6B
330
1E
100
AcDbEntity
  8
HILF
100
AcDbLine
 10
136.0000000000001
 20
59.99999999999997
 30
0.0
 11
220.0
 21
59.99999999999997
 31
0.0
  0
LINE
  5
6C
330
1E
100
AcDbEntity
  8
HILF
100
AcDbLine
 10
136.0000000000001
 20
49.99999999999997
 30
0.0
 11
220.0
 21
49.99999999999997
 31
0.0
  0
LINE
  5
6D
330
1E
100
AcDbEntity
  8
HILF
100
AcDbLine
 10
224.7736801096948
 20
84.03758247564139
 30
0.0
 11
324.8353916556311
 21
84.03758247564139
 31
0.0
  0
LINE
  5
6E
330
1E
100
AcDbEntity
  8
HILF
100
AcDbLine
 10
224.7736801096948
 20
69.99999999999994
 30
0.0
 11
324.835391655631
 21
69.99999999999994
 31
0.0
  0
LINE
  5
6F
330
1E
100
AcDbEntity
  8
HILF
100
AcDbLine
 10
224.7736801096948
 20
59.99999999999997
 30
0.0
 11
324.835391655631
 21
59.99999999999997
 31
0.0
  0
LINE
  5
70
330
1E
100
AcDbEntity
  8
HILF
100
AcDbLine
 10
224.7736801096948
 20
49.99999999999997
 30
0.0
 11
324.835391655631
 21
49.99999999999997
 31
0.0
  0
LINE
  5
71
330
1E
100
AcDbEntity
  8
VOLL
100
AcDbLine
 10
332.0
 20
60.0
 30
0.0
 11
410.0
 21
60.0
 31
0.0
  0
LINE
  5
72
330
1E
100
AcDbEntity
  8
HILF
100
AcDbLine
 10
336.7238616296993
 20
83.77983636955827
 30
0.0
 11
404.8588839326728
 21
83.77983636955827
 31
0.0
  0
LINE
  5
73
330
1E
100
AcDbEntity
  8
HILF
100
AcDbLine
 10
223.4909699289885
 20
14.89398258028314
 30
0.0
 11
404.8588839326728
 21
14.89398258028314
 31
0.0
  0
TEXT
  5
74
330
1E
100
AcDbEntity
  8
TEXT
100
AcDbText
 10
63.86165979631819
 20
18.67381894984132
 30
0.0
 40
4.0
  1
Änderung
 41
0.8
  7
GREEKS
 72
     1
 11
74.60451693917534
 21
18.67381894984132
 31
0.0
100
AcDbText
  0
TEXT
  5
75
330
1E
100
AcDbEntity
  8
TEXT
100
AcDbText
 10
143.5163572150377
 20
102.4620895087088
 30
0.0
 40
5.0
  1
Maßstab
 41
0.8
  7
GREEKS
100
AcDbText
  0
TEXT
  5
76
330
1E
100
AcDbEntity
  8
TEXT
100
AcDbText
 10
184.2858954734051
 20
102.4184168434819
 30
0.0
 40
5.0
  1
Zul. Abw.
 41
0.8
  7
GREEKS
100
AcDbText
  0
TEXT
  5
77
330
1E
100
AcDbEntity
  8
TEXT
100
AcDbText
 10
224.877940380901
 20
102.5489328011779
 30
0.0
 40
5.0
  1
Benennung
 41
0.8
  7
GREEKS
100
AcDbText
  0
TEXT
  5
78
330
1E
100
AcDbEntity
  8
TEXT
100
AcDbText
 10
336.178754957634
 20
102.3132034537136
 30
0.0
 40
5.0
  1
Zeichnungs Nr.
 41
0.8
  7
GREEKS
100
AcDbText
  0
TEXT
  5
79
330
1E
100
AcDbEntity
  8
TEXT
100
AcDbText
 10
224.742238391136
 20
30.84560570193057
 30
0.0
 40
5.0
  1
Bauvorhaben
 41
0.8
  7
GREEKS
100
AcDbText
  0
TEXT
  5
7A
330
1E
100
AcDbEntity
  8
TEXT
100
AcDbText
 10
336.7238616296993
 20
73.1811823709997
 30
0.0
 40
5.0
  1
Ersatz für:
 41
0.8
  7
GREEKS
100
AcDbText
  0
TEXT
  5
7B
330
1E
100
AcDbEntity
  8
TEXT
100
AcDbText
 10
48.26641107045756
 20
13.65465846027192
 30
0.0
 40
4.0
  1
Index
 50
90.0
 41
0.8
  7
GREEKS
100
AcDbText
  0
TEXT
  5
7C
330
1E
100
AcDbEntity
  8
TEXT
100
AcDbText
 10
100.0934676075481
 20
18.6715626933981
 30
0.0
 40
4.0
  1
Tag
 41
0.8
  7
GREEKS
 72
     1
 11
103.8268009408814
 21
18.6715626933981
 31
0.0
100
AcDbText
  0
TEXT
  5
7D
330
1E
100
AcDbEntity
  8
TEXT
100
AcDbText
 10
119.0122744386592
 20
18.59324216966408
 30
0.0
 40
4.0
  1
Name
 41
0.8
  7
GREEKS
 72
     1
 11
125.3360839624688
 21
18.59324216966408
 31
0.0
100
AcDbText
  0
TEXT
  5
7E
330
1E
100
AcDbEntity
  8
TEXT
100
AcDbText
 10
162.3311673153651
 20
73.31880501229926
 30
0.0
 40
4.0
  1
Tag
 41
0.8
  7
GREEKS
100
AcDbText
  0
TEXT
  5
7F
330
1E
100
AcDbEntity
  8
TEXT
100
AcDbText
 10
192.4626584226295
 20
73.30961091915225
 30
0.0
 40
4.0
  1
Name
 41
0.8
  7
GREEKS
100
AcDbText
  0
TEXT
  5
80
330
1E
100
AcDbEntity
  8
TEXT
100
AcDbText
 10
137.5836127167615
 20
63.62990369617964
 30
0.0
 40
4.0
  1
Gez.
 41
0.8
  7
GREEKS
100
AcDbText
  0
TEXT
  5
81
330
1E
100
AcDbEntity
  8
TEXT
100
AcDbText
 10
137.5515086571672
 20
53.68926291428377
 30
0.0
 40
4.0
  1
Gepr.
 41
0.8
  7
GREEKS
100
AcDbText
  0
TEXT
  5
82
330
1E
100
AcDbEntity
  8
TEXT
100
AcDbText
 10
137.6006777387304
 20
43.52946389649807
 30
0.0
 40
4.0
  1
Norm.
 41
0.8
  7
GREEKS
100
AcDbText
  0
LINE
  5
83
330
1E
100
AcDbEntity
  8
STEMPEL
100
AcDbLine
 10
49.99999999999989
 20
10.0
 30
0.0
 11
410.0
 21
10.0
 31
0.0
  0
TEXT
  5
84
330
1E
100
AcDbEntity
  8
TEXT
100
AcDbText
 10
337.2400861497006
 20
52.07416177878602
 30
0.0
 40
5.0
  1
ersetzt durch:
 41
0.8
  7
GREEKS
100
AcDbText
  0
LINE
  5
85
330
1E
100
AcDbEntity
  8
STEMPEL
100
AcDbLine
 10
410.0
 20
10.0
 30
0.0
 11
39.99999999999989
 21
10.0
 31
0.0
  0
LINE
  5
86
330
1E
100
AcDbEntity
  8
STEMPEL
100
AcDbLine
 10
410.0
 20
10.0
 30
0.0
 11
410.0
 21
584.0
 31
0.0
  0
LINE
  5
87
330
1E
100
AcDbEntity
  8
STEMPEL
100
AcDbLine
 10
40.0
 20
10.0
 30
0.0
 11
39.99999999999989
 21
584.0
 31
0.0
  0
LINE
  5
88
330
1E
100
AcDbEntity
  8
STEMPEL
100
AcDbLine
 10
410.0
 20
584.0
 30
0.0
 11
39.99999999999989
 21
584.0
 31
0.0
  0
LINE
  5
89
330
1E
100
AcDbEntity
  8
HILF
100
AcDbLine
 10
0.0
 20
0.0
 30
0.0
 11
-0.0000000000001137
 21
594.0
 31
0.0
  0
LINE
  5
8A
330
1E
100
AcDbEntity
  8
HILF
100
AcDbLine
 10
419.9999999999999
 20
594.0000000000002
 30
0.0
 11
0.0
 21
594.0
 31
0.0
  0
LINE
  5
8B
330
1E
100
AcDbEntity
  8
HILF
100
AcDbLine
 10
420.0
 20
0.0
 30
0.0
 11
0.0
 21
0.0
 31
0.0
  0
LINE
  5
8C
330
1E
100
AcDbEntity
  8
HILF
100
AcDbLine
 10
31.08767135713856
 20
297.0
 30
0.0
 11
0.0000000000001137
 21
297.0
 31
0.0
  0
TEXT
  5
8D
330
1E
100
AcDbEntity
  8
TEXT
100
AcDbText
 10
138.622109822104
 20
73.14025471151666
 30
0.0
 40
4.0
  1
2012
 41
0.8
  7
GREEKS
100
AcDbText
  0
LINE
  5
8E
330
1E
100
AcDbEntity
  8
HILF
100
AcDbLine
 10
420.0
 20
-0.0000000000001137
 30
0.0
 11
419.9999999999999
 21
594.0
 31
0.0
  0
TEXT
  5
8F
330
1E
100
AcDbEntity
  8
VOLL
100
AcDbText
 10
78.07675471698113
 20
31.02594776470585
 30
0.0
 40
1.8
  1

  7
GREEKS
100
AcDbText
  0
TEXT
  5
90
330
1E
100
AcDbEntity
  8
TEXT
100
AcDbText
 10
41.85509950977674
 20
111.6719999999999
 30
0.0
 40
5.0
  1
Erstellt mit AUTOCAD 2004
 41
0.8
  7
GREEKS
100
AcDbText
  0
TEXT
  5
91
330
1E
100
AcDbEntity
  8
TEXT
100
AcDbText
 10
194.4216048581257
 20
63.0896391972351
 30
0.0
 40
4.0
  1
Koeh
 41
0.8
  7
GREEKS
 72
     1
 11
199.6787477152685
 21
63.0896391972351
 31
0.0
100
AcDbText
  0
TEXT
  5
92
330
1E
100
AcDbEntity
  8
TEXT
 62
     1
100
AcDbText
 10
347.0426020562569
 20
88.14901428913959
 30
0.0
 40
7.0
  1
09917080W
 41
0.8
  7
GREEKS
 72
     1
 11
370.5092687229236
 21
88.14901428913959
 31
0.0
100
AcDbText
  0
TEXT
  5
93
330
1E
100
AcDbEntity
  8
TEXT
 62
     1
100
AcDbText
 10
150.5006306481887
 20
88.14901428913959
 30
0.0
 40
7.0
  1
1:2
 41
0.8
  7
GREEKS
100
AcDbText
  0
TEXT
  5
94
330
1E
100
AcDbEntity
  8
TEXT
100
AcDbText
 10
160.7037590129979
 20
63.10765040825732
 30
0.0
 40
4.0
  1
29.10.
 41
0.8
  7
GREEKS
 72
     1
 11
167.4085209177598
 21
63.10765040825732
 31
0.0
100
AcDbText
  0
TEXT
  5
95
330
1E
100
AcDbEntity
  8
TEXT
 62
     1
100
AcDbText
 10
226.8935731057402
 20
87.41748789253779
 30
0.0
 40
7.0
  1
Rohrschelle DN80
 41
0.8
  7
GREEKS
100
AcDbText
  0
TEXT
  5
96
330
1E
100
AcDbEntity
  8
TEXT
100
AcDbText
 10
225.1296391125315
 20
71.50334417585288
 30
0.0
 40
5.0
  1
mit Schlagstift 150mm
 41
0.8
  7
GREEKS
100
AcDbText
  0
TEXT
  5
98
330
1E
100
AcDbEntity
  8
TEXT
100
AcDbText
 10
225.1296391125315
 20
51.64011943042158
 30
0.0
 40
5.0
  1
EDV-Art.Nr. 09917.080X
 41
0.8
  7
GREEKS
100
AcDbText
  0
TEXT
  5
99
330
1E
100
AcDbEntity
  8
TEXT
100
AcDbText
 10
224.9837501577827
 20
42.62974153022632
 30
0.0
 40
4.0
  1
09917080W.DWG
 41
0.8
  7
GREEKS
100
AcDbText
  0
TEXT
  5
9A
330
1E
100
AcDbEntity
  8
TEXT
100
AcDbText
 10
182.626132208084
 20
90.76363841023022
 30
0.0
 40
4.0
  1
DIN EN1123-2
 41
0.8
  7
GREEKS
 72
     1
 11
199.6166083985602
 21
90.76363841023022
 31
0.0
100
AcDbText
  0
INSERT
  5
9B
330
1E
100
AcDbEntity
  8
STEMPEL
100
AcDbBlockReference
  2
LOGO
 10
140.9955485457794
 20
45.02105276448322
 30
0.0
 41
2.0
 42
2.0
 43
2.0
  0
TEXT
  5
118
330
1E
100
AcDbEntity
  8
BEM
100
AcDbText
 10
417.3022923857165
 20
10.16790107998849
 30
0.0
 40
4.0
  1
Diese Zeichnung ist urheberrechtlich geschützt und bleibt unser Eigentum. Sie darf weder ganz noch teilweise verfielfältigt und nicht an Dritte weitergegeben werden.
 50
90.0
 41
0.8
  7
GREEKS
100
AcDbText
  0
TEXT
  5
C1B
330
1E
100
AcDbEntity
  8
TEXT
 62
     1
100
AcDbText
 10
303.5785640542456
 20
474.4157599405025
 30
0.0
 40
7.0
  1
Schraube M6x16
 41
0.8
  7
GREEKS
100
AcDbText
  0
LINE
  5
C1C
330
1E
100
AcDbEntity
  8
TEXT
 62
     2
100
AcDbLine
 10
301.4586710582002
 20
471.0358545236061
 30
0.0
 11
376.4603528758306
 21
471.0358545236061
 31
0.0
  0
LINE
  5
C1D
330
1E
100
AcDbEntity
  8
TEXT
 62
     2
100
AcDbLine
 10
301.4586710582002
 20
471.0358545236061
 30
0.0
 11
281.4338936885791
 21
446.0234360240942
 31
0.0
  0
LINE
  5
18D1
330
1E
100
AcDbEntity
  8
HILF
100
AcDbLine
 10
277.1042261329395
 20
441.6163419650373
 30
0.0
 11
277.1042261329395
 21
439.1163419650373
 31
0.0
  0
LINE
  5
18D2
330
1E
100
AcDbEntity
  8
HILF
100
AcDbLine
 10
281.7042261329395
 20
441.6163419650373
 30
0.0
 11
281.7042261329394
 21
439.1163419650373
 31
0.0
  0
LINE
  5
18D3
330
1E
100
AcDbEntity
  8
STEMPEL
100
AcDbLine
 10
274.4042261329395
 20
446.5763419650373
 30
0.0
 11
274.4042261329395
 21
444.1163419650373
 31
0.0
  0
LINE
  5
18D4
330
1E
100
AcDbEntity
  8
HILF
100
AcDbLine
 10
274.4042261329393
 20
446.5763419650373
 30
0.0
 11
278.7042261329395
 21
446.5763419650373
 31
0.0
  0
ARC
  5
18D5
330
1E
100
AcDbEntity
  8
STEMPEL
100
AcDbCircle
 10
279.4042261329395
 20
437.9163419650374
 30
0.0
 40
10.0
100
AcDbArc
 50
94.01396748800069
 51
119.9999850769986
  0
LINE
  5
18D6
330
1E
100
AcDbEntity
  8
STEMPEL
100
AcDbLine
 10
278.7042261329395
 20
446.2883419650373
 30
0.0
 11
278.7042261329395
 21
447.8913419650373
 31
0.0
  0
LINE
  5
18D7
330
1E
100
AcDbEntity
  8
STEMPEL
100
AcDbLine
 10
280.1042261329395
 20
446.2883419650373
 30
0.0
 11
278.7042261329395
 21
446.2883419650373
 31
0.0
  0
LINE
  5
18D8
330
1E
100
AcDbEntity
  8
STEMPEL
100
AcDbLine
 10
280.1042261329395
 20
447.8913419650373
 30
0.0
 11
280.1042261329395
 21
446.2883419650373
 31
0.0
  0
LINE
  5
18D9
330
1E
100
AcDbEntity
  8
HILF
100
AcDbLine
 10
280.1042261329395
 20
446.5763419650373
 30
0.0
 11
284.4042261329395
 21
446.5763419650373
 31
0.0
  0
ARC
  5
18DA
330
1E
100
AcDbEntity
  8
STEMPEL
100
AcDbCircle
 10
279.4042261329395
 20
437.9163419650374
 30
0.0
 40
10.0
100
AcDbArc
 50
59.99999358399893
 51
85.98594517699948
  0
LINE
  5
18DB
330
1E
100
AcDbEntity
  8
STEMPEL
100
AcDbLine
 10
284.4042261329395
 20
444.1163419650373
 30
0.0
 11
284.4042261329395
 21
446.5763419650373
 31
0.0
  0
LINE
  5
18DC
330
1E
100
AcDbEntity
  8
STEMPEL
100
AcDbLine
 10
282.4042261329395
 20
439.1163419650373
 30
0.0
 11
282.4042261329395
 21
442.6763419650373
 31
0.0
  0
LINE
  5
18DD
330
1E
100
AcDbEntity
  8
STEMPEL
100
AcDbLine
 10
276.4042261329395
 20
439.1163419650373
 30
0.0
 11
276.4042261329395
 21
444.1163419650373
 31
0.0
  0
LINE
  5
18DE
330
1E
100
AcDbEntity
  8
STEMPEL
100
AcDbLine
 10
276.4042261329395
 20
430.1163419650373
 30
0.0
 11
276.4042261329395
 21
435.6163419650373
 31
0.0
  0
LINE
  5
18DF
330
1E
100
AcDbEntity
  8
HILF
100
AcDbLine
 10
277.1042261329395
 20
428.9033419650373
 30
0.0
 11
277.1042261329395
 21
435.6163419650373
 31
0.0
  0
LINE
  5
18E0
330
1E
100
AcDbEntity
  8
STEMPEL
100
AcDbLine
 10
276.4042261329395
 20
430.1163419650373
 30
0.0
 11
277.5592261329395
 21
428.1163419650373
 31
0.0
  0
LINE
  5
18E1
330
1E
100
AcDbEntity
  8
STEMPEL
100
AcDbLine
 10
277.5592261329395
 20
428.1163419650373
 30
0.0
 11
281.2492261329395
 21
428.1163419650373
 31
0.0
  0
LINE
  5
18E2
330
1E
100
AcDbEntity
  8
STEMPEL
100
AcDbLine
 10
281.2492261329395
 20
428.1163419650373
 30
0.0
 11
282.4042261329395
 21
430.1163419650373
 31
0.0
  0
LINE
  5
18E3
330
1E
100
AcDbEntity
  8
STEMPEL
100
AcDbLine
 10
282.4042261329395
 20
430.1163419650373
 30
0.0
 11
276.4042261329395
 21
430.1163419650373
 31
0.0
  0
LINE
  5
18E4
330
1E
100
AcDbEntity
  8
HILF
100
AcDbLine
 10
281.7042261329395
 20
428.9033419650373
 30
0.0
 11
281.7042261329395
 21
435.6163419650373
 31
0.0
  0
LINE
  5
18E5
330
1E
100
AcDbEntity
  8
STEMPEL
100
AcDbLine
 10
282.4042261329395
 20
430.1163419650373
 30
0.0
 11
282.4042261329395
 21
435.6163419650373
 31
0.0
  0
LINE
  5
18E6
330
1E
100
AcDbEntity
  8
STEMPEL
100
AcDbLine
 10
175.4082261329396
 20
444.1163419650373
 30
0.0
 11
175.4082261329396
 21
446.5763419650373
 31
0.0
  0
LINE
  5
18E7
330
1E
100
AcDbEntity
  8
HILF
100
AcDbLine
 10
171.1082261329394
 20
446.5763419650373
 30
0.0
 11
175.4082261329396
 21
446.5763419650373
 31
0.0
  0
ARC
  5
18E8
330
1E
100
AcDbEntity
  8
STEMPEL
100
AcDbCircle
 10
170.4082261329395
 20
437.9163419650374
 30
0.0
 40
10.0
100
AcDbArc
 50
59.99999358399893
 51
85.98594517699948
  0
LINE
  5
18E9
330
1E
100
AcDbEntity
  8
STEMPEL
100
AcDbLine
 10
171.1082261329395
 20
447.8913419650373
 30
0.0
 11
171.1082261329395
 21
446.2883419650373
 31
0.0
  0
LINE
  5
18EA
330
1E
100
AcDbEntity
  8
STEMPEL
100
AcDbLine
 10
171.1082261329395
 20
446.2883419650373
 30
0.0
 11
169.7082261329395
 21
446.2883419650373
 31
0.0
  0
LINE
  5
18EB
330
1E
100
AcDbEntity
  8
STEMPEL
100
AcDbLine
 10
169.7082261329395
 20
446.2883419650373
 30
0.0
 11
169.7082261329395
 21
447.8913419650373
 31
0.0
  0
LINE
  5
18EC
330
1E
100
AcDbEntity
  8
HILF
100
AcDbLine
 10
165.4082261329395
 20
446.5763419650373
 30
0.0
 11
169.7082261329395
 21
446.5763419650373
 31
0.0
  0
ARC
  5
18ED
330
1E
100
AcDbEntity
  8
STEMPEL
100
AcDbCircle
 10
170.4082261329395
 20
437.9163419650374
 30
0.0
 40
10.0
100
AcDbArc
 50
94.01396748800069
 51
119.9999850769986
  0
LINE
  5
18EE
330
1E
100
AcDbEntity
  8
STEMPEL
100
AcDbLine
 10
165.4082261329395
 20
446.5763419650373
 30
0.0
 11
165.4082261329395
 21
444.1163419650373
 31
0.0
  0
LINE
  5
18F1
330
1E
100
AcDbEntity
  8
STEMPEL
100
AcDbLine
 10
173.4082261329396
 20
439.1163419650373
 30
0.0
 11
173.4082261329396
 21
442.1163419650373
 31
0.0
  0
LINE
  5
18F2
330
1E
100
AcDbEntity
  8
HILF
100
AcDbLine
 10
172.7082261329395
 20
439.1163419650373
 30
0.0
 11
172.7082261329395
 21
441.6163419650373
 31
0.0
  0
LINE
  5
18F3
330
1E
100
AcDbEntity
  8
STEMPEL
100
AcDbLine
 10
167.4082261329395
 20
441.6163419650373
 30
0.0
 11
173.4082261329396
 21
441.6163419650373
 31
0.0
  0
LINE
  5
18F4
330
1E
100
AcDbEntity
  8
HILF
100
AcDbLine
 10
168.1082261329395
 20
439.1163419650373
 30
0.0
 11
168.1082261329395
 21
441.6163419650373
 31
0.0
  0
LINE
  5
18F5
330
1E
100
AcDbEntity
  8
STEMPEL
100
AcDbLine
 10
167.4082261329395
 20
439.1163419650373
 30
0.0
 11
167.4082261329395
 21
442.1163419650373
 31
0.0
  0
LINE
  5
18F6
330
1E
100
AcDbEntity
  8
STEMPEL
100
AcDbLine
 10
167.4082261329395
 20
430.1163419650373
 30
0.0
 11
167.4082261329395
 21
435.6163419650373
 31
0.0
  0
LINE
  5
18F7
330
1E
100
AcDbEntity
  8
HILF
100
AcDbLine
 10
168.1082261329395
 20
428.9033419650373
 30
0.0
 11
168.1082261329395
 21
435.6163419650373
 31
0.0
  0
LINE
  5
18F8
330
1E
100
AcDbEntity
  8
STEMPEL
100
AcDbLine
 10
167.4082261329395
 20
430.1163419650373
 30
0.0
 11
168.5632261329395
 21
428.1163419650373
 31
0.0
  0
LINE
  5
18F9
330
1E
100
AcDbEntity
  8
STEMPEL
100
AcDbLine
 10
168.5632261329395
 20
428.1163419650373
 30
0.0
 11
172.2532261329396
 21
428.1163419650373
 31
0.0
  0
LINE
  5
18FA
330
1E
100
AcDbEntity
  8
STEMPEL
100
AcDbLine
 10
172.2532261329396
 20
428.1163419650373
 30
0.0
 11
173.4082261329396
 21
430.1163419650373
 31
0.0
  0
LINE
  5
18FB
330
1E
100
AcDbEntity
  8
STEMPEL
100
AcDbLine
 10
173.4082261329396
 20
430.1163419650373
 30
0.0
 11
167.4082261329395
 21
430.1163419650373
 31
0.0
  0
LINE
  5
18FC
330
1E
100
AcDbEntity
  8
HILF
100
AcDbLine
 10
172.7082261329395
 20
428.9033419650373
 30
0.0
 11
172.7082261329395
 21
435.6163419650373
 31
0.0
  0
LINE
  5
18FD
330
1E
100
AcDbEntity
  8
STEMPEL
100
AcDbLine
 10
173.4082261329396
 20
430.1163419650373
 30
0.0
 11
173.4082261329396
 21
435.6163419650373
 31
0.0
  0
LINE
  5
18FE
330
1E
100
AcDbEntity
  8
STEMPEL
100
AcDbLine
 10
282.4042261329395
 20
441.6163419650373
 30
0.0
 11
276.4042261329395
 21
441.6163419650373
 31
0.0
  0
LINE
  5
1901
330
1E
100
AcDbEntity
  8
STEMPEL
100
AcDbLine
 10
274.4642261329395
 20
444.1163419650373
 30
0.0
 11
274.4642261329395
 21
442.1163419650373
 31
0.0
  0
LINE
  5
1902
330
1E
100
AcDbEntity
  8
STEMPEL
100
AcDbLine
 10
284.7252261329396
 20
442.1163419650373
 30
0.0
 11
284.7252261329396
 21
444.1163419650373
 31
0.0
  0
LINE
  5
1903
330
1E
100
AcDbEntity
  8
STEMPEL
100
AcDbLine
 10
283.7072261329396
 20
444.1163419650373
 30
0.0
 11
284.4042261329395
 21
444.1163419650373
 31
0.0
  0
LINE
  5
1904
330
1E
100
AcDbEntity
  8
STEMPEL
100
AcDbLine
 10
165.0872261329396
 20
442.1163419650373
 30
0.0
 11
165.0872261329396
 21
444.1163419650373
 31
0.0
  0
ARC
  5
1905
330
1E
100
AcDbEntity
  8
HILF
100
AcDbCircle
 10
224.9062261329395
 20
440.6163419650373
 30
0.0
 40
47.5
100
AcDbArc
 50
4.443759259999333
 51
175.5562407400006
  0
LINE
  5
1906
330
1E
100
AcDbEntity
  8
STEMPEL
100
AcDbLine
 10
283.5652261329395
 20
445.1163419650373
 30
0.0
 11
283.5652261329395
 21
444.1303419650373
 31
0.0
  0
LINE
  5
1907
330
1E
100
AcDbEntity
  8
STEMPEL
100
AcDbLine
 10
281.5332261329396
 20
445.1163419650373
 30
0.0
 11
283.5652261329395
 21
445.1163419650373
 31
0.0
  0
LINE
  5
1908
330
1E
100
AcDbEntity
  8
STEMPEL
100
AcDbLine
 10
281.5332261329396
 20
444.3153419650373
 30
0.0
 11
281.5332261329396
 21
445.1163419650373
 31
0.0
  0
ARC
  5
1909
330
1E
100
AcDbEntity
  8
STEMPEL
100
AcDbCircle
 10
283.9832261329395
 20
444.5663419650373
 30
0.0
 40
2.463
100
AcDbArc
 50
185.8375244180006
 51
264.1736792309999
  0
LINE
  5
190A
330
1E
100
AcDbEntity
  8
STEMPEL
100
AcDbLine
 10
273.0932261329396
 20
444.1163419650373
 30
0.0
 11
281.5622261329396
 21
444.1163419650373
 31
0.0
  0
ARC
  5
190B
330
1E
100
AcDbEntity
  8
STEMPEL
100
AcDbCircle
 10
273.0932261329396
 20
446.1163419650373
 30
0.0
 40
2.0
100
AcDbArc
 50
186.5114669979995
 51
270.0
  0
ARC
  5
190C
330
1E
100
AcDbEntity
  8
STEMPEL
100
AcDbCircle
 10
224.9062261329395
 20
440.6163419650373
 30
0.0
 40
46.5
100
AcDbArc
 50
6.511466997999566
 51
173.4885330020004
  0
ARC
  5
190D
330
1E
100
AcDbEntity
  8
STEMPEL
100
AcDbCircle
 10
176.7192261329395
 20
446.1163419650373
 30
0.0
 40
2.0
100
AcDbArc
 50
270.0
 51
353.4885330020004
  0
LINE
  5
190E
330
1E
100
AcDbEntity
  8
STEMPEL
100
AcDbLine
 10
162.4082261329395
 20
444.1163419650373
 30
0.0
 11
176.7192261329395
 21
444.1163419650373
 31
0.0
  0
LINE
  5
190F
330
1E
100
AcDbEntity
  8
STEMPEL
100
AcDbLine
 10
162.4082261329395
 20
442.1163419650373
 30
0.0
 11
162.4082261329395
 21
444.1163419650373
 31
0.0
  0
LINE
  5
1910
330
1E
100
AcDbEntity
  8
STEMPEL
100
AcDbLine
 10
176.7192261329395
 20
442.1163419650373
 30
0.0
 11
162.4082261329395
 21
442.1163419650373
 31
0.0
  0
ARC
  5
1911
330
1E
100
AcDbEntity
  8
STEMPEL
100
AcDbCircle
 10
176.7192261329395
 20
446.1163419650373
 30
0.0
 40
4.0
100
AcDbArc
 50
270.0
 51
353.4885330020004
  0
ARC
  5
1912
330
1E
100
AcDbEntity
  8
STEMPEL
100
AcDbCircle
 10
224.9062261329395
 20
440.6163419650373
 30
0.0
 40
44.5
100
AcDbArc
 50
6.511466997999566
 51
173.4885330020004
  0
ARC
  5
1913
330
1E
100
AcDbEntity
  8
STEMPEL
100
AcDbCircle
 10
273.0932261329396
 20
446.1163419650373
 30
0.0
 40
4.0
100
AcDbArc
 50
186.5114669979995
 51
270.0
  0
LINE
  5
1914
330
1E
100
AcDbEntity
  8
STEMPEL
100
AcDbLine
 10
276.4042261329395
 20
442.1163419650373
 30
0.0
 11
273.0932261329396
 21
442.1163419650373
 31
0.0
  0
LINE
  5
1915
330
1E
100
AcDbEntity
  8
STEMPEL
100
AcDbLine
 10
287.4042261329395
 20
442.1163419650373
 30
0.0
 11
282.4042261329395
 21
442.1163419650373
 31
0.0
  0
LINE
  5
1916
330
1E
100
AcDbEntity
  8
STEMPEL
100
AcDbLine
 10
287.4042261329395
 20
444.1163419650373
 30
0.0
 11
287.4042261329395
 21
442.1163419650373
 31
0.0
  0
LINE
  5
1917
330
1E
100
AcDbEntity
  8
STEMPEL
100
AcDbLine
 10
283.7072261329396
 20
444.1163419650373
 30
0.0
 11
287.4042261329395
 21
444.1163419650373
 31
0.0
  0
ARC
  5
1918
330
1E
100
AcDbEntity
  8
STEMPEL
100
AcDbCircle
 10
283.7072261329396
 20
444.8163419650373
 30
0.0
 40
0.7
100
AcDbArc
 50
180.0
 51
270.0
  0
LINE
  5
1919
330
1E
100
AcDbEntity
  8
STEMPEL
100
AcDbLine
 10
283.0072261329395
 20
445.1163419650373
 30
0.0
 11
283.0072261329395
 21
444.8163419650373
 31
0.0
  0
LINE
  5
191A
330
1E
100
AcDbEntity
  8
STEMPEL
100
AcDbLine
 10
231.1562261329395
 20
379.1163419650374
 30
0.0
 11
227.9062261329396
 21
375.8663419650373
 31
0.0
  0
LINE
  5
191B
330
1E
100
AcDbEntity
  8
STEMPEL
100
AcDbLine
 10
218.6562261329395
 20
379.1163419650374
 30
0.0
 11
221.9062261329395
 21
375.8663419650373
 31
0.0
  0
LINE
  5
191C
330
1E
100
AcDbEntity
  8
STEMPEL
100
AcDbLine
 10
227.9062261329396
 20
240.3123419650374
 30
0.0
 11
227.9062261329396
 21
375.8663419650373
 31
0.0
  0
LINE
  5
191D
330
1E
100
AcDbEntity
  8
STEMPEL
100
AcDbLine
 10
221.9062261329395
 20
240.3123419650374
 30
0.0
 11
221.9062261329395
 21
375.8663419650373
 31
0.0
  0
LINE
  5
191E
330
1E
100
AcDbEntity
  8
STEMPEL
100
AcDbLine
 10
224.9062261329395
 20
229.1163419650374
 30
0.0
 11
227.9062261329396
 21
240.3123419650374
 31
0.0
  0
LINE
  5
191F
330
1E
100
AcDbEntity
  8
STEMPEL
100
AcDbLine
 10
224.9062261329395
 20
229.1163419650374
 30
0.0
 11
221.9062261329395
 21
240.3123419650374
 31
0.0
  0
LINE
  5
1920
330
1E
100
AcDbEntity
  8
HILF
100
AcDbLine
 10
227.9062261329396
 20
348.8663419650373
 30
0.0
 11
228.2902261329395
 21
348.8663419650373
 31
0.0
  0
LINE
  5
1921
330
1E
100
AcDbEntity
  8
HILF
100
AcDbLine
 10
227.9062261329396
 20
352.8663419650373
 30
0.0
 11
228.2902261329395
 21
352.8663419650373
 31
0.0
  0
LINE
  5
1922
330
1E
100
AcDbEntity
  8
HILF
100
AcDbLine
 10
227.9062261329396
 20
356.8663419650373
 30
0.0
 11
228.2902261329395
 21
356.8663419650373
 31
0.0
  0
LINE
  5
1923
330
1E
100
AcDbEntity
  8
HILF
100
AcDbLine
 10
227.9062261329396
 20
360.8663419650373
 30
0.0
 11
228.2902261329395
 21
360.8663419650373
 31
0.0
  0
LINE
  5
1924
330
1E
100
AcDbEntity
  8
HILF
100
AcDbLine
 10
227.9062261329396
 20
364.8663419650373
 30
0.0
 11
228.2902261329395
 21
364.8663419650373
 31
0.0
  0
LINE
  5
1925
330
1E
100
AcDbEntity
  8
HILF
100
AcDbLine
 10
221.9062261329395
 20
364.8663419650373
 30
0.0
 11
221.5222261329395
 21
364.8663419650373
 31
0.0
  0
LINE
  5
1926
330
1E
100
AcDbEntity
  8
HILF
100
AcDbLine
 10
221.9062261329395
 20
360.8663419650373
 30
0.0
 11
221.5222261329395
 21
360.8663419650373
 31
0.0
  0
LINE
  5
1927
330
1E
100
AcDbEntity
  8
HILF
100
AcDbLine
 10
221.9062261329395
 20
356.8663419650373
 30
0.0
 11
221.5222261329395
 21
356.8663419650373
 31
0.0
  0
LINE
  5
1928
330
1E
100
AcDbEntity
  8
HILF
100
AcDbLine
 10
221.9062261329395
 20
352.8663419650373
 30
0.0
 11
221.5222261329395
 21
352.8663419650373
 31
0.0
  0
LINE
  5
1929
330
1E
100
AcDbEntity
  8
HILF
100
AcDbLine
 10
221.9062261329395
 20
348.8663419650373
 30
0.0
 11
221.5222261329395
 21
348.8663419650373
 31
0.0
  0
ARC
  5
192A
330
1E
100
AcDbEntity
  8
HILF
100
AcDbCircle
 10
224.9062261329395
 20
380.3663419650373
 30
0.0
 40
5.315
100
AcDbArc
 50
244.9837960419997
 51
295.0163005179997
  0
LINE
  5
192B
330
1E
100
AcDbEntity
  8
HILF
100
AcDbLine
 10
222.4062261329395
 20
364.8663419650373
 30
0.0
 11
227.4062261329395
 21
364.8663419650373
 31
0.0
  0
LINE
  5
192C
330
1E
100
AcDbEntity
  8
HILF
100
AcDbLine
 10
222.4062261329395
 20
360.8663419650373
 30
0.0
 11
227.4062261329395
 21
360.8663419650373
 31
0.0
  0
LINE
  5
192D
330
1E
100
AcDbEntity
  8
HILF
100
AcDbLine
 10
222.4062261329395
 20
356.8663419650373
 30
0.0
 11
227.4062261329395
 21
356.8663419650373
 31
0.0
  0
LINE
  5
192E
330
1E
100
AcDbEntity
  8
HILF
100
AcDbLine
 10
222.4062261329395
 20
352.8663419650373
 30
0.0
 11
227.4062261329395
 21
352.8663419650373
 31
0.0
  0
LINE
  5
192F
330
1E
100
AcDbEntity
  8
HILF
100
AcDbLine
 10
222.4062261329395
 20
348.8663419650373
 30
0.0
 11
227.4062261329395
 21
348.8663419650373
 31
0.0
  0
LINE
  5
1930
330
1E
100
AcDbEntity
  8
STEMPEL
100
AcDbLine
 10
218.6562261329395
 20
379.1163419650374
 30
0.0
 11
231.1562261329395
 21
379.1163419650374
 31
0.0
  0
LINE
  5
1931
330
1E
100
AcDbEntity
  8
STEMPEL
100
AcDbLine
 10
221.9062261329395
 20
240.3123419650374
 30
0.0
 11
227.9062261329396
 21
240.3123419650374
 31
0.0
  0
ARC
  5
1932
330
1E
100
AcDbEntity
  8
STEMPEL
100
AcDbCircle
 10
227.9062261329396
 20
381.1163419650373
 30
0.0
 40
1.0
100
AcDbArc
 50
0.0
 51
90.0
  0
LINE
  5
1933
330
1E
100
AcDbEntity
  8
STEMPEL
100
AcDbLine
 10
221.9062261329395
 20
382.1163419650373
 30
0.0
 11
227.9062261329396
 21
382.1163419650373
 31
0.0
  0
ARC
  5
1934
330
1E
100
AcDbEntity
  8
STEMPEL
100
AcDbCircle
 10
221.9062261329395
 20
381.1163419650373
 30
0.0
 40
1.0
100
AcDbArc
 50
90.0
 51
180.0
  0
ARC
  5
1936
330
1E
100
AcDbEntity
  8
STEMPEL
100
AcDbCircle
 10
174.6582261329396
 20
436.6163419650373
 30
0.0
 40
0.5
100
AcDbArc
 50
90.0
 51
180.0
  0
LINE
  5
1937
330
1E
100
AcDbEntity
  8
STEMPEL
100
AcDbLine
 10
174.1582261329396
 20
436.6163419650373
 30
0.0
 11
174.1582261329396
 21
435.6163419650373
 31
0.0
  0
LINE
  5
1938
330
1E
100
AcDbEntity
  8
STEMPEL
100
AcDbLine
 10
174.1582261329396
 20
435.6163419650373
 30
0.0
 11
166.6582261329395
 21
435.6163419650373
 31
0.0
  0
ARC
  5
1939
330
1E
100
AcDbEntity
  8
STEMPEL
100
AcDbCircle
 10
166.1582261329395
 20
436.6163419650373
 30
0.0
 40
0.5
100
AcDbArc
 50
0.0
 51
90.0
  0
LINE
  5
193A
330
1E
100
AcDbEntity
  8
STEMPEL
100
AcDbLine
 10
166.6582261329395
 20
435.6163419650373
 30
0.0
 11
166.6582261329395
 21
436.6163419650373
 31
0.0
  0
LINE
  5
193B
330
1E
100
AcDbEntity
  8
STEMPEL
100
AcDbLine
 10
165.0872261329396
 20
437.1163419650373
 30
0.0
 11
165.0872261329396
 21
439.1163419650373
 31
0.0
  0
ARC
  5
193C
330
1E
100
AcDbEntity
  8
STEMPEL
100
AcDbCircle
 10
283.6542261329395
 20
436.6163419650373
 30
0.0
 40
0.5
100
AcDbArc
 50
90.0
 51
180.0
  0
LINE
  5
193D
330
1E
100
AcDbEntity
  8
STEMPEL
100
AcDbLine
 10
283.1542261329395
 20
435.6163419650373
 30
0.0
 11
283.1542261329395
 21
436.6163419650373
 31
0.0
  0
LINE
  5
193E
330
1E
100
AcDbEntity
  8
STEMPEL
100
AcDbLine
 10
275.6542261329395
 20
435.6163419650373
 30
0.0
 11
283.1542261329395
 21
435.6163419650373
 31
0.0
  0
LINE
  5
193F
330
1E
100
AcDbEntity
  8
STEMPEL
100
AcDbLine
 10
275.6542261329395
 20
436.6163419650373
 30
0.0
 11
275.6542261329395
 21
435.6163419650373
 31
0.0
  0
ARC
  5
1940
330
1E
100
AcDbEntity
  8
STEMPEL
100
AcDbCircle
 10
275.1542261329395
 20
436.6163419650373
 30
0.0
 40
0.5
100
AcDbArc
 50
0.0
 51
90.0
  0
LINE
  5
1941
330
1E
100
AcDbEntity
  8
STEMPEL
100
AcDbLine
 10
284.7252261329396
 20
437.1163419650373
 30
0.0
 11
284.7252261329396
 21
439.1163419650373
 31
0.0
  0
ARC
  5
1942
330
1E
100
AcDbEntity
  8
STEMPEL
100
AcDbCircle
 10
208.4062261329395
 20
395.0093419650374
 30
0.0
 40
2.0
100
AcDbArc
 50
0.0
 51
70.11056349700004
  0
LINE
  5
1943
330
1E
100
AcDbEntity
  8
STEMPEL
100
AcDbLine
 10
210.4062261329395
 20
383.1163419650374
 30
0.0
 11
210.4062261329395
 21
395.0093419650374
 31
0.0
  0
ARC
  5
1944
330
1E
100
AcDbEntity
  8
STEMPEL
100
AcDbCircle
 10
214.4062261329395
 20
383.1163419650374
 30
0.0
 40
4.0
100
AcDbArc
 50
180.0
 51
270.0
  0
LINE
  5
1945
330
1E
100
AcDbEntity
  8
STEMPEL
100
AcDbLine
 10
235.4062261329395
 20
379.1163419650374
 30
0.0
 11
214.4062261329395
 21
379.1163419650374
 31
0.0
  0
ARC
  5
1946
330
1E
100
AcDbEntity
  8
STEMPEL
100
AcDbCircle
 10
235.4062261329395
 20
383.1163419650374
 30
0.0
 40
4.0
100
AcDbArc
 50
270.0
 51
0.0
  0
LINE
  5
1947
330
1E
100
AcDbEntity
  8
STEMPEL
100
AcDbLine
 10
239.4062261329395
 20
395.0093419650374
 30
0.0
 11
239.4062261329395
 21
383.1163419650374
 31
0.0
  0
ARC
  5
1948
330
1E
100
AcDbEntity
  8
STEMPEL
100
AcDbCircle
 10
241.4062261329395
 20
395.0093419650374
 30
0.0
 40
2.0
100
AcDbArc
 50
109.889436503
 51
180.0
  0
ARC
  5
1949
330
1E
100
AcDbEntity
  8
STEMPEL
100
AcDbCircle
 10
224.9062261329395
 20
440.6163419650373
 30
0.0
 40
46.5
100
AcDbArc
 50
289.8894365029999
 51
353.4885330020004
  0
ARC
  5
194A
330
1E
100
AcDbEntity
  8
STEMPEL
100
AcDbCircle
 10
273.0932261329396
 20
435.1163419650373
 30
0.0
 40
2.0
100
AcDbArc
 50
90.0
 51
173.4885330020004
  0
LINE
  5
194B
330
1E
100
AcDbEntity
  8
STEMPEL
100
AcDbLine
 10
287.4042261329395
 20
437.1163419650373
 30
0.0
 11
273.0932261329396
 21
437.1163419650373
 31
0.0
  0
LINE
  5
194C
330
1E
100
AcDbEntity
  8
STEMPEL
100
AcDbLine
 10
287.4042261329395
 20
439.1163419650373
 30
0.0
 11
287.4042261329395
 21
437.1163419650373
 31
0.0
  0
LINE
  5
194D
330
1E
100
AcDbEntity
  8
STEMPEL
100
AcDbLine
 10
273.0932261329396
 20
439.1163419650373
 30
0.0
 11
287.4042261329395
 21
439.1163419650373
 31
0.0
  0
ARC
  5
194E
330
1E
100
AcDbEntity
  8
STEMPEL
100
AcDbCircle
 10
273.0932261329396
 20
435.1163419650373
 30
0.0
 40
4.0
100
AcDbArc
 50
90.0
 51
173.4885330020004
  0
ARC
  5
194F
330
1E
100
AcDbEntity
  8
STEMPEL
100
AcDbCircle
 10
224.9062261329395
 20
440.6163419650373
 30
0.0
 40
44.5
100
AcDbArc
 50
289.8894365029999
 51
353.4885330020004
  0
ARC
  5
1950
330
1E
100
AcDbEntity
  8
STEMPEL
100
AcDbCircle
 10
241.4062261329395
 20
395.0093419650374
 30
0.0
 40
4.0
100
AcDbArc
 50
109.889436503
 51
180.0
  0
LINE
  5
1951
330
1E
100
AcDbEntity
  8
STEMPEL
100
AcDbLine
 10
237.4062261329395
 20
383.1163419650374
 30
0.0
 11
237.4062261329395
 21
395.0093419650374
 31
0.0
  0
ARC
  5
1952
330
1E
100
AcDbEntity
  8
STEMPEL
100
AcDbCircle
 10
235.4062261329395
 20
383.1163419650374
 30
0.0
 40
2.0
100
AcDbArc
 50
270.0
 51
0.0
  0
LINE
  5
1953
330
1E
100
AcDbEntity
  8
STEMPEL
100
AcDbLine
 10
214.4062261329395
 20
381.1163419650373
 30
0.0
 11
235.4062261329395
 21
381.1163419650373
 31
0.0
  0
ARC
  5
1954
330
1E
100
AcDbEntity
  8
STEMPEL
100
AcDbCircle
 10
214.4062261329395
 20
383.1163419650374
 30
0.0
 40
2.0
100
AcDbArc
 50
180.0
 51
270.0
  0
LINE
  5
1955
330
1E
100
AcDbEntity
  8
STEMPEL
100
AcDbLine
 10
212.4062261329395
 20
395.0093419650374
 30
0.0
 11
212.4062261329395
 21
383.1163419650374
 31
0.0
  0
ARC
  5
1956
330
1E
100
AcDbEntity
  8
STEMPEL
100
AcDbCircle
 10
208.4062261329395
 20
395.0093419650374
 30
0.0
 40
4.0
100
AcDbArc
 50
0.0
 51
70.11056349700004
  0
ARC
  5
1957
330
1E
100
AcDbEntity
  8
STEMPEL
100
AcDbCircle
 10
224.9062261329395
 20
440.6163419650373
 30
0.0
 40
44.5
100
AcDbArc
 50
186.5114669979995
 51
250.110563497
  0
ARC
  5
1958
330
1E
100
AcDbEntity
  8
STEMPEL
100
AcDbCircle
 10
176.7192261329395
 20
435.1163419650373
 30
0.0
 40
4.0
100
AcDbArc
 50
6.511466997999566
 51
90.0
  0
LINE
  5
1959
330
1E
100
AcDbEntity
  8
STEMPEL
100
AcDbLine
 10
162.4082261329395
 20
439.1163419650373
 30
0.0
 11
176.7192261329395
 21
439.1163419650373
 31
0.0
  0
LINE
  5
195A
330
1E
100
AcDbEntity
  8
STEMPEL
100
AcDbLine
 10
162.4082261329395
 20
437.1163419650373
 30
0.0
 11
162.4082261329395
 21
439.1163419650373
 31
0.0
  0
LINE
  5
195B
330
1E
100
AcDbEntity
  8
STEMPEL
100
AcDbLine
 10
176.7192261329395
 20
437.1163419650373
 30
0.0
 11
162.4082261329395
 21
437.1163419650373
 31
0.0
  0
ARC
  5
195C
330
1E
100
AcDbEntity
  8
STEMPEL
100
AcDbCircle
 10
176.7192261329395
 20
435.1163419650373
 30
0.0
 40
2.0
100
AcDbArc
 50
6.511466997999566
 51
90.0
  0
ARC
  5
195D
330
1E
100
AcDbEntity
  8
STEMPEL
100
AcDbCircle
 10
224.9062261329395
 20
440.6163419650373
 30
0.0
 40
46.5
100
AcDbArc
 50
186.5114669979995
 51
250.110563497
  0
LINE
  5
195E
330
1E
100
AcDbEntity
  8
MITTEL
100
AcDbLine
 10
170.4082261329395
 20
423.1163419650373
 30
0.0
 11
170.4082261329396
 21
452.9163419650373
 31
0.0
  0
LINE
  5
195F
330
1E
100
AcDbEntity
  8
MITTEL
100
AcDbLine
 10
279.4042261329395
 20
452.9163419650373
 30
0.0
 11
279.4042261329395
 21
423.1163419650374
 31
0.0
  0
LINE
  5
1960
330
1E
100
AcDbEntity
  8
MITTEL
100
AcDbLine
 10
157.4082261329395
 20
440.6163419650374
 30
0.0
 11
292.4042261329395
 21
440.6163419650373
 31
0.0
  0
LINE
  5
1961
330
1E
100
AcDbEntity
  8
MITTEL
100
AcDbLine
 10
224.9062261329395
 20
224.1163419650373
 30
0.0
 11
224.9062261329395
 21
493.1163419650373
 31
0.0
  0
LINE
  5
1962
330
1E
100
AcDbEntity
  8
HILF
100
AcDbLine
 10
178.5382261329396
 20
187.8949925924461
 30
0.0
 11
271.2742261329395
 21
187.8949925924461
 31
0.0
  0
LINE
  5
1963
330
1E
100
AcDbEntity
  8
HILF
100
AcDbLine
 10
178.5382261329396
 20
197.8949925924461
 30
0.0
 11
271.2742261329395
 21
197.8949925924461
 31
0.0
  0
CIRCLE
  5
1964
330
1E
100
AcDbEntity
  8
STEMPEL
100
AcDbCircle
 10
279.4042261329395
 20
192.8949925924461
 30
0.0
 40
5.0
  0
LINE
  5
1965
330
1E
100
AcDbEntity
  8
HILF
100
AcDbLine
 10
280.1542261329394
 20
189.8269925924461
 30
0.0
 11
278.6542261329395
 21
189.8269925924461
 31
0.0
  0
LINE
  5
1966
330
1E
100
AcDbEntity
  8
HILF
100
AcDbLine
 10
280.1542261329394
 20
195.963992592446
 30
0.0
 11
278.6542261329395
 21
195.963992592446
 31
0.0
  0
LINE
  5
1967
330
1E
100
AcDbEntity
  8
HILF
100
AcDbLine
 10
277.3572261329396
 20
190.848992592446
 30
0.0
 11
278.4142261329396
 21
192.1449925924461
 31
0.0
  0
LINE
  5
1968
330
1E
100
AcDbEntity
  8
HILF
100
AcDbLine
 10
278.6542261329395
 20
191.9049925924461
 30
0.0
 11
277.3572261329396
 21
190.848992592446
 31
0.0
  0
LINE
  5
1969
330
1E
100
AcDbEntity
  8
HILF
100
AcDbLine
 10
281.4512261329395
 20
190.848992592446
 30
0.0
 11
280.1542261329394
 21
191.9049925924461
 31
0.0
  0
LINE
  5
196A
330
1E
100
AcDbEntity
  8
HILF
100
AcDbLine
 10
280.3942261329395
 20
192.1449925924461
 30
0.0
 11
281.4512261329395
 21
190.848992592446
 31
0.0
  0
LINE
  5
196B
330
1E
100
AcDbEntity
  8
HILF
100
AcDbLine
 10
281.4512261329395
 20
194.941992592446
 30
0.0
 11
280.3942261329395
 21
193.6449925924461
 31
0.0
  0
LINE
  5
196C
330
1E
100
AcDbEntity
  8
HILF
100
AcDbLine
 10
280.1542261329394
 20
193.8849925924461
 30
0.0
 11
281.4512261329395
 21
194.941992592446
 31
0.0
  0
LINE
  5
196D
330
1E
100
AcDbEntity
  8
HILF
100
AcDbLine
 10
277.3572261329396
 20
194.941992592446
 30
0.0
 11
278.6542261329395
 21
193.8849925924461
 31
0.0
  0
LINE
  5
196E
330
1E
100
AcDbEntity
  8
HILF
100
AcDbLine
 10
278.4142261329396
 20
193.6449925924461
 30
0.0
 11
277.3572261329396
 21
194.941992592446
 31
0.0
  0
ARC
  5
196F
330
1E
100
AcDbEntity
  8
HILF
100
AcDbCircle
 10
279.4042261329395
 20
192.8949925924461
 30
0.0
 40
1.274999999999999
100
AcDbArc
 50
143.96879496
 51
216.03120504
  0
ARC
  5
1970
330
1E
100
AcDbEntity
  8
HILF
100
AcDbCircle
 10
279.4042261329395
 20
192.8949925924461
 30
0.0
 40
1.274999999999999
100
AcDbArc
 50
233.9687889640004
 51
306.0312110359996
  0
ARC
  5
1971
330
1E
100
AcDbEntity
  8
HILF
100
AcDbCircle
 10
279.4042261329395
 20
192.8949925924461
 30
0.0
 40
1.274999999999999
100
AcDbArc
 50
323.9688056879998
 51
36.03120504000001
  0
ARC
  5
1972
330
1E
100
AcDbEntity
  8
HILF
100
AcDbCircle
 10
279.4042261329395
 20
192.8949925924461
 30
0.0
 40
1.274999999999999
100
AcDbArc
 50
53.96878896400039
 51
126.0312110359996
  0
LINE
  5
1973
330
1E
100
AcDbEntity
  8
STEMPEL
100
AcDbLine
 10
278.6542261329395
 20
193.8449925924461
 30
0.0
 11
278.6542261329395
 21
197.838992592446
 31
0.0
  0
ARC
  5
1974
330
1E
100
AcDbEntity
  8
STEMPEL
100
AcDbCircle
 10
278.4542261329395
 20
193.8449925924461
 30
0.0
 40
0.2
100
AcDbArc
 50
270.0
 51
0.0087434429995984
  0
LINE
  5
1975
330
1E
100
AcDbEntity
  8
STEMPEL
100
AcDbLine
 10
276.0542261329395
 20
193.6449925924461
 30
0.0
 11
278.4542261329395
 21
193.6449925924461
 31
0.0
  0
LINE
  5
1976
330
1E
100
AcDbEntity
  8
STEMPEL
100
AcDbLine
 10
276.0542261329395
 20
192.1449925924461
 30
0.0
 11
276.0542261329395
 21
193.6449925924461
 31
0.0
  0
LINE
  5
1977
330
1E
100
AcDbEntity
  8
STEMPEL
100
AcDbLine
 10
278.4542261329395
 20
192.1449925924461
 30
0.0
 11
276.0542261329395
 21
192.1449925924461
 31
0.0
  0
ARC
  5
1978
330
1E
100
AcDbEntity
  8
STEMPEL
100
AcDbCircle
 10
278.4542261329395
 20
191.944992592446
 30
0.0
 40
0.2
100
AcDbArc
 50
0.0
 51
90.0
  0
LINE
  5
1979
330
1E
100
AcDbEntity
  8
STEMPEL
100
AcDbLine
 10
278.6542261329395
 20
187.9519925924461
 30
0.0
 11
278.6542261329395
 21
191.944992592446
 31
0.0
  0
LINE
  5
197A
330
1E
100
AcDbEntity
  8
STEMPEL
100
AcDbLine
 10
280.1542261329394
 20
191.944992592446
 30
0.0
 11
280.1542261329394
 21
187.9519925924461
 31
0.0
  0
ARC
  5
197B
330
1E
100
AcDbEntity
  8
STEMPEL
100
AcDbCircle
 10
280.3542261329395
 20
191.944992592446
 30
0.0
 40
0.2
100
AcDbArc
 50
90.0
 51
180.0
  0
LINE
  5
197C
330
1E
100
AcDbEntity
  8
STEMPEL
100
AcDbLine
 10
282.7542261329396
 20
192.1449925924461
 30
0.0
 11
280.3542261329395
 21
192.1449925924461
 31
0.0
  0
LINE
  5
197D
330
1E
100
AcDbEntity
  8
STEMPEL
100
AcDbLine
 10
282.7542261329396
 20
193.6449925924461
 30
0.0
 11
282.7542261329396
 21
192.1449925924461
 31
0.0
  0
LINE
  5
197E
330
1E
100
AcDbEntity
  8
STEMPEL
100
AcDbLine
 10
280.3542261329395
 20
193.6449925924461
 30
0.0
 11
282.7542261329396
 21
193.6449925924461
 31
0.0
  0
ARC
  5
197F
330
1E
100
AcDbEntity
  8
STEMPEL
100
AcDbCircle
 10
280.3542261329395
 20
193.8449925924461
 30
0.0
 40
0.2
100
AcDbArc
 50
180.0
 51
270.0087434430012
  0
LINE
  5
1980
330
1E
100
AcDbEntity
  8
STEMPEL
100
AcDbLine
 10
280.1542261329394
 20
197.838992592446
 30
0.0
 11
280.1542261329394
 21
193.8449925924461
 31
0.0
  0
CIRCLE
  5
1981
330
1E
100
AcDbEntity
  8
STEMPEL
100
AcDbCircle
 10
170.4082261329395
 20
192.8949925924461
 30
0.0
 40
5.0
  0
LINE
  5
1982
330
1E
100
AcDbEntity
  8
HILF
100
AcDbLine
 10
171.1582261329395
 20
189.8269925924461
 30
0.0
 11
169.6582261329395
 21
189.8269925924461
 31
0.0
  0
LINE
  5
1983
330
1E
100
AcDbEntity
  8
HILF
100
AcDbLine
 10
171.1582261329395
 20
195.963992592446
 30
0.0
 11
169.6582261329395
 21
195.963992592446
 31
0.0
  0
LINE
  5
1984
330
1E
100
AcDbEntity
  8
HILF
100
AcDbLine
 10
168.3612261329396
 20
190.848992592446
 30
0.0
 11
169.4182261329395
 21
192.1449925924461
 31
0.0
  0
LINE
  5
1985
330
1E
100
AcDbEntity
  8
HILF
100
AcDbLine
 10
169.6582261329395
 20
191.9049925924461
 30
0.0
 11
168.3612261329396
 21
190.848992592446
 31
0.0
  0
LINE
  5
1986
330
1E
100
AcDbEntity
  8
HILF
100
AcDbLine
 10
172.4542261329395
 20
190.848992592446
 30
0.0
 11
171.1582261329395
 21
191.9049925924461
 31
0.0
  0
LINE
  5
1987
330
1E
100
AcDbEntity
  8
HILF
100
AcDbLine
 10
171.3982261329395
 20
192.1449925924461
 30
0.0
 11
172.4542261329395
 21
190.848992592446
 31
0.0
  0
LINE
  5
1988
330
1E
100
AcDbEntity
  8
HILF
100
AcDbLine
 10
172.4542261329395
 20
194.941992592446
 30
0.0
 11
171.3982261329395
 21
193.6449925924461
 31
0.0
  0
LINE
  5
1989
330
1E
100
AcDbEntity
  8
HILF
100
AcDbLine
 10
171.1582261329395
 20
193.8849925924461
 30
0.0
 11
172.4542261329395
 21
194.941992592446
 31
0.0
  0
LINE
  5
198A
330
1E
100
AcDbEntity
  8
HILF
100
AcDbLine
 10
168.3612261329396
 20
194.941992592446
 30
0.0
 11
169.6582261329395
 21
193.8849925924461
 31
0.0
  0
LINE
  5
198B
330
1E
100
AcDbEntity
  8
HILF
100
AcDbLine
 10
169.4182261329395
 20
193.6449925924461
 30
0.0
 11
168.3612261329396
 21
194.941992592446
 31
0.0
  0
ARC
  5
198C
330
1E
100
AcDbEntity
  8
HILF
100
AcDbCircle
 10
170.4082261329395
 20
192.8949925924461
 30
0.0
 40
1.274999999999999
100
AcDbArc
 50
143.96879496
 51
216.03120504
  0
ARC
  5
198D
330
1E
100
AcDbEntity
  8
HILF
100
AcDbCircle
 10
170.4082261329395
 20
192.8949925924461
 30
0.0
 40
1.274999999999999
100
AcDbArc
 50
233.9687889640004
 51
306.0312110359996
  0
ARC
  5
198E
330
1E
100
AcDbEntity
  8
HILF
100
AcDbCircle
 10
170.4082261329395
 20
192.8949925924461
 30
0.0
 40
1.274999999999999
100
AcDbArc
 50
323.9688056879998
 51
36.03120504000001
  0
ARC
  5
198F
330
1E
100
AcDbEntity
  8
HILF
100
AcDbCircle
 10
170.4082261329395
 20
192.8949925924461
 30
0.0
 40
1.274999999999999
100
AcDbArc
 50
53.96878896400039
 51
126.0312110359996
  0
LINE
  5
1990
330
1E
100
AcDbEntity
  8
STEMPEL
100
AcDbLine
 10
169.6582261329395
 20
193.8449925924461
 30
0.0
 11
169.6582261329395
 21
197.838992592446
 31
0.0
  0
ARC
  5
1991
330
1E
100
AcDbEntity
  8
STEMPEL
100
AcDbCircle
 10
169.4582261329395
 20
193.8449925924461
 30
0.0
 40
0.2
100
AcDbArc
 50
270.0
 51
0.0087434429995984
  0
LINE
  5
1992
330
1E
100
AcDbEntity
  8
STEMPEL
100
AcDbLine
 10
167.0582261329396
 20
193.6449925924461
 30
0.0
 11
169.4582261329395
 21
193.6449925924461
 31
0.0
  0
LINE
  5
1993
330
1E
100
AcDbEntity
  8
STEMPEL
100
AcDbLine
 10
167.0582261329396
 20
192.1449925924461
 30
0.0
 11
167.0582261329396
 21
193.6449925924461
 31
0.0
  0
LINE
  5
1994
330
1E
100
AcDbEntity
  8
STEMPEL
100
AcDbLine
 10
169.4582261329395
 20
192.1449925924461
 30
0.0
 11
167.0582261329396
 21
192.1449925924461
 31
0.0
  0
ARC
  5
1995
330
1E
100
AcDbEntity
  8
STEMPEL
100
AcDbCircle
 10
169.4582261329395
 20
191.944992592446
 30
0.0
 40
0.2
100
AcDbArc
 50
0.0
 51
90.0
  0
LINE
  5
1996
330
1E
100
AcDbEntity
  8
STEMPEL
100
AcDbLine
 10
169.6582261329395
 20
187.9519925924461
 30
0.0
 11
169.6582261329395
 21
191.944992592446
 31
0.0
  0
LINE
  5
1997
330
1E
100
AcDbEntity
  8
STEMPEL
100
AcDbLine
 10
171.1582261329395
 20
191.944992592446
 30
0.0
 11
171.1582261329395
 21
187.9519925924461
 31
0.0
  0
ARC
  5
1998
330
1E
100
AcDbEntity
  8
STEMPEL
100
AcDbCircle
 10
171.3582261329395
 20
191.944992592446
 30
0.0
 40
0.2
100
AcDbArc
 50
90.0
 51
180.0
  0
LINE
  5
1999
330
1E
100
AcDbEntity
  8
STEMPEL
100
AcDbLine
 10
173.7582261329395
 20
192.1449925924461
 30
0.0
 11
171.3582261329395
 21
192.1449925924461
 31
0.0
  0
LINE
  5
199A
330
1E
100
AcDbEntity
  8
STEMPEL
100
AcDbLine
 10
173.7582261329395
 20
193.6449925924461
 30
0.0
 11
173.7582261329395
 21
192.1449925924461
 31
0.0
  0
LINE
  5
199B
330
1E
100
AcDbEntity
  8
STEMPEL
100
AcDbLine
 10
171.3582261329395
 20
193.6449925924461
 30
0.0
 11
173.7582261329395
 21
193.6449925924461
 31
0.0
  0
ARC
  5
199C
330
1E
100
AcDbEntity
  8
STEMPEL
100
AcDbCircle
 10
171.3582261329395
 20
193.8449925924461
 30
0.0
 40
0.2
100
AcDbArc
 50
180.0
 51
270.0087434430012
  0
LINE
  5
199D
330
1E
100
AcDbEntity
  8
STEMPEL
100
AcDbLine
 10
171.1582261329395
 20
197.838992592446
 30
0.0
 11
171.1582261329395
 21
193.8449925924461
 31
0.0
  0
ARC
  5
199E
330
1E
100
AcDbEntity
  8
STEMPEL
100
AcDbCircle
 10
262.4042261329395
 20
192.8949925924461
 30
0.0
 40
25.0
100
AcDbArc
 50
329.9999596190001
 51
29.99995961900127
  0
ARC
  5
199F
330
1E
100
AcDbEntity
  8
STEMPEL
100
AcDbCircle
 10
187.4082261329396
 20
192.8949925924461
 30
0.0
 40
25.0
100
AcDbArc
 50
150.0000403810001
 51
210.000040381
  0
LINE
  5
19A0
330
1E
100
AcDbEntity
  8
STEMPEL
100
AcDbLine
 10
281.9102261329395
 20
185.5779925924461
 30
0.0
 11
283.3562261329396
 21
185.3749925924461
 31
0.0
  0
LINE
  5
19A1
330
1E
100
AcDbEntity
  8
HILF
100
AcDbLine
 10
178.5382261329396
 20
205.3949925924461
 30
0.0
 11
178.5382261329396
 21
180.3949925924461
 31
0.0
  0
LINE
  5
19A2
330
1E
100
AcDbEntity
  8
HILF
100
AcDbLine
 10
271.2742261329395
 20
205.3949925924461
 30
0.0
 11
271.2742261329395
 21
180.3949925924461
 31
0.0
  0
LINE
  5
19A3
330
1E
100
AcDbEntity
  8
MITTEL
100
AcDbLine
 10
224.9062261329397
 20
210.3949925924461
 30
0.0
 11
224.9062261329394
 21
175.3949925924461
 31
0.0
  0
LINE
  5
19A4
330
1E
100
AcDbEntity
  8
MITTEL
100
AcDbLine
 10
170.4082261329395
 20
202.8949925924461
 30
0.0
 11
170.4082261329395
 21
182.8949925924461
 31
0.0
  0
LINE
  5
19A5
330
1E
100
AcDbEntity
  8
MITTEL
100
AcDbLine
 10
157.4082261329395
 20
192.8949925924461
 30
0.0
 11
292.4042261329395
 21
192.8949925924461
 31
0.0
  0
LINE
  5
19A6
330
1E
100
AcDbEntity
  8
MITTEL
100
AcDbLine
 10
279.4042261329395
 20
182.8949925924461
 30
0.0
 11
279.4042261329395
 21
202.8949925924461
 31
0.0
  0
LINE
  5
19A7
330
1E
100
AcDbEntity
  8
STEMPEL
100
AcDbLine
 10
283.3562261329396
 20
185.3749925924461
 30
0.0
 11
282.6562261329396
 21
180.3949925924461
 31
0.0
  0
LINE
  5
19A8
330
1E
100
AcDbEntity
  8
STEMPEL
100
AcDbLine
 10
281.1822261329395
 20
180.3949925924461
 30
0.0
 11
284.0552261329396
 21
180.3949925924461
 31
0.0
  0
LINE
  5
19A9
330
1E
100
AcDbEntity
  8
STEMPEL
100
AcDbLine
 10
282.3732261329395
 20
188.871992592446
 30
0.0
 11
281.1822261329395
 21
180.3949925924461
 31
0.0
  0
LINE
  5
19AA
330
1E
100
AcDbEntity
  8
STEMPEL
100
AcDbLine
 10
274.1132261329395
 20
180.3949925924461
 30
0.0
 11
275.4412261329395
 21
189.8459925924461
 31
0.0
  0
LINE
  5
19AB
330
1E
100
AcDbEntity
  8
STEMPEL
100
AcDbLine
 10
165.7572261329395
 20
180.3949925924461
 30
0.0
 11
281.1822261329395
 21
180.3949925924461
 31
0.0
  0
LINE
  5
19AC
330
1E
100
AcDbEntity
  8
STEMPEL
100
AcDbLine
 10
284.0552261329396
 20
205.3949925924461
 30
0.0
 11
165.7572261329395
 21
205.3949925924461
 31
0.0
  0
DIMENSION
  5
19B3
330
1E
100
AcDbEntity
  8
BEM
100
AcDbDimension
  2
*D1
 10
279.4042261329395
 20
158.3050339079975
 30
0.0
 11
224.9062261329395
 21
164.8050339079975
 31
0.0
 70
    32
 71
     5
 42
108.9959999999999
  3
Standard
100
AcDbAlignedDimension
 13
170.4082261329395
 23
182.8949925924461
 33
0.0
 14
279.4042261329395
 24
182.8949925924461
 34
0.0
100
AcDbRotatedDimension
1001
ACAD
1000
DSTYLE
1002
{
1070
    40
1040
2.0
1070
    41
1040
3.5
1070
    42
1040
1.0
1070
    43
1040
7.0
1070
    44
1040
1.0
1070
    73
1070
     0
1070
    74
1070
     0
1070
    77
1070
     1
1070
    78
1070
     8
1070
    79
1070
     2
1070
   140
1040
3.5
1070
   141
1040
1.5
1070
   146
1040
0.5
1070
   147
1040
1.5
1070
   172
1070
     1
1070
   178
1070
     1
1070
   179
1070
     2
1070
   271
1070
     2
1070
   272
1070
     2
1070
   284
1070
     8
1070
   285
1070
     8
1070
   286
1070
     8
1002
}
  0
DIMENSION
  5
19C0
330
1E
100
AcDbEntity
  8
BEM
100
AcDbDimension
  2
*D2
 10
287.4042261329395
 20
144.2699318078673
 30
0.0
 11
224.9062261329395
 21
150.7699318078673
 31
0.0
 70
    32
 71
     5
 42
124.9959999999998
  3
Standard
100
AcDbAlignedDimension
 13
162.4082261329396
 23
192.8949925924461
 33
0.0
 14
287.4042261329395
 24
192.8949925924461
 34
0.0
100
AcDbRotatedDimension
1001
ACAD
1000
DSTYLE
1002
{
1070
    40
1040
2.0
1070
    41
1040
3.5
1070
    42
1040
1.0
1070
    43
1040
7.0
1070
    44
1040
1.0
1070
    73
1070
     0
1070
    74
1070
     0
1070
    77
1070
     1
1070
    78
1070
     8
1070
    79
1070
     2
1070
   140
1040
3.5
1070
   141
1040
1.5
1070
   146
1040
0.5
1070
   147
1040
1.5
1070
   172
1070
     1
1070
   178
1070
     1
1070
   179
1070
     2
1070
   271
1070
     2
1070
   272
1070
     2
1070
   284
1070
     8
1070
   285
1070
     8
1070
   286
1070
     8
1002
}
  0
LWPOLYLINE
  5
19F9
330
1E
100
AcDbEntity
  8
BEM
 62
     1
100
AcDbPolyline
 90
        4
 70
     1
 43
0.0
 10
191.3805586952942
 20
353.0583893449219
 10
191.3805586952942
 20
346.0583893449219
 10
198.3805586952942
 20
346.0583893449219
 10
198.3805586952942
 20
353.0583893449219
  0
DIMENSION
  5
19FA
330
1E
100
AcDbEntity
  8
BEM
100
AcDbDimension
  2
*D3
 10
221.9062261329395
 20
343.0898419650374
 30
0.0
 11
203.1728927996062
 21
343.0898419650374
 31
0.0
 70
   160
 71
     5
 42
6.0
  3
Standard
100
AcDbAlignedDimension
 13
227.9062261329396
 23
342.8520462032146
 33
0.0
 14
221.9062261329395
 24
342.8520462032146
 34
0.0
100
AcDbRotatedDimension
1001
ACAD
1000
DSTYLE
1002
{
1070
    40
1040
2.0
1070
    41
1040
3.5
1070
    42
1040
1.0
1070
    43
1040
7.0
1070
    44
1040
1.0
1070
    73
1070
     0
1070
    74
1070
     0
1070
    77
1070
     1
1070
    78
1070
     8
1070
    79
1070
     2
1070
   140
1040
3.5
1070
   141
1040
1.5
1070
   146
1040
0.5
1070
   147
1040
1.5
1070
   172
1070
     1
1070
   178
1070
     1
1070
   179
1070
     2
1070
   271
1070
     2
1070
   272
1070
     2
1070
   284
1070
     8
1070
   285
1070
     8
1070
   286
1070
     8
1002
}
  0
DIMENSION
  5
1A24
330
1E
100
AcDbEntity
  8
BEM
100
AcDbDimension
  2
*D4
 10
151.9982640231169
 20
442.1163419650373
 30
0.0
 11
145.4982640231168
 21
460.9830086317041
 31
0.0
 70
    32
 71
     5
 42
3.0
  3
Standard
100
AcDbAlignedDimension
 13
162.4082261329395
 23
439.1163419650373
 33
0.0
 14
162.4082261329395
 24
442.1163419650373
 34
0.0
 50
90.0
100
AcDbRotatedDimension
1001
ACAD
1000
DSTYLE
1002
{
1070
    40
1040
2.0
1070
    41
1040
3.5
1070
    42
1040
1.0
1070
    43
1040
7.0
1070
    44
1040
1.0
1070
    73
1070
     0
1070
    74
1070
     0
1070
    77
1070
     1
1070
    78
1070
     8
1070
    79
1070
     2
1070
   140
1040
3.5
1070
   141
1040
1.5
1070
   146
1040
0.5
1070
   147
1040
1.5
1070
   172
1070
     1
1070
   178
1070
     1
1070
   179
1070
     2
1070
   271
1070
     2
1070
   272
1070
     2
1070
   284
1070
     8
1070
   285
1070
     8
1070
   286
1070
     8
1002
}
  0
DIMENSION
  5
1A33
330
1E
100
AcDbEntity
  8
BEM
100
AcDbDimension
  2
*D5
 10
151.9982640231168
 20
379.1163419650374
 30
0.0
 11
145.4982640231168
 21
304.1163419650374
 31
0.0
 70
    32
 71
     5
 42
150.0
  3
Standard
100
AcDbAlignedDimension
 13
224.9062261329395
 23
229.1163419650374
 33
0.0
 14
214.4062261329395
 24
379.1163419650374
 34
0.0
 50
90.0
100
AcDbRotatedDimension
1001
ACAD
1000
DSTYLE
1002
{
1070
    40
1040
2.0
1070
    41
1040
3.5
1070
    42
1040
1.0
1070
    43
1040
7.0
1070
    44
1040
1.0
1070
    73
1070
     0
1070
    74
1070
     0
1070
    77
1070
     1
1070
    78
1070
     8
1070
    79
1070
     2
1070
   140
1040
3.5
1070
   141
1040
1.5
1070
   146
1040
0.5
1070
   147
1040
1.5
1070
   172
1070
     1
1070
   178
1070
     1
1070
   179
1070
     2
1070
   271
1070
     2
1070
   272
1070
     2
1070
   284
1070
     8
1070
   285
1070
     8
1070
   286
1070
     8
1002
}
  0
DIMENSION
  5
1A40
330
1E
100
AcDbEntity
  8
BEM
100
AcDbDimension
  2
*D6
 10
135.1860823137094
 20
229.1163419650374
 30
0.0
 11
128.6860823137094
 21
358.6163419650374
 31
0.0
 70
    32
 71
     5
 42
259.0
  3
Standard
100
AcDbAlignedDimension
 13
224.9062261329395
 23
488.1163419650373
 33
0.0
 14
224.9062261329395
 24
229.1163419650374
 34
0.0
 50
90.0
100
AcDbRotatedDimension
1001
ACAD
1000
DSTYLE
1002
{
1070
    40
1040
2.0
1070
    41
1040
3.5
1070
    42
1040
1.0
1070
    43
1040
7.0
1070
    44
1040
1.0
1070
    73
1070
     0
1070
    74
1070
     0
1070
    77
1070
     1
1070
    78
1070
     8
1070
    79
1070
     2
1070
   140
1040
3.5
1070
   141
1040
1.5
1070
   146
1040
0.5
1070
   147
1040
1.5
1070
   172
1070
     1
1070
   178
1070
     1
1070
   179
1070
     2
1070
   271
1070
     2
1070
   272
1070
     2
1070
   284
1070
     8
1070
   285
1070
     8
1070
   286
1070
     8
1002
}
  0
DIMENSION
  5
1ACF
330
1E
100
AcDbEntity
  8
BEM
100
AcDbDimension
  2
*D7
 10
253.2511266550282
 20
474.9212623086014
 30
0.0
 11
237.5241317318102
 21
455.887389165932
 31
0.0
 70
   161
 71
     5
 42
88.99999999998795
  3
Standard
100
AcDbAlignedDimension
 13
196.6420954436778
 23
406.24500351766
 33
0.0
 14
253.331744021294
 24
474.8546511201963
 34
0.0
1001
ACAD
1000
DSTYLE
1002
{
1070
    40
1040
2.0
1070
    41
1040
3.5
1070
    42
1040
1.0
1070
    43
1040
7.0
1070
    44
1040
1.0
1070
    73
1070
     0
1070
    74
1070
     0
1070
    77
1070
     1
1070
    78
1070
     8
1070
    79
1070
     2
1070
   140
1040
3.5
1070
   141
1040
1.5
1070
   146
1040
0.5
1070
   147
1040
1.5
1070
   172
1070
     1
1070
   178
1070
     1
1070
   179
1070
     2
1070
   271
1070
     2
1070
   272
1070
     2
1070
   284
1070
     8
1070
   285
1070
     8
1070
   286
1070
     8
1002
}
  0
TEXT
  5
1B5C
330
1E
100
AcDbEntity
  8
TEXT
 62
     1
100
AcDbText
 10
227.8365522679116
 20
115.6405708316599
 30
0.0
 40
7.0
  1
Werkstoff: St37 Dickschichtpassiviert
 41
0.8
  7
GREEKS
100
AcDbText
  0
ENDSEC
  0
SECTION
  2
OBJECTS
  0
DICTIONARY
  5
C
330
0
100
AcDbDictionary
281
     1
  3
ACAD_COLOR
350
DF
  3
ACAD_GROUP
350
D
  3
ACAD_LAYOUT
350
19
  3
ACAD_MATERIAL
350
DE
  3
ACAD_MLINESTYLE
350
16
  3
ACAD_PLOTSETTINGS
350
18
  3
ACAD_PLOTSTYLENAME
350
E
  3
AcDbVariableDictionary
350
EA
  0
DICTIONARY
  5
A0
330
1E
100
AcDbDictionary
280
     1
281
     1
  3
ACAD_LAYOUTSELFREF
360
D4
  0
DICTIONARY
  5
A2
330
1A
100
AcDbDictionary
280
     1
281
     1
  3
ACAD_LAYOUTSELFREF
360
D3
  0
DICTIONARY
  5
DF
102
{ACAD_REACTORS
330
C
102
}
330
C
100
AcDbDictionary
281
     1
  0
DICTIONARY
  5
D
102
{ACAD_REACTORS
330
C
102
}
330
C
100
AcDbDictionary
281
     1
  0
DICTIONARY
  5
19
102
{ACAD_REACTORS
330
C
102
}
330
C
100
AcDbDictionary
281
     1
  3
Layout1
350
1D
  3
Model
350
21
  0
DICTIONARY
  5
DE
102
{ACAD_REACTORS
330
C
102
}
330
C
100
AcDbDictionary
281
     1
  0
DICTIONARY
  5
16
102
{ACAD_REACTORS
330
C
102
}
330
C
100
AcDbDictionary
281
     1
  3
Standard
350
17
  0
DICTIONARY
  5
18
102
{ACAD_REACTORS
330
C
102
}
330
C
100
AcDbDictionary
281
     1
  0
ACDBDICTIONARYWDFLT
  5
E
102
{ACAD_REACTORS
330
C
102
}
330
C
100
AcDbDictionary
281
     1
  3
Normal
350
F
100
AcDbDictionaryWithDefault
340
F
  0
DICTIONARY
  5
EA
102
{ACAD_REACTORS
330
C
102
}
330
C
100
AcDbDictionary
281
     1
  3
DIMASSOC
350
EB
  3
PROJECTNAME
350
EC
  0
XRECORD
  5
D4
102
{ACAD_REACTORS
330
A0
102
}
330
A0
100
AcDbXrecord
280
     1
340
1E
  0
XRECORD
  5
D3
102
{ACAD_REACTORS
330
A2
102
}
330
A2
100
AcDbXrecord
280
     1
340
1A
  0
LAYOUT
  5
1D
102
{ACAD_REACTORS
330
19
102
}
330
19
100
AcDbPlotSettings
  1

  2
\\NT_WORK01\HP LaserJet 5000 PCL 6
  4

  6

 40
0.0
 41
0.0
 42
0.0
 43
0.0
 44
0.0
 45
0.0
 46
0.0
 47
0.0
 48
0.0
 49
0.0
140
0.0
141
0.0
142
1.0
143
1.0
 70
   688
 72
     0
 73
     0
 74
     5
  7

 75
    16
147
1.0
 76
     0
 77
     2
 78
   300
148
0.0
149
0.0
100
AcDbLayout
  1
Layout1
 70
     0
 71
     1
 10
0.0
 20
0.0
 11
12.0
 21
9.0
 12
0.0
 22
0.0
 32
0.0
 14
1.000000000000000E+20
 24
1.000000000000000E+20
 34
1.000000000000000E+20
 15
-1.000000000000000E+20
 25
-1.000000000000000E+20
 35
-1.000000000000000E+20
146
0.0
 13
0.0
 23
0.0
 33
0.0
 16
1.0
 26
0.0
 36
0.0
 17
0.0
 27
1.0
 37
0.0
 76
     0
330
1A
  0
LAYOUT
  5
21
102
{ACAD_REACTORS
330
19
102
}
330
19
100
AcDbPlotSettings
  1

  2
none_device
  4
Letter_(8.50_x_11.00_Inches)
  6

 40
6.349999904632568
 41
6.349999904632568
 42
6.350006103515625
 43
6.350006103515625
 44
215.8999938964844
 45
279.3999938964844
 46
0.0
 47
0.0
 48
0.0
 49
0.0
140
0.0
141
0.0
142
1.0
143
1.0
 70
 11952
 72
     0
 73
     1
 74
     0
  7

 75
     0
147
1.0
 76
     0
 77
     2
 78
   300
148
-230.4417396561563
149
47.00486644638983
100
AcDbLayout
  1
Model
 70
     1
 71
     0
 10
0.0
 20
0.0
 11
12.0
 21
9.0
 12
0.0
 22
0.0
 32
0.0
 14
0.0
 24
0.0
 34
0.0
 15
0.0
 25
0.0
 35
0.0
146
0.0
 13
0.0
 23
0.0
 33
0.0
 16
1.0
 26
0.0
 36
0.0
 17
0.0
 27
1.0
 37
0.0
 76
     0
330
1E
  0
MLINESTYLE
  5
17
102
{ACAD_REACTORS
330
16
102
}
330
16
100
AcDbMlineStyle
  2
STANDARD
 70
     0
  3

 62
   256
 51
90.0
 52
90.0
 71
     2
 49
0.5
 62
   256
  6
BYLAYER
 49
-0.5
 62
   256
  6
BYLAYER
  0
ACDBPLACEHOLDER
  5
F
102
{ACAD_REACTORS
330
E
102
}
330
E
  0
DICTIONARYVAR
  5
EB
102
{ACAD_REACTORS
330
EA
102
}
330
EA
100
DictionaryVariables
280
     0
  1
1
  0
DICTIONARYVAR
  5
EC
102
{ACAD_REACTORS
330
EA
102
}
330
EA
100
DictionaryVariables
280
     0
  1

  0
ENDSEC
  0
EOF
