  0
SECTION
  2
HEADER
  9
$ACADVER
  1
AC1018
  9
$ACADMAINTVER
 70
     2
  9
$DWGCODEPAGE
  3
ANSI_1252
  9
$INSBASE
 10
0.0
 20
0.0
 30
0.0
  9
$EXTMIN
 10
-0.0181447076911354
 20
-0.0128374922101102
 30
-0.0000000000000129
  9
$EXTMAX
 10
840.0149665956829
 20
594.000770569015
 30
0.0000000000000023
  9
$LIMMIN
 10
0.0
 20
0.0
  9
$LIMMAX
 10
840.0
 20
594.0
  9
$ORTHOMODE
 70
     1
  9
$REGENMODE
 70
     1
  9
$FILLMODE
 70
     1
  9
$QTEXTMODE
 70
     0
  9
$MIRRTEXT
 70
     1
  9
$LTSCALE
 40
20.0
  9
$ATTMODE
 70
     1
  9
$TEXTSIZE
 40
3.5
  9
$TRACEWID
 40
1.0
  9
$TEXTSTYLE
  7
STANDARD
  9
$CLAYER
  8
HILF
  9
$CELTYPE
  6
ByLayer
  9
$CECOLOR
 62
   256
  9
$CELTSCALE
 40
1.0
  9
$DISPSILH
 70
     0
  9
$DIMSCALE
 40
2.0
  9
$DIMASZ
 40
3.5
  9
$DIMEXO
 40
1.0
  9
$DIMDLI
 40
7.0
  9
$DIMRND
 40
0.0
  9
$DIMDLE
 40
0.0
  9
$DIMEXE
 40
1.0
  9
$DIMTP
 40
0.0
  9
$DIMTM
 40
0.0
  9
$DIMTXT
 40
3.5
  9
$DIMCEN
 40
1.5
  9
$DIMTSZ
 40
0.0
  9
$DIMTOL
 70
     0
  9
$DIMLIM
 70
     0
  9
$DIMTIH
 70
     0
  9
$DIMTOH
 70
     0
  9
$DIMSE1
 70
     0
  9
$DIMSE2
 70
     0
  9
$DIMTAD
 70
     1
  9
$DIMZIN
 70
     8
  9
$DIMBLK
  1

  9
$DIMASO
 70
     1
  9
$DIMSHO
 70
     0
  9
$DIMPOST
  1

  9
$DIMAPOST
  1

  9
$DIMALT
 70
     0
  9
$DIMALTD
 70
     2
  9
$DIMALTF
 40
25.4
  9
$DIMLFAC
 40
1.0
  9
$DIMTOFL
 70
     1
  9
$DIMTVP
 40
0.0
  9
$DIMTIX
 70
     0
  9
$DIMSOXD
 70
     0
  9
$DIMSAH
 70
     0
  9
$DIMBLK1
  1

  9
$DIMBLK2
  1

  9
$DIMSTYLE
  2
Standard
  9
$DIMCLRD
 70
     0
  9
$DIMCLRE
 70
     0
  9
$DIMCLRT
 70
     1
  9
$DIMTFAC
 40
0.5142857142857144
  9
$DIMGAP
 40
1.5
  9
$DIMJUST
 70
     0
  9
$DIMSD1
 70
     0
  9
$DIMSD2
 70
     0
  9
$DIMTOLJ
 70
     1
  9
$DIMTZIN
 70
     8
  9
$DIMALTZ
 70
     8
  9
$DIMALTTZ
 70
     8
  9
$DIMUPT
 70
     0
  9
$DIMDEC
 70
     2
  9
$DIMTDEC
 70
     2
  9
$DIMALTU
 70
     2
  9
$DIMALTTD
 70
     2
  9
$DIMTXSTY
  7
STANDARD
  9
$DIMAUNIT
 70
     0
  9
$DIMADEC
 70
     2
  9
$DIMALTRND
 40
0.0
  9
$DIMAZIN
 70
     2
  9
$DIMDSEP
 70
    46
  9
$DIMATFIT
 70
     3
  9
$DIMFRAC
 70
     0
  9
$DIMLDRBLK
  1

  9
$DIMLUNIT
 70
     2
  9
$DIMLWD
 70
    -2
  9
$DIMLWE
 70
    -2
  9
$DIMTMOVE
 70
     0
  9
$LUNITS
 70
     2
  9
$LUPREC
 70
     2
  9
$SKETCHINC
 40
1.0
  9
$FILLETRAD
 40
0.0
  9
$AUNITS
 70
     0
  9
$AUPREC
 70
     0
  9
$MENU
  1
ACAD
  9
$ELEVATION
 40
0.0
  9
$PELEVATION
 40
0.0
  9
$THICKNESS
 40
0.0
  9
$LIMCHECK
 70
     0
  9
$CHAMFERA
 40
0.0
  9
$CHAMFERB
 40
0.0
  9
$CHAMFERC
 40
0.0
  9
$CHAMFERD
 40
0.0
  9
$SKPOLY
 70
     0
  9
$TDCREATE
 40
2455397.867059838
  9
$TDUCREATE
 40
2455397.783726505
  9
$TDUPDATE
 40
2455455.598619468
  9
$TDUUPDATE
 40
2455455.515286134
  9
$TDINDWG
 40
0.0598868519
  9
$TDUSRTIMER
 40
0.0598868519
  9
$USRTIMER
 70
     1
  9
$ANGBASE
 50
0.0
  9
$ANGDIR
 70
     0
  9
$PDMODE
 70
     0
  9
$PDSIZE
 40
0.0
  9
$PLINEWID
 40
0.0
  9
$SPLFRAME
 70
     0
  9
$SPLINETYPE
 70
     6
  9
$SPLINESEGS
 70
     8
  9
$HANDSEED
  5
5EB
  9
$SURFTAB1
 70
     6
  9
$SURFTAB2
 70
     6
  9
$SURFTYPE
 70
     6
  9
$SURFU
 70
     6
  9
$SURFV
 70
     6
  9
$UCSBASE
  2

  9
$UCSNAME
  2

  9
$UCSORG
 10
0.0
 20
0.0
 30
0.0
  9
$UCSXDIR
 10
1.0
 20
0.0
 30
0.0
  9
$UCSYDIR
 10
0.0
 20
1.0
 30
0.0
  9
$UCSORTHOREF
  2

  9
$UCSORTHOVIEW
 70
     0
  9
$UCSORGTOP
 10
0.0
 20
0.0
 30
0.0
  9
$UCSORGBOTTOM
 10
0.0
 20
0.0
 30
0.0
  9
$UCSORGLEFT
 10
0.0
 20
0.0
 30
0.0
  9
$UCSORGRIGHT
 10
0.0
 20
0.0
 30
0.0
  9
$UCSORGFRONT
 10
0.0
 20
0.0
 30
0.0
  9
$UCSORGBACK
 10
0.0
 20
0.0
 30
0.0
  9
$PUCSBASE
  2

  9
$PUCSNAME
  2

  9
$PUCSORG
 10
0.0
 20
0.0
 30
0.0
  9
$PUCSXDIR
 10
1.0
 20
0.0
 30
0.0
  9
$PUCSYDIR
 10
0.0
 20
1.0
 30
0.0
  9
$PUCSORTHOREF
  2

  9
$PUCSORTHOVIEW
 70
     0
  9
$PUCSORGTOP
 10
0.0
 20
0.0
 30
0.0
  9
$PUCSORGBOTTOM
 10
0.0
 20
0.0
 30
0.0
  9
$PUCSORGLEFT
 10
0.0
 20
0.0
 30
0.0
  9
$PUCSORGRIGHT
 10
0.0
 20
0.0
 30
0.0
  9
$PUCSORGFRONT
 10
0.0
 20
0.0
 30
0.0
  9
$PUCSORGBACK
 10
0.0
 20
0.0
 30
0.0
  9
$USERI1
 70
     0
  9
$USERI2
 70
     0
  9
$USERI3
 70
     0
  9
$USERI4
 70
     0
  9
$USERI5
 70
     0
  9
$USERR1
 40
0.0
  9
$USERR2
 40
0.0
  9
$USERR3
 40
0.0
  9
$USERR4
 40
0.0
  9
$USERR5
 40
0.0
  9
$WORLDVIEW
 70
     1
  9
$SHADEDGE
 70
     3
  9
$SHADEDIF
 70
    70
  9
$TILEMODE
 70
     1
  9
$MAXACTVP
 70
    16
  9
$PINSBASE
 10
0.0
 20
0.0
 30
0.0
  9
$PLIMCHECK
 70
     0
  9
$PEXTMIN
 10
1.000000000000000E+20
 20
1.000000000000000E+20
 30
1.000000000000000E+20
  9
$PEXTMAX
 10
-1.000000000000000E+20
 20
-1.000000000000000E+20
 30
-1.000000000000000E+20
  9
$PLIMMIN
 10
0.0
 20
0.0
  9
$PLIMMAX
 10
12.0
 20
9.0
  9
$UNITMODE
 70
     0
  9
$VISRETAIN
 70
     0
  9
$PLINEGEN
 70
     0
  9
$PSLTSCALE
 70
     0
  9
$TREEDEPTH
 70
  3020
  9
$CMLSTYLE
  2
Standard
  9
$CMLJUST
 70
     0
  9
$CMLSCALE
 40
1.0
  9
$PROXYGRAPHICS
 70
     1
  9
$MEASUREMENT
 70
     0
  9
$CELWEIGHT
370
    -1
  9
$ENDCAPS
280
     0
  9
$JOINSTYLE
280
     0
  9
$LWDISPLAY
290
     0
  9
$INSUNITS
 70
     0
  9
$HYPERLINKBASE
  1

  9
$STYLESHEET
  1
monochrome 1.ctb
  9
$XEDIT
290
     1
  9
$CEPSNTYPE
380
     0
  9
$PSTYLEMODE
290
     1
  9
$FINGERPRINTGUID
  2
{D68B0D0D-A558-11D7-B632-000102183313}
  9
$VERSIONGUID
  2
{BC5F9F6A-6B72-4228-A35B-181F874E52F0}
  9
$EXTNAMES
290
     1
  9
$PSVPSCALE
 40
0.0
  9
$OLESTARTUP
290
     0
  9
$SORTENTS
280
   127
  9
$INDEXCTL
280
     0
  9
$HIDETEXT
280
     0
  9
$XCLIPFRAME
290
     0
  9
$HALOGAP
280
     0
  9
$OBSCOLOR
 70
   257
  9
$OBSLTYPE
280
     0
  9
$INTERSECTIONDISPLAY
280
     0
  9
$INTERSECTIONCOLOR
 70
   257
  9
$DIMASSOC
280
     1
  9
$PROJECTNAME
  1

  0
ENDSEC
  0
SECTION
  2
CLASSES
  0
CLASS
  1
ACDBDICTIONARYWDFLT
  2
AcDbDictionaryWithDefault
  3
ObjectDBX Classes
 90
        0
 91
        1
280
     0
281
     0
  0
CLASS
  1
DICTIONARYVAR
  2
AcDbDictionaryVar
  3
ObjectDBX Classes
 90
        0
 91
        2
280
     0
281
     0
  0
ENDSEC
  0
SECTION
  2
TABLES
  0
TABLE
  2
VPORT
  5
8
330
0
100
AcDbSymbolTable
 70
     3
  0
VPORT
  5
5EA
330
8
100
AcDbSymbolTableRecord
100
AcDbViewportTableRecord
  2
*Active
 70
     0
 10
0.0
 20
0.0
 11
1.0
 21
1.0
 12
419.9984109439959
 22
296.9939665384025
 13
0.0
 23
0.0
 14
1.0
 24
1.0
 15
10.0
 25
10.0
 16
0.0
 26
0.0
 36
1.0
 17
0.0
 27
0.0
 37
0.0
 40
632.1264938406851
 41
1.336927223719676
 42
50.0
 43
0.0
 44
0.0
 50
0.0
 51
0.0
 71
     0
 72
  1500
 73
     1
 74
     0
 75
     0
 76
     0
 77
     0
 78
     0
281
     0
 65
     1
110
0.0
120
0.0
130
0.0
111
1.0
121
0.0
131
0.0
112
0.0
122
1.0
132
0.0
 79
     0
146
0.0
  0
ENDTAB
  0
TABLE
  2
LTYPE
  5
5
330
0
100
AcDbSymbolTable
 70
     2
  0
LTYPE
  5
13
330
5
100
AcDbSymbolTableRecord
100
AcDbLinetypeTableRecord
  2
ByBlock
 70
     0
  3

 72
    65
 73
     0
 40
0.0
  0
LTYPE
  5
14
330
5
100
AcDbSymbolTableRecord
100
AcDbLinetypeTableRecord
  2
ByLayer
 70
     0
  3

 72
    65
 73
     0
 40
0.0
  0
LTYPE
  5
15
330
5
100
AcDbSymbolTableRecord
100
AcDbLinetypeTableRecord
  2
Continuous
 70
     0
  3
Solid line
 72
    65
 73
     0
 40
0.0
  0
LTYPE
  5
25
330
5
100
AcDbSymbolTableRecord
100
AcDbLinetypeTableRecord
  2
STRICHPUNKT
 70
     0
  3
__ . __ . __ . __ . __ . __ . __ . __ . __ . __
 72
    65
 73
     4
 40
1.0
 49
0.5
 74
     0
 49
-0.25
 74
     0
 49
0.0
 74
     0
 49
-0.25
 74
     0
  0
ENDTAB
  0
TABLE
  2
LAYER
  5
2
330
0
100
AcDbSymbolTable
 70
     8
  0
LAYER
  5
10
330
2
100
AcDbSymbolTableRecord
100
AcDbLayerTableRecord
  2
0
 70
     0
 62
     7
  6
Continuous
370
    -3
390
F
  0
LAYER
  5
2B
330
2
100
AcDbSymbolTableRecord
100
AcDbLayerTableRecord
  2
VOLL
 70
     0
 62
     1
  6
Continuous
370
    -3
390
F
  0
LAYER
  5
2C
330
2
100
AcDbSymbolTableRecord
100
AcDbLayerTableRecord
  2
HILF
 70
     0
 62
     2
  6
Continuous
370
    -3
390
F
  0
LAYER
  5
2D
330
2
100
AcDbSymbolTableRecord
100
AcDbLayerTableRecord
  2
MITTEL
 70
     0
 62
     2
  6
STRICHPUNKT
370
    -3
390
F
  0
LAYER
  5
2F
330
2
100
AcDbSymbolTableRecord
100
AcDbLayerTableRecord
  2
BEM
 70
     0
 62
     7
  6
Continuous
370
    -3
390
F
  0
LAYER
  5
30
330
2
100
AcDbSymbolTableRecord
100
AcDbLayerTableRecord
  2
STEMPEL
 70
     0
 62
     3
  6
Continuous
370
    -3
390
F
  0
LAYER
  5
33
330
2
100
AcDbSymbolTableRecord
100
AcDbLayerTableRecord
  2
TEXT
 70
     0
 62
     7
  6
Continuous
370
    -3
390
F
  0
LAYER
  5
48C
330
2
100
AcDbSymbolTableRecord
100
AcDbLayerTableRecord
  2
Defpoints
 70
     0
 62
     7
  6
Continuous
290
     0
370
    -3
390
F
  0
ENDTAB
  0
TABLE
  2
STYLE
  5
3
330
0
100
AcDbSymbolTable
 70
     2
  0
STYLE
  5
11
330
3
100
AcDbSymbolTableRecord
100
AcDbTextStyleTableRecord
  2
STANDARD
 70
     0
 40
0.0
 41
0.8
 50
0.0
 71
     0
 42
3.5
  3
simplex.shx
  4

  0
STYLE
  5
24
330
3
100
AcDbSymbolTableRecord
100
AcDbTextStyleTableRecord
  2
GREEKS
 70
     0
 40
0.0
 41
0.8
 50
0.0
 71
     0
 42
2.5
  3
SIMPLEX.shx
  4

  0
ENDTAB
  0
TABLE
  2
VIEW
  5
6
330
0
100
AcDbSymbolTable
 70
     0
  0
ENDTAB
  0
TABLE
  2
UCS
  5
7
330
0
100
AcDbSymbolTable
 70
     0
  0
ENDTAB
  0
TABLE
  2
APPID
  5
9
330
0
100
AcDbSymbolTable
 70
     1
  0
APPID
  5
12
330
9
100
AcDbSymbolTableRecord
100
AcDbRegAppTableRecord
  2
ACAD
 70
     0
  0
ENDTAB
  0
TABLE
  2
DIMSTYLE
  5
A
330
0
100
AcDbSymbolTable
 70
     1
100
AcDbDimStyleTable
 71
     1
340
A2
  0
DIMSTYLE
105
A2
102
{ACAD_REACTORS
330
48B
330
499
330
4A6
330
4B3
102
}
330
A
100
AcDbSymbolTableRecord
100
AcDbDimStyleTableRecord
  2
Standard
 70
     0
340
11
  0
ENDTAB
  0
TABLE
  2
BLOCK_RECORD
  5
1
330
0
100
AcDbSymbolTable
 70
     6
  0
BLOCK_RECORD
  5
1E
102
{ACAD_XDICTIONARY
360
DB
102
}
330
1
100
AcDbSymbolTableRecord
100
AcDbBlockTableRecord
  2
*Model_Space
340
21
  0
BLOCK_RECORD
  5
1A
102
{ACAD_XDICTIONARY
360
DD
102
}
330
1
100
AcDbSymbolTableRecord
100
AcDbBlockTableRecord
  2
*Paper_Space
340
1D
  0
BLOCK_RECORD
  5
22
330
1
100
AcDbSymbolTableRecord
100
AcDbBlockTableRecord
  2
LOGO
340
0
102
{BLKREFS
331
56
102
}
  0
BLOCK_RECORD
  5
23
330
1
100
AcDbSymbolTableRecord
100
AcDbBlockTableRecord
  2
LORO
340
0
102
{BLKREFS
331
9B
102
}
  0
BLOCK_RECORD
  5
48D
330
1
100
AcDbSymbolTableRecord
100
AcDbBlockTableRecord
  2
*D2
340
0
  0
BLOCK_RECORD
  5
49A
330
1
100
AcDbSymbolTableRecord
100
AcDbBlockTableRecord
  2
*D3
340
0
  0
BLOCK_RECORD
  5
4A7
330
1
100
AcDbSymbolTableRecord
100
AcDbBlockTableRecord
  2
*D4
340
0
  0
BLOCK_RECORD
  5
4B4
330
1
100
AcDbSymbolTableRecord
100
AcDbBlockTableRecord
  2
*D5
340
0
  0
ENDTAB
  0
ENDSEC
  0
SECTION
  2
BLOCKS
  0
BLOCK
  5
37
330
1E
100
AcDbEntity
  8
0
100
AcDbBlockBegin
  2
*Model_Space
 70
     0
 10
0.0
 20
0.0
 30
0.0
  3
*Model_Space
  1

  0
ENDBLK
  5
38
330
1E
100
AcDbEntity
  8
0
100
AcDbBlockEnd
  0
BLOCK
  5
35
330
1A
100
AcDbEntity
 67
     1
  8
0
100
AcDbBlockBegin
  2
*Paper_Space
 70
     0
 10
0.0
 20
0.0
 30
0.0
  3
*Paper_Space
  1

  0
ENDBLK
  5
36
330
1A
100
AcDbEntity
 67
     1
  8
0
100
AcDbBlockEnd
  0
BLOCK
  5
39
330
22
100
AcDbEntity
  8
0
100
AcDbBlockBegin
  2
LOGO
 70
     0
 10
0.0
 20
0.0
 30
0.0
  3
LOGO
  1

  0
ARC
  5
3A
330
22
100
AcDbEntity
  8
0
100
AcDbCircle
 10
11.59973089678112
 20
-9.271599258481501
 30
0.0
 40
4.5
100
AcDbArc
 50
270.0
 51
231.0575587310159
  0
LINE
  5
3B
330
22
100
AcDbEntity
  8
0
100
AcDbLine
 10
3.599730896781125
 20
-4.771599258481529
 30
0.0
 11
3.599730896781153
 21
-11.77159925848133
 31
0.0
  0
LINE
  5
3C
330
22
100
AcDbEntity
  8
0
100
AcDbLine
 10
2.599730896781125
 20
-4.771599258481529
 30
0.0
 11
2.599730896781153
 21
-11.77159925848133
 31
0.0
  0
CIRCLE
  5
3D
330
22
100
AcDbEntity
  8
0
100
AcDbCircle
 10
11.59973089678112
 20
-9.271599258481501
 30
0.0
 40
3.5
  0
ARC
  5
3E
330
22
100
AcDbEntity
  8
0
100
AcDbCircle
 10
31.59973089678115
 20
-9.271599258481472
 30
0.0
 40
4.5
100
AcDbArc
 50
270.0
 51
231.0575587310182
  0
LINE
  5
3F
330
22
100
AcDbEntity
  8
0
100
AcDbLine
 10
17.59973089678112
 20
-4.771599258481472
 30
0.0
 11
17.59973089678115
 21
-13.77159925848147
 31
0.0
  0
ARC
  5
40
330
22
100
AcDbEntity
  8
0
100
AcDbCircle
 10
22.59973089678116
 20
-7.271599258481472
 30
0.0
 40
2.5
100
AcDbArc
 50
293.1161887722295
 51
90.0
  0
CIRCLE
  5
41
330
22
100
AcDbEntity
  8
0
100
AcDbCircle
 10
31.59973089678115
 20
-9.271599258481472
 30
0.0
 40
3.5
  0
ARC
  5
42
330
22
100
AcDbEntity
  8
0
100
AcDbCircle
 10
4.599730896781153
 20
-11.77159925848133
 30
0.0
 40
1.0
100
AcDbArc
 50
180.0
 51
270.0
  0
ARC
  5
43
330
22
100
AcDbEntity
  8
0
100
AcDbCircle
 10
4.599730896781153
 20
-11.77159925848133
 30
0.0
 40
2.0
100
AcDbArc
 50
179.9999999999992
 51
270.0
  0
LINE
  5
44
330
22
100
AcDbEntity
  8
0
100
AcDbLine
 10
11.59973089678115
 20
-13.77159925848144
 30
0.0
 11
4.599730896781153
 21
-13.77159925848147
 31
0.0
  0
LINE
  5
45
330
22
100
AcDbEntity
  8
0
100
AcDbLine
 10
8.771303772034769
 20
-12.77159925848136
 30
0.0
 11
4.599730896781153
 21
-12.77159925848133
 31
0.0
  0
LINE
  5
46
330
22
100
AcDbEntity
  8
0
100
AcDbLine
 10
31.59973089678115
 20
-13.77159925848147
 30
0.0
 11
23.6715276665056
 21
-13.77159925848144
 31
0.0
  0
LINE
  5
47
330
22
100
AcDbEntity
  8
0
100
AcDbLine
 10
23.56565672307022
 20
-9.51278021337896
 30
0.0
 11
24.4388546544846
 21
-12.77159925848144
 31
0.0
  0
LINE
  5
48
330
22
100
AcDbEntity
  8
0
100
AcDbLine
 10
22.59973089678116
 20
-9.771599258481472
 30
0.0
 11
18.59973089678112
 21
-9.771599258481472
 31
0.0
  0
LINE
  5
49
330
22
100
AcDbEntity
  8
0
100
AcDbLine
 10
18.59973089678115
 20
-13.77159925848144
 30
0.0
 11
17.59973089678115
 21
-13.77159925848144
 31
0.0
  0
LINE
  5
4A
330
22
100
AcDbEntity
  8
0
100
AcDbLine
 10
18.59973089678115
 20
-9.771599258481472
 30
0.0
 11
18.59973089678115
 21
-13.77159925848144
 31
0.0
  0
LINE
  5
4B
330
22
100
AcDbEntity
  8
0
100
AcDbLine
 10
22.59973089678116
 20
-9.771599258481472
 30
0.0
 11
23.67152766650562
 21
-13.77159925848147
 31
0.0
  0
ARC
  5
4C
330
22
100
AcDbEntity
  8
0
100
AcDbCircle
 10
22.59973089678116
 20
-7.271599258481472
 30
0.0
 40
2.5
100
AcDbArc
 50
270.0
 51
270.0000000000007
  0
LINE
  5
4D
330
22
100
AcDbEntity
  8
0
100
AcDbLine
 10
28.77130377203494
 20
-12.77159925848147
 30
0.0
 11
24.43885465448463
 21
-12.77159925848144
 31
0.0
  0
LINE
  5
4E
330
22
100
AcDbEntity
  8
0
100
AcDbLine
 10
3.599730896781125
 20
-4.771599258481472
 30
0.0
 11
2.599730896781125
 21
-4.771599258481472
 31
0.0
  0
LINE
  5
4F
330
22
100
AcDbEntity
  8
0
100
AcDbLine
 10
22.59973089678116
 20
-8.771599258481472
 30
0.0
 11
18.59973089678115
 21
-8.771599258481472
 31
0.0
  0
LINE
  5
50
330
22
100
AcDbEntity
  8
0
100
AcDbLine
 10
22.59973089678116
 20
-5.771599258481472
 30
0.0
 11
18.59973089678115
 21
-5.771599258481472
 31
0.0
  0
LINE
  5
51
330
22
100
AcDbEntity
  8
0
100
AcDbLine
 10
22.59973089678116
 20
-4.771599258481472
 30
0.0
 11
17.59973089678115
 21
-4.771599258481472
 31
0.0
  0
LINE
  5
52
330
22
100
AcDbEntity
  8
0
100
AcDbLine
 10
18.59973089678115
 20
-5.771599258481472
 30
0.0
 11
18.59973089678115
 21
-8.771599258481472
 31
0.0
  0
ARC
  5
53
330
22
100
AcDbEntity
  8
0
100
AcDbCircle
 10
22.59973089678116
 20
-7.271599258481472
 30
0.0
 40
1.5
100
AcDbArc
 50
270.0
 51
90.0
  0
ENDBLK
  5
54
330
22
100
AcDbEntity
  8
0
100
AcDbBlockEnd
  0
BLOCK
  5
55
330
23
100
AcDbEntity
  8
0
100
AcDbBlockBegin
  2
LORO
 70
     0
 10
0.0
 20
0.0
 30
0.0
  3
LORO
  1

  0
INSERT
  5
56
330
23
100
AcDbEntity
  8
STEMPEL
100
AcDbBlockReference
  2
LOGO
 10
-1.748032802467321
 20
3.771489518552062
 30
0.0
  0
ENDBLK
  5
57
330
23
100
AcDbEntity
  8
0
100
AcDbBlockEnd
  0
BLOCK
  5
497
330
48D
100
AcDbEntity
  8
0
100
AcDbBlockBegin
  2
*D2
 70
     1
 10
0.0
 20
0.0
 30
0.0
  3
*D2
  1

  0
LINE
  5
48E
330
48D
100
AcDbEntity
  8
BEM
 62
     0
370
    -2
100
AcDbLine
 10
404.1859928643605
 20
493.6268429756255
 30
0.0
 11
404.1859928643605
 21
510.923863007159
 31
0.0
  0
LINE
  5
48F
330
48D
100
AcDbEntity
  8
BEM
 62
     0
370
    -2
100
AcDbLine
 10
174.1859928643596
 20
493.6268429756251
 30
0.0
 11
174.1859928643596
 21
510.923863007159
 31
0.0
  0
LINE
  5
490
330
48D
100
AcDbEntity
  8
BEM
 62
     0
370
    -2
100
AcDbLine
 10
397.1859928643605
 20
508.923863007159
 30
0.0
 11
181.1859928643596
 21
508.923863007159
 31
0.0
  0
SOLID
  5
491
330
48D
100
AcDbEntity
  8
BEM
 62
     0
100
AcDbTrace
 10
397.1859928643605
 20
510.0905296738257
 30
0.0
 11
397.1859928643605
 21
507.7571963404923
 31
0.0
 12
404.1859928643605
 22
508.923863007159
 32
0.0
 13
404.1859928643605
 23
508.923863007159
 33
0.0
  0
SOLID
  5
492
330
48D
100
AcDbEntity
  8
BEM
 62
     0
100
AcDbTrace
 10
181.1859928643596
 20
510.0905296738257
 30
0.0
 11
181.1859928643596
 21
507.7571963404923
 31
0.0
 12
174.1859928643596
 22
508.923863007159
 32
0.0
 13
174.1859928643596
 23
508.923863007159
 33
0.0
  0
MTEXT
  5
493
330
48D
100
AcDbEntity
  8
BEM
 62
     1
100
AcDbMText
 10
289.1859928643601
 20
515.423863007159
 30
0.0
 40
7.0
 41
0.0
 71
     5
 72
     1
  1
\A1;230
 73
     1
 44
1.0
  0
POINT
  5
494
330
48D
100
AcDbEntity
  8
Defpoints
 62
     0
100
AcDbPoint
 10
404.1859928643605
 20
491.6268429756255
 30
0.0
  0
POINT
  5
495
330
48D
100
AcDbEntity
  8
Defpoints
 62
     0
100
AcDbPoint
 10
174.1859928643596
 20
491.626842975625
 30
0.0
  0
POINT
  5
496
330
48D
100
AcDbEntity
  8
Defpoints
 62
     0
100
AcDbPoint
 10
174.1859928643596
 20
508.923863007159
 30
0.0
  0
ENDBLK
  5
498
330
48D
100
AcDbEntity
  8
0
100
AcDbBlockEnd
  0
BLOCK
  5
4A4
330
49A
100
AcDbEntity
  8
0
100
AcDbBlockBegin
  2
*D3
 70
     1
 10
0.0
 20
0.0
 30
0.0
  3
*D3
  1

  0
LINE
  5
49B
330
49A
100
AcDbEntity
  8
BEM
 62
     0
370
    -2
100
AcDbLine
 10
177.1859928643605
 20
401.6268429756246
 30
0.0
 11
159.1119641295106
 21
401.6268429756246
 31
0.0
  0
LINE
  5
49C
330
49A
100
AcDbEntity
  8
BEM
 62
     0
370
    -2
100
AcDbLine
 10
177.1859928643596
 20
496.6268429756251
 30
0.0
 11
159.1119641295106
 21
496.6268429756251
 31
0.0
  0
LINE
  5
49D
330
49A
100
AcDbEntity
  8
BEM
 62
     0
370
    -2
100
AcDbLine
 10
161.1119641295106
 20
408.6268429756246
 30
0.0
 11
161.1119641295106
 21
489.6268429756251
 31
0.0
  0
SOLID
  5
49E
330
49A
100
AcDbEntity
  8
BEM
 62
     0
100
AcDbTrace
 10
159.9452974628439
 20
408.6268429756246
 30
0.0
 11
162.2786307961772
 21
408.6268429756246
 31
0.0
 12
161.1119641295106
 22
401.6268429756246
 32
0.0
 13
161.1119641295106
 23
401.6268429756246
 33
0.0
  0
SOLID
  5
49F
330
49A
100
AcDbEntity
  8
BEM
 62
     0
100
AcDbTrace
 10
159.9452974628439
 20
489.6268429756251
 30
0.0
 11
162.2786307961773
 21
489.6268429756251
 31
0.0
 12
161.1119641295106
 22
496.6268429756251
 32
0.0
 13
161.1119641295106
 23
496.6268429756251
 33
0.0
  0
MTEXT
  5
4A0
330
49A
100
AcDbEntity
  8
BEM
 62
     1
100
AcDbMText
 10
154.6119641295105
 20
449.1268429756249
 30
0.0
 40
7.0
 41
0.0
 71
     5
 72
     1
  1
\A1;95
 11
0.0000000000000001
 21
1.0
 31
0.0
 73
     1
 44
1.0
  0
POINT
  5
4A1
330
49A
100
AcDbEntity
  8
Defpoints
 62
     0
100
AcDbPoint
 10
179.1859928643605
 20
401.6268429756246
 30
0.0
  0
POINT
  5
4A2
330
49A
100
AcDbEntity
  8
Defpoints
 62
     0
100
AcDbPoint
 10
179.1859928643596
 20
496.6268429756251
 30
0.0
  0
POINT
  5
4A3
330
49A
100
AcDbEntity
  8
Defpoints
 62
     0
100
AcDbPoint
 10
161.1119641295106
 20
496.6268429756251
 30
0.0
  0
ENDBLK
  5
4A5
330
49A
100
AcDbEntity
  8
0
100
AcDbBlockEnd
  0
BLOCK
  5
4B1
330
4A7
100
AcDbEntity
  8
0
100
AcDbBlockBegin
  2
*D4
 70
     1
 10
0.0
 20
0.0
 30
0.0
  3
*D4
  1

  0
LINE
  5
4C0
330
4A7
100
AcDbEntity
  8
BEM
 62
     0
370
    -2
100
AcDbLine
 10
703.9614394185606
 20
491.1268429756541
 30
0.0
 11
703.9614394185606
 21
509.9170698409934
 31
0.0
  0
LINE
  5
4C1
330
4A7
100
AcDbEntity
  8
BEM
 62
     0
370
    -2
100
AcDbLine
 10
540.9614394185606
 20
491.1268429756536
 30
0.0
 11
540.9614394185606
 21
509.9170698409934
 31
0.0
  0
LINE
  5
4C2
330
4A7
100
AcDbEntity
  8
BEM
 62
     0
370
    -2
100
AcDbLine
 10
696.9614394185606
 20
507.9170698409934
 30
0.0
 11
547.9614394185606
 21
507.9170698409934
 31
0.0
  0
SOLID
  5
4C3
330
4A7
100
AcDbEntity
  8
BEM
 62
     0
100
AcDbTrace
 10
696.9614394185606
 20
509.0837365076601
 30
0.0
 11
696.9614394185606
 21
506.7504031743268
 31
0.0
 12
703.9614394185606
 22
507.9170698409934
 32
0.0
 13
703.9614394185606
 23
507.9170698409934
 33
0.0
  0
SOLID
  5
4C4
330
4A7
100
AcDbEntity
  8
BEM
 62
     0
100
AcDbTrace
 10
547.9614394185606
 20
509.0837365076601
 30
0.0
 11
547.9614394185606
 21
506.7504031743268
 31
0.0
 12
540.9614394185606
 22
507.9170698409934
 32
0.0
 13
540.9614394185606
 23
507.9170698409934
 33
0.0
  0
MTEXT
  5
4C5
330
4A7
100
AcDbEntity
  8
BEM
 62
     1
100
AcDbMText
 10
622.4614394185606
 20
514.4170698409935
 30
0.0
 40
7.0
 41
0.0
 71
     5
 72
     1
  1
\A1;%%c163
 73
     1
 44
1.0
  0
POINT
  5
4C6
330
4A7
100
AcDbEntity
  8
Defpoints
 62
     0
100
AcDbPoint
 10
703.9614394185606
 20
489.1268429756541
 30
0.0
  0
POINT
  5
4C7
330
4A7
100
AcDbEntity
  8
Defpoints
 62
     0
100
AcDbPoint
 10
540.9614394185606
 20
489.1268429756536
 30
0.0
  0
POINT
  5
4C8
330
4A7
100
AcDbEntity
  8
Defpoints
 62
     0
100
AcDbPoint
 10
540.9614394185606
 20
507.9170698409934
 30
0.0
  0
ENDBLK
  5
4B2
330
4A7
100
AcDbEntity
  8
0
100
AcDbBlockEnd
  0
BLOCK
  5
4BE
330
4B4
100
AcDbEntity
  8
0
100
AcDbBlockBegin
  2
*D5
 70
     1
 10
0.0
 20
0.0
 30
0.0
  3
*D5
  1

  0
LINE
  5
4C9
330
4B4
100
AcDbEntity
  8
BEM
 62
     0
370
    -2
100
AcDbLine
 10
699.0614394185603
 20
399.6268429756524
 30
0.0
 11
699.0614394185603
 21
379.0611696329547
 31
0.0
  0
LINE
  5
4CA
330
4B4
100
AcDbEntity
  8
BEM
 62
     0
370
    -2
100
AcDbLine
 10
545.8614394185617
 20
399.6268429756517
 30
0.0
 11
545.8614394185617
 21
379.0611696329547
 31
0.0
  0
LINE
  5
4CB
330
4B4
100
AcDbEntity
  8
BEM
 62
     0
370
    -2
100
AcDbLine
 10
692.0614394185603
 20
381.0611696329547
 30
0.0
 11
552.8614394185617
 21
381.0611696329547
 31
0.0
  0
SOLID
  5
4CC
330
4B4
100
AcDbEntity
  8
BEM
 62
     0
100
AcDbTrace
 10
692.0614394185603
 20
382.2278362996214
 30
0.0
 11
692.0614394185603
 21
379.894502966288
 31
0.0
 12
699.0614394185603
 22
381.0611696329547
 32
0.0
 13
699.0614394185603
 23
381.0611696329547
 33
0.0
  0
SOLID
  5
4CD
330
4B4
100
AcDbEntity
  8
BEM
 62
     0
100
AcDbTrace
 10
552.8614394185617
 20
382.2278362996214
 30
0.0
 11
552.8614394185617
 21
379.894502966288
 31
0.0
 12
545.8614394185617
 22
381.0611696329547
 32
0.0
 13
545.8614394185617
 23
381.0611696329547
 33
0.0
  0
MTEXT
  5
4CE
330
4B4
100
AcDbEntity
  8
BEM
 62
     1
100
AcDbMText
 10
622.461439418561
 20
387.5611696329547
 30
0.0
 40
7.0
 41
0.0
 71
     5
 72
     1
  1
\A1;%%c153.2
 73
     1
 44
1.0
  0
POINT
  5
4CF
330
4B4
100
AcDbEntity
  8
Defpoints
 62
     0
100
AcDbPoint
 10
699.0614394185603
 20
401.6268429756523
 30
0.0
  0
POINT
  5
4D0
330
4B4
100
AcDbEntity
  8
Defpoints
 62
     0
100
AcDbPoint
 10
545.8614394185617
 20
401.6268429756516
 30
0.0
  0
POINT
  5
4D1
330
4B4
100
AcDbEntity
  8
Defpoints
 62
     0
100
AcDbPoint
 10
545.8614394185617
 20
381.0611696329547
 30
0.0
  0
ENDBLK
  5
4BF
330
4B4
100
AcDbEntity
  8
0
100
AcDbBlockEnd
  0
ENDSEC
  0
SECTION
  2
ENTITIES
  0
LINE
  5
58
330
1E
100
AcDbEntity
  8
STEMPEL
100
AcDbLine
 10
830.0000000000002
 20
110.0
 30
0.0
 11
470.0000000000001
 21
110.0
 31
0.0
  0
LINE
  5
59
330
1E
100
AcDbEntity
  8
STEMPEL
100
AcDbLine
 10
470.0000000000001
 20
110.0
 30
0.0
 11
470.0000000000001
 21
10.0
 31
0.0
  0
LINE
  5
5A
330
1E
100
AcDbEntity
  8
STEMPEL
100
AcDbLine
 10
566.0000000000002
 20
109.9999999999999
 30
0.0
 11
566.0000000000001
 21
9.999999999999886
 31
0.0
  0
LINE
  5
5B
330
1E
100
AcDbEntity
  8
STEMPEL
100
AcDbLine
 10
650.0
 20
110.0
 30
0.0
 11
650.0
 21
10.0
 31
0.0
  0
LINE
  5
5C
330
1E
100
AcDbEntity
  8
STEMPEL
100
AcDbLine
 10
752.0000000000002
 20
109.9999999999997
 30
0.0
 11
752.0000000000002
 21
40.0
 31
0.0
  0
LINE
  5
5D
330
1E
100
AcDbEntity
  8
STEMPEL
100
AcDbLine
 10
566.0
 20
30.0
 30
0.0
 11
470.0000000000001
 21
30.0
 31
0.0
  0
LINE
  5
5E
330
1E
100
AcDbEntity
  8
STEMPEL
100
AcDbLine
 10
830.0000000000002
 20
40.0
 30
0.0
 11
566.0000000000001
 21
40.0
 31
0.0
  0
LINE
  5
5F
330
1E
100
AcDbEntity
  8
STEMPEL
100
AcDbLine
 10
830.0000000000002
 20
80.0
 30
0.0
 11
566.0000000000002
 21
80.0
 31
0.0
  0
LINE
  5
60
330
1E
100
AcDbEntity
  8
VOLL
100
AcDbLine
 10
484.0000000000002
 20
110.0
 30
0.0
 11
484.0000000000001
 21
9.999999999999985
 31
0.0
  0
LINE
  5
61
330
1E
100
AcDbEntity
  8
VOLL
100
AcDbLine
 10
524.0000000000001
 20
109.9999999999999
 30
0.0
 11
524.0000000000001
 21
9.999999999999943
 31
0.0
  0
LINE
  5
62
330
1E
100
AcDbEntity
  8
VOLL
100
AcDbLine
 10
544.0000000000002
 20
109.9999999999999
 30
0.0
 11
544.0000000000001
 21
9.999999999999914
 31
0.0
  0
LINE
  5
63
330
1E
100
AcDbEntity
  8
VOLL
100
AcDbLine
 10
584.0000000000002
 20
80.0
 30
0.0
 11
584.0000000000002
 21
40.0
 31
0.0
  0
LINE
  5
64
330
1E
100
AcDbEntity
  8
VOLL
100
AcDbLine
 10
610.0000000000002
 20
109.9999999999998
 30
0.0
 11
610.0000000000001
 21
40.0
 31
0.0
  0
LINE
  5
65
330
1E
100
AcDbEntity
  8
HILF
100
AcDbLine
 10
470.0000000000001
 20
100.0
 30
0.0
 11
566.0000000000002
 21
100.0
 31
0.0
  0
LINE
  5
66
330
1E
100
AcDbEntity
  8
HILF
100
AcDbLine
 10
470.0000000000001
 20
90.0
 30
0.0
 11
566.0000000000002
 21
90.0
 31
0.0
  0
LINE
  5
67
330
1E
100
AcDbEntity
  8
HILF
100
AcDbLine
 10
470.0000000000001
 20
80.0
 30
0.0
 11
566.0000000000002
 21
80.0
 31
0.0
  0
LINE
  5
68
330
1E
100
AcDbEntity
  8
HILF
100
AcDbLine
 10
470.0000000000001
 20
70.0
 30
0.0
 11
566.0000000000002
 21
70.0
 31
0.0
  0
LINE
  5
69
330
1E
100
AcDbEntity
  8
HILF
100
AcDbLine
 10
470.0000000000001
 20
60.0
 30
0.0
 11
566.0000000000002
 21
60.0
 31
0.0
  0
LINE
  5
6A
330
1E
100
AcDbEntity
  8
HILF
100
AcDbLine
 10
470.0000000000001
 20
50.0
 30
0.0
 11
566.0000000000002
 21
50.0
 31
0.0
  0
LINE
  5
6B
330
1E
100
AcDbEntity
  8
HILF
100
AcDbLine
 10
470.0000000000001
 20
40.0
 30
0.0
 11
566.0000000000002
 21
40.0
 31
0.0
  0
LINE
  5
6C
330
1E
100
AcDbEntity
  8
HILF
100
AcDbLine
 10
566.0000000000002
 20
70.0
 30
0.0
 11
650.0
 21
70.0
 31
0.0
  0
LINE
  5
6D
330
1E
100
AcDbEntity
  8
HILF
100
AcDbLine
 10
566.0000000000002
 20
60.0
 30
0.0
 11
650.0
 21
60.0
 31
0.0
  0
LINE
  5
6E
330
1E
100
AcDbEntity
  8
HILF
100
AcDbLine
 10
566.0000000000002
 20
50.0
 30
0.0
 11
650.0
 21
50.0
 31
0.0
  0
LINE
  5
6F
330
1E
100
AcDbEntity
  8
HILF
100
AcDbLine
 10
654.7736801096948
 20
84.03758247564136
 30
0.0
 11
746.6297842514811
 21
84.03758247564136
 31
0.0
  0
LINE
  5
70
330
1E
100
AcDbEntity
  8
HILF
100
AcDbLine
 10
654.7736801096948
 20
70.0
 30
0.0
 11
746.6297842514811
 21
70.0
 31
0.0
  0
LINE
  5
71
330
1E
100
AcDbEntity
  8
HILF
100
AcDbLine
 10
654.7736801096948
 20
60.0
 30
0.0
 11
746.6297842514811
 21
60.0
 31
0.0
  0
LINE
  5
72
330
1E
100
AcDbEntity
  8
HILF
100
AcDbLine
 10
654.7736801096948
 20
50.0
 30
0.0
 11
746.6297842514811
 21
50.0
 31
0.0
  0
LINE
  5
73
330
1E
100
AcDbEntity
  8
VOLL
100
AcDbLine
 10
752.0000000000002
 20
60.0
 30
0.0
 11
830.0000000000002
 21
60.0
 31
0.0
  0
LINE
  5
74
330
1E
100
AcDbEntity
  8
HILF
100
AcDbLine
 10
756.7238616296995
 20
83.77983636955823
 30
0.0
 11
824.858883932673
 21
83.77983636955823
 31
0.0
  0
LINE
  5
75
330
1E
100
AcDbEntity
  8
HILF
100
AcDbLine
 10
654.7736801096948
 20
14.89398258028305
 30
0.0
 11
824.858883932673
 21
14.89398258028305
 31
0.0
  0
TEXT
  5
76
330
1E
100
AcDbEntity
  8
TEXT
100
AcDbText
 10
492.3998239263297
 20
18.67381894984129
 30
0.0
 40
4.0
  1
Änderung
 41
0.8
  7
GREEKS
 72
     1
 11
503.1426810691868
 21
18.67381894984129
 31
0.0
100
AcDbText
  0
TEXT
  5
78
330
1E
100
AcDbEntity
  8
TEXT
100
AcDbText
 10
573.5163572150378
 20
102.4620895087088
 30
0.0
 40
5.0
  1
Maßstab
 41
0.8
  7
GREEKS
100
AcDbText
  0
TEXT
  5
79
330
1E
100
AcDbEntity
  8
TEXT
100
AcDbText
 10
654.8779403809011
 20
102.5489328011779
 30
0.0
 40
5.0
  1
Benennung
 41
0.8
  7
GREEKS
100
AcDbText
  0
TEXT
  5
7A
330
1E
100
AcDbEntity
  8
TEXT
100
AcDbText
 10
756.1787549576343
 20
102.3132034537135
 30
0.0
 40
5.0
  1
Zeichnungs Nr.
 41
0.8
  7
GREEKS
100
AcDbText
  0
TEXT
  5
7B
330
1E
100
AcDbEntity
  8
TEXT
100
AcDbText
 10
654.742238391136
 20
30.84560570193055
 30
0.0
 40
5.0
  1
Bauvorhaben
 41
0.8
  7
GREEKS
100
AcDbText
  0
TEXT
  5
7C
330
1E
100
AcDbEntity
  8
TEXT
100
AcDbText
 10
756.7238616296995
 20
73.18118237099965
 30
0.0
 40
5.0
  1
Ersatz für:
 41
0.8
  7
GREEKS
100
AcDbText
  0
TEXT
  5
7D
330
1E
100
AcDbEntity
  8
TEXT
100
AcDbText
 10
478.2664110704577
 20
13.65465846027187
 30
0.0
 40
4.0
  1
Index
 50
90.0
 41
0.8
  7
GREEKS
100
AcDbText
  0
TEXT
  5
7E
330
1E
100
AcDbEntity
  8
TEXT
100
AcDbText
 10
529.8990113186979
 20
18.67156269339808
 30
0.0
 40
4.0
  1
Tag
 41
0.8
  7
GREEKS
 72
     1
 11
533.6323446520313
 21
18.67156269339808
 31
0.0
100
AcDbText
  0
TEXT
  5
7F
330
1E
100
AcDbEntity
  8
TEXT
100
AcDbText
 10
548.9795678138293
 20
18.59324216966404
 30
0.0
 40
4.0
  1
Name
 41
0.8
  7
GREEKS
 72
     1
 11
555.3033773376388
 21
18.59324216966404
 31
0.0
100
AcDbText
  0
TEXT
  5
80
330
1E
100
AcDbEntity
  8
TEXT
100
AcDbText
 10
592.3311673153651
 20
73.31880501229919
 30
0.0
 40
4.0
  1
Tag
 41
0.8
  7
GREEKS
100
AcDbText
  0
TEXT
  5
81
330
1E
100
AcDbEntity
  8
TEXT
100
AcDbText
 10
622.4626584226296
 20
73.3096109191522
 30
0.0
 40
4.0
  1
Name
 41
0.8
  7
GREEKS
100
AcDbText
  0
TEXT
  5
82
330
1E
100
AcDbEntity
  8
TEXT
100
AcDbText
 10
567.5836127167616
 20
63.62990369617961
 30
0.0
 40
4.0
  1
Gez.
 41
0.8
  7
GREEKS
100
AcDbText
  0
TEXT
  5
83
330
1E
100
AcDbEntity
  8
TEXT
100
AcDbText
 10
567.5515086571673
 20
53.68926291428373
 30
0.0
 40
4.0
  1
Gepr.
 41
0.8
  7
GREEKS
100
AcDbText
  0
TEXT
  5
84
330
1E
100
AcDbEntity
  8
TEXT
100
AcDbText
 10
567.6006777387304
 20
43.52946389649804
 30
0.0
 40
4.0
  1
Norm.
 41
0.8
  7
GREEKS
100
AcDbText
  0
TEXT
  5
85
330
1E
100
AcDbEntity
  8
TEXT
100
AcDbText
 10
757.2400861497007
 20
52.07416177878596
 30
0.0
 40
5.0
  1
ersetzt durch:
 41
0.8
  7
GREEKS
100
AcDbText
  0
TEXT
  5
86
330
1E
100
AcDbEntity
  8
TEXT
100
AcDbText
 10
568.8693027807324
 20
72.96682596523723
 30
0.0
 40
4.0
  1
2008
 41
0.8
  7
GREEKS
100
AcDbText
  0
LINE
  5
87
330
1E
100
AcDbEntity
  8
HILF
100
AcDbLine
 10
0.0
 20
0.0
 30
0.0
 11
840.0
 21
0.0
 31
0.0
  0
LINE
  5
88
330
1E
100
AcDbEntity
  8
HILF
100
AcDbLine
 10
840.0
 20
0.0
 30
0.0
 11
840.0
 21
594.0
 31
0.0
  0
LINE
  5
89
330
1E
100
AcDbEntity
  8
HILF
100
AcDbLine
 10
840.0
 20
594.0
 30
0.0
 11
0.0
 21
594.0
 31
0.0
  0
LINE
  5
8B
330
1E
100
AcDbEntity
  8
STEMPEL
100
AcDbLine
 10
830.0
 20
584.0
 30
0.0
 11
40.0
 21
584.0
 31
0.0
  0
LINE
  5
8D
330
1E
100
AcDbEntity
  8
STEMPEL
100
AcDbLine
 10
40.0
 20
10.0
 30
0.0
 11
830.0
 21
10.0
 31
0.0
  0
LINE
  5
8E
330
1E
100
AcDbEntity
  8
STEMPEL
100
AcDbLine
 10
830.0
 20
10.0
 30
0.0
 11
830.0
 21
584.0
 31
0.0
  0
TEXT
  5
8F
330
1E
100
AcDbEntity
  8
TEXT
 62
     1
100
AcDbText
 10
655.0390572473189
 20
87.37343075652544
 30
0.0
 40
7.0
  1
Druckrohrschelle DN125
 41
0.7
  7
GREEKS
100
AcDbText
  0
TEXT
  5
90
330
1E
100
AcDbEntity
  8
TEXT
 62
     1
100
AcDbText
 10
763.9961422184136
 20
87.37343075652544
 30
0.0
 40
7.0
  1
080700125W
 41
0.8
  7
GREEKS
 72
     1
 11
790.1294755517469
 21
87.37343075652544
 31
0.0
100
AcDbText
  0
TEXT
  5
91
330
1E
100
AcDbEntity
  8
TEXT
100
AcDbText
 10
618.509022641583
 20
102.83989611379
 30
0.0
 40
5.0
  1
Zul.Abw.
 41
0.8
  7
GREEKS
100
AcDbText
  0
TEXT
  5
93
330
1E
100
AcDbEntity
  8
TEXT
100
AcDbText
 10
590.7660475607107
 20
63.1508587612022
 30
0.0
 40
4.0
  1
15.12.
 41
0.8
  7
GREEKS
 72
     1
 11
597.1660475607107
 21
63.1508587612022
 31
0.0
100
AcDbText
  0
TEXT
  5
94
330
1E
100
AcDbEntity
  8
TEXT
100
AcDbText
 10
624.023175322661
 20
62.94297655165468
 30
0.0
 40
4.0
  1
Koeh
 41
0.8
  7
GREEKS
 72
     1
 11
629.2803181798038
 21
62.94297655165468
 31
0.0
100
AcDbText
  0
TEXT
  5
97
330
1E
100
AcDbEntity
  8
TEXT
100
AcDbText
 10
654.3410940884992
 20
52.59097337846058
 30
0.0
 40
5.0
  1
EDV-Art.Nr. 08070.125X
 41
0.8
  7
GREEKS
100
AcDbText
  0
TEXT
  5
98
330
1E
100
AcDbEntity
  8
TEXT
100
AcDbText
 10
654.1676050109348
 20
43.31127624791508
 30
0.0
 40
4.0
  1
08070125W.DWG
 41
0.8
  7
GREEKS
100
AcDbText
  0
TEXT
  5
99
330
1E
100
AcDbEntity
  8
TEXT
 62
     1
100
AcDbText
 10
582.7034912034222
 20
87.47077088414977
 30
0.0
 40
7.0
  1
1:2
 41
0.8
  7
GREEKS
100
AcDbText
  0
TEXT
  5
9A
330
1E
100
AcDbEntity
  8
TEXT
100
AcDbText
 10
470.0441139350127
 20
114.1143585051043
 30
0.0
 40
5.0
  1
Erstellt mit AUTOCAD 2004
 41
0.8
  7
GREEKS
100
AcDbText
  0
INSERT
  5
9B
330
1E
100
AcDbEntity
  8
HILF
100
AcDbBlockReference
  2
LORO
 10
573.0624985962354
 20
36.9805930029896
 30
0.0
 41
2.0
 42
2.0
 43
2.0
  0
LINE
  5
9C
330
1E
100
AcDbEntity
  8
BEM
100
AcDbLine
 10
456.0
 20
0.0
 30
0.0
 11
456.0
 21
10.0
 31
0.0
  0
LINE
  5
13E
330
1E
100
AcDbEntity
  8
HILF
100
AcDbLine
 10
0.0
 20
0.0
 30
0.0
 11
0.0
 21
594.0
 31
0.0
  0
LINE
  5
13F
330
1E
100
AcDbEntity
  8
STEMPEL
100
AcDbLine
 10
40.0
 20
10.0
 30
0.0
 11
40.0
 21
584.0
 31
0.0
  0
LINE
  5
14A
330
1E
100
AcDbEntity
  8
HILF
100
AcDbLine
 10
0.0
 20
297.0
 30
0.0
 11
40.0
 21
297.0
 31
0.0
  0
TEXT
  5
15B
330
1E
100
AcDbEntity
  8
BEM
100
AcDbText
 10
837.3022923857165
 20
10.16790107998861
 30
0.0
 40
4.0
  1
Diese Zeichnung ist urheberrechtlich geschützt und bleibt unser Eigentum. Sie darf weder ganz noch teilweise verfielfältigt und nicht an Dritte weitergegeben werden.
 50
90.0
 41
0.8
  7
GREEKS
100
AcDbText
  0
LINE
  5
23E
330
1E
100
AcDbEntity
  8
MITTEL
100
AcDbLine
 10
194.185992864361
 20
210.9048966172597
 30
0.0
 11
194.185992864361
 21
158.7048966172588
 31
0.0
  0
LINE
  5
23F
330
1E
100
AcDbEntity
  8
STEMPEL
100
AcDbLine
 10
189.185992864361
 20
174.7048966172588
 30
0.0
 11
189.185992864361
 21
165.2048966172588
 31
0.0
  0
LINE
  5
240
330
1E
100
AcDbEntity
  8
STEMPEL
100
AcDbLine
 10
189.185992864361
 20
165.2048966172588
 30
0.0
 11
190.6859928643609
 21
163.7048966172588
 31
0.0
  0
LINE
  5
241
330
1E
100
AcDbEntity
  8
HILF
100
AcDbLine
 10
190.6859928643609
 20
174.7048966172588
 30
0.0
 11
190.6859928643609
 21
163.7048966172588
 31
0.0
  0
LINE
  5
242
330
1E
100
AcDbEntity
  8
STEMPEL
100
AcDbLine
 10
199.185992864361
 20
174.7048966172588
 30
0.0
 11
199.185992864361
 21
165.2048966172588
 31
0.0
  0
LINE
  5
243
330
1E
100
AcDbEntity
  8
STEMPEL
100
AcDbLine
 10
190.6859928643609
 20
163.7048966172588
 30
0.0
 11
197.6859928643609
 21
163.7048966172588
 31
0.0
  0
LINE
  5
244
330
1E
100
AcDbEntity
  8
STEMPEL
100
AcDbLine
 10
189.185992864361
 20
165.2048966172588
 30
0.0
 11
199.185992864361
 21
165.2048966172588
 31
0.0
  0
LINE
  5
245
330
1E
100
AcDbEntity
  8
STEMPEL
100
AcDbLine
 10
197.6859928643609
 20
163.7048966172588
 30
0.0
 11
199.185992864361
 21
165.2048966172588
 31
0.0
  0
LINE
  5
246
330
1E
100
AcDbEntity
  8
HILF
100
AcDbLine
 10
197.6859928643609
 20
174.7048966172588
 30
0.0
 11
197.6859928643609
 21
163.7048966172588
 31
0.0
  0
ARC
  5
247
330
1E
100
AcDbEntity
  8
STEMPEL
100
AcDbCircle
 10
186.2480101547552
 20
189.1738397453383
 30
0.0
 40
6.767023128081929
100
AcDbArc
 50
241.6629572917678
 51
298.3370427082137
  0
ARC
  5
248
330
1E
100
AcDbEntity
  8
STEMPEL
100
AcDbCircle
 10
194.1859928643546
 20
196.5840466172567
 30
0.0
 40
14.17723
100
AcDbArc
 50
250.5278273813744
 51
289.4721726186256
  0
ARC
  5
249
330
1E
100
AcDbEntity
  8
STEMPEL
100
AcDbCircle
 10
202.1239755739535
 20
189.1738397453405
 30
0.0
 40
6.76702312808409
100
AcDbArc
 50
241.66295729179
 51
298.3370427082282
  0
LINE
  5
24A
330
1E
100
AcDbEntity
  8
STEMPEL
100
AcDbLine
 10
184.734062025955
 20
175.5097625563885
 30
0.0
 11
184.734062025955
 21
175.469256123084
 31
0.0
  0
LINE
  5
24B
330
1E
100
AcDbEntity
  8
STEMPEL
100
AcDbLine
 10
184.734062025955
 20
175.6328559191488
 30
0.0
 11
184.734062025955
 21
175.5097625563885
 31
0.0
  0
LINE
  5
24C
330
1E
100
AcDbEntity
  8
STEMPEL
100
AcDbLine
 10
184.734062025955
 20
175.9773862168977
 30
0.0
 11
184.734062025955
 21
175.6328559191488
 31
0.0
  0
LINE
  5
24D
330
1E
100
AcDbEntity
  8
STEMPEL
100
AcDbLine
 10
187.1038229086583
 20
174.6988746636898
 30
0.0
 11
187.0977360259688
 21
174.6988746636898
 31
0.0
  0
LINE
  5
24E
330
1E
100
AcDbEntity
  8
STEMPEL
100
AcDbLine
 10
184.734062025955
 20
175.469256123084
 30
0.0
 11
185.2589335185742
 21
175.1662214255302
 31
0.0
  0
LINE
  5
24F
330
1E
100
AcDbEntity
  8
STEMPEL
100
AcDbLine
 10
184.734062025955
 20
175.9773862168977
 30
0.0
 11
184.734062025955
 21
182.5783440794085
 31
0.0
  0
LINE
  5
250
330
1E
100
AcDbEntity
  8
STEMPEL
100
AcDbLine
 10
189.4600274451543
 20
175.9773862168977
 30
0.0
 11
189.4600274451543
 21
175.5097625563885
 31
0.0
  0
LINE
  5
251
330
1E
100
AcDbEntity
  8
STEMPEL
100
AcDbLine
 10
198.9119582835549
 20
175.9773862168977
 30
0.0
 11
198.9119582835549
 21
175.5097625563885
 31
0.0
  0
LINE
  5
252
330
1E
100
AcDbEntity
  8
STEMPEL
100
AcDbLine
 10
203.6379237027552
 20
175.9773862168977
 30
0.0
 11
203.6379237027552
 21
175.469256123084
 31
0.0
  0
LINE
  5
253
330
1E
100
AcDbEntity
  8
STEMPEL
100
AcDbLine
 10
203.6379237027552
 20
175.469256123084
 30
0.0
 11
203.113052210135
 21
175.1662214255302
 31
0.0
  0
ARC
  5
254
330
1E
100
AcDbEntity
  8
STEMPEL
100
AcDbCircle
 10
201.2749409931541
 20
178.5472648287859
 30
0.0
 40
3.848390227184345
100
AcDbArc
 50
232.1193642828261
 51
301.4691945240703
  0
ARC
  5
255
330
1E
100
AcDbEntity
  8
STEMPEL
100
AcDbCircle
 10
194.1859928643546
 20
188.87610466369
 30
0.0
 40
14.17723
100
AcDbArc
 50
250.5278273813744
 51
289.4721726186256
  0
LINE
  5
256
330
1E
100
AcDbEntity
  8
STEMPEL
100
AcDbLine
 10
203.6379237027552
 20
175.9773862168977
 30
0.0
 11
203.6379237027552
 21
182.5783440794089
 31
0.0
  0
LINE
  5
257
330
1E
100
AcDbEntity
  8
STEMPEL
100
AcDbLine
 10
198.9119582835549
 20
175.9773862168977
 30
0.0
 11
198.9119582835549
 21
183.2177045099546
 31
0.0
  0
LINE
  5
258
330
1E
100
AcDbEntity
  8
STEMPEL
100
AcDbLine
 10
189.4600274451543
 20
175.9773862168977
 30
0.0
 11
189.4600274451555
 21
183.2177045099547
 31
0.0
  0
LINE
  5
259
330
1E
100
AcDbEntity
  8
STEMPEL
100
AcDbLine
 10
201.2742497027669
 20
174.6988746636898
 30
0.0
 11
187.0977360259551
 21
174.6988746636898
 31
0.0
  0
ARC
  5
25A
330
1E
100
AcDbEntity
  8
STEMPEL
100
AcDbCircle
 10
187.0970447355542
 20
178.5472648287859
 30
0.0
 40
3.848390227184345
100
AcDbArc
 50
238.5308054759296
 51
307.8806357171739
  0
LINE
  5
25B
330
1E
100
AcDbEntity
  8
STEMPEL
100
AcDbLine
 10
183.0359928643547
 20
183.2177045099559
 30
0.0
 11
183.0359928643547
 21
184.7048966172561
 31
0.0
  0
LINE
  5
25C
330
1E
100
AcDbEntity
  8
STEMPEL
100
AcDbLine
 10
205.3359928643547
 20
183.217704509956
 30
0.0
 11
205.3359928643546
 21
184.5610118865651
 31
0.0
  0
LINE
  5
271
330
1E
100
AcDbEntity
  8
STEMPEL
100
AcDbLine
 10
373.0359928643653
 20
183.217704509956
 30
0.0
 11
373.0359928643654
 21
184.5610118865651
 31
0.0
  0
LINE
  5
272
330
1E
100
AcDbEntity
  8
STEMPEL
100
AcDbLine
 10
395.3359928643654
 20
183.2177045099559
 30
0.0
 11
395.3359928643654
 21
184.7048966172561
 31
0.0
  0
ARC
  5
273
330
1E
100
AcDbEntity
  8
STEMPEL
100
AcDbCircle
 10
391.2749409931659
 20
178.5472648287859
 30
0.0
 40
3.848390227184345
100
AcDbArc
 50
232.1193642828261
 51
301.4691945240703
  0
LINE
  5
274
330
1E
100
AcDbEntity
  8
STEMPEL
100
AcDbLine
 10
377.0977360259532
 20
174.6988746636898
 30
0.0
 11
391.2742497027649
 21
174.6988746636898
 31
0.0
  0
LINE
  5
275
330
1E
100
AcDbEntity
  8
STEMPEL
100
AcDbLine
 10
388.9119582835657
 20
175.9773862168977
 30
0.0
 11
388.9119582835645
 21
183.2177045099547
 31
0.0
  0
LINE
  5
276
330
1E
100
AcDbEntity
  8
STEMPEL
100
AcDbLine
 10
379.4600274451651
 20
175.9773862168977
 30
0.0
 11
379.4600274451651
 21
183.2177045099546
 31
0.0
  0
LINE
  5
277
330
1E
100
AcDbEntity
  8
STEMPEL
100
AcDbLine
 10
374.7340620259648
 20
175.9773862168977
 30
0.0
 11
374.7340620259649
 21
182.5783440794089
 31
0.0
  0
ARC
  5
278
330
1E
100
AcDbEntity
  8
STEMPEL
100
AcDbCircle
 10
384.1859928643654
 20
188.87610466369
 30
0.0
 40
14.17723
100
AcDbArc
 50
250.5278273813744
 51
289.4721726186256
  0
ARC
  5
279
330
1E
100
AcDbEntity
  8
STEMPEL
100
AcDbCircle
 10
377.0970447355659
 20
178.5472648287859
 30
0.0
 40
3.848390227184345
100
AcDbArc
 50
238.5308054759296
 51
307.8806357171739
  0
LINE
  5
27A
330
1E
100
AcDbEntity
  8
STEMPEL
100
AcDbLine
 10
374.7340620259648
 20
175.469256123084
 30
0.0
 11
375.258933518585
 21
175.1662214255302
 31
0.0
  0
LINE
  5
27B
330
1E
100
AcDbEntity
  8
STEMPEL
100
AcDbLine
 10
374.7340620259648
 20
175.9773862168977
 30
0.0
 11
374.7340620259648
 21
175.469256123084
 31
0.0
  0
LINE
  5
27C
330
1E
100
AcDbEntity
  8
STEMPEL
100
AcDbLine
 10
379.4600274451651
 20
175.9773862168977
 30
0.0
 11
379.4600274451651
 21
175.5097625563885
 31
0.0
  0
LINE
  5
27D
330
1E
100
AcDbEntity
  8
STEMPEL
100
AcDbLine
 10
388.9119582835657
 20
175.9773862168977
 30
0.0
 11
388.9119582835657
 21
175.5097625563885
 31
0.0
  0
LINE
  5
27E
330
1E
100
AcDbEntity
  8
STEMPEL
100
AcDbLine
 10
393.6379237027651
 20
175.9773862168977
 30
0.0
 11
393.6379237027651
 21
182.5783440794085
 31
0.0
  0
LINE
  5
27F
330
1E
100
AcDbEntity
  8
STEMPEL
100
AcDbLine
 10
393.6379237027651
 20
175.469256123084
 30
0.0
 11
393.1130522101458
 21
175.1662214255302
 31
0.0
  0
LINE
  5
280
330
1E
100
AcDbEntity
  8
STEMPEL
100
AcDbLine
 10
391.2681628200618
 20
174.6988746636898
 30
0.0
 11
391.2742497027513
 21
174.6988746636898
 31
0.0
  0
LINE
  5
281
330
1E
100
AcDbEntity
  8
STEMPEL
100
AcDbLine
 10
393.6379237027651
 20
175.9773862168977
 30
0.0
 11
393.6379237027651
 21
175.6328559191488
 31
0.0
  0
LINE
  5
282
330
1E
100
AcDbEntity
  8
STEMPEL
100
AcDbLine
 10
393.6379237027651
 20
175.6328559191488
 30
0.0
 11
393.6379237027651
 21
175.5097625563885
 31
0.0
  0
LINE
  5
283
330
1E
100
AcDbEntity
  8
STEMPEL
100
AcDbLine
 10
393.6379237027651
 20
175.5097625563885
 30
0.0
 11
393.6379237027651
 21
175.469256123084
 31
0.0
  0
ARC
  5
284
330
1E
100
AcDbEntity
  8
STEMPEL
100
AcDbCircle
 10
376.2480101547666
 20
189.1738397453405
 30
0.0
 40
6.76702312808409
100
AcDbArc
 50
241.6629572917718
 51
298.33704270821
  0
ARC
  5
285
330
1E
100
AcDbEntity
  8
STEMPEL
100
AcDbCircle
 10
384.1859928643654
 20
196.5840466172567
 30
0.0
 40
14.17723
100
AcDbArc
 50
250.5278273813744
 51
289.4721726186256
  0
ARC
  5
286
330
1E
100
AcDbEntity
  8
STEMPEL
100
AcDbCircle
 10
392.1239755739648
 20
189.1738397453383
 30
0.0
 40
6.767023128081929
100
AcDbArc
 50
241.6629572917863
 51
298.3370427082323
  0
LINE
  5
29B
330
1E
100
AcDbEntity
  8
MITTEL
100
AcDbLine
 10
384.1859928643591
 20
210.9048966172597
 30
0.0
 11
384.1859928643592
 21
158.7048966172588
 31
0.0
  0
LINE
  5
29C
330
1E
100
AcDbEntity
  8
HILF
100
AcDbLine
 10
380.6859928643591
 20
174.7048966172588
 30
0.0
 11
380.6859928643591
 21
163.7048966172588
 31
0.0
  0
LINE
  5
29D
330
1E
100
AcDbEntity
  8
STEMPEL
100
AcDbLine
 10
380.6859928643591
 20
163.7048966172588
 30
0.0
 11
379.1859928643591
 21
165.2048966172588
 31
0.0
  0
LINE
  5
29E
330
1E
100
AcDbEntity
  8
STEMPEL
100
AcDbLine
 10
389.1859928643592
 20
165.2048966172588
 30
0.0
 11
379.1859928643591
 21
165.2048966172588
 31
0.0
  0
LINE
  5
29F
330
1E
100
AcDbEntity
  8
STEMPEL
100
AcDbLine
 10
387.6859928643591
 20
163.7048966172588
 30
0.0
 11
380.6859928643591
 21
163.7048966172588
 31
0.0
  0
LINE
  5
2A0
330
1E
100
AcDbEntity
  8
STEMPEL
100
AcDbLine
 10
379.1859928643591
 20
174.7048966172588
 30
0.0
 11
379.1859928643591
 21
165.2048966172588
 31
0.0
  0
LINE
  5
2A1
330
1E
100
AcDbEntity
  8
HILF
100
AcDbLine
 10
387.6859928643591
 20
174.7048966172588
 30
0.0
 11
387.6859928643591
 21
163.7048966172588
 31
0.0
  0
LINE
  5
2A2
330
1E
100
AcDbEntity
  8
STEMPEL
100
AcDbLine
 10
389.1859928643592
 20
165.2048966172588
 30
0.0
 11
387.6859928643591
 21
163.7048966172588
 31
0.0
  0
LINE
  5
2A3
330
1E
100
AcDbEntity
  8
STEMPEL
100
AcDbLine
 10
389.1859928643592
 20
174.7048966172588
 30
0.0
 11
389.1859928643592
 21
165.2048966172588
 31
0.0
  0
ARC
  5
2A4
330
1E
100
AcDbEntity
  8
STEMPEL
100
AcDbCircle
 10
369.1629776926927
 20
180.7048966172569
 30
0.0
 40
9.0
100
AcDbArc
 50
90.0
 51
173.2833661866243
  0
ARC
  5
2A5
330
1E
100
AcDbEntity
  8
STEMPEL
100
AcDbCircle
 10
369.1629776926927
 20
200.7048966172588
 30
0.0
 40
9.0
100
AcDbArc
 50
186.7166338133756
 51
270.0
  0
ARC
  5
2A6
330
1E
100
AcDbEntity
  8
STEMPEL
100
AcDbCircle
 10
209.2090080360265
 20
180.7048966172569
 30
0.0
 40
9.0
100
AcDbArc
 50
6.716633813375679
 51
90.0
  0
ARC
  5
2A7
330
1E
100
AcDbEntity
  8
STEMPEL
100
AcDbCircle
 10
209.2090080360265
 20
200.7048966172588
 30
0.0
 40
9.0
100
AcDbArc
 50
270.0
 51
353.2833661866243
  0
LINE
  5
2A8
330
1E
100
AcDbEntity
  8
STEMPEL
100
AcDbLine
 10
365.1609532022105
 20
199.6522650383122
 30
0.0
 11
358.1076483750769
 21
199.6522650383122
 31
0.0
  0
LINE
  5
2A9
330
1E
100
AcDbEntity
  8
STEMPEL
100
AcDbLine
 10
213.2110325265096
 20
199.6522650383122
 30
0.0
 11
220.2643373536432
 21
199.6522650383131
 31
0.0
  0
ARC
  5
2AA
330
1E
100
AcDbEntity
  8
STEMPEL
100
AcDbCircle
 10
289.1859928643596
 20
190.7048966172587
 30
0.0
 40
69.5
100
AcDbArc
 50
7.396736616875929
 51
172.6032633831241
  0
LINE
  5
2AB
330
1E
100
AcDbEntity
  8
STEMPEL
100
AcDbLine
 10
365.1609532022105
 20
181.7575281962054
 30
0.0
 11
358.1076483750769
 21
181.7575281962054
 31
0.0
  0
LINE
  5
2AC
330
1E
100
AcDbEntity
  8
STEMPEL
100
AcDbLine
 10
213.2110325265096
 20
181.7575281962054
 30
0.0
 11
220.2643373536432
 21
181.7575281962054
 31
0.0
  0
ARC
  5
2AD
330
1E
100
AcDbEntity
  8
STEMPEL
100
AcDbCircle
 10
289.1859928643596
 20
190.7048966172587
 30
0.0
 40
69.5
100
AcDbArc
 50
187.3967366168759
 51
352.6032633831241
  0
LINE
  5
2AE
330
1E
100
AcDbEntity
  8
STEMPEL
100
AcDbLine
 10
404.18599286436
 20
184.7048966172588
 30
0.0
 11
404.1859928643609
 21
189.7048966172588
 31
0.0
  0
LINE
  5
2AF
330
1E
100
AcDbEntity
  8
STEMPEL
100
AcDbLine
 10
404.18599286436
 20
196.7048966172597
 30
0.0
 11
404.1859928643609
 21
191.7048966172588
 31
0.0
  0
ARC
  5
2B0
330
1E
100
AcDbEntity
  8
STEMPEL
100
AcDbCircle
 10
374.0991838301923
 20
200.7048966172597
 30
0.0
 40
9.0
100
AcDbArc
 50
186.7166338133756
 51
270.0
  0
ARC
  5
2B1
330
1E
100
AcDbEntity
  8
STEMPEL
100
AcDbCircle
 10
374.0991838301923
 20
200.7048966172597
 30
0.0
 40
4.0
100
AcDbArc
 50
186.7166338133756
 51
270.0
  0
ARC
  5
2B2
330
1E
100
AcDbEntity
  8
STEMPEL
100
AcDbCircle
 10
204.272801898527
 20
200.7048966172597
 30
0.0
 40
9.0
100
AcDbArc
 50
270.0
 51
353.2833661866243
  0
ARC
  5
2B3
330
1E
100
AcDbEntity
  8
STEMPEL
100
AcDbCircle
 10
204.272801898527
 20
200.7048966172597
 30
0.0
 40
4.0
100
AcDbArc
 50
270.0
 51
353.2833661866243
  0
LINE
  5
2B4
330
1E
100
AcDbEntity
  8
STEMPEL
100
AcDbLine
 10
374.0991838301927
 20
196.7048966172597
 30
0.0
 11
404.1859928643609
 21
196.7048966172597
 31
0.0
  0
ARC
  5
2B5
330
1E
100
AcDbEntity
  8
STEMPEL
100
AcDbCircle
 10
289.1859928643596
 20
190.7048966172587
 30
0.0
 40
81.5
100
AcDbArc
 50
6.716633813375679
 51
173.2833661866243
  0
LINE
  5
2B6
330
1E
100
AcDbEntity
  8
STEMPEL
100
AcDbLine
 10
174.18599286436
 20
191.7048966172588
 30
0.0
 11
209.2090080360269
 21
191.7048966172597
 31
0.0
  0
LINE
  5
2B7
330
1E
100
AcDbEntity
  8
STEMPEL
100
AcDbLine
 10
174.18599286436
 20
196.7048966172597
 30
0.0
 11
204.2728018985274
 21
196.7048966172597
 31
0.0
  0
LINE
  5
2B8
330
1E
100
AcDbEntity
  8
STEMPEL
100
AcDbLine
 10
174.18599286436
 20
196.7048966172597
 30
0.0
 11
174.1859928643591
 21
191.7048966172588
 31
0.0
  0
LINE
  5
2B9
330
1E
100
AcDbEntity
  8
STEMPEL
100
AcDbLine
 10
369.1629776926932
 20
191.7048966172642
 30
0.0
 11
404.1859928643618
 21
191.7048966172642
 31
0.0
  0
LINE
  5
2BA
330
1E
100
AcDbEntity
  8
STEMPEL
100
AcDbLine
 10
369.1629776926932
 20
189.7048966172542
 30
0.0
 11
404.1859928643628
 21
189.7048966172542
 31
0.0
  0
LINE
  5
2BB
330
1E
100
AcDbEntity
  8
MITTEL
100
AcDbLine
 10
289.1859928643601
 20
277.2048966172588
 30
0.0
 11
289.1859928643601
 21
104.2048966172588
 31
0.0
  0
LINE
  5
2BC
330
1E
100
AcDbEntity
  8
MITTEL
100
AcDbLine
 10
169.185992864359
 20
190.7048966172587
 30
0.0
 11
409.1859928643611
 21
190.7048966172587
 31
0.0
  0
LINE
  5
2BD
330
1E
100
AcDbEntity
  8
STEMPEL
100
AcDbLine
 10
174.18599286436
 20
184.7048966172588
 30
0.0
 11
174.1859928643591
 21
189.7048966172588
 31
0.0
  0
LINE
  5
2BE
330
1E
100
AcDbEntity
  8
STEMPEL
100
AcDbLine
 10
174.18599286436
 20
184.7048966172588
 30
0.0
 11
204.272801898527
 21
184.7048966172588
 31
0.0
  0
LINE
  5
2BF
330
1E
100
AcDbEntity
  8
STEMPEL
100
AcDbLine
 10
174.18599286436
 20
189.7048966172588
 30
0.0
 11
209.2090080360269
 21
189.7048966172588
 31
0.0
  0
ARC
  5
2C0
330
1E
100
AcDbEntity
  8
STEMPEL
100
AcDbCircle
 10
289.1859928643596
 20
190.7048966172587
 30
0.0
 40
81.5
100
AcDbArc
 50
186.7166338133756
 51
353.2833661866243
  0
LINE
  5
2C1
330
1E
100
AcDbEntity
  8
STEMPEL
100
AcDbLine
 10
374.0991838301927
 20
184.7048966172588
 30
0.0
 11
404.1859928643618
 21
184.7048966172588
 31
0.0
  0
ARC
  5
2C2
330
1E
100
AcDbEntity
  8
STEMPEL
100
AcDbCircle
 10
204.272801898527
 20
180.7048966172579
 30
0.0
 40
4.0
100
AcDbArc
 50
6.716633813375679
 51
90.0
  0
ARC
  5
2C3
330
1E
100
AcDbEntity
  8
STEMPEL
100
AcDbCircle
 10
204.272801898527
 20
180.7048966172579
 30
0.0
 40
9.0
100
AcDbArc
 50
6.716633813375679
 51
90.0
  0
ARC
  5
2C4
330
1E
100
AcDbEntity
  8
STEMPEL
100
AcDbCircle
 10
374.0991838301923
 20
180.7048966172579
 30
0.0
 40
4.0
100
AcDbArc
 50
90.0
 51
173.2833661866243
  0
ARC
  5
2C5
330
1E
100
AcDbEntity
  8
STEMPEL
100
AcDbCircle
 10
374.0991838301923
 20
180.7048966172579
 30
0.0
 40
9.0
100
AcDbArc
 50
90.0
 51
173.2833661866243
  0
LINE
  5
2CD
330
1E
100
AcDbEntity
  8
MITTEL
100
AcDbLine
 10
409.18599286436
 20
449.1268429756212
 30
0.0
 11
169.18599286436
 21
449.1268429756017
 31
0.0
  0
LINE
  5
2D1
330
1E
100
AcDbEntity
  8
STEMPEL
100
AcDbLine
 10
174.1859928643596
 20
491.626842975625
 30
0.0
 11
179.1859928643596
 21
496.6268429756251
 31
0.0
  0
LINE
  5
2D2
330
1E
100
AcDbEntity
  8
STEMPEL
100
AcDbLine
 10
179.1859928643605
 20
401.6268429756246
 30
0.0
 11
174.1859928643605
 21
406.6268429756246
 31
0.0
  0
LINE
  5
2D3
330
1E
100
AcDbEntity
  8
STEMPEL
100
AcDbLine
 10
404.1859928643605
 20
491.6268429756255
 30
0.0
 11
399.1859928643605
 21
496.6268429756255
 31
0.0
  0
LINE
  5
2D4
330
1E
100
AcDbEntity
  8
STEMPEL
100
AcDbLine
 10
404.1859928643596
 20
406.6268429756259
 30
0.0
 11
399.1859928643596
 21
401.626842975626
 31
0.0
  0
LINE
  5
2D5
330
1E
100
AcDbEntity
  8
HILF
100
AcDbLine
 10
212.5859928643602
 20
420.6262190879311
 30
0.0
 11
212.5859928643592
 21
401.6268429756251
 31
0.0
  0
ARC
  5
2D6
330
1E
100
AcDbEntity
  8
HILF
100
AcDbCircle
 10
199.585992864361
 20
420.6262190879315
 30
0.0
 40
13.0
100
AcDbArc
 50
0.0
 51
25.0078332346917
  0
ARC
  5
2D7
330
1E
100
AcDbEntity
  8
HILF
100
AcDbCircle
 10
243.0859928643601
 20
440.9178429756348
 30
0.0
 40
35.0
100
AcDbArc
 50
180.0
 51
205.0078332346917
  0
LINE
  5
2D8
330
1E
100
AcDbEntity
  8
HILF
100
AcDbLine
 10
208.0859928643592
 20
478.1268429756332
 30
0.0
 11
208.0859928643592
 21
440.9178429756325
 31
0.0
  0
LINE
  5
2D9
330
1E
100
AcDbEntity
  8
HILF
100
AcDbLine
 10
207.6859928643596
 20
478.5268429756338
 30
0.0
 11
208.0859928643592
 21
478.1268429756342
 31
0.0
  0
LINE
  5
2DA
330
1E
100
AcDbEntity
  8
HILF
100
AcDbLine
 10
207.6859928643596
 20
489.1268429756315
 30
0.0
 11
207.6859928643596
 21
478.5268429756338
 31
0.0
  0
ARC
  5
2DB
330
1E
100
AcDbEntity
  8
HILF
100
AcDbCircle
 10
215.1859928643596
 20
489.1268429756319
 30
0.0
 40
7.5
100
AcDbArc
 50
90.0
 51
180.0
  0
ARC
  5
2DC
330
1E
100
AcDbEntity
  8
HILF
100
AcDbCircle
 10
363.1859928643596
 20
489.1268429756319
 30
0.0
 40
7.5
100
AcDbArc
 50
0.0
 51
90.0
  0
LINE
  5
2DD
330
1E
100
AcDbEntity
  8
HILF
100
AcDbLine
 10
370.6859928643596
 20
489.1268429756315
 30
0.0
 11
370.6859928643596
 21
478.5268429756338
 31
0.0
  0
LINE
  5
2DE
330
1E
100
AcDbEntity
  8
HILF
100
AcDbLine
 10
370.6859928643596
 20
478.5268429756338
 30
0.0
 11
370.28599286436
 21
478.1268429756342
 31
0.0
  0
LINE
  5
2DF
330
1E
100
AcDbEntity
  8
HILF
100
AcDbLine
 10
370.28599286436
 20
478.1268429756332
 30
0.0
 11
370.28599286436
 21
440.9178429756325
 31
0.0
  0
ARC
  5
2E0
330
1E
100
AcDbEntity
  8
HILF
100
AcDbCircle
 10
335.285992864359
 20
440.9178429756348
 30
0.0
 40
35.0
100
AcDbArc
 50
334.9921667653083
 51
0.0
  0
ARC
  5
2E1
330
1E
100
AcDbEntity
  8
HILF
100
AcDbCircle
 10
378.7859928643582
 20
420.6262190879315
 30
0.0
 40
13.0
100
AcDbArc
 50
154.9921667653083
 51
180.0
  0
LINE
  5
2E2
330
1E
100
AcDbEntity
  8
HILF
100
AcDbLine
 10
365.7859928643591
 20
420.6262190879311
 30
0.0
 11
365.7859928643591
 21
401.626842975626
 31
0.0
  0
LINE
  5
2E3
330
1E
100
AcDbEntity
  8
MITTEL
100
AcDbLine
 10
289.1859928643596
 20
501.6268429756252
 30
0.0
 11
289.1859928643605
 21
396.6268429756253
 31
0.0
  0
LINE
  5
2E4
330
1E
100
AcDbEntity
  8
STEMPEL
100
AcDbLine
 10
370.6859928643605
 20
478.5268429756338
 30
0.0
 11
207.6859928643587
 21
478.5268429756338
 31
0.0
  0
LINE
  5
2E5
330
1E
100
AcDbEntity
  8
HILF
100
AcDbLine
 10
370.2859928643591
 20
478.1268429756332
 30
0.0
 11
208.0859928643601
 21
478.1268429756332
 31
0.0
  0
LINE
  5
2E8
330
1E
100
AcDbEntity
  8
HILF
100
AcDbLine
 10
367.6859928643596
 20
489.1268429756324
 30
0.0
 11
210.6859928643597
 21
489.1268429756014
 31
0.0
  0
LINE
  5
2E9
330
1E
100
AcDbEntity
  8
STEMPEL
100
AcDbLine
 10
399.1859928643605
 20
496.6268429756255
 30
0.0
 11
179.1859928643596
 21
496.6268429756251
 31
0.0
  0
LINE
  5
2EA
330
1E
100
AcDbEntity
  8
STEMPEL
100
AcDbLine
 10
174.1859928643605
 20
406.6268429756246
 30
0.0
 11
174.1859928643596
 21
491.626842975625
 31
0.0
  0
LINE
  5
2EB
330
1E
100
AcDbEntity
  8
STEMPEL
100
AcDbLine
 10
404.1859928643596
 20
406.6268429756259
 30
0.0
 11
404.1859928643605
 21
491.6268429756255
 31
0.0
  0
LINE
  5
2EC
330
1E
100
AcDbEntity
  8
STEMPEL
100
AcDbLine
 10
399.1859928643596
 20
401.626842975626
 30
0.0
 11
179.1859928643605
 21
401.6268429756246
 31
0.0
  0
CIRCLE
  5
2ED
330
1E
100
AcDbEntity
  8
STEMPEL
100
AcDbCircle
 10
380.1859928643596
 20
414.1268429756283
 30
0.0
 40
5.5
  0
CIRCLE
  5
2EE
330
1E
100
AcDbEntity
  8
STEMPEL
100
AcDbCircle
 10
384.1859928643596
 20
449.1268429756205
 30
0.0
 40
5.5
  0
CIRCLE
  5
2EF
330
1E
100
AcDbEntity
  8
STEMPEL
100
AcDbCircle
 10
384.1859928643596
 20
484.1268429756246
 30
0.0
 40
5.5
  0
CIRCLE
  5
2F0
330
1E
100
AcDbEntity
  8
STEMPEL
100
AcDbCircle
 10
198.1859928643596
 20
414.1268429756283
 30
0.0
 40
5.5
  0
CIRCLE
  5
2F1
330
1E
100
AcDbEntity
  8
STEMPEL
100
AcDbCircle
 10
194.1859928643578
 20
449.1268429756205
 30
0.0
 40
5.5
  0
CIRCLE
  5
2F2
330
1E
100
AcDbEntity
  8
STEMPEL
100
AcDbCircle
 10
194.1859928643578
 20
484.1268429756246
 30
0.0
 40
5.5
  0
LINE
  5
317
330
1E
100
AcDbEntity
  8
MITTEL
100
AcDbLine
 10
622.4614394185606
 20
501.6268429756252
 30
0.0
 11
622.4614394185611
 21
396.6268429756666
 31
0.0
  0
LINE
  5
318
330
1E
100
AcDbEntity
  8
STEMPEL
100
AcDbLine
 10
623.4614394185443
 20
401.6268429756665
 30
0.0
 11
623.4614394185314
 21
496.6268429756255
 31
0.0
  0
LINE
  5
31C
330
1E
100
AcDbEntity
  8
STEMPEL
100
AcDbLine
 10
699.0614394185603
 20
401.6268429756523
 30
0.0
 11
623.4614394185443
 21
401.6268429756665
 31
0.0
  0
LINE
  5
31E
330
1E
100
AcDbEntity
  8
STEMPEL
100
AcDbLine
 10
703.9614394185607
 20
489.1268429756543
 30
0.0
 11
703.9614394185611
 21
476.4557751637962
 31
0.0
  0
LINE
  5
31F
330
1E
100
AcDbEntity
  8
STEMPEL
100
AcDbLine
 10
696.4614394185588
 20
496.626842975655
 30
0.0
 11
623.4614394185314
 21
496.6268429756255
 31
0.0
  0
ARC
  5
325
330
1E
100
AcDbEntity
  8
STEMPEL
100
AcDbCircle
 10
668.561439418561
 20
440.9178429756551
 30
0.0
 40
35.0
100
AcDbArc
 50
334.9921667653096
 51
0.0
  0
ARC
  5
326
330
1E
100
AcDbEntity
  8
STEMPEL
100
AcDbCircle
 10
712.0614394185605
 20
420.6262190879527
 30
0.0
 40
13.0
100
AcDbArc
 50
154.9921667653096
 51
180.0
  0
LINE
  5
327
330
1E
100
AcDbEntity
  8
STEMPEL
100
AcDbLine
 10
699.0614394185605
 20
420.6262190879519
 30
0.0
 11
699.0614394185603
 21
401.6268429756523
 31
0.0
  0
LINE
  5
328
330
1E
100
AcDbEntity
  8
STEMPEL
100
AcDbLine
 10
703.561439418561
 20
476.0557751637938
 30
0.0
 11
703.561439418561
 21
440.9178429756543
 31
0.0
  0
LINE
  5
329
330
1E
100
AcDbEntity
  8
STEMPEL
100
AcDbLine
 10
703.9614394185606
 20
476.4557751637943
 30
0.0
 11
703.561439418561
 21
476.0557751637938
 31
0.0
  0
ARC
  5
32B
330
1E
100
AcDbEntity
  8
STEMPEL
100
AcDbCircle
 10
696.4614394185606
 20
489.1268429756541
 30
0.0
 40
7.5
100
AcDbArc
 50
0.0
 51
90.00000000002605
  0
LINE
  5
34A
330
1E
100
AcDbEntity
  8
STEMPEL
100
AcDbLine
 10
205.3359928643547
 20
198.1920887245624
 30
0.0
 11
205.3359928643547
 21
196.8487813479527
 31
0.0
  0
LINE
  5
34B
330
1E
100
AcDbEntity
  8
STEMPEL
100
AcDbLine
 10
183.0359928643547
 20
198.1920887245625
 30
0.0
 11
183.0359928643547
 21
196.7048966172623
 31
0.0
  0
ARC
  5
34D
330
1E
100
AcDbEntity
  8
STEMPEL
100
AcDbCircle
 10
202.1239755739535
 20
192.2359534891779
 30
0.0
 40
6.76702312808409
100
AcDbArc
 50
61.66295729176995
 51
118.3370427082082
  0
ARC
  5
34E
330
1E
100
AcDbEntity
  8
STEMPEL
100
AcDbCircle
 10
194.1859928643546
 20
184.8257466172618
 30
0.0
 40
14.17723
100
AcDbArc
 50
70.52782738137288
 51
109.4721726186271
  0
ARC
  5
34F
330
1E
100
AcDbEntity
  8
STEMPEL
100
AcDbCircle
 10
186.2480101547552
 20
192.2359534891802
 30
0.0
 40
6.767023128081929
100
AcDbArc
 50
61.66295729178453
 51
118.3370427082337
  0
ARC
  5
350
330
1E
100
AcDbEntity
  8
STEMPEL
100
AcDbCircle
 10
201.2749409931614
 20
202.0565064521639
 30
0.0
 40
3.848390227184345
100
AcDbArc
 50
58.5308054759296
 51
127.8806357171744
  0
LINE
  5
351
330
1E
100
AcDbEntity
  8
STEMPEL
100
AcDbLine
 10
187.0977360259487
 20
205.90489661726
 30
0.0
 11
201.2742497027605
 21
205.90489661726
 31
0.0
  0
LINE
  5
352
330
1E
100
AcDbEntity
  8
STEMPEL
100
AcDbLine
 10
198.9119582835613
 20
204.6263850640522
 30
0.0
 11
198.9119582835602
 21
198.1920887245614
 31
0.0
  0
LINE
  5
353
330
1E
100
AcDbEntity
  8
STEMPEL
100
AcDbLine
 10
189.4600274451607
 20
204.6263850640522
 30
0.0
 11
189.4600274451607
 21
198.19208872456
 31
0.0
  0
LINE
  5
354
330
1E
100
AcDbEntity
  8
STEMPEL
100
AcDbLine
 10
184.7340620259604
 20
204.6263850640522
 30
0.0
 11
184.7340620259604
 21
198.8314491551111
 31
0.0
  0
ARC
  5
355
330
1E
100
AcDbEntity
  8
STEMPEL
100
AcDbCircle
 10
194.185992864361
 20
191.7276666172598
 30
0.0
 40
14.17723
100
AcDbArc
 50
70.52782738137288
 51
109.4721726186271
  0
ARC
  5
356
330
1E
100
AcDbEntity
  8
STEMPEL
100
AcDbCircle
 10
187.0970447355614
 20
202.0565064521639
 30
0.0
 40
3.848390227184345
100
AcDbArc
 50
52.11936428282561
 51
121.4691945240704
  0
LINE
  5
357
330
1E
100
AcDbEntity
  8
STEMPEL
100
AcDbLine
 10
184.7340620259604
 20
205.1345151578658
 30
0.0
 11
185.2589335185805
 21
205.4375498554196
 31
0.0
  0
LINE
  5
358
330
1E
100
AcDbEntity
  8
STEMPEL
100
AcDbLine
 10
184.7340620259604
 20
204.6263850640522
 30
0.0
 11
184.7340620259604
 21
205.1345151578658
 31
0.0
  0
LINE
  5
359
330
1E
100
AcDbEntity
  8
STEMPEL
100
AcDbLine
 10
189.4600274451607
 20
204.6263850640522
 30
0.0
 11
189.4600274451607
 21
205.0940087245613
 31
0.0
  0
LINE
  5
35A
330
1E
100
AcDbEntity
  8
STEMPEL
100
AcDbLine
 10
198.9119582835613
 20
204.6263850640522
 30
0.0
 11
198.9119582835613
 21
205.0940087245613
 31
0.0
  0
LINE
  5
35B
330
1E
100
AcDbEntity
  8
STEMPEL
100
AcDbLine
 10
203.6379237027607
 20
204.6263850640522
 30
0.0
 11
203.6379237027607
 21
198.8314491551084
 31
0.0
  0
LINE
  5
35C
330
1E
100
AcDbEntity
  8
STEMPEL
100
AcDbLine
 10
203.6379237027607
 20
205.1345151578658
 30
0.0
 11
203.1130522101414
 21
205.4375498554196
 31
0.0
  0
LINE
  5
35D
330
1E
100
AcDbEntity
  8
STEMPEL
100
AcDbLine
 10
201.2681628200573
 20
205.90489661726
 30
0.0
 11
201.2742497027468
 21
205.90489661726
 31
0.0
  0
LINE
  5
35E
330
1E
100
AcDbEntity
  8
STEMPEL
100
AcDbLine
 10
203.6379237027607
 20
204.6263850640522
 30
0.0
 11
203.6379237027607
 21
204.970915361801
 31
0.0
  0
LINE
  5
35F
330
1E
100
AcDbEntity
  8
STEMPEL
100
AcDbLine
 10
203.6379237027607
 20
204.970915361801
 30
0.0
 11
203.6379237027607
 21
205.0940087245613
 31
0.0
  0
LINE
  5
360
330
1E
100
AcDbEntity
  8
STEMPEL
100
AcDbLine
 10
203.6379237027607
 20
205.0940087245613
 30
0.0
 11
203.6379237027607
 21
205.1345151578658
 31
0.0
  0
LINE
  5
361
330
1E
100
AcDbEntity
  8
STEMPEL
100
AcDbLine
 10
374.7340620259596
 20
205.0940087245613
 30
0.0
 11
374.7340620259596
 21
205.1345151578658
 31
0.0
  0
LINE
  5
362
330
1E
100
AcDbEntity
  8
STEMPEL
100
AcDbLine
 10
374.7340620259596
 20
204.970915361801
 30
0.0
 11
374.7340620259596
 21
205.0940087245613
 31
0.0
  0
LINE
  5
363
330
1E
100
AcDbEntity
  8
STEMPEL
100
AcDbLine
 10
374.7340620259596
 20
204.6263850640522
 30
0.0
 11
374.7340620259596
 21
204.970915361801
 31
0.0
  0
LINE
  5
364
330
1E
100
AcDbEntity
  8
STEMPEL
100
AcDbLine
 10
377.1038229086628
 20
205.90489661726
 30
0.0
 11
377.0977360259733
 21
205.90489661726
 31
0.0
  0
LINE
  5
365
330
1E
100
AcDbEntity
  8
STEMPEL
100
AcDbLine
 10
374.7340620259596
 20
205.1345151578658
 30
0.0
 11
375.2589335185788
 21
205.4375498554196
 31
0.0
  0
LINE
  5
366
330
1E
100
AcDbEntity
  8
STEMPEL
100
AcDbLine
 10
374.7340620259596
 20
204.6263850640522
 30
0.0
 11
374.7340620259596
 21
198.8314491551084
 31
0.0
  0
LINE
  5
367
330
1E
100
AcDbEntity
  8
STEMPEL
100
AcDbLine
 10
379.4600274451589
 20
204.6263850640522
 30
0.0
 11
379.4600274451589
 21
205.0940087245613
 31
0.0
  0
LINE
  5
368
330
1E
100
AcDbEntity
  8
STEMPEL
100
AcDbLine
 10
388.9119582835594
 20
204.6263850640522
 30
0.0
 11
388.9119582835594
 21
205.0940087245613
 31
0.0
  0
LINE
  5
369
330
1E
100
AcDbEntity
  8
STEMPEL
100
AcDbLine
 10
393.6379237027598
 20
204.6263850640522
 30
0.0
 11
393.6379237027598
 21
205.1345151578658
 31
0.0
  0
LINE
  5
36A
330
1E
100
AcDbEntity
  8
STEMPEL
100
AcDbLine
 10
393.6379237027598
 20
205.1345151578658
 30
0.0
 11
393.1130522101396
 21
205.4375498554196
 31
0.0
  0
ARC
  5
36B
330
1E
100
AcDbEntity
  8
STEMPEL
100
AcDbCircle
 10
391.2749409931587
 20
202.0565064521639
 30
0.0
 40
3.848390227184345
100
AcDbArc
 50
58.53080547592962
 51
127.8806357171744
  0
ARC
  5
36C
330
1E
100
AcDbEntity
  8
STEMPEL
100
AcDbCircle
 10
384.1859928643592
 20
191.7276666172598
 30
0.0
 40
14.17723
100
AcDbArc
 50
70.52782738137292
 51
109.4721726186271
  0
LINE
  5
36D
330
1E
100
AcDbEntity
  8
STEMPEL
100
AcDbLine
 10
393.6379237027598
 20
204.6263850640522
 30
0.0
 11
393.6379237027598
 21
198.8314491551111
 31
0.0
  0
LINE
  5
36E
330
1E
100
AcDbEntity
  8
STEMPEL
100
AcDbLine
 10
388.9119582835594
 20
204.6263850640522
 30
0.0
 11
388.9119582835594
 21
198.19208872456
 31
0.0
  0
LINE
  5
36F
330
1E
100
AcDbEntity
  8
STEMPEL
100
AcDbLine
 10
379.4600274451589
 20
204.6263850640522
 30
0.0
 11
379.46002744516
 21
198.1920887245614
 31
0.0
  0
LINE
  5
370
330
1E
100
AcDbEntity
  8
STEMPEL
100
AcDbLine
 10
391.2742497027714
 20
205.90489661726
 30
0.0
 11
377.0977360259597
 21
205.90489661726
 31
0.0
  0
ARC
  5
371
330
1E
100
AcDbEntity
  8
STEMPEL
100
AcDbCircle
 10
377.0970447355588
 20
202.0565064521639
 30
0.0
 40
3.848390227184345
100
AcDbArc
 50
52.11936428282562
 51
121.4691945240704
  0
ARC
  5
372
330
1E
100
AcDbEntity
  8
STEMPEL
100
AcDbCircle
 10
392.1239755739649
 20
192.2359534891802
 30
0.0
 40
6.767023128081929
100
AcDbArc
 50
61.66295729176633
 51
118.3370427082154
  0
ARC
  5
373
330
1E
100
AcDbEntity
  8
STEMPEL
100
AcDbCircle
 10
384.1859928643656
 20
184.8257466172618
 30
0.0
 40
14.17723
100
AcDbArc
 50
70.52782738137292
 51
109.4721726186271
  0
ARC
  5
374
330
1E
100
AcDbEntity
  8
STEMPEL
100
AcDbCircle
 10
376.2480101547666
 20
192.2359534891779
 30
0.0
 40
6.76702312808409
100
AcDbArc
 50
61.66295729179182
 51
118.33704270823
  0
LINE
  5
375
330
1E
100
AcDbEntity
  8
STEMPEL
100
AcDbLine
 10
395.3359928643655
 20
198.1920887245625
 30
0.0
 11
395.3359928643655
 21
196.7048966172623
 31
0.0
  0
LINE
  5
376
330
1E
100
AcDbEntity
  8
STEMPEL
100
AcDbLine
 10
373.0359928643655
 20
198.1920887245624
 30
0.0
 11
373.0359928643655
 21
196.8487813479527
 31
0.0
  0
LINE
  5
377
330
1E
100
AcDbEntity
  8
STEMPEL
100
AcDbLine
 10
628.4614394185443
 20
401.6268429756671
 30
0.0
 11
628.4614394185314
 21
496.6268429756262
 31
0.0
  0
LINE
  5
378
330
1E
100
AcDbEntity
  8
STEMPEL
100
AcDbLine
 10
616.4614394185776
 20
401.6268429756671
 30
0.0
 11
616.4614394185898
 21
496.6268429756262
 31
0.0
  0
ARC
  5
379
330
1E
100
AcDbEntity
  8
STEMPEL
100
AcDbCircle
 10
548.4614394185607
 20
489.1268429756535
 30
0.0
 40
7.5
100
AcDbArc
 50
89.99999999997445
 51
180.0000000000005
  0
LINE
  5
37A
330
1E
100
AcDbEntity
  8
STEMPEL
100
AcDbLine
 10
540.9614394185608
 20
476.4557751637936
 30
0.0
 11
541.3614394185604
 21
476.0557751637931
 31
0.0
  0
LINE
  5
37B
330
1E
100
AcDbEntity
  8
STEMPEL
100
AcDbLine
 10
541.3614394185604
 20
476.0557751637931
 30
0.0
 11
541.3614394185607
 21
440.9178429756535
 31
0.0
  0
LINE
  5
37C
330
1E
100
AcDbEntity
  8
STEMPEL
100
AcDbLine
 10
545.8614394185614
 20
420.6262190879512
 30
0.0
 11
545.8614394185617
 21
401.6268429756516
 31
0.0
  0
ARC
  5
37D
330
1E
100
AcDbEntity
  8
STEMPEL
100
AcDbCircle
 10
532.8614394185613
 20
420.6262190879519
 30
0.0
 40
13.0
100
AcDbArc
 50
0.0000000000005033
 51
25.00783323469084
  0
ARC
  5
37E
330
1E
100
AcDbEntity
  8
STEMPEL
100
AcDbCircle
 10
576.3614394185607
 20
440.9178429756547
 30
0.0
 40
35.0
100
AcDbArc
 50
180.0000000000005
 51
205.0078332346908
  0
LINE
  5
37F
330
1E
100
AcDbEntity
  8
STEMPEL
100
AcDbLine
 10
548.4614394185625
 20
496.6268429756544
 30
0.0
 11
621.4614394185899
 21
496.6268429756255
 31
0.0
  0
LINE
  5
380
330
1E
100
AcDbEntity
  8
STEMPEL
100
AcDbLine
 10
540.9614394185606
 20
489.1268429756536
 30
0.0
 11
540.9614394185604
 21
476.4557751637955
 31
0.0
  0
LINE
  5
381
330
1E
100
AcDbEntity
  8
STEMPEL
100
AcDbLine
 10
545.8614394185617
 20
401.6268429756516
 30
0.0
 11
621.4614394185778
 21
401.6268429756665
 31
0.0
  0
LINE
  5
382
330
1E
100
AcDbEntity
  8
STEMPEL
100
AcDbLine
 10
621.4614394185777
 20
401.6268429756665
 30
0.0
 11
621.4614394185899
 21
496.6268429756255
 31
0.0
  0
LINE
  5
396
330
1E
100
AcDbEntity
  8
MITTEL
100
AcDbLine
 10
198.1859928643596
 20
403.6268429756282
 30
0.0
 11
198.1859928643605
 21
424.6268429756282
 31
0.0
  0
LINE
  5
397
330
1E
100
AcDbEntity
  8
MITTEL
100
AcDbLine
 10
208.6859928643596
 20
414.1268429756274
 30
0.0
 11
187.6859928643596
 21
414.1268429756287
 31
0.0
  0
LINE
  5
398
330
1E
100
AcDbEntity
  8
MITTEL
100
AcDbLine
 10
198.1859928643407
 20
430.2768429756282
 30
0.0
 11
198.1859928643786
 21
397.9768429756283
 31
0.0
  0
LINE
  5
399
330
1E
100
AcDbEntity
  8
MITTEL
100
AcDbLine
 10
214.3359928643596
 20
414.126842975652
 30
0.0
 11
182.0359928643596
 21
414.1268429756028
 31
0.0
  0
LINE
  5
39A
330
1E
100
AcDbEntity
  8
STEMPEL
100
AcDbLine
 10
188.371038288136
 20
414.1268429756283
 30
0.0
 11
193.2785155762477
 21
405.6268429756283
 31
0.0
  0
LINE
  5
39B
330
1E
100
AcDbEntity
  8
STEMPEL
100
AcDbLine
 10
193.2785155762477
 20
405.6268429756283
 30
0.0
 11
203.0934701524714
 21
405.6268429756283
 31
0.0
  0
LINE
  5
39C
330
1E
100
AcDbEntity
  8
STEMPEL
100
AcDbLine
 10
203.0934701524714
 20
405.6268429756283
 30
0.0
 11
208.0009474405832
 21
414.1268429756283
 31
0.0
  0
ARC
  5
39D
330
1E
100
AcDbEntity
  8
HILF
100
AcDbCircle
 10
198.1859928643596
 20
414.1268429756283
 30
0.0
 40
4.0
100
AcDbArc
 50
195.0000000000991
 51
105.0000000000671
  0
CIRCLE
  5
39E
330
1E
100
AcDbEntity
  8
STEMPEL
100
AcDbCircle
 10
198.1859928643596
 20
414.1268429756283
 30
0.0
 40
5.0
  0
LINE
  5
39F
330
1E
100
AcDbEntity
  8
STEMPEL
100
AcDbLine
 10
193.2785155762478
 20
422.6268429756283
 30
0.0
 11
188.371038288136
 21
414.1268429756283
 31
0.0
  0
CIRCLE
  5
3A0
330
1E
100
AcDbEntity
  8
STEMPEL
100
AcDbCircle
 10
198.1859928643596
 20
414.1268429756283
 30
0.0
 40
11.0
  0
CIRCLE
  5
3A1
330
1E
100
AcDbEntity
  8
STEMPEL
100
AcDbCircle
 10
198.1859928643596
 20
414.1268429756283
 30
0.0
 40
8.5
  0
LINE
  5
3A2
330
1E
100
AcDbEntity
  8
STEMPEL
100
AcDbLine
 10
208.0009474405832
 20
414.1268429756283
 30
0.0
 11
203.0934701524715
 21
422.6268429756283
 31
0.0
  0
LINE
  5
3A3
330
1E
100
AcDbEntity
  8
STEMPEL
100
AcDbLine
 10
203.0934701524715
 20
422.6268429756283
 30
0.0
 11
193.2785155762478
 21
422.6268429756283
 31
0.0
  0
LINE
  5
3B7
330
1E
100
AcDbEntity
  8
MITTEL
100
AcDbLine
 10
194.1859928643578
 20
438.6268429756206
 30
0.0
 11
194.1859928643587
 21
459.6268429756205
 31
0.0
  0
LINE
  5
3B9
330
1E
100
AcDbEntity
  8
MITTEL
100
AcDbLine
 10
194.1859928643389
 20
465.2768429756205
 30
0.0
 11
194.1859928643767
 21
432.9768429756206
 31
0.0
  0
LINE
  5
3BB
330
1E
100
AcDbEntity
  8
STEMPEL
100
AcDbLine
 10
184.3710382881342
 20
449.1268429756205
 30
0.0
 11
189.2785155762459
 21
440.6268429756205
 31
0.0
  0
LINE
  5
3BC
330
1E
100
AcDbEntity
  8
STEMPEL
100
AcDbLine
 10
189.2785155762459
 20
440.6268429756205
 30
0.0
 11
199.0934701524695
 21
440.6268429756205
 31
0.0
  0
LINE
  5
3BD
330
1E
100
AcDbEntity
  8
STEMPEL
100
AcDbLine
 10
199.0934701524695
 20
440.6268429756205
 30
0.0
 11
204.0009474405814
 21
449.1268429756205
 31
0.0
  0
ARC
  5
3BE
330
1E
100
AcDbEntity
  8
HILF
100
AcDbCircle
 10
194.1859928643578
 20
449.1268429756205
 30
0.0
 40
4.0
100
AcDbArc
 50
195.0000000000991
 51
105.0000000000671
  0
CIRCLE
  5
3BF
330
1E
100
AcDbEntity
  8
STEMPEL
100
AcDbCircle
 10
194.1859928643578
 20
449.1268429756205
 30
0.0
 40
5.0
  0
LINE
  5
3C0
330
1E
100
AcDbEntity
  8
STEMPEL
100
AcDbLine
 10
189.278515576246
 20
457.6268429756205
 30
0.0
 11
184.3710382881342
 21
449.1268429756205
 31
0.0
  0
CIRCLE
  5
3C1
330
1E
100
AcDbEntity
  8
STEMPEL
100
AcDbCircle
 10
194.1859928643578
 20
449.1268429756205
 30
0.0
 40
11.0
  0
CIRCLE
  5
3C2
330
1E
100
AcDbEntity
  8
STEMPEL
100
AcDbCircle
 10
194.1859928643578
 20
449.1268429756205
 30
0.0
 40
8.5
  0
LINE
  5
3C3
330
1E
100
AcDbEntity
  8
STEMPEL
100
AcDbLine
 10
204.0009474405814
 20
449.1268429756205
 30
0.0
 11
199.0934701524696
 21
457.6268429756205
 31
0.0
  0
LINE
  5
3C4
330
1E
100
AcDbEntity
  8
STEMPEL
100
AcDbLine
 10
199.0934701524696
 20
457.6268429756205
 30
0.0
 11
189.278515576246
 21
457.6268429756205
 31
0.0
  0
LINE
  5
3D8
330
1E
100
AcDbEntity
  8
MITTEL
100
AcDbLine
 10
194.1859928643578
 20
473.6268429756246
 30
0.0
 11
194.1859928643587
 21
494.6268429756246
 31
0.0
  0
LINE
  5
3D9
330
1E
100
AcDbEntity
  8
MITTEL
100
AcDbLine
 10
204.6859928643578
 20
484.1268429756238
 30
0.0
 11
183.6859928643578
 21
484.1268429756251
 31
0.0
  0
LINE
  5
3DA
330
1E
100
AcDbEntity
  8
MITTEL
100
AcDbLine
 10
194.1859928643389
 20
500.2768429756246
 30
0.0
 11
194.1859928643767
 21
467.9768429756246
 31
0.0
  0
LINE
  5
3DB
330
1E
100
AcDbEntity
  8
MITTEL
100
AcDbLine
 10
210.3359928643578
 20
484.1268429756483
 30
0.0
 11
178.0359928643578
 21
484.1268429755992
 31
0.0
  0
LINE
  5
3DC
330
1E
100
AcDbEntity
  8
STEMPEL
100
AcDbLine
 10
184.3710382881342
 20
484.1268429756246
 30
0.0
 11
189.2785155762459
 21
475.6268429756246
 31
0.0
  0
LINE
  5
3DD
330
1E
100
AcDbEntity
  8
STEMPEL
100
AcDbLine
 10
189.2785155762459
 20
475.6268429756246
 30
0.0
 11
199.0934701524695
 21
475.6268429756246
 31
0.0
  0
LINE
  5
3DE
330
1E
100
AcDbEntity
  8
STEMPEL
100
AcDbLine
 10
199.0934701524695
 20
475.6268429756246
 30
0.0
 11
204.0009474405814
 21
484.1268429756246
 31
0.0
  0
ARC
  5
3DF
330
1E
100
AcDbEntity
  8
HILF
100
AcDbCircle
 10
194.1859928643578
 20
484.1268429756246
 30
0.0
 40
4.0
100
AcDbArc
 50
195.0000000000991
 51
105.0000000000671
  0
CIRCLE
  5
3E0
330
1E
100
AcDbEntity
  8
STEMPEL
100
AcDbCircle
 10
194.1859928643578
 20
484.1268429756246
 30
0.0
 40
5.0
  0
LINE
  5
3E1
330
1E
100
AcDbEntity
  8
STEMPEL
100
AcDbLine
 10
189.278515576246
 20
492.6268429756246
 30
0.0
 11
184.3710382881342
 21
484.1268429756246
 31
0.0
  0
CIRCLE
  5
3E2
330
1E
100
AcDbEntity
  8
STEMPEL
100
AcDbCircle
 10
194.1859928643578
 20
484.1268429756246
 30
0.0
 40
11.0
  0
CIRCLE
  5
3E3
330
1E
100
AcDbEntity
  8
STEMPEL
100
AcDbCircle
 10
194.1859928643578
 20
484.1268429756246
 30
0.0
 40
8.5
  0
LINE
  5
3E4
330
1E
100
AcDbEntity
  8
STEMPEL
100
AcDbLine
 10
204.0009474405814
 20
484.1268429756246
 30
0.0
 11
199.0934701524696
 21
492.6268429756246
 31
0.0
  0
LINE
  5
3E5
330
1E
100
AcDbEntity
  8
STEMPEL
100
AcDbLine
 10
199.0934701524696
 20
492.6268429756246
 30
0.0
 11
189.278515576246
 21
492.6268429756246
 31
0.0
  0
LINE
  5
3F9
330
1E
100
AcDbEntity
  8
MITTEL
100
AcDbLine
 10
384.1859928643596
 20
473.6268429756246
 30
0.0
 11
384.1859928643605
 21
494.6268429756246
 31
0.0
  0
LINE
  5
3FA
330
1E
100
AcDbEntity
  8
MITTEL
100
AcDbLine
 10
394.6859928643596
 20
484.1268429756238
 30
0.0
 11
373.6859928643596
 21
484.1268429756251
 31
0.0
  0
LINE
  5
3FB
330
1E
100
AcDbEntity
  8
MITTEL
100
AcDbLine
 10
384.1859928643407
 20
500.2768429756246
 30
0.0
 11
384.1859928643786
 21
467.9768429756246
 31
0.0
  0
LINE
  5
3FC
330
1E
100
AcDbEntity
  8
MITTEL
100
AcDbLine
 10
400.3359928643595
 20
484.1268429756483
 30
0.0
 11
368.0359928643596
 21
484.1268429755992
 31
0.0
  0
LINE
  5
3FD
330
1E
100
AcDbEntity
  8
STEMPEL
100
AcDbLine
 10
374.371038288136
 20
484.1268429756246
 30
0.0
 11
379.2785155762477
 21
475.6268429756246
 31
0.0
  0
LINE
  5
3FE
330
1E
100
AcDbEntity
  8
STEMPEL
100
AcDbLine
 10
379.2785155762477
 20
475.6268429756246
 30
0.0
 11
389.0934701524713
 21
475.6268429756246
 31
0.0
  0
LINE
  5
3FF
330
1E
100
AcDbEntity
  8
STEMPEL
100
AcDbLine
 10
389.0934701524713
 20
475.6268429756246
 30
0.0
 11
394.0009474405832
 21
484.1268429756246
 31
0.0
  0
ARC
  5
400
330
1E
100
AcDbEntity
  8
HILF
100
AcDbCircle
 10
384.1859928643596
 20
484.1268429756246
 30
0.0
 40
4.0
100
AcDbArc
 50
195.0000000000987
 51
105.0000000000655
  0
CIRCLE
  5
401
330
1E
100
AcDbEntity
  8
STEMPEL
100
AcDbCircle
 10
384.1859928643596
 20
484.1268429756246
 30
0.0
 40
5.0
  0
LINE
  5
402
330
1E
100
AcDbEntity
  8
STEMPEL
100
AcDbLine
 10
379.2785155762479
 20
492.6268429756246
 30
0.0
 11
374.371038288136
 21
484.1268429756246
 31
0.0
  0
CIRCLE
  5
403
330
1E
100
AcDbEntity
  8
STEMPEL
100
AcDbCircle
 10
384.1859928643596
 20
484.1268429756246
 30
0.0
 40
11.0
  0
CIRCLE
  5
404
330
1E
100
AcDbEntity
  8
STEMPEL
100
AcDbCircle
 10
384.1859928643596
 20
484.1268429756246
 30
0.0
 40
8.5
  0
LINE
  5
405
330
1E
100
AcDbEntity
  8
STEMPEL
100
AcDbLine
 10
394.0009474405832
 20
484.1268429756246
 30
0.0
 11
389.0934701524715
 21
492.6268429756246
 31
0.0
  0
LINE
  5
406
330
1E
100
AcDbEntity
  8
STEMPEL
100
AcDbLine
 10
389.0934701524715
 20
492.6268429756246
 30
0.0
 11
379.2785155762479
 21
492.6268429756246
 31
0.0
  0
LINE
  5
43B
330
1E
100
AcDbEntity
  8
MITTEL
100
AcDbLine
 10
384.1859928643596
 20
438.6268429756206
 30
0.0
 11
384.1859928643605
 21
459.6268429756205
 31
0.0
  0
LINE
  5
43D
330
1E
100
AcDbEntity
  8
MITTEL
100
AcDbLine
 10
384.1859928643407
 20
465.2768429756205
 30
0.0
 11
384.1859928643786
 21
432.9768429756206
 31
0.0
  0
LINE
  5
43F
330
1E
100
AcDbEntity
  8
STEMPEL
100
AcDbLine
 10
374.371038288136
 20
449.1268429756205
 30
0.0
 11
379.2785155762477
 21
440.6268429756205
 31
0.0
  0
LINE
  5
440
330
1E
100
AcDbEntity
  8
STEMPEL
100
AcDbLine
 10
379.2785155762477
 20
440.6268429756205
 30
0.0
 11
389.0934701524713
 21
440.6268429756205
 31
0.0
  0
LINE
  5
441
330
1E
100
AcDbEntity
  8
STEMPEL
100
AcDbLine
 10
389.0934701524713
 20
440.6268429756205
 30
0.0
 11
394.0009474405832
 21
449.1268429756205
 31
0.0
  0
ARC
  5
442
330
1E
100
AcDbEntity
  8
HILF
100
AcDbCircle
 10
384.1859928643596
 20
449.1268429756205
 30
0.0
 40
4.0
100
AcDbArc
 50
195.0000000000987
 51
105.0000000000655
  0
CIRCLE
  5
443
330
1E
100
AcDbEntity
  8
STEMPEL
100
AcDbCircle
 10
384.1859928643596
 20
449.1268429756205
 30
0.0
 40
5.0
  0
LINE
  5
444
330
1E
100
AcDbEntity
  8
STEMPEL
100
AcDbLine
 10
379.2785155762479
 20
457.6268429756205
 30
0.0
 11
374.371038288136
 21
449.1268429756205
 31
0.0
  0
CIRCLE
  5
445
330
1E
100
AcDbEntity
  8
STEMPEL
100
AcDbCircle
 10
384.1859928643596
 20
449.1268429756205
 30
0.0
 40
11.0
  0
CIRCLE
  5
446
330
1E
100
AcDbEntity
  8
STEMPEL
100
AcDbCircle
 10
384.1859928643596
 20
449.1268429756205
 30
0.0
 40
8.5
  0
LINE
  5
447
330
1E
100
AcDbEntity
  8
STEMPEL
100
AcDbLine
 10
394.0009474405832
 20
449.1268429756205
 30
0.0
 11
389.0934701524715
 21
457.6268429756205
 31
0.0
  0
LINE
  5
448
330
1E
100
AcDbEntity
  8
STEMPEL
100
AcDbLine
 10
389.0934701524715
 20
457.6268429756205
 30
0.0
 11
379.2785155762479
 21
457.6268429756205
 31
0.0
  0
LINE
  5
47D
330
1E
100
AcDbEntity
  8
MITTEL
100
AcDbLine
 10
380.1859928643596
 20
403.6268429756282
 30
0.0
 11
380.1859928643605
 21
424.6268429756282
 31
0.0
  0
LINE
  5
47E
330
1E
100
AcDbEntity
  8
MITTEL
100
AcDbLine
 10
390.6859928643596
 20
414.1268429756274
 30
0.0
 11
369.6859928643596
 21
414.1268429756287
 31
0.0
  0
LINE
  5
47F
330
1E
100
AcDbEntity
  8
MITTEL
100
AcDbLine
 10
380.1859928643407
 20
430.2768429756282
 30
0.0
 11
380.1859928643786
 21
397.9768429756283
 31
0.0
  0
LINE
  5
480
330
1E
100
AcDbEntity
  8
MITTEL
100
AcDbLine
 10
396.3359928643596
 20
414.126842975652
 30
0.0
 11
364.0359928643596
 21
414.1268429756028
 31
0.0
  0
LINE
  5
481
330
1E
100
AcDbEntity
  8
STEMPEL
100
AcDbLine
 10
370.371038288136
 20
414.1268429756283
 30
0.0
 11
375.2785155762477
 21
405.6268429756283
 31
0.0
  0
LINE
  5
482
330
1E
100
AcDbEntity
  8
STEMPEL
100
AcDbLine
 10
375.2785155762477
 20
405.6268429756283
 30
0.0
 11
385.0934701524714
 21
405.6268429756283
 31
0.0
  0
LINE
  5
483
330
1E
100
AcDbEntity
  8
STEMPEL
100
AcDbLine
 10
385.0934701524714
 20
405.6268429756283
 30
0.0
 11
390.0009474405832
 21
414.1268429756283
 31
0.0
  0
ARC
  5
484
330
1E
100
AcDbEntity
  8
HILF
100
AcDbCircle
 10
380.1859928643596
 20
414.1268429756283
 30
0.0
 40
4.0
100
AcDbArc
 50
195.0000000000987
 51
105.0000000000655
  0
CIRCLE
  5
485
330
1E
100
AcDbEntity
  8
STEMPEL
100
AcDbCircle
 10
380.1859928643596
 20
414.1268429756283
 30
0.0
 40
5.0
  0
LINE
  5
486
330
1E
100
AcDbEntity
  8
STEMPEL
100
AcDbLine
 10
375.2785155762479
 20
422.6268429756283
 30
0.0
 11
370.371038288136
 21
414.1268429756283
 31
0.0
  0
CIRCLE
  5
487
330
1E
100
AcDbEntity
  8
STEMPEL
100
AcDbCircle
 10
380.1859928643596
 20
414.1268429756283
 30
0.0
 40
11.0
  0
CIRCLE
  5
488
330
1E
100
AcDbEntity
  8
STEMPEL
100
AcDbCircle
 10
380.1859928643596
 20
414.1268429756283
 30
0.0
 40
8.5
  0
LINE
  5
489
330
1E
100
AcDbEntity
  8
STEMPEL
100
AcDbLine
 10
390.0009474405832
 20
414.1268429756283
 30
0.0
 11
385.0934701524715
 21
422.6268429756283
 31
0.0
  0
LINE
  5
48A
330
1E
100
AcDbEntity
  8
STEMPEL
100
AcDbLine
 10
385.0934701524715
 20
422.6268429756283
 30
0.0
 11
375.2785155762479
 21
422.6268429756283
 31
0.0
  0
DIMENSION
  5
48B
330
1E
100
AcDbEntity
  8
BEM
100
AcDbDimension
  2
*D2
 10
174.1859928643596
 20
508.923863007159
 30
0.0
 11
289.1859928643601
 21
515.423863007159
 31
0.0
 70
    32
 71
     5
 42
230.0000000000009
  3
Standard
100
AcDbAlignedDimension
 13
404.1859928643605
 23
491.6268429756255
 33
0.0
 14
174.1859928643596
 24
491.626842975625
 34
0.0
100
AcDbRotatedDimension
1001
ACAD
1000
DSTYLE
1002
{
1070
    40
1040
2.0
1070
    41
1040
3.5
1070
    42
1040
1.0
1070
    43
1040
7.0
1070
    44
1040
1.0
1070
    73
1070
     0
1070
    74
1070
     0
1070
    77
1070
     1
1070
    78
1070
     8
1070
    79
1070
     2
1070
   140
1040
3.5
1070
   141
1040
1.5
1070
   146
1040
0.5142857142857144
1070
   147
1040
1.5
1070
   172
1070
     1
1070
   178
1070
     1
1070
   179
1070
     2
1070
   271
1070
     2
1070
   272
1070
     2
1070
   284
1070
     8
1070
   285
1070
     8
1070
   286
1070
     8
1002
}
  0
DIMENSION
  5
499
330
1E
100
AcDbEntity
  8
BEM
100
AcDbDimension
  2
*D3
 10
161.1119641295106
 20
496.6268429756251
 30
0.0
 11
154.6119641295105
 21
449.1268429756249
 31
0.0
 70
    32
 71
     5
 42
95.00000000000046
  3
Standard
100
AcDbAlignedDimension
 13
179.1859928643605
 23
401.6268429756246
 33
0.0
 14
179.1859928643596
 24
496.6268429756251
 34
0.0
 50
90.0
100
AcDbRotatedDimension
1001
ACAD
1000
DSTYLE
1002
{
1070
    40
1040
2.0
1070
    41
1040
3.5
1070
    42
1040
1.0
1070
    43
1040
7.0
1070
    44
1040
1.0
1070
    73
1070
     0
1070
    74
1070
     0
1070
    77
1070
     1
1070
    78
1070
     8
1070
    79
1070
     2
1070
   140
1040
3.5
1070
   141
1040
1.5
1070
   146
1040
0.5142857142857144
1070
   147
1040
1.5
1070
   172
1070
     1
1070
   178
1070
     1
1070
   179
1070
     2
1070
   271
1070
     2
1070
   272
1070
     2
1070
   284
1070
     8
1070
   285
1070
     8
1070
   286
1070
     8
1002
}
  0
DIMENSION
  5
4A6
330
1E
100
AcDbEntity
  8
BEM
100
AcDbDimension
  2
*D4
 10
540.9614394185606
 20
507.9170698409934
 30
0.0
 11
622.4614394185606
 21
514.4170698409935
 31
0.0
 70
    32
  1
%%c<>
 71
     5
 42
163.0
  3
Standard
100
AcDbAlignedDimension
 13
703.9614394185606
 23
489.1268429756541
 33
0.0
 14
540.9614394185606
 24
489.1268429756536
 34
0.0
100
AcDbRotatedDimension
1001
ACAD
1000
DSTYLE
1002
{
1070
    40
1040
2.0
1070
    41
1040
3.5
1070
    42
1040
1.0
1070
    43
1040
7.0
1070
    44
1040
1.0
1070
    73
1070
     0
1070
    74
1070
     0
1070
    77
1070
     1
1070
    78
1070
     8
1070
    79
1070
     2
1070
   140
1040
3.5
1070
   141
1040
1.5
1070
   146
1040
0.5142857142857144
1070
   147
1040
1.5
1070
   172
1070
     1
1070
   178
1070
     1
1070
   179
1070
     2
1070
   271
1070
     2
1070
   272
1070
     2
1070
   284
1070
     8
1070
   285
1070
     8
1070
   286
1070
     8
1002
}
  0
DIMENSION
  5
4B3
330
1E
100
AcDbEntity
  8
BEM
100
AcDbDimension
  2
*D5
 10
545.8614394185617
 20
381.0611696329547
 30
0.0
 11
622.461439418561
 21
387.5611696329547
 31
0.0
 70
    32
  1
%%c<>
 71
     5
 42
153.1999999999985
  3
Standard
100
AcDbAlignedDimension
 13
699.0614394185603
 23
401.6268429756523
 33
0.0
 14
545.8614394185617
 24
401.6268429756516
 34
0.0
100
AcDbRotatedDimension
1001
ACAD
1000
DSTYLE
1002
{
1070
    40
1040
2.0
1070
    41
1040
3.5
1070
    42
1040
1.0
1070
    43
1040
7.0
1070
    44
1040
1.0
1070
    73
1070
     0
1070
    74
1070
     0
1070
    77
1070
     1
1070
    78
1070
     8
1070
    79
1070
     2
1070
   140
1040
3.5
1070
   141
1040
1.5
1070
   146
1040
0.5142857142857144
1070
   147
1040
1.5
1070
   172
1070
     1
1070
   178
1070
     1
1070
   179
1070
     2
1070
   271
1070
     2
1070
   272
1070
     2
1070
   284
1070
     8
1070
   285
1070
     8
1070
   286
1070
     8
1002
}
  0
LINE
  5
4D5
330
1E
100
AcDbEntity
  8
STEMPEL
100
AcDbLine
 10
703.9614394185611
 20
476.4557751637962
 30
0.0
 11
638.4674613720043
 21
476.4557751637962
 31
0.0
  0
LINE
  5
4D8
330
1E
100
AcDbEntity
  8
STEMPEL
100
AcDbLine
 10
703.561439418561
 20
476.0557751637938
 30
0.0
 11
638.4674613720043
 21
476.0557751637938
 31
0.0
  0
LINE
  5
4DB
330
1E
100
AcDbEntity
  8
STEMPEL
100
AcDbLine
 10
607.2614394185877
 20
476.0557751637938
 30
0.0
 11
541.3614394185596
 21
476.0557751637938
 31
0.0
  0
LINE
  5
4DC
330
1E
100
AcDbEntity
  8
STEMPEL
100
AcDbLine
 10
607.2614394185877
 20
476.4557751637961
 30
0.0
 11
540.9614394185584
 21
476.4557751637962
 31
0.0
  0
ARC
  5
4EF
330
1E
100
AcDbEntity
  8
STEMPEL
100
AcDbCircle
 10
618.8043662172031
 20
479.8768429756128
 30
0.0
 40
11.54292679861526
100
AcDbArc
 50
158.3959146485002
 51
201.6040853514998
  0
ARC
  5
4F0
330
1E
100
AcDbEntity
  8
STEMPEL
100
AcDbCircle
 10
618.8043662170791
 20
488.3768429756127
 30
0.0
 40
11.54292679849139
100
AcDbArc
 50
158.3959146483859
 51
201.6040853516141
  0
ARC
  5
4F1
330
1E
100
AcDbEntity
  8
STEMPEL
100
AcDbCircle
 10
644.9153582043647
 20
479.8768429756185
 30
0.0
 40
31.25199878577668
100
AcDbArc
 50
172.1840540327353
 51
187.8159459672881
  0
ARC
  5
4F2
330
1E
100
AcDbEntity
  8
STEMPEL
100
AcDbCircle
 10
644.9153582041951
 20
488.3768429756189
 30
0.0
 40
31.25199878560711
100
AcDbArc
 50
172.1840540327353
 51
187.8159459672881
  0
ARC
  5
4F3
330
1E
100
AcDbEntity
  8
STEMPEL
100
AcDbCircle
 10
738.2358594185878
 20
484.1268429756246
 30
0.0
 40
124.5724999999997
100
AcDbArc
 50
183.9125234367693
 51
185.1351946583749
  0
LINE
  5
4F4
330
1E
100
AcDbEntity
  8
STEMPEL
100
AcDbLine
 10
608.0723273112873
 20
484.1268429756246
 30
0.0
 11
613.9536895137703
 21
484.1268429756246
 31
0.0
  0
LINE
  5
4F5
330
1E
100
AcDbEntity
  8
STEMPEL
100
AcDbLine
 10
607.2614394185877
 20
475.6268429756009
 30
0.0
 11
613.9536895137719
 21
475.6268429756009
 31
0.0
  0
LINE
  5
4F6
330
1E
100
AcDbEntity
  8
STEMPEL
100
AcDbLine
 10
607.2614394185877
 20
492.6268429756008
 30
0.0
 11
613.9536895137685
 21
492.6268429756009
 31
0.0
  0
LINE
  5
4F7
330
1E
100
AcDbEntity
  8
STEMPEL
100
AcDbLine
 10
607.2614394185877
 20
475.6268429756009
 30
0.0
 11
607.2614394185877
 21
492.6268429756008
 31
0.0
  0
LINE
  5
4F8
330
1E
100
AcDbEntity
  8
STEMPEL
100
AcDbLine
 10
614.163359418588
 20
472.9768429756245
 30
0.0
 11
616.4614394185877
 21
472.9768429756245
 31
0.0
  0
LINE
  5
4F9
330
1E
100
AcDbEntity
  8
STEMPEL
100
AcDbLine
 10
614.163359418588
 20
495.2768429756246
 30
0.0
 11
616.4614394185877
 21
495.2768429756245
 31
0.0
  0
ARC
  5
4FA
330
1E
100
AcDbEntity
  8
STEMPEL
100
AcDbCircle
 10
738.2358594185878
 20
484.1268429756246
 30
0.0
 40
124.5724999999997
100
AcDbArc
 50
174.8648053416251
 51
176.0874765632534
  0
LINE
  5
4FB
330
1E
100
AcDbEntity
  8
MITTEL
100
AcDbLine
 10
602.2614394185875
 20
484.1268429756246
 30
0.0
 11
651.461439418588
 21
484.1268429756246
 31
0.0
  0
ARC
  5
50E
330
1E
100
AcDbEntity
  8
STEMPEL
100
AcDbCircle
 10
618.8043662171985
 20
444.8768429756094
 30
0.0
 40
11.54292679861526
100
AcDbArc
 50
158.3959146485002
 51
201.6040853514998
  0
ARC
  5
50F
330
1E
100
AcDbEntity
  8
STEMPEL
100
AcDbCircle
 10
618.8043662170746
 20
453.3768429756093
 30
0.0
 40
11.54292679849139
100
AcDbArc
 50
158.3959146483859
 51
201.6040853516141
  0
ARC
  5
510
330
1E
100
AcDbEntity
  8
STEMPEL
100
AcDbCircle
 10
644.9153582043602
 20
444.876842975615
 30
0.0
 40
31.25199878577668
100
AcDbArc
 50
172.1840540327353
 51
187.8159459672881
  0
ARC
  5
511
330
1E
100
AcDbEntity
  8
STEMPEL
100
AcDbCircle
 10
644.9153582041906
 20
453.3768429756155
 30
0.0
 40
31.25199878560711
100
AcDbArc
 50
172.1840540327353
 51
187.8159459672881
  0
ARC
  5
512
330
1E
100
AcDbEntity
  8
STEMPEL
100
AcDbCircle
 10
738.2358594185832
 20
449.1268429756211
 30
0.0
 40
124.5724999999997
100
AcDbArc
 50
183.9125234367693
 51
185.1351946583749
  0
LINE
  5
513
330
1E
100
AcDbEntity
  8
STEMPEL
100
AcDbLine
 10
608.0723273112828
 20
449.1268429756211
 30
0.0
 11
613.9536895137657
 21
449.1268429756211
 31
0.0
  0
LINE
  5
514
330
1E
100
AcDbEntity
  8
STEMPEL
100
AcDbLine
 10
607.2614394185832
 20
440.6268429755975
 30
0.0
 11
613.9536895137673
 21
440.6268429755975
 31
0.0
  0
LINE
  5
515
330
1E
100
AcDbEntity
  8
STEMPEL
100
AcDbLine
 10
607.2614394185832
 20
457.6268429755974
 30
0.0
 11
613.9536895137639
 21
457.6268429755975
 31
0.0
  0
LINE
  5
516
330
1E
100
AcDbEntity
  8
STEMPEL
100
AcDbLine
 10
607.2614394185832
 20
440.6268429755975
 30
0.0
 11
607.2614394185832
 21
457.6268429755974
 31
0.0
  0
LINE
  5
517
330
1E
100
AcDbEntity
  8
STEMPEL
100
AcDbLine
 10
614.1633594185834
 20
437.9768429756211
 30
0.0
 11
616.4614394185832
 21
437.9768429756211
 31
0.0
  0
LINE
  5
518
330
1E
100
AcDbEntity
  8
STEMPEL
100
AcDbLine
 10
614.1633594185834
 20
460.2768429756212
 30
0.0
 11
616.4614394185832
 21
460.2768429756211
 31
0.0
  0
ARC
  5
519
330
1E
100
AcDbEntity
  8
STEMPEL
100
AcDbCircle
 10
738.2358594185832
 20
449.1268429756211
 30
0.0
 40
124.5724999999997
100
AcDbArc
 50
174.8648053416251
 51
176.0874765632534
  0
LINE
  5
51A
330
1E
100
AcDbEntity
  8
MITTEL
100
AcDbLine
 10
602.2614394185829
 20
449.1268429756212
 30
0.0
 11
651.4614394185834
 21
449.1268429756211
 31
0.0
  0
ARC
  5
52D
330
1E
100
AcDbEntity
  8
STEMPEL
100
AcDbCircle
 10
618.8043662171942
 20
409.8768429756401
 30
0.0
 40
11.54292679861526
100
AcDbArc
 50
158.3959146485002
 51
201.6040853514998
  0
ARC
  5
52E
330
1E
100
AcDbEntity
  8
STEMPEL
100
AcDbCircle
 10
618.8043662170703
 20
418.37684297564
 30
0.0
 40
11.54292679849139
100
AcDbArc
 50
158.3959146483859
 51
201.6040853516141
  0
ARC
  5
52F
330
1E
100
AcDbEntity
  8
STEMPEL
100
AcDbCircle
 10
644.9153582043559
 20
409.8768429756458
 30
0.0
 40
31.25199878577668
100
AcDbArc
 50
172.1840540327353
 51
187.8159459672881
  0
ARC
  5
530
330
1E
100
AcDbEntity
  8
STEMPEL
100
AcDbCircle
 10
644.9153582041863
 20
418.3768429756463
 30
0.0
 40
31.25199878560711
100
AcDbArc
 50
172.1840540327353
 51
187.8159459672881
  0
ARC
  5
531
330
1E
100
AcDbEntity
  8
STEMPEL
100
AcDbCircle
 10
738.2358594185789
 20
414.1268429756519
 30
0.0
 40
124.5724999999997
100
AcDbArc
 50
183.9125234367693
 51
185.1351946583749
  0
LINE
  5
532
330
1E
100
AcDbEntity
  8
STEMPEL
100
AcDbLine
 10
608.0723273112785
 20
414.1268429756519
 30
0.0
 11
613.9536895137614
 21
414.1268429756519
 31
0.0
  0
LINE
  5
533
330
1E
100
AcDbEntity
  8
STEMPEL
100
AcDbLine
 10
607.2614394185789
 20
405.6268429756283
 30
0.0
 11
613.953689513763
 21
405.6268429756283
 31
0.0
  0
LINE
  5
534
330
1E
100
AcDbEntity
  8
STEMPEL
100
AcDbLine
 10
607.2614394185789
 20
422.6268429756282
 30
0.0
 11
613.9536895137596
 21
422.6268429756283
 31
0.0
  0
LINE
  5
535
330
1E
100
AcDbEntity
  8
STEMPEL
100
AcDbLine
 10
607.2614394185789
 20
405.6268429756283
 30
0.0
 11
607.2614394185789
 21
422.6268429756282
 31
0.0
  0
LINE
  5
536
330
1E
100
AcDbEntity
  8
STEMPEL
100
AcDbLine
 10
614.1633594185791
 20
402.9768429756519
 30
0.0
 11
616.461439418579
 21
402.9768429756519
 31
0.0
  0
LINE
  5
537
330
1E
100
AcDbEntity
  8
STEMPEL
100
AcDbLine
 10
614.1633594185791
 20
425.2768429756519
 30
0.0
 11
616.461439418579
 21
425.2768429756518
 31
0.0
  0
ARC
  5
538
330
1E
100
AcDbEntity
  8
STEMPEL
100
AcDbCircle
 10
738.2358594185789
 20
414.1268429756519
 30
0.0
 40
124.5724999999997
100
AcDbArc
 50
174.8648053416251
 51
176.0874765632534
  0
LINE
  5
539
330
1E
100
AcDbEntity
  8
MITTEL
100
AcDbLine
 10
602.2614394185787
 20
414.126842975652
 30
0.0
 11
651.4614394185791
 21
414.1268429756519
 31
0.0
  0
ARC
  5
54C
330
1E
100
AcDbEntity
  8
STEMPEL
100
AcDbCircle
 10
506.6870194185334
 20
484.1268429756277
 30
0.0
 40
124.5724999999997
100
AcDbArc
 50
3.912523436746558
 51
5.135194658374907
  0
LINE
  5
54D
330
1E
100
AcDbEntity
  8
STEMPEL
100
AcDbLine
 10
630.7595194185331
 20
495.2768429756244
 30
0.0
 11
628.4614394185336
 21
495.2768429756244
 31
0.0
  0
LINE
  5
54E
330
1E
100
AcDbEntity
  8
STEMPEL
100
AcDbLine
 10
630.7595194185327
 20
472.9768429756243
 30
0.0
 11
628.4614394185329
 21
472.9768429756244
 31
0.0
  0
LINE
  5
54F
330
1E
100
AcDbEntity
  8
STEMPEL
100
AcDbLine
 10
638.4674613720043
 20
475.6268429756005
 30
0.0
 11
638.4674613720047
 21
492.6268429756005
 31
0.0
  0
LINE
  5
550
330
1E
100
AcDbEntity
  8
STEMPEL
100
AcDbLine
 10
638.4674613720047
 20
492.6268429756005
 30
0.0
 11
630.9691893233527
 21
492.6268429756007
 31
0.0
  0
LINE
  5
551
330
1E
100
AcDbEntity
  8
STEMPEL
100
AcDbLine
 10
638.4674613720043
 20
475.6268429756005
 30
0.0
 11
630.969189323349
 21
475.6268429756008
 31
0.0
  0
LINE
  5
552
330
1E
100
AcDbEntity
  8
STEMPEL
100
AcDbLine
 10
637.6565734793051
 20
484.1268429756242
 30
0.0
 11
630.9691893233508
 21
484.1268429756244
 31
0.0
  0
ARC
  5
553
330
1E
100
AcDbEntity
  8
STEMPEL
100
AcDbCircle
 10
506.6870194185334
 20
484.1268429756277
 30
0.0
 40
124.5724999999997
100
AcDbArc
 50
354.8648053416251
 51
356.0874765632306
  0
ARC
  5
554
330
1E
100
AcDbEntity
  8
STEMPEL
100
AcDbCircle
 10
600.007520632926
 20
488.3768429756195
 30
0.0
 40
31.25199878560711
100
AcDbArc
 50
352.1840540327119
 51
7.815945967261438
  0
ARC
  5
555
330
1E
100
AcDbEntity
  8
STEMPEL
100
AcDbCircle
 10
600.0075206327561
 20
479.8768429756191
 30
0.0
 40
31.25199878577668
100
AcDbArc
 50
352.1840540327119
 51
7.815945967264664
  0
ARC
  5
556
330
1E
100
AcDbEntity
  8
STEMPEL
100
AcDbCircle
 10
626.9245345735133
 20
488.3768429756127
 30
0.0
 40
11.54292679849139
100
AcDbArc
 50
338.3959146483859
 51
21.60408535161412
  0
ARC
  5
557
330
1E
100
AcDbEntity
  8
STEMPEL
100
AcDbCircle
 10
626.9245345733892
 20
479.8768429756127
 30
0.0
 40
11.54292679861526
100
AcDbArc
 50
338.3959146485002
 51
21.60408535149678
  0
LINE
  5
565
330
1E
100
AcDbEntity
  8
STEMPEL
100
AcDbLine
 10
646.4614394185883
 20
480.6268429756183
 30
0.0
 11
644.9614394185882
 21
479.1268429756183
 31
0.0
  0
LINE
  5
566
330
1E
100
AcDbEntity
  8
STEMPEL
100
AcDbLine
 10
644.9614394185882
 20
489.1268429756183
 30
0.0
 11
644.9614394185882
 21
479.1268429756183
 31
0.0
  0
LINE
  5
567
330
1E
100
AcDbEntity
  8
STEMPEL
100
AcDbLine
 10
644.9614394185882
 20
489.1268429756183
 30
0.0
 11
646.4614394185883
 21
487.6268429756183
 31
0.0
  0
LINE
  5
568
330
1E
100
AcDbEntity
  8
STEMPEL
100
AcDbLine
 10
646.4614394185883
 20
487.6268429756183
 30
0.0
 11
646.4614394185883
 21
480.6268429756183
 31
0.0
  0
LINE
  5
569
330
1E
100
AcDbEntity
  8
STEMPEL
100
AcDbLine
 10
621.4614394185888
 20
489.1268429756181
 30
0.0
 11
623.4614394185324
 21
489.1268429756181
 31
0.0
  0
LINE
  5
56A
330
1E
100
AcDbEntity
  8
HILF
100
AcDbLine
 10
621.4614394185887
 20
487.6268429756183
 30
0.0
 11
623.4614394185325
 21
487.6268429756183
 31
0.0
  0
LINE
  5
56B
330
1E
100
AcDbEntity
  8
HILF
100
AcDbLine
 10
621.4614394185878
 20
480.6268429756183
 30
0.0
 11
623.4614394185335
 21
480.6268429756182
 31
0.0
  0
LINE
  5
56C
330
1E
100
AcDbEntity
  8
STEMPEL
100
AcDbLine
 10
621.4614394185876
 20
479.1268429756183
 30
0.0
 11
623.4614394185337
 21
479.1268429756183
 31
0.0
  0
LINE
  5
57B
330
1E
100
AcDbEntity
  8
STEMPEL
100
AcDbLine
 10
646.4614394185836
 20
445.6268429756149
 30
0.0
 11
644.9614394185837
 21
444.1268429756148
 31
0.0
  0
LINE
  5
57C
330
1E
100
AcDbEntity
  8
STEMPEL
100
AcDbLine
 10
644.9614394185837
 20
454.1268429756149
 30
0.0
 11
644.9614394185837
 21
444.1268429756148
 31
0.0
  0
LINE
  5
57D
330
1E
100
AcDbEntity
  8
STEMPEL
100
AcDbLine
 10
644.9614394185837
 20
454.1268429756149
 30
0.0
 11
646.4614394185836
 21
452.6268429756149
 31
0.0
  0
LINE
  5
57E
330
1E
100
AcDbEntity
  8
STEMPEL
100
AcDbLine
 10
646.4614394185836
 20
452.6268429756149
 30
0.0
 11
646.4614394185836
 21
445.6268429756149
 31
0.0
  0
LINE
  5
57F
330
1E
100
AcDbEntity
  8
STEMPEL
100
AcDbLine
 10
621.4614394185844
 20
454.1268429756147
 30
0.0
 11
623.4614394185371
 21
454.1268429756147
 31
0.0
  0
LINE
  5
580
330
1E
100
AcDbEntity
  8
HILF
100
AcDbLine
 10
621.4614394185843
 20
452.6268429756149
 30
0.0
 11
623.4614394185374
 21
452.6268429756149
 31
0.0
  0
LINE
  5
581
330
1E
100
AcDbEntity
  8
HILF
100
AcDbLine
 10
621.4614394185832
 20
445.6268429756148
 30
0.0
 11
623.4614394185383
 21
445.6268429756148
 31
0.0
  0
LINE
  5
582
330
1E
100
AcDbEntity
  8
STEMPEL
100
AcDbLine
 10
621.4614394185831
 20
444.1268429756148
 30
0.0
 11
623.4614394185385
 21
444.1268429756148
 31
0.0
  0
LINE
  5
590
330
1E
100
AcDbEntity
  8
STEMPEL
100
AcDbLine
 10
646.4614394185793
 20
410.6268429756457
 30
0.0
 11
644.9614394185792
 21
409.1268429756456
 31
0.0
  0
LINE
  5
591
330
1E
100
AcDbEntity
  8
STEMPEL
100
AcDbLine
 10
644.9614394185792
 20
419.1268429756457
 30
0.0
 11
644.9614394185792
 21
409.1268429756456
 31
0.0
  0
LINE
  5
592
330
1E
100
AcDbEntity
  8
STEMPEL
100
AcDbLine
 10
644.9614394185792
 20
419.1268429756457
 30
0.0
 11
646.4614394185793
 21
417.6268429756456
 31
0.0
  0
LINE
  5
593
330
1E
100
AcDbEntity
  8
STEMPEL
100
AcDbLine
 10
646.4614394185793
 20
417.6268429756456
 30
0.0
 11
646.4614394185793
 21
410.6268429756457
 31
0.0
  0
LINE
  5
594
330
1E
100
AcDbEntity
  8
STEMPEL
100
AcDbLine
 10
621.4614394185799
 20
419.1268429756455
 30
0.0
 11
623.4614394185419
 21
419.1268429756455
 31
0.0
  0
LINE
  5
595
330
1E
100
AcDbEntity
  8
HILF
100
AcDbLine
 10
621.4614394185797
 20
417.6268429756456
 30
0.0
 11
623.4614394185422
 21
417.6268429756456
 31
0.0
  0
LINE
  5
596
330
1E
100
AcDbEntity
  8
HILF
100
AcDbLine
 10
621.4614394185788
 20
410.6268429756456
 30
0.0
 11
623.4614394185432
 21
410.6268429756455
 31
0.0
  0
LINE
  5
597
330
1E
100
AcDbEntity
  8
STEMPEL
100
AcDbLine
 10
621.4614394185787
 20
409.1268429756456
 30
0.0
 11
623.4614394185434
 21
409.1268429756456
 31
0.0
  0
ARC
  5
5A4
330
1E
100
AcDbEntity
  8
STEMPEL
100
AcDbCircle
 10
626.9245345733939
 20
444.8768429756093
 30
0.0
 40
11.54292679861526
100
AcDbArc
 50
338.3959146485002
 51
21.60408535149678
  0
ARC
  5
5A5
330
1E
100
AcDbEntity
  8
STEMPEL
100
AcDbCircle
 10
626.9245345735181
 20
453.3768429756093
 30
0.0
 40
11.54292679849139
100
AcDbArc
 50
338.3959146483859
 51
21.60408535161412
  0
ARC
  5
5A6
330
1E
100
AcDbEntity
  8
STEMPEL
100
AcDbCircle
 10
600.0075206327609
 20
444.8768429756157
 30
0.0
 40
31.25199878577668
100
AcDbArc
 50
352.1840540327119
 51
7.815945967264664
  0
ARC
  5
5A7
330
1E
100
AcDbEntity
  8
STEMPEL
100
AcDbCircle
 10
600.0075206329308
 20
453.3768429756161
 30
0.0
 40
31.25199878560711
100
AcDbArc
 50
352.1840540327119
 51
7.815945967261438
  0
ARC
  5
5A8
330
1E
100
AcDbEntity
  8
STEMPEL
100
AcDbCircle
 10
506.6870194185382
 20
449.1268429756242
 30
0.0
 40
124.5724999999997
100
AcDbArc
 50
354.8648053416251
 51
356.0874765632306
  0
LINE
  5
5A9
330
1E
100
AcDbEntity
  8
STEMPEL
100
AcDbLine
 10
637.6565734793099
 20
449.1268429756208
 30
0.0
 11
630.9691893233556
 21
449.1268429756209
 31
0.0
  0
LINE
  5
5AA
330
1E
100
AcDbEntity
  8
STEMPEL
100
AcDbLine
 10
638.4674613720091
 20
440.6268429755971
 30
0.0
 11
630.9691893233538
 21
440.6268429755973
 31
0.0
  0
LINE
  5
5AB
330
1E
100
AcDbEntity
  8
STEMPEL
100
AcDbLine
 10
638.4674613720095
 20
457.6268429755971
 30
0.0
 11
630.9691893233575
 21
457.6268429755973
 31
0.0
  0
LINE
  5
5AC
330
1E
100
AcDbEntity
  8
STEMPEL
100
AcDbLine
 10
638.4674613720091
 20
440.6268429755971
 30
0.0
 11
638.4674613720095
 21
457.6268429755971
 31
0.0
  0
LINE
  5
5AD
330
1E
100
AcDbEntity
  8
STEMPEL
100
AcDbLine
 10
630.7595194185374
 20
437.9768429756209
 30
0.0
 11
628.4614394185377
 21
437.976842975621
 31
0.0
  0
LINE
  5
5AE
330
1E
100
AcDbEntity
  8
STEMPEL
100
AcDbLine
 10
630.7595194185379
 20
460.276842975621
 30
0.0
 11
628.4614394185383
 21
460.276842975621
 31
0.0
  0
ARC
  5
5AF
330
1E
100
AcDbEntity
  8
STEMPEL
100
AcDbCircle
 10
506.6870194185382
 20
449.1268429756242
 30
0.0
 40
124.5724999999997
100
AcDbArc
 50
3.912523436746558
 51
5.135194658374907
  0
ARC
  5
5BC
330
1E
100
AcDbEntity
  8
STEMPEL
100
AcDbCircle
 10
506.6870194185429
 20
414.126842975655
 30
0.0
 40
124.5724999999997
100
AcDbArc
 50
3.912523436746558
 51
5.135194658374907
  0
LINE
  5
5BD
330
1E
100
AcDbEntity
  8
STEMPEL
100
AcDbLine
 10
630.7595194185426
 20
425.2768429756518
 30
0.0
 11
628.4614394185431
 21
425.2768429756518
 31
0.0
  0
LINE
  5
5BE
330
1E
100
AcDbEntity
  8
STEMPEL
100
AcDbLine
 10
630.7595194185422
 20
402.9768429756517
 30
0.0
 11
628.4614394185425
 21
402.9768429756518
 31
0.0
  0
LINE
  5
5BF
330
1E
100
AcDbEntity
  8
STEMPEL
100
AcDbLine
 10
638.4674613720139
 20
405.6268429756278
 30
0.0
 11
638.4674613720143
 21
422.6268429756278
 31
0.0
  0
LINE
  5
5C0
330
1E
100
AcDbEntity
  8
STEMPEL
100
AcDbLine
 10
638.4674613720143
 20
422.6268429756278
 30
0.0
 11
630.9691893233622
 21
422.6268429756281
 31
0.0
  0
LINE
  5
5C1
330
1E
100
AcDbEntity
  8
STEMPEL
100
AcDbLine
 10
638.4674613720139
 20
405.6268429756278
 30
0.0
 11
630.9691893233585
 21
405.6268429756281
 31
0.0
  0
LINE
  5
5C2
330
1E
100
AcDbEntity
  8
STEMPEL
100
AcDbLine
 10
637.6565734793147
 20
414.1268429756515
 30
0.0
 11
630.9691893233604
 21
414.1268429756517
 31
0.0
  0
ARC
  5
5C3
330
1E
100
AcDbEntity
  8
STEMPEL
100
AcDbCircle
 10
506.6870194185429
 20
414.126842975655
 30
0.0
 40
124.5724999999997
100
AcDbArc
 50
354.8648053416251
 51
356.0874765632306
  0
ARC
  5
5C4
330
1E
100
AcDbEntity
  8
STEMPEL
100
AcDbCircle
 10
600.0075206329356
 20
418.3768429756469
 30
0.0
 40
31.25199878560711
100
AcDbArc
 50
352.1840540327119
 51
7.815945967261438
  0
ARC
  5
5C5
330
1E
100
AcDbEntity
  8
STEMPEL
100
AcDbCircle
 10
600.0075206327657
 20
409.8768429756464
 30
0.0
 40
31.25199878577668
100
AcDbArc
 50
352.1840540327119
 51
7.815945967264664
  0
ARC
  5
5C6
330
1E
100
AcDbEntity
  8
STEMPEL
100
AcDbCircle
 10
626.9245345735229
 20
418.37684297564
 30
0.0
 40
11.54292679849139
100
AcDbArc
 50
338.3959146483859
 51
21.60408535161412
  0
ARC
  5
5C7
330
1E
100
AcDbEntity
  8
STEMPEL
100
AcDbCircle
 10
626.9245345733987
 20
409.87684297564
 30
0.0
 40
11.54292679861526
100
AcDbArc
 50
338.3959146485002
 51
21.60408535149678
  0
LINE
  5
5C8
330
1E
100
AcDbEntity
  8
STEMPEL
100
AcDbLine
 10
638.4674613720044
 20
479.1268429756184
 30
0.0
 11
644.9614394185882
 21
479.1268429756183
 31
0.0
  0
LINE
  5
5C9
330
1E
100
AcDbEntity
  8
HILF
100
AcDbLine
 10
638.4674613720044
 20
487.6268429756183
 30
0.0
 11
646.4614394185883
 21
487.6268429756183
 31
0.0
  0
LINE
  5
5CA
330
1E
100
AcDbEntity
  8
STEMPEL
100
AcDbLine
 10
638.4674613720045
 20
489.1268429756181
 30
0.0
 11
644.9614394185882
 21
489.1268429756183
 31
0.0
  0
LINE
  5
5CB
330
1E
100
AcDbEntity
  8
HILF
100
AcDbLine
 10
638.4674613720044
 20
480.6268429756183
 30
0.0
 11
646.4614394185883
 21
480.6268429756183
 31
0.0
  0
LINE
  5
5CC
330
1E
100
AcDbEntity
  8
HILF
100
AcDbLine
 10
638.4674613720093
 20
452.6268429756149
 30
0.0
 11
646.4614394185836
 21
452.6268429756149
 31
0.0
  0
LINE
  5
5CD
330
1E
100
AcDbEntity
  8
STEMPEL
100
AcDbLine
 10
638.4674613720093
 20
454.1268429756149
 30
0.0
 11
644.9614394185837
 21
454.1268429756149
 31
0.0
  0
LINE
  5
5CE
330
1E
100
AcDbEntity
  8
HILF
100
AcDbLine
 10
638.4674613720092
 20
445.6268429756149
 30
0.0
 11
646.4614394185836
 21
445.6268429756149
 31
0.0
  0
LINE
  5
5CF
330
1E
100
AcDbEntity
  8
STEMPEL
100
AcDbLine
 10
638.4674613720092
 20
444.1268429756149
 30
0.0
 11
644.9614394185837
 21
444.1268429756148
 31
0.0
  0
LINE
  5
5D0
330
1E
100
AcDbEntity
  8
STEMPEL
100
AcDbLine
 10
638.4674613720142
 20
419.1268429756455
 30
0.0
 11
644.9614394185792
 21
419.1268429756457
 31
0.0
  0
LINE
  5
5D1
330
1E
100
AcDbEntity
  8
HILF
100
AcDbLine
 10
638.4674613720143
 20
417.6268429756456
 30
0.0
 11
646.4614394185793
 21
417.6268429756456
 31
0.0
  0
LINE
  5
5D2
330
1E
100
AcDbEntity
  8
HILF
100
AcDbLine
 10
638.467461372014
 20
410.6268429756456
 30
0.0
 11
646.4614394185793
 21
410.6268429756457
 31
0.0
  0
LINE
  5
5D3
330
1E
100
AcDbEntity
  8
STEMPEL
100
AcDbLine
 10
638.467461372014
 20
409.1268429756458
 30
0.0
 11
644.9614394185792
 21
409.1268429756456
 31
0.0
  0
TEXT
  5
5D4
330
1E
100
AcDbEntity
  8
TEXT
100
AcDbText
 10
611.1469848464706
 20
88.68741975798451
 30
0.0
 40
4.0
  1
DIN ISO2768-c
 41
0.8
  7
GREEKS
 72
     1
 11
629.2803181798038
 21
88.68741975798451
 31
0.0
100
AcDbText
  0
LINE
  5
5D6
330
1E
100
AcDbEntity
  8
HILF
100
AcDbLine
 10
702.4614394185607
 20
489.1268429756543
 30
0.0
 11
638.4674613720045
 21
489.1268429756539
 31
0.0
  0
LINE
  5
5D7
330
1E
100
AcDbEntity
  8
HILF
100
AcDbLine
 10
607.2614394185877
 20
489.1268429756537
 30
0.0
 11
542.4614394185607
 21
489.1268429756534
 31
0.0
  0
LINE
  5
5D8
330
1E
100
AcDbEntity
  8
HILF
100
AcDbLine
 10
697.8697836952123
 20
423.4408016502528
 30
0.0
 11
630.9108413290679
 21
423.4408016502525
 31
0.0
  0
LINE
  5
5D9
330
1E
100
AcDbEntity
  8
HILF
100
AcDbLine
 10
701.2312817506523
 20
433.3401206925397
 30
0.0
 11
628.4614394185399
 21
433.3401206925393
 31
0.0
  0
LINE
  5
5DC
330
1E
100
AcDbEntity
  8
HILF
100
AcDbLine
 10
614.0120375080542
 20
423.4408016502523
 30
0.0
 11
547.0856485354155
 21
423.4408016502521
 31
0.0
  0
LINE
  5
5DD
330
1E
100
AcDbEntity
  8
HILF
100
AcDbLine
 10
616.4614394185818
 20
433.3401206925393
 30
0.0
 11
543.7297351265693
 21
433.3401206925389
 31
0.0
  0
LINE
  5
5DE
330
1E
100
AcDbEntity
  8
HILF
100
AcDbLine
 10
364.561783747508
 20
423.440801650252
 30
0.0
 11
213.8102019812111
 21
423.4408016502521
 31
0.0
  0
LINE
  5
5DF
330
1E
100
AcDbEntity
  8
HILF
100
AcDbLine
 10
367.9176971563551
 20
433.3401206925389
 30
0.0
 11
210.4542885723641
 21
433.3401206925389
 31
0.0
  0
ENDSEC
  0
SECTION
  2
OBJECTS
  0
DICTIONARY
  5
C
330
0
100
AcDbDictionary
281
     1
  3
ACAD_COLOR
350
11A
  3
ACAD_GROUP
350
D
  3
ACAD_LAYOUT
350
19
  3
ACAD_MATERIAL
350
119
  3
ACAD_MLINESTYLE
350
16
  3
ACAD_PLOTSETTINGS
350
18
  3
ACAD_PLOTSTYLENAME
350
E
  3
AcDbVariableDictionary
350
125
  0
DICTIONARY
  5
DB
330
1E
100
AcDbDictionary
280
     1
281
     1
  3
ACAD_LAYOUTSELFREF
360
10F
  0
DICTIONARY
  5
DD
330
1A
100
AcDbDictionary
280
     1
281
     1
  3
ACAD_LAYOUTSELFREF
360
10E
  0
DICTIONARY
  5
11A
102
{ACAD_REACTORS
330
C
102
}
330
C
100
AcDbDictionary
281
     1
  0
DICTIONARY
  5
D
102
{ACAD_REACTORS
330
C
102
}
330
C
100
AcDbDictionary
281
     1
  0
DICTIONARY
  5
19
102
{ACAD_REACTORS
330
C
102
}
330
C
100
AcDbDictionary
281
     1
  3
Layout1
350
1D
  3
Model
350
21
  0
DICTIONARY
  5
119
102
{ACAD_REACTORS
330
C
102
}
330
C
100
AcDbDictionary
281
     1
  0
DICTIONARY
  5
16
102
{ACAD_REACTORS
330
C
102
}
330
C
100
AcDbDictionary
281
     1
  3
Standard
350
17
  0
DICTIONARY
  5
18
102
{ACAD_REACTORS
330
C
102
}
330
C
100
AcDbDictionary
281
     1
  0
ACDBDICTIONARYWDFLT
  5
E
102
{ACAD_REACTORS
330
C
102
}
330
C
100
AcDbDictionary
281
     1
  3
Normal
350
F
100
AcDbDictionaryWithDefault
340
F
  0
DICTIONARY
  5
125
102
{ACAD_REACTORS
330
C
102
}
330
C
100
AcDbDictionary
281
     1
  3
DIMASSOC
350
126
  3
PROJECTNAME
350
127
  0
XRECORD
  5
10F
102
{ACAD_REACTORS
330
DB
102
}
330
DB
100
AcDbXrecord
280
     1
340
1E
  0
XRECORD
  5
10E
102
{ACAD_REACTORS
330
DD
102
}
330
DD
100
AcDbXrecord
280
     1
340
1A
  0
LAYOUT
  5
1D
102
{ACAD_REACTORS
330
19
102
}
330
19
100
AcDbPlotSettings
  1

  2
\\NT_WORK01\HP LaserJet 5000 PCL 6
  4

  6

 40
0.0
 41
0.0
 42
0.0
 43
0.0
 44
0.0
 45
0.0
 46
0.0
 47
0.0
 48
0.0
 49
0.0
140
0.0
141
0.0
142
1.0
143
1.0
 70
   688
 72
     0
 73
     0
 74
     5
  7

 75
    16
147
1.0
 76
     0
 77
     2
 78
   300
148
0.0
149
0.0
100
AcDbLayout
  1
Layout1
 70
     0
 71
     1
 10
0.0
 20
0.0
 11
12.0
 21
9.0
 12
0.0
 22
0.0
 32
0.0
 14
1.000000000000000E+20
 24
1.000000000000000E+20
 34
1.000000000000000E+20
 15
-1.000000000000000E+20
 25
-1.000000000000000E+20
 35
-1.000000000000000E+20
146
0.0
 13
0.0
 23
0.0
 33
0.0
 16
1.0
 26
0.0
 36
0.0
 17
0.0
 27
1.0
 37
0.0
 76
     0
330
1A
  0
LAYOUT
  5
21
102
{ACAD_REACTORS
330
19
102
}
330
19
100
AcDbPlotSettings
  1

  2
none_device
  4
Letter_(8.50_x_11.00_Inches)
  6

 40
6.349999904632568
 41
6.349999904632568
 42
6.350006103515625
 43
6.350006103515625
 44
215.8999938964844
 45
279.3999938964844
 46
0.0
 47
0.0
 48
0.0
 49
0.0
140
0.0
141
0.0
142
1.0
143
1.0
 70
 11952
 72
     0
 73
     1
 74
     0
  7

 75
     0
147
1.0
 76
     0
 77
     2
 78
   300
148
-2639.953166200797
149
484.3597217012778
100
AcDbLayout
  1
Model
 70
     1
 71
     0
 10
0.0
 20
0.0
 11
12.0
 21
9.0
 12
0.0
 22
0.0
 32
0.0
 14
0.0
 24
0.0
 34
0.0
 15
0.0
 25
0.0
 35
0.0
146
0.0
 13
0.0
 23
0.0
 33
0.0
 16
1.0
 26
0.0
 36
0.0
 17
0.0
 27
1.0
 37
0.0
 76
     0
330
1E
  0
MLINESTYLE
  5
17
102
{ACAD_REACTORS
330
16
102
}
330
16
100
AcDbMlineStyle
  2
STANDARD
 70
     0
  3

 62
   256
 51
90.0
 52
90.0
 71
     2
 49
0.5
 62
   256
  6
BYLAYER
 49
-0.5
 62
   256
  6
BYLAYER
  0
ACDBPLACEHOLDER
  5
F
102
{ACAD_REACTORS
330
E
102
}
330
E
  0
DICTIONARYVAR
  5
126
102
{ACAD_REACTORS
330
125
102
}
330
125
100
DictionaryVariables
280
     0
  1
1
  0
DICTIONARYVAR
  5
127
102
{ACAD_REACTORS
330
125
102
}
330
125
100
DictionaryVariables
280
     0
  1

  0
ENDSEC
  0
EOF
