  0
SECTION
  2
HEADER
  9
$ACADVER
  1
AC1018
  9
$ACADMAINTVER
 70
     2
  9
$DWGCODEPAGE
  3
ANSI_1252
  9
$INSBASE
 10
0.0
 20
0.0
 30
0.0
  9
$EXTMIN
 10
-0.0063978361731643
 20
-0.0090483683025013
 30
-0.0000000000000053
  9
$EXTMAX
 10
420.0064129945077
 20
594.0090698065175
 30
0.0000000000000099
  9
$LIMMIN
 10
0.0
 20
0.0
  9
$LIMMAX
 10
419.9999999999999
 20
594.0
  9
$ORTHOMODE
 70
     1
  9
$REGENMODE
 70
     1
  9
$FILLMODE
 70
     1
  9
$QTEXTMODE
 70
     0
  9
$MIRRTEXT
 70
     1
  9
$LTSCALE
 40
20.0
  9
$ATTMODE
 70
     1
  9
$TEXTSIZE
 40
3.5
  9
$TRACEWID
 40
0.5
  9
$TEXTSTYLE
  7
STANDARD
  9
$CLAYER
  8
HILF
  9
$CELTYPE
  6
ByLayer
  9
$CECOLOR
 62
   256
  9
$CELTSCALE
 40
1.0
  9
$DISPSILH
 70
     0
  9
$DIMSCALE
 40
2.0
  9
$DIMASZ
 40
3.5
  9
$DIMEXO
 40
1.0
  9
$DIMDLI
 40
7.0
  9
$DIMRND
 40
0.0
  9
$DIMDLE
 40
0.0
  9
$DIMEXE
 40
1.0
  9
$DIMTP
 40
0.0
  9
$DIMTM
 40
0.0
  9
$DIMTXT
 40
3.5
  9
$DIMCEN
 40
1.5
  9
$DIMTSZ
 40
0.0
  9
$DIMTOL
 70
     0
  9
$DIMLIM
 70
     0
  9
$DIMTIH
 70
     0
  9
$DIMTOH
 70
     0
  9
$DIMSE1
 70
     0
  9
$DIMSE2
 70
     0
  9
$DIMTAD
 70
     1
  9
$DIMZIN
 70
     8
  9
$DIMBLK
  1

  9
$DIMASO
 70
     1
  9
$DIMSHO
 70
     0
  9
$DIMPOST
  1

  9
$DIMAPOST
  1

  9
$DIMALT
 70
     0
  9
$DIMALTD
 70
     2
  9
$DIMALTF
 40
25.4
  9
$DIMLFAC
 40
1.0
  9
$DIMTOFL
 70
     1
  9
$DIMTVP
 40
0.0
  9
$DIMTIX
 70
     0
  9
$DIMSOXD
 70
     0
  9
$DIMSAH
 70
     0
  9
$DIMBLK1
  1

  9
$DIMBLK2
  1

  9
$DIMSTYLE
  2
Standard
  9
$DIMCLRD
 70
     0
  9
$DIMCLRE
 70
     0
  9
$DIMCLRT
 70
     1
  9
$DIMTFAC
 40
0.5
  9
$DIMGAP
 40
1.5
  9
$DIMJUST
 70
     0
  9
$DIMSD1
 70
     0
  9
$DIMSD2
 70
     0
  9
$DIMTOLJ
 70
     1
  9
$DIMTZIN
 70
     8
  9
$DIMALTZ
 70
     8
  9
$DIMALTTZ
 70
     8
  9
$DIMUPT
 70
     0
  9
$DIMDEC
 70
     2
  9
$DIMTDEC
 70
     2
  9
$DIMALTU
 70
     2
  9
$DIMALTTD
 70
     2
  9
$DIMTXSTY
  7
STANDARD
  9
$DIMAUNIT
 70
     0
  9
$DIMADEC
 70
     2
  9
$DIMALTRND
 40
0.0
  9
$DIMAZIN
 70
     2
  9
$DIMDSEP
 70
    46
  9
$DIMATFIT
 70
     3
  9
$DIMFRAC
 70
     0
  9
$DIMLDRBLK
  1

  9
$DIMLUNIT
 70
     2
  9
$DIMLWD
 70
    -2
  9
$DIMLWE
 70
    -2
  9
$DIMTMOVE
 70
     0
  9
$LUNITS
 70
     2
  9
$LUPREC
 70
     2
  9
$SKETCHINC
 40
1.0
  9
$FILLETRAD
 40
1.0
  9
$AUNITS
 70
     0
  9
$AUPREC
 70
     0
  9
$MENU
  1
ACAD
  9
$ELEVATION
 40
0.0
  9
$PELEVATION
 40
0.0
  9
$THICKNESS
 40
0.0
  9
$LIMCHECK
 70
     0
  9
$CHAMFERA
 40
0.0
  9
$CHAMFERB
 40
0.0
  9
$CHAMFERC
 40
0.0
  9
$CHAMFERD
 40
0.0
  9
$SKPOLY
 70
     0
  9
$TDCREATE
 40
2455397.864709028
  9
$TDUCREATE
 40
2455397.781375695
  9
$TDUPDATE
 40
2455455.597755185
  9
$TDUUPDATE
 40
2455455.514421852
  9
$TDINDWG
 40
0.1497001620
  9
$TDUSRTIMER
 40
0.1497001620
  9
$USRTIMER
 70
     1
  9
$ANGBASE
 50
0.0
  9
$ANGDIR
 70
     0
  9
$PDMODE
 70
     0
  9
$PDSIZE
 40
0.0
  9
$PLINEWID
 40
0.0
  9
$SPLFRAME
 70
     0
  9
$SPLINETYPE
 70
     6
  9
$SPLINESEGS
 70
     8
  9
$HANDSEED
  5
1348
  9
$SURFTAB1
 70
     6
  9
$SURFTAB2
 70
     6
  9
$SURFTYPE
 70
     6
  9
$SURFU
 70
     6
  9
$SURFV
 70
     6
  9
$UCSBASE
  2

  9
$UCSNAME
  2

  9
$UCSORG
 10
0.0
 20
0.0
 30
0.0
  9
$UCSXDIR
 10
1.0
 20
0.0
 30
0.0
  9
$UCSYDIR
 10
0.0
 20
1.0
 30
0.0
  9
$UCSORTHOREF
  2

  9
$UCSORTHOVIEW
 70
     0
  9
$UCSORGTOP
 10
0.0
 20
0.0
 30
0.0
  9
$UCSORGBOTTOM
 10
0.0
 20
0.0
 30
0.0
  9
$UCSORGLEFT
 10
0.0
 20
0.0
 30
0.0
  9
$UCSORGRIGHT
 10
0.0
 20
0.0
 30
0.0
  9
$UCSORGFRONT
 10
0.0
 20
0.0
 30
0.0
  9
$UCSORGBACK
 10
0.0
 20
0.0
 30
0.0
  9
$PUCSBASE
  2

  9
$PUCSNAME
  2

  9
$PUCSORG
 10
0.0
 20
0.0
 30
0.0
  9
$PUCSXDIR
 10
1.0
 20
0.0
 30
0.0
  9
$PUCSYDIR
 10
0.0
 20
1.0
 30
0.0
  9
$PUCSORTHOREF
  2

  9
$PUCSORTHOVIEW
 70
     0
  9
$PUCSORGTOP
 10
0.0
 20
0.0
 30
0.0
  9
$PUCSORGBOTTOM
 10
0.0
 20
0.0
 30
0.0
  9
$PUCSORGLEFT
 10
0.0
 20
0.0
 30
0.0
  9
$PUCSORGRIGHT
 10
0.0
 20
0.0
 30
0.0
  9
$PUCSORGFRONT
 10
0.0
 20
0.0
 30
0.0
  9
$PUCSORGBACK
 10
0.0
 20
0.0
 30
0.0
  9
$USERI1
 70
     0
  9
$USERI2
 70
     0
  9
$USERI3
 70
     0
  9
$USERI4
 70
     0
  9
$USERI5
 70
     0
  9
$USERR1
 40
0.0
  9
$USERR2
 40
0.0
  9
$USERR3
 40
0.0
  9
$USERR4
 40
0.0
  9
$USERR5
 40
0.0
  9
$WORLDVIEW
 70
     1
  9
$SHADEDGE
 70
     3
  9
$SHADEDIF
 70
    70
  9
$TILEMODE
 70
     1
  9
$MAXACTVP
 70
    16
  9
$PINSBASE
 10
0.0
 20
0.0
 30
0.0
  9
$PLIMCHECK
 70
     0
  9
$PEXTMIN
 10
1.000000000000000E+20
 20
1.000000000000000E+20
 30
1.000000000000000E+20
  9
$PEXTMAX
 10
-1.000000000000000E+20
 20
-1.000000000000000E+20
 30
-1.000000000000000E+20
  9
$PLIMMIN
 10
0.0
 20
0.0
  9
$PLIMMAX
 10
12.0
 20
9.0
  9
$UNITMODE
 70
     0
  9
$VISRETAIN
 70
     0
  9
$PLINEGEN
 70
     0
  9
$PSLTSCALE
 70
     0
  9
$TREEDEPTH
 70
  3020
  9
$CMLSTYLE
  2
Standard
  9
$CMLJUST
 70
     0
  9
$CMLSCALE
 40
1.0
  9
$PROXYGRAPHICS
 70
     1
  9
$MEASUREMENT
 70
     0
  9
$CELWEIGHT
370
    -1
  9
$ENDCAPS
280
     0
  9
$JOINSTYLE
280
     0
  9
$LWDISPLAY
290
     0
  9
$INSUNITS
 70
     0
  9
$HYPERLINKBASE
  1

  9
$STYLESHEET
  1
monochrome 1.ctb
  9
$XEDIT
290
     1
  9
$CEPSNTYPE
380
     0
  9
$PSTYLEMODE
290
     1
  9
$FINGERPRINTGUID
  2
{D68B0D02-A558-11D7-B632-000102183313}
  9
$VERSIONGUID
  2
{09794E5B-EE6C-41AC-8533-F05763AA81B6}
  9
$EXTNAMES
290
     1
  9
$PSVPSCALE
 40
0.0
  9
$OLESTARTUP
290
     0
  9
$SORTENTS
280
   127
  9
$INDEXCTL
280
     0
  9
$HIDETEXT
280
     0
  9
$XCLIPFRAME
290
     0
  9
$HALOGAP
280
     0
  9
$OBSCOLOR
 70
   257
  9
$OBSLTYPE
280
     0
  9
$INTERSECTIONDISPLAY
280
     0
  9
$INTERSECTIONCOLOR
 70
   257
  9
$DIMASSOC
280
     1
  9
$PROJECTNAME
  1

  0
ENDSEC
  0
SECTION
  2
CLASSES
  0
CLASS
  1
ACDBDICTIONARYWDFLT
  2
AcDbDictionaryWithDefault
  3
ObjectDBX Classes
 90
        0
 91
        1
280
     0
281
     0
  0
CLASS
  1
DICTIONARYVAR
  2
AcDbDictionaryVar
  3
ObjectDBX Classes
 90
        0
 91
        2
280
     0
281
     0
  0
CLASS
  1
DIMASSOC
  2
AcDbDimAssoc
  3
"AcDbDimAssoc|Product Desc:     AcDim ARX App For Dimension|Company:          Autodesk, Inc.|WEB Address:      www.autodesk.com"
 90
        0
 91
        1
280
     0
281
     0
  0
ENDSEC
  0
SECTION
  2
TABLES
  0
TABLE
  2
VPORT
  5
8
330
0
100
AcDbSymbolTable
 70
     3
  0
VPORT
  5
1347
330
8
100
AcDbSymbolTableRecord
100
AcDbViewportTableRecord
  2
*Active
 70
     0
 10
0.0
 20
0.0
 11
1.0
 21
1.0
 12
210.0000075791673
 22
297.0000107191075
 13
0.0
 23
0.0
 14
1.0
 24
1.0
 15
10.0
 25
10.0
 16
0.0
 26
0.0
 36
1.0
 17
0.0
 27
0.0
 37
0.0
 40
598.8150343377392
 41
1.336927223719676
 42
50.0
 43
0.0
 44
0.0
 50
0.0
 51
0.0
 71
     0
 72
  1500
 73
     1
 74
     0
 75
     0
 76
     0
 77
     0
 78
     0
281
     0
 65
     1
110
0.0
120
0.0
130
0.0
111
1.0
121
0.0
131
0.0
112
0.0
122
1.0
132
0.0
 79
     0
146
0.0
  0
ENDTAB
  0
TABLE
  2
LTYPE
  5
5
330
0
100
AcDbSymbolTable
 70
     2
  0
LTYPE
  5
13
330
5
100
AcDbSymbolTableRecord
100
AcDbLinetypeTableRecord
  2
ByBlock
 70
     0
  3

 72
    65
 73
     0
 40
0.0
  0
LTYPE
  5
14
330
5
100
AcDbSymbolTableRecord
100
AcDbLinetypeTableRecord
  2
ByLayer
 70
     0
  3

 72
    65
 73
     0
 40
0.0
  0
LTYPE
  5
15
330
5
100
AcDbSymbolTableRecord
100
AcDbLinetypeTableRecord
  2
Continuous
 70
     0
  3
Solid line
 72
    65
 73
     0
 40
0.0
  0
LTYPE
  5
25
330
5
100
AcDbSymbolTableRecord
100
AcDbLinetypeTableRecord
  2
STRICHPUNKT
 70
     0
  3
__ . __ . __ . __ . __ . __ . __ . __ . __ . __
 72
    65
 73
     4
 40
1.0
 49
0.5
 74
     0
 49
-0.25
 74
     0
 49
0.0
 74
     0
 49
-0.25
 74
     0
  0
ENDTAB
  0
TABLE
  2
LAYER
  5
2
330
0
100
AcDbSymbolTable
 70
     8
  0
LAYER
  5
10
330
2
100
AcDbSymbolTableRecord
100
AcDbLayerTableRecord
  2
0
 70
     0
 62
     7
  6
Continuous
370
    -3
390
F
  0
LAYER
  5
2A
330
2
100
AcDbSymbolTableRecord
100
AcDbLayerTableRecord
  2
VOLL
 70
     0
 62
     1
  6
Continuous
370
    -3
390
F
  0
LAYER
  5
2B
330
2
100
AcDbSymbolTableRecord
100
AcDbLayerTableRecord
  2
HILF
 70
     0
 62
     2
  6
Continuous
370
    -3
390
F
  0
LAYER
  5
2C
330
2
100
AcDbSymbolTableRecord
100
AcDbLayerTableRecord
  2
MITTEL
 70
     0
 62
     2
  6
STRICHPUNKT
370
    -3
390
F
  0
LAYER
  5
2F
330
2
100
AcDbSymbolTableRecord
100
AcDbLayerTableRecord
  2
BEM
 70
     0
 62
     7
  6
Continuous
370
    -3
390
F
  0
LAYER
  5
30
330
2
100
AcDbSymbolTableRecord
100
AcDbLayerTableRecord
  2
STEMPEL
 70
     0
 62
     3
  6
Continuous
370
    -3
390
F
  0
LAYER
  5
31
330
2
100
AcDbSymbolTableRecord
100
AcDbLayerTableRecord
  2
TEXT
 70
     0
 62
     7
  6
Continuous
370
    -3
390
F
  0
LAYER
  5
390
330
2
100
AcDbSymbolTableRecord
100
AcDbLayerTableRecord
  2
DEFPOINTS
 70
     0
 62
     7
  6
Continuous
290
     0
370
    -3
390
F
  0
ENDTAB
  0
TABLE
  2
STYLE
  5
3
330
0
100
AcDbSymbolTable
 70
     2
  0
STYLE
  5
11
330
3
100
AcDbSymbolTableRecord
100
AcDbTextStyleTableRecord
  2
STANDARD
 70
     0
 40
0.0
 41
0.8
 50
0.0
 71
     0
 42
3.5
  3
simplex.shx
  4

  0
STYLE
  5
24
330
3
100
AcDbSymbolTableRecord
100
AcDbTextStyleTableRecord
  2
GREEKS
 70
     0
 40
0.0
 41
0.8
 50
0.0
 71
     0
 42
2.5
  3
SIMPLEX.shx
  4

  0
ENDTAB
  0
TABLE
  2
VIEW
  5
6
330
0
100
AcDbSymbolTable
 70
     0
  0
ENDTAB
  0
TABLE
  2
UCS
  5
7
330
0
100
AcDbSymbolTable
 70
     0
  0
ENDTAB
  0
TABLE
  2
APPID
  5
9
330
0
100
AcDbSymbolTable
 70
     1
  0
APPID
  5
12
330
9
100
AcDbSymbolTableRecord
100
AcDbRegAppTableRecord
  2
ACAD
 70
     0
  0
ENDTAB
  0
TABLE
  2
DIMSTYLE
  5
A
330
0
100
AcDbSymbolTable
 70
     1
100
AcDbDimStyleTable
 71
     1
340
9D
  0
DIMSTYLE
105
9D
102
{ACAD_REACTORS
330
10EC
330
10F1
330
12A1
330
12AE
102
}
330
A
100
AcDbSymbolTableRecord
100
AcDbDimStyleTableRecord
  2
Standard
 70
     0
340
11
  0
ENDTAB
  0
TABLE
  2
BLOCK_RECORD
  5
1
330
0
100
AcDbSymbolTable
 70
     5
  0
BLOCK_RECORD
  5
1E
102
{ACAD_XDICTIONARY
360
A0
102
}
330
1
100
AcDbSymbolTableRecord
100
AcDbBlockTableRecord
  2
*Model_Space
340
21
  0
BLOCK_RECORD
  5
1A
102
{ACAD_XDICTIONARY
360
A2
102
}
330
1
100
AcDbSymbolTableRecord
100
AcDbBlockTableRecord
  2
*Paper_Space
340
1D
  0
BLOCK_RECORD
  5
22
330
1
100
AcDbSymbolTableRecord
100
AcDbBlockTableRecord
  2
LOGO
340
0
102
{BLKREFS
331
9B
102
}
  0
BLOCK_RECORD
  5
112F
330
1
100
AcDbSymbolTableRecord
100
AcDbBlockTableRecord
  2
*D1
340
0
  0
BLOCK_RECORD
  5
1185
330
1
100
AcDbSymbolTableRecord
100
AcDbBlockTableRecord
  2
*D2
340
0
  0
BLOCK_RECORD
  5
12A2
330
1
100
AcDbSymbolTableRecord
100
AcDbBlockTableRecord
  2
*D3
340
0
  0
BLOCK_RECORD
  5
12AF
330
1
100
AcDbSymbolTableRecord
100
AcDbBlockTableRecord
  2
*D4
340
0
  0
ENDTAB
  0
ENDSEC
  0
SECTION
  2
BLOCKS
  0
BLOCK
  5
35
330
1E
100
AcDbEntity
  8
0
100
AcDbBlockBegin
  2
*Model_Space
 70
     0
 10
0.0
 20
0.0
 30
0.0
  3
*Model_Space
  1

  0
ENDBLK
  5
36
330
1E
100
AcDbEntity
  8
0
100
AcDbBlockEnd
  0
BLOCK
  5
33
330
1A
100
AcDbEntity
 67
     1
  8
0
100
AcDbBlockBegin
  2
*Paper_Space
 70
     0
 10
0.0
 20
0.0
 30
0.0
  3
*Paper_Space
  1

  0
ENDBLK
  5
34
330
1A
100
AcDbEntity
 67
     1
  8
0
100
AcDbBlockEnd
  0
BLOCK
  5
37
330
22
100
AcDbEntity
  8
0
100
AcDbBlockBegin
  2
LOGO
 70
     0
 10
0.0
 20
0.0
 30
0.0
  3
LOGO
  1

  0
ARC
  5
38
330
22
100
AcDbEntity
  8
0
100
AcDbCircle
 10
11.59973089678112
 20
-9.271599258481501
 30
0.0
 40
4.5
100
AcDbArc
 50
270.0
 51
231.0575587310159
  0
LINE
  5
39
330
22
100
AcDbEntity
  8
0
100
AcDbLine
 10
3.599730896781125
 20
-4.771599258481529
 30
0.0
 11
3.599730896781153
 21
-11.77159925848133
 31
0.0
  0
LINE
  5
3A
330
22
100
AcDbEntity
  8
0
100
AcDbLine
 10
2.599730896781125
 20
-4.771599258481529
 30
0.0
 11
2.599730896781153
 21
-11.77159925848133
 31
0.0
  0
CIRCLE
  5
3B
330
22
100
AcDbEntity
  8
0
100
AcDbCircle
 10
11.59973089678112
 20
-9.271599258481501
 30
0.0
 40
3.5
  0
ARC
  5
3C
330
22
100
AcDbEntity
  8
0
100
AcDbCircle
 10
31.59973089678115
 20
-9.271599258481472
 30
0.0
 40
4.5
100
AcDbArc
 50
270.0
 51
231.0575587310182
  0
LINE
  5
3D
330
22
100
AcDbEntity
  8
0
100
AcDbLine
 10
17.59973089678112
 20
-4.771599258481472
 30
0.0
 11
17.59973089678115
 21
-13.77159925848147
 31
0.0
  0
ARC
  5
3E
330
22
100
AcDbEntity
  8
0
100
AcDbCircle
 10
22.59973089678116
 20
-7.271599258481472
 30
0.0
 40
2.5
100
AcDbArc
 50
293.1161887722295
 51
90.0
  0
CIRCLE
  5
3F
330
22
100
AcDbEntity
  8
0
100
AcDbCircle
 10
31.59973089678115
 20
-9.271599258481472
 30
0.0
 40
3.5
  0
ARC
  5
40
330
22
100
AcDbEntity
  8
0
100
AcDbCircle
 10
4.599730896781153
 20
-11.77159925848133
 30
0.0
 40
1.0
100
AcDbArc
 50
180.0
 51
270.0
  0
ARC
  5
41
330
22
100
AcDbEntity
  8
0
100
AcDbCircle
 10
4.599730896781153
 20
-11.77159925848133
 30
0.0
 40
2.0
100
AcDbArc
 50
179.9999999999992
 51
270.0
  0
LINE
  5
42
330
22
100
AcDbEntity
  8
0
100
AcDbLine
 10
11.59973089678115
 20
-13.77159925848144
 30
0.0
 11
4.599730896781153
 21
-13.77159925848147
 31
0.0
  0
LINE
  5
43
330
22
100
AcDbEntity
  8
0
100
AcDbLine
 10
8.771303772034769
 20
-12.77159925848136
 30
0.0
 11
4.599730896781153
 21
-12.77159925848133
 31
0.0
  0
LINE
  5
44
330
22
100
AcDbEntity
  8
0
100
AcDbLine
 10
31.59973089678115
 20
-13.77159925848147
 30
0.0
 11
23.6715276665056
 21
-13.77159925848144
 31
0.0
  0
LINE
  5
45
330
22
100
AcDbEntity
  8
0
100
AcDbLine
 10
23.56565672307022
 20
-9.51278021337896
 30
0.0
 11
24.4388546544846
 21
-12.77159925848144
 31
0.0
  0
LINE
  5
46
330
22
100
AcDbEntity
  8
0
100
AcDbLine
 10
22.59973089678116
 20
-9.771599258481472
 30
0.0
 11
18.59973089678112
 21
-9.771599258481472
 31
0.0
  0
LINE
  5
47
330
22
100
AcDbEntity
  8
0
100
AcDbLine
 10
18.59973089678115
 20
-13.77159925848144
 30
0.0
 11
17.59973089678115
 21
-13.77159925848144
 31
0.0
  0
LINE
  5
48
330
22
100
AcDbEntity
  8
0
100
AcDbLine
 10
18.59973089678115
 20
-9.771599258481472
 30
0.0
 11
18.59973089678115
 21
-13.77159925848144
 31
0.0
  0
LINE
  5
49
330
22
100
AcDbEntity
  8
0
100
AcDbLine
 10
22.59973089678116
 20
-9.771599258481472
 30
0.0
 11
23.67152766650562
 21
-13.77159925848147
 31
0.0
  0
ARC
  5
4A
330
22
100
AcDbEntity
  8
0
100
AcDbCircle
 10
22.59973089678116
 20
-7.271599258481472
 30
0.0
 40
2.5
100
AcDbArc
 50
270.0
 51
270.0000000000007
  0
LINE
  5
4B
330
22
100
AcDbEntity
  8
0
100
AcDbLine
 10
28.77130377203494
 20
-12.77159925848147
 30
0.0
 11
24.43885465448463
 21
-12.77159925848144
 31
0.0
  0
LINE
  5
4C
330
22
100
AcDbEntity
  8
0
100
AcDbLine
 10
3.599730896781125
 20
-4.771599258481472
 30
0.0
 11
2.599730896781125
 21
-4.771599258481472
 31
0.0
  0
LINE
  5
4D
330
22
100
AcDbEntity
  8
0
100
AcDbLine
 10
22.59973089678116
 20
-8.771599258481472
 30
0.0
 11
18.59973089678115
 21
-8.771599258481472
 31
0.0
  0
LINE
  5
4E
330
22
100
AcDbEntity
  8
0
100
AcDbLine
 10
22.59973089678116
 20
-5.771599258481472
 30
0.0
 11
18.59973089678115
 21
-5.771599258481472
 31
0.0
  0
LINE
  5
4F
330
22
100
AcDbEntity
  8
0
100
AcDbLine
 10
22.59973089678116
 20
-4.771599258481472
 30
0.0
 11
17.59973089678115
 21
-4.771599258481472
 31
0.0
  0
LINE
  5
50
330
22
100
AcDbEntity
  8
0
100
AcDbLine
 10
18.59973089678115
 20
-5.771599258481472
 30
0.0
 11
18.59973089678115
 21
-8.771599258481472
 31
0.0
  0
ARC
  5
51
330
22
100
AcDbEntity
  8
0
100
AcDbCircle
 10
22.59973089678116
 20
-7.271599258481472
 30
0.0
 40
1.5
100
AcDbArc
 50
270.0
 51
90.0
  0
ENDBLK
  5
52
330
22
100
AcDbEntity
  8
0
100
AcDbBlockEnd
  0
BLOCK
  5
1139
330
112F
100
AcDbEntity
  8
0
100
AcDbBlockBegin
  2
*D1
 70
     1
 10
0.0
 20
0.0
 30
0.0
  3
*D1
  1

  0
LINE
  5
12D6
330
112F
100
AcDbEntity
  8
BEM
 62
     0
370
    -2
100
AcDbLine
 10
221.2661222609627
 20
376.5351485096009
 30
0.0
 11
242.7950098424008
 21
376.5351485096009
 31
0.0
  0
LINE
  5
12D7
330
112F
100
AcDbEntity
  8
BEM
 62
     0
370
    -2
100
AcDbLine
 10
221.2661222609609
 20
439.5351485096047
 30
0.0
 11
242.7950098424008
 21
439.5351485096047
 31
0.0
  0
LINE
  5
12D8
330
112F
100
AcDbEntity
  8
BEM
 62
     0
370
    -2
100
AcDbLine
 10
240.7950098424008
 20
383.535148509601
 30
0.0
 11
240.7950098424008
 21
432.5351485096047
 31
0.0
  0
SOLID
  5
12D9
330
112F
100
AcDbEntity
  8
BEM
 62
     0
100
AcDbTrace
 10
239.6283431757342
 20
383.535148509601
 30
0.0
 11
241.9616765090675
 21
383.535148509601
 31
0.0
 12
240.7950098424008
 22
376.5351485096009
 32
0.0
 13
240.7950098424008
 23
376.5351485096009
 33
0.0
  0
SOLID
  5
12DA
330
112F
100
AcDbEntity
  8
BEM
 62
     0
100
AcDbTrace
 10
239.6283431757342
 20
432.5351485096047
 30
0.0
 11
241.9616765090675
 21
432.5351485096047
 31
0.0
 12
240.7950098424008
 22
439.5351485096047
 32
0.0
 13
240.7950098424008
 23
439.5351485096047
 33
0.0
  0
MTEXT
  5
12DB
330
112F
100
AcDbEntity
  8
BEM
 62
     1
100
AcDbMText
 10
234.2950098424008
 20
409.4014455911851
 30
0.0
 40
7.0
 41
0.0
 71
     5
 72
     1
  1
\A1;63
 11
0.0000000000000001
 21
1.0
 31
0.0
 73
     1
 44
1.0
  0
POINT
  5
12DC
330
112F
100
AcDbEntity
  8
DEFPOINTS
 62
     0
100
AcDbPoint
 10
219.2661222609627
 20
376.5351485096009
 30
0.0
  0
POINT
  5
12DD
330
112F
100
AcDbEntity
  8
DEFPOINTS
 62
     0
100
AcDbPoint
 10
219.2661222609609
 20
439.5351485096047
 30
0.0
  0
POINT
  5
12DE
330
112F
100
AcDbEntity
  8
DEFPOINTS
 62
     0
100
AcDbPoint
 10
240.7950098424008
 20
439.5351485096047
 30
0.0
  0
ENDBLK
  5
113A
330
112F
100
AcDbEntity
  8
0
100
AcDbBlockEnd
  0
BLOCK
  5
118F
330
1185
100
AcDbEntity
  8
0
100
AcDbBlockBegin
  2
*D2
 70
     1
 10
0.0
 20
0.0
 30
0.0
  3
*D2
  1

  0
LINE
  5
12CD
330
1185
100
AcDbEntity
  8
BEM
 62
     0
370
    -2
100
AcDbLine
 10
75.26612226096268
 20
379.5351485096016
 30
0.0
 11
75.26612226096268
 21
353.7071344103381
 31
0.0
  0
LINE
  5
12CE
330
1185
100
AcDbEntity
  8
BEM
 62
     0
370
    -2
100
AcDbLine
 10
225.2661222609627
 20
379.535148509601
 30
0.0
 11
225.2661222609627
 21
353.7071344103381
 31
0.0
  0
LINE
  5
12CF
330
1185
100
AcDbEntity
  8
BEM
 62
     0
370
    -2
100
AcDbLine
 10
82.26612226096268
 20
355.7071344103381
 30
0.0
 11
218.2661222609627
 21
355.7071344103381
 31
0.0
  0
SOLID
  5
12D0
330
1185
100
AcDbEntity
  8
BEM
 62
     0
100
AcDbTrace
 10
82.26612226096268
 20
356.8738010770048
 30
0.0
 11
82.26612226096268
 21
354.5404677436714
 31
0.0
 12
75.26612226096268
 22
355.7071344103381
 32
0.0
 13
75.26612226096268
 23
355.7071344103381
 33
0.0
  0
SOLID
  5
12D1
330
1185
100
AcDbEntity
  8
BEM
 62
     0
100
AcDbTrace
 10
218.2661222609627
 20
356.8738010770048
 30
0.0
 11
218.2661222609627
 21
354.5404677436714
 31
0.0
 12
225.2661222609627
 22
355.7071344103381
 32
0.0
 13
225.2661222609627
 23
355.7071344103381
 33
0.0
  0
MTEXT
  5
12D2
330
1185
100
AcDbEntity
  8
BEM
 62
     1
100
AcDbMText
 10
150.2661222609626
 20
362.2071344103381
 30
0.0
 40
7.0
 41
0.0
 71
     5
 72
     1
  1
\A1;150
 73
     1
 44
1.0
  0
POINT
  5
12D3
330
1185
100
AcDbEntity
  8
DEFPOINTS
 62
     0
100
AcDbPoint
 10
75.26612226096268
 20
381.5351485096016
 30
0.0
  0
POINT
  5
12D4
330
1185
100
AcDbEntity
  8
DEFPOINTS
 62
     0
100
AcDbPoint
 10
225.2661222609627
 20
381.535148509601
 30
0.0
  0
POINT
  5
12D5
330
1185
100
AcDbEntity
  8
DEFPOINTS
 62
     0
100
AcDbPoint
 10
225.2661222609627
 20
355.7071344103381
 30
0.0
  0
ENDBLK
  5
1190
330
1185
100
AcDbEntity
  8
0
100
AcDbBlockEnd
  0
BLOCK
  5
12AC
330
12A2
100
AcDbEntity
  8
0
100
AcDbBlockBegin
  2
*D3
 70
     1
 10
0.0
 20
0.0
 30
0.0
  3
*D3
  1

  0
LINE
  5
131A
330
12A2
100
AcDbEntity
  8
BEM
 62
     0
370
    -2
100
AcDbLine
 10
271.5220423924484
 20
438.5351485096061
 30
0.0
 11
271.5220423924484
 21
451.5006415242899
 31
0.0
  0
LINE
  5
131B
330
12A2
100
AcDbEntity
  8
BEM
 62
     0
370
    -2
100
AcDbLine
 10
369.5220423924475
 20
438.5351485096063
 30
0.0
 11
369.5220423924475
 21
451.5006415242899
 31
0.0
  0
LINE
  5
131C
330
12A2
100
AcDbEntity
  8
BEM
 62
     0
370
    -2
100
AcDbLine
 10
278.5220423924484
 20
449.5006415242898
 30
0.0
 11
362.5220423924475
 21
449.5006415242898
 31
0.0
  0
SOLID
  5
131D
330
12A2
100
AcDbEntity
  8
BEM
 62
     0
100
AcDbTrace
 10
278.5220423924484
 20
450.6673081909566
 30
0.0
 11
278.5220423924484
 21
448.3339748576232
 31
0.0
 12
271.5220423924484
 22
449.5006415242898
 32
0.0
 13
271.5220423924484
 23
449.5006415242898
 33
0.0
  0
SOLID
  5
131E
330
12A2
100
AcDbEntity
  8
BEM
 62
     0
100
AcDbTrace
 10
362.5220423924475
 20
450.6673081909566
 30
0.0
 11
362.5220423924475
 21
448.3339748576232
 31
0.0
 12
369.5220423924475
 22
449.5006415242898
 32
0.0
 13
369.5220423924475
 23
449.5006415242898
 33
0.0
  0
MTEXT
  5
131F
330
12A2
100
AcDbEntity
  8
BEM
 62
     1
100
AcDbMText
 10
320.5220423924479
 20
456.0006415242899
 30
0.0
 40
7.0
 41
0.0
 71
     5
 72
     1
  1
\A1;%%c98
 73
     1
 44
1.0
  0
POINT
  5
1320
330
12A2
100
AcDbEntity
  8
DEFPOINTS
 62
     0
100
AcDbPoint
 10
271.5220423924484
 20
436.535148509606
 30
0.0
  0
POINT
  5
1321
330
12A2
100
AcDbEntity
  8
DEFPOINTS
 62
     0
100
AcDbPoint
 10
369.5220423924475
 20
436.5351485096063
 30
0.0
  0
POINT
  5
1322
330
12A2
100
AcDbEntity
  8
DEFPOINTS
 62
     0
100
AcDbPoint
 10
369.5220423924475
 20
449.5006415242898
 30
0.0
  0
ENDBLK
  5
12AD
330
12A2
100
AcDbEntity
  8
0
100
AcDbBlockEnd
  0
BLOCK
  5
12B9
330
12AF
100
AcDbEntity
  8
0
100
AcDbBlockBegin
  2
*D4
 70
     1
 10
0.0
 20
0.0
 30
0.0
  3
*D4
  1

  0
LINE
  5
1323
330
12AF
100
AcDbEntity
  8
BEM
 62
     0
370
    -2
100
AcDbLine
 10
277.8220423924484
 20
374.5351485096059
 30
0.0
 11
277.8220423924484
 21
353.8724793807394
 31
0.0
  0
LINE
  5
1324
330
12AF
100
AcDbEntity
  8
BEM
 62
     0
370
    -2
100
AcDbLine
 10
363.222042392448
 20
374.5351485096061
 30
0.0
 11
363.222042392448
 21
353.8724793807394
 31
0.0
  0
LINE
  5
1325
330
12AF
100
AcDbEntity
  8
BEM
 62
     0
370
    -2
100
AcDbLine
 10
284.8220423924484
 20
355.8724793807394
 30
0.0
 11
356.222042392448
 21
355.8724793807394
 31
0.0
  0
SOLID
  5
1326
330
12AF
100
AcDbEntity
  8
BEM
 62
     0
100
AcDbTrace
 10
284.8220423924484
 20
357.039146047406
 30
0.0
 11
284.8220423924484
 21
354.7058127140727
 31
0.0
 12
277.8220423924484
 22
355.8724793807394
 32
0.0
 13
277.8220423924484
 23
355.8724793807394
 33
0.0
  0
SOLID
  5
1327
330
12AF
100
AcDbEntity
  8
BEM
 62
     0
100
AcDbTrace
 10
356.222042392448
 20
357.039146047406
 30
0.0
 11
356.222042392448
 21
354.7058127140727
 31
0.0
 12
363.222042392448
 22
355.8724793807394
 32
0.0
 13
363.222042392448
 23
355.8724793807394
 33
0.0
  0
MTEXT
  5
1328
330
12AF
100
AcDbEntity
  8
BEM
 62
     1
100
AcDbMText
 10
320.5220423924481
 20
362.3724793807394
 30
0.0
 40
7.0
 41
0.0
 71
     5
 72
     1
  1
\A1;%%c85.4
 73
     1
 44
1.0
  0
POINT
  5
1329
330
12AF
100
AcDbEntity
  8
DEFPOINTS
 62
     0
100
AcDbPoint
 10
277.8220423924484
 20
376.5351485096059
 30
0.0
  0
POINT
  5
132A
330
12AF
100
AcDbEntity
  8
DEFPOINTS
 62
     0
100
AcDbPoint
 10
363.222042392448
 20
376.5351485096061
 30
0.0
  0
POINT
  5
132B
330
12AF
100
AcDbEntity
  8
DEFPOINTS
 62
     0
100
AcDbPoint
 10
363.222042392448
 20
355.8724793807394
 30
0.0
  0
ENDBLK
  5
12BA
330
12AF
100
AcDbEntity
  8
0
100
AcDbBlockEnd
  0
ENDSEC
  0
SECTION
  2
ENTITIES
  0
LINE
  5
57
330
1E
100
AcDbEntity
  8
STEMPEL
100
AcDbLine
 10
410.0
 20
110.0
 30
0.0
 11
39.99999999999997
 21
110.0
 31
0.0
  0
LINE
  5
58
330
1E
100
AcDbEntity
  8
STEMPEL
100
AcDbLine
 10
136.0000000000001
 20
109.9999999999999
 30
0.0
 11
136.0
 21
9.999999999999971
 31
0.0
  0
LINE
  5
59
330
1E
100
AcDbEntity
  8
STEMPEL
100
AcDbLine
 10
220.0
 20
110.0
 30
0.0
 11
220.0
 21
9.999999999999971
 31
0.0
  0
LINE
  5
5A
330
1E
100
AcDbEntity
  8
STEMPEL
100
AcDbLine
 10
332.0
 20
109.9999999999997
 30
0.0
 11
332.0
 21
40.0
 31
0.0
  0
LINE
  5
5B
330
1E
100
AcDbEntity
  8
STEMPEL
100
AcDbLine
 10
135.9999999999999
 20
29.99999999999997
 30
0.0
 11
39.99999999999997
 21
29.99999999999997
 31
0.0
  0
LINE
  5
5C
330
1E
100
AcDbEntity
  8
STEMPEL
100
AcDbLine
 10
410.0
 20
40.0
 30
0.0
 11
136.0000000000001
 21
39.99999999999997
 31
0.0
  0
LINE
  5
5D
330
1E
100
AcDbEntity
  8
STEMPEL
100
AcDbLine
 10
410.0
 20
80.0
 30
0.0
 11
136.0000000000001
 21
79.99999999999994
 31
0.0
  0
LINE
  5
5E
330
1E
100
AcDbEntity
  8
VOLL
100
AcDbLine
 10
54.00000000000009
 20
110.0
 30
0.0
 11
53.99999999999997
 21
9.999999999999971
 31
0.0
  0
LINE
  5
5F
330
1E
100
AcDbEntity
  8
VOLL
100
AcDbLine
 10
94.00000000000011
 20
109.9999999999999
 30
0.0
 11
94.0
 21
9.999999999999971
 31
0.0
  0
LINE
  5
60
330
1E
100
AcDbEntity
  8
VOLL
100
AcDbLine
 10
114.0000000000001
 20
109.9999999999999
 30
0.0
 11
114.0
 21
9.999999999999971
 31
0.0
  0
LINE
  5
61
330
1E
100
AcDbEntity
  8
VOLL
100
AcDbLine
 10
154.0000000000001
 20
79.99999999999994
 30
0.0
 11
154.0000000000001
 21
39.99999999999997
 31
0.0
  0
LINE
  5
62
330
1E
100
AcDbEntity
  8
VOLL
100
AcDbLine
 10
180.0000000000001
 20
109.9999999999998
 30
0.0
 11
180.0
 21
39.99999999999997
 31
0.0
  0
LINE
  5
63
330
1E
100
AcDbEntity
  8
HILF
100
AcDbLine
 10
40.00000000000008
 20
100.0
 30
0.0
 11
136.0000000000001
 21
100.0
 31
0.0
  0
LINE
  5
64
330
1E
100
AcDbEntity
  8
HILF
100
AcDbLine
 10
40.00000000000008
 20
90.00000000000005
 30
0.0
 11
136.0000000000001
 21
90.00000000000005
 31
0.0
  0
LINE
  5
65
330
1E
100
AcDbEntity
  8
HILF
100
AcDbLine
 10
40.00000000000008
 20
79.99999999999994
 30
0.0
 11
136.0000000000001
 21
79.99999999999994
 31
0.0
  0
LINE
  5
66
330
1E
100
AcDbEntity
  8
HILF
100
AcDbLine
 10
40.00000000000008
 20
69.99999999999994
 30
0.0
 11
136.0000000000001
 21
69.99999999999994
 31
0.0
  0
LINE
  5
67
330
1E
100
AcDbEntity
  8
HILF
100
AcDbLine
 10
40.00000000000008
 20
59.99999999999997
 30
0.0
 11
136.0000000000001
 21
59.99999999999997
 31
0.0
  0
LINE
  5
68
330
1E
100
AcDbEntity
  8
HILF
100
AcDbLine
 10
40.00000000000008
 20
49.99999999999997
 30
0.0
 11
136.0000000000001
 21
49.99999999999997
 31
0.0
  0
LINE
  5
69
330
1E
100
AcDbEntity
  8
HILF
100
AcDbLine
 10
40.00000000000008
 20
39.99999999999997
 30
0.0
 11
136.0000000000001
 21
39.99999999999997
 31
0.0
  0
LINE
  5
6A
330
1E
100
AcDbEntity
  8
HILF
100
AcDbLine
 10
136.0000000000001
 20
69.99999999999994
 30
0.0
 11
220.0
 21
69.99999999999994
 31
0.0
  0
LINE
  5
6B
330
1E
100
AcDbEntity
  8
HILF
100
AcDbLine
 10
136.0000000000001
 20
59.99999999999997
 30
0.0
 11
220.0
 21
59.99999999999997
 31
0.0
  0
LINE
  5
6C
330
1E
100
AcDbEntity
  8
HILF
100
AcDbLine
 10
136.0000000000001
 20
49.99999999999997
 30
0.0
 11
220.0
 21
49.99999999999997
 31
0.0
  0
LINE
  5
6D
330
1E
100
AcDbEntity
  8
HILF
100
AcDbLine
 10
224.7736801096948
 20
84.03758247564139
 30
0.0
 11
324.8353916556311
 21
84.03758247564139
 31
0.0
  0
LINE
  5
6E
330
1E
100
AcDbEntity
  8
HILF
100
AcDbLine
 10
224.7736801096948
 20
69.99999999999994
 30
0.0
 11
324.835391655631
 21
69.99999999999994
 31
0.0
  0
LINE
  5
6F
330
1E
100
AcDbEntity
  8
HILF
100
AcDbLine
 10
224.7736801096948
 20
59.99999999999997
 30
0.0
 11
324.835391655631
 21
59.99999999999997
 31
0.0
  0
LINE
  5
70
330
1E
100
AcDbEntity
  8
HILF
100
AcDbLine
 10
224.7736801096948
 20
49.99999999999997
 30
0.0
 11
324.835391655631
 21
49.99999999999997
 31
0.0
  0
LINE
  5
71
330
1E
100
AcDbEntity
  8
VOLL
100
AcDbLine
 10
332.0
 20
60.0
 30
0.0
 11
410.0
 21
60.0
 31
0.0
  0
LINE
  5
72
330
1E
100
AcDbEntity
  8
HILF
100
AcDbLine
 10
336.7238616296993
 20
83.77983636955827
 30
0.0
 11
404.8588839326728
 21
83.77983636955827
 31
0.0
  0
LINE
  5
73
330
1E
100
AcDbEntity
  8
HILF
100
AcDbLine
 10
223.4909699289885
 20
14.89398258028314
 30
0.0
 11
404.8588839326728
 21
14.89398258028314
 31
0.0
  0
TEXT
  5
74
330
1E
100
AcDbEntity
  8
TEXT
100
AcDbText
 10
63.86165979631819
 20
18.67381894984132
 30
0.0
 40
4.0
  1
Änderung
 41
0.8
  7
GREEKS
 72
     1
 11
74.60451693917534
 21
18.67381894984132
 31
0.0
100
AcDbText
  0
TEXT
  5
75
330
1E
100
AcDbEntity
  8
TEXT
100
AcDbText
 10
143.5163572150377
 20
102.4620895087088
 30
0.0
 40
5.0
  1
Maßstab
 41
0.8
  7
GREEKS
100
AcDbText
  0
TEXT
  5
76
330
1E
100
AcDbEntity
  8
TEXT
100
AcDbText
 10
184.2858954734051
 20
102.4184168434819
 30
0.0
 40
5.0
  1
Zul. Abw.
 41
0.8
  7
GREEKS
100
AcDbText
  0
TEXT
  5
77
330
1E
100
AcDbEntity
  8
TEXT
100
AcDbText
 10
224.877940380901
 20
102.5489328011779
 30
0.0
 40
5.0
  1
Benennung
 41
0.8
  7
GREEKS
100
AcDbText
  0
TEXT
  5
78
330
1E
100
AcDbEntity
  8
TEXT
100
AcDbText
 10
336.178754957634
 20
102.3132034537136
 30
0.0
 40
5.0
  1
Zeichnungs Nr.
 41
0.8
  7
GREEKS
100
AcDbText
  0
TEXT
  5
79
330
1E
100
AcDbEntity
  8
TEXT
100
AcDbText
 10
224.742238391136
 20
30.84560570193057
 30
0.0
 40
5.0
  1
Bauvorhaben
 41
0.8
  7
GREEKS
100
AcDbText
  0
TEXT
  5
7A
330
1E
100
AcDbEntity
  8
TEXT
100
AcDbText
 10
336.7238616296993
 20
73.1811823709997
 30
0.0
 40
5.0
  1
Ersatz für:
 41
0.8
  7
GREEKS
100
AcDbText
  0
TEXT
  5
7B
330
1E
100
AcDbEntity
  8
TEXT
100
AcDbText
 10
48.26641107045756
 20
13.65465846027192
 30
0.0
 40
4.0
  1
Index
 50
90.0
 41
0.8
  7
GREEKS
100
AcDbText
  0
TEXT
  5
7C
330
1E
100
AcDbEntity
  8
TEXT
100
AcDbText
 10
100.0934676075481
 20
18.6715626933981
 30
0.0
 40
4.0
  1
Tag
 41
0.8
  7
GREEKS
 72
     1
 11
103.8268009408814
 21
18.6715626933981
 31
0.0
100
AcDbText
  0
TEXT
  5
7D
330
1E
100
AcDbEntity
  8
TEXT
100
AcDbText
 10
119.0122744386592
 20
18.59324216966408
 30
0.0
 40
4.0
  1
Name
 41
0.8
  7
GREEKS
 72
     1
 11
125.3360839624688
 21
18.59324216966408
 31
0.0
100
AcDbText
  0
TEXT
  5
7E
330
1E
100
AcDbEntity
  8
TEXT
100
AcDbText
 10
162.3311673153651
 20
73.31880501229926
 30
0.0
 40
4.0
  1
Tag
 41
0.8
  7
GREEKS
100
AcDbText
  0
TEXT
  5
7F
330
1E
100
AcDbEntity
  8
TEXT
100
AcDbText
 10
192.4626584226295
 20
73.30961091915225
 30
0.0
 40
4.0
  1
Name
 41
0.8
  7
GREEKS
100
AcDbText
  0
TEXT
  5
80
330
1E
100
AcDbEntity
  8
TEXT
100
AcDbText
 10
137.5836127167615
 20
63.62990369617964
 30
0.0
 40
4.0
  1
Gez.
 41
0.8
  7
GREEKS
100
AcDbText
  0
TEXT
  5
81
330
1E
100
AcDbEntity
  8
TEXT
100
AcDbText
 10
137.5515086571672
 20
53.68926291428377
 30
0.0
 40
4.0
  1
Gepr.
 41
0.8
  7
GREEKS
100
AcDbText
  0
TEXT
  5
82
330
1E
100
AcDbEntity
  8
TEXT
100
AcDbText
 10
137.6006777387304
 20
43.52946389649807
 30
0.0
 40
4.0
  1
Norm.
 41
0.8
  7
GREEKS
100
AcDbText
  0
LINE
  5
83
330
1E
100
AcDbEntity
  8
STEMPEL
100
AcDbLine
 10
49.99999999999989
 20
10.0
 30
0.0
 11
410.0
 21
10.0
 31
0.0
  0
TEXT
  5
84
330
1E
100
AcDbEntity
  8
TEXT
100
AcDbText
 10
337.2400861497006
 20
52.07416177878602
 30
0.0
 40
5.0
  1
ersetzt durch:
 41
0.8
  7
GREEKS
100
AcDbText
  0
LINE
  5
85
330
1E
100
AcDbEntity
  8
STEMPEL
100
AcDbLine
 10
410.0
 20
10.0
 30
0.0
 11
39.99999999999989
 21
10.0
 31
0.0
  0
LINE
  5
86
330
1E
100
AcDbEntity
  8
STEMPEL
100
AcDbLine
 10
410.0
 20
10.0
 30
0.0
 11
410.0
 21
584.0
 31
0.0
  0
LINE
  5
87
330
1E
100
AcDbEntity
  8
STEMPEL
100
AcDbLine
 10
40.0
 20
10.0
 30
0.0
 11
39.99999999999989
 21
584.0
 31
0.0
  0
LINE
  5
88
330
1E
100
AcDbEntity
  8
STEMPEL
100
AcDbLine
 10
410.0
 20
584.0
 30
0.0
 11
39.99999999999989
 21
584.0
 31
0.0
  0
LINE
  5
89
330
1E
100
AcDbEntity
  8
HILF
100
AcDbLine
 10
0.0
 20
0.0
 30
0.0
 11
-0.0000000000001137
 21
594.0
 31
0.0
  0
LINE
  5
8A
330
1E
100
AcDbEntity
  8
HILF
100
AcDbLine
 10
419.9999999999999
 20
594.0000000000002
 30
0.0
 11
0.0
 21
594.0
 31
0.0
  0
LINE
  5
8B
330
1E
100
AcDbEntity
  8
HILF
100
AcDbLine
 10
420.0
 20
0.0
 30
0.0
 11
0.0
 21
0.0
 31
0.0
  0
LINE
  5
8C
330
1E
100
AcDbEntity
  8
HILF
100
AcDbLine
 10
31.08767135713856
 20
297.0
 30
0.0
 11
0.0000000000001137
 21
297.0
 31
0.0
  0
TEXT
  5
8D
330
1E
100
AcDbEntity
  8
TEXT
100
AcDbText
 10
138.622109822104
 20
73.14025471151666
 30
0.0
 40
4.0
  1
2008
 41
0.8
  7
GREEKS
100
AcDbText
  0
LINE
  5
8E
330
1E
100
AcDbEntity
  8
HILF
100
AcDbLine
 10
420.0
 20
-0.0000000000001137
 30
0.0
 11
419.9999999999999
 21
594.0
 31
0.0
  0
TEXT
  5
8F
330
1E
100
AcDbEntity
  8
VOLL
100
AcDbText
 10
78.07675471698113
 20
31.02594776470585
 30
0.0
 40
1.8
  1

  7
GREEKS
100
AcDbText
  0
TEXT
  5
90
330
1E
100
AcDbEntity
  8
TEXT
100
AcDbText
 10
41.85509950977674
 20
111.6719999999999
 30
0.0
 40
5.0
  1
Erstellt mit AUTOCAD 2004
 41
0.8
  7
GREEKS
100
AcDbText
  0
TEXT
  5
91
330
1E
100
AcDbEntity
  8
TEXT
100
AcDbText
 10
194.4216048581257
 20
63.0896391972351
 30
0.0
 40
4.0
  1
Koeh
 41
0.8
  7
GREEKS
 72
     1
 11
199.6787477152685
 21
63.0896391972351
 31
0.0
100
AcDbText
  0
TEXT
  5
92
330
1E
100
AcDbEntity
  8
TEXT
 62
     1
100
AcDbText
 10
346.9185575058474
 20
88.76048719879964
 30
0.0
 40
7.0
  1
08070070W
 41
0.8
  7
GREEKS
 72
     1
 11
370.9185575058474
 21
88.76048719879964
 31
0.0
100
AcDbText
  0
TEXT
  5
93
330
1E
100
AcDbEntity
  8
TEXT
 62
     1
100
AcDbText
 10
150.5006306481887
 20
88.14901428913959
 30
0.0
 40
7.0
  1
1:2
 41
0.8
  7
GREEKS
100
AcDbText
  0
TEXT
  5
94
330
1E
100
AcDbEntity
  8
TEXT
100
AcDbText
 10
161.0085209177598
 20
63.10765040825732
 30
0.0
 40
4.0
  1
15.12.
 41
0.8
  7
GREEKS
 72
     1
 11
167.4085209177598
 21
63.10765040825732
 31
0.0
100
AcDbText
  0
TEXT
  5
95
330
1E
100
AcDbEntity
  8
TEXT
 62
     1
100
AcDbText
 10
226.8935731057402
 20
87.41748789253779
 30
0.0
 40
7.0
  1
Druckrohrschelle DN70
 41
0.8
  7
GREEKS
100
AcDbText
  0
TEXT
  5
98
330
1E
100
AcDbEntity
  8
TEXT
100
AcDbText
 10
225.1296391125315
 20
51.64011943042158
 30
0.0
 40
5.0
  1
EDV-Art.Nr. 08070.070X
 41
0.8
  7
GREEKS
100
AcDbText
  0
TEXT
  5
99
330
1E
100
AcDbEntity
  8
TEXT
100
AcDbText
 10
224.9837501577827
 20
42.62974153022632
 30
0.0
 40
4.0
  1
08070070W.DWG
 41
0.8
  7
GREEKS
100
AcDbText
  0
TEXT
  5
9A
330
1E
100
AcDbEntity
  8
TEXT
100
AcDbText
 10
180.0356560176078
 20
90.76363841023022
 30
0.0
 40
4.0
  1
DIN ISO 2768-c
 41
0.8
  7
GREEKS
 72
     1
 11
199.6166083985602
 21
90.76363841023022
 31
0.0
100
AcDbText
  0
INSERT
  5
9B
330
1E
100
AcDbEntity
  8
STEMPEL
100
AcDbBlockReference
  2
LOGO
 10
140.9955485457794
 20
45.02105276448322
 30
0.0
 41
2.0
 42
2.0
 43
2.0
  0
TEXT
  5
118
330
1E
100
AcDbEntity
  8
BEM
100
AcDbText
 10
417.3022923857165
 20
10.16790107998849
 30
0.0
 40
4.0
  1
Diese Zeichnung ist urheberrechtlich geschützt und bleibt unser Eigentum. Sie darf weder ganz noch teilweise verfielfältigt und nicht an Dritte weitergegeben werden.
 50
90.0
 41
0.8
  7
GREEKS
100
AcDbText
  0
ARC
  5
103F
330
1E
100
AcDbEntity
  8
STEMPEL
100
AcDbCircle
 10
81.32813955135679
 20
281.9449235849162
 30
0.0
 40
6.767023128081929
100
AcDbArc
 50
241.6629572917663
 51
298.3370427082154
  0
ARC
  5
1040
330
1E
100
AcDbEntity
  8
STEMPEL
100
AcDbCircle
 10
89.26612226095619
 20
289.3551304568346
 30
0.0
 40
14.17723
100
AcDbArc
 50
250.527827381376
 51
289.4721726186271
  0
ARC
  5
1041
330
1E
100
AcDbEntity
  8
STEMPEL
100
AcDbCircle
 10
97.20410497055514
 20
281.9449235849184
 30
0.0
 40
6.76702312808409
100
AcDbArc
 50
241.6629572917918
 51
298.33704270823
  0
LINE
  5
1042
330
1E
100
AcDbEntity
  8
STEMPEL
100
AcDbLine
 10
78.11612226095627
 20
277.4759804568362
 30
0.0
 11
99.56355822323372
 21
277.4759804568371
 31
0.0
  0
LINE
  5
1043
330
1E
100
AcDbEntity
  8
STEMPEL
100
AcDbLine
 10
79.81419142255663
 20
268.2808463959664
 30
0.0
 11
79.81419142255663
 21
268.2403399626619
 31
0.0
  0
LINE
  5
1044
330
1E
100
AcDbEntity
  8
STEMPEL
100
AcDbLine
 10
79.81419142255663
 20
268.4039397587266
 30
0.0
 11
79.81419142255663
 21
268.2808463959664
 31
0.0
  0
LINE
  5
1045
330
1E
100
AcDbEntity
  8
STEMPEL
100
AcDbLine
 10
79.81419142255663
 20
268.7484700564755
 30
0.0
 11
79.81419142255663
 21
268.4039397587266
 31
0.0
  0
LINE
  5
1046
330
1E
100
AcDbEntity
  8
STEMPEL
100
AcDbLine
 10
82.18395230525993
 20
267.4699585032676
 30
0.0
 11
82.17786542257044
 21
267.4699585032676
 31
0.0
  0
LINE
  5
1047
330
1E
100
AcDbEntity
  8
STEMPEL
100
AcDbLine
 10
79.81419142255663
 20
268.2403399626619
 30
0.0
 11
80.33906291517586
 21
267.9373052651081
 31
0.0
  0
LINE
  5
1048
330
1E
100
AcDbEntity
  8
STEMPEL
100
AcDbLine
 10
79.81419142255663
 20
268.7484700564755
 30
0.0
 11
79.81419142255657
 21
275.3494279189864
 31
0.0
  0
LINE
  5
1049
330
1E
100
AcDbEntity
  8
STEMPEL
100
AcDbLine
 10
84.54015684175601
 20
268.7484700564755
 30
0.0
 11
84.54015684175601
 21
268.2808463959664
 31
0.0
  0
LINE
  5
104A
330
1E
100
AcDbEntity
  8
STEMPEL
100
AcDbLine
 10
93.99208768015659
 20
268.7484700564756
 30
0.0
 11
93.99208768015659
 21
268.2808463959664
 31
0.0
  0
LINE
  5
104B
330
1E
100
AcDbEntity
  8
STEMPEL
100
AcDbLine
 10
98.71805309935689
 20
268.7484700564756
 30
0.0
 11
98.71805309935689
 21
268.240339962662
 31
0.0
  0
LINE
  5
104C
330
1E
100
AcDbEntity
  8
STEMPEL
100
AcDbLine
 10
98.71805309935689
 20
268.240339962662
 30
0.0
 11
98.19318160673674
 21
267.9373052651081
 31
0.0
  0
ARC
  5
104D
330
1E
100
AcDbEntity
  8
STEMPEL
100
AcDbCircle
 10
96.35507038975584
 20
271.3183486683639
 30
0.0
 40
3.848390227184345
100
AcDbArc
 50
232.1193642828266
 51
301.4691945240703
  0
ARC
  5
104E
330
1E
100
AcDbEntity
  8
STEMPEL
100
AcDbCircle
 10
89.26612226095619
 20
281.6471885032679
 30
0.0
 40
14.17723
100
AcDbArc
 50
250.527827381376
 51
289.4721726186271
  0
LINE
  5
104F
330
1E
100
AcDbEntity
  8
STEMPEL
100
AcDbLine
 10
98.71805309935689
 20
268.7484700564756
 30
0.0
 11
98.71805309935679
 21
275.3494279189868
 31
0.0
  0
LINE
  5
1050
330
1E
100
AcDbEntity
  8
STEMPEL
100
AcDbLine
 10
93.99208768015659
 20
268.7484700564756
 30
0.0
 11
93.99208768015659
 21
275.9887883495324
 31
0.0
  0
LINE
  5
1051
330
1E
100
AcDbEntity
  8
STEMPEL
100
AcDbLine
 10
84.54015684175601
 20
268.7484700564755
 30
0.0
 11
84.54015684175709
 21
275.9887883495326
 31
0.0
  0
LINE
  5
1052
330
1E
100
AcDbEntity
  8
STEMPEL
100
AcDbLine
 10
96.35437909936854
 20
267.4699585032677
 30
0.0
 11
82.1778654225568
 21
267.4699585032676
 31
0.0
  0
ARC
  5
1053
330
1E
100
AcDbEntity
  8
STEMPEL
100
AcDbCircle
 10
82.17717413215586
 20
271.3183486683638
 30
0.0
 40
3.848390227184345
100
AcDbArc
 50
238.5308054759332
 51
307.8806357171734
  0
LINE
  5
1054
330
1E
100
AcDbEntity
  8
STEMPEL
100
AcDbLine
 10
78.11612226095627
 20
275.9887883495337
 30
0.0
 11
78.11612226095627
 21
277.4759804568339
 31
0.0
  0
LINE
  5
1055
330
1E
100
AcDbEntity
  8
STEMPEL
100
AcDbLine
 10
100.4161222609563
 20
275.9887883495339
 30
0.0
 11
100.4161222609563
 21
277.285161089494
 31
0.0
  0
LINE
  5
1057
330
1E
100
AcDbEntity
  8
STEMPEL
100
AcDbLine
 10
78.11612226096255
 20
285.9631725641437
 30
0.0
 11
78.11612226096258
 21
284.4759804568365
 31
0.0
  0
LINE
  5
1058
330
1E
100
AcDbEntity
  8
STEMPEL
100
AcDbLine
 10
100.4161222609625
 20
285.963172564137
 30
0.0
 11
100.4161222609625
 21
284.6667998241823
 31
0.0
  0
ARC
  5
1059
330
1E
100
AcDbEntity
  8
STEMPEL
100
AcDbCircle
 10
96.355070389763
 20
289.8275902917404
 30
0.0
 40
3.848390227184345
100
AcDbArc
 50
58.53080547593322
 51
127.8806357171734
  0
LINE
  5
105A
330
1E
100
AcDbEntity
  8
STEMPEL
100
AcDbLine
 10
82.17786542255032
 20
293.6759804568366
 30
0.0
 11
96.35437909936207
 21
293.6759804568366
 31
0.0
  0
LINE
  5
105B
330
1E
100
AcDbEntity
  8
STEMPEL
100
AcDbLine
 10
93.99208768016285
 20
292.3974689036287
 30
0.0
 11
93.99208768016158
 21
285.9631725641445
 31
0.0
  0
LINE
  5
105C
330
1E
100
AcDbEntity
  8
STEMPEL
100
AcDbLine
 10
84.54015684176226
 20
292.3974689036287
 30
0.0
 11
84.54015684176226
 21
285.9631725641376
 31
0.0
  0
LINE
  5
105D
330
1E
100
AcDbEntity
  8
STEMPEL
100
AcDbLine
 10
79.81419142256197
 20
292.3974689036287
 30
0.0
 11
79.81419142256197
 21
286.9149605378102
 31
0.0
  0
ARC
  5
105E
330
1E
100
AcDbEntity
  8
STEMPEL
100
AcDbCircle
 10
89.26612226096256
 20
279.4987504568363
 30
0.0
 40
14.17723
100
AcDbArc
 50
70.52782738137596
 51
109.4721726186271
  0
ARC
  5
105F
330
1E
100
AcDbEntity
  8
STEMPEL
100
AcDbCircle
 10
82.17717413216304
 20
289.8275902917404
 30
0.0
 40
3.848390227184345
100
AcDbArc
 50
52.11936428282661
 51
121.4691945240704
  0
LINE
  5
1060
330
1E
100
AcDbEntity
  8
STEMPEL
100
AcDbLine
 10
79.81419142256197
 20
292.9055989974423
 30
0.0
 11
80.33906291518212
 21
293.2086336949961
 31
0.0
  0
LINE
  5
1061
330
1E
100
AcDbEntity
  8
STEMPEL
100
AcDbLine
 10
79.81419142256197
 20
292.3974689036287
 30
0.0
 11
79.81419142256197
 21
292.9055989974423
 31
0.0
  0
LINE
  5
1062
330
1E
100
AcDbEntity
  8
STEMPEL
100
AcDbLine
 10
84.54015684176226
 20
292.3974689036287
 30
0.0
 11
84.54015684176226
 21
292.8650925641378
 31
0.0
  0
LINE
  5
1063
330
1E
100
AcDbEntity
  8
STEMPEL
100
AcDbLine
 10
93.99208768016285
 20
292.3974689036287
 30
0.0
 11
93.99208768016285
 21
292.8650925641378
 31
0.0
  0
LINE
  5
1064
330
1E
100
AcDbEntity
  8
STEMPEL
100
AcDbLine
 10
98.71805309936224
 20
292.3974689036287
 30
0.0
 11
98.71805309936226
 21
286.6025329946863
 31
0.0
  0
LINE
  5
1065
330
1E
100
AcDbEntity
  8
STEMPEL
100
AcDbLine
 10
98.71805309936224
 20
292.9055989974424
 30
0.0
 11
98.19318160674299
 21
293.2086336949961
 31
0.0
  0
LINE
  5
1066
330
1E
100
AcDbEntity
  8
STEMPEL
100
AcDbLine
 10
96.34829221665894
 20
293.6759804568366
 30
0.0
 11
96.35437909934843
 21
293.6759804568366
 31
0.0
  0
LINE
  5
1067
330
1E
100
AcDbEntity
  8
STEMPEL
100
AcDbLine
 10
98.71805309936224
 20
292.3974689036287
 30
0.0
 11
98.71805309936224
 21
292.7419992013776
 31
0.0
  0
LINE
  5
1068
330
1E
100
AcDbEntity
  8
STEMPEL
100
AcDbLine
 10
98.71805309936224
 20
292.7419992013776
 30
0.0
 11
98.71805309936224
 21
292.8650925641379
 31
0.0
  0
LINE
  5
1069
330
1E
100
AcDbEntity
  8
STEMPEL
100
AcDbLine
 10
98.71805309936224
 20
292.8650925641379
 30
0.0
 11
98.71805309936224
 21
292.9055989974424
 31
0.0
  0
LINE
  5
106A
330
1E
100
AcDbEntity
  8
STEMPEL
100
AcDbLine
 10
201.8141914225629
 20
292.8650925641381
 30
0.0
 11
201.8141914225629
 21
292.9055989974425
 31
0.0
  0
LINE
  5
106B
330
1E
100
AcDbEntity
  8
STEMPEL
100
AcDbLine
 10
201.8141914225629
 20
292.7419992013778
 30
0.0
 11
201.8141914225629
 21
292.8650925641381
 31
0.0
  0
LINE
  5
106C
330
1E
100
AcDbEntity
  8
STEMPEL
100
AcDbLine
 10
201.8141914225629
 20
292.3974689036289
 30
0.0
 11
201.8141914225629
 21
292.7419992013778
 31
0.0
  0
LINE
  5
106D
330
1E
100
AcDbEntity
  8
STEMPEL
100
AcDbLine
 10
204.1839523052662
 20
293.6759804568368
 30
0.0
 11
204.1778654225767
 21
293.6759804568368
 31
0.0
  0
LINE
  5
106E
330
1E
100
AcDbEntity
  8
STEMPEL
100
AcDbLine
 10
201.8141914225629
 20
292.9055989974425
 30
0.0
 11
202.3390629151821
 21
293.2086336949964
 31
0.0
  0
LINE
  5
106F
330
1E
100
AcDbEntity
  8
STEMPEL
100
AcDbLine
 10
201.8141914225629
 20
292.3974689036289
 30
0.0
 11
201.8141914225629
 21
286.6025329946856
 31
0.0
  0
LINE
  5
1070
330
1E
100
AcDbEntity
  8
STEMPEL
100
AcDbLine
 10
206.5401568417623
 20
292.3974689036289
 30
0.0
 11
206.5401568417623
 21
292.8650925641381
 31
0.0
  0
LINE
  5
1071
330
1E
100
AcDbEntity
  8
STEMPEL
100
AcDbLine
 10
215.9920876801629
 20
292.3974689036289
 30
0.0
 11
215.9920876801629
 21
292.8650925641381
 31
0.0
  0
LINE
  5
1072
330
1E
100
AcDbEntity
  8
STEMPEL
100
AcDbLine
 10
220.7180530993631
 20
292.3974689036289
 30
0.0
 11
220.7180530993631
 21
292.9055989974425
 31
0.0
  0
LINE
  5
1073
330
1E
100
AcDbEntity
  8
STEMPEL
100
AcDbLine
 10
220.7180530993631
 20
292.9055989974425
 30
0.0
 11
220.193181606743
 21
293.2086336949964
 31
0.0
  0
ARC
  5
1074
330
1E
100
AcDbEntity
  8
STEMPEL
100
AcDbCircle
 10
218.3550703897621
 20
289.8275902917406
 30
0.0
 40
3.848390227184345
100
AcDbArc
 50
58.5308054759296
 51
127.8806357171734
  0
ARC
  5
1075
330
1E
100
AcDbEntity
  8
STEMPEL
100
AcDbCircle
 10
211.2661222609625
 20
279.4987504568366
 30
0.0
 40
14.17723
100
AcDbArc
 50
70.52782738137596
 51
109.472172618624
  0
LINE
  5
1076
330
1E
100
AcDbEntity
  8
STEMPEL
100
AcDbLine
 10
220.7180530993631
 20
292.3974689036289
 30
0.0
 11
220.7180530993632
 21
286.6025329946884
 31
0.0
  0
LINE
  5
1077
330
1E
100
AcDbEntity
  8
STEMPEL
100
AcDbLine
 10
215.9920876801629
 20
292.3974689036289
 30
0.0
 11
215.9920876801629
 21
285.9631725641429
 31
0.0
  0
LINE
  5
1078
330
1E
100
AcDbEntity
  8
STEMPEL
100
AcDbLine
 10
206.5401568417623
 20
292.3974689036289
 30
0.0
 11
206.5401568417634
 21
285.963172564144
 31
0.0
  0
LINE
  5
1079
330
1E
100
AcDbEntity
  8
STEMPEL
100
AcDbLine
 10
218.3543790993748
 20
293.6759804568368
 30
0.0
 11
204.177865422563
 21
293.6759804568368
 31
0.0
  0
ARC
  5
107A
330
1E
100
AcDbEntity
  8
STEMPEL
100
AcDbCircle
 10
204.1771741321621
 20
289.8275902917406
 30
0.0
 40
3.848390227184345
100
AcDbArc
 50
52.11936428282661
 51
121.4691945240704
  0
LINE
  5
107B
330
1E
100
AcDbEntity
  8
STEMPEL
100
AcDbLine
 10
200.1161222609626
 20
285.9631725641364
 30
0.0
 11
200.1161222609626
 21
284.6667998241826
 31
0.0
  0
LINE
  5
107C
330
1E
100
AcDbEntity
  8
STEMPEL
100
AcDbLine
 10
222.4161222609625
 20
285.9631725641433
 30
0.0
 11
222.4161222609625
 21
284.4759804568369
 31
0.0
  0
LINE
  5
107E
330
1E
100
AcDbEntity
  8
STEMPEL
100
AcDbLine
 10
200.1161222609688
 20
275.9887883495342
 30
0.0
 11
200.1161222609689
 21
277.2851610894942
 31
0.0
  0
LINE
  5
107F
330
1E
100
AcDbEntity
  8
STEMPEL
100
AcDbLine
 10
222.4161222609689
 20
275.988788349534
 30
0.0
 11
222.4161222609689
 21
277.4759804568343
 31
0.0
  0
ARC
  5
1080
330
1E
100
AcDbEntity
  8
STEMPEL
100
AcDbCircle
 10
218.3550703897694
 20
271.3183486683641
 30
0.0
 40
3.848390227184345
100
AcDbArc
 50
232.1193642828266
 51
301.4691945240703
  0
LINE
  5
1081
330
1E
100
AcDbEntity
  8
STEMPEL
100
AcDbLine
 10
204.1778654225567
 20
267.469958503268
 30
0.0
 11
218.3543790993685
 21
267.469958503268
 31
0.0
  0
LINE
  5
1082
330
1E
100
AcDbEntity
  8
STEMPEL
100
AcDbLine
 10
215.9920876801692
 20
268.7484700564758
 30
0.0
 11
215.9920876801681
 21
275.9887883495328
 31
0.0
  0
LINE
  5
1083
330
1E
100
AcDbEntity
  8
STEMPEL
100
AcDbLine
 10
206.5401568417686
 20
268.7484700564758
 30
0.0
 11
206.5401568417686
 21
275.9887883495327
 31
0.0
  0
LINE
  5
1084
330
1E
100
AcDbEntity
  8
STEMPEL
100
AcDbLine
 10
201.8141914225684
 20
268.7484700564758
 30
0.0
 11
201.8141914225684
 21
275.349427918987
 31
0.0
  0
ARC
  5
1085
330
1E
100
AcDbEntity
  8
STEMPEL
100
AcDbCircle
 10
211.2661222609689
 20
281.6471885032682
 30
0.0
 40
14.17723
100
AcDbArc
 50
250.527827381376
 51
289.472172618624
  0
ARC
  5
1086
330
1E
100
AcDbEntity
  8
STEMPEL
100
AcDbCircle
 10
204.1771741321694
 20
271.3183486683641
 30
0.0
 40
3.848390227184345
100
AcDbArc
 50
238.5308054759296
 51
307.8806357171734
  0
LINE
  5
1087
330
1E
100
AcDbEntity
  8
STEMPEL
100
AcDbLine
 10
201.8141914225684
 20
268.2403399626622
 30
0.0
 11
202.3390629151885
 21
267.9373052651083
 31
0.0
  0
LINE
  5
1088
330
1E
100
AcDbEntity
  8
STEMPEL
100
AcDbLine
 10
201.8141914225684
 20
268.7484700564758
 30
0.0
 11
201.8141914225684
 21
268.2403399626622
 31
0.0
  0
LINE
  5
1089
330
1E
100
AcDbEntity
  8
STEMPEL
100
AcDbLine
 10
206.5401568417686
 20
268.7484700564758
 30
0.0
 11
206.5401568417686
 21
268.2808463959666
 31
0.0
  0
LINE
  5
108A
330
1E
100
AcDbEntity
  8
STEMPEL
100
AcDbLine
 10
215.9920876801692
 20
268.7484700564758
 30
0.0
 11
215.9920876801692
 21
268.2808463959666
 31
0.0
  0
LINE
  5
108B
330
1E
100
AcDbEntity
  8
STEMPEL
100
AcDbLine
 10
220.7180530993686
 20
268.7484700564758
 30
0.0
 11
220.7180530993686
 21
275.3494279189867
 31
0.0
  0
LINE
  5
108C
330
1E
100
AcDbEntity
  8
STEMPEL
100
AcDbLine
 10
220.7180530993686
 20
268.2403399626622
 30
0.0
 11
220.1931816067494
 21
267.9373052651083
 31
0.0
  0
LINE
  5
108D
330
1E
100
AcDbEntity
  8
STEMPEL
100
AcDbLine
 10
218.3482922166653
 20
267.469958503268
 30
0.0
 11
218.3543790993548
 21
267.469958503268
 31
0.0
  0
LINE
  5
108E
330
1E
100
AcDbEntity
  8
STEMPEL
100
AcDbLine
 10
220.7180530993686
 20
268.7484700564758
 30
0.0
 11
220.7180530993686
 21
268.403939758727
 31
0.0
  0
LINE
  5
108F
330
1E
100
AcDbEntity
  8
STEMPEL
100
AcDbLine
 10
220.7180530993686
 20
268.403939758727
 30
0.0
 11
220.7180530993686
 21
268.2808463959666
 31
0.0
  0
LINE
  5
1090
330
1E
100
AcDbEntity
  8
STEMPEL
100
AcDbLine
 10
220.7180530993686
 20
268.2808463959666
 30
0.0
 11
220.7180530993686
 21
268.2403399626622
 31
0.0
  0
LINE
  5
1091
330
1E
100
AcDbEntity
  8
STEMPEL
100
AcDbLine
 10
222.4161222609689
 20
277.4759804568365
 30
0.0
 11
200.9686862986914
 21
277.4759804568372
 31
0.0
  0
ARC
  5
1092
330
1E
100
AcDbEntity
  8
STEMPEL
100
AcDbCircle
 10
203.32813955137
 20
281.9449235849186
 30
0.0
 40
6.76702312808409
100
AcDbArc
 50
241.6629572917699
 51
298.3370427082082
  0
ARC
  5
1093
330
1E
100
AcDbEntity
  8
STEMPEL
100
AcDbCircle
 10
211.2661222609689
 20
289.3551304568348
 30
0.0
 40
14.17723
100
AcDbArc
 50
250.527827381376
 51
289.472172618624
  0
ARC
  5
1094
330
1E
100
AcDbEntity
  8
STEMPEL
100
AcDbCircle
 10
219.2041049705683
 20
281.9449235849164
 30
0.0
 40
6.767023128081929
100
AcDbArc
 50
241.6629572917845
 51
298.3370427082337
  0
ARC
  5
10A0
330
1E
100
AcDbEntity
  8
STEMPEL
100
AcDbCircle
 10
200.9686862986914
 20
286.4759804568369
 30
0.0
 40
2.0
100
AcDbArc
 50
186.1909967581355
 51
269.9999999999968
  0
LINE
  5
10A1
330
1E
100
AcDbEntity
  8
STEMPEL
100
AcDbLine
 10
195.8254494361316
 20
287.3279649771171
 30
0.0
 11
189.7585556204571
 21
287.3279649771171
 31
0.0
  0
ARC
  5
10A2
330
1E
100
AcDbEntity
  8
STEMPEL
100
AcDbCircle
 10
195.5015066408922
 20
287.4759804568369
 30
0.0
 40
6.0
100
AcDbArc
 50
188.1770200802417
 51
270.0
  0
ARC
  5
10A3
330
1E
100
AcDbEntity
  8
STEMPEL
100
AcDbCircle
 10
200.9686862986913
 20
286.4759804568369
 30
0.0
 40
5.0
100
AcDbArc
 50
186.1909967581355
 51
270.0
  0
ARC
  5
10A4
330
1E
100
AcDbEntity
  8
STEMPEL
100
AcDbCircle
 10
150.2661222609624
 20
280.9759804568369
 30
0.0
 40
45.99999999999988
100
AcDbArc
 50
6.190996758135555
 51
7.937142286037088
  0
LINE
  5
10A5
330
1E
100
AcDbEntity
  8
STEMPEL
100
AcDbLine
 10
104.7067950857932
 20
287.3279649771171
 30
0.0
 11
110.7736889014679
 21
287.3279649771171
 31
0.0
  0
ARC
  5
10A6
330
1E
100
AcDbEntity
  8
STEMPEL
100
AcDbCircle
 10
105.0307378810326
 20
287.4759804568369
 30
0.0
 40
6.0
100
AcDbArc
 50
270.0
 51
351.8229799197582
  0
ARC
  5
10A7
330
1E
100
AcDbEntity
  8
STEMPEL
100
AcDbCircle
 10
99.56355822323359
 20
286.4759804568369
 30
0.0
 40
2.0
100
AcDbArc
 50
270.0
 51
353.8090032418645
  0
ARC
  5
10A8
330
1E
100
AcDbEntity
  8
STEMPEL
100
AcDbCircle
 10
150.2661222609624
 20
280.9759804568369
 30
0.0
 40
45.99999999999988
100
AcDbArc
 50
172.0628577139629
 51
173.8090032418644
  0
ARC
  5
10A9
330
1E
100
AcDbEntity
  8
STEMPEL
100
AcDbCircle
 10
99.56355822323359
 20
286.4759804568369
 30
0.0
 40
5.0
100
AcDbArc
 50
270.0
 51
353.8090032418645
  0
ARC
  5
10AA
330
1E
100
AcDbEntity
  8
STEMPEL
100
AcDbCircle
 10
150.2661222609624
 20
280.9759804568369
 30
0.0
 40
39.7
100
AcDbArc
 50
8.177020080241788
 51
171.8229799197582
  0
ARC
  5
10AB
330
1E
100
AcDbEntity
  8
STEMPEL
100
AcDbCircle
 10
150.2661222609624
 20
280.9759804568369
 30
0.0
 40
48.99999999999988
100
AcDbArc
 50
6.190996758135555
 51
173.8090032418644
  0
ARC
  5
10AC
330
1E
100
AcDbEntity
  8
STEMPEL
100
AcDbCircle
 10
150.2661222609625
 20
280.9759804568374
 30
0.0
 40
40.0
100
AcDbArc
 50
9.137228342555765
 51
170.8627716574442
  0
ARC
  5
10AD
330
1E
100
AcDbEntity
  8
STEMPEL
100
AcDbCircle
 10
150.2661222609624
 20
280.9759804568369
 30
0.0
 40
45.99999999999988
100
AcDbArc
 50
352.062857713963
 51
353.8090032418645
  0
ARC
  5
10AE
330
1E
100
AcDbEntity
  8
STEMPEL
100
AcDbCircle
 10
200.9686862986913
 20
275.4759804568369
 30
0.0
 40
5.0
100
AcDbArc
 50
90.0
 51
173.8090032418644
  0
ARC
  5
10AF
330
1E
100
AcDbEntity
  8
STEMPEL
100
AcDbCircle
 10
99.56355822323359
 20
275.4759804568369
 30
0.0
 40
5.0
100
AcDbArc
 50
6.190996758135555
 51
90.0
  0
ARC
  5
10B0
330
1E
100
AcDbEntity
  8
STEMPEL
100
AcDbCircle
 10
150.2661222609624
 20
280.9759804568369
 30
0.0
 40
45.99999999999988
100
AcDbArc
 50
186.1909967581355
 51
187.9371422860371
  0
ARC
  5
10B1
330
1E
100
AcDbEntity
  8
STEMPEL
100
AcDbCircle
 10
200.9686862986914
 20
275.4759804568369
 30
0.0
 40
2.0
100
AcDbArc
 50
90.0
 51
173.8090032418644
  0
ARC
  5
10B2
330
1E
100
AcDbEntity
  8
STEMPEL
100
AcDbCircle
 10
150.2661222609625
 20
280.9759804568365
 30
0.0
 40
40.0
100
AcDbArc
 50
189.1372283425558
 51
350.8627716574442
  0
ARC
  5
10B3
330
1E
100
AcDbEntity
  8
STEMPEL
100
AcDbCircle
 10
99.56355822323359
 20
275.4759804568369
 30
0.0
 40
2.0
100
AcDbArc
 50
6.190996758135555
 51
90.0
  0
ARC
  5
10B4
330
1E
100
AcDbEntity
  8
STEMPEL
100
AcDbCircle
 10
150.2661222609624
 20
280.9759804568369
 30
0.0
 40
48.99999999999988
100
AcDbArc
 50
186.1909967581355
 51
353.8090032418645
  0
LINE
  5
10B5
330
1E
100
AcDbEntity
  8
MITTEL
100
AcDbLine
 10
150.2661222609624
 20
226.957781572434
 30
0.0
 11
150.2661222609624
 21
333.9759804568369
 31
0.0
  0
LINE
  5
10B6
330
1E
100
AcDbEntity
  8
MITTEL
100
AcDbLine
 10
70.26659349941588
 20
280.975980456837
 30
0.0
 11
230.265651022509
 21
280.975980456837
 31
0.0
  0
LINE
  5
10B7
330
1E
100
AcDbEntity
  8
STEMPEL
100
AcDbLine
 10
225.2656510225091
 20
277.4759804568369
 30
0.0
 11
200.9686862986913
 21
277.4759804568369
 31
0.0
  0
LINE
  5
10B8
330
1E
100
AcDbEntity
  8
STEMPEL
100
AcDbLine
 10
75.26612226096233
 20
280.4759804568369
 30
0.0
 11
105.0307378810326
 21
280.4759804568369
 31
0.0
  0
LINE
  5
10B9
330
1E
100
AcDbEntity
  8
STEMPEL
100
AcDbLine
 10
75.26612226096233
 20
277.4759804568369
 30
0.0
 11
99.56355822323359
 21
277.4759804568367
 31
0.0
  0
LINE
  5
10BA
330
1E
100
AcDbEntity
  8
STEMPEL
100
AcDbLine
 10
75.26659349941588
 20
280.4759804568369
 30
0.0
 11
75.26659349941588
 21
277.4759804568369
 31
0.0
  0
LINE
  5
10BB
330
1E
100
AcDbEntity
  8
STEMPEL
100
AcDbLine
 10
195.5015066408922
 20
280.4759804568369
 30
0.0
 11
225.265651022509
 21
280.4759804568369
 31
0.0
  0
LINE
  5
10BC
330
1E
100
AcDbEntity
  8
STEMPEL
100
AcDbLine
 10
195.5015066408922
 20
281.4759804568364
 30
0.0
 11
225.265651022509
 21
281.4759804568369
 31
0.0
  0
LINE
  5
10BD
330
1E
100
AcDbEntity
  8
STEMPEL
100
AcDbLine
 10
225.2656510225091
 20
284.4759804568369
 30
0.0
 11
200.9686862986914
 21
284.4759804568368
 31
0.0
  0
LINE
  5
10BE
330
1E
100
AcDbEntity
  8
STEMPEL
100
AcDbLine
 10
75.26659349941588
 20
281.4759804568369
 30
0.0
 11
75.26659349941588
 21
284.4759804568369
 31
0.0
  0
LINE
  5
10BF
330
1E
100
AcDbEntity
  8
STEMPEL
100
AcDbLine
 10
75.26659349941588
 20
284.4759804568369
 30
0.0
 11
99.56402946168715
 21
284.4759804568369
 31
0.0
  0
LINE
  5
10C0
330
1E
100
AcDbEntity
  8
STEMPEL
100
AcDbLine
 10
75.26612226096233
 20
281.4759804568369
 30
0.0
 11
105.0307378810325
 21
281.4759804568364
 31
0.0
  0
LINE
  5
10C1
330
1E
100
AcDbEntity
  8
STEMPEL
100
AcDbLine
 10
225.265651022509
 20
281.4759804568369
 30
0.0
 11
225.265651022509
 21
284.4759804568369
 31
0.0
  0
LINE
  5
10C2
330
1E
100
AcDbEntity
  8
STEMPEL
100
AcDbLine
 10
225.265651022509
 20
280.4759804568369
 30
0.0
 11
225.265651022509
 21
277.4759804568369
 31
0.0
  0
LINE
  5
10C3
330
1E
100
AcDbEntity
  8
MITTEL
100
AcDbLine
 10
89.26612226096301
 20
297.8779004568371
 30
0.0
 11
89.26612226096301
 21
249.4759804568369
 31
0.0
  0
LINE
  5
10C4
330
1E
100
AcDbEntity
  8
HILF
100
AcDbLine
 10
92.76612226096302
 20
267.4759804568372
 30
0.0
 11
92.76612226096302
 21
254.4759804568369
 31
0.0
  0
LINE
  5
10C5
330
1E
100
AcDbEntity
  8
HILF
100
AcDbLine
 10
85.76612226096301
 20
267.4759804568373
 30
0.0
 11
85.76612226096301
 21
254.4759804568369
 31
0.0
  0
LINE
  5
10C6
330
1E
100
AcDbEntity
  8
STEMPEL
100
AcDbLine
 10
92.76612226096302
 20
254.4759804568369
 30
0.0
 11
94.26612226096301
 21
255.9759804568369
 31
0.0
  0
LINE
  5
10C7
330
1E
100
AcDbEntity
  8
STEMPEL
100
AcDbLine
 10
84.26612226096301
 20
255.9759804568369
 30
0.0
 11
94.26612226096301
 21
255.9759804568369
 31
0.0
  0
LINE
  5
10C8
330
1E
100
AcDbEntity
  8
STEMPEL
100
AcDbLine
 10
84.26612226096301
 20
255.9759804568369
 30
0.0
 11
85.76612226096301
 21
254.4759804568369
 31
0.0
  0
LINE
  5
10C9
330
1E
100
AcDbEntity
  8
STEMPEL
100
AcDbLine
 10
85.76612226096301
 20
254.4759804568369
 30
0.0
 11
92.76612226096302
 21
254.4759804568369
 31
0.0
  0
LINE
  5
10CA
330
1E
100
AcDbEntity
  8
STEMPEL
100
AcDbLine
 10
84.26612226096301
 20
267.4759804568372
 30
0.0
 11
84.26612226096301
 21
255.9759804568369
 31
0.0
  0
LINE
  5
10CB
330
1E
100
AcDbEntity
  8
STEMPEL
100
AcDbLine
 10
94.26612226096301
 20
267.4759804568372
 30
0.0
 11
94.26612226096301
 21
255.9759804568369
 31
0.0
  0
LINE
  5
10CC
330
1E
100
AcDbEntity
  8
STEMPEL
100
AcDbLine
 10
206.2661222609627
 20
267.4759804568358
 30
0.0
 11
206.2661222609627
 21
255.9759804568368
 31
0.0
  0
LINE
  5
10CD
330
1E
100
AcDbEntity
  8
STEMPEL
100
AcDbLine
 10
216.2661222609627
 20
267.4759804568358
 30
0.0
 11
216.2661222609627
 21
255.9759804568368
 31
0.0
  0
LINE
  5
10CE
330
1E
100
AcDbEntity
  8
STEMPEL
100
AcDbLine
 10
214.7661222609627
 20
254.4759804568368
 30
0.0
 11
207.7661222609627
 21
254.4759804568368
 31
0.0
  0
LINE
  5
10CF
330
1E
100
AcDbEntity
  8
STEMPEL
100
AcDbLine
 10
216.2661222609627
 20
255.9759804568368
 30
0.0
 11
214.7661222609627
 21
254.4759804568368
 31
0.0
  0
LINE
  5
10D0
330
1E
100
AcDbEntity
  8
STEMPEL
100
AcDbLine
 10
216.2661222609627
 20
255.9759804568368
 30
0.0
 11
206.2661222609627
 21
255.9759804568368
 31
0.0
  0
LINE
  5
10D1
330
1E
100
AcDbEntity
  8
STEMPEL
100
AcDbLine
 10
207.7661222609627
 20
254.4759804568368
 30
0.0
 11
206.2661222609627
 21
255.9759804568368
 31
0.0
  0
LINE
  5
10D2
330
1E
100
AcDbEntity
  8
HILF
100
AcDbLine
 10
214.7661222609627
 20
267.4759804568358
 30
0.0
 11
214.7661222609627
 21
254.4759804568368
 31
0.0
  0
LINE
  5
10D3
330
1E
100
AcDbEntity
  8
HILF
100
AcDbLine
 10
207.7661222609627
 20
267.4759804568358
 30
0.0
 11
207.7661222609627
 21
254.4759804568368
 31
0.0
  0
LINE
  5
10D4
330
1E
100
AcDbEntity
  8
MITTEL
100
AcDbLine
 10
211.2661222609627
 20
297.8779004568382
 30
0.0
 11
211.2661222609627
 21
249.4759804568368
 31
0.0
  0
LINE
  5
10D5
330
1E
100
AcDbEntity
  8
STEMPEL
100
AcDbLine
 10
207.7661222609624
 20
281.4759804568367
 30
0.0
 11
207.7661222609624
 21
280.4759804568369
 31
0.0
  0
LINE
  5
10D6
330
1E
100
AcDbEntity
  8
STEMPEL
100
AcDbLine
 10
217.7661222609625
 20
281.4759804568369
 30
0.0
 11
217.7661222609625
 21
280.4759804568369
 31
0.0
  0
ARC
  5
10D7
330
1E
100
AcDbEntity
  8
STEMPEL
100
AcDbCircle
 10
105.0307378810326
 20
274.4759804568369
 30
0.0
 40
6.0
100
AcDbArc
 50
8.177020080241788
 51
90.0
  0
ARC
  5
10D8
330
1E
100
AcDbEntity
  8
STEMPEL
100
AcDbCircle
 10
195.5015066408922
 20
274.4759804568369
 30
0.0
 40
6.0
100
AcDbArc
 50
90.0
 51
171.8229799197582
  0
ARC
  5
10D9
330
1E
100
AcDbEntity
  8
STEMPEL
100
AcDbCircle
 10
150.2661222609624
 20
280.9759804568369
 30
0.0
 40
39.7
100
AcDbArc
 50
188.1770200802417
 51
351.8229799197582
  0
LINE
  5
10DA
330
1E
100
AcDbEntity
  8
STEMPEL
100
AcDbLine
 10
104.7067950857932
 20
274.6239959365567
 30
0.0
 11
110.7736889014679
 21
274.6239959365567
 31
0.0
  0
LINE
  5
10DB
330
1E
100
AcDbEntity
  8
STEMPEL
100
AcDbLine
 10
195.8254494361316
 20
274.6239959365567
 30
0.0
 11
189.7585556204571
 21
274.6239959365567
 31
0.0
  0
LINE
  5
10E1
330
1E
100
AcDbEntity
  8
STEMPEL
100
AcDbLine
 10
220.2661222609627
 20
439.5351485096047
 30
0.0
 11
80.26612226096323
 21
439.5351485096007
 31
0.0
  0
LINE
  5
10E2
330
1E
100
AcDbEntity
  8
STEMPEL
100
AcDbLine
 10
192.9661222609625
 20
376.5351485096012
 30
0.0
 11
220.2661222609627
 21
376.5351485096009
 31
0.0
  0
LINE
  5
10E3
330
1E
100
AcDbEntity
  8
STEMPEL
100
AcDbLine
 10
225.2661222609627
 20
381.535148509601
 30
0.0
 11
225.2661222609627
 21
434.5351485096048
 31
0.0
  0
LINE
  5
10E8
330
1E
100
AcDbEntity
  8
STEMPEL
100
AcDbLine
 10
75.26612226096268
 20
381.5351485096016
 30
0.0
 11
75.26612226096313
 21
434.5351485096005
 31
0.0
  0
LINE
  5
10E9
330
1E
100
AcDbEntity
  8
STEMPEL
100
AcDbLine
 10
107.5661222609627
 20
376.5351485096017
 30
0.0
 11
80.26612226096267
 21
376.5351485096017
 31
0.0
  0
LINE
  5
10EA
330
1E
100
AcDbEntity
  8
STEMPEL
100
AcDbLine
 10
107.5661222609627
 20
376.5351485096017
 30
0.0
 11
192.9661222609645
 21
376.5351485096033
 31
0.0
  0
LINE
  5
10EB
330
1E
100
AcDbEntity
  8
MITTEL
100
AcDbLine
 10
150.2661222609626
 20
371.5351485096024
 30
0.0
 11
150.2661222609629
 21
444.5351485096026
 31
0.0
  0
DIMENSION
  5
10EC
330
1E
100
AcDbEntity
  8
BEM
100
AcDbDimension
  2
*D1
 10
240.7950098424008
 20
439.5351485096047
 30
0.0
 11
240.7950098424008
 21
409.4014455911851
 31
0.0
 70
   160
 71
     5
 42
63.00000000000375
  3
Standard
100
AcDbAlignedDimension
 13
219.2661222609627
 23
376.5351485096009
 33
0.0
 14
219.2661222609609
 24
439.5351485096047
 34
0.0
 50
90.0
100
AcDbRotatedDimension
1001
ACAD
1000
DSTYLE
1002
{
1070
    40
1040
2.0
1070
    41
1040
3.5
1070
    42
1040
1.0
1070
    43
1040
7.0
1070
    44
1040
1.0
1070
    73
1070
     0
1070
    74
1070
     0
1070
    77
1070
     1
1070
    78
1070
     8
1070
    79
1070
     2
1070
   140
1040
3.5
1070
   141
1040
1.5
1070
   146
1040
0.5
1070
   147
1040
1.5
1070
   172
1070
     1
1070
   178
1070
     1
1070
   179
1070
     2
1070
   271
1070
     2
1070
   272
1070
     2
1070
   284
1070
     8
1070
   285
1070
     8
1070
   286
1070
     8
1002
}
  0
LINE
  5
10ED
102
{ACAD_REACTORS
330
10F3
102
}
330
1E
100
AcDbEntity
  8
STEMPEL
100
AcDbLine
 10
220.2661222609627
 20
376.5351485096009
 30
0.0
 11
225.2661222609627
 21
381.535148509601
 31
0.0
  0
LINE
  5
10EE
330
1E
100
AcDbEntity
  8
STEMPEL
100
AcDbLine
 10
225.2661222609627
 20
434.5351485096048
 30
0.0
 11
220.2661222609627
 21
439.5351485096047
 31
0.0
  0
LINE
  5
10EF
330
1E
100
AcDbEntity
  8
STEMPEL
100
AcDbLine
 10
75.26612226096313
 20
434.5351485096005
 30
0.0
 11
80.26612226096323
 21
439.5351485096007
 31
0.0
  0
LINE
  5
10F0
102
{ACAD_REACTORS
330
10F3
102
}
330
1E
100
AcDbEntity
  8
STEMPEL
100
AcDbLine
 10
80.26612226096267
 20
376.5351485096017
 30
0.0
 11
75.26612226096268
 21
381.5351485096016
 31
0.0
  0
DIMENSION
  5
10F1
102
{ACAD_XDICTIONARY
360
10F2
102
}
102
{ACAD_REACTORS
330
10F3
102
}
330
1E
100
AcDbEntity
  8
BEM
100
AcDbDimension
  2
*D2
 10
225.2661222609627
 20
355.7071344103381
 30
0.0
 11
150.2661222609626
 21
362.2071344103381
 31
0.0
 70
    32
 71
     5
 42
150.0
  3
Standard
100
AcDbAlignedDimension
 13
75.26612226096268
 23
381.5351485096016
 33
0.0
 14
225.2661222609627
 24
381.535148509601
 34
0.0
 50
180.0
100
AcDbRotatedDimension
1001
ACAD
1000
DSTYLE
1002
{
1070
    40
1040
2.0
1070
    41
1040
3.5
1070
    42
1040
1.0
1070
    43
1040
7.0
1070
    44
1040
1.0
1070
    73
1070
     0
1070
    74
1070
     0
1070
    77
1070
     1
1070
    78
1070
     8
1070
    79
1070
     2
1070
   140
1040
3.5
1070
   141
1040
1.5
1070
   146
1040
0.5
1070
   147
1040
1.5
1070
   172
1070
     1
1070
   178
1070
     1
1070
   179
1070
     2
1070
   271
1070
     2
1070
   272
1070
     2
1070
   284
1070
     8
1070
   285
1070
     8
1070
   286
1070
     8
1002
}
  0
LINE
  5
11DE
330
1E
100
AcDbEntity
  8
STEMPEL
100
AcDbLine
 10
321.0220423924479
 20
439.5351485096045
 30
0.0
 11
321.0220423924482
 21
376.5351485096061
 31
0.0
  0
LINE
  5
11E0
330
1E
100
AcDbEntity
  8
STEMPEL
100
AcDbLine
 10
363.222042392448
 20
385.5351485096057
 30
0.0
 11
363.222042392448
 21
376.5351485096061
 31
0.0
  0
LINE
  5
11E1
330
1E
100
AcDbEntity
  8
MITTEL
100
AcDbLine
 10
320.5220423924479
 20
444.5351485096045
 30
0.0
 11
320.5220423924481
 21
371.5351485096061
 31
0.0
  0
LINE
  5
11E3
330
1E
100
AcDbEntity
  8
STEMPEL
100
AcDbLine
 10
366.5220423924473
 20
439.5351485096063
 30
0.0
 11
321.0220423924479
 21
439.5351485096045
 31
0.0
  0
ARC
  5
11E7
330
1E
100
AcDbEntity
  8
STEMPEL
100
AcDbCircle
 10
366.5220423924475
 20
436.5351485096063
 30
0.0
 40
3.0
100
AcDbArc
 50
0.0
 51
90.0
  0
LINE
  5
11E8
330
1E
100
AcDbEntity
  8
STEMPEL
100
AcDbLine
 10
369.5220423924472
 20
436.5351485096063
 30
0.0
 11
369.5220423924475
 21
423.0351485096059
 31
0.0
  0
LINE
  5
11E9
330
1E
100
AcDbEntity
  8
STEMPEL
100
AcDbLine
 10
368.0220423924478
 20
420.4370722982528
 30
0.0
 11
366.222042392448
 21
419.3978418137112
 31
0.0
  0
LINE
  5
11EB
330
1E
100
AcDbEntity
  8
STEMPEL
100
AcDbLine
 10
365.7220423924481
 20
418.5318164099268
 30
0.0
 11
365.722042392448
 21
398.9051485096056
 31
0.0
  0
LINE
  5
11EC
330
1E
100
AcDbEntity
  8
STEMPEL
100
AcDbLine
 10
321.0220423924482
 20
376.5351485096061
 30
0.0
 11
363.222042392448
 21
376.5351485096061
 31
0.0
  0
ARC
  5
11ED
330
1E
100
AcDbEntity
  8
STEMPEL
100
AcDbCircle
 10
337.722042392448
 20
398.9051485096055
 30
0.0
 40
28.0
100
AcDbArc
 50
338.8172181951403
 51
0.0
  0
ARC
  5
11F0
330
1E
100
AcDbEntity
  8
STEMPEL
100
AcDbCircle
 10
372.222042392448
 20
385.5354065524847
 30
0.0
 40
9.0
100
AcDbArc
 50
158.8172181951402
 51
180.0
  0
ARC
  5
11F2
330
1E
100
AcDbEntity
  8
STEMPEL
100
AcDbCircle
 10
366.5220423924475
 20
423.0351485096058
 30
0.0
 40
3.0
100
AcDbArc
 50
300.0000000000062
 51
0.0
  0
LINE
  5
121E
330
1E
100
AcDbEntity
  8
STEMPEL
100
AcDbLine
 10
216.1735995490746
 20
436.535148509601
 30
0.0
 11
206.3586449728509
 21
436.535148509601
 31
0.0
  0
LINE
  5
121F
330
1E
100
AcDbEntity
  8
STEMPEL
100
AcDbLine
 10
221.0810768371863
 20
428.035148509601
 30
0.0
 11
216.1735995490746
 21
436.535148509601
 31
0.0
  0
CIRCLE
  5
1220
330
1E
100
AcDbEntity
  8
STEMPEL
100
AcDbCircle
 10
211.2661222609627
 20
428.035148509601
 30
0.0
 40
8.5
  0
CIRCLE
  5
1221
330
1E
100
AcDbEntity
  8
STEMPEL
100
AcDbCircle
 10
211.2661222609627
 20
428.035148509601
 30
0.0
 40
11.0
  0
LINE
  5
1222
330
1E
100
AcDbEntity
  8
STEMPEL
100
AcDbLine
 10
206.3586449728509
 20
436.535148509601
 30
0.0
 11
201.4511676847391
 21
428.035148509601
 31
0.0
  0
CIRCLE
  5
1223
330
1E
100
AcDbEntity
  8
STEMPEL
100
AcDbCircle
 10
211.2661222609627
 20
428.035148509601
 30
0.0
 40
5.0
  0
ARC
  5
1224
330
1E
100
AcDbEntity
  8
HILF
100
AcDbCircle
 10
211.2661222609627
 20
428.035148509601
 30
0.0
 40
4.0
100
AcDbArc
 50
195.0000000000993
 51
105.0000000000663
  0
LINE
  5
1225
330
1E
100
AcDbEntity
  8
STEMPEL
100
AcDbLine
 10
216.1735995490744
 20
419.535148509601
 30
0.0
 11
221.0810768371863
 21
428.035148509601
 31
0.0
  0
LINE
  5
1226
330
1E
100
AcDbEntity
  8
STEMPEL
100
AcDbLine
 10
206.3586449728508
 20
419.535148509601
 30
0.0
 11
216.1735995490744
 21
419.535148509601
 31
0.0
  0
LINE
  5
1227
330
1E
100
AcDbEntity
  8
STEMPEL
100
AcDbLine
 10
201.4511676847391
 20
428.035148509601
 30
0.0
 11
206.3586449728508
 21
419.535148509601
 31
0.0
  0
LINE
  5
1228
330
1E
100
AcDbEntity
  8
MITTEL
100
AcDbLine
 10
227.4161222609627
 20
428.0351485096246
 30
0.0
 11
195.1161222609627
 21
428.0351485095755
 31
0.0
  0
LINE
  5
1229
330
1E
100
AcDbEntity
  8
MITTEL
100
AcDbLine
 10
211.2661222609438
 20
444.1851485096009
 30
0.0
 11
211.2661222609816
 21
411.8851485096009
 31
0.0
  0
LINE
  5
122A
330
1E
100
AcDbEntity
  8
STEMPEL
100
AcDbLine
 10
211.1735995490745
 20
396.5351485096012
 30
0.0
 11
201.3586449728509
 21
396.5351485096012
 31
0.0
  0
LINE
  5
122B
330
1E
100
AcDbEntity
  8
STEMPEL
100
AcDbLine
 10
216.0810768371863
 20
388.0351485096012
 30
0.0
 11
211.1735995490745
 21
396.5351485096012
 31
0.0
  0
CIRCLE
  5
122C
330
1E
100
AcDbEntity
  8
STEMPEL
100
AcDbCircle
 10
206.2661222609627
 20
388.0351485096012
 30
0.0
 40
8.5
  0
CIRCLE
  5
122D
330
1E
100
AcDbEntity
  8
STEMPEL
100
AcDbCircle
 10
206.2661222609627
 20
388.0351485096012
 30
0.0
 40
11.0
  0
LINE
  5
122E
330
1E
100
AcDbEntity
  8
STEMPEL
100
AcDbLine
 10
201.3586449728509
 20
396.5351485096012
 30
0.0
 11
196.451167684739
 21
388.0351485096012
 31
0.0
  0
CIRCLE
  5
122F
330
1E
100
AcDbEntity
  8
STEMPEL
100
AcDbCircle
 10
206.2661222609627
 20
388.0351485096012
 30
0.0
 40
5.0
  0
ARC
  5
1230
330
1E
100
AcDbEntity
  8
HILF
100
AcDbCircle
 10
206.2661222609627
 20
388.0351485096012
 30
0.0
 40
4.0
100
AcDbArc
 50
195.0000000000993
 51
105.0000000000663
  0
LINE
  5
1231
330
1E
100
AcDbEntity
  8
STEMPEL
100
AcDbLine
 10
211.1735995490744
 20
379.5351485096012
 30
0.0
 11
216.0810768371863
 21
388.0351485096012
 31
0.0
  0
LINE
  5
1232
330
1E
100
AcDbEntity
  8
STEMPEL
100
AcDbLine
 10
201.3586449728508
 20
379.5351485096012
 30
0.0
 11
211.1735995490744
 21
379.5351485096012
 31
0.0
  0
LINE
  5
1233
330
1E
100
AcDbEntity
  8
STEMPEL
100
AcDbLine
 10
196.451167684739
 20
388.0351485096012
 30
0.0
 11
201.3586449728508
 21
379.5351485096012
 31
0.0
  0
LINE
  5
1234
330
1E
100
AcDbEntity
  8
MITTEL
100
AcDbLine
 10
222.4161222609627
 20
388.0351485096249
 30
0.0
 11
190.1161222609627
 21
388.0351485095757
 31
0.0
  0
LINE
  5
1235
330
1E
100
AcDbEntity
  8
MITTEL
100
AcDbLine
 10
206.2661222609438
 20
404.1851485096011
 30
0.0
 11
206.2661222609817
 21
371.8851485096012
 31
0.0
  0
LINE
  5
1236
330
1E
100
AcDbEntity
  8
STEMPEL
100
AcDbLine
 10
94.17359954907499
 20
436.5351485096014
 30
0.0
 11
84.35864497285132
 21
436.5351485096014
 31
0.0
  0
LINE
  5
1237
330
1E
100
AcDbEntity
  8
STEMPEL
100
AcDbLine
 10
99.08107683718675
 20
428.0351485096014
 30
0.0
 11
94.17359954907499
 21
436.5351485096014
 31
0.0
  0
CIRCLE
  5
1238
330
1E
100
AcDbEntity
  8
STEMPEL
100
AcDbCircle
 10
89.26612226096313
 20
428.0351485096014
 30
0.0
 40
8.5
  0
CIRCLE
  5
1239
330
1E
100
AcDbEntity
  8
STEMPEL
100
AcDbCircle
 10
89.26612226096313
 20
428.0351485096014
 30
0.0
 40
11.0
  0
LINE
  5
123A
330
1E
100
AcDbEntity
  8
STEMPEL
100
AcDbLine
 10
84.35864497285132
 20
436.5351485096014
 30
0.0
 11
79.45116768473951
 21
428.0351485096014
 31
0.0
  0
CIRCLE
  5
123B
330
1E
100
AcDbEntity
  8
STEMPEL
100
AcDbCircle
 10
89.26612226096313
 20
428.0351485096014
 30
0.0
 40
5.0
  0
ARC
  5
123C
330
1E
100
AcDbEntity
  8
HILF
100
AcDbCircle
 10
89.26612226096313
 20
428.0351485096014
 30
0.0
 40
4.0
100
AcDbArc
 50
195.0000000000993
 51
105.0000000000663
  0
LINE
  5
123D
330
1E
100
AcDbEntity
  8
STEMPEL
100
AcDbLine
 10
94.17359954907487
 20
419.5351485096014
 30
0.0
 11
99.08107683718675
 21
428.0351485096014
 31
0.0
  0
LINE
  5
123E
330
1E
100
AcDbEntity
  8
STEMPEL
100
AcDbLine
 10
84.35864497285127
 20
419.5351485096014
 30
0.0
 11
94.17359954907487
 21
419.5351485096014
 31
0.0
  0
LINE
  5
123F
330
1E
100
AcDbEntity
  8
STEMPEL
100
AcDbLine
 10
79.45116768473951
 20
428.0351485096014
 30
0.0
 11
84.35864497285127
 21
419.5351485096014
 31
0.0
  0
LINE
  5
1240
330
1E
100
AcDbEntity
  8
MITTEL
100
AcDbLine
 10
105.4161222609631
 20
428.0351485096251
 30
0.0
 11
73.11612226096315
 21
428.0351485095759
 31
0.0
  0
LINE
  5
1241
330
1E
100
AcDbEntity
  8
MITTEL
100
AcDbLine
 10
89.26612226094425
 20
444.1851485096013
 30
0.0
 11
89.26612226098212
 21
411.8851485096014
 31
0.0
  0
LINE
  5
1242
330
1E
100
AcDbEntity
  8
STEMPEL
100
AcDbLine
 10
99.17359954907453
 20
396.5351485096016
 30
0.0
 11
89.35864497285086
 21
396.5351485096016
 31
0.0
  0
LINE
  5
1243
330
1E
100
AcDbEntity
  8
STEMPEL
100
AcDbLine
 10
104.0810768371863
 20
388.0351485096016
 30
0.0
 11
99.17359954907453
 21
396.5351485096016
 31
0.0
  0
CIRCLE
  5
1244
330
1E
100
AcDbEntity
  8
STEMPEL
100
AcDbCircle
 10
94.26612226096267
 20
388.0351485096016
 30
0.0
 40
8.5
  0
CIRCLE
  5
1245
330
1E
100
AcDbEntity
  8
STEMPEL
100
AcDbCircle
 10
94.26612226096267
 20
388.0351485096016
 30
0.0
 40
11.0
  0
LINE
  5
1246
330
1E
100
AcDbEntity
  8
STEMPEL
100
AcDbLine
 10
89.35864497285086
 20
396.5351485096016
 30
0.0
 11
84.45116768473907
 21
388.0351485096016
 31
0.0
  0
CIRCLE
  5
1247
330
1E
100
AcDbEntity
  8
STEMPEL
100
AcDbCircle
 10
94.26612226096267
 20
388.0351485096016
 30
0.0
 40
5.0
  0
ARC
  5
1248
330
1E
100
AcDbEntity
  8
HILF
100
AcDbCircle
 10
94.26612226096267
 20
388.0351485096016
 30
0.0
 40
4.0
100
AcDbArc
 50
195.0000000000993
 51
105.0000000000663
  0
LINE
  5
1249
330
1E
100
AcDbEntity
  8
STEMPEL
100
AcDbLine
 10
99.17359954907443
 20
379.5351485096016
 30
0.0
 11
104.0810768371863
 21
388.0351485096016
 31
0.0
  0
LINE
  5
124A
330
1E
100
AcDbEntity
  8
STEMPEL
100
AcDbLine
 10
89.35864497285081
 20
379.5351485096016
 30
0.0
 11
99.17359954907443
 21
379.5351485096016
 31
0.0
  0
LINE
  5
124B
330
1E
100
AcDbEntity
  8
STEMPEL
100
AcDbLine
 10
84.45116768473907
 20
388.0351485096016
 30
0.0
 11
89.35864497285081
 21
379.5351485096016
 31
0.0
  0
LINE
  5
124C
330
1E
100
AcDbEntity
  8
MITTEL
100
AcDbLine
 10
110.4161222609626
 20
388.0351485096253
 30
0.0
 11
78.11612226096269
 21
388.0351485095762
 31
0.0
  0
LINE
  5
124D
330
1E
100
AcDbEntity
  8
MITTEL
100
AcDbLine
 10
94.2661222609438
 20
404.1851485096016
 30
0.0
 11
94.26612226098166
 21
371.8851485096017
 31
0.0
  0
ARC
  5
124E
330
1E
100
AcDbEntity
  8
STEMPEL
100
AcDbCircle
 10
274.5220423924485
 20
423.0351485096055
 30
0.0
 40
3.0
100
AcDbArc
 50
180.0000000000004
 51
239.9999999999942
  0
ARC
  5
124F
330
1E
100
AcDbEntity
  8
STEMPEL
100
AcDbCircle
 10
268.8220423924482
 20
385.5354065524845
 30
0.0
 40
9.0
100
AcDbArc
 50
0.0000000000003639
 51
21.1827818048601
  0
ARC
  5
1250
330
1E
100
AcDbEntity
  8
STEMPEL
100
AcDbCircle
 10
303.3220423924481
 20
398.9051485096054
 30
0.0
 40
28.0
100
AcDbArc
 50
180.0000000000004
 51
201.1827818048601
  0
LINE
  5
1251
330
1E
100
AcDbEntity
  8
STEMPEL
100
AcDbLine
 10
320.0220423924482
 20
376.5351485096061
 30
0.0
 11
277.8220423924484
 21
376.5351485096059
 31
0.0
  0
LINE
  5
1252
330
1E
100
AcDbEntity
  8
STEMPEL
100
AcDbLine
 10
275.3220423924478
 20
418.5318164099266
 30
0.0
 11
275.3220423924481
 21
398.9051485096053
 31
0.0
  0
LINE
  5
1253
330
1E
100
AcDbEntity
  8
STEMPEL
100
AcDbLine
 10
273.0220423924482
 20
420.4370722982524
 30
0.0
 11
274.8220423924479
 21
419.3978418137109
 31
0.0
  0
LINE
  5
1254
330
1E
100
AcDbEntity
  8
STEMPEL
100
AcDbLine
 10
271.5220423924486
 20
436.535148509606
 30
0.0
 11
271.5220423924485
 21
423.0351485096056
 31
0.0
  0
ARC
  5
1255
330
1E
100
AcDbEntity
  8
STEMPEL
100
AcDbCircle
 10
274.5220423924484
 20
436.535148509606
 30
0.0
 40
3.0
100
AcDbArc
 50
90.00000000000035
 51
180.0000000000004
  0
LINE
  5
1256
330
1E
100
AcDbEntity
  8
STEMPEL
100
AcDbLine
 10
274.5220423924486
 20
439.535148509606
 30
0.0
 11
320.0220423924479
 21
439.5351485096045
 31
0.0
  0
LINE
  5
1257
330
1E
100
AcDbEntity
  8
STEMPEL
100
AcDbLine
 10
277.8220423924482
 20
385.5351485096054
 30
0.0
 11
277.8220423924484
 21
376.5351485096059
 31
0.0
  0
LINE
  5
1258
330
1E
100
AcDbEntity
  8
STEMPEL
100
AcDbLine
 10
320.0220423924479
 20
439.5351485096045
 30
0.0
 11
320.0220423924482
 21
376.5351485096061
 31
0.0
  0
LINE
  5
1259
330
1E
100
AcDbEntity
  8
STEMPEL
100
AcDbLine
 10
324.0220423924479
 20
439.5351485096045
 30
0.0
 11
324.0220423924482
 21
376.5351485096061
 31
0.0
  0
LINE
  5
125A
330
1E
100
AcDbEntity
  8
STEMPEL
100
AcDbLine
 10
317.022042392448
 20
439.5351485096045
 30
0.0
 11
317.0220423924482
 21
376.5351485096061
 31
0.0
  0
LINE
  5
125F
330
1E
100
AcDbEntity
  8
HILF
100
AcDbLine
 10
320.0220423924481
 20
391.5351485096186
 30
0.0
 11
321.022042392448
 21
391.5351485096185
 31
0.0
  0
LINE
  5
1260
330
1E
100
AcDbEntity
  8
STEMPEL
100
AcDbLine
 10
320.0220423924481
 20
393.0351485096186
 30
0.0
 11
321.022042392448
 21
393.0351485096186
 31
0.0
  0
LINE
  5
1261
330
1E
100
AcDbEntity
  8
HILF
100
AcDbLine
 10
320.0220423924481
 20
384.5351485096186
 30
0.0
 11
321.022042392448
 21
384.5351485096186
 31
0.0
  0
LINE
  5
1262
330
1E
100
AcDbEntity
  8
STEMPEL
100
AcDbLine
 10
320.0220423924482
 20
383.0351485096186
 30
0.0
 11
321.0220423924481
 21
383.0351485096187
 31
0.0
  0
LINE
  5
1263
330
1E
100
AcDbEntity
  8
STEMPEL
100
AcDbLine
 10
345.0220423924475
 20
384.5351485096186
 30
0.0
 11
343.5220423924475
 21
383.0351485096186
 31
0.0
  0
LINE
  5
1264
330
1E
100
AcDbEntity
  8
STEMPEL
100
AcDbLine
 10
343.5220423924475
 20
393.0351485096186
 30
0.0
 11
343.5220423924475
 21
383.0351485096186
 31
0.0
  0
LINE
  5
1265
330
1E
100
AcDbEntity
  8
STEMPEL
100
AcDbLine
 10
343.5220423924475
 20
393.0351485096186
 30
0.0
 11
345.0220423924475
 21
391.5351485096186
 31
0.0
  0
LINE
  5
1266
330
1E
100
AcDbEntity
  8
STEMPEL
100
AcDbLine
 10
345.0220423924475
 20
391.5351485096186
 30
0.0
 11
345.0220423924475
 21
384.5351485096186
 31
0.0
  0
ARC
  5
1267
330
1E
100
AcDbEntity
  8
STEMPEL
100
AcDbCircle
 10
202.2476223924484
 20
388.035148509628
 30
0.0
 40
124.5724999999997
100
AcDbArc
 50
3.912523436745187
 51
5.13519465837339
  0
LINE
  5
1268
330
1E
100
AcDbEntity
  8
STEMPEL
100
AcDbLine
 10
326.3201223924483
 20
399.1851485096248
 30
0.0
 11
324.0220423924486
 21
399.1851485096248
 31
0.0
  0
LINE
  5
1269
330
1E
100
AcDbEntity
  8
STEMPEL
100
AcDbLine
 10
326.3201223924477
 20
376.8851485096247
 30
0.0
 11
324.022042392448
 21
376.8851485096247
 31
0.0
  0
LINE
  5
126A
330
1E
100
AcDbEntity
  8
STEMPEL
100
AcDbLine
 10
334.0280643459193
 20
379.5351485096008
 30
0.0
 11
334.0280643459199
 21
396.5351485096008
 31
0.0
  0
LINE
  5
126B
330
1E
100
AcDbEntity
  8
STEMPEL
100
AcDbLine
 10
334.0280643459198
 20
396.5351485096008
 30
0.0
 11
326.5297922972677
 21
396.5351485096011
 31
0.0
  0
LINE
  5
126C
330
1E
100
AcDbEntity
  8
STEMPEL
100
AcDbLine
 10
334.0280643459193
 20
379.5351485096008
 30
0.0
 11
326.5297922972641
 21
379.5351485096011
 31
0.0
  0
LINE
  5
126D
330
1E
100
AcDbEntity
  8
STEMPEL
100
AcDbLine
 10
333.2171764532202
 20
388.0351485096245
 30
0.0
 11
326.5297922972659
 21
388.0351485096247
 31
0.0
  0
ARC
  5
126E
330
1E
100
AcDbEntity
  8
STEMPEL
100
AcDbCircle
 10
202.2476223924484
 20
388.035148509628
 30
0.0
 40
124.5724999999997
100
AcDbArc
 50
354.8648053416235
 51
356.08747656323
  0
ARC
  5
126F
330
1E
100
AcDbEntity
  8
STEMPEL
100
AcDbCircle
 10
295.568123606841
 20
392.2851485096199
 30
0.0
 40
31.25199878560711
100
AcDbArc
 50
352.1840540327113
 51
7.815945967262834
  0
ARC
  5
1270
330
1E
100
AcDbEntity
  8
STEMPEL
100
AcDbCircle
 10
295.5681236066713
 20
383.7851485096194
 30
0.0
 40
31.25199878577668
100
AcDbArc
 50
352.1840540327111
 51
7.81594596726464
  0
ARC
  5
1271
330
1E
100
AcDbEntity
  8
STEMPEL
100
AcDbCircle
 10
322.4851375474284
 20
392.285148509613
 30
0.0
 40
11.54292679849139
100
AcDbArc
 50
338.3959146483832
 51
21.60408535161371
  0
ARC
  5
1272
330
1E
100
AcDbEntity
  8
STEMPEL
100
AcDbCircle
 10
322.4851375473043
 20
383.7851485096131
 30
0.0
 40
11.54292679861526
100
AcDbArc
 50
338.3959146485003
 51
21.60408535149652
  0
ARC
  5
1273
330
1E
100
AcDbEntity
  8
STEMPEL
100
AcDbCircle
 10
319.3649691910632
 20
383.7851485096131
 30
0.0
 40
11.54292679861526
100
AcDbArc
 50
158.3959146485019
 51
201.6040853514982
  0
ARC
  5
1274
330
1E
100
AcDbEntity
  8
STEMPEL
100
AcDbCircle
 10
319.3649691909394
 20
392.285148509613
 30
0.0
 40
11.54292679849139
100
AcDbArc
 50
158.3959146483848
 51
201.6040853516153
  0
ARC
  5
1275
330
1E
100
AcDbEntity
  8
STEMPEL
100
AcDbCircle
 10
345.4759611782249
 20
383.7851485096188
 30
0.0
 40
31.25199878577668
100
AcDbArc
 50
172.1840540327338
 51
187.8159459672874
  0
ARC
  5
1276
330
1E
100
AcDbEntity
  8
STEMPEL
100
AcDbCircle
 10
345.4759611780553
 20
392.2851485096192
 30
0.0
 40
31.25199878560711
100
AcDbArc
 50
172.1840540327356
 51
187.8159459672872
  0
ARC
  5
1277
330
1E
100
AcDbEntity
  8
STEMPEL
100
AcDbCircle
 10
438.7964623924479
 20
388.0351485096248
 30
0.0
 40
124.5724999999997
100
AcDbArc
 50
183.9125234367685
 51
185.1351946583749
  0
LINE
  5
1278
330
1E
100
AcDbEntity
  8
STEMPEL
100
AcDbLine
 10
308.6329302851475
 20
388.0351485096248
 30
0.0
 11
314.5142924876304
 21
388.0351485096248
 31
0.0
  0
LINE
  5
1279
330
1E
100
AcDbEntity
  8
STEMPEL
100
AcDbLine
 10
307.822042392448
 20
379.5351485096012
 30
0.0
 11
314.514292487632
 21
379.5351485096012
 31
0.0
  0
LINE
  5
127A
330
1E
100
AcDbEntity
  8
STEMPEL
100
AcDbLine
 10
307.822042392448
 20
396.5351485096011
 30
0.0
 11
314.5142924876287
 21
396.5351485096012
 31
0.0
  0
LINE
  5
127B
330
1E
100
AcDbEntity
  8
STEMPEL
100
AcDbLine
 10
307.822042392448
 20
379.5351485096012
 30
0.0
 11
307.8220423924479
 21
396.5351485096011
 31
0.0
  0
LINE
  5
127C
330
1E
100
AcDbEntity
  8
STEMPEL
100
AcDbLine
 10
314.7239623924483
 20
376.8851485096248
 30
0.0
 11
317.022042392448
 21
376.8851485096248
 31
0.0
  0
LINE
  5
127D
330
1E
100
AcDbEntity
  8
STEMPEL
100
AcDbLine
 10
314.7239623924483
 20
399.1851485096248
 30
0.0
 11
317.022042392448
 21
399.1851485096248
 31
0.0
  0
ARC
  5
127E
330
1E
100
AcDbEntity
  8
STEMPEL
100
AcDbCircle
 10
438.7964623924479
 20
388.0351485096248
 30
0.0
 40
124.5724999999997
100
AcDbArc
 50
174.8648053416251
 51
176.0874765632533
  0
LINE
  5
127F
330
1E
100
AcDbEntity
  8
MITTEL
100
AcDbLine
 10
302.8220423924479
 20
388.0351485096249
 30
0.0
 11
350.0220423924475
 21
388.0351485096248
 31
0.0
  0
LINE
  5
1280
330
1E
100
AcDbEntity
  8
MITTEL
100
AcDbLine
 10
302.8220423924476
 20
428.0351485096246
 30
0.0
 11
350.0220423924472
 21
428.0351485096246
 31
0.0
  0
ARC
  5
1281
330
1E
100
AcDbEntity
  8
STEMPEL
100
AcDbCircle
 10
438.7964623924476
 20
428.0351485096246
 30
0.0
 40
124.5724999999997
100
AcDbArc
 50
174.8648053416251
 51
176.0874765632533
  0
LINE
  5
1282
330
1E
100
AcDbEntity
  8
STEMPEL
100
AcDbLine
 10
314.723962392448
 20
439.1851485096246
 30
0.0
 11
317.0220423924477
 21
439.1851485096245
 31
0.0
  0
LINE
  5
1283
330
1E
100
AcDbEntity
  8
STEMPEL
100
AcDbLine
 10
314.723962392448
 20
416.8851485096245
 30
0.0
 11
317.0220423924477
 21
416.8851485096245
 31
0.0
  0
LINE
  5
1284
330
1E
100
AcDbEntity
  8
STEMPEL
100
AcDbLine
 10
307.8220423924478
 20
419.535148509601
 30
0.0
 11
307.8220423924477
 21
436.5351485096009
 31
0.0
  0
LINE
  5
1285
330
1E
100
AcDbEntity
  8
STEMPEL
100
AcDbLine
 10
307.8220423924478
 20
436.5351485096009
 30
0.0
 11
314.5142924876285
 21
436.535148509601
 31
0.0
  0
LINE
  5
1286
330
1E
100
AcDbEntity
  8
STEMPEL
100
AcDbLine
 10
307.8220423924478
 20
419.535148509601
 30
0.0
 11
314.5142924876318
 21
419.535148509601
 31
0.0
  0
LINE
  5
1287
330
1E
100
AcDbEntity
  8
STEMPEL
100
AcDbLine
 10
308.6329302851473
 20
428.0351485096246
 30
0.0
 11
314.5142924876302
 21
428.0351485096246
 31
0.0
  0
ARC
  5
1288
330
1E
100
AcDbEntity
  8
STEMPEL
100
AcDbCircle
 10
438.7964623924476
 20
428.0351485096246
 30
0.0
 40
124.5724999999997
100
AcDbArc
 50
183.9125234367685
 51
185.1351946583749
  0
ARC
  5
1289
330
1E
100
AcDbEntity
  8
STEMPEL
100
AcDbCircle
 10
345.4759611780551
 20
432.2851485096189
 30
0.0
 40
31.25199878560711
100
AcDbArc
 50
172.1840540327356
 51
187.8159459672872
  0
ARC
  5
128A
330
1E
100
AcDbEntity
  8
STEMPEL
100
AcDbCircle
 10
345.4759611782247
 20
423.7851485096185
 30
0.0
 40
31.25199878577668
100
AcDbArc
 50
172.1840540327338
 51
187.8159459672874
  0
ARC
  5
128B
330
1E
100
AcDbEntity
  8
STEMPEL
100
AcDbCircle
 10
319.3649691909392
 20
432.2851485096127
 30
0.0
 40
11.54292679849139
100
AcDbArc
 50
158.3959146483848
 51
201.6040853516153
  0
ARC
  5
128C
330
1E
100
AcDbEntity
  8
STEMPEL
100
AcDbCircle
 10
319.364969191063
 20
423.7851485096128
 30
0.0
 40
11.54292679861526
100
AcDbArc
 50
158.3959146485019
 51
201.6040853514982
  0
ARC
  5
128D
330
1E
100
AcDbEntity
  8
STEMPEL
100
AcDbCircle
 10
322.485137547304
 20
423.7851485096128
 30
0.0
 40
11.54292679861526
100
AcDbArc
 50
338.3959146485003
 51
21.60408535149652
  0
ARC
  5
128E
330
1E
100
AcDbEntity
  8
STEMPEL
100
AcDbCircle
 10
322.4851375474282
 20
432.2851485096127
 30
0.0
 40
11.54292679849139
100
AcDbArc
 50
338.3959146483832
 51
21.60408535161371
  0
ARC
  5
128F
330
1E
100
AcDbEntity
  8
STEMPEL
100
AcDbCircle
 10
295.5681236066711
 20
423.7851485096191
 30
0.0
 40
31.25199878577668
100
AcDbArc
 50
352.1840540327111
 51
7.81594596726464
  0
ARC
  5
1290
330
1E
100
AcDbEntity
  8
STEMPEL
100
AcDbCircle
 10
295.5681236068408
 20
432.2851485096196
 30
0.0
 40
31.25199878560711
100
AcDbArc
 50
352.1840540327113
 51
7.815945967262834
  0
ARC
  5
1291
330
1E
100
AcDbEntity
  8
STEMPEL
100
AcDbCircle
 10
202.2476223924482
 20
428.0351485096278
 30
0.0
 40
124.5724999999997
100
AcDbArc
 50
354.8648053416235
 51
356.08747656323
  0
LINE
  5
1292
330
1E
100
AcDbEntity
  8
STEMPEL
100
AcDbLine
 10
333.2171764532199
 20
428.0351485096243
 30
0.0
 11
326.5297922972657
 21
428.0351485096245
 31
0.0
  0
LINE
  5
1293
330
1E
100
AcDbEntity
  8
STEMPEL
100
AcDbLine
 10
334.0280643459191
 20
419.5351485096006
 30
0.0
 11
326.5297922972639
 21
419.5351485096008
 31
0.0
  0
LINE
  5
1294
330
1E
100
AcDbEntity
  8
STEMPEL
100
AcDbLine
 10
334.0280643459196
 20
436.5351485096005
 30
0.0
 11
326.5297922972675
 21
436.5351485096008
 31
0.0
  0
LINE
  5
1295
330
1E
100
AcDbEntity
  8
STEMPEL
100
AcDbLine
 10
334.0280643459191
 20
419.5351485096006
 30
0.0
 11
334.0280643459197
 21
436.5351485096005
 31
0.0
  0
LINE
  5
1296
330
1E
100
AcDbEntity
  8
STEMPEL
100
AcDbLine
 10
326.3201223924475
 20
416.8851485096245
 30
0.0
 11
324.0220423924478
 21
416.8851485096245
 31
0.0
  0
LINE
  5
1297
330
1E
100
AcDbEntity
  8
STEMPEL
100
AcDbLine
 10
326.3201223924481
 20
439.1851485096245
 30
0.0
 11
324.0220423924484
 21
439.1851485096245
 31
0.0
  0
ARC
  5
1298
330
1E
100
AcDbEntity
  8
STEMPEL
100
AcDbCircle
 10
202.2476223924482
 20
428.0351485096278
 30
0.0
 40
124.5724999999997
100
AcDbArc
 50
3.912523436745187
 51
5.13519465837339
  0
LINE
  5
1299
330
1E
100
AcDbEntity
  8
STEMPEL
100
AcDbLine
 10
345.0220423924473
 20
431.5351485096183
 30
0.0
 11
345.0220423924473
 21
424.5351485096183
 31
0.0
  0
LINE
  5
129A
330
1E
100
AcDbEntity
  8
STEMPEL
100
AcDbLine
 10
343.5220423924473
 20
433.0351485096183
 30
0.0
 11
345.0220423924473
 21
431.5351485096183
 31
0.0
  0
LINE
  5
129B
330
1E
100
AcDbEntity
  8
STEMPEL
100
AcDbLine
 10
343.5220423924473
 20
433.0351485096183
 30
0.0
 11
343.5220423924473
 21
423.0351485096183
 31
0.0
  0
LINE
  5
129C
330
1E
100
AcDbEntity
  8
STEMPEL
100
AcDbLine
 10
345.0220423924473
 20
424.5351485096183
 30
0.0
 11
343.5220423924473
 21
423.0351485096183
 31
0.0
  0
LINE
  5
129D
330
1E
100
AcDbEntity
  8
STEMPEL
100
AcDbLine
 10
320.022042392448
 20
423.0351485096183
 30
0.0
 11
321.0220423924479
 21
423.0351485096184
 31
0.0
  0
LINE
  5
129E
330
1E
100
AcDbEntity
  8
HILF
100
AcDbLine
 10
320.022042392448
 20
424.5351485096183
 30
0.0
 11
321.0220423924479
 21
424.5351485096182
 31
0.0
  0
LINE
  5
129F
330
1E
100
AcDbEntity
  8
STEMPEL
100
AcDbLine
 10
320.0220423924479
 20
433.0351485096183
 30
0.0
 11
321.0220423924479
 21
433.0351485096184
 31
0.0
  0
LINE
  5
12A0
330
1E
100
AcDbEntity
  8
HILF
100
AcDbLine
 10
320.0220423924479
 20
431.5351485096183
 30
0.0
 11
321.0220423924479
 21
431.5351485096183
 31
0.0
  0
DIMENSION
  5
12A1
330
1E
100
AcDbEntity
  8
BEM
100
AcDbDimension
  2
*D3
 10
369.5220423924475
 20
449.5006415242898
 30
0.0
 11
320.5220423924479
 21
456.0006415242899
 31
0.0
 70
    32
  1
%%c<>
 71
     5
 42
97.9999999999991
  3
Standard
100
AcDbAlignedDimension
 13
271.5220423924484
 23
436.535148509606
 33
0.0
 14
369.5220423924475
 24
436.5351485096063
 34
0.0
100
AcDbRotatedDimension
1001
ACAD
1000
DSTYLE
1002
{
1070
    40
1040
2.0
1070
    41
1040
3.5
1070
    42
1040
1.0
1070
    43
1040
7.0
1070
    44
1040
1.0
1070
    73
1070
     0
1070
    74
1070
     0
1070
    77
1070
     1
1070
    78
1070
     8
1070
    79
1070
     2
1070
   140
1040
3.5
1070
   141
1040
1.5
1070
   146
1040
0.5
1070
   147
1040
1.5
1070
   172
1070
     1
1070
   178
1070
     1
1070
   179
1070
     2
1070
   271
1070
     2
1070
   272
1070
     2
1070
   284
1070
     8
1070
   285
1070
     8
1070
   286
1070
     8
1002
}
  0
DIMENSION
  5
12AE
330
1E
100
AcDbEntity
  8
BEM
100
AcDbDimension
  2
*D4
 10
363.222042392448
 20
355.8724793807394
 30
0.0
 11
320.5220423924481
 21
362.3724793807394
 31
0.0
 70
    32
  1
%%c<>
 71
     5
 42
85.39999999999963
  3
Standard
100
AcDbAlignedDimension
 13
277.8220423924484
 23
376.5351485096059
 33
0.0
 14
363.222042392448
 24
376.5351485096061
 34
0.0
100
AcDbRotatedDimension
1001
ACAD
1000
DSTYLE
1002
{
1070
    40
1040
2.0
1070
    41
1040
3.5
1070
    42
1040
1.0
1070
    43
1040
7.0
1070
    44
1040
1.0
1070
    73
1070
     0
1070
    74
1070
     0
1070
    77
1070
     1
1070
    78
1070
     8
1070
    79
1070
     2
1070
   140
1040
3.5
1070
   141
1040
1.5
1070
   146
1040
0.5
1070
   147
1040
1.5
1070
   172
1070
     1
1070
   178
1070
     1
1070
   179
1070
     2
1070
   271
1070
     2
1070
   272
1070
     2
1070
   284
1070
     8
1070
   285
1070
     8
1070
   286
1070
     8
1002
}
  0
ARC
  5
12E1
330
1E
100
AcDbEntity
  8
STEMPEL
100
AcDbCircle
 10
366.7220423924482
 20
418.5318164099268
 30
0.0
 40
1.0
100
AcDbArc
 50
120.000000000008
 51
179.9999999999994
  0
ARC
  5
12E2
330
1E
100
AcDbEntity
  8
STEMPEL
100
AcDbCircle
 10
274.3220423924478
 20
418.5318164099266
 30
0.0
 40
1.0
100
AcDbArc
 50
0.0000000000009669
 51
59.99999999999199
  0
LINE
  5
12E3
330
1E
100
AcDbEntity
  8
HILF
100
AcDbLine
 10
364.7855507193444
 20
419.0318164099267
 30
0.0
 11
326.4943437469871
 21
419.0318164099267
 31
0.0
  0
LINE
  5
12E4
330
1E
100
AcDbEntity
  8
HILF
100
AcDbLine
 10
362.359815792257
 20
387.1896394521955
 30
0.0
 11
345.0220423924475
 21
387.1896394521955
 31
0.0
  0
LINE
  5
12E5
330
1E
100
AcDbEntity
  8
HILF
100
AcDbLine
 10
364.2270138791997
 20
393.7586461549499
 30
0.0
 11
334.0280643459198
 21
393.7586461549497
 31
0.0
  0
LINE
  5
12E6
330
1E
100
AcDbEntity
  8
HILF
100
AcDbLine
 10
367.8449180479798
 20
421.5351485096059
 30
0.0
 11
334.0280643459192
 21
421.5351485096057
 31
0.0
  0
LINE
  5
12E7
330
1E
100
AcDbEntity
  8
HILF
100
AcDbLine
 10
368.5220423924473
 20
436.5351485096063
 30
0.0
 11
326.5297922972667
 21
436.5351485096062
 31
0.0
  0
LINE
  5
12F2
330
1E
100
AcDbEntity
  8
HILF
100
AcDbLine
 10
314.5497410379086
 20
419.0318164099265
 30
0.0
 11
276.2585340655516
 21
419.0318164099264
 31
0.0
  0
LINE
  5
12F3
330
1E
100
AcDbEntity
  8
HILF
100
AcDbLine
 10
314.5142924876289
 20
436.5351485096062
 30
0.0
 11
272.5220423924487
 21
436.5351485096061
 31
0.0
  0
LINE
  5
12F5
330
1E
100
AcDbEntity
  8
HILF
100
AcDbLine
 10
307.8220423924479
 20
393.7586461549496
 30
0.0
 11
276.8170709056964
 21
393.7586461549495
 31
0.0
  0
LINE
  5
12F7
330
1E
100
AcDbEntity
  8
HILF
100
AcDbLine
 10
307.8220423924479
 20
387.1896394521954
 30
0.0
 11
278.6842689926392
 21
387.1896394521952
 31
0.0
  0
LINE
  5
12F9
330
1E
100
AcDbEntity
  8
HILF
100
AcDbLine
 10
307.8220423924477
 20
421.5351485096057
 30
0.0
 11
273.199166736916
 21
421.5351485096057
 31
0.0
  0
ARC
  5
12FC
330
1E
100
AcDbEntity
  8
STEMPEL
100
AcDbCircle
 10
104.0661222609628
 20
418.5318164099247
 30
0.0
 40
1.0
100
AcDbArc
 50
0.0000000000009669
 51
59.99999999999199
  0
LINE
  5
12FD
330
1E
100
AcDbEntity
  8
STEMPEL
100
AcDbLine
 10
107.5661222609632
 20
385.5351485096036
 30
0.0
 11
107.5661222609633
 21
376.5351485096041
 31
0.0
  0
ARC
  5
12FE
330
1E
100
AcDbEntity
  8
STEMPEL
100
AcDbCircle
 10
104.2661222609633
 20
436.5351485096041
 30
0.0
 40
3.0
100
AcDbArc
 50
90.00000000000035
 51
180.0000000000004
  0
LINE
  5
12FF
330
1E
100
AcDbEntity
  8
STEMPEL
100
AcDbLine
 10
101.2661222609636
 20
436.5351485096041
 30
0.0
 11
101.2661222609634
 21
423.0351485096037
 31
0.0
  0
LINE
  5
1300
330
1E
100
AcDbEntity
  8
STEMPEL
100
AcDbLine
 10
102.7661222609631
 20
420.4370722982505
 30
0.0
 11
104.5661222609629
 21
419.397841813709
 31
0.0
  0
LINE
  5
1301
330
1E
100
AcDbEntity
  8
STEMPEL
100
AcDbLine
 10
105.0661222609628
 20
418.5318164099247
 30
0.0
 11
105.0661222609631
 21
398.9051485096034
 31
0.0
  0
ARC
  5
1302
330
1E
100
AcDbEntity
  8
STEMPEL
100
AcDbCircle
 10
133.0661222609631
 20
398.9051485096035
 30
0.0
 40
28.0
100
AcDbArc
 50
180.0000000000004
 51
201.1827818048601
  0
ARC
  5
1303
330
1E
100
AcDbEntity
  8
STEMPEL
100
AcDbCircle
 10
98.5661222609632
 20
385.5354065524826
 30
0.0
 40
9.0
100
AcDbArc
 50
0.0000000000003639
 51
21.1827818048601
  0
ARC
  5
1304
330
1E
100
AcDbEntity
  8
STEMPEL
100
AcDbCircle
 10
104.2661222609635
 20
423.0351485096036
 30
0.0
 40
3.0
100
AcDbArc
 50
180.0000000000004
 51
239.9999999999942
  0
LINE
  5
1305
330
1E
100
AcDbEntity
  8
HILF
100
AcDbLine
 10
192.1038956607714
 20
387.1896394521937
 30
0.0
 11
108.4283488611542
 21
387.1896394521934
 31
0.0
  0
LINE
  5
1306
330
1E
100
AcDbEntity
  8
HILF
100
AcDbLine
 10
193.9710937477142
 20
393.758646154948
 30
0.0
 11
106.5611507742114
 21
393.7586461549476
 31
0.0
  0
LINE
  5
1307
330
1E
100
AcDbEntity
  8
HILF
100
AcDbLine
 10
197.5889979164952
 20
421.535148509604
 30
0.0
 11
102.943246605431
 21
421.5351485096038
 31
0.0
  0
LINE
  5
1308
330
1E
100
AcDbEntity
  8
HILF
100
AcDbLine
 10
198.2661222609624
 20
436.5351485096044
 30
0.0
 11
102.2661222609636
 21
436.5351485096042
 31
0.0
  0
LINE
  5
1309
330
1E
100
AcDbEntity
  8
HILF
100
AcDbLine
 10
194.5296305878592
 20
419.0318164099248
 30
0.0
 11
106.0026139340666
 21
419.0318164099245
 31
0.0
  0
ARC
  5
130A
330
1E
100
AcDbEntity
  8
STEMPEL
100
AcDbCircle
 10
196.2661222609622
 20
423.0351485096034
 30
0.0
 40
3.0
100
AcDbArc
 50
300.0000000000054
 51
359.9999999999992
  0
LINE
  5
130B
330
1E
100
AcDbEntity
  8
STEMPEL
100
AcDbLine
 10
197.7661222609625
 20
420.4370722982503
 30
0.0
 11
195.9661222609627
 21
419.3978418137088
 31
0.0
  0
LINE
  5
130C
330
1E
100
AcDbEntity
  8
STEMPEL
100
AcDbLine
 10
199.2661222609621
 20
436.5351485096039
 30
0.0
 11
199.2661222609622
 21
423.0351485096035
 31
0.0
  0
ARC
  5
130D
330
1E
100
AcDbEntity
  8
STEMPEL
100
AcDbCircle
 10
196.2661222609624
 20
436.5351485096039
 30
0.0
 40
3.0
100
AcDbArc
 50
359.9999999999992
 51
89.99999999999928
  0
ARC
  5
130E
330
1E
100
AcDbEntity
  8
STEMPEL
100
AcDbCircle
 10
196.4661222609628
 20
418.5318164099244
 30
0.0
 40
1.0
100
AcDbArc
 50
120.0000000000076
 51
179.9999999999986
  0
LINE
  5
130F
330
1E
100
AcDbEntity
  8
STEMPEL
100
AcDbLine
 10
195.4661222609628
 20
418.5318164099244
 30
0.0
 11
195.4661222609624
 21
398.9051485096032
 31
0.0
  0
ARC
  5
1310
330
1E
100
AcDbEntity
  8
STEMPEL
100
AcDbCircle
 10
201.9661222609623
 20
385.5354065524823
 30
0.0
 40
9.0
100
AcDbArc
 50
158.8172181951395
 51
179.9999999999993
  0
ARC
  5
1311
330
1E
100
AcDbEntity
  8
STEMPEL
100
AcDbCircle
 10
167.4661222609624
 20
398.9051485096035
 30
0.0
 40
28.0
100
AcDbArc
 50
338.8172181951396
 51
359.9999999999992
  0
LINE
  5
1312
330
1E
100
AcDbEntity
  8
STEMPEL
100
AcDbLine
 10
192.9661222609622
 20
385.5351485096034
 30
0.0
 11
192.9661222609621
 21
376.5351485096038
 31
0.0
  0
ARC
  5
1330
330
1E
100
AcDbEntity
  8
STEMPEL
100
AcDbCircle
 10
203.32813955137
 20
280.0070373287553
 30
0.0
 40
6.76702312808409
100
AcDbArc
 50
61.66295729179192
 51
118.3370427082302
  0
ARC
  5
1331
330
1E
100
AcDbEntity
  8
STEMPEL
100
AcDbCircle
 10
211.2661222609689
 20
272.5968304568391
 30
0.0
 40
14.17723
100
AcDbArc
 50
70.52782738137604
 51
109.4721726186241
  0
ARC
  5
1332
330
1E
100
AcDbEntity
  8
STEMPEL
100
AcDbCircle
 10
219.2041049705683
 20
280.0070373287574
 30
0.0
 40
6.767023128081929
100
AcDbArc
 50
61.66295729176642
 51
118.3370427082156
  0
ARC
  5
1333
330
1E
100
AcDbEntity
  8
STEMPEL
100
AcDbCircle
 10
97.20410497055516
 20
280.0070373287559
 30
0.0
 40
6.76702312808409
100
AcDbArc
 50
61.66295729177051
 51
118.3370427082087
  0
ARC
  5
1334
330
1E
100
AcDbEntity
  8
STEMPEL
100
AcDbCircle
 10
89.26612226095629
 20
272.5968304568397
 30
0.0
 40
14.17723
100
AcDbArc
 50
70.52782738137349
 51
109.4721726186246
  0
ARC
  5
1335
330
1E
100
AcDbEntity
  8
STEMPEL
100
AcDbCircle
 10
81.32813955135681
 20
280.0070373287579
 30
0.0
 40
6.767023128081929
100
AcDbArc
 50
61.66295729178511
 51
118.3370427082342
  0
LINE
  5
133A
330
1E
100
AcDbEntity
  8
STEMPEL
100
AcDbLine
 10
334.0280643459195
 20
433.0351485096183
 30
0.0
 11
343.5220423924473
 21
433.0351485096183
 31
0.0
  0
LINE
  5
133B
330
1E
100
AcDbEntity
  8
HILF
100
AcDbLine
 10
334.0280643459196
 20
431.5351485096183
 30
0.0
 11
345.0220423924473
 21
431.5351485096183
 31
0.0
  0
LINE
  5
133C
330
1E
100
AcDbEntity
  8
HILF
100
AcDbLine
 10
334.0280643459193
 20
424.5351485096183
 30
0.0
 11
345.0220423924473
 21
424.5351485096183
 31
0.0
  0
LINE
  5
133D
330
1E
100
AcDbEntity
  8
STEMPEL
100
AcDbLine
 10
334.0280643459192
 20
423.0351485096183
 30
0.0
 11
343.5220423924473
 21
423.0351485096183
 31
0.0
  0
LINE
  5
133E
330
1E
100
AcDbEntity
  8
STEMPEL
100
AcDbLine
 10
334.0280643459197
 20
393.0351485096185
 30
0.0
 11
343.5220423924475
 21
393.0351485096186
 31
0.0
  0
LINE
  5
133F
330
1E
100
AcDbEntity
  8
HILF
100
AcDbLine
 10
334.0280643459197
 20
391.5351485096185
 30
0.0
 11
345.0220423924475
 21
391.5351485096186
 31
0.0
  0
LINE
  5
1340
330
1E
100
AcDbEntity
  8
HILF
100
AcDbLine
 10
334.0280643459195
 20
384.5351485096186
 30
0.0
 11
345.0220423924475
 21
384.5351485096186
 31
0.0
  0
LINE
  5
1341
330
1E
100
AcDbEntity
  8
STEMPEL
100
AcDbLine
 10
334.0280643459195
 20
383.0351485096186
 30
0.0
 11
343.5220423924475
 21
383.0351485096186
 31
0.0
  0
ENDSEC
  0
SECTION
  2
OBJECTS
  0
DICTIONARY
  5
C
330
0
100
AcDbDictionary
281
     1
  3
ACAD_COLOR
350
DF
  3
ACAD_GROUP
350
D
  3
ACAD_LAYOUT
350
19
  3
ACAD_MATERIAL
350
DE
  3
ACAD_MLINESTYLE
350
16
  3
ACAD_PLOTSETTINGS
350
18
  3
ACAD_PLOTSTYLENAME
350
E
  3
AcDbVariableDictionary
350
EA
  0
DICTIONARY
  5
A0
330
1E
100
AcDbDictionary
280
     1
281
     1
  3
ACAD_LAYOUTSELFREF
360
D4
  0
DICTIONARY
  5
A2
330
1A
100
AcDbDictionary
280
     1
281
     1
  3
ACAD_LAYOUTSELFREF
360
D3
  0
DICTIONARY
  5
10F2
330
10F1
100
AcDbDictionary
280
     1
281
     1
  3
ACAD_DIMASSOC
360
10F3
  0
DICTIONARY
  5
DF
102
{ACAD_REACTORS
330
C
102
}
330
C
100
AcDbDictionary
281
     1
  0
DICTIONARY
  5
D
102
{ACAD_REACTORS
330
C
102
}
330
C
100
AcDbDictionary
281
     1
  0
DICTIONARY
  5
19
102
{ACAD_REACTORS
330
C
102
}
330
C
100
AcDbDictionary
281
     1
  3
Layout1
350
1D
  3
Model
350
21
  0
DICTIONARY
  5
DE
102
{ACAD_REACTORS
330
C
102
}
330
C
100
AcDbDictionary
281
     1
  0
DICTIONARY
  5
16
102
{ACAD_REACTORS
330
C
102
}
330
C
100
AcDbDictionary
281
     1
  3
Standard
350
17
  0
DICTIONARY
  5
18
102
{ACAD_REACTORS
330
C
102
}
330
C
100
AcDbDictionary
281
     1
  0
ACDBDICTIONARYWDFLT
  5
E
102
{ACAD_REACTORS
330
C
102
}
330
C
100
AcDbDictionary
281
     1
  3
Normal
350
F
100
AcDbDictionaryWithDefault
340
F
  0
DICTIONARY
  5
EA
102
{ACAD_REACTORS
330
C
102
}
330
C
100
AcDbDictionary
281
     1
  3
DIMASSOC
350
EB
  3
PROJECTNAME
350
EC
  0
XRECORD
  5
D4
102
{ACAD_REACTORS
330
A0
102
}
330
A0
100
AcDbXrecord
280
     1
340
1E
  0
XRECORD
  5
D3
102
{ACAD_REACTORS
330
A2
102
}
330
A2
100
AcDbXrecord
280
     1
340
1A
  0
DIMASSOC
  5
10F3
102
{ACAD_REACTORS
330
10F2
102
}
330
10F2
100
AcDbDimAssoc
330
10F1
 90
        3
 70
     0
 71
     0
  1
AcDbOsnapPointRef
 72
     1
331
10F0
 73
     2
 91
        0
 40
1.0
 10
0.0
 20
0.0
 30
2.000000000000000E+50
 75
     0
  1
AcDbOsnapPointRef
 72
     1
331
10ED
 73
     2
 91
        0
 40
1.0
 10
0.0
 20
0.0
 30
2.000000000000000E+50
 75
     0
  0
LAYOUT
  5
1D
102
{ACAD_REACTORS
330
19
102
}
330
19
100
AcDbPlotSettings
  1

  2
\\NT_WORK01\HP LaserJet 5000 PCL 6
  4

  6

 40
0.0
 41
0.0
 42
0.0
 43
0.0
 44
0.0
 45
0.0
 46
0.0
 47
0.0
 48
0.0
 49
0.0
140
0.0
141
0.0
142
1.0
143
1.0
 70
   688
 72
     0
 73
     0
 74
     5
  7

 75
    16
147
1.0
 76
     0
 77
     2
 78
   300
148
0.0
149
0.0
100
AcDbLayout
  1
Layout1
 70
     0
 71
     1
 10
0.0
 20
0.0
 11
12.0
 21
9.0
 12
0.0
 22
0.0
 32
0.0
 14
1.000000000000000E+20
 24
1.000000000000000E+20
 34
1.000000000000000E+20
 15
-1.000000000000000E+20
 25
-1.000000000000000E+20
 35
-1.000000000000000E+20
146
0.0
 13
0.0
 23
0.0
 33
0.0
 16
1.0
 26
0.0
 36
0.0
 17
0.0
 27
1.0
 37
0.0
 76
     0
330
1A
  0
LAYOUT
  5
21
102
{ACAD_REACTORS
330
19
102
}
330
19
100
AcDbPlotSettings
  1

  2
none_device
  4
Letter_(8.50_x_11.00_Inches)
  6

 40
6.349999904632568
 41
6.349999904632568
 42
6.350006103515625
 43
6.350006103515625
 44
215.8999938964844
 45
279.3999938964844
 46
0.0
 47
0.0
 48
0.0
 49
0.0
140
0.0
141
0.0
142
1.0
143
1.0
 70
 11952
 72
     0
 73
     1
 74
     0
  7

 75
     0
147
1.0
 76
     0
 77
     2
 78
   300
148
2270.950743578438
149
61.15066382395687
100
AcDbLayout
  1
Model
 70
     1
 71
     0
 10
0.0
 20
0.0
 11
12.0
 21
9.0
 12
0.0
 22
0.0
 32
0.0
 14
0.0
 24
0.0
 34
0.0
 15
0.0
 25
0.0
 35
0.0
146
0.0
 13
0.0
 23
0.0
 33
0.0
 16
1.0
 26
0.0
 36
0.0
 17
0.0
 27
1.0
 37
0.0
 76
     0
330
1E
  0
MLINESTYLE
  5
17
102
{ACAD_REACTORS
330
16
102
}
330
16
100
AcDbMlineStyle
  2
STANDARD
 70
     0
  3

 62
   256
 51
90.0
 52
90.0
 71
     2
 49
0.5
 62
   256
  6
BYLAYER
 49
-0.5
 62
   256
  6
BYLAYER
  0
ACDBPLACEHOLDER
  5
F
102
{ACAD_REACTORS
330
E
102
}
330
E
  0
DICTIONARYVAR
  5
EB
102
{ACAD_REACTORS
330
EA
102
}
330
EA
100
DictionaryVariables
280
     0
  1
1
  0
DICTIONARYVAR
  5
EC
102
{ACAD_REACTORS
330
EA
102
}
330
EA
100
DictionaryVariables
280
     0
  1

  0
ENDSEC
  0
EOF
