  0
SECTION
  2
HEADER
  9
$ACADVER
  1
AC1018
  9
$ACADMAINTVER
 70
     2
  9
$DWGCODEPAGE
  3
ANSI_1252
  9
$INSBASE
 10
0.0
 20
0.0
 30
0.0
  9
$EXTMIN
 10
-0.025627235270008
 20
-0.0362442327398185
 30
-0.000000000000013
  9
$EXTMAX
 10
420.0256404375887
 20
594.0362629045889
 30
0.0000000000000023
  9
$LIMMIN
 10
0.0
 20
0.0
  9
$LIMMAX
 10
419.9999999999999
 20
594.0
  9
$ORTHOMODE
 70
     0
  9
$REGENMODE
 70
     1
  9
$FILLMODE
 70
     1
  9
$QTEXTMODE
 70
     0
  9
$MIRRTEXT
 70
     1
  9
$LTSCALE
 40
20.0
  9
$ATTMODE
 70
     1
  9
$TEXTSIZE
 40
3.5
  9
$TRACEWID
 40
0.5
  9
$TEXTSTYLE
  7
STANDARD
  9
$CLAYER
  8
BEM
  9
$CELTYPE
  6
ByLayer
  9
$CECOLOR
 62
   256
  9
$CELTSCALE
 40
1.0
  9
$DISPSILH
 70
     0
  9
$DIMSCALE
 40
2.0
  9
$DIMASZ
 40
3.5
  9
$DIMEXO
 40
1.0
  9
$DIMDLI
 40
7.0
  9
$DIMRND
 40
0.0
  9
$DIMDLE
 40
0.0
  9
$DIMEXE
 40
1.0
  9
$DIMTP
 40
0.0
  9
$DIMTM
 40
0.0
  9
$DIMTXT
 40
3.5
  9
$DIMCEN
 40
1.5
  9
$DIMTSZ
 40
0.0
  9
$DIMTOL
 70
     0
  9
$DIMLIM
 70
     0
  9
$DIMTIH
 70
     0
  9
$DIMTOH
 70
     0
  9
$DIMSE1
 70
     0
  9
$DIMSE2
 70
     0
  9
$DIMTAD
 70
     1
  9
$DIMZIN
 70
     8
  9
$DIMBLK
  1

  9
$DIMASO
 70
     1
  9
$DIMSHO
 70
     0
  9
$DIMPOST
  1

  9
$DIMAPOST
  1

  9
$DIMALT
 70
     0
  9
$DIMALTD
 70
     2
  9
$DIMALTF
 40
25.4
  9
$DIMLFAC
 40
1.0
  9
$DIMTOFL
 70
     1
  9
$DIMTVP
 40
0.0
  9
$DIMTIX
 70
     0
  9
$DIMSOXD
 70
     0
  9
$DIMSAH
 70
     0
  9
$DIMBLK1
  1

  9
$DIMBLK2
  1

  9
$DIMSTYLE
  2
Standard
  9
$DIMCLRD
 70
     0
  9
$DIMCLRE
 70
     0
  9
$DIMCLRT
 70
     1
  9
$DIMTFAC
 40
0.5
  9
$DIMGAP
 40
1.5
  9
$DIMJUST
 70
     0
  9
$DIMSD1
 70
     0
  9
$DIMSD2
 70
     0
  9
$DIMTOLJ
 70
     1
  9
$DIMTZIN
 70
     8
  9
$DIMALTZ
 70
     8
  9
$DIMALTTZ
 70
     8
  9
$DIMUPT
 70
     0
  9
$DIMDEC
 70
     2
  9
$DIMTDEC
 70
     2
  9
$DIMALTU
 70
     2
  9
$DIMALTTD
 70
     2
  9
$DIMTXSTY
  7
STANDARD
  9
$DIMAUNIT
 70
     0
  9
$DIMADEC
 70
     2
  9
$DIMALTRND
 40
0.0
  9
$DIMAZIN
 70
     2
  9
$DIMDSEP
 70
    46
  9
$DIMATFIT
 70
     3
  9
$DIMFRAC
 70
     0
  9
$DIMLDRBLK
  1

  9
$DIMLUNIT
 70
     2
  9
$DIMLWD
 70
    -2
  9
$DIMLWE
 70
    -2
  9
$DIMTMOVE
 70
     0
  9
$LUNITS
 70
     2
  9
$LUPREC
 70
     2
  9
$SKETCHINC
 40
1.0
  9
$FILLETRAD
 40
3.0
  9
$AUNITS
 70
     0
  9
$AUPREC
 70
     0
  9
$MENU
  1
ACAD
  9
$ELEVATION
 40
0.0
  9
$PELEVATION
 40
0.0
  9
$THICKNESS
 40
0.0
  9
$LIMCHECK
 70
     0
  9
$CHAMFERA
 40
0.0
  9
$CHAMFERB
 40
0.0
  9
$CHAMFERC
 40
0.0
  9
$CHAMFERD
 40
0.0
  9
$SKPOLY
 70
     0
  9
$TDCREATE
 40
2455397.864709028
  9
$TDUCREATE
 40
2455397.781375695
  9
$TDUPDATE
 40
2455455.597462627
  9
$TDUUPDATE
 40
2455455.514129294
  9
$TDINDWG
 40
0.1225024074
  9
$TDUSRTIMER
 40
0.1225024074
  9
$USRTIMER
 70
     1
  9
$ANGBASE
 50
0.0
  9
$ANGDIR
 70
     0
  9
$PDMODE
 70
     0
  9
$PDSIZE
 40
0.0
  9
$PLINEWID
 40
0.0
  9
$SPLFRAME
 70
     0
  9
$SPLINETYPE
 70
     6
  9
$SPLINESEGS
 70
     8
  9
$HANDSEED
  5
F03
  9
$SURFTAB1
 70
     6
  9
$SURFTAB2
 70
     6
  9
$SURFTYPE
 70
     6
  9
$SURFU
 70
     6
  9
$SURFV
 70
     6
  9
$UCSBASE
  2

  9
$UCSNAME
  2

  9
$UCSORG
 10
0.0
 20
0.0
 30
0.0
  9
$UCSXDIR
 10
1.0
 20
0.0
 30
0.0
  9
$UCSYDIR
 10
0.0
 20
1.0
 30
0.0
  9
$UCSORTHOREF
  2

  9
$UCSORTHOVIEW
 70
     0
  9
$UCSORGTOP
 10
0.0
 20
0.0
 30
0.0
  9
$UCSORGBOTTOM
 10
0.0
 20
0.0
 30
0.0
  9
$UCSORGLEFT
 10
0.0
 20
0.0
 30
0.0
  9
$UCSORGRIGHT
 10
0.0
 20
0.0
 30
0.0
  9
$UCSORGFRONT
 10
0.0
 20
0.0
 30
0.0
  9
$UCSORGBACK
 10
0.0
 20
0.0
 30
0.0
  9
$PUCSBASE
  2

  9
$PUCSNAME
  2

  9
$PUCSORG
 10
0.0
 20
0.0
 30
0.0
  9
$PUCSXDIR
 10
1.0
 20
0.0
 30
0.0
  9
$PUCSYDIR
 10
0.0
 20
1.0
 30
0.0
  9
$PUCSORTHOREF
  2

  9
$PUCSORTHOVIEW
 70
     0
  9
$PUCSORGTOP
 10
0.0
 20
0.0
 30
0.0
  9
$PUCSORGBOTTOM
 10
0.0
 20
0.0
 30
0.0
  9
$PUCSORGLEFT
 10
0.0
 20
0.0
 30
0.0
  9
$PUCSORGRIGHT
 10
0.0
 20
0.0
 30
0.0
  9
$PUCSORGFRONT
 10
0.0
 20
0.0
 30
0.0
  9
$PUCSORGBACK
 10
0.0
 20
0.0
 30
0.0
  9
$USERI1
 70
     0
  9
$USERI2
 70
     0
  9
$USERI3
 70
     0
  9
$USERI4
 70
     0
  9
$USERI5
 70
     0
  9
$USERR1
 40
0.0
  9
$USERR2
 40
0.0
  9
$USERR3
 40
0.0
  9
$USERR4
 40
0.0
  9
$USERR5
 40
0.0
  9
$WORLDVIEW
 70
     1
  9
$SHADEDGE
 70
     3
  9
$SHADEDIF
 70
    70
  9
$TILEMODE
 70
     1
  9
$MAXACTVP
 70
    16
  9
$PINSBASE
 10
0.0
 20
0.0
 30
0.0
  9
$PLIMCHECK
 70
     0
  9
$PEXTMIN
 10
1.000000000000000E+20
 20
1.000000000000000E+20
 30
1.000000000000000E+20
  9
$PEXTMAX
 10
-1.000000000000000E+20
 20
-1.000000000000000E+20
 30
-1.000000000000000E+20
  9
$PLIMMIN
 10
0.0
 20
0.0
  9
$PLIMMAX
 10
12.0
 20
9.0
  9
$UNITMODE
 70
     0
  9
$VISRETAIN
 70
     0
  9
$PLINEGEN
 70
     0
  9
$PSLTSCALE
 70
     0
  9
$TREEDEPTH
 70
  3020
  9
$CMLSTYLE
  2
Standard
  9
$CMLJUST
 70
     0
  9
$CMLSCALE
 40
1.0
  9
$PROXYGRAPHICS
 70
     1
  9
$MEASUREMENT
 70
     0
  9
$CELWEIGHT
370
    -1
  9
$ENDCAPS
280
     0
  9
$JOINSTYLE
280
     0
  9
$LWDISPLAY
290
     0
  9
$INSUNITS
 70
     0
  9
$HYPERLINKBASE
  1

  9
$STYLESHEET
  1
monochrome 1.ctb
  9
$XEDIT
290
     1
  9
$CEPSNTYPE
380
     0
  9
$PSTYLEMODE
290
     1
  9
$FINGERPRINTGUID
  2
{D68B0D02-A558-11D7-B632-000102183313}
  9
$VERSIONGUID
  2
{3E5DDBD4-5785-4AB0-BA6C-FE5106C418E0}
  9
$EXTNAMES
290
     1
  9
$PSVPSCALE
 40
0.0
  9
$OLESTARTUP
290
     0
  9
$SORTENTS
280
   127
  9
$INDEXCTL
280
     0
  9
$HIDETEXT
280
     0
  9
$XCLIPFRAME
290
     0
  9
$HALOGAP
280
     0
  9
$OBSCOLOR
 70
   257
  9
$OBSLTYPE
280
     0
  9
$INTERSECTIONDISPLAY
280
     0
  9
$INTERSECTIONCOLOR
 70
   257
  9
$DIMASSOC
280
     1
  9
$PROJECTNAME
  1

  0
ENDSEC
  0
SECTION
  2
CLASSES
  0
CLASS
  1
ACDBDICTIONARYWDFLT
  2
AcDbDictionaryWithDefault
  3
ObjectDBX Classes
 90
        0
 91
        1
280
     0
281
     0
  0
CLASS
  1
DICTIONARYVAR
  2
AcDbDictionaryVar
  3
ObjectDBX Classes
 90
        0
 91
        2
280
     0
281
     0
  0
CLASS
  1
DIMASSOC
  2
AcDbDimAssoc
  3
"AcDbDimAssoc|Product Desc:     AcDim ARX App For Dimension|Company:          Autodesk, Inc.|WEB Address:      www.autodesk.com"
 90
        0
 91
        2
280
     0
281
     0
  0
ENDSEC
  0
SECTION
  2
TABLES
  0
TABLE
  2
VPORT
  5
8
330
0
100
AcDbSymbolTable
 70
     3
  0
VPORT
  5
F02
330
8
100
AcDbSymbolTableRecord
100
AcDbViewportTableRecord
  2
*Active
 70
     0
 10
0.0
 20
0.0
 11
1.0
 21
1.0
 12
210.0000066011594
 22
297.0000093359246
 13
0.0
 23
0.0
 14
1.0
 24
1.0
 15
10.0
 25
10.0
 16
0.0
 26
0.0
 36
1.0
 17
0.0
 27
0.0
 37
0.0
 40
598.8698625112506
 41
1.336927223719676
 42
50.0
 43
0.0
 44
0.0
 50
0.0
 51
0.0
 71
     0
 72
  1500
 73
     1
 74
     0
 75
     0
 76
     0
 77
     0
 78
     0
281
     0
 65
     1
110
0.0
120
0.0
130
0.0
111
1.0
121
0.0
131
0.0
112
0.0
122
1.0
132
0.0
 79
     0
146
0.0
  0
ENDTAB
  0
TABLE
  2
LTYPE
  5
5
330
0
100
AcDbSymbolTable
 70
     2
  0
LTYPE
  5
13
330
5
100
AcDbSymbolTableRecord
100
AcDbLinetypeTableRecord
  2
ByBlock
 70
     0
  3

 72
    65
 73
     0
 40
0.0
  0
LTYPE
  5
14
330
5
100
AcDbSymbolTableRecord
100
AcDbLinetypeTableRecord
  2
ByLayer
 70
     0
  3

 72
    65
 73
     0
 40
0.0
  0
LTYPE
  5
15
330
5
100
AcDbSymbolTableRecord
100
AcDbLinetypeTableRecord
  2
Continuous
 70
     0
  3
Solid line
 72
    65
 73
     0
 40
0.0
  0
LTYPE
  5
25
330
5
100
AcDbSymbolTableRecord
100
AcDbLinetypeTableRecord
  2
STRICHPUNKT
 70
     0
  3
__ . __ . __ . __ . __ . __ . __ . __ . __ . __
 72
    65
 73
     4
 40
1.0
 49
0.5
 74
     0
 49
-0.25
 74
     0
 49
0.0
 74
     0
 49
-0.25
 74
     0
  0
ENDTAB
  0
TABLE
  2
LAYER
  5
2
330
0
100
AcDbSymbolTable
 70
     8
  0
LAYER
  5
10
330
2
100
AcDbSymbolTableRecord
100
AcDbLayerTableRecord
  2
0
 70
     0
 62
     7
  6
Continuous
370
    -3
390
F
  0
LAYER
  5
2A
330
2
100
AcDbSymbolTableRecord
100
AcDbLayerTableRecord
  2
VOLL
 70
     0
 62
     1
  6
Continuous
370
    -3
390
F
  0
LAYER
  5
2B
330
2
100
AcDbSymbolTableRecord
100
AcDbLayerTableRecord
  2
HILF
 70
     0
 62
     2
  6
Continuous
370
    -3
390
F
  0
LAYER
  5
2C
330
2
100
AcDbSymbolTableRecord
100
AcDbLayerTableRecord
  2
MITTEL
 70
     0
 62
     2
  6
STRICHPUNKT
370
    -3
390
F
  0
LAYER
  5
2F
330
2
100
AcDbSymbolTableRecord
100
AcDbLayerTableRecord
  2
BEM
 70
     0
 62
     7
  6
Continuous
370
    -3
390
F
  0
LAYER
  5
30
330
2
100
AcDbSymbolTableRecord
100
AcDbLayerTableRecord
  2
STEMPEL
 70
     0
 62
     3
  6
Continuous
370
    -3
390
F
  0
LAYER
  5
31
330
2
100
AcDbSymbolTableRecord
100
AcDbLayerTableRecord
  2
TEXT
 70
     0
 62
     7
  6
Continuous
370
    -3
390
F
  0
LAYER
  5
390
330
2
100
AcDbSymbolTableRecord
100
AcDbLayerTableRecord
  2
DEFPOINTS
 70
     0
 62
     7
  6
Continuous
290
     0
370
    -3
390
F
  0
ENDTAB
  0
TABLE
  2
STYLE
  5
3
330
0
100
AcDbSymbolTable
 70
     2
  0
STYLE
  5
11
330
3
100
AcDbSymbolTableRecord
100
AcDbTextStyleTableRecord
  2
STANDARD
 70
     0
 40
0.0
 41
0.8
 50
0.0
 71
     0
 42
3.5
  3
simplex.shx
  4

  0
STYLE
  5
24
330
3
100
AcDbSymbolTableRecord
100
AcDbTextStyleTableRecord
  2
GREEKS
 70
     0
 40
0.0
 41
0.8
 50
0.0
 71
     0
 42
2.5
  3
SIMPLEX.shx
  4

  0
ENDTAB
  0
TABLE
  2
VIEW
  5
6
330
0
100
AcDbSymbolTable
 70
     0
  0
ENDTAB
  0
TABLE
  2
UCS
  5
7
330
0
100
AcDbSymbolTable
 70
     0
  0
ENDTAB
  0
TABLE
  2
APPID
  5
9
330
0
100
AcDbSymbolTable
 70
     1
  0
APPID
  5
12
330
9
100
AcDbSymbolTableRecord
100
AcDbRegAppTableRecord
  2
ACAD
 70
     0
  0
ENDTAB
  0
TABLE
  2
DIMSTYLE
  5
A
330
0
100
AcDbSymbolTable
 70
     1
100
AcDbDimStyleTable
 71
     1
340
9D
  0
DIMSTYLE
105
9D
102
{ACAD_REACTORS
330
7CC
330
7C6
330
E17
330
E2D
102
}
330
A
100
AcDbSymbolTableRecord
100
AcDbDimStyleTableRecord
  2
Standard
 70
     0
340
11
  0
ENDTAB
  0
TABLE
  2
BLOCK_RECORD
  5
1
330
0
100
AcDbSymbolTable
 70
     5
  0
BLOCK_RECORD
  5
1E
102
{ACAD_XDICTIONARY
360
A0
102
}
330
1
100
AcDbSymbolTableRecord
100
AcDbBlockTableRecord
  2
*Model_Space
340
21
  0
BLOCK_RECORD
  5
1A
102
{ACAD_XDICTIONARY
360
A2
102
}
330
1
100
AcDbSymbolTableRecord
100
AcDbBlockTableRecord
  2
*Paper_Space
340
1D
  0
BLOCK_RECORD
  5
22
330
1
100
AcDbSymbolTableRecord
100
AcDbBlockTableRecord
  2
LOGO
340
0
102
{BLKREFS
331
9B
102
}
  0
BLOCK_RECORD
  5
8EC
330
1
100
AcDbSymbolTableRecord
100
AcDbBlockTableRecord
  2
*D1
340
0
  0
BLOCK_RECORD
  5
904
330
1
100
AcDbSymbolTableRecord
100
AcDbBlockTableRecord
  2
*D2
340
0
  0
BLOCK_RECORD
  5
E18
330
1
100
AcDbSymbolTableRecord
100
AcDbBlockTableRecord
  2
*D3
340
0
  0
BLOCK_RECORD
  5
E2E
330
1
100
AcDbSymbolTableRecord
100
AcDbBlockTableRecord
  2
*D4
340
0
  0
ENDTAB
  0
ENDSEC
  0
SECTION
  2
BLOCKS
  0
BLOCK
  5
35
330
1E
100
AcDbEntity
  8
0
100
AcDbBlockBegin
  2
*Model_Space
 70
     0
 10
0.0
 20
0.0
 30
0.0
  3
*Model_Space
  1

  0
ENDBLK
  5
36
330
1E
100
AcDbEntity
  8
0
100
AcDbBlockEnd
  0
BLOCK
  5
33
330
1A
100
AcDbEntity
 67
     1
  8
0
100
AcDbBlockBegin
  2
*Paper_Space
 70
     0
 10
0.0
 20
0.0
 30
0.0
  3
*Paper_Space
  1

  0
ENDBLK
  5
34
330
1A
100
AcDbEntity
 67
     1
  8
0
100
AcDbBlockEnd
  0
BLOCK
  5
37
330
22
100
AcDbEntity
  8
0
100
AcDbBlockBegin
  2
LOGO
 70
     0
 10
0.0
 20
0.0
 30
0.0
  3
LOGO
  1

  0
ARC
  5
38
330
22
100
AcDbEntity
  8
0
100
AcDbCircle
 10
11.59973089678112
 20
-9.271599258481501
 30
0.0
 40
4.5
100
AcDbArc
 50
270.0
 51
231.0575587310159
  0
LINE
  5
39
330
22
100
AcDbEntity
  8
0
100
AcDbLine
 10
3.599730896781125
 20
-4.771599258481529
 30
0.0
 11
3.599730896781153
 21
-11.77159925848133
 31
0.0
  0
LINE
  5
3A
330
22
100
AcDbEntity
  8
0
100
AcDbLine
 10
2.599730896781125
 20
-4.771599258481529
 30
0.0
 11
2.599730896781153
 21
-11.77159925848133
 31
0.0
  0
CIRCLE
  5
3B
330
22
100
AcDbEntity
  8
0
100
AcDbCircle
 10
11.59973089678112
 20
-9.271599258481501
 30
0.0
 40
3.5
  0
ARC
  5
3C
330
22
100
AcDbEntity
  8
0
100
AcDbCircle
 10
31.59973089678115
 20
-9.271599258481472
 30
0.0
 40
4.5
100
AcDbArc
 50
270.0
 51
231.0575587310182
  0
LINE
  5
3D
330
22
100
AcDbEntity
  8
0
100
AcDbLine
 10
17.59973089678112
 20
-4.771599258481472
 30
0.0
 11
17.59973089678115
 21
-13.77159925848147
 31
0.0
  0
ARC
  5
3E
330
22
100
AcDbEntity
  8
0
100
AcDbCircle
 10
22.59973089678116
 20
-7.271599258481472
 30
0.0
 40
2.5
100
AcDbArc
 50
293.1161887722295
 51
90.0
  0
CIRCLE
  5
3F
330
22
100
AcDbEntity
  8
0
100
AcDbCircle
 10
31.59973089678115
 20
-9.271599258481472
 30
0.0
 40
3.5
  0
ARC
  5
40
330
22
100
AcDbEntity
  8
0
100
AcDbCircle
 10
4.599730896781153
 20
-11.77159925848133
 30
0.0
 40
1.0
100
AcDbArc
 50
180.0
 51
270.0
  0
ARC
  5
41
330
22
100
AcDbEntity
  8
0
100
AcDbCircle
 10
4.599730896781153
 20
-11.77159925848133
 30
0.0
 40
2.0
100
AcDbArc
 50
179.9999999999992
 51
270.0
  0
LINE
  5
42
330
22
100
AcDbEntity
  8
0
100
AcDbLine
 10
11.59973089678115
 20
-13.77159925848144
 30
0.0
 11
4.599730896781153
 21
-13.77159925848147
 31
0.0
  0
LINE
  5
43
330
22
100
AcDbEntity
  8
0
100
AcDbLine
 10
8.771303772034769
 20
-12.77159925848136
 30
0.0
 11
4.599730896781153
 21
-12.77159925848133
 31
0.0
  0
LINE
  5
44
330
22
100
AcDbEntity
  8
0
100
AcDbLine
 10
31.59973089678115
 20
-13.77159925848147
 30
0.0
 11
23.6715276665056
 21
-13.77159925848144
 31
0.0
  0
LINE
  5
45
330
22
100
AcDbEntity
  8
0
100
AcDbLine
 10
23.56565672307022
 20
-9.51278021337896
 30
0.0
 11
24.4388546544846
 21
-12.77159925848144
 31
0.0
  0
LINE
  5
46
330
22
100
AcDbEntity
  8
0
100
AcDbLine
 10
22.59973089678116
 20
-9.771599258481472
 30
0.0
 11
18.59973089678112
 21
-9.771599258481472
 31
0.0
  0
LINE
  5
47
330
22
100
AcDbEntity
  8
0
100
AcDbLine
 10
18.59973089678115
 20
-13.77159925848144
 30
0.0
 11
17.59973089678115
 21
-13.77159925848144
 31
0.0
  0
LINE
  5
48
330
22
100
AcDbEntity
  8
0
100
AcDbLine
 10
18.59973089678115
 20
-9.771599258481472
 30
0.0
 11
18.59973089678115
 21
-13.77159925848144
 31
0.0
  0
LINE
  5
49
330
22
100
AcDbEntity
  8
0
100
AcDbLine
 10
22.59973089678116
 20
-9.771599258481472
 30
0.0
 11
23.67152766650562
 21
-13.77159925848147
 31
0.0
  0
ARC
  5
4A
330
22
100
AcDbEntity
  8
0
100
AcDbCircle
 10
22.59973089678116
 20
-7.271599258481472
 30
0.0
 40
2.5
100
AcDbArc
 50
270.0
 51
270.0000000000007
  0
LINE
  5
4B
330
22
100
AcDbEntity
  8
0
100
AcDbLine
 10
28.77130377203494
 20
-12.77159925848147
 30
0.0
 11
24.43885465448463
 21
-12.77159925848144
 31
0.0
  0
LINE
  5
4C
330
22
100
AcDbEntity
  8
0
100
AcDbLine
 10
3.599730896781125
 20
-4.771599258481472
 30
0.0
 11
2.599730896781125
 21
-4.771599258481472
 31
0.0
  0
LINE
  5
4D
330
22
100
AcDbEntity
  8
0
100
AcDbLine
 10
22.59973089678116
 20
-8.771599258481472
 30
0.0
 11
18.59973089678115
 21
-8.771599258481472
 31
0.0
  0
LINE
  5
4E
330
22
100
AcDbEntity
  8
0
100
AcDbLine
 10
22.59973089678116
 20
-5.771599258481472
 30
0.0
 11
18.59973089678115
 21
-5.771599258481472
 31
0.0
  0
LINE
  5
4F
330
22
100
AcDbEntity
  8
0
100
AcDbLine
 10
22.59973089678116
 20
-4.771599258481472
 30
0.0
 11
17.59973089678115
 21
-4.771599258481472
 31
0.0
  0
LINE
  5
50
330
22
100
AcDbEntity
  8
0
100
AcDbLine
 10
18.59973089678115
 20
-5.771599258481472
 30
0.0
 11
18.59973089678115
 21
-8.771599258481472
 31
0.0
  0
ARC
  5
51
330
22
100
AcDbEntity
  8
0
100
AcDbCircle
 10
22.59973089678116
 20
-7.271599258481472
 30
0.0
 40
1.5
100
AcDbArc
 50
270.0
 51
90.0
  0
ENDBLK
  5
52
330
22
100
AcDbEntity
  8
0
100
AcDbBlockEnd
  0
BLOCK
  5
8F6
330
8EC
100
AcDbEntity
  8
0
100
AcDbBlockBegin
  2
*D1
 70
     1
 10
0.0
 20
0.0
 30
0.0
  3
*D1
  1

  0
LINE
  5
EDF
330
8EC
100
AcDbEntity
  8
BEM
 62
     0
370
    -2
100
AcDbLine
 10
214.2993517980869
 20
424.7367297528314
 30
0.0
 11
214.2993517980869
 21
445.5538103210987
 31
0.0
  0
LINE
  5
EE0
330
8EC
100
AcDbEntity
  8
BEM
 62
     0
370
    -2
100
AcDbLine
 10
84.29935179807921
 20
424.7367297528324
 30
0.0
 11
84.29935179807921
 21
445.5538103210987
 31
0.0
  0
LINE
  5
EE1
330
8EC
100
AcDbEntity
  8
BEM
 62
     0
370
    -2
100
AcDbLine
 10
207.299351798087
 20
443.5538103210988
 30
0.0
 11
91.29935179807921
 21
443.5538103210988
 31
0.0
  0
SOLID
  5
EE2
330
8EC
100
AcDbEntity
  8
BEM
 62
     0
100
AcDbTrace
 10
207.299351798087
 20
444.7204769877655
 30
0.0
 11
207.299351798087
 21
442.3871436544321
 31
0.0
 12
214.2993517980869
 22
443.5538103210988
 32
0.0
 13
214.2993517980869
 23
443.5538103210988
 33
0.0
  0
SOLID
  5
EE3
330
8EC
100
AcDbEntity
  8
BEM
 62
     0
100
AcDbTrace
 10
91.29935179807921
 20
444.7204769877655
 30
0.0
 11
91.29935179807921
 21
442.3871436544321
 31
0.0
 12
84.29935179807921
 22
443.5538103210988
 32
0.0
 13
84.29935179807921
 23
443.5538103210988
 33
0.0
  0
MTEXT
  5
EE4
330
8EC
100
AcDbEntity
  8
BEM
 62
     1
100
AcDbMText
 10
149.2993517980831
 20
450.0538103210987
 30
0.0
 40
7.0
 41
0.0
 71
     5
 72
     1
  1
\A1;130
 73
     1
 44
1.0
  0
POINT
  5
EE5
330
8EC
100
AcDbEntity
  8
DEFPOINTS
 62
     0
100
AcDbPoint
 10
214.2993517980869
 20
422.7367297528314
 30
0.0
  0
POINT
  5
EE6
330
8EC
100
AcDbEntity
  8
DEFPOINTS
 62
     0
100
AcDbPoint
 10
84.29935179807921
 20
422.7367297528323
 30
0.0
  0
POINT
  5
EE7
330
8EC
100
AcDbEntity
  8
DEFPOINTS
 62
     0
100
AcDbPoint
 10
84.29935179807921
 20
443.5538103210988
 30
0.0
  0
ENDBLK
  5
8F7
330
8EC
100
AcDbEntity
  8
0
100
AcDbBlockEnd
  0
BLOCK
  5
90E
330
904
100
AcDbEntity
  8
0
100
AcDbBlockBegin
  2
*D2
 70
     1
 10
0.0
 20
0.0
 30
0.0
  3
*D2
  1

  0
LINE
  5
E55
330
904
100
AcDbEntity
  8
BEM
 62
     0
370
    -2
100
AcDbLine
 10
87.2993517980795
 20
427.7367297527563
 30
0.0
 11
70.08552145363832
 21
427.7367297527563
 31
0.0
  0
LINE
  5
E56
330
904
100
AcDbEntity
  8
BEM
 62
     0
370
    -2
100
AcDbLine
 10
87.29935179807904
 20
373.7367297527463
 30
0.0
 11
70.08552145363831
 21
373.7367297527463
 31
0.0
  0
LINE
  5
E57
330
904
100
AcDbEntity
  8
BEM
 62
     0
370
    -2
100
AcDbLine
 10
72.08552145363832
 20
420.7367297527563
 30
0.0
 11
72.08552145363831
 21
380.7367297527463
 31
0.0
  0
SOLID
  5
E58
330
904
100
AcDbEntity
  8
BEM
 62
     0
100
AcDbTrace
 10
70.91885478697165
 20
420.7367297527563
 30
0.0
 11
73.25218812030499
 21
420.7367297527563
 31
0.0
 12
72.08552145363832
 22
427.7367297527563
 32
0.0
 13
72.08552145363832
 23
427.7367297527563
 33
0.0
  0
SOLID
  5
E59
330
904
100
AcDbEntity
  8
BEM
 62
     0
100
AcDbTrace
 10
70.91885478697164
 20
380.7367297527463
 30
0.0
 11
73.25218812030498
 21
380.7367297527463
 31
0.0
 12
72.08552145363831
 22
373.7367297527463
 32
0.0
 13
72.08552145363831
 23
373.7367297527463
 33
0.0
  0
MTEXT
  5
E5A
330
904
100
AcDbEntity
  8
BEM
 62
     1
100
AcDbMText
 10
65.58552145363825
 20
402.0059302655084
 30
0.0
 40
7.0
 41
0.0
 71
     5
 72
     1
  1
\A1;54
 11
0.0000000000000001
 21
1.0
 31
0.0
 73
     1
 44
1.0
  0
POINT
  5
E5B
330
904
100
AcDbEntity
  8
DEFPOINTS
 62
     0
100
AcDbPoint
 10
89.2993517980795
 20
427.7367297527563
 30
0.0
  0
POINT
  5
E5C
330
904
100
AcDbEntity
  8
DEFPOINTS
 62
     0
100
AcDbPoint
 10
89.29935179807904
 20
373.7367297527463
 30
0.0
  0
POINT
  5
E5D
330
904
100
AcDbEntity
  8
DEFPOINTS
 62
     0
100
AcDbPoint
 10
72.08552145363831
 20
373.7367297527463
 30
0.0
  0
ENDBLK
  5
90F
330
904
100
AcDbEntity
  8
0
100
AcDbBlockEnd
  0
BLOCK
  5
E22
330
E18
100
AcDbEntity
  8
0
100
AcDbBlockBegin
  2
*D3
 70
     1
 10
0.0
 20
0.0
 30
0.0
  3
*D3
  1

  0
LINE
  5
E4C
330
E18
100
AcDbEntity
  8
BEM
 62
     0
370
    -2
100
AcDbLine
 10
278.5876350304547
 20
426.7367297527701
 30
0.0
 11
278.5876350304547
 21
439.7709402953753
 31
0.0
  0
LINE
  5
E4D
330
E18
100
AcDbEntity
  8
BEM
 62
     0
370
    -2
100
AcDbLine
 10
358.587635030455
 20
426.736729752769
 30
0.0
 11
358.587635030455
 21
439.7709402953753
 31
0.0
  0
LINE
  5
E4E
330
E18
100
AcDbEntity
  8
BEM
 62
     0
370
    -2
100
AcDbLine
 10
285.5876350304547
 20
437.7709402953753
 30
0.0
 11
351.587635030455
 21
437.7709402953753
 31
0.0
  0
SOLID
  5
E4F
330
E18
100
AcDbEntity
  8
BEM
 62
     0
100
AcDbTrace
 10
285.5876350304547
 20
438.937606962042
 30
0.0
 11
285.5876350304547
 21
436.6042736287086
 31
0.0
 12
278.5876350304547
 22
437.7709402953753
 32
0.0
 13
278.5876350304547
 23
437.7709402953753
 33
0.0
  0
SOLID
  5
E50
330
E18
100
AcDbEntity
  8
BEM
 62
     0
100
AcDbTrace
 10
351.587635030455
 20
438.937606962042
 30
0.0
 11
351.587635030455
 21
436.6042736287086
 31
0.0
 12
358.587635030455
 22
437.7709402953753
 32
0.0
 13
358.587635030455
 23
437.7709402953753
 33
0.0
  0
MTEXT
  5
E51
330
E18
100
AcDbEntity
  8
BEM
 62
     1
100
AcDbMText
 10
318.5876350304549
 20
444.2709402953753
 30
0.0
 40
7.0
 41
0.0
 71
     5
 72
     1
  1
\A1;%%c80
 73
     1
 44
1.0
  0
POINT
  5
E52
330
E18
100
AcDbEntity
  8
DEFPOINTS
 62
     0
100
AcDbPoint
 10
278.5876350304547
 20
424.73672975277
 30
0.0
  0
POINT
  5
E53
330
E18
100
AcDbEntity
  8
DEFPOINTS
 62
     0
100
AcDbPoint
 10
358.587635030455
 20
424.7367297527691
 30
0.0
  0
POINT
  5
E54
330
E18
100
AcDbEntity
  8
DEFPOINTS
 62
     0
100
AcDbPoint
 10
358.587635030455
 20
437.7709402953753
 30
0.0
  0
ENDBLK
  5
E23
330
E18
100
AcDbEntity
  8
0
100
AcDbBlockEnd
  0
BLOCK
  5
E38
330
E2E
100
AcDbEntity
  8
0
100
AcDbBlockBegin
  2
*D4
 70
     1
 10
0.0
 20
0.0
 30
0.0
  3
*D4
  1

  0
LINE
  5
E43
330
E2E
100
AcDbEntity
  8
BEM
 62
     0
370
    -2
100
AcDbLine
 10
351.1876350304543
 20
371.7367297527683
 30
0.0
 11
351.1876350304543
 21
351.000865899837
 31
0.0
  0
LINE
  5
E44
330
E2E
100
AcDbEntity
  8
BEM
 62
     0
370
    -2
100
AcDbLine
 10
285.9876350304542
 20
371.7367297527692
 30
0.0
 11
285.9876350304542
 21
351.000865899837
 31
0.0
  0
LINE
  5
E45
330
E2E
100
AcDbEntity
  8
BEM
 62
     0
370
    -2
100
AcDbLine
 10
344.1876350304543
 20
353.000865899837
 30
0.0
 11
292.9876350304541
 21
353.000865899837
 31
0.0
  0
SOLID
  5
E46
330
E2E
100
AcDbEntity
  8
BEM
 62
     0
100
AcDbTrace
 10
344.1876350304543
 20
354.1675325665037
 30
0.0
 11
344.1876350304543
 21
351.8341992331703
 31
0.0
 12
351.1876350304543
 22
353.000865899837
 32
0.0
 13
351.1876350304543
 23
353.000865899837
 33
0.0
  0
SOLID
  5
E47
330
E2E
100
AcDbEntity
  8
BEM
 62
     0
100
AcDbTrace
 10
292.9876350304541
 20
354.1675325665037
 30
0.0
 11
292.9876350304541
 21
351.8341992331703
 31
0.0
 12
285.9876350304542
 22
353.000865899837
 32
0.0
 13
285.9876350304542
 23
353.000865899837
 33
0.0
  0
MTEXT
  5
E48
330
E2E
100
AcDbEntity
  8
BEM
 62
     1
100
AcDbMText
 10
318.5876350304542
 20
359.500865899837
 30
0.0
 40
7.0
 41
0.0
 71
     5
 72
     1
  1
\A1;%%c65.2
 73
     1
 44
1.0
  0
POINT
  5
E49
330
E2E
100
AcDbEntity
  8
DEFPOINTS
 62
     0
100
AcDbPoint
 10
351.1876350304543
 20
373.7367297527683
 30
0.0
  0
POINT
  5
E4A
330
E2E
100
AcDbEntity
  8
DEFPOINTS
 62
     0
100
AcDbPoint
 10
285.9876350304542
 20
373.7367297527692
 30
0.0
  0
POINT
  5
E4B
330
E2E
100
AcDbEntity
  8
DEFPOINTS
 62
     0
100
AcDbPoint
 10
285.9876350304542
 20
353.000865899837
 30
0.0
  0
ENDBLK
  5
E39
330
E2E
100
AcDbEntity
  8
0
100
AcDbBlockEnd
  0
ENDSEC
  0
SECTION
  2
ENTITIES
  0
LINE
  5
57
330
1E
100
AcDbEntity
  8
STEMPEL
100
AcDbLine
 10
410.0
 20
110.0
 30
0.0
 11
39.99999999999997
 21
110.0
 31
0.0
  0
LINE
  5
58
330
1E
100
AcDbEntity
  8
STEMPEL
100
AcDbLine
 10
136.0000000000001
 20
109.9999999999999
 30
0.0
 11
136.0
 21
9.999999999999971
 31
0.0
  0
LINE
  5
59
330
1E
100
AcDbEntity
  8
STEMPEL
100
AcDbLine
 10
220.0
 20
110.0
 30
0.0
 11
220.0
 21
9.999999999999971
 31
0.0
  0
LINE
  5
5A
330
1E
100
AcDbEntity
  8
STEMPEL
100
AcDbLine
 10
332.0
 20
109.9999999999997
 30
0.0
 11
332.0
 21
40.0
 31
0.0
  0
LINE
  5
5B
330
1E
100
AcDbEntity
  8
STEMPEL
100
AcDbLine
 10
135.9999999999999
 20
29.99999999999997
 30
0.0
 11
39.99999999999997
 21
29.99999999999997
 31
0.0
  0
LINE
  5
5C
330
1E
100
AcDbEntity
  8
STEMPEL
100
AcDbLine
 10
410.0
 20
40.0
 30
0.0
 11
136.0000000000001
 21
39.99999999999997
 31
0.0
  0
LINE
  5
5D
330
1E
100
AcDbEntity
  8
STEMPEL
100
AcDbLine
 10
410.0
 20
80.0
 30
0.0
 11
136.0000000000001
 21
79.99999999999994
 31
0.0
  0
LINE
  5
5E
330
1E
100
AcDbEntity
  8
VOLL
100
AcDbLine
 10
54.00000000000009
 20
110.0
 30
0.0
 11
53.99999999999997
 21
9.999999999999971
 31
0.0
  0
LINE
  5
5F
330
1E
100
AcDbEntity
  8
VOLL
100
AcDbLine
 10
94.00000000000011
 20
109.9999999999999
 30
0.0
 11
94.0
 21
9.999999999999971
 31
0.0
  0
LINE
  5
60
330
1E
100
AcDbEntity
  8
VOLL
100
AcDbLine
 10
114.0000000000001
 20
109.9999999999999
 30
0.0
 11
114.0
 21
9.999999999999971
 31
0.0
  0
LINE
  5
61
330
1E
100
AcDbEntity
  8
VOLL
100
AcDbLine
 10
154.0000000000001
 20
79.99999999999994
 30
0.0
 11
154.0000000000001
 21
39.99999999999997
 31
0.0
  0
LINE
  5
62
330
1E
100
AcDbEntity
  8
VOLL
100
AcDbLine
 10
180.0000000000001
 20
109.9999999999998
 30
0.0
 11
180.0
 21
39.99999999999997
 31
0.0
  0
LINE
  5
63
330
1E
100
AcDbEntity
  8
HILF
100
AcDbLine
 10
40.00000000000008
 20
100.0
 30
0.0
 11
136.0000000000001
 21
100.0
 31
0.0
  0
LINE
  5
64
330
1E
100
AcDbEntity
  8
HILF
100
AcDbLine
 10
40.00000000000008
 20
90.00000000000005
 30
0.0
 11
136.0000000000001
 21
90.00000000000005
 31
0.0
  0
LINE
  5
65
330
1E
100
AcDbEntity
  8
HILF
100
AcDbLine
 10
40.00000000000008
 20
79.99999999999994
 30
0.0
 11
136.0000000000001
 21
79.99999999999994
 31
0.0
  0
LINE
  5
66
330
1E
100
AcDbEntity
  8
HILF
100
AcDbLine
 10
40.00000000000008
 20
69.99999999999994
 30
0.0
 11
136.0000000000001
 21
69.99999999999994
 31
0.0
  0
LINE
  5
67
330
1E
100
AcDbEntity
  8
HILF
100
AcDbLine
 10
40.00000000000008
 20
59.99999999999997
 30
0.0
 11
136.0000000000001
 21
59.99999999999997
 31
0.0
  0
LINE
  5
68
330
1E
100
AcDbEntity
  8
HILF
100
AcDbLine
 10
40.00000000000008
 20
49.99999999999997
 30
0.0
 11
136.0000000000001
 21
49.99999999999997
 31
0.0
  0
LINE
  5
69
330
1E
100
AcDbEntity
  8
HILF
100
AcDbLine
 10
40.00000000000008
 20
39.99999999999997
 30
0.0
 11
136.0000000000001
 21
39.99999999999997
 31
0.0
  0
LINE
  5
6A
330
1E
100
AcDbEntity
  8
HILF
100
AcDbLine
 10
136.0000000000001
 20
69.99999999999994
 30
0.0
 11
220.0
 21
69.99999999999994
 31
0.0
  0
LINE
  5
6B
330
1E
100
AcDbEntity
  8
HILF
100
AcDbLine
 10
136.0000000000001
 20
59.99999999999997
 30
0.0
 11
220.0
 21
59.99999999999997
 31
0.0
  0
LINE
  5
6C
330
1E
100
AcDbEntity
  8
HILF
100
AcDbLine
 10
136.0000000000001
 20
49.99999999999997
 30
0.0
 11
220.0
 21
49.99999999999997
 31
0.0
  0
LINE
  5
6D
330
1E
100
AcDbEntity
  8
HILF
100
AcDbLine
 10
224.7736801096948
 20
84.03758247564139
 30
0.0
 11
324.8353916556311
 21
84.03758247564139
 31
0.0
  0
LINE
  5
6E
330
1E
100
AcDbEntity
  8
HILF
100
AcDbLine
 10
224.7736801096948
 20
69.99999999999994
 30
0.0
 11
324.835391655631
 21
69.99999999999994
 31
0.0
  0
LINE
  5
6F
330
1E
100
AcDbEntity
  8
HILF
100
AcDbLine
 10
224.7736801096948
 20
59.99999999999997
 30
0.0
 11
324.835391655631
 21
59.99999999999997
 31
0.0
  0
LINE
  5
70
330
1E
100
AcDbEntity
  8
HILF
100
AcDbLine
 10
224.7736801096948
 20
49.99999999999997
 30
0.0
 11
324.835391655631
 21
49.99999999999997
 31
0.0
  0
LINE
  5
71
330
1E
100
AcDbEntity
  8
VOLL
100
AcDbLine
 10
332.0
 20
60.0
 30
0.0
 11
410.0
 21
60.0
 31
0.0
  0
LINE
  5
72
330
1E
100
AcDbEntity
  8
HILF
100
AcDbLine
 10
336.7238616296993
 20
83.77983636955827
 30
0.0
 11
404.8588839326728
 21
83.77983636955827
 31
0.0
  0
LINE
  5
73
330
1E
100
AcDbEntity
  8
HILF
100
AcDbLine
 10
223.4909699289885
 20
14.89398258028314
 30
0.0
 11
404.8588839326728
 21
14.89398258028314
 31
0.0
  0
TEXT
  5
74
330
1E
100
AcDbEntity
  8
TEXT
100
AcDbText
 10
63.86165979631819
 20
18.67381894984132
 30
0.0
 40
4.0
  1
Änderung
 41
0.8
  7
GREEKS
 72
     1
 11
74.60451693917534
 21
18.67381894984132
 31
0.0
100
AcDbText
  0
TEXT
  5
75
330
1E
100
AcDbEntity
  8
TEXT
100
AcDbText
 10
143.5163572150377
 20
102.4620895087088
 30
0.0
 40
5.0
  1
Maßstab
 41
0.8
  7
GREEKS
100
AcDbText
  0
TEXT
  5
76
330
1E
100
AcDbEntity
  8
TEXT
100
AcDbText
 10
184.2858954734051
 20
102.4184168434819
 30
0.0
 40
5.0
  1
Zul. Abw.
 41
0.8
  7
GREEKS
100
AcDbText
  0
TEXT
  5
77
330
1E
100
AcDbEntity
  8
TEXT
100
AcDbText
 10
224.877940380901
 20
102.5489328011779
 30
0.0
 40
5.0
  1
Benennung
 41
0.8
  7
GREEKS
100
AcDbText
  0
TEXT
  5
78
330
1E
100
AcDbEntity
  8
TEXT
100
AcDbText
 10
336.178754957634
 20
102.3132034537136
 30
0.0
 40
5.0
  1
Zeichnungs Nr.
 41
0.8
  7
GREEKS
100
AcDbText
  0
TEXT
  5
79
330
1E
100
AcDbEntity
  8
TEXT
100
AcDbText
 10
224.742238391136
 20
30.84560570193057
 30
0.0
 40
5.0
  1
Bauvorhaben
 41
0.8
  7
GREEKS
100
AcDbText
  0
TEXT
  5
7A
330
1E
100
AcDbEntity
  8
TEXT
100
AcDbText
 10
336.7238616296993
 20
73.1811823709997
 30
0.0
 40
5.0
  1
Ersatz für:
 41
0.8
  7
GREEKS
100
AcDbText
  0
TEXT
  5
7B
330
1E
100
AcDbEntity
  8
TEXT
100
AcDbText
 10
48.26641107045756
 20
13.65465846027192
 30
0.0
 40
4.0
  1
Index
 50
90.0
 41
0.8
  7
GREEKS
100
AcDbText
  0
TEXT
  5
7C
330
1E
100
AcDbEntity
  8
TEXT
100
AcDbText
 10
100.0934676075481
 20
18.6715626933981
 30
0.0
 40
4.0
  1
Tag
 41
0.8
  7
GREEKS
 72
     1
 11
103.8268009408814
 21
18.6715626933981
 31
0.0
100
AcDbText
  0
TEXT
  5
7D
330
1E
100
AcDbEntity
  8
TEXT
100
AcDbText
 10
119.0122744386592
 20
18.59324216966408
 30
0.0
 40
4.0
  1
Name
 41
0.8
  7
GREEKS
 72
     1
 11
125.3360839624688
 21
18.59324216966408
 31
0.0
100
AcDbText
  0
TEXT
  5
7E
330
1E
100
AcDbEntity
  8
TEXT
100
AcDbText
 10
162.3311673153651
 20
73.31880501229926
 30
0.0
 40
4.0
  1
Tag
 41
0.8
  7
GREEKS
100
AcDbText
  0
TEXT
  5
7F
330
1E
100
AcDbEntity
  8
TEXT
100
AcDbText
 10
192.4626584226295
 20
73.30961091915225
 30
0.0
 40
4.0
  1
Name
 41
0.8
  7
GREEKS
100
AcDbText
  0
TEXT
  5
80
330
1E
100
AcDbEntity
  8
TEXT
100
AcDbText
 10
137.5836127167615
 20
63.62990369617964
 30
0.0
 40
4.0
  1
Gez.
 41
0.8
  7
GREEKS
100
AcDbText
  0
TEXT
  5
81
330
1E
100
AcDbEntity
  8
TEXT
100
AcDbText
 10
137.5515086571672
 20
53.68926291428377
 30
0.0
 40
4.0
  1
Gepr.
 41
0.8
  7
GREEKS
100
AcDbText
  0
TEXT
  5
82
330
1E
100
AcDbEntity
  8
TEXT
100
AcDbText
 10
137.6006777387304
 20
43.52946389649807
 30
0.0
 40
4.0
  1
Norm.
 41
0.8
  7
GREEKS
100
AcDbText
  0
LINE
  5
83
330
1E
100
AcDbEntity
  8
STEMPEL
100
AcDbLine
 10
49.99999999999989
 20
10.0
 30
0.0
 11
410.0
 21
10.0
 31
0.0
  0
TEXT
  5
84
330
1E
100
AcDbEntity
  8
TEXT
100
AcDbText
 10
337.2400861497006
 20
52.07416177878602
 30
0.0
 40
5.0
  1
ersetzt durch:
 41
0.8
  7
GREEKS
100
AcDbText
  0
LINE
  5
85
330
1E
100
AcDbEntity
  8
STEMPEL
100
AcDbLine
 10
410.0
 20
10.0
 30
0.0
 11
39.99999999999989
 21
10.0
 31
0.0
  0
LINE
  5
86
330
1E
100
AcDbEntity
  8
STEMPEL
100
AcDbLine
 10
410.0
 20
10.0
 30
0.0
 11
410.0
 21
584.0
 31
0.0
  0
LINE
  5
87
330
1E
100
AcDbEntity
  8
STEMPEL
100
AcDbLine
 10
40.0
 20
10.0
 30
0.0
 11
39.99999999999989
 21
584.0
 31
0.0
  0
LINE
  5
88
330
1E
100
AcDbEntity
  8
STEMPEL
100
AcDbLine
 10
410.0
 20
584.0
 30
0.0
 11
39.99999999999989
 21
584.0
 31
0.0
  0
LINE
  5
89
330
1E
100
AcDbEntity
  8
HILF
100
AcDbLine
 10
0.0
 20
0.0
 30
0.0
 11
-0.0000000000001137
 21
594.0
 31
0.0
  0
LINE
  5
8A
330
1E
100
AcDbEntity
  8
HILF
100
AcDbLine
 10
419.9999999999999
 20
594.0000000000002
 30
0.0
 11
0.0
 21
594.0
 31
0.0
  0
LINE
  5
8B
330
1E
100
AcDbEntity
  8
HILF
100
AcDbLine
 10
420.0
 20
0.0
 30
0.0
 11
0.0
 21
0.0
 31
0.0
  0
LINE
  5
8C
330
1E
100
AcDbEntity
  8
HILF
100
AcDbLine
 10
31.08767135713856
 20
297.0
 30
0.0
 11
0.0000000000001137
 21
297.0
 31
0.0
  0
TEXT
  5
8D
330
1E
100
AcDbEntity
  8
TEXT
100
AcDbText
 10
138.622109822104
 20
73.14025471151666
 30
0.0
 40
4.0
  1
2008
 41
0.8
  7
GREEKS
100
AcDbText
  0
LINE
  5
8E
330
1E
100
AcDbEntity
  8
HILF
100
AcDbLine
 10
420.0
 20
-0.0000000000001137
 30
0.0
 11
419.9999999999999
 21
594.0
 31
0.0
  0
TEXT
  5
8F
330
1E
100
AcDbEntity
  8
VOLL
100
AcDbText
 10
78.07675471698113
 20
31.02594776470585
 30
0.0
 40
1.8
  1

  7
GREEKS
100
AcDbText
  0
TEXT
  5
90
330
1E
100
AcDbEntity
  8
TEXT
100
AcDbText
 10
41.85509950977674
 20
111.6719999999999
 30
0.0
 40
5.0
  1
Erstellt mit AUTOCAD 2004
 41
0.8
  7
GREEKS
100
AcDbText
  0
TEXT
  5
91
330
1E
100
AcDbEntity
  8
TEXT
100
AcDbText
 10
194.4216048581257
 20
63.0896391972351
 30
0.0
 40
4.0
  1
Koeh
 41
0.8
  7
GREEKS
 72
     1
 11
199.6787477152685
 21
63.0896391972351
 31
0.0
100
AcDbText
  0
TEXT
  5
92
330
1E
100
AcDbEntity
  8
TEXT
 62
     1
100
AcDbText
 10
346.9185575058474
 20
88.76048719879964
 30
0.0
 40
7.0
  1
08070050W
 41
0.8
  7
GREEKS
 72
     1
 11
370.9185575058474
 21
88.76048719879964
 31
0.0
100
AcDbText
  0
TEXT
  5
93
330
1E
100
AcDbEntity
  8
TEXT
 62
     1
100
AcDbText
 10
150.5006306481887
 20
88.14901428913959
 30
0.0
 40
7.0
  1
1:2
 41
0.8
  7
GREEKS
100
AcDbText
  0
TEXT
  5
94
330
1E
100
AcDbEntity
  8
TEXT
100
AcDbText
 10
161.0085209177598
 20
63.10765040825732
 30
0.0
 40
4.0
  1
15.12.
 41
0.8
  7
GREEKS
 72
     1
 11
167.4085209177598
 21
63.10765040825732
 31
0.0
100
AcDbText
  0
TEXT
  5
95
330
1E
100
AcDbEntity
  8
TEXT
 62
     1
100
AcDbText
 10
226.8935731057402
 20
87.41748789253779
 30
0.0
 40
7.0
  1
Druckrohrschelle DN50
 41
0.8
  7
GREEKS
100
AcDbText
  0
TEXT
  5
98
330
1E
100
AcDbEntity
  8
TEXT
100
AcDbText
 10
225.1296391125315
 20
51.64011943042158
 30
0.0
 40
5.0
  1
EDV-Art.Nr. 08070.050X
 41
0.8
  7
GREEKS
100
AcDbText
  0
TEXT
  5
99
330
1E
100
AcDbEntity
  8
TEXT
100
AcDbText
 10
224.9837501577827
 20
42.62974153022632
 30
0.0
 40
4.0
  1
08070050W.DWG
 41
0.8
  7
GREEKS
100
AcDbText
  0
TEXT
  5
9A
330
1E
100
AcDbEntity
  8
TEXT
100
AcDbText
 10
180.0356560176078
 20
90.76363841023022
 30
0.0
 40
4.0
  1
DIN ISO 2768-c
 41
0.8
  7
GREEKS
 72
     1
 11
199.6166083985602
 21
90.76363841023022
 31
0.0
100
AcDbText
  0
INSERT
  5
9B
330
1E
100
AcDbEntity
  8
STEMPEL
100
AcDbBlockReference
  2
LOGO
 10
140.9955485457794
 20
45.02105276448322
 30
0.0
 41
2.0
 42
2.0
 43
2.0
  0
TEXT
  5
118
330
1E
100
AcDbEntity
  8
BEM
100
AcDbText
 10
417.3022923857165
 20
10.16790107998849
 30
0.0
 40
4.0
  1
Diese Zeichnung ist urheberrechtlich geschützt und bleibt unser Eigentum. Sie darf weder ganz noch teilweise verfielfältigt und nicht an Dritte weitergegeben werden.
 50
90.0
 41
0.8
  7
GREEKS
100
AcDbText
  0
DIMENSION
  5
7C6
102
{ACAD_XDICTIONARY
360
7C7
102
}
102
{ACAD_REACTORS
330
7C8
102
}
330
1E
100
AcDbEntity
  8
BEM
100
AcDbDimension
  2
*D1
 10
84.29935179807921
 20
443.5538103210988
 30
0.0
 11
149.2993517980831
 21
450.0538103210987
 31
0.0
 70
    32
 71
     5
 42
130.0000000000077
  3
Standard
100
AcDbAlignedDimension
 13
214.2993517980869
 23
422.7367297528314
 33
0.0
 14
84.29935179807921
 24
422.7367297528323
 34
0.0
100
AcDbRotatedDimension
1001
ACAD
1000
DSTYLE
1002
{
1070
    40
1040
2.0
1070
    41
1040
3.5
1070
    42
1040
1.0
1070
    43
1040
7.0
1070
    44
1040
1.0
1070
    73
1070
     0
1070
    74
1070
     0
1070
    77
1070
     1
1070
    78
1070
     8
1070
    79
1070
     2
1070
   140
1040
3.5
1070
   141
1040
1.5
1070
   146
1040
0.5
1070
   147
1040
1.5
1070
   172
1070
     1
1070
   178
1070
     1
1070
   179
1070
     2
1070
   271
1070
     2
1070
   272
1070
     2
1070
   284
1070
     8
1070
   285
1070
     8
1070
   286
1070
     8
1002
}
  0
DIMENSION
  5
7CC
102
{ACAD_XDICTIONARY
360
7CD
102
}
102
{ACAD_REACTORS
330
7CE
102
}
330
1E
100
AcDbEntity
  8
BEM
100
AcDbDimension
  2
*D2
 10
72.08552145363831
 20
373.7367297527463
 30
0.0
 11
72.08552145363825
 21
402.0059302655084
 31
0.0
 70
   160
 71
     5
 42
54.00000000001
  3
Standard
100
AcDbAlignedDimension
 13
89.2993517980795
 23
427.7367297527563
 33
0.0
 14
89.29935179807904
 24
373.7367297527463
 34
0.0
 50
270.0
100
AcDbRotatedDimension
1001
ACAD
1000
DSTYLE
1002
{
1070
    40
1040
2.0
1070
    41
1040
3.5
1070
    42
1040
1.0
1070
    43
1040
7.0
1070
    44
1040
1.0
1070
    73
1070
     0
1070
    74
1070
     0
1070
    77
1070
     1
1070
    78
1070
     8
1070
    79
1070
     2
1070
   140
1040
3.5
1070
   141
1040
1.5
1070
   146
1040
0.5
1070
   147
1040
1.5
1070
   172
1070
     1
1070
   178
1070
     1
1070
   179
1070
     2
1070
   271
1070
     2
1070
   272
1070
     2
1070
   284
1070
     8
1070
   285
1070
     8
1070
   286
1070
     8
1002
}
  0
ARC
  5
7D4
330
1E
100
AcDbEntity
  8
HILF
100
AcDbCircle
 10
110.6993517981077
 20
404.0002361455791
 30
0.0
 40
3.0
100
AcDbArc
 50
0.0000000000597096
 51
60.00000000003744
  0
ARC
  5
7D5
330
1E
100
AcDbEntity
  8
HILF
100
AcDbCircle
 10
187.899351798108
 20
404.0002361456727
 30
0.0
 40
3.0
100
AcDbArc
 50
120.00000000008
 51
180.0000000000597
  0
LINE
  5
7D6
330
1E
100
AcDbEntity
  8
HILF
100
AcDbLine
 10
108.2993517980836
 20
424.7367297527144
 30
0.0
 11
108.2993517980981
 21
411.7367297527181
 31
0.0
  0
LINE
  5
7D7
330
1E
100
AcDbEntity
  8
HILF
100
AcDbLine
 10
115.6993517981332
 20
381.2748259630363
 30
0.0
 11
115.6993517981419
 21
373.7367297527227
 31
0.0
  0
ARC
  5
7D8
330
1E
100
AcDbEntity
  8
HILF
100
AcDbCircle
 10
110.6993517981332
 20
381.2757297527197
 30
0.0
 40
5.0
100
AcDbArc
 50
0.0000000000521102
 51
19.93690482467085
  0
ARC
  5
7D9
330
1E
100
AcDbEntity
  8
HILF
100
AcDbCircle
 10
143.6993517981191
 20
392.9367297527598
 30
0.0
 40
30.0
100
AcDbArc
 50
180.0000000000521
 51
199.5803918941844
  0
LINE
  5
7DA
330
1E
100
AcDbEntity
  8
HILF
100
AcDbLine
 10
113.6993517981073
 20
404.0002361455822
 30
0.0
 11
113.6993517981187
 21
392.9367297527243
 31
0.0
  0
LINE
  5
7DB
330
1E
100
AcDbEntity
  8
HILF
100
AcDbLine
 10
110.7993517981027
 20
407.4066027337996
 30
0.0
 11
112.1993517981064
 21
406.5983123569331
 31
0.0
  0
ARC
  5
7DC
330
1E
100
AcDbEntity
  8
HILF
100
AcDbCircle
 10
113.299351798099
 20
411.7367297527236
 30
0.0
 40
5.0
100
AcDbArc
 50
180.0000000000521
 51
240.0000000000623
  0
ARC
  5
7DD
330
1E
100
AcDbEntity
  8
HILF
100
AcDbCircle
 10
113.2993517980835
 20
424.7367297527199
 30
0.0
 40
5.0
100
AcDbArc
 50
143.1301023542602
 51
180.0000000000521
  0
LINE
  5
7DE
330
1E
100
AcDbEntity
  8
MITTEL
100
AcDbLine
 10
112.4493517980931
 20
416.7367297527182
 30
0.0
 11
80.14935179809308
 21
416.7367297526689
 31
0.0
  0
LINE
  5
7DF
330
1E
100
AcDbEntity
  8
MITTEL
100
AcDbLine
 10
96.29935179807421
 20
432.8867297526945
 30
0.0
 11
96.29935179811207
 21
400.5867297526945
 31
0.0
  0
LINE
  5
7EA
102
{ACAD_REACTORS
330
7CE
102
}
330
1E
100
AcDbEntity
  8
STEMPEL
100
AcDbLine
 10
84.29935179807904
 20
378.7367297527436
 30
0.0
 11
89.29935179807904
 21
373.7367297527463
 31
0.0
  0
LINE
  5
7EB
102
{ACAD_REACTORS
330
7CE
102
}
330
1E
100
AcDbEntity
  8
STEMPEL
100
AcDbLine
 10
89.2993517980795
 20
427.7367297527563
 30
0.0
 11
84.2993517980795
 21
422.7367297527545
 31
0.0
  0
LINE
  5
7EC
330
1E
100
AcDbEntity
  8
STEMPEL
100
AcDbLine
 10
214.2993517981363
 20
378.7367297528209
 30
0.0
 11
209.299351798142
 21
373.7367297528182
 31
0.0
  0
LINE
  5
7ED
102
{ACAD_REACTORS
330
7C8
102
}
330
1E
100
AcDbEntity
  8
STEMPEL
100
AcDbLine
 10
209.2993517980815
 20
427.7367297528264
 30
0.0
 11
214.2993517980869
 21
422.7367297528314
 31
0.0
  0
ARC
  5
7EE
330
1E
100
AcDbEntity
  8
HILF
100
AcDbCircle
 10
185.2993517980835
 20
424.7367297528081
 30
0.0
 40
5.0
100
AcDbArc
 50
0.0000000000521102
 51
36.86989764587822
  0
ARC
  5
7EF
330
1E
100
AcDbEntity
  8
HILF
100
AcDbCircle
 10
185.299351798099
 20
411.7367297528118
 30
0.0
 40
5.0
100
AcDbArc
 50
300.0000000000669
 51
0.0000000000521102
  0
LINE
  5
7F0
330
1E
100
AcDbEntity
  8
HILF
100
AcDbLine
 10
187.7993517981056
 20
407.4066027338932
 30
0.0
 11
186.3993517981039
 21
406.5983123570241
 31
0.0
  0
LINE
  5
7F1
330
1E
100
AcDbEntity
  8
HILF
100
AcDbLine
 10
184.8993517981075
 20
404.0002361456696
 30
0.0
 11
184.899351798119
 21
392.9367297528116
 31
0.0
  0
ARC
  5
7F2
330
1E
100
AcDbEntity
  8
HILF
100
AcDbCircle
 10
154.8993517981187
 20
392.9367297527753
 30
0.0
 40
30.0
100
AcDbArc
 50
340.4196081059781
 51
0.0000000000521102
  0
ARC
  5
7F3
330
1E
100
AcDbEntity
  8
HILF
100
AcDbCircle
 10
187.8993517981321
 20
381.2757297528134
 30
0.0
 40
5.0
100
AcDbArc
 50
160.0630951754919
 51
180.0000000000521
  0
LINE
  5
7F4
330
1E
100
AcDbEntity
  8
HILF
100
AcDbLine
 10
182.8993517981322
 20
381.2748259631181
 30
0.0
 11
182.8993517981417
 21
373.7367297528046
 31
0.0
  0
LINE
  5
7F5
330
1E
100
AcDbEntity
  8
HILF
100
AcDbLine
 10
190.2993517980836
 20
424.7367297528145
 30
0.0
 11
190.2993517980995
 21
411.7367297528181
 31
0.0
  0
LINE
  5
7F6
330
1E
100
AcDbEntity
  8
STEMPEL
100
AcDbLine
 10
214.2993517981363
 20
378.7367297528209
 30
0.0
 11
214.2993517980869
 21
422.7367297528314
 31
0.0
  0
LINE
  5
7F7
102
{ACAD_REACTORS
330
7C8
102
}
330
1E
100
AcDbEntity
  8
STEMPEL
100
AcDbLine
 10
84.29935179807904
 20
378.7367297527436
 30
0.0
 11
84.2993517980795
 21
422.7367297527545
 31
0.0
  0
LINE
  5
7F8
330
1E
100
AcDbEntity
  8
STEMPEL
100
AcDbLine
 10
209.2993517981447
 20
373.7367297528209
 30
0.0
 11
89.29935179807904
 21
373.7367297527463
 31
0.0
  0
LINE
  5
7F9
330
1E
100
AcDbEntity
  8
STEMPEL
100
AcDbLine
 10
209.2993517981115
 20
427.7367297527963
 30
0.0
 11
89.2993517980795
 21
427.7367297527563
 31
0.0
  0
LINE
  5
7FA
330
1E
100
AcDbEntity
  8
MITTEL
100
AcDbLine
 10
149.2993517980799
 20
432.7367297527763
 30
0.0
 11
149.299351798079
 21
368.7367297527836
 31
0.0
  0
ARC
  5
805
330
1E
100
AcDbEntity
  8
STEMPEL
100
AcDbCircle
 10
88.36136908845151
 20
270.1022221413599
 30
0.0
 40
6.767023128081929
100
AcDbArc
 50
241.662957291767
 51
298.3370427082154
  0
ARC
  5
806
330
1E
100
AcDbEntity
  8
STEMPEL
100
AcDbCircle
 10
96.29935179805091
 20
277.5124290132783
 30
0.0
 40
14.17723
100
AcDbArc
 50
250.5278273813744
 51
289.4721726186256
  0
ARC
  5
807
330
1E
100
AcDbEntity
  8
STEMPEL
100
AcDbCircle
 10
104.2373345076497
 20
270.1022221413622
 30
0.0
 40
6.76702312808409
100
AcDbArc
 50
241.6629572917918
 51
298.3370427082286
  0
LINE
  5
808
330
1E
100
AcDbEntity
  8
STEMPEL
100
AcDbLine
 10
85.14935179805092
 20
265.63327901328
 30
0.0
 11
107.4493517980509
 21
265.6332790132808
 31
0.0
  0
LINE
  5
809
330
1E
100
AcDbEntity
  8
STEMPEL
100
AcDbLine
 10
86.84742095965123
 20
256.4381449524102
 30
0.0
 11
86.84742095965123
 21
256.3976385191057
 31
0.0
  0
LINE
  5
80A
330
1E
100
AcDbEntity
  8
STEMPEL
100
AcDbLine
 10
86.84742095965123
 20
256.5612383151705
 30
0.0
 11
86.84742095965123
 21
256.4381449524102
 31
0.0
  0
LINE
  5
80B
330
1E
100
AcDbEntity
  8
STEMPEL
100
AcDbLine
 10
86.84742095965123
 20
256.9057686129194
 30
0.0
 11
86.84742095965123
 21
256.5612383151705
 31
0.0
  0
LINE
  5
80C
330
1E
100
AcDbEntity
  8
STEMPEL
100
AcDbLine
 10
89.21718184235453
 20
255.6272570597115
 30
0.0
 11
89.21109495966504
 21
255.6272570597115
 31
0.0
  0
LINE
  5
80D
330
1E
100
AcDbEntity
  8
STEMPEL
100
AcDbLine
 10
86.84742095965123
 20
256.3976385191057
 30
0.0
 11
87.37229245227046
 21
256.0946038215519
 31
0.0
  0
LINE
  5
80E
330
1E
100
AcDbEntity
  8
STEMPEL
100
AcDbLine
 10
86.84742095965123
 20
256.9057686129194
 30
0.0
 11
86.84742095965123
 21
263.5067264754302
 31
0.0
  0
LINE
  5
80F
330
1E
100
AcDbEntity
  8
STEMPEL
100
AcDbLine
 10
91.57338637885061
 20
256.9057686129194
 30
0.0
 11
91.57338637885061
 21
256.4381449524102
 31
0.0
  0
LINE
  5
810
330
1E
100
AcDbEntity
  8
STEMPEL
100
AcDbLine
 10
101.0253172172512
 20
256.9057686129194
 30
0.0
 11
101.0253172172512
 21
256.4381449524102
 31
0.0
  0
LINE
  5
811
330
1E
100
AcDbEntity
  8
STEMPEL
100
AcDbLine
 10
105.7512826364514
 20
256.9057686129194
 30
0.0
 11
105.7512826364514
 21
256.3976385191057
 31
0.0
  0
LINE
  5
812
330
1E
100
AcDbEntity
  8
STEMPEL
100
AcDbLine
 10
105.7512826364514
 20
256.3976385191057
 30
0.0
 11
105.2264111438313
 21
256.0946038215519
 31
0.0
  0
ARC
  5
813
330
1E
100
AcDbEntity
  8
STEMPEL
100
AcDbCircle
 10
103.3882999268504
 20
259.4756472248076
 30
0.0
 40
3.848390227184345
100
AcDbArc
 50
232.1193642828273
 51
301.4691945240697
  0
ARC
  5
814
330
1E
100
AcDbEntity
  8
STEMPEL
100
AcDbCircle
 10
96.29935179805091
 20
269.8044870597117
 30
0.0
 40
14.17723
100
AcDbArc
 50
250.5278273813744
 51
289.4721726186256
  0
LINE
  5
815
330
1E
100
AcDbEntity
  8
STEMPEL
100
AcDbLine
 10
105.7512826364514
 20
256.9057686129194
 30
0.0
 11
105.7512826364514
 21
263.5067264754305
 31
0.0
  0
LINE
  5
816
330
1E
100
AcDbEntity
  8
STEMPEL
100
AcDbLine
 10
101.0253172172512
 20
256.9057686129194
 30
0.0
 11
101.0253172172512
 21
264.1460869059762
 31
0.0
  0
LINE
  5
817
330
1E
100
AcDbEntity
  8
STEMPEL
100
AcDbLine
 10
91.57338637885061
 20
256.9057686129194
 30
0.0
 11
91.57338637885175
 21
264.1460869059764
 31
0.0
  0
LINE
  5
818
330
1E
100
AcDbEntity
  8
STEMPEL
100
AcDbLine
 10
103.3876086364631
 20
255.6272570597115
 30
0.0
 11
89.2110949596514
 21
255.6272570597115
 31
0.0
  0
ARC
  5
819
330
1E
100
AcDbEntity
  8
STEMPEL
100
AcDbCircle
 10
89.21040366925046
 20
259.4756472248076
 30
0.0
 40
3.848390227184345
100
AcDbArc
 50
238.5308054759303
 51
307.8806357171734
  0
LINE
  5
81A
330
1E
100
AcDbEntity
  8
STEMPEL
100
AcDbLine
 10
85.14935179805092
 20
264.1460869059776
 30
0.0
 11
85.14935179805092
 21
265.6332790132778
 31
0.0
  0
LINE
  5
81B
330
1E
100
AcDbEntity
  8
STEMPEL
100
AcDbLine
 10
107.4493517980509
 20
264.1460869059776
 30
0.0
 11
107.4493517980509
 21
265.6332790132778
 31
0.0
  0
ARC
  5
81F
330
1E
100
AcDbEntity
  8
STEMPEL
100
AcDbCircle
 10
103.3882999268577
 20
277.984888848087
 30
0.0
 40
3.848390227184345
100
AcDbArc
 50
58.53080547593028
 51
127.8806357171727
  0
LINE
  5
820
330
1E
100
AcDbEntity
  8
STEMPEL
100
AcDbLine
 10
89.211094959645
 20
281.8332790131832
 30
0.0
 11
103.3876086364567
 21
281.8332790131832
 31
0.0
  0
LINE
  5
821
330
1E
100
AcDbEntity
  8
STEMPEL
100
AcDbLine
 10
101.0253172172575
 20
280.5547674599753
 30
0.0
 11
101.0253172172566
 21
275.3416811498397
 31
0.0
  0
LINE
  5
822
330
1E
100
AcDbEntity
  8
STEMPEL
100
AcDbLine
 10
91.57338637885695
 20
280.5547674599753
 30
0.0
 11
91.57338637885699
 21
275.3416811498397
 31
0.0
  0
LINE
  5
823
330
1E
100
AcDbEntity
  8
STEMPEL
100
AcDbLine
 10
86.84742095965665
 20
280.5547674599753
 30
0.0
 11
86.84742095965665
 21
275.0722590941569
 31
0.0
  0
ARC
  5
824
330
1E
100
AcDbEntity
  8
STEMPEL
100
AcDbCircle
 10
96.29935179805725
 20
267.656049013183
 30
0.0
 40
14.17723
100
AcDbArc
 50
70.52782738137442
 51
109.4721726186256
  0
ARC
  5
825
330
1E
100
AcDbEntity
  8
STEMPEL
100
AcDbCircle
 10
89.21040366925771
 20
277.984888848087
 30
0.0
 40
3.848390227184345
100
AcDbArc
 50
52.11936428282661
 51
121.4691945240697
  0
LINE
  5
826
330
1E
100
AcDbEntity
  8
STEMPEL
100
AcDbLine
 10
86.84742095965665
 20
281.0628975537889
 30
0.0
 11
87.3722924522768
 21
281.3659322513428
 31
0.0
  0
LINE
  5
827
330
1E
100
AcDbEntity
  8
STEMPEL
100
AcDbLine
 10
86.84742095965665
 20
280.5547674599753
 30
0.0
 11
86.84742095965665
 21
281.0628975537889
 31
0.0
  0
LINE
  5
828
330
1E
100
AcDbEntity
  8
STEMPEL
100
AcDbLine
 10
91.57338637885695
 20
280.5547674599753
 30
0.0
 11
91.57338637885695
 21
281.0223911204845
 31
0.0
  0
LINE
  5
829
330
1E
100
AcDbEntity
  8
STEMPEL
100
AcDbLine
 10
101.0253172172575
 20
280.5547674599753
 30
0.0
 11
101.0253172172575
 21
281.0223911204845
 31
0.0
  0
LINE
  5
82A
330
1E
100
AcDbEntity
  8
STEMPEL
100
AcDbLine
 10
105.7512826364569
 20
280.5547674599753
 30
0.0
 11
105.7512826364569
 21
275.072259094157
 31
0.0
  0
LINE
  5
82B
330
1E
100
AcDbEntity
  8
STEMPEL
100
AcDbLine
 10
105.7512826364569
 20
281.0628975537889
 30
0.0
 11
105.2264111438377
 21
281.3659322513428
 31
0.0
  0
LINE
  5
82C
330
1E
100
AcDbEntity
  8
STEMPEL
100
AcDbLine
 10
103.3815217537536
 20
281.8332790131832
 30
0.0
 11
103.3876086364431
 21
281.8332790131832
 31
0.0
  0
LINE
  5
82D
330
1E
100
AcDbEntity
  8
STEMPEL
100
AcDbLine
 10
105.7512826364569
 20
280.5547674599753
 30
0.0
 11
105.7512826364569
 21
280.8992977577242
 31
0.0
  0
LINE
  5
82E
330
1E
100
AcDbEntity
  8
STEMPEL
100
AcDbLine
 10
105.7512826364569
 20
280.8992977577242
 30
0.0
 11
105.7512826364569
 21
281.0223911204845
 31
0.0
  0
LINE
  5
82F
330
1E
100
AcDbEntity
  8
STEMPEL
100
AcDbLine
 10
105.7512826364569
 20
281.0223911204845
 30
0.0
 11
105.7512826364569
 21
281.0628975537889
 31
0.0
  0
LINE
  5
830
330
1E
100
AcDbEntity
  8
STEMPEL
100
AcDbLine
 10
191.1493517981088
 20
264.1460869059776
 30
0.0
 11
191.1493517981089
 21
265.6332790132778
 31
0.0
  0
LINE
  5
831
330
1E
100
AcDbEntity
  8
STEMPEL
100
AcDbLine
 10
213.4493517981089
 20
264.1460869059776
 30
0.0
 11
213.4493517981089
 21
265.6332790132778
 31
0.0
  0
ARC
  5
832
330
1E
100
AcDbEntity
  8
STEMPEL
100
AcDbCircle
 10
209.3882999269093
 20
259.4756472248076
 30
0.0
 40
3.848390227184345
100
AcDbArc
 50
232.1193642828266
 51
301.4691945240697
  0
LINE
  5
833
330
1E
100
AcDbEntity
  8
STEMPEL
100
AcDbLine
 10
195.2110949596967
 20
255.6272570597115
 30
0.0
 11
209.3876086365084
 21
255.6272570597115
 31
0.0
  0
LINE
  5
834
330
1E
100
AcDbEntity
  8
STEMPEL
100
AcDbLine
 10
207.0253172173092
 20
256.9057686129194
 30
0.0
 11
207.025317217308
 21
264.1460869059764
 31
0.0
  0
LINE
  5
835
330
1E
100
AcDbEntity
  8
STEMPEL
100
AcDbLine
 10
197.5733863789086
 20
256.9057686129194
 30
0.0
 11
197.5733863789086
 21
264.1460869059762
 31
0.0
  0
LINE
  5
836
330
1E
100
AcDbEntity
  8
STEMPEL
100
AcDbLine
 10
192.8474209597083
 20
256.9057686129194
 30
0.0
 11
192.8474209597083
 21
263.5067264754305
 31
0.0
  0
ARC
  5
837
330
1E
100
AcDbEntity
  8
STEMPEL
100
AcDbCircle
 10
202.2993517981089
 20
269.8044870597117
 30
0.0
 40
14.17723
100
AcDbArc
 50
250.5278273813744
 51
289.4721726186256
  0
ARC
  5
838
330
1E
100
AcDbEntity
  8
STEMPEL
100
AcDbCircle
 10
195.2104036693094
 20
259.4756472248076
 30
0.0
 40
3.848390227184345
100
AcDbArc
 50
238.5308054759303
 51
307.8806357171728
  0
LINE
  5
839
330
1E
100
AcDbEntity
  8
STEMPEL
100
AcDbLine
 10
192.8474209597083
 20
256.3976385191057
 30
0.0
 11
193.3722924523284
 21
256.0946038215519
 31
0.0
  0
LINE
  5
83A
330
1E
100
AcDbEntity
  8
STEMPEL
100
AcDbLine
 10
192.8474209597083
 20
256.9057686129194
 30
0.0
 11
192.8474209597083
 21
256.3976385191057
 31
0.0
  0
LINE
  5
83B
330
1E
100
AcDbEntity
  8
STEMPEL
100
AcDbLine
 10
197.5733863789086
 20
256.9057686129194
 30
0.0
 11
197.5733863789086
 21
256.4381449524102
 31
0.0
  0
LINE
  5
83C
330
1E
100
AcDbEntity
  8
STEMPEL
100
AcDbLine
 10
207.0253172173092
 20
256.9057686129194
 30
0.0
 11
207.0253172173092
 21
256.4381449524102
 31
0.0
  0
LINE
  5
83D
330
1E
100
AcDbEntity
  8
STEMPEL
100
AcDbLine
 10
211.7512826365086
 20
256.9057686129194
 30
0.0
 11
211.7512826365086
 21
263.5067264754302
 31
0.0
  0
LINE
  5
83E
330
1E
100
AcDbEntity
  8
STEMPEL
100
AcDbLine
 10
211.7512826365086
 20
256.3976385191057
 30
0.0
 11
211.2264111438893
 21
256.0946038215519
 31
0.0
  0
LINE
  5
83F
330
1E
100
AcDbEntity
  8
STEMPEL
100
AcDbLine
 10
209.3815217538053
 20
255.6272570597115
 30
0.0
 11
209.3876086364947
 21
255.6272570597115
 31
0.0
  0
LINE
  5
840
330
1E
100
AcDbEntity
  8
STEMPEL
100
AcDbLine
 10
211.7512826365086
 20
256.9057686129194
 30
0.0
 11
211.7512826365086
 21
256.5612383151705
 31
0.0
  0
LINE
  5
841
330
1E
100
AcDbEntity
  8
STEMPEL
100
AcDbLine
 10
211.7512826365086
 20
256.5612383151705
 30
0.0
 11
211.7512826365086
 21
256.4381449524102
 31
0.0
  0
LINE
  5
842
330
1E
100
AcDbEntity
  8
STEMPEL
100
AcDbLine
 10
211.7512826365086
 20
256.4381449524102
 30
0.0
 11
211.7512826365086
 21
256.3976385191057
 31
0.0
  0
LINE
  5
843
330
1E
100
AcDbEntity
  8
STEMPEL
100
AcDbLine
 10
213.4493517981089
 20
265.63327901328
 30
0.0
 11
191.1493517981089
 21
265.6332790132808
 31
0.0
  0
ARC
  5
844
330
1E
100
AcDbEntity
  8
STEMPEL
100
AcDbCircle
 10
194.36136908851
 20
270.1022221413622
 30
0.0
 40
6.76702312808409
100
AcDbArc
 50
241.6629572917714
 51
298.3370427082082
  0
ARC
  5
845
330
1E
100
AcDbEntity
  8
STEMPEL
100
AcDbCircle
 10
202.2993517981089
 20
277.5124290132783
 30
0.0
 40
14.17723
100
AcDbArc
 50
250.5278273813744
 51
289.4721726186256
  0
ARC
  5
846
330
1E
100
AcDbEntity
  8
STEMPEL
100
AcDbCircle
 10
210.2373345077083
 20
270.1022221413599
 30
0.0
 40
6.767023128081929
100
AcDbArc
 50
241.6629572917845
 51
298.337042708233
  0
LINE
  5
847
330
1E
100
AcDbEntity
  8
STEMPEL
100
AcDbLine
 10
192.8474209597029
 20
281.0223911204845
 30
0.0
 11
192.8474209597029
 21
281.0628975537889
 31
0.0
  0
LINE
  5
848
330
1E
100
AcDbEntity
  8
STEMPEL
100
AcDbLine
 10
192.8474209597029
 20
280.8992977577242
 30
0.0
 11
192.8474209597029
 21
281.0223911204845
 31
0.0
  0
LINE
  5
849
330
1E
100
AcDbEntity
  8
STEMPEL
100
AcDbLine
 10
192.8474209597029
 20
280.5547674599753
 30
0.0
 11
192.8474209597029
 21
280.8992977577242
 31
0.0
  0
LINE
  5
84A
330
1E
100
AcDbEntity
  8
STEMPEL
100
AcDbLine
 10
195.2171818424061
 20
281.8332790131832
 30
0.0
 11
195.2110949597167
 21
281.8332790131832
 31
0.0
  0
LINE
  5
84B
330
1E
100
AcDbEntity
  8
STEMPEL
100
AcDbLine
 10
192.8474209597029
 20
281.0628975537889
 30
0.0
 11
193.3722924523221
 21
281.3659322513428
 31
0.0
  0
LINE
  5
84C
330
1E
100
AcDbEntity
  8
STEMPEL
100
AcDbLine
 10
192.8474209597029
 20
280.5547674599753
 30
0.0
 11
192.8474209597028
 21
274.7598315509347
 31
0.0
  0
LINE
  5
84D
330
1E
100
AcDbEntity
  8
STEMPEL
100
AcDbLine
 10
197.5733863789022
 20
280.5547674599753
 30
0.0
 11
197.5733863789022
 21
281.0223911204845
 31
0.0
  0
LINE
  5
84E
330
1E
100
AcDbEntity
  8
STEMPEL
100
AcDbLine
 10
207.0253172173028
 20
280.5547674599753
 30
0.0
 11
207.0253172173028
 21
281.0223911204845
 31
0.0
  0
LINE
  5
84F
330
1E
100
AcDbEntity
  8
STEMPEL
100
AcDbLine
 10
211.7512826365031
 20
280.5547674599753
 30
0.0
 11
211.7512826365031
 21
281.0628975537889
 31
0.0
  0
LINE
  5
850
330
1E
100
AcDbEntity
  8
STEMPEL
100
AcDbLine
 10
211.7512826365031
 20
281.0628975537889
 30
0.0
 11
211.2264111438829
 21
281.3659322513428
 31
0.0
  0
ARC
  5
851
330
1E
100
AcDbEntity
  8
STEMPEL
100
AcDbCircle
 10
209.3882999269021
 20
277.984888848087
 30
0.0
 40
3.848390227184345
100
AcDbArc
 50
58.53080547593028
 51
127.8806357171734
  0
ARC
  5
852
330
1E
100
AcDbEntity
  8
STEMPEL
100
AcDbCircle
 10
202.2993517981025
 20
267.656049013183
 30
0.0
 40
14.17723
100
AcDbArc
 50
70.52782738137442
 51
109.4721726186256
  0
LINE
  5
853
330
1E
100
AcDbEntity
  8
STEMPEL
100
AcDbLine
 10
211.7512826365031
 20
280.5547674599753
 30
0.0
 11
211.7512826365032
 21
274.7598315509375
 31
0.0
  0
LINE
  5
854
330
1E
100
AcDbEntity
  8
STEMPEL
100
AcDbLine
 10
207.0253172173028
 20
280.5547674599753
 30
0.0
 11
207.0253172173028
 21
274.1204711203863
 31
0.0
  0
LINE
  5
855
330
1E
100
AcDbEntity
  8
STEMPEL
100
AcDbLine
 10
197.5733863789022
 20
280.5547674599753
 30
0.0
 11
197.5733863789034
 21
274.1204711203931
 31
0.0
  0
LINE
  5
856
330
1E
100
AcDbEntity
  8
STEMPEL
100
AcDbLine
 10
209.3876086365148
 20
281.8332790131832
 30
0.0
 11
195.211094959703
 21
281.8332790131832
 31
0.0
  0
ARC
  5
857
330
1E
100
AcDbEntity
  8
STEMPEL
100
AcDbCircle
 10
195.2104036693021
 20
277.984888848087
 30
0.0
 40
3.848390227184345
100
AcDbArc
 50
52.11936428282661
 51
121.4691945240697
  0
LINE
  5
858
330
1E
100
AcDbEntity
  8
STEMPEL
100
AcDbLine
 10
191.1493517981025
 20
274.1204711203855
 30
0.0
 11
191.1493517981026
 21
272.6332790131833
 31
0.0
  0
LINE
  5
859
330
1E
100
AcDbEntity
  8
STEMPEL
100
AcDbLine
 10
213.4493517981026
 20
274.1204711203923
 30
0.0
 11
213.4493517981026
 21
272.6332790131833
 31
0.0
  0
LINE
  5
85D
330
1E
100
AcDbEntity
  8
MITTEL
100
AcDbLine
 10
149.2993517980799
 20
224.1332790131833
 30
0.0
 11
149.2993517980799
 21
314.1332790131837
 31
0.0
  0
ARC
  5
85E
330
1E
100
AcDbEntity
  8
STEMPEL
100
AcDbCircle
 10
149.2993517980799
 20
269.133279013184
 30
0.0
 40
39.99999999999977
100
AcDbArc
 50
7.524630222358159
 51
172.4753697776418
  0
LINE
  5
85F
330
1E
100
AcDbEntity
  8
STEMPEL
100
AcDbLine
 10
214.2993517980799
 20
272.6332790131833
 30
0.0
 11
190.9376754915233
 21
272.6332790131833
 31
0.0
  0
ARC
  5
860
330
1E
100
AcDbEntity
  8
STEMPEL
100
AcDbCircle
 10
149.2993517980799
 20
269.133279013184
 30
0.0
 40
36.99999999999977
100
AcDbArc
 50
7.524630222358159
 51
9.88523635514336
  0
LINE
  5
861
330
1E
100
AcDbEntity
  8
STEMPEL
100
AcDbLine
 10
214.2993517980799
 20
269.6332790131842
 30
0.0
 11
183.3581245299324
 21
269.6332790131835
 31
0.0
  0
LINE
  5
862
330
1E
100
AcDbEntity
  8
STEMPEL
100
AcDbLine
 10
214.2993517980799
 20
269.6332790131833
 30
0.0
 11
214.2993517980799
 21
272.6332790131833
 31
0.0
  0
LINE
  5
863
330
1E
100
AcDbEntity
  8
STEMPEL
100
AcDbLine
 10
84.29935179807989
 20
269.6332790131833
 30
0.0
 11
84.29935179807989
 21
272.6332790131833
 31
0.0
  0
LINE
  5
864
330
1E
100
AcDbEntity
  8
STEMPEL
100
AcDbLine
 10
107.6610281046364
 20
272.6332790131833
 30
0.0
 11
84.29935179807898
 21
272.6332790131841
 31
0.0
  0
ARC
  5
865
330
1E
100
AcDbEntity
  8
STEMPEL
100
AcDbCircle
 10
190.9376754915233
 20
274.633279013183
 30
0.0
 40
2.0
100
AcDbArc
 50
187.5246302223713
 51
270.0
  0
ARC
  5
866
330
1E
100
AcDbEntity
  8
STEMPEL
100
AcDbCircle
 10
107.6610281046364
 20
274.633279013183
 30
0.0
 40
2.0
100
AcDbArc
 50
270.0
 51
352.4753697776287
  0
ARC
  5
867
330
1E
100
AcDbEntity
  8
STEMPEL
100
AcDbCircle
 10
107.6610281046364
 20
274.633279013183
 30
0.0
 40
5.0
100
AcDbArc
 50
270.0
 51
352.4753697776287
  0
ARC
  5
868
330
1E
100
AcDbEntity
  8
STEMPEL
100
AcDbCircle
 10
190.9376754915233
 20
274.633279013183
 30
0.0
 40
5.0
100
AcDbArc
 50
187.5246302223713
 51
270.0
  0
LINE
  5
869
330
1E
100
AcDbEntity
  8
MITTEL
100
AcDbLine
 10
79.2993517980799
 20
269.1332790131832
 30
0.0
 11
219.2993517980799
 21
269.1332790131832
 31
0.0
  0
LINE
  5
86A
330
1E
100
AcDbEntity
  8
STEMPEL
100
AcDbLine
 10
115.2405790662273
 20
269.633279013183
 30
0.0
 11
84.29935179807898
 21
269.6332790131833
 31
0.0
  0
LINE
  5
86B
330
1E
100
AcDbEntity
  8
STEMPEL
100
AcDbLine
 10
115.2405790662183
 20
268.6332790131223
 30
0.0
 11
84.29935179807989
 21
268.6332790130659
 31
0.0
  0
ARC
  5
86C
330
1E
100
AcDbEntity
  8
STEMPEL
100
AcDbCircle
 10
107.6610281046473
 20
263.6332790131084
 30
0.0
 40
5.0
100
AcDbArc
 50
7.524630222461573
 51
90.00000000010421
  0
ARC
  5
86D
330
1E
100
AcDbEntity
  8
STEMPEL
100
AcDbCircle
 10
107.6610281046473
 20
263.6332790131084
 30
0.0
 40
2.0
100
AcDbArc
 50
7.524630222461573
 51
90.00000000010421
  0
LINE
  5
86E
330
1E
100
AcDbEntity
  8
STEMPEL
100
AcDbLine
 10
107.6610281046428
 20
265.6332790131087
 30
0.0
 11
84.29935179808536
 21
265.633279013065
 31
0.0
  0
LINE
  5
86F
330
1E
100
AcDbEntity
  8
STEMPEL
100
AcDbLine
 10
84.29935179808081
 20
268.6332790130659
 30
0.0
 11
84.29935179808627
 21
265.6332790130659
 31
0.0
  0
ARC
  5
870
330
1E
100
AcDbEntity
  8
STEMPEL
100
AcDbCircle
 10
149.2993517980799
 20
269.133279013183
 30
0.0
 40
36.99999999999977
100
AcDbArc
 50
187.5246302224615
 51
189.8852363551548
  0
ARC
  5
871
330
1E
100
AcDbEntity
  8
STEMPEL
100
AcDbCircle
 10
149.2993517980799
 20
269.133279013183
 30
0.0
 40
39.99999999999977
100
AcDbArc
 50
187.5246302224615
 51
352.4753697777454
  0
ARC
  5
872
330
1E
100
AcDbEntity
  8
STEMPEL
100
AcDbCircle
 10
190.9376754915342
 20
263.6332790132594
 30
0.0
 40
5.0
100
AcDbArc
 50
90.00000000010421
 51
172.4753697777322
  0
ARC
  5
873
330
1E
100
AcDbEntity
  8
STEMPEL
100
AcDbCircle
 10
190.9376754915342
 20
263.6332790132594
 30
0.0
 40
2.0
100
AcDbArc
 50
90.00000000010421
 51
172.4753697777322
  0
LINE
  5
874
330
1E
100
AcDbEntity
  8
STEMPEL
100
AcDbLine
 10
214.2993517980817
 20
268.6332790133024
 30
0.0
 11
214.2993517980872
 21
265.6332790133024
 31
0.0
  0
LINE
  5
875
330
1E
100
AcDbEntity
  8
STEMPEL
100
AcDbLine
 10
214.2993517980817
 20
268.6332790133015
 30
0.0
 11
183.3581245299233
 21
268.6332790132464
 31
0.0
  0
LINE
  5
876
330
1E
100
AcDbEntity
  8
STEMPEL
100
AcDbLine
 10
214.2993517980872
 20
265.6332790133024
 30
0.0
 11
190.9376754915306
 21
265.6332790132597
 31
0.0
  0
LINE
  5
877
330
1E
100
AcDbEntity
  8
MITTEL
100
AcDbLine
 10
96.29935179805716
 20
286.0351990131835
 30
0.0
 11
96.29935179805716
 21
239.6332790131837
 31
0.0
  0
LINE
  5
878
330
1E
100
AcDbEntity
  8
HILF
100
AcDbLine
 10
99.79935179805716
 20
255.6332790131833
 30
0.0
 11
99.79935179805716
 21
244.6332790131837
 31
0.0
  0
LINE
  5
879
330
1E
100
AcDbEntity
  8
HILF
100
AcDbLine
 10
92.79935179805717
 20
255.6332790131833
 30
0.0
 11
92.79935179805717
 21
244.6332790131837
 31
0.0
  0
LINE
  5
87A
330
1E
100
AcDbEntity
  8
STEMPEL
100
AcDbLine
 10
99.79935179805716
 20
244.6332790131837
 30
0.0
 11
101.2993517980571
 21
246.1332790131837
 31
0.0
  0
LINE
  5
87B
330
1E
100
AcDbEntity
  8
STEMPEL
100
AcDbLine
 10
91.29935179805716
 20
246.1332790131837
 30
0.0
 11
101.2993517980571
 21
246.1332790131837
 31
0.0
  0
LINE
  5
87C
330
1E
100
AcDbEntity
  8
STEMPEL
100
AcDbLine
 10
91.29935179805716
 20
246.1332790131837
 30
0.0
 11
92.79935179805717
 21
244.6332790131837
 31
0.0
  0
LINE
  5
87D
330
1E
100
AcDbEntity
  8
STEMPEL
100
AcDbLine
 10
92.79935179805717
 20
244.6332790131837
 30
0.0
 11
99.79935179805716
 21
244.6332790131837
 31
0.0
  0
LINE
  5
87E
330
1E
100
AcDbEntity
  8
STEMPEL
100
AcDbLine
 10
91.29935179805716
 20
255.6332790131837
 30
0.0
 11
91.29935179805716
 21
246.1332790131837
 31
0.0
  0
LINE
  5
87F
330
1E
100
AcDbEntity
  8
STEMPEL
100
AcDbLine
 10
101.2993517980571
 20
255.6332790131837
 30
0.0
 11
101.2993517980571
 21
246.1332790131837
 31
0.0
  0
LINE
  5
880
330
1E
100
AcDbEntity
  8
STEMPEL
100
AcDbLine
 10
197.2993517981026
 20
255.6332790131837
 30
0.0
 11
197.2993517981026
 21
246.1332790131837
 31
0.0
  0
LINE
  5
881
330
1E
100
AcDbEntity
  8
STEMPEL
100
AcDbLine
 10
207.2993517981026
 20
255.6332790131837
 30
0.0
 11
207.2993517981026
 21
246.1332790131837
 31
0.0
  0
LINE
  5
882
330
1E
100
AcDbEntity
  8
STEMPEL
100
AcDbLine
 10
205.7993517981026
 20
244.6332790131837
 30
0.0
 11
198.7993517981026
 21
244.6332790131837
 31
0.0
  0
LINE
  5
883
330
1E
100
AcDbEntity
  8
STEMPEL
100
AcDbLine
 10
207.2993517981026
 20
246.1332790131837
 30
0.0
 11
205.7993517981026
 21
244.6332790131837
 31
0.0
  0
LINE
  5
884
330
1E
100
AcDbEntity
  8
STEMPEL
100
AcDbLine
 10
207.2993517981026
 20
246.1332790131837
 30
0.0
 11
197.2993517981026
 21
246.1332790131837
 31
0.0
  0
LINE
  5
885
330
1E
100
AcDbEntity
  8
STEMPEL
100
AcDbLine
 10
198.7993517981026
 20
244.6332790131837
 30
0.0
 11
197.2993517981026
 21
246.1332790131837
 31
0.0
  0
LINE
  5
886
330
1E
100
AcDbEntity
  8
HILF
100
AcDbLine
 10
205.7993517981026
 20
255.6332790131833
 30
0.0
 11
205.7993517981026
 21
244.6332790131837
 31
0.0
  0
LINE
  5
887
330
1E
100
AcDbEntity
  8
HILF
100
AcDbLine
 10
198.7993517981026
 20
255.6332790131833
 30
0.0
 11
198.7993517981026
 21
244.6332790131837
 31
0.0
  0
LINE
  5
888
330
1E
100
AcDbEntity
  8
MITTEL
100
AcDbLine
 10
202.2993517981027
 20
286.0351990131834
 30
0.0
 11
202.2993517981027
 21
239.6332790131837
 31
0.0
  0
LINE
  5
889
330
1E
100
AcDbEntity
  8
STEMPEL
100
AcDbLine
 10
112.8486687776735
 20
275.4852635334632
 30
0.0
 11
118.957099201179
 21
275.485263533463
 31
0.0
  0
LINE
  5
88A
330
1E
100
AcDbEntity
  8
STEMPEL
100
AcDbLine
 10
112.8486687776744
 20
262.7812944929026
 30
0.0
 11
118.957099201179
 21
262.7812944929026
 31
0.0
  0
LINE
  5
88B
330
1E
100
AcDbEntity
  8
STEMPEL
100
AcDbLine
 10
185.7500348184862
 20
275.4852635334632
 30
0.0
 11
179.6416043949807
 21
275.485263533463
 31
0.0
  0
LINE
  5
88C
330
1E
100
AcDbEntity
  8
STEMPEL
100
AcDbLine
 10
185.7500348184853
 20
262.7812944929026
 30
0.0
 11
179.6416043949807
 21
262.7812944929026
 31
0.0
  0
ARC
  5
88D
330
1E
100
AcDbEntity
  8
STEMPEL
100
AcDbCircle
 10
149.2993517980799
 20
269.133279013184
 30
0.0
 40
30.99999999999977
100
AcDbArc
 50
11.82380480899823
 51
168.1761951910018
  0
ARC
  5
88E
330
1E
100
AcDbEntity
  8
STEMPEL
100
AcDbCircle
 10
149.2993517980799
 20
269.133279013183
 30
0.0
 40
30.99999999999977
100
AcDbArc
 50
191.8238048089982
 51
348.1761951910018
  0
ARC
  5
88F
330
1E
100
AcDbEntity
  8
STEMPEL
100
AcDbCircle
 10
149.2993517980799
 20
269.133279013184
 30
0.0
 40
36.99999999999977
100
AcDbArc
 50
170.1147636448566
 51
172.4753697776418
  0
ARC
  5
890
330
1E
100
AcDbEntity
  8
STEMPEL
100
AcDbCircle
 10
149.2993517980799
 20
269.133279013183
 30
0.0
 40
36.99999999999977
100
AcDbArc
 50
350.1147636448434
 51
352.4753697777454
  0
ARC
  5
891
330
1E
100
AcDbEntity
  8
STEMPEL
100
AcDbCircle
 10
149.2993517980799
 20
269.133279013184
 30
0.0
 40
31.5
100
AcDbArc
 50
8.666621416736489
 51
11.63348082685418
  0
ARC
  5
892
330
1E
100
AcDbEntity
  8
STEMPEL
100
AcDbCircle
 10
149.2993517980799
 20
269.133279013184
 30
0.0
 40
29.5
100
AcDbArc
 50
9.173249383787007
 51
170.826750616213
  0
ARC
  5
893
330
1E
100
AcDbEntity
  8
STEMPEL
100
AcDbCircle
 10
115.2405790662273
 20
274.6332790131833
 30
0.0
 40
5.0
100
AcDbArc
 50
270.0
 51
350.826750616213
  0
ARC
  5
894
330
1E
100
AcDbEntity
  8
STEMPEL
100
AcDbCircle
 10
113.2161146927424
 20
274.6332790131833
 30
0.0
 40
5.0
100
AcDbArc
 50
270.0
 51
351.3333785832635
  0
ARC
  5
895
330
1E
100
AcDbEntity
  8
STEMPEL
100
AcDbCircle
 10
183.3581245299324
 20
274.6332790131828
 30
0.0
 40
5.0
100
AcDbArc
 50
189.173249383787
 51
270.0
  0
ARC
  5
896
330
1E
100
AcDbEntity
  8
STEMPEL
100
AcDbCircle
 10
185.3825889034174
 20
274.6332790131835
 30
0.0
 40
5.0
100
AcDbArc
 50
188.6666214167365
 51
270.0
  0
ARC
  5
897
330
1E
100
AcDbEntity
  8
STEMPEL
100
AcDbCircle
 10
149.2993517980799
 20
269.133279013184
 30
0.0
 40
31.5
100
AcDbArc
 50
168.366519173159
 51
171.3333785832635
  0
ARC
  5
898
330
1E
100
AcDbEntity
  8
STEMPEL
100
AcDbCircle
 10
113.2161146927424
 20
263.6332790131833
 30
0.0
 40
5.0
100
AcDbArc
 50
8.666621416736489
 51
90.0
  0
ARC
  5
899
330
1E
100
AcDbEntity
  8
STEMPEL
100
AcDbCircle
 10
115.2405790662273
 20
263.6332790131833
 30
0.0
 40
5.0
100
AcDbArc
 50
9.173249383787007
 51
90.0
  0
ARC
  5
89A
330
1E
100
AcDbEntity
  8
STEMPEL
100
AcDbCircle
 10
149.2993517980799
 20
269.1332790131826
 30
0.0
 40
29.5
100
AcDbArc
 50
189.173249383787
 51
350.826750616213
  0
ARC
  5
89B
330
1E
100
AcDbEntity
  8
STEMPEL
100
AcDbCircle
 10
183.3581245299324
 20
263.6332790131837
 30
0.0
 40
5.0
100
AcDbArc
 50
90.0
 51
170.826750616213
  0
ARC
  5
89C
330
1E
100
AcDbEntity
  8
STEMPEL
100
AcDbCircle
 10
185.3825889034174
 20
263.633279013183
 30
0.0
 40
5.0
100
AcDbArc
 50
90.0
 51
171.3333785832635
  0
ARC
  5
89D
330
1E
100
AcDbEntity
  8
STEMPEL
100
AcDbCircle
 10
149.2993517980799
 20
269.1332790131826
 30
0.0
 40
31.5
100
AcDbArc
 50
348.3665191731458
 51
351.3333785832635
  0
ARC
  5
89E
330
1E
100
AcDbEntity
  8
STEMPEL
100
AcDbCircle
 10
149.2993517980799
 20
269.1332790131826
 30
0.0
 40
31.5
100
AcDbArc
 50
188.6666214167365
 51
191.6334808268409
  0
CIRCLE
  5
C4C
330
1E
100
AcDbEntity
  8
STEMPEL
100
AcDbCircle
 10
96.29935179809308
 20
416.7367297526944
 30
0.0
 40
11.0
  0
CIRCLE
  5
C57
330
1E
100
AcDbEntity
  8
STEMPEL
100
AcDbCircle
 10
202.299351798094
 20
416.7367297528208
 30
0.0
 40
11.0
  0
LINE
  5
C58
330
1E
100
AcDbEntity
  8
MITTEL
100
AcDbLine
 10
202.2993517980751
 20
432.8867297528208
 30
0.0
 11
202.299351798113
 21
400.5867297528209
 31
0.0
  0
LINE
  5
C59
330
1E
100
AcDbEntity
  8
MITTEL
100
AcDbLine
 10
218.449351798094
 20
416.7367297528445
 30
0.0
 11
186.149351798094
 21
416.7367297527954
 31
0.0
  0
CIRCLE
  5
C5C
330
1E
100
AcDbEntity
  8
STEMPEL
100
AcDbCircle
 10
195.7993517980792
 20
385.23672975281
 30
0.0
 40
11.0
  0
LINE
  5
C5D
330
1E
100
AcDbEntity
  8
MITTEL
100
AcDbLine
 10
195.7993517980603
 20
401.3867297528099
 30
0.0
 11
195.7993517980982
 21
369.08672975281
 31
0.0
  0
LINE
  5
C5E
330
1E
100
AcDbEntity
  8
MITTEL
100
AcDbLine
 10
211.9493517980792
 20
385.2367297528337
 30
0.0
 11
179.6493517980792
 21
385.2367297527846
 31
0.0
  0
CIRCLE
  5
C61
330
1E
100
AcDbEntity
  8
STEMPEL
100
AcDbCircle
 10
102.7993517981772
 20
385.236729752699
 30
0.0
 40
11.0
  0
LINE
  5
C62
330
1E
100
AcDbEntity
  8
MITTEL
100
AcDbLine
 10
102.7993517981583
 20
401.386729752699
 30
0.0
 11
102.7993517981962
 21
369.086729752699
 31
0.0
  0
LINE
  5
C63
330
1E
100
AcDbEntity
  8
MITTEL
100
AcDbLine
 10
118.9493517981772
 20
385.2367297527227
 30
0.0
 11
86.64935179817721
 21
385.2367297526736
 31
0.0
  0
CIRCLE
  5
C65
330
1E
100
AcDbEntity
  8
STEMPEL
100
AcDbCircle
 10
96.29935179809308
 20
416.7367297526944
 30
0.0
 40
8.5
  0
CIRCLE
  5
C67
330
1E
100
AcDbEntity
  8
STEMPEL
100
AcDbCircle
 10
202.299351798094
 20
416.7367297528208
 30
0.0
 40
8.5
  0
CIRCLE
  5
C69
330
1E
100
AcDbEntity
  8
STEMPEL
100
AcDbCircle
 10
195.7993517980792
 20
385.23672975281
 30
0.0
 40
8.5
  0
CIRCLE
  5
C6B
330
1E
100
AcDbEntity
  8
STEMPEL
100
AcDbCircle
 10
102.7993517981772
 20
385.236729752699
 30
0.0
 40
8.5
  0
LINE
  5
C6C
330
1E
100
AcDbEntity
  8
STEMPEL
100
AcDbLine
 10
197.3918745099822
 20
425.2367297528208
 30
0.0
 11
192.4843972218703
 21
416.7367297528208
 31
0.0
  0
LINE
  5
C6D
330
1E
100
AcDbEntity
  8
STEMPEL
100
AcDbLine
 10
192.4843972218703
 20
416.7367297528208
 30
0.0
 11
197.3918745099821
 21
408.2367297528208
 31
0.0
  0
LINE
  5
C6E
330
1E
100
AcDbEntity
  8
STEMPEL
100
AcDbLine
 10
197.3918745099821
 20
408.2367297528208
 30
0.0
 11
207.2068290862058
 21
408.2367297528208
 31
0.0
  0
LINE
  5
C6F
330
1E
100
AcDbEntity
  8
STEMPEL
100
AcDbLine
 10
207.2068290862058
 20
408.2367297528208
 30
0.0
 11
212.1143063743176
 21
416.7367297528208
 31
0.0
  0
LINE
  5
C70
330
1E
100
AcDbEntity
  8
STEMPEL
100
AcDbLine
 10
212.1143063743176
 20
416.7367297528208
 30
0.0
 11
207.2068290862059
 21
425.2367297528208
 31
0.0
  0
LINE
  5
C71
330
1E
100
AcDbEntity
  8
STEMPEL
100
AcDbLine
 10
207.2068290862059
 20
425.2367297528208
 30
0.0
 11
197.3918745099822
 21
425.2367297528208
 31
0.0
  0
LINE
  5
C72
330
1E
100
AcDbEntity
  8
STEMPEL
100
AcDbLine
 10
190.8918745099674
 20
393.73672975281
 30
0.0
 11
185.9843972218556
 21
385.23672975281
 31
0.0
  0
LINE
  5
C73
330
1E
100
AcDbEntity
  8
STEMPEL
100
AcDbLine
 10
185.9843972218556
 20
385.23672975281
 30
0.0
 11
190.8918745099674
 21
376.73672975281
 31
0.0
  0
LINE
  5
C74
330
1E
100
AcDbEntity
  8
STEMPEL
100
AcDbLine
 10
190.8918745099674
 20
376.73672975281
 30
0.0
 11
200.706829086191
 21
376.73672975281
 31
0.0
  0
LINE
  5
C75
330
1E
100
AcDbEntity
  8
STEMPEL
100
AcDbLine
 10
200.706829086191
 20
376.73672975281
 30
0.0
 11
205.6143063743028
 21
385.23672975281
 31
0.0
  0
LINE
  5
C76
330
1E
100
AcDbEntity
  8
STEMPEL
100
AcDbLine
 10
205.6143063743028
 20
385.23672975281
 30
0.0
 11
200.7068290861911
 21
393.73672975281
 31
0.0
  0
LINE
  5
C77
330
1E
100
AcDbEntity
  8
STEMPEL
100
AcDbLine
 10
200.7068290861911
 20
393.73672975281
 30
0.0
 11
190.8918745099674
 21
393.73672975281
 31
0.0
  0
LINE
  5
C78
330
1E
100
AcDbEntity
  8
STEMPEL
100
AcDbLine
 10
97.8918745100654
 20
393.736729752699
 30
0.0
 11
92.98439722195357
 21
385.236729752699
 31
0.0
  0
LINE
  5
C79
330
1E
100
AcDbEntity
  8
STEMPEL
100
AcDbLine
 10
92.98439722195357
 20
385.236729752699
 30
0.0
 11
97.89187451006538
 21
376.736729752699
 31
0.0
  0
LINE
  5
C7A
330
1E
100
AcDbEntity
  8
STEMPEL
100
AcDbLine
 10
97.89187451006538
 20
376.736729752699
 30
0.0
 11
107.706829086289
 21
376.736729752699
 31
0.0
  0
LINE
  5
C7B
330
1E
100
AcDbEntity
  8
STEMPEL
100
AcDbLine
 10
107.706829086289
 20
376.736729752699
 30
0.0
 11
112.6143063744008
 21
385.236729752699
 31
0.0
  0
LINE
  5
C7C
330
1E
100
AcDbEntity
  8
STEMPEL
100
AcDbLine
 10
112.6143063744008
 20
385.236729752699
 30
0.0
 11
107.706829086289
 21
393.736729752699
 31
0.0
  0
LINE
  5
C7D
330
1E
100
AcDbEntity
  8
STEMPEL
100
AcDbLine
 10
107.706829086289
 20
393.736729752699
 30
0.0
 11
97.8918745100654
 21
393.736729752699
 31
0.0
  0
LINE
  5
C7E
330
1E
100
AcDbEntity
  8
STEMPEL
100
AcDbLine
 10
91.39187450998127
 20
425.2367297526944
 30
0.0
 11
86.48439722186944
 21
416.7367297526944
 31
0.0
  0
LINE
  5
C7F
330
1E
100
AcDbEntity
  8
STEMPEL
100
AcDbLine
 10
86.48439722186944
 20
416.7367297526944
 30
0.0
 11
91.39187450998125
 21
408.2367297526944
 31
0.0
  0
LINE
  5
C80
330
1E
100
AcDbEntity
  8
STEMPEL
100
AcDbLine
 10
91.39187450998125
 20
408.2367297526944
 30
0.0
 11
101.2068290862049
 21
408.2367297526944
 31
0.0
  0
LINE
  5
C81
330
1E
100
AcDbEntity
  8
STEMPEL
100
AcDbLine
 10
101.2068290862049
 20
408.2367297526944
 30
0.0
 11
106.1143063743167
 21
416.7367297526944
 31
0.0
  0
LINE
  5
C82
330
1E
100
AcDbEntity
  8
STEMPEL
100
AcDbLine
 10
106.1143063743167
 20
416.7367297526944
 30
0.0
 11
101.2068290862049
 21
425.2367297526944
 31
0.0
  0
LINE
  5
C83
330
1E
100
AcDbEntity
  8
STEMPEL
100
AcDbLine
 10
101.2068290862049
 20
425.2367297526944
 30
0.0
 11
91.39187450998127
 21
425.2367297526944
 31
0.0
  0
CIRCLE
  5
C84
330
1E
100
AcDbEntity
  8
STEMPEL
100
AcDbCircle
 10
96.29935179809308
 20
416.7367297526944
 30
0.0
 40
5.0
  0
ARC
  5
C85
330
1E
100
AcDbEntity
  8
HILF
100
AcDbCircle
 10
96.29935179809312
 20
416.7367297526944
 30
0.0
 40
4.0
100
AcDbArc
 50
195.0000000000993
 51
105.0000000000663
  0
ARC
  5
C86
330
1E
100
AcDbEntity
  8
HILF
100
AcDbCircle
 10
202.299351798094
 20
416.7367297528208
 30
0.0
 40
4.0
100
AcDbArc
 50
195.0000000000993
 51
105.0000000000663
  0
CIRCLE
  5
C87
330
1E
100
AcDbEntity
  8
STEMPEL
100
AcDbCircle
 10
202.299351798094
 20
416.7367297528208
 30
0.0
 40
5.0
  0
ARC
  5
C88
330
1E
100
AcDbEntity
  8
HILF
100
AcDbCircle
 10
195.7993517980792
 20
385.23672975281
 30
0.0
 40
4.0
100
AcDbArc
 50
195.0000000000993
 51
105.0000000000663
  0
CIRCLE
  5
C89
330
1E
100
AcDbEntity
  8
STEMPEL
100
AcDbCircle
 10
195.7993517980792
 20
385.23672975281
 30
0.0
 40
5.0
  0
ARC
  5
C8A
330
1E
100
AcDbEntity
  8
HILF
100
AcDbCircle
 10
102.7993517981772
 20
385.236729752699
 30
0.0
 40
4.0
100
AcDbArc
 50
195.0000000000993
 51
105.0000000000663
  0
CIRCLE
  5
C8B
330
1E
100
AcDbEntity
  8
STEMPEL
100
AcDbCircle
 10
102.7993517981772
 20
385.236729752699
 30
0.0
 40
5.0
  0
LINE
  5
CB9
330
1E
100
AcDbEntity
  8
STEMPEL
100
AcDbLine
 10
319.0876350304549
 20
427.7367297527763
 30
0.0
 11
319.0876350304542
 21
373.7367297527879
 31
0.0
  0
LINE
  5
CBA
330
1E
100
AcDbEntity
  8
STEMPEL
100
AcDbLine
 10
319.0876350304542
 20
373.7367297527879
 30
0.0
 11
351.1876350304543
 21
373.7367297527683
 31
0.0
  0
LINE
  5
CBC
330
1E
100
AcDbEntity
  8
STEMPEL
100
AcDbLine
 10
319.0876350304549
 20
427.7367297527763
 30
0.0
 11
355.5876350304552
 21
427.7367297527691
 31
0.0
  0
LINE
  5
CC0
330
1E
100
AcDbEntity
  8
STEMPEL
100
AcDbLine
 10
353.1876350304545
 20
405.1549366840098
 30
0.0
 11
353.1876350304543
 21
392.9367297527726
 31
0.0
  0
LINE
  5
CC1
330
1E
100
AcDbEntity
  8
STEMPEL
100
AcDbLine
 10
351.1876350304542
 20
381.2748259630819
 30
0.0
 11
351.1876350304543
 21
373.7367297527683
 31
0.0
  0
ARC
  5
CC2
330
1E
100
AcDbEntity
  8
STEMPEL
100
AcDbCircle
 10
325.1876350304543
 20
392.9367297527725
 30
0.0
 40
28.0
100
AcDbArc
 50
340.4196081059155
 51
359.9999999999968
  0
ARC
  5
CC3
330
1E
100
AcDbEntity
  8
STEMPEL
100
AcDbCircle
 10
358.1876350304542
 20
381.2757297527716
 30
0.0
 40
7.0
100
AcDbArc
 50
160.0630951754335
 51
179.9999999999967
  0
LINE
  5
CC8
330
1E
100
AcDbEntity
  8
STEMPEL
100
AcDbLine
 10
358.587635030455
 20
424.7367297527691
 30
0.0
 11
358.5876350304551
 21
411.7367297527726
 31
0.0
  0
LINE
  5
CCA
330
1E
100
AcDbEntity
  8
STEMPEL
100
AcDbLine
 10
357.087635030455
 20
409.1386535414195
 30
0.0
 11
354.6876350304537
 21
407.7530128953626
 31
0.0
  0
ARC
  5
CCB
330
1E
100
AcDbEntity
  8
STEMPEL
100
AcDbCircle
 10
355.587635030455
 20
424.7367297527691
 30
0.0
 40
3.0
100
AcDbArc
 50
359.9999999999968
 51
89.99999999999674
  0
ARC
  5
CCC
330
1E
100
AcDbEntity
  8
STEMPEL
100
AcDbCircle
 10
355.5876350304548
 20
411.7367297527727
 30
0.0
 40
3.0
100
AcDbArc
 50
300.0000000000078
 51
359.9999999999968
  0
LINE
  5
CCE
330
1E
100
AcDbEntity
  8
MITTEL
100
AcDbLine
 10
318.587635030455
 20
432.7367297527764
 30
0.0
 11
318.5876350304542
 21
368.7367297527883
 31
0.0
  0
ARC
  5
D05
330
1E
100
AcDbEntity
  8
STEMPEL
100
AcDbCircle
 10
281.5876350304545
 20
411.7367297527737
 30
0.0
 40
3.0
100
AcDbArc
 50
180.0000000000018
 51
239.9999999999907
  0
ARC
  5
D06
330
1E
100
AcDbEntity
  8
STEMPEL
100
AcDbCircle
 10
281.5876350304547
 20
424.73672975277
 30
0.0
 40
3.0
100
AcDbArc
 50
90.00000000000184
 51
180.0000000000018
  0
LINE
  5
D07
330
1E
100
AcDbEntity
  8
STEMPEL
100
AcDbLine
 10
280.0876350304544
 20
409.1386535414205
 30
0.0
 11
282.4876350304557
 21
407.7530128953636
 31
0.0
  0
LINE
  5
D09
330
1E
100
AcDbEntity
  8
STEMPEL
100
AcDbLine
 10
278.5876350304547
 20
424.73672975277
 30
0.0
 11
278.5876350304543
 21
411.7367297527737
 31
0.0
  0
ARC
  5
D0E
330
1E
100
AcDbEntity
  8
STEMPEL
100
AcDbCircle
 10
278.9876350304544
 20
381.2757297527726
 30
0.0
 40
7.0
100
AcDbArc
 50
0.000000000001839
 51
19.9369048245651
  0
ARC
  5
D0F
330
1E
100
AcDbEntity
  8
STEMPEL
100
AcDbCircle
 10
311.9876350304546
 20
392.9367297527726
 30
0.0
 40
28.0
100
AcDbArc
 50
180.0000000000018
 51
199.5803918940831
  0
LINE
  5
D10
330
1E
100
AcDbEntity
  8
STEMPEL
100
AcDbLine
 10
285.9876350304544
 20
381.2748259630828
 30
0.0
 11
285.9876350304542
 21
373.7367297527692
 31
0.0
  0
LINE
  5
D11
330
1E
100
AcDbEntity
  8
STEMPEL
100
AcDbLine
 10
283.9876350304549
 20
405.1549366840107
 30
0.0
 11
283.9876350304546
 21
392.9367297527735
 31
0.0
  0
LINE
  5
D15
330
1E
100
AcDbEntity
  8
STEMPEL
100
AcDbLine
 10
318.0876350304549
 20
427.7367297527764
 30
0.0
 11
281.5876350304545
 21
427.7367297527701
 31
0.0
  0
LINE
  5
D17
330
1E
100
AcDbEntity
  8
STEMPEL
100
AcDbLine
 10
318.0876350304542
 20
373.736729752788
 30
0.0
 11
285.9876350304542
 21
373.7367297527692
 31
0.0
  0
LINE
  5
D18
330
1E
100
AcDbEntity
  8
STEMPEL
100
AcDbLine
 10
318.0876350304549
 20
427.7367297527764
 30
0.0
 11
318.0876350304542
 21
373.736729752788
 31
0.0
  0
LINE
  5
D29
330
1E
100
AcDbEntity
  8
STEMPEL
100
AcDbLine
 10
315.0876350304549
 20
427.7367297527758
 30
0.0
 11
315.0876350304542
 21
373.736729752788
 31
0.0
  0
LINE
  5
D2A
330
1E
100
AcDbEntity
  8
STEMPEL
100
AcDbLine
 10
322.0876350304548
 20
427.7367297527757
 30
0.0
 11
322.0876350304542
 21
373.7367297527879
 31
0.0
  0
LINE
  5
D36
330
1E
100
AcDbEntity
  8
MITTEL
100
AcDbLine
 10
300.8876350304542
 20
385.2367297528337
 30
0.0
 11
348.0876350304537
 21
385.2367297528336
 31
0.0
  0
ARC
  5
D3D
330
1E
100
AcDbEntity
  8
STEMPEL
100
AcDbCircle
 10
356.1876350304545
 20
405.1549366840098
 30
0.0
 40
3.0
100
AcDbArc
 50
120.0000000000165
 51
179.9999999999995
  0
ARC
  5
D3E
330
1E
100
AcDbEntity
  8
STEMPEL
100
AcDbCircle
 10
280.9876350304549
 20
405.1549366840108
 30
0.0
 40
3.0
100
AcDbArc
 50
359.9999999999991
 51
59.99999999998252
  0
LINE
  5
D40
330
1E
100
AcDbEntity
  8
HILF
100
AcDbLine
 10
352.4795357869065
 20
406.6549366840095
 30
0.0
 11
322.0876350304546
 21
406.6549366840098
 31
0.0
  0
LINE
  5
D44
330
1E
100
AcDbEntity
  8
HILF
100
AcDbLine
 10
315.0876350304546
 20
406.6549366840099
 30
0.0
 11
284.6957342740029
 21
406.6549366840103
 31
0.0
  0
LINE
  5
D45
330
1E
100
AcDbEntity
  8
HILF
100
AcDbLine
 10
350.2799373312726
 20
382.4874711023824
 30
0.0
 11
343.0876350304537
 21
382.4874711023825
 31
0.0
  0
LINE
  5
D48
330
1E
100
AcDbEntity
  8
HILF
100
AcDbLine
 10
305.8876350304542
 20
382.4874711023829
 30
0.0
 11
286.8953327296361
 21
382.4874711023832
 31
0.0
  0
LINE
  5
D4A
330
1E
100
AcDbEntity
  8
HILF
100
AcDbLine
 10
352.1876350304544
 20
392.9367297527727
 30
0.0
 11
332.0936569839262
 21
392.9367297527726
 31
0.0
  0
LINE
  5
D4D
330
1E
100
AcDbEntity
  8
HILF
100
AcDbLine
 10
305.8876350304542
 20
392.9367297527726
 30
0.0
 11
284.9876350304546
 21
392.9367297527726
 31
0.0
  0
LINE
  5
D4E
330
1E
100
AcDbEntity
  8
HILF
100
AcDbLine
 10
356.9105106859872
 20
410.2367297527727
 30
0.0
 11
332.0936569839257
 21
410.236729752773
 31
0.0
  0
LINE
  5
D51
330
1E
100
AcDbEntity
  8
HILF
100
AcDbLine
 10
305.8876350304542
 20
410.2367297527735
 30
0.0
 11
280.264759374922
 21
410.2367297527739
 31
0.0
  0
LINE
  5
D52
330
1E
100
AcDbEntity
  8
HILF
100
AcDbLine
 10
357.587635030455
 20
424.7367297527689
 30
0.0
 11
332.0936569839262
 21
424.7367297527692
 31
0.0
  0
LINE
  5
D55
330
1E
100
AcDbEntity
  8
HILF
100
AcDbLine
 10
305.8876350304542
 20
424.7367297527697
 30
0.0
 11
279.5876350304547
 21
424.73672975277
 31
0.0
  0
LINE
  5
D57
330
1E
100
AcDbEntity
  8
HILF
100
AcDbLine
 10
182.0229853271107
 20
382.4874711023825
 30
0.0
 11
116.5757182691351
 21
382.4874711023831
 31
0.0
  0
LINE
  5
D58
330
1E
100
AcDbEntity
  8
HILF
100
AcDbLine
 10
183.899351798119
 20
392.9367297527725
 30
0.0
 11
114.6993517981191
 21
392.9367297527726
 31
0.0
  0
LINE
  5
D59
330
1E
100
AcDbEntity
  8
HILF
100
AcDbLine
 10
189.007451041631
 20
410.2367297527726
 30
0.0
 11
109.5912525545308
 21
410.2367297527738
 31
0.0
  0
LINE
  5
D5A
330
1E
100
AcDbEntity
  8
HILF
100
AcDbLine
 10
184.9072680673687
 20
406.6549366840095
 30
0.0
 11
113.6914355287632
 21
406.6549366840103
 31
0.0
  0
LINE
  5
D5B
330
1E
100
AcDbEntity
  8
HILF
100
AcDbLine
 10
189.2993517980836
 20
424.736729752769
 30
0.0
 11
109.2993517980836
 21
424.7367297527699
 31
0.0
  0
ARC
  5
D7F
330
1E
100
AcDbEntity
  8
STEMPEL
100
AcDbCircle
 10
436.8620550304541
 20
385.2367297528336
 30
0.0
 40
124.5724999999997
100
AcDbArc
 50
174.8648053416251
 51
176.0874765632533
  0
LINE
  5
D80
330
1E
100
AcDbEntity
  8
STEMPEL
100
AcDbLine
 10
312.7895550304545
 20
396.3867297528337
 30
0.0
 11
315.0876350304542
 21
396.3867297528336
 31
0.0
  0
LINE
  5
D81
330
1E
100
AcDbEntity
  8
STEMPEL
100
AcDbLine
 10
312.7895550304545
 20
374.0867297528336
 30
0.0
 11
315.0876350304542
 21
374.0867297528336
 31
0.0
  0
LINE
  5
DAC
330
1E
100
AcDbEntity
  8
STEMPEL
100
AcDbLine
 10
305.8876350304542
 20
376.73672975281
 30
0.0
 11
305.8876350304542
 21
393.7367297528099
 31
0.0
  0
LINE
  5
DAD
330
1E
100
AcDbEntity
  8
STEMPEL
100
AcDbLine
 10
305.8876350304542
 20
393.7367297528099
 30
0.0
 11
312.579885125635
 21
393.73672975281
 31
0.0
  0
LINE
  5
DAE
330
1E
100
AcDbEntity
  8
STEMPEL
100
AcDbLine
 10
305.8876350304542
 20
376.73672975281
 30
0.0
 11
312.5798851256383
 21
376.73672975281
 31
0.0
  0
LINE
  5
DB1
330
1E
100
AcDbEntity
  8
STEMPEL
100
AcDbLine
 10
306.6985229231538
 20
385.2367297528336
 30
0.0
 11
312.5798851256366
 21
385.2367297528336
 31
0.0
  0
ARC
  5
DB5
330
1E
100
AcDbEntity
  8
STEMPEL
100
AcDbCircle
 10
436.8620550304541
 20
385.2367297528336
 30
0.0
 40
124.5724999999997
100
AcDbArc
 50
183.9125234367685
 51
185.1351946583749
  0
ARC
  5
DB6
330
1E
100
AcDbEntity
  8
STEMPEL
100
AcDbCircle
 10
343.5415538160615
 20
389.486729752828
 30
0.0
 40
31.25199878560711
100
AcDbArc
 50
172.1840540327356
 51
187.8159459672872
  0
ARC
  5
DB8
330
1E
100
AcDbEntity
  8
STEMPEL
100
AcDbCircle
 10
343.5415538162311
 20
380.9867297528275
 30
0.0
 40
31.25199878577668
100
AcDbArc
 50
172.1840540327338
 51
187.8159459672874
  0
ARC
  5
DB9
330
1E
100
AcDbEntity
  8
STEMPEL
100
AcDbCircle
 10
317.4305618289456
 20
389.4867297528218
 30
0.0
 40
11.54292679849139
100
AcDbArc
 50
158.3959146483848
 51
201.6040853516153
  0
ARC
  5
DBA
330
1E
100
AcDbEntity
  8
STEMPEL
100
AcDbCircle
 10
317.4305618290695
 20
380.9867297528219
 30
0.0
 40
11.54292679861526
100
AcDbArc
 50
158.3959146485019
 51
201.6040853514982
  0
ARC
  5
DBC
330
1E
100
AcDbEntity
  8
STEMPEL
100
AcDbCircle
 10
320.5507301853105
 20
380.9867297528219
 30
0.0
 40
11.54292679861526
100
AcDbArc
 50
338.3959146485003
 51
21.60408535149652
  0
ARC
  5
DBD
330
1E
100
AcDbEntity
  8
STEMPEL
100
AcDbCircle
 10
320.5507301854346
 20
389.4867297528218
 30
0.0
 40
11.54292679849139
100
AcDbArc
 50
338.3959146483832
 51
21.60408535161371
  0
ARC
  5
DBE
330
1E
100
AcDbEntity
  8
STEMPEL
100
AcDbCircle
 10
293.6337162446776
 20
380.9867297528283
 30
0.0
 40
31.25199878577668
100
AcDbArc
 50
352.1840540327111
 51
7.81594596726464
  0
ARC
  5
DBF
330
1E
100
AcDbEntity
  8
STEMPEL
100
AcDbCircle
 10
293.6337162448473
 20
389.4867297528287
 30
0.0
 40
31.25199878560711
100
AcDbArc
 50
352.1840540327113
 51
7.815945967262834
  0
ARC
  5
DC0
330
1E
100
AcDbEntity
  8
STEMPEL
100
AcDbCircle
 10
200.3132150304546
 20
385.2367297528368
 30
0.0
 40
124.5724999999997
100
AcDbArc
 50
354.8648053416235
 51
356.08747656323
  0
LINE
  5
DC1
330
1E
100
AcDbEntity
  8
STEMPEL
100
AcDbLine
 10
331.2827690912264
 20
385.2367297528333
 30
0.0
 11
324.5953849352722
 21
385.2367297528335
 31
0.0
  0
LINE
  5
DC2
330
1E
100
AcDbEntity
  8
STEMPEL
100
AcDbLine
 10
332.0936569839257
 20
376.7367297528096
 30
0.0
 11
324.5953849352702
 21
376.7367297528099
 31
0.0
  0
LINE
  5
DC3
330
1E
100
AcDbEntity
  8
STEMPEL
100
AcDbLine
 10
332.0936569839261
 20
393.7367297528096
 30
0.0
 11
324.595384935274
 21
393.7367297528099
 31
0.0
  0
LINE
  5
DC4
330
1E
100
AcDbEntity
  8
STEMPEL
100
AcDbLine
 10
332.0936569839257
 20
376.7367297528096
 30
0.0
 11
332.0936569839262
 21
393.7367297528096
 31
0.0
  0
LINE
  5
DC5
330
1E
100
AcDbEntity
  8
STEMPEL
100
AcDbLine
 10
324.385715030454
 20
374.0867297528335
 30
0.0
 11
322.0876350304543
 21
374.0867297528335
 31
0.0
  0
LINE
  5
DC6
330
1E
100
AcDbEntity
  8
STEMPEL
100
AcDbLine
 10
324.3857150304545
 20
396.3867297528336
 30
0.0
 11
322.0876350304548
 21
396.3867297528336
 31
0.0
  0
ARC
  5
DC7
330
1E
100
AcDbEntity
  8
STEMPEL
100
AcDbCircle
 10
200.3132150304546
 20
385.2367297528368
 30
0.0
 40
124.5724999999997
100
AcDbArc
 50
3.912523436745187
 51
5.13519465837339
  0
LINE
  5
DC9
330
1E
100
AcDbEntity
  8
STEMPEL
100
AcDbLine
 10
343.0876350304537
 20
388.7367297528274
 30
0.0
 11
343.0876350304537
 21
381.7367297528274
 31
0.0
  0
LINE
  5
DCA
330
1E
100
AcDbEntity
  8
STEMPEL
100
AcDbLine
 10
341.5876350304537
 20
390.2367297528274
 30
0.0
 11
343.0876350304537
 21
388.7367297528274
 31
0.0
  0
LINE
  5
DCB
330
1E
100
AcDbEntity
  8
STEMPEL
100
AcDbLine
 10
341.5876350304537
 20
390.2367297528274
 30
0.0
 11
341.5876350304537
 21
380.2367297528274
 31
0.0
  0
LINE
  5
DCC
330
1E
100
AcDbEntity
  8
STEMPEL
100
AcDbLine
 10
343.0876350304537
 20
381.7367297528274
 30
0.0
 11
341.5876350304537
 21
380.2367297528274
 31
0.0
  0
LINE
  5
DCD
330
1E
100
AcDbEntity
  8
STEMPEL
100
AcDbLine
 10
318.0876350304544
 20
380.2367297528274
 30
0.0
 11
319.0876350304543
 21
380.2367297528274
 31
0.0
  0
LINE
  5
DCE
330
1E
100
AcDbEntity
  8
HILF
100
AcDbLine
 10
318.0876350304544
 20
381.7367297528274
 30
0.0
 11
319.0876350304543
 21
381.7367297528274
 31
0.0
  0
LINE
  5
DCF
330
1E
100
AcDbEntity
  8
STEMPEL
100
AcDbLine
 10
318.0876350304544
 20
390.2367297528274
 30
0.0
 11
319.0876350304544
 21
390.2367297528274
 31
0.0
  0
LINE
  5
DD0
330
1E
100
AcDbEntity
  8
HILF
100
AcDbLine
 10
318.0876350304544
 20
388.7367297528274
 30
0.0
 11
319.0876350304544
 21
388.7367297528274
 31
0.0
  0
LINE
  5
DF4
330
1E
100
AcDbEntity
  8
HILF
100
AcDbLine
 10
318.0876350304548
 20
420.2367297528383
 30
0.0
 11
319.0876350304547
 21
420.2367297528383
 31
0.0
  0
LINE
  5
DF5
330
1E
100
AcDbEntity
  8
STEMPEL
100
AcDbLine
 10
318.0876350304548
 20
421.7367297528383
 30
0.0
 11
319.0876350304547
 21
421.7367297528382
 31
0.0
  0
LINE
  5
DF6
330
1E
100
AcDbEntity
  8
HILF
100
AcDbLine
 10
318.0876350304548
 20
413.2367297528384
 30
0.0
 11
319.0876350304547
 21
413.2367297528384
 31
0.0
  0
LINE
  5
DF7
330
1E
100
AcDbEntity
  8
STEMPEL
100
AcDbLine
 10
318.0876350304548
 20
411.7367297528383
 30
0.0
 11
319.0876350304546
 21
411.7367297528383
 31
0.0
  0
LINE
  5
DF8
330
1E
100
AcDbEntity
  8
STEMPEL
100
AcDbLine
 10
343.0876350304537
 20
413.2367297528383
 30
0.0
 11
341.5876350304537
 21
411.7367297528383
 31
0.0
  0
LINE
  5
DF9
330
1E
100
AcDbEntity
  8
STEMPEL
100
AcDbLine
 10
341.5876350304537
 20
421.7367297528383
 30
0.0
 11
341.5876350304537
 21
411.7367297528383
 31
0.0
  0
LINE
  5
DFA
330
1E
100
AcDbEntity
  8
STEMPEL
100
AcDbLine
 10
341.5876350304537
 20
421.7367297528383
 30
0.0
 11
343.0876350304537
 21
420.2367297528383
 31
0.0
  0
LINE
  5
DFB
330
1E
100
AcDbEntity
  8
STEMPEL
100
AcDbLine
 10
343.0876350304537
 20
420.2367297528383
 30
0.0
 11
343.0876350304537
 21
413.2367297528383
 31
0.0
  0
ARC
  5
DFC
330
1E
100
AcDbEntity
  8
STEMPEL
100
AcDbCircle
 10
210.8245213634601
 20
417.102910067784
 30
0.0
 40
114.0612485489483
100
AcDbArc
 50
4.089289177026663
 51
5.349398362653801
  0
LINE
  5
DFE
330
1E
100
AcDbEntity
  8
STEMPEL
100
AcDbLine
 10
324.385715030454
 20
405.5867297528444
 30
0.0
 11
322.0876350304543
 21
405.5867297528445
 31
0.0
  0
LINE
  5
DFF
330
1E
100
AcDbEntity
  8
STEMPEL
100
AcDbLine
 10
332.0936569839257
 20
408.2367297528206
 30
0.0
 11
332.0936569839262
 21
425.2367297528206
 31
0.0
  0
LINE
  5
E00
330
1E
100
AcDbEntity
  8
STEMPEL
100
AcDbLine
 10
332.0936569839261
 20
425.2367297528206
 30
0.0
 11
324.595384935274
 21
425.2367297528208
 31
0.0
  0
LINE
  5
E01
330
1E
100
AcDbEntity
  8
STEMPEL
100
AcDbLine
 10
332.0936569839257
 20
408.2367297528206
 30
0.0
 11
324.5953849352702
 21
408.2367297528208
 31
0.0
  0
LINE
  5
E02
330
1E
100
AcDbEntity
  8
STEMPEL
100
AcDbLine
 10
331.2827690912264
 20
416.7367297528443
 30
0.0
 11
324.5953849352722
 21
416.7367297528445
 31
0.0
  0
ARC
  5
E03
330
1E
100
AcDbEntity
  8
STEMPEL
100
AcDbCircle
 10
200.3132150304546
 20
416.7367297528477
 30
0.0
 40
124.5724999999997
100
AcDbArc
 50
354.8648053416235
 51
356.08747656323
  0
ARC
  5
E04
330
1E
100
AcDbEntity
  8
STEMPEL
100
AcDbCircle
 10
293.6337162448473
 20
420.9867297528396
 30
0.0
 40
31.25199878560711
100
AcDbArc
 50
352.1840540327113
 51
7.815945967262834
  0
ARC
  5
E05
330
1E
100
AcDbEntity
  8
STEMPEL
100
AcDbCircle
 10
293.6337162446776
 20
412.4867297528392
 30
0.0
 40
31.25199878577668
100
AcDbArc
 50
352.1840540327111
 51
7.81594596726464
  0
ARC
  5
E06
330
1E
100
AcDbEntity
  8
STEMPEL
100
AcDbCircle
 10
320.5507301854346
 20
420.9867297528328
 30
0.0
 40
11.54292679849139
100
AcDbArc
 50
338.3959146483832
 51
21.60408535161371
  0
ARC
  5
E07
330
1E
100
AcDbEntity
  8
STEMPEL
100
AcDbCircle
 10
320.5507301853105
 20
412.4867297528328
 30
0.0
 40
11.54292679861526
100
AcDbArc
 50
338.3959146485003
 51
21.60408535149652
  0
ARC
  5
E08
330
1E
100
AcDbEntity
  8
STEMPEL
100
AcDbCircle
 10
317.4305618290695
 20
412.4867297528328
 30
0.0
 40
11.54292679861526
100
AcDbArc
 50
158.3959146485019
 51
201.6040853514982
  0
ARC
  5
E09
330
1E
100
AcDbEntity
  8
STEMPEL
100
AcDbCircle
 10
317.4305618289456
 20
420.9867297528328
 30
0.0
 40
11.54292679849139
100
AcDbArc
 50
158.3959146483848
 51
201.6040853516153
  0
ARC
  5
E0A
330
1E
100
AcDbEntity
  8
STEMPEL
100
AcDbCircle
 10
343.5415538162311
 20
412.4867297528385
 30
0.0
 40
31.25199878577668
100
AcDbArc
 50
172.1840540327338
 51
187.8159459672874
  0
ARC
  5
E0B
330
1E
100
AcDbEntity
  8
STEMPEL
100
AcDbCircle
 10
343.5415538160615
 20
420.9867297528389
 30
0.0
 40
31.25199878560711
100
AcDbArc
 50
172.1840540327356
 51
187.8159459672872
  0
ARC
  5
E0C
330
1E
100
AcDbEntity
  8
STEMPEL
100
AcDbCircle
 10
436.8620550304541
 20
416.7367297528445
 30
0.0
 40
124.5724999999997
100
AcDbArc
 50
183.9125234367685
 51
185.1351946583749
  0
LINE
  5
E0D
330
1E
100
AcDbEntity
  8
STEMPEL
100
AcDbLine
 10
306.6985229231538
 20
416.7367297528445
 30
0.0
 11
312.5798851256366
 21
416.7367297528445
 31
0.0
  0
LINE
  5
E0E
330
1E
100
AcDbEntity
  8
STEMPEL
100
AcDbLine
 10
305.8876350304542
 20
408.2367297528209
 30
0.0
 11
312.5798851256383
 21
408.2367297528209
 31
0.0
  0
LINE
  5
E0F
330
1E
100
AcDbEntity
  8
STEMPEL
100
AcDbLine
 10
305.8876350304542
 20
425.2367297528208
 30
0.0
 11
312.579885125635
 21
425.2367297528209
 31
0.0
  0
LINE
  5
E10
330
1E
100
AcDbEntity
  8
STEMPEL
100
AcDbLine
 10
305.8876350304542
 20
408.2367297528209
 30
0.0
 11
305.8876350304542
 21
425.2367297528208
 31
0.0
  0
LINE
  5
E11
330
1E
100
AcDbEntity
  8
STEMPEL
100
AcDbLine
 10
312.7895550304545
 20
405.5867297528445
 30
0.0
 11
315.0876350304542
 21
405.5867297528445
 31
0.0
  0
ARC
  5
E13
330
1E
100
AcDbEntity
  8
STEMPEL
100
AcDbCircle
 10
426.350748697449
 20
417.102910067779
 30
0.0
 40
114.0612485489489
100
AcDbArc
 50
174.6506016373436
 51
175.9107108229708
  0
LINE
  5
E14
330
1E
100
AcDbEntity
  8
MITTEL
100
AcDbLine
 10
300.8876350304542
 20
416.7367297528446
 30
0.0
 11
348.0876350304537
 21
416.7367297528445
 31
0.0
  0
DIMENSION
  5
E17
330
1E
100
AcDbEntity
  8
BEM
100
AcDbDimension
  2
*D3
 10
358.587635030455
 20
437.7709402953753
 30
0.0
 11
318.5876350304549
 21
444.2709402953753
 31
0.0
 70
    32
  1
%%c<>
 71
     5
 42
80.00000000000028
  3
Standard
100
AcDbAlignedDimension
 13
278.5876350304547
 23
424.73672975277
 33
0.0
 14
358.587635030455
 24
424.7367297527691
 34
0.0
100
AcDbRotatedDimension
1001
ACAD
1000
DSTYLE
1002
{
1070
    40
1040
2.0
1070
    41
1040
3.5
1070
    42
1040
1.0
1070
    43
1040
7.0
1070
    44
1040
1.0
1070
    73
1070
     0
1070
    74
1070
     0
1070
    77
1070
     1
1070
    78
1070
     8
1070
    79
1070
     2
1070
   140
1040
3.5
1070
   141
1040
1.5
1070
   146
1040
0.5
1070
   147
1040
1.5
1070
   172
1070
     1
1070
   178
1070
     1
1070
   179
1070
     2
1070
   271
1070
     2
1070
   272
1070
     2
1070
   284
1070
     8
1070
   285
1070
     8
1070
   286
1070
     8
1002
}
  0
DIMENSION
  5
E2D
330
1E
100
AcDbEntity
  8
BEM
100
AcDbDimension
  2
*D4
 10
285.9876350304542
 20
353.000865899837
 30
0.0
 11
318.5876350304542
 21
359.500865899837
 31
0.0
 70
    32
  1
%%c<>
 71
     5
 42
65.2000000000001
  3
Standard
100
AcDbAlignedDimension
 13
351.1876350304543
 23
373.7367297527683
 33
0.0
 14
285.9876350304542
 24
373.7367297527692
 34
0.0
100
AcDbRotatedDimension
1001
ACAD
1000
DSTYLE
1002
{
1070
    40
1040
2.0
1070
    41
1040
3.5
1070
    42
1040
1.0
1070
    43
1040
7.0
1070
    44
1040
1.0
1070
    73
1070
     0
1070
    74
1070
     0
1070
    77
1070
     1
1070
    78
1070
     8
1070
    79
1070
     2
1070
   140
1040
3.5
1070
   141
1040
1.5
1070
   146
1040
0.5
1070
   147
1040
1.5
1070
   172
1070
     1
1070
   178
1070
     1
1070
   179
1070
     2
1070
   271
1070
     2
1070
   272
1070
     2
1070
   284
1070
     8
1070
   285
1070
     8
1070
   286
1070
     8
1002
}
  0
ARC
  5
EE9
330
1E
100
AcDbEntity
  8
STEMPEL
100
AcDbCircle
 10
194.36136908851
 20
268.1643358850043
 30
0.0
 40
6.76702312808409
100
AcDbArc
 50
61.66295729179182
 51
118.3370427082286
  0
ARC
  5
EEA
330
1E
100
AcDbEntity
  8
STEMPEL
100
AcDbCircle
 10
202.2993517981089
 20
260.7541290130882
 30
0.0
 40
14.17723
100
AcDbArc
 50
70.52782738137445
 51
109.4721726186256
  0
ARC
  5
EEB
330
1E
100
AcDbEntity
  8
STEMPEL
100
AcDbCircle
 10
210.2373345077083
 20
268.1643358850065
 30
0.0
 40
6.767023128081929
100
AcDbArc
 50
61.66295729176704
 51
118.3370427082155
  0
ARC
  5
EEC
330
1E
100
AcDbEntity
  8
STEMPEL
100
AcDbCircle
 10
88.36136908845157
 20
268.1643358850065
 30
0.0
 40
6.767023128081929
100
AcDbArc
 50
61.6629572917845
 51
118.3370427082329
  0
ARC
  5
EED
330
1E
100
AcDbEntity
  8
STEMPEL
100
AcDbCircle
 10
96.29935179805096
 20
260.7541290130882
 30
0.0
 40
14.17723
100
AcDbArc
 50
70.52782738137444
 51
109.4721726186255
  0
ARC
  5
EEE
330
1E
100
AcDbEntity
  8
STEMPEL
100
AcDbCircle
 10
104.2373345076498
 20
268.1643358850043
 30
0.0
 40
6.76702312808409
100
AcDbArc
 50
61.66295729177142
 51
118.3370427082081
  0
LINE
  5
EEF
330
1E
100
AcDbEntity
  8
STEMPEL
100
AcDbLine
 10
85.14935179805727
 20
274.1204711203923
 30
0.0
 11
85.1493517980573
 21
272.6332790131833
 31
0.0
  0
LINE
  5
EF0
330
1E
100
AcDbEntity
  8
STEMPEL
100
AcDbLine
 10
107.4493517980573
 20
274.1204711203855
 30
0.0
 11
107.4493517980572
 21
272.6332790131833
 31
0.0
  0
LINE
  5
EF5
330
1E
100
AcDbEntity
  8
STEMPEL
100
AcDbLine
 10
332.093656983926
 20
390.2367297528273
 30
0.0
 11
341.5876350304537
 21
390.2367297528274
 31
0.0
  0
LINE
  5
EF6
330
1E
100
AcDbEntity
  8
HILF
100
AcDbLine
 10
332.0936569839261
 20
388.7367297528274
 30
0.0
 11
343.0876350304537
 21
388.7367297528274
 31
0.0
  0
LINE
  5
EF7
330
1E
100
AcDbEntity
  8
HILF
100
AcDbLine
 10
332.0936569839258
 20
381.7367297528274
 30
0.0
 11
343.0876350304537
 21
381.7367297528274
 31
0.0
  0
LINE
  5
EF8
330
1E
100
AcDbEntity
  8
STEMPEL
100
AcDbLine
 10
332.0936569839257
 20
380.2367297528274
 30
0.0
 11
341.5876350304537
 21
380.2367297528274
 31
0.0
  0
LINE
  5
EF9
330
1E
100
AcDbEntity
  8
STEMPEL
100
AcDbLine
 10
332.0936569839257
 20
411.7367297528383
 30
0.0
 11
341.5876350304537
 21
411.7367297528383
 31
0.0
  0
LINE
  5
EFA
330
1E
100
AcDbEntity
  8
HILF
100
AcDbLine
 10
332.0936569839258
 20
413.2367297528384
 30
0.0
 11
343.0876350304537
 21
413.2367297528383
 31
0.0
  0
LINE
  5
EFB
330
1E
100
AcDbEntity
  8
HILF
100
AcDbLine
 10
332.0936569839261
 20
420.2367297528383
 30
0.0
 11
343.0876350304537
 21
420.2367297528383
 31
0.0
  0
LINE
  5
EFC
330
1E
100
AcDbEntity
  8
STEMPEL
100
AcDbLine
 10
332.093656983926
 20
421.7367297528383
 30
0.0
 11
341.5876350304537
 21
421.7367297528383
 31
0.0
  0
ENDSEC
  0
SECTION
  2
OBJECTS
  0
DICTIONARY
  5
C
330
0
100
AcDbDictionary
281
     1
  3
ACAD_COLOR
350
DF
  3
ACAD_GROUP
350
D
  3
ACAD_LAYOUT
350
19
  3
ACAD_MATERIAL
350
DE
  3
ACAD_MLINESTYLE
350
16
  3
ACAD_PLOTSETTINGS
350
18
  3
ACAD_PLOTSTYLENAME
350
E
  3
AcDbVariableDictionary
350
EA
  0
DICTIONARY
  5
A0
330
1E
100
AcDbDictionary
280
     1
281
     1
  3
ACAD_LAYOUTSELFREF
360
D4
  0
DICTIONARY
  5
A2
330
1A
100
AcDbDictionary
280
     1
281
     1
  3
ACAD_LAYOUTSELFREF
360
D3
  0
DICTIONARY
  5
7C7
330
7C6
100
AcDbDictionary
280
     1
281
     1
  3
ACAD_DIMASSOC
360
7C8
  0
DICTIONARY
  5
7CD
330
7CC
100
AcDbDictionary
280
     1
281
     1
  3
ACAD_DIMASSOC
360
7CE
  0
DICTIONARY
  5
DF
102
{ACAD_REACTORS
330
C
102
}
330
C
100
AcDbDictionary
281
     1
  0
DICTIONARY
  5
D
102
{ACAD_REACTORS
330
C
102
}
330
C
100
AcDbDictionary
281
     1
  0
DICTIONARY
  5
19
102
{ACAD_REACTORS
330
C
102
}
330
C
100
AcDbDictionary
281
     1
  3
Layout1
350
1D
  3
Model
350
21
  0
DICTIONARY
  5
DE
102
{ACAD_REACTORS
330
C
102
}
330
C
100
AcDbDictionary
281
     1
  0
DICTIONARY
  5
16
102
{ACAD_REACTORS
330
C
102
}
330
C
100
AcDbDictionary
281
     1
  3
Standard
350
17
  0
DICTIONARY
  5
18
102
{ACAD_REACTORS
330
C
102
}
330
C
100
AcDbDictionary
281
     1
  0
ACDBDICTIONARYWDFLT
  5
E
102
{ACAD_REACTORS
330
C
102
}
330
C
100
AcDbDictionary
281
     1
  3
Normal
350
F
100
AcDbDictionaryWithDefault
340
F
  0
DICTIONARY
  5
EA
102
{ACAD_REACTORS
330
C
102
}
330
C
100
AcDbDictionary
281
     1
  3
DIMASSOC
350
EB
  3
PROJECTNAME
350
EC
  0
XRECORD
  5
D4
102
{ACAD_REACTORS
330
A0
102
}
330
A0
100
AcDbXrecord
280
     1
340
1E
  0
XRECORD
  5
D3
102
{ACAD_REACTORS
330
A2
102
}
330
A2
100
AcDbXrecord
280
     1
340
1A
  0
DIMASSOC
  5
7C8
102
{ACAD_REACTORS
330
7C7
102
}
330
7C7
100
AcDbDimAssoc
330
7C6
 90
        3
 70
     0
 71
     0
  1
AcDbOsnapPointRef
 72
     1
331
7ED
 73
     2
 91
        0
 40
1.0
 10
0.0
 20
0.0
 30
2.000000000000000E+50
 75
     0
  1
AcDbOsnapPointRef
 72
     8
331
7F7
 73
     2
 91
        0
 40
1.0
 10
0.0
 20
0.0
 30
0.0
 75
     1
  1
AcDbOsnapPointRef
 72
     1
331
7ED
 73
     2
 91
        0
 40
1.0
 10
0.0
 20
0.0
 30
2.000000000000000E+50
 75
     0
  0
DIMASSOC
  5
7CE
102
{ACAD_REACTORS
330
7CD
102
}
330
7CD
100
AcDbDimAssoc
330
7CC
 90
        3
 70
     0
 71
     0
  1
AcDbOsnapPointRef
 72
    13
331
7EB
 73
     2
 91
        0
 40
0.0
 10
0.0
 20
0.0
 30
2.000000000000000E+50
 75
     0
  1
AcDbOsnapPointRef
 72
     1
331
7EA
 73
     2
 91
        0
 40
1.0
 10
0.0
 20
0.0
 30
2.000000000000000E+50
 75
     0
  0
LAYOUT
  5
1D
102
{ACAD_REACTORS
330
19
102
}
330
19
100
AcDbPlotSettings
  1

  2
\\NT_WORK01\HP LaserJet 5000 PCL 6
  4

  6

 40
0.0
 41
0.0
 42
0.0
 43
0.0
 44
0.0
 45
0.0
 46
0.0
 47
0.0
 48
0.0
 49
0.0
140
0.0
141
0.0
142
1.0
143
1.0
 70
   688
 72
     0
 73
     0
 74
     5
  7

 75
    16
147
1.0
 76
     0
 77
     2
 78
   300
148
0.0
149
0.0
100
AcDbLayout
  1
Layout1
 70
     0
 71
     1
 10
0.0
 20
0.0
 11
12.0
 21
9.0
 12
0.0
 22
0.0
 32
0.0
 14
1.000000000000000E+20
 24
1.000000000000000E+20
 34
1.000000000000000E+20
 15
-1.000000000000000E+20
 25
-1.000000000000000E+20
 35
-1.000000000000000E+20
146
0.0
 13
0.0
 23
0.0
 33
0.0
 16
1.0
 26
0.0
 36
0.0
 17
0.0
 27
1.0
 37
0.0
 76
     0
330
1A
  0
LAYOUT
  5
21
102
{ACAD_REACTORS
330
19
102
}
330
19
100
AcDbPlotSettings
  1

  2
none_device
  4
Letter_(8.50_x_11.00_Inches)
  6

 40
6.349999904632568
 41
6.349999904632568
 42
6.350006103515625
 43
6.350006103515625
 44
215.8999938964844
 45
279.3999938964844
 46
0.0
 47
0.0
 48
0.0
 49
0.0
140
0.0
141
0.0
142
1.0
143
1.0
 70
 11952
 72
     0
 73
     1
 74
     0
  7

 75
     0
147
1.0
 76
     0
 77
     2
 78
   300
148
2271.647086223434
149
61.84701676039883
100
AcDbLayout
  1
Model
 70
     1
 71
     0
 10
0.0
 20
0.0
 11
12.0
 21
9.0
 12
0.0
 22
0.0
 32
0.0
 14
0.0
 24
0.0
 34
0.0
 15
0.0
 25
0.0
 35
0.0
146
0.0
 13
0.0
 23
0.0
 33
0.0
 16
1.0
 26
0.0
 36
0.0
 17
0.0
 27
1.0
 37
0.0
 76
     0
330
1E
  0
MLINESTYLE
  5
17
102
{ACAD_REACTORS
330
16
102
}
330
16
100
AcDbMlineStyle
  2
STANDARD
 70
     0
  3

 62
   256
 51
90.0
 52
90.0
 71
     2
 49
0.5
 62
   256
  6
BYLAYER
 49
-0.5
 62
   256
  6
BYLAYER
  0
ACDBPLACEHOLDER
  5
F
102
{ACAD_REACTORS
330
E
102
}
330
E
  0
DICTIONARYVAR
  5
EB
102
{ACAD_REACTORS
330
EA
102
}
330
EA
100
DictionaryVariables
280
     0
  1
1
  0
DICTIONARYVAR
  5
EC
102
{ACAD_REACTORS
330
EA
102
}
330
EA
100
DictionaryVariables
280
     0
  1

  0
ENDSEC
  0
EOF
