  0
SECTION
  2
HEADER
  9
$ACADVER
  1
AC1018
  9
$ACADMAINTVER
 70
     2
  9
$DWGCODEPAGE
  3
ANSI_1252
  9
$INSBASE
 10
0.0
 20
0.0
 30
0.0
  9
$EXTMIN
 10
-0.0096041376157245
 20
-0.0135829946283366
 30
-0.0000000000000053
  9
$EXTMAX
 10
210.0096173400236
 20
297.0136016666044
 30
0.0000000000000099
  9
$LIMMIN
 10
0.0
 20
0.0
  9
$LIMMAX
 10
210.0
 20
297.0
  9
$ORTHOMODE
 70
     1
  9
$REGENMODE
 70
     1
  9
$FILLMODE
 70
     1
  9
$QTEXTMODE
 70
     0
  9
$MIRRTEXT
 70
     1
  9
$LTSCALE
 40
10.0
  9
$ATTMODE
 70
     1
  9
$TEXTSIZE
 40
3.5
  9
$TRACEWID
 40
0.5
  9
$TEXTSTYLE
  7
STANDARD
  9
$CLAYER
  8
STEMPEL
  9
$CELTYPE
  6
ByLayer
  9
$CECOLOR
 62
   256
  9
$CELTSCALE
 40
1.0
  9
$DISPSILH
 70
     0
  9
$DIMSCALE
 40
1.0
  9
$DIMASZ
 40
3.5
  9
$DIMEXO
 40
1.0
  9
$DIMDLI
 40
7.0
  9
$DIMRND
 40
0.0
  9
$DIMDLE
 40
0.0
  9
$DIMEXE
 40
1.0
  9
$DIMTP
 40
0.0
  9
$DIMTM
 40
0.0
  9
$DIMTXT
 40
3.5
  9
$DIMCEN
 40
1.5
  9
$DIMTSZ
 40
0.0
  9
$DIMTOL
 70
     0
  9
$DIMLIM
 70
     0
  9
$DIMTIH
 70
     0
  9
$DIMTOH
 70
     0
  9
$DIMSE1
 70
     0
  9
$DIMSE2
 70
     0
  9
$DIMTAD
 70
     1
  9
$DIMZIN
 70
     8
  9
$DIMBLK
  1

  9
$DIMASO
 70
     1
  9
$DIMSHO
 70
     0
  9
$DIMPOST
  1

  9
$DIMAPOST
  1

  9
$DIMALT
 70
     0
  9
$DIMALTD
 70
     2
  9
$DIMALTF
 40
25.4
  9
$DIMLFAC
 40
1.0
  9
$DIMTOFL
 70
     1
  9
$DIMTVP
 40
0.0
  9
$DIMTIX
 70
     0
  9
$DIMSOXD
 70
     0
  9
$DIMSAH
 70
     0
  9
$DIMBLK1
  1

  9
$DIMBLK2
  1

  9
$DIMSTYLE
  2
Standard
  9
$DIMCLRD
 70
     0
  9
$DIMCLRE
 70
     0
  9
$DIMCLRT
 70
     1
  9
$DIMTFAC
 40
0.5
  9
$DIMGAP
 40
1.5
  9
$DIMJUST
 70
     0
  9
$DIMSD1
 70
     0
  9
$DIMSD2
 70
     0
  9
$DIMTOLJ
 70
     1
  9
$DIMTZIN
 70
     8
  9
$DIMALTZ
 70
     8
  9
$DIMALTTZ
 70
     8
  9
$DIMUPT
 70
     0
  9
$DIMDEC
 70
     2
  9
$DIMTDEC
 70
     2
  9
$DIMALTU
 70
     2
  9
$DIMALTTD
 70
     2
  9
$DIMTXSTY
  7
STANDARD
  9
$DIMAUNIT
 70
     0
  9
$DIMADEC
 70
     2
  9
$DIMALTRND
 40
0.0
  9
$DIMAZIN
 70
     2
  9
$DIMDSEP
 70
    46
  9
$DIMATFIT
 70
     3
  9
$DIMFRAC
 70
     0
  9
$DIMLDRBLK
  1

  9
$DIMLUNIT
 70
     2
  9
$DIMLWD
 70
    -2
  9
$DIMLWE
 70
    -2
  9
$DIMTMOVE
 70
     0
  9
$LUNITS
 70
     2
  9
$LUPREC
 70
     2
  9
$SKETCHINC
 40
1.0
  9
$FILLETRAD
 40
0.0
  9
$AUNITS
 70
     0
  9
$AUPREC
 70
     0
  9
$MENU
  1
ACAD
  9
$ELEVATION
 40
0.0
  9
$PELEVATION
 40
0.0
  9
$THICKNESS
 40
0.0
  9
$LIMCHECK
 70
     0
  9
$CHAMFERA
 40
0.0
  9
$CHAMFERB
 40
0.0
  9
$CHAMFERC
 40
0.0
  9
$CHAMFERD
 40
0.0
  9
$SKPOLY
 70
     0
  9
$TDCREATE
 40
2455397.864709028
  9
$TDUCREATE
 40
2455397.781375695
  9
$TDUPDATE
 40
2455455.481230012
  9
$TDUUPDATE
 40
2455455.397896678
  9
$TDINDWG
 40
0.0219144444
  9
$TDUSRTIMER
 40
0.0219144444
  9
$USRTIMER
 70
     1
  9
$ANGBASE
 50
0.0
  9
$ANGDIR
 70
     0
  9
$PDMODE
 70
     0
  9
$PDSIZE
 40
0.0
  9
$PLINEWID
 40
0.0
  9
$SPLFRAME
 70
     0
  9
$SPLINETYPE
 70
     6
  9
$SPLINESEGS
 70
     8
  9
$HANDSEED
  5
3EA
  9
$SURFTAB1
 70
     6
  9
$SURFTAB2
 70
     6
  9
$SURFTYPE
 70
     6
  9
$SURFU
 70
     6
  9
$SURFV
 70
     6
  9
$UCSBASE
  2

  9
$UCSNAME
  2

  9
$UCSORG
 10
0.0
 20
0.0
 30
0.0
  9
$UCSXDIR
 10
1.0
 20
0.0
 30
0.0
  9
$UCSYDIR
 10
0.0
 20
1.0
 30
0.0
  9
$UCSORTHOREF
  2

  9
$UCSORTHOVIEW
 70
     0
  9
$UCSORGTOP
 10
0.0
 20
0.0
 30
0.0
  9
$UCSORGBOTTOM
 10
0.0
 20
0.0
 30
0.0
  9
$UCSORGLEFT
 10
0.0
 20
0.0
 30
0.0
  9
$UCSORGRIGHT
 10
0.0
 20
0.0
 30
0.0
  9
$UCSORGFRONT
 10
0.0
 20
0.0
 30
0.0
  9
$UCSORGBACK
 10
0.0
 20
0.0
 30
0.0
  9
$PUCSBASE
  2

  9
$PUCSNAME
  2

  9
$PUCSORG
 10
0.0
 20
0.0
 30
0.0
  9
$PUCSXDIR
 10
1.0
 20
0.0
 30
0.0
  9
$PUCSYDIR
 10
0.0
 20
1.0
 30
0.0
  9
$PUCSORTHOREF
  2

  9
$PUCSORTHOVIEW
 70
     0
  9
$PUCSORGTOP
 10
0.0
 20
0.0
 30
0.0
  9
$PUCSORGBOTTOM
 10
0.0
 20
0.0
 30
0.0
  9
$PUCSORGLEFT
 10
0.0
 20
0.0
 30
0.0
  9
$PUCSORGRIGHT
 10
0.0
 20
0.0
 30
0.0
  9
$PUCSORGFRONT
 10
0.0
 20
0.0
 30
0.0
  9
$PUCSORGBACK
 10
0.0
 20
0.0
 30
0.0
  9
$USERI1
 70
     0
  9
$USERI2
 70
     0
  9
$USERI3
 70
     0
  9
$USERI4
 70
     0
  9
$USERI5
 70
     0
  9
$USERR1
 40
0.0
  9
$USERR2
 40
0.0
  9
$USERR3
 40
0.0
  9
$USERR4
 40
0.0
  9
$USERR5
 40
0.0
  9
$WORLDVIEW
 70
     1
  9
$SHADEDGE
 70
     3
  9
$SHADEDIF
 70
    70
  9
$TILEMODE
 70
     1
  9
$MAXACTVP
 70
    16
  9
$PINSBASE
 10
0.0
 20
0.0
 30
0.0
  9
$PLIMCHECK
 70
     0
  9
$PEXTMIN
 10
1.000000000000000E+20
 20
1.000000000000000E+20
 30
1.000000000000000E+20
  9
$PEXTMAX
 10
-1.000000000000000E+20
 20
-1.000000000000000E+20
 30
-1.000000000000000E+20
  9
$PLIMMIN
 10
0.0
 20
0.0
  9
$PLIMMAX
 10
12.0
 20
9.0
  9
$UNITMODE
 70
     0
  9
$VISRETAIN
 70
     0
  9
$PLINEGEN
 70
     0
  9
$PSLTSCALE
 70
     0
  9
$TREEDEPTH
 70
  3020
  9
$CMLSTYLE
  2
Standard
  9
$CMLJUST
 70
     0
  9
$CMLSCALE
 40
1.0
  9
$PROXYGRAPHICS
 70
     1
  9
$MEASUREMENT
 70
     0
  9
$CELWEIGHT
370
    -1
  9
$ENDCAPS
280
     0
  9
$JOINSTYLE
280
     0
  9
$LWDISPLAY
290
     0
  9
$INSUNITS
 70
     0
  9
$HYPERLINKBASE
  1

  9
$STYLESHEET
  1
monochrome 1.ctb
  9
$XEDIT
290
     1
  9
$CEPSNTYPE
380
     0
  9
$PSTYLEMODE
290
     1
  9
$FINGERPRINTGUID
  2
{D68B0D02-A558-11D7-B632-000102183313}
  9
$VERSIONGUID
  2
{CC8E7D7B-F215-4E8F-AC67-041D2F5CDFC8}
  9
$EXTNAMES
290
     1
  9
$PSVPSCALE
 40
0.0
  9
$OLESTARTUP
290
     0
  9
$SORTENTS
280
   127
  9
$INDEXCTL
280
     0
  9
$HIDETEXT
280
     0
  9
$XCLIPFRAME
290
     0
  9
$HALOGAP
280
     0
  9
$OBSCOLOR
 70
   257
  9
$OBSLTYPE
280
     0
  9
$INTERSECTIONDISPLAY
280
     0
  9
$INTERSECTIONCOLOR
 70
   257
  9
$DIMASSOC
280
     1
  9
$PROJECTNAME
  1

  0
ENDSEC
  0
SECTION
  2
CLASSES
  0
CLASS
  1
ACDBDICTIONARYWDFLT
  2
AcDbDictionaryWithDefault
  3
ObjectDBX Classes
 90
        0
 91
        1
280
     0
281
     0
  0
CLASS
  1
DICTIONARYVAR
  2
AcDbDictionaryVar
  3
ObjectDBX Classes
 90
        0
 91
        2
280
     0
281
     0
  0
ENDSEC
  0
SECTION
  2
TABLES
  0
TABLE
  2
VPORT
  5
8
330
0
100
AcDbSymbolTable
 70
     2
  0
VPORT
  5
3E9
330
8
100
AcDbSymbolTableRecord
100
AcDbViewportTableRecord
  2
*Active
 70
     0
 10
0.0
 20
0.0
 11
1.0
 21
1.0
 12
105.0000066012039
 22
148.500009335988
 13
0.0
 23
0.0
 14
1.0
 24
1.0
 15
10.0
 25
10.0
 16
0.0
 26
0.0
 36
1.0
 17
0.0
 27
0.0
 37
0.0
 40
299.4257891134095
 41
1.336927223719676
 42
50.0
 43
0.0
 44
0.0
 50
0.0
 51
0.0
 71
     0
 72
  1500
 73
     1
 74
     0
 75
     0
 76
     0
 77
     0
 78
     0
281
     0
 65
     1
110
0.0
120
0.0
130
0.0
111
1.0
121
0.0
131
0.0
112
0.0
122
1.0
132
0.0
 79
     0
146
0.0
  0
ENDTAB
  0
TABLE
  2
LTYPE
  5
5
330
0
100
AcDbSymbolTable
 70
     3
  0
LTYPE
  5
13
330
5
100
AcDbSymbolTableRecord
100
AcDbLinetypeTableRecord
  2
ByBlock
 70
     0
  3

 72
    65
 73
     0
 40
0.0
  0
LTYPE
  5
14
330
5
100
AcDbSymbolTableRecord
100
AcDbLinetypeTableRecord
  2
ByLayer
 70
     0
  3

 72
    65
 73
     0
 40
0.0
  0
LTYPE
  5
15
330
5
100
AcDbSymbolTableRecord
100
AcDbLinetypeTableRecord
  2
Continuous
 70
     0
  3
Solid line
 72
    65
 73
     0
 40
0.0
  0
LTYPE
  5
25
330
5
100
AcDbSymbolTableRecord
100
AcDbLinetypeTableRecord
  2
STRICHPUNKT
 70
     0
  3
__ . __ . __ . __ . __ . __ . __ . __ . __ . __
 72
    65
 73
     4
 40
1.0
 49
0.5
 74
     0
 49
-0.25
 74
     0
 49
0.0
 74
     0
 49
-0.25
 74
     0
  0
LTYPE
  5
32
330
5
100
AcDbSymbolTableRecord
100
AcDbLinetypeTableRecord
  2
AUSGEZOGEN
 70
     0
  3
Ausgezogene Linie
 72
    65
 73
     0
 40
0.0
  0
ENDTAB
  0
TABLE
  2
LAYER
  5
2
330
0
100
AcDbSymbolTable
 70
     8
  0
LAYER
  5
10
330
2
100
AcDbSymbolTableRecord
100
AcDbLayerTableRecord
  2
0
 70
     0
 62
     7
  6
Continuous
370
    -3
390
F
  0
LAYER
  5
2A
330
2
100
AcDbSymbolTableRecord
100
AcDbLayerTableRecord
  2
VOLL
 70
     0
 62
     1
  6
Continuous
370
    -3
390
F
  0
LAYER
  5
2B
330
2
100
AcDbSymbolTableRecord
100
AcDbLayerTableRecord
  2
HILF
 70
     0
 62
     2
  6
Continuous
370
    -3
390
F
  0
LAYER
  5
2C
330
2
100
AcDbSymbolTableRecord
100
AcDbLayerTableRecord
  2
MITTEL
 70
     0
 62
     2
  6
STRICHPUNKT
370
    -3
390
F
  0
LAYER
  5
2F
330
2
100
AcDbSymbolTableRecord
100
AcDbLayerTableRecord
  2
BEM
 70
     0
 62
     7
  6
Continuous
370
    -3
390
F
  0
LAYER
  5
30
330
2
100
AcDbSymbolTableRecord
100
AcDbLayerTableRecord
  2
STEMPEL
 70
     0
 62
     3
  6
Continuous
370
    -3
390
F
  0
LAYER
  5
31
330
2
100
AcDbSymbolTableRecord
100
AcDbLayerTableRecord
  2
TEXT
 70
     0
 62
     7
  6
Continuous
370
    -3
390
F
  0
LAYER
  5
17B
330
2
100
AcDbSymbolTableRecord
100
AcDbLayerTableRecord
  2
DEFPOINTS
 70
     0
 62
    -7
  6
AUSGEZOGEN
290
     0
370
    -3
390
F
  0
ENDTAB
  0
TABLE
  2
STYLE
  5
3
330
0
100
AcDbSymbolTable
 70
     2
  0
STYLE
  5
11
330
3
100
AcDbSymbolTableRecord
100
AcDbTextStyleTableRecord
  2
STANDARD
 70
     0
 40
0.0
 41
0.8
 50
0.0
 71
     0
 42
3.5
  3
simplex.shx
  4

  0
STYLE
  5
24
330
3
100
AcDbSymbolTableRecord
100
AcDbTextStyleTableRecord
  2
GREEKS
 70
     0
 40
0.0
 41
0.8
 50
0.0
 71
     0
 42
2.5
  3
SIMPLEX.shx
  4

  0
ENDTAB
  0
TABLE
  2
VIEW
  5
6
330
0
100
AcDbSymbolTable
 70
     0
  0
ENDTAB
  0
TABLE
  2
UCS
  5
7
330
0
100
AcDbSymbolTable
 70
     0
  0
ENDTAB
  0
TABLE
  2
APPID
  5
9
330
0
100
AcDbSymbolTable
 70
     1
  0
APPID
  5
12
330
9
100
AcDbSymbolTableRecord
100
AcDbRegAppTableRecord
  2
ACAD
 70
     0
  0
ENDTAB
  0
TABLE
  2
DIMSTYLE
  5
A
330
0
100
AcDbSymbolTable
 70
     1
100
AcDbDimStyleTable
 71
     1
340
9D
  0
DIMSTYLE
105
9D
102
{ACAD_REACTORS
330
24F
330
251
330
252
330
3C8
102
}
330
A
100
AcDbSymbolTableRecord
100
AcDbDimStyleTableRecord
  2
Standard
 70
     0
340
11
  0
ENDTAB
  0
TABLE
  2
BLOCK_RECORD
  5
1
330
0
100
AcDbSymbolTable
 70
     5
  0
BLOCK_RECORD
  5
1E
102
{ACAD_XDICTIONARY
360
A0
102
}
330
1
100
AcDbSymbolTableRecord
100
AcDbBlockTableRecord
  2
*Model_Space
340
21
  0
BLOCK_RECORD
  5
1A
102
{ACAD_XDICTIONARY
360
A2
102
}
330
1
100
AcDbSymbolTableRecord
100
AcDbBlockTableRecord
  2
*Paper_Space
340
1D
  0
BLOCK_RECORD
  5
22
330
1
100
AcDbSymbolTableRecord
100
AcDbBlockTableRecord
  2
LOGO
340
0
102
{BLKREFS
331
9B
102
}
  0
BLOCK_RECORD
  5
31D
330
1
100
AcDbSymbolTableRecord
100
AcDbBlockTableRecord
  2
*D1
340
0
  0
BLOCK_RECORD
  5
335
330
1
100
AcDbSymbolTableRecord
100
AcDbBlockTableRecord
  2
*D2
340
0
  0
BLOCK_RECORD
  5
341
330
1
100
AcDbSymbolTableRecord
100
AcDbBlockTableRecord
  2
*D3
340
0
  0
BLOCK_RECORD
  5
3C9
330
1
100
AcDbSymbolTableRecord
100
AcDbBlockTableRecord
  2
*D4
340
0
  0
ENDTAB
  0
ENDSEC
  0
SECTION
  2
BLOCKS
  0
BLOCK
  5
35
330
1E
100
AcDbEntity
  8
0
100
AcDbBlockBegin
  2
*Model_Space
 70
     0
 10
0.0
 20
0.0
 30
0.0
  3
*Model_Space
  1

  0
ENDBLK
  5
36
330
1E
100
AcDbEntity
  8
0
100
AcDbBlockEnd
  0
BLOCK
  5
33
330
1A
100
AcDbEntity
 67
     1
  8
0
100
AcDbBlockBegin
  2
*Paper_Space
 70
     0
 10
0.0
 20
0.0
 30
0.0
  3
*Paper_Space
  1

  0
ENDBLK
  5
34
330
1A
100
AcDbEntity
 67
     1
  8
0
100
AcDbBlockEnd
  0
BLOCK
  5
37
330
22
100
AcDbEntity
  8
0
100
AcDbBlockBegin
  2
LOGO
 70
     0
 10
0.0
 20
0.0
 30
0.0
  3
LOGO
  1

  0
ARC
  5
38
330
22
100
AcDbEntity
  8
0
100
AcDbCircle
 10
11.59973089678112
 20
-9.271599258481501
 30
0.0
 40
4.5
100
AcDbArc
 50
270.0
 51
231.0575587310159
  0
LINE
  5
39
330
22
100
AcDbEntity
  8
0
100
AcDbLine
 10
3.599730896781125
 20
-4.771599258481529
 30
0.0
 11
3.599730896781153
 21
-11.77159925848133
 31
0.0
  0
LINE
  5
3A
330
22
100
AcDbEntity
  8
0
100
AcDbLine
 10
2.599730896781125
 20
-4.771599258481529
 30
0.0
 11
2.599730896781153
 21
-11.77159925848133
 31
0.0
  0
CIRCLE
  5
3B
330
22
100
AcDbEntity
  8
0
100
AcDbCircle
 10
11.59973089678112
 20
-9.271599258481501
 30
0.0
 40
3.5
  0
ARC
  5
3C
330
22
100
AcDbEntity
  8
0
100
AcDbCircle
 10
31.59973089678115
 20
-9.271599258481472
 30
0.0
 40
4.5
100
AcDbArc
 50
270.0
 51
231.0575587310182
  0
LINE
  5
3D
330
22
100
AcDbEntity
  8
0
100
AcDbLine
 10
17.59973089678112
 20
-4.771599258481472
 30
0.0
 11
17.59973089678115
 21
-13.77159925848147
 31
0.0
  0
ARC
  5
3E
330
22
100
AcDbEntity
  8
0
100
AcDbCircle
 10
22.59973089678116
 20
-7.271599258481472
 30
0.0
 40
2.5
100
AcDbArc
 50
293.1161887722295
 51
90.0
  0
CIRCLE
  5
3F
330
22
100
AcDbEntity
  8
0
100
AcDbCircle
 10
31.59973089678115
 20
-9.271599258481472
 30
0.0
 40
3.5
  0
ARC
  5
40
330
22
100
AcDbEntity
  8
0
100
AcDbCircle
 10
4.599730896781153
 20
-11.77159925848133
 30
0.0
 40
1.0
100
AcDbArc
 50
180.0
 51
270.0
  0
ARC
  5
41
330
22
100
AcDbEntity
  8
0
100
AcDbCircle
 10
4.599730896781153
 20
-11.77159925848133
 30
0.0
 40
2.0
100
AcDbArc
 50
179.9999999999992
 51
270.0
  0
LINE
  5
42
330
22
100
AcDbEntity
  8
0
100
AcDbLine
 10
11.59973089678115
 20
-13.77159925848144
 30
0.0
 11
4.599730896781153
 21
-13.77159925848147
 31
0.0
  0
LINE
  5
43
330
22
100
AcDbEntity
  8
0
100
AcDbLine
 10
8.771303772034769
 20
-12.77159925848136
 30
0.0
 11
4.599730896781153
 21
-12.77159925848133
 31
0.0
  0
LINE
  5
44
330
22
100
AcDbEntity
  8
0
100
AcDbLine
 10
31.59973089678115
 20
-13.77159925848147
 30
0.0
 11
23.6715276665056
 21
-13.77159925848144
 31
0.0
  0
LINE
  5
45
330
22
100
AcDbEntity
  8
0
100
AcDbLine
 10
23.56565672307022
 20
-9.51278021337896
 30
0.0
 11
24.4388546544846
 21
-12.77159925848144
 31
0.0
  0
LINE
  5
46
330
22
100
AcDbEntity
  8
0
100
AcDbLine
 10
22.59973089678116
 20
-9.771599258481472
 30
0.0
 11
18.59973089678112
 21
-9.771599258481472
 31
0.0
  0
LINE
  5
47
330
22
100
AcDbEntity
  8
0
100
AcDbLine
 10
18.59973089678115
 20
-13.77159925848144
 30
0.0
 11
17.59973089678115
 21
-13.77159925848144
 31
0.0
  0
LINE
  5
48
330
22
100
AcDbEntity
  8
0
100
AcDbLine
 10
18.59973089678115
 20
-9.771599258481472
 30
0.0
 11
18.59973089678115
 21
-13.77159925848144
 31
0.0
  0
LINE
  5
49
330
22
100
AcDbEntity
  8
0
100
AcDbLine
 10
22.59973089678116
 20
-9.771599258481472
 30
0.0
 11
23.67152766650562
 21
-13.77159925848147
 31
0.0
  0
ARC
  5
4A
330
22
100
AcDbEntity
  8
0
100
AcDbCircle
 10
22.59973089678116
 20
-7.271599258481472
 30
0.0
 40
2.5
100
AcDbArc
 50
270.0
 51
270.0000000000007
  0
LINE
  5
4B
330
22
100
AcDbEntity
  8
0
100
AcDbLine
 10
28.77130377203494
 20
-12.77159925848147
 30
0.0
 11
24.43885465448463
 21
-12.77159925848144
 31
0.0
  0
LINE
  5
4C
330
22
100
AcDbEntity
  8
0
100
AcDbLine
 10
3.599730896781125
 20
-4.771599258481472
 30
0.0
 11
2.599730896781125
 21
-4.771599258481472
 31
0.0
  0
LINE
  5
4D
330
22
100
AcDbEntity
  8
0
100
AcDbLine
 10
22.59973089678116
 20
-8.771599258481472
 30
0.0
 11
18.59973089678115
 21
-8.771599258481472
 31
0.0
  0
LINE
  5
4E
330
22
100
AcDbEntity
  8
0
100
AcDbLine
 10
22.59973089678116
 20
-5.771599258481472
 30
0.0
 11
18.59973089678115
 21
-5.771599258481472
 31
0.0
  0
LINE
  5
4F
330
22
100
AcDbEntity
  8
0
100
AcDbLine
 10
22.59973089678116
 20
-4.771599258481472
 30
0.0
 11
17.59973089678115
 21
-4.771599258481472
 31
0.0
  0
LINE
  5
50
330
22
100
AcDbEntity
  8
0
100
AcDbLine
 10
18.59973089678115
 20
-5.771599258481472
 30
0.0
 11
18.59973089678115
 21
-8.771599258481472
 31
0.0
  0
ARC
  5
51
330
22
100
AcDbEntity
  8
0
100
AcDbCircle
 10
22.59973089678116
 20
-7.271599258481472
 30
0.0
 40
1.5
100
AcDbArc
 50
270.0
 51
90.0
  0
ENDBLK
  5
52
330
22
100
AcDbEntity
  8
0
100
AcDbBlockEnd
  0
BLOCK
  5
327
330
31D
100
AcDbEntity
  8
0
100
AcDbBlockBegin
  2
*D1
 70
     1
 10
0.0
 20
0.0
 30
0.0
  3
*D1
  1

  0
LINE
  5
385
330
31D
100
AcDbEntity
  8
BEM
 62
     0
370
    -2
100
AcDbLine
 10
169.0252306900522
 20
258.5536913726236
 30
0.0
 11
169.0252306900522
 21
266.7057830503746
 31
0.0
  0
LINE
  5
386
330
31D
100
AcDbEntity
  8
BEM
 62
     0
370
    -2
100
AcDbLine
 10
195.2750755063174
 20
251.3804324694715
 30
0.0
 11
195.2750755063174
 21
266.7057830503746
 31
0.0
  0
LINE
  5
387
330
31D
100
AcDbEntity
  8
BEM
 62
     0
370
    -2
100
AcDbLine
 10
172.5252306900522
 20
265.7057830503746
 30
0.0
 11
191.7750755063174
 21
265.7057830503746
 31
0.0
  0
SOLID
  5
388
330
31D
100
AcDbEntity
  8
BEM
 62
     0
100
AcDbTrace
 10
172.5252306900522
 20
266.289116383708
 30
0.0
 11
172.5252306900522
 21
265.1224497170413
 31
0.0
 12
169.0252306900522
 22
265.7057830503746
 32
0.0
 13
169.0252306900522
 23
265.7057830503746
 33
0.0
  0
SOLID
  5
389
330
31D
100
AcDbEntity
  8
BEM
 62
     0
100
AcDbTrace
 10
191.7750755063174
 20
266.289116383708
 30
0.0
 11
191.7750755063174
 21
265.1224497170413
 31
0.0
 12
195.2750755063174
 22
265.7057830503746
 32
0.0
 13
195.2750755063174
 23
265.7057830503746
 33
0.0
  0
MTEXT
  5
38A
330
31D
100
AcDbEntity
  8
BEM
 62
     1
100
AcDbMText
 10
182.1501530981848
 20
268.9557830503746
 30
0.0
 40
3.5
 41
0.0
 71
     5
 72
     1
  1
\A1;26
 73
     1
 44
1.0
  0
POINT
  5
38B
330
31D
100
AcDbEntity
  8
DEFPOINTS
 62
     0
100
AcDbPoint
 10
169.0252306900522
 20
257.5536913726236
 30
0.0
  0
POINT
  5
38C
330
31D
100
AcDbEntity
  8
DEFPOINTS
 62
     0
100
AcDbPoint
 10
195.2750755063174
 20
250.3804324694715
 30
0.0
  0
POINT
  5
38D
330
31D
100
AcDbEntity
  8
DEFPOINTS
 62
     0
100
AcDbPoint
 10
195.2750755063174
 20
265.7057830503746
 30
0.0
  0
ENDBLK
  5
328
330
31D
100
AcDbEntity
  8
0
100
AcDbBlockEnd
  0
BLOCK
  5
33F
330
335
100
AcDbEntity
  8
0
100
AcDbBlockBegin
  2
*D2
 70
     1
 10
0.0
 20
0.0
 30
0.0
  3
*D2
  1

  0
LINE
  5
35F
330
335
100
AcDbEntity
  8
BEM
 62
     0
370
    -2
100
AcDbLine
 10
33.26356732661168
 20
232.0536913726244
 30
0.0
 11
33.26356732661168
 21
194.2703508289792
 31
0.0
  0
LINE
  5
360
330
335
100
AcDbEntity
  8
BEM
 62
     0
370
    -2
100
AcDbLine
 10
118.2635673266116
 20
232.0536913726236
 30
0.0
 11
118.2635673266116
 21
194.2703508289792
 31
0.0
  0
LINE
  5
361
330
335
100
AcDbEntity
  8
BEM
 62
     0
370
    -2
100
AcDbLine
 10
36.76356732661168
 20
195.2703508289792
 30
0.0
 11
114.7635673266117
 21
195.2703508289792
 31
0.0
  0
SOLID
  5
362
330
335
100
AcDbEntity
  8
BEM
 62
     0
100
AcDbTrace
 10
36.76356732661168
 20
195.8536841623125
 30
0.0
 11
36.76356732661168
 21
194.6870174956458
 31
0.0
 12
33.26356732661168
 22
195.2703508289792
 32
0.0
 13
33.26356732661168
 23
195.2703508289792
 33
0.0
  0
SOLID
  5
363
330
335
100
AcDbEntity
  8
BEM
 62
     0
100
AcDbTrace
 10
114.7635673266117
 20
195.8536841623125
 30
0.0
 11
114.7635673266117
 21
194.6870174956458
 31
0.0
 12
118.2635673266116
 22
195.2703508289792
 32
0.0
 13
118.2635673266116
 23
195.2703508289792
 33
0.0
  0
MTEXT
  5
364
330
335
100
AcDbEntity
  8
BEM
 62
     1
100
AcDbMText
 10
75.76356732661167
 20
198.5203508289792
 30
0.0
 40
3.5
 41
0.0
 71
     5
 72
     1
  1
\A1;85
 73
     1
 44
1.0
  0
POINT
  5
365
330
335
100
AcDbEntity
  8
DEFPOINTS
 62
     0
100
AcDbPoint
 10
33.26356732661168
 20
233.0536913726244
 30
0.0
  0
POINT
  5
366
330
335
100
AcDbEntity
  8
DEFPOINTS
 62
     0
100
AcDbPoint
 10
118.2635673266116
 20
233.0536913726235
 30
0.0
  0
POINT
  5
367
330
335
100
AcDbEntity
  8
DEFPOINTS
 62
     0
100
AcDbPoint
 10
118.2635673266116
 20
195.2703508289792
 30
0.0
  0
ENDBLK
  5
340
330
335
100
AcDbEntity
  8
0
100
AcDbBlockEnd
  0
BLOCK
  5
34B
330
341
100
AcDbEntity
  8
0
100
AcDbBlockBegin
  2
*D3
 70
     1
 10
0.0
 20
0.0
 30
0.0
  3
*D3
  1

  0
LINE
  5
368
330
341
100
AcDbEntity
  8
BEM
 62
     0
370
    -2
100
AcDbLine
 10
100.5920982852221
 20
257.5536913726236
 30
0.0
 11
131.094808310248
 21
257.5536913726235
 31
0.0
  0
LINE
  5
369
330
341
100
AcDbEntity
  8
BEM
 62
     0
370
    -2
100
AcDbLine
 10
100.5920982852221
 20
208.5536913726237
 30
0.0
 11
131.094808310248
 21
208.5536913726237
 31
0.0
  0
LINE
  5
36A
330
341
100
AcDbEntity
  8
BEM
 62
     0
370
    -2
100
AcDbLine
 10
130.094808310248
 20
254.0536913726235
 30
0.0
 11
130.094808310248
 21
212.0536913726236
 31
0.0
  0
SOLID
  5
36B
330
341
100
AcDbEntity
  8
BEM
 62
     0
100
AcDbTrace
 10
129.5114749769147
 20
254.0536913726235
 30
0.0
 11
130.6781416435814
 21
254.0536913726235
 31
0.0
 12
130.094808310248
 22
257.5536913726235
 32
0.0
 13
130.094808310248
 23
257.5536913726235
 33
0.0
  0
SOLID
  5
36C
330
341
100
AcDbEntity
  8
BEM
 62
     0
100
AcDbTrace
 10
129.5114749769147
 20
212.0536913726236
 30
0.0
 11
130.6781416435814
 21
212.0536913726236
 31
0.0
 12
130.094808310248
 22
208.5536913726237
 32
0.0
 13
130.094808310248
 23
208.5536913726237
 33
0.0
  0
MTEXT
  5
36D
330
341
100
AcDbEntity
  8
BEM
 62
     1
100
AcDbMText
 10
126.844808310248
 20
233.0536913726236
 30
0.0
 40
3.5
 41
0.0
 71
     5
 72
     1
  1
\A1;49
 11
0.0000000000000001
 21
1.0
 31
0.0
 73
     1
 44
1.0
  0
POINT
  5
36E
330
341
100
AcDbEntity
  8
DEFPOINTS
 62
     0
100
AcDbPoint
 10
99.59209828522217
 20
257.5536913726236
 30
0.0
  0
POINT
  5
36F
330
341
100
AcDbEntity
  8
DEFPOINTS
 62
     0
100
AcDbPoint
 10
99.59209828522217
 20
208.5536913726237
 30
0.0
  0
POINT
  5
370
330
341
100
AcDbEntity
  8
DEFPOINTS
 62
     0
100
AcDbPoint
 10
130.094808310248
 20
208.5536913726237
 30
0.0
  0
ENDBLK
  5
34C
330
341
100
AcDbEntity
  8
0
100
AcDbBlockEnd
  0
BLOCK
  5
3D3
330
3C9
100
AcDbEntity
  8
0
100
AcDbBlockBegin
  2
*D4
 70
     1
 10
0.0
 20
0.0
 30
0.0
  3
*D4
  1

  0
LINE
  5
3D5
330
3C9
100
AcDbEntity
  8
BEM
 62
     0
370
    -2
100
AcDbLine
 10
165.0252306900521
 20
207.5536913726236
 30
0.0
 11
165.0252306900521
 21
193.6235545545359
 31
0.0
  0
LINE
  5
3D6
330
3C9
100
AcDbEntity
  8
BEM
 62
     0
370
    -2
100
AcDbLine
 10
143.0252306900521
 20
207.5536913726233
 30
0.0
 11
143.0252306900521
 21
193.6235545545359
 31
0.0
  0
LINE
  5
3D7
330
3C9
100
AcDbEntity
  8
BEM
 62
     0
370
    -2
100
AcDbLine
 10
161.5252306900521
 20
194.6235545545359
 30
0.0
 11
146.5252306900521
 21
194.6235545545359
 31
0.0
  0
SOLID
  5
3D8
330
3C9
100
AcDbEntity
  8
BEM
 62
     0
100
AcDbTrace
 10
161.5252306900521
 20
195.2068878878692
 30
0.0
 11
161.5252306900521
 21
194.0402212212025
 31
0.0
 12
165.0252306900521
 22
194.6235545545359
 32
0.0
 13
165.0252306900521
 23
194.6235545545359
 33
0.0
  0
SOLID
  5
3D9
330
3C9
100
AcDbEntity
  8
BEM
 62
     0
100
AcDbTrace
 10
146.5252306900521
 20
195.2068878878692
 30
0.0
 11
146.5252306900521
 21
194.0402212212025
 31
0.0
 12
143.0252306900521
 22
194.6235545545359
 32
0.0
 13
143.0252306900521
 23
194.6235545545359
 33
0.0
  0
MTEXT
  5
3DA
330
3C9
100
AcDbEntity
  8
BEM
 62
     1
100
AcDbMText
 10
154.0252306900521
 20
197.8735545545358
 30
0.0
 40
3.5
 41
0.0
 71
     5
 72
     1
  1
\A1;22
 73
     1
 44
1.0
  0
POINT
  5
3DB
330
3C9
100
AcDbEntity
  8
DEFPOINTS
 62
     0
100
AcDbPoint
 10
165.0252306900521
 20
208.5536913726237
 30
0.0
  0
POINT
  5
3DC
330
3C9
100
AcDbEntity
  8
DEFPOINTS
 62
     0
100
AcDbPoint
 10
143.0252306900521
 20
208.5536913726234
 30
0.0
  0
POINT
  5
3DD
330
3C9
100
AcDbEntity
  8
DEFPOINTS
 62
     0
100
AcDbPoint
 10
143.0252306900521
 20
194.6235545545359
 30
0.0
  0
ENDBLK
  5
3D4
330
3C9
100
AcDbEntity
  8
0
100
AcDbBlockEnd
  0
ENDSEC
  0
SECTION
  2
ENTITIES
  0
LINE
  5
57
330
1E
100
AcDbEntity
  8
STEMPEL
100
AcDbLine
 10
205.0
 20
55.00000000000003
 30
0.0
 11
19.99999999999998
 21
55.0
 31
0.0
  0
LINE
  5
58
330
1E
100
AcDbEntity
  8
STEMPEL
100
AcDbLine
 10
68.00000000000006
 20
54.99999999999997
 30
0.0
 11
68.0
 21
4.999999999999985
 31
0.0
  0
LINE
  5
59
330
1E
100
AcDbEntity
  8
STEMPEL
100
AcDbLine
 10
110.0
 20
55.00000000000003
 30
0.0
 11
110.0
 21
4.999999999999985
 31
0.0
  0
LINE
  5
5A
330
1E
100
AcDbEntity
  8
STEMPEL
100
AcDbLine
 10
166.0
 20
54.99999999999989
 30
0.0
 11
166.0
 21
20.0
 31
0.0
  0
LINE
  5
5B
330
1E
100
AcDbEntity
  8
STEMPEL
100
AcDbLine
 10
67.99999999999994
 20
14.99999999999998
 30
0.0
 11
19.99999999999998
 21
14.99999999999998
 31
0.0
  0
LINE
  5
5C
330
1E
100
AcDbEntity
  8
STEMPEL
100
AcDbLine
 10
205.0
 20
20.0
 30
0.0
 11
68.00000000000006
 21
19.99999999999998
 31
0.0
  0
LINE
  5
5D
330
1E
100
AcDbEntity
  8
STEMPEL
100
AcDbLine
 10
205.0
 20
40.0
 30
0.0
 11
68.00000000000006
 21
39.99999999999997
 31
0.0
  0
LINE
  5
5E
330
1E
100
AcDbEntity
  8
VOLL
100
AcDbLine
 10
27.00000000000005
 20
55.00000000000003
 30
0.0
 11
26.99999999999999
 21
4.999999999999985
 31
0.0
  0
LINE
  5
5F
330
1E
100
AcDbEntity
  8
VOLL
100
AcDbLine
 10
47.00000000000005
 20
54.99999999999997
 30
0.0
 11
47.0
 21
4.999999999999985
 31
0.0
  0
LINE
  5
60
330
1E
100
AcDbEntity
  8
VOLL
100
AcDbLine
 10
57.00000000000006
 20
54.99999999999997
 30
0.0
 11
57.0
 21
4.999999999999985
 31
0.0
  0
LINE
  5
61
330
1E
100
AcDbEntity
  8
VOLL
100
AcDbLine
 10
77.00000000000006
 20
39.99999999999997
 30
0.0
 11
77.00000000000006
 21
19.99999999999998
 31
0.0
  0
LINE
  5
62
330
1E
100
AcDbEntity
  8
VOLL
100
AcDbLine
 10
90.00000000000005
 20
54.99999999999992
 30
0.0
 11
90.0
 21
19.99999999999998
 31
0.0
  0
LINE
  5
63
330
1E
100
AcDbEntity
  8
HILF
100
AcDbLine
 10
20.00000000000004
 20
50.00000000000003
 30
0.0
 11
68.00000000000006
 21
50.00000000000003
 31
0.0
  0
LINE
  5
64
330
1E
100
AcDbEntity
  8
HILF
100
AcDbLine
 10
20.00000000000004
 20
45.00000000000002
 30
0.0
 11
68.00000000000006
 21
45.00000000000002
 31
0.0
  0
LINE
  5
65
330
1E
100
AcDbEntity
  8
HILF
100
AcDbLine
 10
20.00000000000004
 20
39.99999999999997
 30
0.0
 11
68.00000000000006
 21
39.99999999999997
 31
0.0
  0
LINE
  5
66
330
1E
100
AcDbEntity
  8
HILF
100
AcDbLine
 10
20.00000000000004
 20
34.99999999999997
 30
0.0
 11
68.00000000000006
 21
34.99999999999997
 31
0.0
  0
LINE
  5
67
330
1E
100
AcDbEntity
  8
HILF
100
AcDbLine
 10
20.00000000000004
 20
29.99999999999999
 30
0.0
 11
68.00000000000006
 21
29.99999999999999
 31
0.0
  0
LINE
  5
68
330
1E
100
AcDbEntity
  8
HILF
100
AcDbLine
 10
20.00000000000004
 20
24.99999999999999
 30
0.0
 11
68.00000000000006
 21
24.99999999999999
 31
0.0
  0
LINE
  5
69
330
1E
100
AcDbEntity
  8
HILF
100
AcDbLine
 10
20.00000000000004
 20
19.99999999999998
 30
0.0
 11
68.00000000000006
 21
19.99999999999998
 31
0.0
  0
LINE
  5
6A
330
1E
100
AcDbEntity
  8
HILF
100
AcDbLine
 10
68.00000000000006
 20
34.99999999999997
 30
0.0
 11
110.0
 21
34.99999999999997
 31
0.0
  0
LINE
  5
6B
330
1E
100
AcDbEntity
  8
HILF
100
AcDbLine
 10
68.00000000000006
 20
29.99999999999999
 30
0.0
 11
110.0
 21
29.99999999999999
 31
0.0
  0
LINE
  5
6C
330
1E
100
AcDbEntity
  8
HILF
100
AcDbLine
 10
68.00000000000006
 20
24.99999999999999
 30
0.0
 11
110.0
 21
24.99999999999999
 31
0.0
  0
LINE
  5
6D
330
1E
100
AcDbEntity
  8
HILF
100
AcDbLine
 10
112.3868400548474
 20
42.01879123782069
 30
0.0
 11
162.4176958278155
 21
42.01879123782069
 31
0.0
  0
LINE
  5
6E
330
1E
100
AcDbEntity
  8
HILF
100
AcDbLine
 10
112.3868400548474
 20
34.99999999999997
 30
0.0
 11
162.4176958278155
 21
34.99999999999997
 31
0.0
  0
LINE
  5
6F
330
1E
100
AcDbEntity
  8
HILF
100
AcDbLine
 10
112.3868400548474
 20
29.99999999999999
 30
0.0
 11
162.4176958278155
 21
29.99999999999999
 31
0.0
  0
LINE
  5
70
330
1E
100
AcDbEntity
  8
HILF
100
AcDbLine
 10
112.3868400548474
 20
24.99999999999999
 30
0.0
 11
162.4176958278155
 21
24.99999999999999
 31
0.0
  0
LINE
  5
71
330
1E
100
AcDbEntity
  8
VOLL
100
AcDbLine
 10
166.0
 20
30.0
 30
0.0
 11
205.0
 21
30.0
 31
0.0
  0
LINE
  5
72
330
1E
100
AcDbEntity
  8
HILF
100
AcDbLine
 10
168.3619308148496
 20
41.88991818477913
 30
0.0
 11
202.4294419663364
 21
41.88991818477913
 31
0.0
  0
LINE
  5
73
330
1E
100
AcDbEntity
  8
HILF
100
AcDbLine
 10
111.7454849644942
 20
7.446991290141568
 30
0.0
 11
202.4294419663364
 21
7.446991290141568
 31
0.0
  0
TEXT
  5
74
330
1E
100
AcDbEntity
  8
TEXT
100
AcDbText
 10
31.9308298981591
 20
9.336909474920659
 30
0.0
 40
2.0
  1
Änderung
 41
0.8
  7
GREEKS
 72
     1
 11
37.30225846958767
 21
9.336909474920659
 31
0.0
100
AcDbText
  0
TEXT
  5
75
330
1E
100
AcDbEntity
  8
TEXT
100
AcDbText
 10
71.75817860751886
 20
51.23104475435443
 30
0.0
 40
2.5
  1
Maßstab
 41
0.8
  7
GREEKS
100
AcDbText
  0
TEXT
  5
76
330
1E
100
AcDbEntity
  8
TEXT
100
AcDbText
 10
92.14294773670257
 20
51.20920842174095
 30
0.0
 40
2.5
  1
Zul. Abw.
 41
0.8
  7
GREEKS
100
AcDbText
  0
TEXT
  5
77
330
1E
100
AcDbEntity
  8
TEXT
100
AcDbText
 10
112.4389701904505
 20
51.27446640058898
 30
0.0
 40
2.5
  1
Benennung
 41
0.8
  7
GREEKS
100
AcDbText
  0
TEXT
  5
78
330
1E
100
AcDbEntity
  8
TEXT
100
AcDbText
 10
168.089377478817
 20
51.15660172685682
 30
0.0
 40
2.5
  1
Zeichnungs Nr.
 41
0.8
  7
GREEKS
100
AcDbText
  0
TEXT
  5
79
330
1E
100
AcDbEntity
  8
TEXT
100
AcDbText
 10
112.371119195568
 20
15.42280285096528
 30
0.0
 40
2.5
  1
Bauvorhaben
 41
0.8
  7
GREEKS
100
AcDbText
  0
TEXT
  5
7A
330
1E
100
AcDbEntity
  8
TEXT
100
AcDbText
 10
168.3619308148496
 20
36.59059118549985
 30
0.0
 40
2.5
  1
Ersatz für:
 41
0.8
  7
GREEKS
100
AcDbText
  0
TEXT
  5
7B
330
1E
100
AcDbEntity
  8
TEXT
100
AcDbText
 10
24.13320553522878
 20
6.827329230135958
 30
0.0
 40
2.0
  1
Index
 50
90.0
 41
0.8
  7
GREEKS
100
AcDbText
  0
TEXT
  5
7C
330
1E
100
AcDbEntity
  8
TEXT
100
AcDbText
 10
50.04673380377405
 20
9.33578134669905
 30
0.0
 40
2.0
  1
Tag
 41
0.8
  7
GREEKS
 72
     1
 11
51.91340047044072
 21
9.33578134669905
 31
0.0
100
AcDbText
  0
TEXT
  5
7D
330
1E
100
AcDbEntity
  8
TEXT
100
AcDbText
 10
59.50613721932963
 20
9.29662108483204
 30
0.0
 40
2.0
  1
Name
 41
0.8
  7
GREEKS
 72
     1
 11
62.66804198123439
 21
9.29662108483204
 31
0.0
100
AcDbText
  0
TEXT
  5
7E
330
1E
100
AcDbEntity
  8
TEXT
100
AcDbText
 10
81.16558365768254
 20
36.65940250614963
 30
0.0
 40
2.0
  1
Tag
 41
0.8
  7
GREEKS
100
AcDbText
  0
TEXT
  5
7F
330
1E
100
AcDbEntity
  8
TEXT
100
AcDbText
 10
96.23132921131475
 20
36.65480545957612
 30
0.0
 40
2.0
  1
Name
 41
0.8
  7
GREEKS
100
AcDbText
  0
TEXT
  5
80
330
1E
100
AcDbEntity
  8
TEXT
100
AcDbText
 10
68.79180635838077
 20
31.81495184808982
 30
0.0
 40
2.0
  1
Gez.
 41
0.8
  7
GREEKS
100
AcDbText
  0
TEXT
  5
81
330
1E
100
AcDbEntity
  8
TEXT
100
AcDbText
 10
68.77575432858361
 20
26.84463145714189
 30
0.0
 40
2.0
  1
Gepr.
 41
0.8
  7
GREEKS
100
AcDbText
  0
TEXT
  5
82
330
1E
100
AcDbEntity
  8
TEXT
100
AcDbText
 10
68.80033886936519
 20
21.76473194824904
 30
0.0
 40
2.0
  1
Norm.
 41
0.8
  7
GREEKS
100
AcDbText
  0
LINE
  5
83
330
1E
100
AcDbEntity
  8
STEMPEL
100
AcDbLine
 10
24.99999999999995
 20
5.0
 30
0.0
 11
205.0
 21
5.0
 31
0.0
  0
TEXT
  5
84
330
1E
100
AcDbEntity
  8
TEXT
100
AcDbText
 10
168.6200430748503
 20
26.03708088939301
 30
0.0
 40
2.5
  1
ersetzt durch:
 41
0.8
  7
GREEKS
100
AcDbText
  0
LINE
  5
85
330
1E
100
AcDbEntity
  8
STEMPEL
100
AcDbLine
 10
205.0
 20
5.0
 30
0.0
 11
19.99999999999994
 21
5.0
 31
0.0
  0
LINE
  5
86
330
1E
100
AcDbEntity
  8
STEMPEL
100
AcDbLine
 10
205.0
 20
5.0
 30
0.0
 11
205.0
 21
292.0
 31
0.0
  0
LINE
  5
87
330
1E
100
AcDbEntity
  8
STEMPEL
100
AcDbLine
 10
20.0
 20
5.0
 30
0.0
 11
19.99999999999994
 21
292.0
 31
0.0
  0
LINE
  5
88
330
1E
100
AcDbEntity
  8
STEMPEL
100
AcDbLine
 10
205.0
 20
292.0
 30
0.0
 11
19.99999999999994
 21
292.0
 31
0.0
  0
LINE
  5
89
330
1E
100
AcDbEntity
  8
HILF
100
AcDbLine
 10
0.0
 20
0.0
 30
0.0
 11
-0.0000000000000568
 21
297.0
 31
0.0
  0
LINE
  5
8A
330
1E
100
AcDbEntity
  8
HILF
100
AcDbLine
 10
210.0
 20
297.0000000000001
 30
0.0
 11
0.0
 21
297.0
 31
0.0
  0
LINE
  5
8B
330
1E
100
AcDbEntity
  8
HILF
100
AcDbLine
 10
210.0
 20
0.0
 30
0.0
 11
0.0
 21
0.0
 31
0.0
  0
LINE
  5
8C
330
1E
100
AcDbEntity
  8
HILF
100
AcDbLine
 10
15.54383567856928
 20
148.5
 30
0.0
 11
0.0000000000000568
 21
148.5
 31
0.0
  0
TEXT
  5
8D
330
1E
100
AcDbEntity
  8
TEXT
100
AcDbText
 10
69.31105491105199
 20
36.57012735575833
 30
0.0
 40
2.0
  1
2007
 41
0.8
  7
GREEKS
100
AcDbText
  0
LINE
  5
8E
330
1E
100
AcDbEntity
  8
HILF
100
AcDbLine
 10
210.0
 20
-0.0000000000000568
 30
0.0
 11
210.0
 21
297.0
 31
0.0
  0
TEXT
  5
8F
330
1E
100
AcDbEntity
  8
VOLL
100
AcDbText
 10
78.07675471698113
 20
31.02594776470585
 30
0.0
 40
1.8
  1

  7
GREEKS
100
AcDbText
  0
TEXT
  5
90
330
1E
100
AcDbEntity
  8
TEXT
100
AcDbText
 10
20.92754975488837
 20
55.83599999999997
 30
0.0
 40
2.5
  1
Erstellt mit AUTOCAD 2004
 41
0.8
  7
GREEKS
100
AcDbText
  0
TEXT
  5
91
330
1E
100
AcDbEntity
  8
TEXT
100
AcDbText
 10
97.21080242906285
 20
31.54481959861755
 30
0.0
 40
2.0
  1
Koeh
 41
0.8
  7
GREEKS
 72
     1
 11
99.83937385763429
 21
31.54481959861755
 31
0.0
100
AcDbText
  0
TEXT
  5
92
330
1E
100
AcDbEntity
  8
TEXT
 62
     1
100
AcDbText
 10
171.8905253938001
 20
44.07450714456979
 30
0.0
 40
3.5
  1
08061040W
 41
0.8
  7
GREEKS
 72
     1
 11
183.6238587271335
 21
44.07450714456979
 31
0.0
100
AcDbText
  0
TEXT
  5
93
330
1E
100
AcDbEntity
  8
TEXT
 62
     1
100
AcDbText
 10
75.25031532409435
 20
44.07450714456979
 30
0.0
 40
3.5
  1
1:1
 41
0.8
  7
GREEKS
100
AcDbText
  0
TEXT
  5
94
330
1E
100
AcDbEntity
  8
TEXT
100
AcDbText
 10
80.19949855411802
 20
31.55382520412866
 30
0.0
 40
2.0
  1
04.09.
 41
0.8
  7
GREEKS
 72
     1
 11
83.70426045887993
 21
31.55382520412866
 31
0.0
100
AcDbText
  0
TEXT
  5
95
330
1E
100
AcDbEntity
  8
TEXT
 62
     1
100
AcDbText
 10
113.4467865528701
 20
43.70874394626889
 30
0.0
 40
3.5
  1
Sicherungsschelle DN40
 41
0.8
  7
GREEKS
100
AcDbText
  0
TEXT
  5
98
330
1E
100
AcDbEntity
  8
TEXT
100
AcDbText
 10
112.5648195562657
 20
25.82005971521079
 30
0.0
 40
2.5
  1
EDV-Art.Nr. 08061.040X
 41
0.8
  7
GREEKS
100
AcDbText
  0
TEXT
  5
99
330
1E
100
AcDbEntity
  8
TEXT
100
AcDbText
 10
112.4918750788913
 20
21.31487076511316
 30
0.0
 40
2.0
  1
08061040W.DWG
 41
0.8
  7
GREEKS
100
AcDbText
  0
TEXT
  5
9A
330
1E
100
AcDbEntity
  8
TEXT
100
AcDbText
 10
91.31306610404202
 20
45.38181920511511
 30
0.0
 40
2.0
  1
DIN EN1123-2
 41
0.8
  7
GREEKS
 72
     1
 11
99.80830419928011
 21
45.38181920511511
 31
0.0
100
AcDbText
  0
INSERT
  5
9B
330
1E
100
AcDbEntity
  8
STEMPEL
100
AcDbBlockReference
  2
LOGO
 10
70.4977742728897
 20
22.51052638224161
 30
0.0
  0
TEXT
  5
118
330
1E
100
AcDbEntity
  8
BEM
100
AcDbText
 10
208.6511461928583
 20
5.083950539994247
 30
0.0
 40
2.0
  1
Diese Zeichnung ist urheberrechtlich geschützt und bleibt unser Eigentum. Sie darf weder ganz noch teilweise verfielfältigt und nicht an Dritte weitergegeben werden.
 50
90.0
 41
0.8
  7
GREEKS
100
AcDbText
  0
DIMENSION
  5
24F
330
1E
100
AcDbEntity
  8
BEM
100
AcDbDimension
  2
*D1
 10
195.2750755063174
 20
265.7057830503746
 30
0.0
 11
182.1501530981848
 21
268.9557830503746
 31
0.0
 70
    32
  1
26
 71
     5
 42
26.24984481626527
  3
Standard
100
AcDbAlignedDimension
 13
169.0252306900522
 23
257.5536913726236
 33
0.0
 14
195.2750755063174
 24
250.3804324694715
 34
0.0
100
AcDbRotatedDimension
1001
ACAD
1000
DSTYLE
1002
{
1070
    41
1040
3.5
1070
    42
1040
1.0
1070
    43
1040
7.0
1070
    44
1040
1.0
1070
    73
1070
     0
1070
    74
1070
     0
1070
    77
1070
     1
1070
    78
1070
     8
1070
    79
1070
     2
1070
   140
1040
3.5
1070
   141
1040
1.5
1070
   146
1040
0.5142857142857144
1070
   147
1040
1.5
1070
   172
1070
     1
1070
   178
1070
     1
1070
   179
1070
     2
1070
   271
1070
     2
1070
   272
1070
     2
1070
   284
1070
     8
1070
   285
1070
     8
1070
   286
1070
     8
1002
}
  0
DIMENSION
  5
251
330
1E
100
AcDbEntity
  8
BEM
100
AcDbDimension
  2
*D2
 10
118.2635673266116
 20
195.2703508289792
 30
0.0
 11
75.76356732661167
 21
198.5203508289792
 31
0.0
 70
    32
 71
     5
 42
85.0
  3
Standard
100
AcDbAlignedDimension
 13
33.26356732661168
 23
233.0536913726244
 33
0.0
 14
118.2635673266116
 24
233.0536913726235
 34
0.0
100
AcDbRotatedDimension
1001
ACAD
1000
DSTYLE
1002
{
1070
    41
1040
3.5
1070
    42
1040
1.0
1070
    43
1040
7.0
1070
    44
1040
1.0
1070
    73
1070
     0
1070
    74
1070
     0
1070
    77
1070
     1
1070
    78
1070
     8
1070
    79
1070
     2
1070
   140
1040
3.5
1070
   141
1040
1.5
1070
   146
1040
0.5142857142857144
1070
   147
1040
1.5
1070
   172
1070
     1
1070
   178
1070
     1
1070
   179
1070
     2
1070
   271
1070
     2
1070
   272
1070
     2
1070
   284
1070
     8
1070
   285
1070
     8
1070
   286
1070
     8
1002
}
  0
DIMENSION
  5
252
330
1E
100
AcDbEntity
  8
BEM
100
AcDbDimension
  2
*D3
 10
130.094808310248
 20
208.5536913726237
 30
0.0
 11
126.844808310248
 21
233.0536913726236
 31
0.0
 70
    32
 71
     5
 42
48.99999999999988
  3
Standard
100
AcDbAlignedDimension
 13
99.59209828522217
 23
257.5536913726236
 33
0.0
 14
99.59209828522217
 24
208.5536913726237
 34
0.0
 50
90.0
100
AcDbRotatedDimension
1001
ACAD
1000
DSTYLE
1002
{
1070
    41
1040
3.5
1070
    42
1040
1.0
1070
    43
1040
7.0
1070
    44
1040
1.0
1070
    73
1070
     0
1070
    74
1070
     0
1070
    77
1070
     1
1070
    78
1070
     8
1070
    79
1070
     2
1070
   140
1040
3.5
1070
   141
1040
1.5
1070
   146
1040
0.5142857142857144
1070
   147
1040
1.5
1070
   172
1070
     1
1070
   178
1070
     1
1070
   179
1070
     2
1070
   271
1070
     2
1070
   272
1070
     2
1070
   284
1070
     8
1070
   285
1070
     8
1070
   286
1070
     8
1002
}
  0
LINE
  5
253
330
1E
100
AcDbEntity
  8
STEMPEL
100
AcDbLine
 10
195.2752306900521
 20
245.28961278988
 30
0.0
 11
195.2752306900521
 21
250.3804324694715
 31
0.0
  0
ARC
  5
254
330
1E
100
AcDbEntity
  8
STEMPEL
100
AcDbCircle
 10
172.5252306900521
 20
250.3804324694715
 30
0.0
 40
22.74984481626531
100
AcDbArc
 50
0.0
 51
18.37954337600928
  0
ARC
  5
255
330
1E
100
AcDbEntity
  8
STEMPEL
100
AcDbCircle
 10
194.5252306900522
 20
232.0490501130147
 30
0.0
 40
3.5
100
AcDbArc
 50
144.4084706046997
 51
180.0
  0
LINE
  5
256
330
1E
100
AcDbEntity
  8
STEMPEL
100
AcDbLine
 10
191.0252306900522
 20
232.0490501130147
 30
0.0
 11
191.0252306900522
 21
225.5536913726233
 31
0.0
  0
ARC
  5
257
330
1E
100
AcDbEntity
  8
STEMPEL
100
AcDbCircle
 10
176.0252306900521
 20
245.2896127898799
 30
0.0
 40
19.25
100
AcDbArc
 50
324.4084706046998
 51
0.0
  0
LINE
  5
258
330
1E
100
AcDbEntity
  8
STEMPEL
100
AcDbLine
 10
138.775230690052
 20
245.2896127898801
 30
0.0
 11
138.7752306900521
 21
250.3804324694716
 31
0.0
  0
ARC
  5
259
330
1E
100
AcDbEntity
  8
STEMPEL
100
AcDbCircle
 10
161.5252306900521
 20
250.3804324694715
 30
0.0
 40
22.74984481626531
100
AcDbArc
 50
161.6204566239873
 51
180.0
  0
LINE
  5
25A
330
1E
100
AcDbEntity
  8
STEMPEL
100
AcDbLine
 10
139.9358861916078
 20
257.553691372624
 30
0.0
 11
165.0252306900521
 21
257.5536913726237
 31
0.0
  0
LINE
  5
25B
330
1E
100
AcDbEntity
  8
HILF
100
AcDbLine
 10
140.4490752415725
 20
253.0918114962541
 30
0.0
 11
162.5252306900521
 21
253.0918114962538
 31
0.0
  0
LINE
  5
25C
330
1E
100
AcDbEntity
  8
HILF
100
AcDbLine
 10
104.0135673266117
 20
245.2896127898803
 30
0.0
 11
104.0135673266117
 21
250.3804324694718
 31
0.0
  0
ARC
  5
25D
330
1E
100
AcDbEntity
  8
HILF
100
AcDbCircle
 10
81.26356732661168
 20
250.3804324694718
 30
0.0
 40
22.74984481626531
100
AcDbArc
 50
0.0
 51
13.57064818981051
  0
ARC
  5
25E
330
1E
100
AcDbEntity
  8
STEMPEL
100
AcDbCircle
 10
99.59209828522217
 20
247.5536913726236
 30
0.0
 40
10.0
100
AcDbArc
 50
30.88078885155966
 51
90.0
  0
LINE
  5
25F
330
1E
100
AcDbEntity
  8
STEMPEL
100
AcDbLine
 10
171.5252306900523
 20
237.0536913726237
 30
0.0
 11
177.0252306900522
 21
237.0536913726236
 31
0.0
  0
LINE
  5
260
330
1E
100
AcDbEntity
  8
STEMPEL
100
AcDbLine
 10
165.0252306900521
 20
234.5536913726237
 30
0.0
 11
169.0252306900522
 21
234.5536913726237
 31
0.0
  0
LINE
  5
261
330
1E
100
AcDbEntity
  8
HILF
100
AcDbLine
 10
165.0252306900521
 20
233.5536913726238
 30
0.0
 11
169.0252306900522
 21
233.5536913726237
 31
0.0
  0
LINE
  5
262
330
1E
100
AcDbEntity
  8
STEMPEL
100
AcDbLine
 10
172.2752306900522
 20
230.5536913726236
 30
0.0
 11
176.2752306900522
 21
230.5536913726236
 31
0.0
  0
LINE
  5
263
330
1E
100
AcDbEntity
  8
STEMPEL
100
AcDbLine
 10
171.5252306900522
 20
224.0536913726236
 30
0.0
 11
177.0252306900522
 21
224.0536913726236
 31
0.0
  0
ARC
  5
264
330
1E
100
AcDbEntity
  8
STEMPEL
100
AcDbCircle
 10
169.6085640233855
 20
227.3036913726236
 30
0.0
 40
7.416666666666709
100
AcDbArc
 50
334.0107664161759
 51
25.98923358382413
  0
ARC
  5
265
330
1E
100
AcDbEntity
  8
STEMPEL
100
AcDbCircle
 10
178.941897356719
 20
227.3036913726236
 30
0.0
 40
7.416666666666709
100
AcDbArc
 50
154.0107664161831
 51
205.9892335838169
  0
LINE
  5
266
330
1E
100
AcDbEntity
  8
HILF
100
AcDbLine
 10
165.0252306900521
 20
227.5536913726237
 30
0.0
 11
169.0252306900522
 21
227.5536913726236
 31
0.0
  0
LINE
  5
267
330
1E
100
AcDbEntity
  8
STEMPEL
100
AcDbLine
 10
165.0252306900521
 20
226.5536913726237
 30
0.0
 11
169.0252306900522
 21
226.5536913726236
 31
0.0
  0
LINE
  5
268
330
1E
100
AcDbEntity
  8
STEMPEL
100
AcDbLine
 10
177.0252306900522
 20
237.0536913726236
 30
0.0
 11
177.0252306900522
 21
224.0536913726236
 31
0.0
  0
ARC
  5
269
330
1E
100
AcDbEntity
  8
STEMPEL
100
AcDbCircle
 10
169.6085640233856
 20
233.8036913726236
 30
0.0
 40
7.416666666666619
100
AcDbArc
 50
334.0107664161731
 51
25.98923358382413
  0
ARC
  5
26A
330
1E
100
AcDbEntity
  8
STEMPEL
100
AcDbCircle
 10
178.9418973567189
 20
233.8036913726236
 30
0.0
 40
7.416666666666619
100
AcDbArc
 50
154.0107664161831
 51
205.9892335838169
  0
LINE
  5
26B
330
1E
100
AcDbEntity
  8
STEMPEL
100
AcDbLine
 10
147.5252306900522
 20
234.553691372624
 30
0.0
 11
146.5252306900522
 21
233.553691372624
 31
0.0
  0
LINE
  5
26C
330
1E
100
AcDbEntity
  8
STEMPEL
100
AcDbLine
 10
147.5252306900522
 20
234.553691372624
 30
0.0
 11
158.0252306900521
 21
234.5536913726239
 31
0.0
  0
LINE
  5
26D
330
1E
100
AcDbEntity
  8
HILF
100
AcDbLine
 10
146.5252306900522
 20
233.553691372624
 30
0.0
 11
158.0252306900521
 21
233.5536913726239
 31
0.0
  0
ARC
  5
26E
330
1E
100
AcDbEntity
  8
STEMPEL
100
AcDbCircle
 10
165.4418973567189
 20
227.3036913726238
 30
0.0
 40
7.416666666666709
100
AcDbArc
 50
154.0107664161831
 51
205.9892335838169
  0
LINE
  5
26F
330
1E
100
AcDbEntity
  8
STEMPEL
100
AcDbLine
 10
146.5252306900522
 20
227.553691372624
 30
0.0
 11
147.5252306900522
 21
226.553691372624
 31
0.0
  0
LINE
  5
270
330
1E
100
AcDbEntity
  8
STEMPEL
100
AcDbLine
 10
147.5252306900522
 20
226.553691372624
 30
0.0
 11
158.0252306900521
 21
226.5536913726238
 31
0.0
  0
LINE
  5
271
330
1E
100
AcDbEntity
  8
HILF
100
AcDbLine
 10
146.5252306900522
 20
227.553691372624
 30
0.0
 11
158.0252306900521
 21
227.5536913726238
 31
0.0
  0
LINE
  5
272
330
1E
100
AcDbEntity
  8
STEMPEL
100
AcDbLine
 10
158.0252306900521
 20
237.0536913726238
 30
0.0
 11
158.0252306900521
 21
224.0536913726238
 31
0.0
  0
ARC
  5
273
330
1E
100
AcDbEntity
  8
STEMPEL
100
AcDbCircle
 10
165.4418973567187
 20
233.8036913726238
 30
0.0
 40
7.416666666666619
100
AcDbArc
 50
154.0107664161831
 51
205.9892335838169
  0
LINE
  5
274
330
1E
100
AcDbEntity
  8
STEMPEL
100
AcDbLine
 10
147.5252306900522
 20
234.553691372624
 30
0.0
 11
147.5252306900522
 21
226.553691372624
 31
0.0
  0
LINE
  5
275
330
1E
100
AcDbEntity
  8
STEMPEL
100
AcDbLine
 10
146.5252306900522
 20
233.553691372624
 30
0.0
 11
146.5252306900522
 21
227.553691372624
 31
0.0
  0
LINE
  5
276
330
1E
100
AcDbEntity
  8
STEMPEL
100
AcDbLine
 10
158.0252306900521
 20
237.0536913726238
 30
0.0
 11
162.5252306900521
 21
237.0536913726238
 31
0.0
  0
LINE
  5
277
330
1E
100
AcDbEntity
  8
STEMPEL
100
AcDbLine
 10
158.0252306900521
 20
224.0536913726238
 30
0.0
 11
162.5252306900521
 21
224.0536913726237
 31
0.0
  0
LINE
  5
278
330
1E
100
AcDbEntity
  8
STEMPEL
100
AcDbLine
 10
158.7752306900522
 20
230.5536913726238
 30
0.0
 11
162.5252306900521
 21
230.5536913726238
 31
0.0
  0
ARC
  5
279
330
1E
100
AcDbEntity
  8
STEMPEL
100
AcDbCircle
 10
139.5252306900522
 20
232.0490501130144
 30
0.0
 40
3.5
100
AcDbArc
 50
0.0
 51
35.59152939530318
  0
LINE
  5
27A
330
1E
100
AcDbEntity
  8
STEMPEL
100
AcDbLine
 10
143.0252306900521
 20
232.0490501130144
 30
0.0
 11
143.0252306900521
 21
208.553691372624
 31
0.0
  0
LINE
  5
27B
330
1E
100
AcDbEntity
  8
STEMPEL
100
AcDbLine
 10
143.0252306900521
 20
208.553691372624
 30
0.0
 11
165.0252306900522
 21
208.5536913726237
 31
0.0
  0
LINE
  5
27C
330
1E
100
AcDbEntity
  8
HILF
100
AcDbLine
 10
140.6863900363105
 20
241.4913099077812
 30
0.0
 11
162.5252306900521
 21
241.4913099077809
 31
0.0
  0
LINE
  5
27D
330
1E
100
AcDbEntity
  8
HILF
100
AcDbLine
 10
144.1825879707197
 20
233.868122173218
 30
0.0
 11
146.8396614906462
 21
233.868122173218
 31
0.0
  0
LINE
  5
27E
330
1E
100
AcDbEntity
  8
STEMPEL
100
AcDbLine
 10
107.0107905768791
 20
237.0536913726235
 30
0.0
 11
114.5163440763443
 21
237.0536913726235
 31
0.0
  0
ARC
  5
27F
330
1E
100
AcDbEntity
  8
STEMPEL
100
AcDbCircle
 10
108.2635673266117
 20
233.0536913726235
 30
0.0
 40
10.0
100
AcDbArc
 50
329.1192111484404
 51
337.4729600701851
  0
LINE
  5
280
330
1E
100
AcDbEntity
  8
STEMPEL
100
AcDbLine
 10
107.010790576879
 20
224.0536913726236
 30
0.0
 11
114.5163440763442
 21
224.0536913726235
 31
0.0
  0
LINE
  5
281
330
1E
100
AcDbEntity
  8
STEMPEL
100
AcDbLine
 10
114.5163440763442
 20
224.0536913726235
 30
0.0
 11
118.2691208260768
 21
230.5536913726235
 31
0.0
  0
LINE
  5
282
330
1E
100
AcDbEntity
  8
STEMPEL
100
AcDbLine
 10
118.2691208260768
 20
230.5536913726235
 30
0.0
 11
114.5163440763443
 21
237.0536913726235
 31
0.0
  0
ARC
  5
283
330
1E
100
AcDbEntity
  8
STEMPEL
100
AcDbCircle
 10
108.2635673266117
 20
233.0536913726235
 30
0.0
 40
10.0
100
AcDbArc
 50
347.8598921302329
 51
30.88078885155966
  0
ARC
  5
284
330
1E
100
AcDbEntity
  8
HILF
100
AcDbCircle
 10
103.2635673266117
 20
232.0490501130151
 30
0.0
 40
3.5
100
AcDbArc
 50
144.4084706046997
 51
180.0
  0
CIRCLE
  5
285
330
1E
100
AcDbEntity
  8
STEMPEL
100
AcDbCircle
 10
110.7635673266117
 20
230.5536913726235
 30
0.0
 40
6.5
  0
LINE
  5
286
330
1E
100
AcDbEntity
  8
STEMPEL
100
AcDbLine
 10
103.2580138271465
 20
230.5536913726235
 30
0.0
 11
107.0107905768791
 21
237.0536913726235
 31
0.0
  0
LINE
  5
287
330
1E
100
AcDbEntity
  8
STEMPEL
100
AcDbLine
 10
107.010790576879
 20
224.0536913726236
 30
0.0
 11
103.2580138271465
 21
230.5536913726235
 31
0.0
  0
ARC
  5
288
330
1E
100
AcDbEntity
  8
STEMPEL
100
AcDbCircle
 10
99.59209828522228
 20
218.5536913726237
 30
0.0
 40
10.0
100
AcDbArc
 50
270.0
 51
329.1192111484404
  0
LINE
  5
289
330
1E
100
AcDbEntity
  8
HILF
100
AcDbLine
 10
99.76356732661168
 20
232.0490501130151
 30
0.0
 11
99.76356732661168
 21
209.5536913726236
 31
0.0
  0
LINE
  5
28A
330
1E
100
AcDbEntity
  8
MITTEL
100
AcDbLine
 10
110.7635673266117
 20
240.5536913726235
 30
0.0
 11
110.7635673266117
 21
220.5536913726235
 31
0.0
  0
LINE
  5
28B
330
1E
100
AcDbEntity
  8
STEMPEL
100
AcDbLine
 10
108.1744687525746
 20
213.421156213356
 30
0.0
 11
116.8459377939641
 21
227.9211562133561
 31
0.0
  0
LINE
  5
28C
330
1E
100
AcDbEntity
  8
MITTEL
100
AcDbLine
 10
75.76356732661167
 20
262.5536913726239
 30
0.0
 11
75.76356732661167
 21
203.553691372624
 31
0.0
  0
ARC
  5
28D
330
1E
100
AcDbEntity
  8
HILF
100
AcDbCircle
 10
84.76356732661168
 20
245.2896127898803
 30
0.0
 40
19.25
100
AcDbArc
 50
324.4084706046998
 51
0.0
  0
LINE
  5
28E
330
1E
100
AcDbEntity
  8
MITTEL
100
AcDbLine
 10
167.0252306900521
 20
262.5536913726237
 30
0.0
 11
167.0252306900522
 21
203.5536913726237
 31
0.0
  0
ARC
  5
28F
330
1E
100
AcDbEntity
  8
STEMPEL
100
AcDbCircle
 10
158.025230690052
 20
245.2896127898799
 30
0.0
 40
19.25
100
AcDbArc
 50
180.0
 51
215.5915293953033
  0
LINE
  5
290
330
1E
100
AcDbEntity
  8
STEMPEL
100
AcDbLine
 10
108.1744687525745
 20
252.6862265318912
 30
0.0
 11
116.8459377939641
 21
238.186226531891
 31
0.0
  0
LINE
  5
291
330
1E
100
AcDbEntity
  8
STEMPEL
100
AcDbLine
 10
169.0252306900522
 20
257.5536913726236
 30
0.0
 11
169.0252306900522
 21
208.5536913726234
 31
0.0
  0
LINE
  5
292
330
1E
100
AcDbEntity
  8
STEMPEL
100
AcDbLine
 10
165.0252306900521
 20
257.5536913726237
 30
0.0
 11
165.0252306900521
 21
208.553691372624
 31
0.0
  0
LINE
  5
293
330
1E
100
AcDbEntity
  8
STEMPEL
100
AcDbLine
 10
171.5252306900522
 20
257.5536913726236
 30
0.0
 11
171.5252306900522
 21
208.5536913726234
 31
0.0
  0
LINE
  5
294
330
1E
100
AcDbEntity
  8
STEMPEL
100
AcDbLine
 10
162.5252306900521
 20
257.5536913726237
 30
0.0
 11
162.5252306900521
 21
208.553691372624
 31
0.0
  0
LINE
  5
295
330
1E
100
AcDbEntity
  8
HILF
100
AcDbLine
 10
47.51356732661156
 20
245.2896127898804
 30
0.0
 11
47.51356732661167
 21
250.3804324694719
 31
0.0
  0
ARC
  5
296
330
1E
100
AcDbEntity
  8
HILF
100
AcDbCircle
 10
70.26356732661168
 20
250.3804324694718
 30
0.0
 40
22.74984481626531
100
AcDbArc
 50
166.4293518101861
 51
180.0
  0
ARC
  5
297
330
1E
100
AcDbEntity
  8
STEMPEL
100
AcDbCircle
 10
51.93503636800108
 20
247.5536913726243
 30
0.0
 40
10.0
100
AcDbArc
 50
90.0
 51
149.1192111484403
  0
LINE
  5
298
330
1E
100
AcDbEntity
  8
STEMPEL
100
AcDbLine
 10
44.51634407634424
 20
224.0536913726244
 30
0.0
 11
48.2691208260768
 21
230.5536913726244
 31
0.0
  0
ARC
  5
299
330
1E
100
AcDbEntity
  8
HILF
100
AcDbCircle
 10
48.26356732661167
 20
232.0490501130148
 30
0.0
 40
3.5
100
AcDbArc
 50
0.0
 51
35.59152939530318
  0
LINE
  5
29A
330
1E
100
AcDbEntity
  8
STEMPEL
100
AcDbLine
 10
48.2691208260768
 20
230.5536913726244
 30
0.0
 11
44.51634407634429
 21
237.0536913726244
 31
0.0
  0
ARC
  5
29B
330
1E
100
AcDbEntity
  8
STEMPEL
100
AcDbCircle
 10
43.26356732661167
 20
233.0536913726244
 30
0.0
 40
10.0
100
AcDbArc
 50
202.5270399298149
 51
210.8807888515597
  0
LINE
  5
29C
330
1E
100
AcDbEntity
  8
STEMPEL
100
AcDbLine
 10
37.01079057687906
 20
224.0536913726245
 30
0.0
 11
33.25801382714656
 21
230.5536913726244
 31
0.0
  0
ARC
  5
29D
330
1E
100
AcDbEntity
  8
STEMPEL
100
AcDbCircle
 10
43.26356732661167
 20
233.0536913726244
 30
0.0
 40
10.0
100
AcDbArc
 50
149.1192111484403
 51
192.1401078697671
  0
LINE
  5
29E
330
1E
100
AcDbEntity
  8
STEMPEL
100
AcDbLine
 10
33.25801382714656
 20
230.5536913726244
 30
0.0
 11
37.01079057687912
 21
237.0536913726245
 31
0.0
  0
LINE
  5
29F
330
1E
100
AcDbEntity
  8
STEMPEL
100
AcDbLine
 10
37.01079057687912
 20
237.0536913726245
 30
0.0
 11
44.51634407634429
 21
237.0536913726244
 31
0.0
  0
LINE
  5
2A0
330
1E
100
AcDbEntity
  8
STEMPEL
100
AcDbLine
 10
37.01079057687906
 20
224.0536913726245
 30
0.0
 11
44.51634407634424
 21
224.0536913726244
 31
0.0
  0
CIRCLE
  5
2A1
330
1E
100
AcDbEntity
  8
STEMPEL
100
AcDbCircle
 10
40.76356732661167
 20
230.5536913726244
 30
0.0
 40
6.5
  0
ARC
  5
2A2
330
1E
100
AcDbEntity
  8
STEMPEL
100
AcDbCircle
 10
51.93503636800119
 20
218.5536913726243
 30
0.0
 40
10.0
100
AcDbArc
 50
210.8807888515597
 51
270.0
  0
LINE
  5
2A3
330
1E
100
AcDbEntity
  8
HILF
100
AcDbLine
 10
51.76356732661168
 20
232.0490501130148
 30
0.0
 11
51.76356732661168
 21
209.5536913726243
 31
0.0
  0
LINE
  5
2A4
330
1E
100
AcDbEntity
  8
MITTEL
100
AcDbLine
 10
40.76356732661167
 20
240.5536913726245
 30
0.0
 11
40.76356732661167
 21
220.5536913726245
 31
0.0
  0
LINE
  5
2A5
330
1E
100
AcDbEntity
  8
STEMPEL
100
AcDbLine
 10
43.35266590064884
 20
213.4211562133567
 30
0.0
 11
34.68119685925922
 21
227.921156213357
 31
0.0
  0
ARC
  5
2A6
330
1E
100
AcDbEntity
  8
HILF
100
AcDbCircle
 10
66.76356732661156
 20
245.2896127898803
 30
0.0
 40
19.25
100
AcDbArc
 50
180.0
 51
215.5915293953033
  0
LINE
  5
2A7
330
1E
100
AcDbEntity
  8
STEMPEL
100
AcDbLine
 10
43.35266590064873
 20
252.686226531892
 30
0.0
 11
34.68119685925922
 21
238.1862265318919
 31
0.0
  0
LINE
  5
2A8
330
1E
100
AcDbEntity
  8
STEMPEL
100
AcDbLine
 10
51.93503636800119
 20
257.5536913726243
 30
0.0
 11
99.59209828522233
 21
257.5536913726236
 31
0.0
  0
LINE
  5
2A9
330
1E
100
AcDbEntity
  8
STEMPEL
100
AcDbLine
 10
51.93503636800096
 20
208.5536913726243
 30
0.0
 11
99.59209828522217
 21
208.5536913726237
 31
0.0
  0
LINE
  5
2AA
330
1E
100
AcDbEntity
  8
MITTEL
100
AcDbLine
 10
28.47336786886251
 20
230.5536913726246
 30
0.0
 11
123.0537667843607
 21
230.5536913726233
 31
0.0
  0
LINE
  5
2AB
330
1E
100
AcDbEntity
  8
HILF
100
AcDbLine
 10
52.92092460727923
 20
233.8681221732183
 30
0.0
 11
98.60621004594385
 21
233.8681221732177
 31
0.0
  0
LINE
  5
2AC
330
1E
100
AcDbEntity
  8
HILF
100
AcDbLine
 10
49.42472667287001
 20
241.4913099077816
 30
0.0
 11
102.102407980353
 21
241.4913099077808
 31
0.0
  0
LINE
  5
2AD
330
1E
100
AcDbEntity
  8
HILF
100
AcDbLine
 10
49.18741187813196
 20
253.0918114962544
 30
0.0
 11
102.3397227750915
 21
253.0918114962537
 31
0.0
  0
LINE
  5
2B3
330
1E
100
AcDbEntity
  8
STEMPEL
100
AcDbLine
 10
107.7635673266116
 20
146.4000710453853
 30
0.0
 11
113.7635673266117
 21
146.4000710453853
 31
0.0
  0
LINE
  5
2B4
330
1E
100
AcDbEntity
  8
STEMPEL
100
AcDbLine
 10
114.7635673266117
 20
145.4000710453852
 30
0.0
 11
113.7635673266117
 21
146.4000710453853
 31
0.0
  0
LINE
  5
2B5
330
1E
100
AcDbEntity
  8
STEMPEL
100
AcDbLine
 10
118.2691208260768
 20
134.1500710453852
 30
0.0
 11
118.2691208260768
 21
131.1500710453853
 31
0.0
  0
ARC
  5
2B6
330
1E
100
AcDbEntity
  8
STEMPEL
100
AcDbCircle
 10
110.7635673266117
 20
125.1361821564964
 30
0.0
 40
9.763888888888899
100
AcDbArc
 50
67.39644098484557
 51
112.6035590151544
  0
ARC
  5
2B7
330
1E
100
AcDbEntity
  8
STEMPEL
100
AcDbCircle
 10
110.7635673266117
 20
140.1639599342742
 30
0.0
 40
9.763888888888899
100
AcDbArc
 50
247.3964409848455
 51
292.6035590151544
  0
LINE
  5
2B8
330
1E
100
AcDbEntity
  8
STEMPEL
100
AcDbLine
 10
107.0107905768791
 20
134.1500710453853
 30
0.0
 11
107.0107905768791
 21
131.1500710453853
 31
0.0
  0
LINE
  5
2B9
330
1E
100
AcDbEntity
  8
STEMPEL
100
AcDbLine
 10
114.5163440763443
 20
134.1500710453852
 30
0.0
 11
114.5163440763443
 21
131.1500710453853
 31
0.0
  0
ARC
  5
2BA
330
1E
100
AcDbEntity
  8
STEMPEL
100
AcDbCircle
 10
116.3927324512106
 20
132.1778488231631
 30
0.0
 40
2.722222222222178
100
AcDbArc
 50
46.42642140347557
 51
133.5735785965244
  0
ARC
  5
2BB
330
1E
100
AcDbEntity
  8
STEMPEL
100
AcDbCircle
 10
116.3927324512106
 20
133.1222932676074
 30
0.0
 40
2.722222222222178
100
AcDbArc
 50
226.4264214034756
 51
313.5735785965244
  0
LINE
  5
2BC
330
1E
100
AcDbEntity
  8
STEMPEL
100
AcDbLine
 10
114.7635673266117
 20
145.4000710453852
 30
0.0
 11
114.7635673266117
 21
134.9000710453853
 31
0.0
  0
LINE
  5
2BD
330
1E
100
AcDbEntity
  8
HILF
100
AcDbLine
 10
113.7635673266117
 20
146.4000710453853
 30
0.0
 11
113.7635673266117
 21
134.9000710453853
 31
0.0
  0
LINE
  5
2BE
330
1E
100
AcDbEntity
  8
HILF
100
AcDbLine
 10
107.7635673266116
 20
146.4000710453853
 30
0.0
 11
107.7635673266116
 21
134.9000710453853
 31
0.0
  0
ARC
  5
2BF
330
1E
100
AcDbEntity
  8
STEMPEL
100
AcDbCircle
 10
106.1002200753917
 20
133.4000710453852
 30
0.0
 40
3.0
100
AcDbArc
 50
193.8865403626295
 51
270.0
  0
LINE
  5
2C0
330
1E
100
AcDbEntity
  8
STEMPEL
100
AcDbLine
 10
103.2580138271465
 20
134.1500710453852
 30
0.0
 11
103.2580138271465
 21
132.4399337414352
 31
0.0
  0
LINE
  5
2C1
330
1E
100
AcDbEntity
  8
STEMPEL
100
AcDbLine
 10
106.7635673266116
 20
145.4000710453852
 30
0.0
 11
106.7635673266116
 21
134.9000710453853
 31
0.0
  0
LINE
  5
2C2
330
1E
100
AcDbEntity
  8
STEMPEL
100
AcDbLine
 10
106.1002200753917
 20
130.4000710453852
 30
0.0
 11
118.2635673266116
 21
130.4000710453852
 31
0.0
  0
LINE
  5
2C3
330
1E
100
AcDbEntity
  8
STEMPEL
100
AcDbLine
 10
116.3927324512106
 20
134.9000710453853
 30
0.0
 11
105.1344022020128
 21
134.9000710453853
 31
0.0
  0
ARC
  5
2C4
330
1E
100
AcDbEntity
  8
STEMPEL
100
AcDbCircle
 10
105.1344022020128
 20
132.177848823163
 30
0.0
 40
2.722222222222255
100
AcDbArc
 50
46.42642140347787
 51
133.5735785965219
  0
ARC
  5
2C5
330
1E
100
AcDbEntity
  8
STEMPEL
100
AcDbCircle
 10
105.1344022020128
 20
133.1222932676075
 30
0.0
 40
2.722222222222255
100
AcDbArc
 50
279.9655310322769
 51
313.5735785965221
  0
LINE
  5
2C6
330
1E
100
AcDbEntity
  8
STEMPEL
100
AcDbLine
 10
106.7635673266116
 20
145.4000710453852
 30
0.0
 11
114.7635673266117
 21
145.4000710453852
 31
0.0
  0
LINE
  5
2C7
330
1E
100
AcDbEntity
  8
STEMPEL
100
AcDbLine
 10
107.7635673266116
 20
146.4000710453853
 30
0.0
 11
106.7635673266116
 21
145.4000710453852
 31
0.0
  0
LINE
  5
2C8
330
1E
100
AcDbEntity
  8
STEMPEL
100
AcDbLine
 10
118.2691208260768
 20
121.4000710453853
 30
0.0
 11
118.2691208260768
 21
116.6500710453852
 31
0.0
  0
LINE
  5
2C9
330
1E
100
AcDbEntity
  8
STEMPEL
100
AcDbLine
 10
118.2635673266116
 20
123.9000710453853
 30
0.0
 11
118.2635673266116
 21
121.4000710453853
 31
0.0
  0
LINE
  5
2CA
330
1E
100
AcDbEntity
  8
STEMPEL
100
AcDbLine
 10
114.7635673266117
 20
127.9000710453853
 30
0.0
 11
114.7635673266117
 21
123.9000710453853
 31
0.0
  0
LINE
  5
2CB
330
1E
100
AcDbEntity
  8
HILF
100
AcDbLine
 10
113.7635673266117
 20
127.9000710453853
 30
0.0
 11
113.7635673266117
 21
123.9000710453853
 31
0.0
  0
LINE
  5
2CC
330
1E
100
AcDbEntity
  8
HILF
100
AcDbLine
 10
107.7635673266116
 20
127.9000710453853
 30
0.0
 11
107.7635673266116
 21
123.9000710453853
 31
0.0
  0
LINE
  5
2CD
330
1E
100
AcDbEntity
  8
STEMPEL
100
AcDbLine
 10
114.5163440763443
 20
121.4000710453853
 30
0.0
 11
114.5163440763443
 21
116.6500710453853
 31
0.0
  0
LINE
  5
2CE
330
1E
100
AcDbEntity
  8
STEMPEL
100
AcDbLine
 10
107.0107905768791
 20
121.4000710453853
 30
0.0
 11
107.0107905768791
 21
116.6500710453853
 31
0.0
  0
ARC
  5
2CF
330
1E
100
AcDbEntity
  8
STEMPEL
100
AcDbCircle
 10
110.7635673266117
 20
125.6639599342743
 30
0.0
 40
9.763888888889027
100
AcDbArc
 50
247.3964409848455
 51
292.6035590151544
  0
ARC
  5
2D0
330
1E
100
AcDbEntity
  8
STEMPEL
100
AcDbCircle
 10
116.3927324512106
 20
118.6222932676074
 30
0.0
 40
2.722222222222158
100
AcDbArc
 50
226.4264214034756
 51
313.5735785965244
  0
LINE
  5
2D1
330
1E
100
AcDbEntity
  8
STEMPEL
100
AcDbLine
 10
106.7635673266116
 20
127.9000710453853
 30
0.0
 11
106.7635673266116
 21
123.9000710453853
 31
0.0
  0
ARC
  5
2D2
330
1E
100
AcDbEntity
  8
STEMPEL
100
AcDbCircle
 10
106.1002200753917
 20
118.4000710453853
 30
0.0
 40
3.0
100
AcDbArc
 50
90.0
 51
166.1134596373704
  0
LINE
  5
2D3
330
1E
100
AcDbEntity
  8
STEMPEL
100
AcDbLine
 10
103.2580138271465
 20
119.3602083493354
 30
0.0
 11
103.2580138271465
 21
116.6500710453853
 31
0.0
  0
ARC
  5
2D4
330
1E
100
AcDbEntity
  8
STEMPEL
100
AcDbCircle
 10
106.1002200753917
 20
118.4000710453853
 30
0.0
 40
5.5
100
AcDbArc
 50
90.0
 51
166.1134596373704
  0
ARC
  5
2D5
330
1E
100
AcDbEntity
  8
STEMPEL
100
AcDbCircle
 10
101.7009920252976
 20
118.4000710453853
 30
0.0
 40
5.5
100
AcDbArc
 50
90.0
 51
163.8723797868396
  0
LINE
  5
2D6
330
1E
100
AcDbEntity
  8
STEMPEL
100
AcDbLine
 10
101.7009920252976
 20
127.9000710453853
 30
0.0
 11
118.2635673266116
 21
127.9000710453853
 31
0.0
  0
LINE
  5
2D7
330
1E
100
AcDbEntity
  8
STEMPEL
100
AcDbLine
 10
101.7009920252976
 20
123.9000710453853
 30
0.0
 11
118.2635673266116
 21
123.9000710453853
 31
0.0
  0
LINE
  5
2D8
330
1E
100
AcDbEntity
  8
STEMPEL
100
AcDbLine
 10
106.1002200753917
 20
121.4000710453853
 30
0.0
 11
118.2635673266116
 21
121.4000710453853
 31
0.0
  0
LINE
  5
2D9
330
1E
100
AcDbEntity
  8
STEMPEL
100
AcDbLine
 10
116.3927324512106
 20
115.9000710453852
 30
0.0
 11
105.1344022020128
 21
115.9000710453853
 31
0.0
  0
ARC
  5
2DA
330
1E
100
AcDbEntity
  8
STEMPEL
100
AcDbCircle
 10
105.1344022020128
 20
118.6222932676075
 30
0.0
 40
2.722222222222255
100
AcDbArc
 50
226.426421403478
 51
313.5735785965221
  0
LINE
  5
2DB
330
1E
100
AcDbEntity
  8
STEMPEL
100
AcDbLine
 10
118.2635673266116
 20
130.4000710453852
 30
0.0
 11
118.2635673266116
 21
127.9000710453853
 31
0.0
  0
ARC
  5
2DC
330
1E
100
AcDbEntity
  8
STEMPEL
100
AcDbCircle
 10
106.1002200753917
 20
133.4000710453853
 30
0.0
 40
5.5
100
AcDbArc
 50
193.8865403626295
 51
270.0
  0
ARC
  5
2DD
330
1E
100
AcDbEntity
  8
STEMPEL
100
AcDbCircle
 10
101.7009920252976
 20
133.4000710453853
 30
0.0
 40
5.5
100
AcDbArc
 50
196.1276202131612
 51
270.0
  0
LINE
  5
2E0
330
1E
100
AcDbEntity
  8
STEMPEL
100
AcDbLine
 10
44.76356732661168
 20
145.4000710453852
 30
0.0
 11
43.76356732661167
 21
146.4000710453852
 31
0.0
  0
ARC
  5
2E1
330
1E
100
AcDbEntity
  8
STEMPEL
100
AcDbCircle
 10
46.39273245121052
 20
132.177848823163
 30
0.0
 40
2.722222222222255
100
AcDbArc
 50
46.42642140347787
 51
133.5735785965219
  0
ARC
  5
2E2
330
1E
100
AcDbEntity
  8
STEMPEL
100
AcDbCircle
 10
45.42691457783172
 20
133.4000710453853
 30
0.0
 40
3.0
100
AcDbArc
 50
270.0
 51
346.1134596373705
  0
ARC
  5
2E3
330
1E
100
AcDbEntity
  8
STEMPEL
100
AcDbCircle
 10
46.39273245121052
 20
133.1222932676075
 30
0.0
 40
2.722222222222255
100
AcDbArc
 50
226.426421403478
 51
260.0344689677231
  0
LINE
  5
2E4
330
1E
100
AcDbEntity
  8
STEMPEL
100
AcDbLine
 10
44.51634407634424
 20
134.1500710453853
 30
0.0
 11
44.51634407634424
 21
131.1500710453853
 31
0.0
  0
LINE
  5
2E5
330
1E
100
AcDbEntity
  8
STEMPEL
100
AcDbLine
 10
48.2691208260768
 20
134.1500710453852
 30
0.0
 11
48.2691208260768
 21
132.4399337414352
 31
0.0
  0
LINE
  5
2E6
330
1E
100
AcDbEntity
  8
STEMPEL
100
AcDbLine
 10
44.76356732661168
 20
145.4000710453852
 30
0.0
 11
44.76356732661168
 21
134.9000710453853
 31
0.0
  0
LINE
  5
2E7
330
1E
100
AcDbEntity
  8
HILF
100
AcDbLine
 10
43.76356732661167
 20
146.4000710453852
 30
0.0
 11
43.76356732661167
 21
134.9000710453853
 31
0.0
  0
LINE
  5
2E8
330
1E
100
AcDbEntity
  8
STEMPEL
100
AcDbLine
 10
36.76356732661168
 20
145.4000710453852
 30
0.0
 11
37.76356732661168
 21
146.4000710453852
 31
0.0
  0
ARC
  5
2E9
330
1E
100
AcDbEntity
  8
STEMPEL
100
AcDbCircle
 10
35.13440220201278
 20
132.1778488231631
 30
0.0
 40
2.722222222222178
100
AcDbArc
 50
46.42642140347557
 51
133.5735785965244
  0
ARC
  5
2EA
330
1E
100
AcDbEntity
  8
STEMPEL
100
AcDbCircle
 10
35.13440220201278
 20
133.1222932676074
 30
0.0
 40
2.722222222222178
100
AcDbArc
 50
226.4264214034756
 51
313.5735785965244
  0
LINE
  5
2EB
330
1E
100
AcDbEntity
  8
STEMPEL
100
AcDbLine
 10
33.25801382714656
 20
134.1500710453852
 30
0.0
 11
33.25801382714656
 21
131.1500710453853
 31
0.0
  0
LINE
  5
2EC
330
1E
100
AcDbEntity
  8
STEMPEL
100
AcDbLine
 10
37.01079057687906
 20
134.1500710453852
 30
0.0
 11
37.01079057687906
 21
131.1500710453853
 31
0.0
  0
LINE
  5
2ED
330
1E
100
AcDbEntity
  8
STEMPEL
100
AcDbLine
 10
36.76356732661168
 20
145.4000710453852
 30
0.0
 11
36.76356732661168
 21
134.9000710453853
 31
0.0
  0
LINE
  5
2EE
330
1E
100
AcDbEntity
  8
HILF
100
AcDbLine
 10
37.76356732661168
 20
146.4000710453852
 30
0.0
 11
37.76356732661168
 21
134.9000710453853
 31
0.0
  0
LINE
  5
2EF
330
1E
100
AcDbEntity
  8
STEMPEL
100
AcDbLine
 10
33.25801382714656
 20
130.4000710453853
 30
0.0
 11
45.42691457783172
 21
130.4000710453853
 31
0.0
  0
LINE
  5
2F0
330
1E
100
AcDbEntity
  8
STEMPEL
100
AcDbLine
 10
35.13440220201278
 20
134.9000710453853
 30
0.0
 11
46.39273245121052
 21
134.9000710453853
 31
0.0
  0
ARC
  5
2F1
330
1E
100
AcDbEntity
  8
STEMPEL
100
AcDbCircle
 10
40.76356732661167
 20
125.1361821564964
 30
0.0
 40
9.763888888888899
100
AcDbArc
 50
67.39644098484557
 51
112.6035590151544
  0
ARC
  5
2F2
330
1E
100
AcDbEntity
  8
STEMPEL
100
AcDbCircle
 10
40.76356732661167
 20
140.1639599342742
 30
0.0
 40
9.763888888888899
100
AcDbArc
 50
247.3964409848455
 51
292.6035590151544
  0
LINE
  5
2F3
330
1E
100
AcDbEntity
  8
STEMPEL
100
AcDbLine
 10
37.76356732661168
 20
146.4000710453852
 30
0.0
 11
43.76356732661167
 21
146.4000710453852
 31
0.0
  0
LINE
  5
2F4
330
1E
100
AcDbEntity
  8
STEMPEL
100
AcDbLine
 10
36.76356732661168
 20
145.4000710453852
 30
0.0
 11
44.76356732661168
 21
145.4000710453852
 31
0.0
  0
ARC
  5
2F5
330
1E
100
AcDbEntity
  8
STEMPEL
100
AcDbCircle
 10
49.82614262792577
 20
118.4000710453853
 30
0.0
 40
5.5
100
AcDbArc
 50
16.12762021316035
 51
90.0
  0
LINE
  5
2F6
330
1E
100
AcDbEntity
  8
STEMPEL
100
AcDbLine
 10
44.76356732661168
 20
127.9000710453853
 30
0.0
 11
44.76356732661168
 21
123.9000710453853
 31
0.0
  0
LINE
  5
2F7
330
1E
100
AcDbEntity
  8
HILF
100
AcDbLine
 10
43.76356732661167
 20
127.9000710453853
 30
0.0
 11
43.76356732661167
 21
123.9000710453853
 31
0.0
  0
ARC
  5
2F8
330
1E
100
AcDbEntity
  8
STEMPEL
100
AcDbCircle
 10
45.42691457783172
 20
118.4000710453853
 30
0.0
 40
3.0
100
AcDbArc
 50
13.88654036262952
 51
90.0
  0
LINE
  5
2F9
330
1E
100
AcDbEntity
  8
STEMPEL
100
AcDbLine
 10
48.2691208260768
 20
119.3602083493354
 30
0.0
 11
48.2691208260768
 21
116.6500710453853
 31
0.0
  0
LINE
  5
2FA
330
1E
100
AcDbEntity
  8
STEMPEL
100
AcDbLine
 10
44.51634407634424
 20
121.4000710453853
 30
0.0
 11
44.51634407634424
 21
116.6500710453853
 31
0.0
  0
ARC
  5
2FB
330
1E
100
AcDbEntity
  8
STEMPEL
100
AcDbCircle
 10
45.42691457783172
 20
118.4000710453853
 30
0.0
 40
5.5
100
AcDbArc
 50
13.88654036262952
 51
90.0
  0
ARC
  5
2FC
330
1E
100
AcDbEntity
  8
STEMPEL
100
AcDbCircle
 10
46.39273245121052
 20
118.6222932676075
 30
0.0
 40
2.722222222222255
100
AcDbArc
 50
226.426421403478
 51
313.5735785965221
  0
LINE
  5
2FD
330
1E
100
AcDbEntity
  8
HILF
100
AcDbLine
 10
37.76356732661168
 20
127.9000710453853
 30
0.0
 11
37.76356732661168
 21
123.9000710453853
 31
0.0
  0
LINE
  5
2FE
330
1E
100
AcDbEntity
  8
STEMPEL
100
AcDbLine
 10
36.76356732661168
 20
127.9000710453853
 30
0.0
 11
36.76356732661168
 21
123.9000710453853
 31
0.0
  0
LINE
  5
2FF
330
1E
100
AcDbEntity
  8
STEMPEL
100
AcDbLine
 10
37.01079057687906
 20
121.4000710453853
 30
0.0
 11
37.01079057687906
 21
116.6500710453853
 31
0.0
  0
LINE
  5
300
330
1E
100
AcDbEntity
  8
STEMPEL
100
AcDbLine
 10
33.25801382714656
 20
121.4000710453853
 30
0.0
 11
33.25801382714656
 21
116.6500710453852
 31
0.0
  0
LINE
  5
301
330
1E
100
AcDbEntity
  8
STEMPEL
100
AcDbLine
 10
33.26356732661168
 20
123.9000710453852
 30
0.0
 11
33.26356732661168
 21
121.4000710453853
 31
0.0
  0
ARC
  5
302
330
1E
100
AcDbEntity
  8
STEMPEL
100
AcDbCircle
 10
35.13440220201278
 20
118.6222932676074
 30
0.0
 40
2.722222222222158
100
AcDbArc
 50
226.4264214034756
 51
313.5735785965244
  0
LINE
  5
303
330
1E
100
AcDbEntity
  8
STEMPEL
100
AcDbLine
 10
33.26356732661168
 20
127.9000710453853
 30
0.0
 11
49.82614262792584
 21
127.9000710453853
 31
0.0
  0
LINE
  5
304
330
1E
100
AcDbEntity
  8
STEMPEL
100
AcDbLine
 10
33.26356732661168
 20
123.9000710453853
 30
0.0
 11
49.82614262792577
 21
123.9000710453853
 31
0.0
  0
LINE
  5
305
330
1E
100
AcDbEntity
  8
STEMPEL
100
AcDbLine
 10
33.25801382714656
 20
121.4000710453853
 30
0.0
 11
45.42691457783172
 21
121.4000710453853
 31
0.0
  0
LINE
  5
306
330
1E
100
AcDbEntity
  8
STEMPEL
100
AcDbLine
 10
35.13440220201278
 20
115.9000710453852
 30
0.0
 11
46.39273245121052
 21
115.9000710453853
 31
0.0
  0
ARC
  5
307
330
1E
100
AcDbEntity
  8
STEMPEL
100
AcDbCircle
 10
40.76356732661162
 20
125.6639599342743
 30
0.0
 40
9.763888888889027
100
AcDbArc
 50
247.3964409848455
 51
292.6035590151544
  0
LINE
  5
308
330
1E
100
AcDbEntity
  8
STEMPEL
100
AcDbLine
 10
33.26356732661168
 20
130.4000710453853
 30
0.0
 11
33.26356732661168
 21
127.9000710453853
 31
0.0
  0
ARC
  5
309
330
1E
100
AcDbEntity
  8
STEMPEL
100
AcDbCircle
 10
45.42691457783172
 20
133.4000710453853
 30
0.0
 40
5.5
100
AcDbArc
 50
270.0
 51
346.1134596373705
  0
ARC
  5
30A
330
1E
100
AcDbEntity
  8
STEMPEL
100
AcDbCircle
 10
49.82614262792584
 20
133.4000710453853
 30
0.0
 40
5.5
100
AcDbArc
 50
270.0
 51
343.8723797868397
  0
ARC
  5
30B
330
1E
100
AcDbEntity
  8
STEMPEL
100
AcDbCircle
 10
75.76356732661167
 20
125.9000710453853
 30
0.0
 40
21.5
100
AcDbArc
 50
196.1276202131595
 51
343.8723797868397
  0
LINE
  5
30C
330
1E
100
AcDbEntity
  8
MITTEL
100
AcDbLine
 10
28.26356732661168
 20
125.9000710453853
 30
0.0
 11
123.2635673266117
 21
125.9000710453853
 31
0.0
  0
ARC
  5
30D
330
1E
100
AcDbEntity
  8
STEMPEL
100
AcDbCircle
 10
75.76356732661167
 20
125.9000710453853
 30
0.0
 40
28.25000000000094
100
AcDbArc
 50
193.8865403626295
 51
346.1134596373705
  0
ARC
  5
30E
330
1E
100
AcDbEntity
  8
STEMPEL
100
AcDbCircle
 10
75.76356732661167
 20
125.9000710453853
 30
0.0
 40
21.5
100
AcDbArc
 50
16.12762021316035
 51
163.8723797868387
  0
ARC
  5
30F
330
1E
100
AcDbEntity
  8
STEMPEL
100
AcDbCircle
 10
75.76356732661167
 20
125.9000710453853
 30
0.0
 40
25.75000000000094
100
AcDbArc
 50
193.8865403626295
 51
346.1134596373705
  0
ARC
  5
310
330
1E
100
AcDbEntity
  8
STEMPEL
100
AcDbCircle
 10
75.76356732661167
 20
125.9000710453853
 30
0.0
 40
28.25000000000094
100
AcDbArc
 50
13.88654036262952
 51
166.1134596373704
  0
LINE
  5
311
330
1E
100
AcDbEntity
  8
MITTEL
100
AcDbLine
 10
75.76356732661167
 20
159.1500710453862
 30
0.0
 11
75.76356732661167
 21
92.65007104538431
 31
0.0
  0
LINE
  5
312
330
1E
100
AcDbEntity
  8
MITTEL
100
AcDbLine
 10
40.76356732661167
 20
151.4000710453852
 30
0.0
 11
40.76356732661167
 21
110.9000710453853
 31
0.0
  0
LINE
  5
313
330
1E
100
AcDbEntity
  8
MITTEL
100
AcDbLine
 10
110.7635673266117
 20
151.4000710453853
 30
0.0
 11
110.7635673266117
 21
110.9000710453852
 31
0.0
  0
ARC
  5
314
330
1E
100
AcDbEntity
  8
STEMPEL
100
AcDbCircle
 10
75.76356732661167
 20
125.9000710453853
 30
0.0
 40
25.75000000000094
100
AcDbArc
 50
13.88654036262952
 51
166.1134596373704
  0
LINE
  5
315
330
1E
100
AcDbEntity
  8
STEMPEL
100
AcDbLine
 10
169.0252306900522
 20
257.5536913726236
 30
0.0
 11
194.1145751884963
 21
257.5536913726232
 31
0.0
  0
LINE
  5
316
330
1E
100
AcDbEntity
  8
STEMPEL
100
AcDbLine
 10
169.0252306900522
 20
208.5536913726237
 30
0.0
 11
177.8418845164435
 21
208.5536913726235
 31
0.0
  0
LINE
  5
317
330
1E
100
AcDbEntity
  8
MITTEL
100
AcDbLine
 10
145.5252306900521
 20
230.553691372624
 30
0.0
 11
182.0252306900522
 21
230.5536913726235
 31
0.0
  0
LINE
  5
319
330
1E
100
AcDbEntity
  8
HILF
100
AcDbLine
 10
177.0252306900522
 20
233.8681221732176
 30
0.0
 11
189.8678734093843
 21
233.8681221732174
 31
0.0
  0
LINE
  5
31A
330
1E
100
AcDbEntity
  8
HILF
100
AcDbLine
 10
171.5252306900523
 20
253.0918114962537
 30
0.0
 11
193.601386138532
 21
253.0918114962533
 31
0.0
  0
LINE
  5
31B
330
1E
100
AcDbEntity
  8
HILF
100
AcDbLine
 10
171.5252306900522
 20
241.4913099077808
 30
0.0
 11
193.3640713437935
 21
241.4913099077805
 31
0.0
  0
TEXT
  5
31C
330
1E
100
AcDbEntity
  8
TEXT
 62
     1
100
AcDbText
 10
74.0215809436582
 20
69.35167360577281
 30
0.0
 40
3.5
  1
Werkstoff: Feuerverzinktes Spaltband DX51D+Z 275 MA C
 41
0.8
  7
GREEKS
100
AcDbText
  0
LINE
  5
3A3
330
1E
100
AcDbEntity
  8
STEMPEL
100
AcDbLine
 10
69.20612880231022
 20
224.5536913726241
 30
0.0
 11
82.32100585091473
 21
224.5536913726237
 31
0.0
  0
LINE
  5
3A4
330
1E
100
AcDbEntity
  8
STEMPEL
100
AcDbLine
 10
61.79932728284303
 20
220.5536913726241
 30
0.0
 11
89.72780737038073
 21
220.5536913726238
 31
0.0
  0
LINE
  5
3A5
330
1E
100
AcDbEntity
  8
STEMPEL
100
AcDbLine
 10
60.66389845607045
 20
219.5536913726242
 30
0.0
 11
90.86323619715335
 21
219.5536913726237
 31
0.0
  0
ARC
  5
3A6
330
1E
100
AcDbEntity
  8
STEMPEL
100
AcDbCircle
 10
75.76356732661167
 20
203.553691372624
 30
0.0
 40
22.0
100
AcDbArc
 50
13.13655878694267
 51
166.863441213054
  0
LINE
  5
3A7
330
1E
100
AcDbEntity
  8
STEMPEL
100
AcDbLine
 10
57.32447841202611
 20
215.5536913726242
 30
0.0
 11
94.20265624119759
 21
215.5536913726237
 31
0.0
  0
LINE
  5
3A8
330
1E
100
AcDbEntity
  8
STEMPEL
100
AcDbLine
 10
56.71100844335422
 20
214.5536913726243
 30
0.0
 11
94.81612620986942
 21
214.5536913726237
 31
0.0
  0
POLYLINE
  5
3BB
330
1E
100
AcDbEntity
  8
STEMPEL
100
AcDb2dPolyline
 66
     1
 10
0.0
 20
0.0
 30
0.0
 70
     2
  0
VERTEX
  5
3BC
330
3BB
100
AcDbEntity
  8
STEMPEL
100
AcDbVertex
100
AcDb2dVertex
 10
191.0252306900522
 20
225.5536913726233
 30
0.0
 42
0.0004917094242785
  0
VERTEX
  5
3BD
330
3BB
100
AcDbEntity
  8
STEMPEL
100
AcDbVertex
100
AcDb2dVertex
 10
190.3804389627777
 20
224.8493001467285
 30
0.0
 42
0.0018234974312453
 70
     1
  0
VERTEX
  5
3BE
330
3BB
100
AcDbEntity
  8
STEMPEL
100
AcDbVertex
100
AcDb2dVertex
 10
190.2074505209894
 20
224.6585561267494
 30
0.0
 42
0.0001222715852911
  0
VERTEX
  5
3BF
330
3BB
100
AcDbEntity
  8
STEMPEL
100
AcDbVertex
100
AcDb2dVertex
 10
188.4610476841227
 20
222.7177779855207
 30
0.0
 42
0.0003275790592867
 70
     1
  0
VERTEX
  5
3C0
330
3BB
100
AcDbEntity
  8
STEMPEL
100
AcDbVertex
100
AcDb2dVertex
 10
187.8098403808785
 20
221.9927802872101
 30
0.0
 42
0.0053417919375759
  0
VERTEX
  5
3C1
330
3BB
100
AcDbEntity
  8
STEMPEL
100
AcDbVertex
100
AcDb2dVertex
 10
186.7706581191139
 20
220.8091189810812
 30
0.0
 42
0.001966923872445
 70
     1
  0
VERTEX
  5
3C2
330
3BB
100
AcDbEntity
  8
STEMPEL
100
AcDbVertex
100
AcDb2dVertex
 10
183.9957934385292
 20
217.5536913726245
 30
0.0
 42
0.0174905712818827
  0
VERTEX
  5
3C3
330
3BB
100
AcDbEntity
  8
STEMPEL
100
AcDbVertex
100
AcDb2dVertex
 10
182.4683685372918
 20
215.6136689513253
 30
0.0
 42
0.0072601258063771
 70
     1
  0
VERTEX
  5
3C4
330
3BB
100
AcDbEntity
  8
STEMPEL
100
AcDbVertex
100
AcDb2dVertex
 10
179.0252306900521
 20
210.7647939235528
 30
0.0
 42
0.0278944545313616
  0
VERTEX
  5
3C5
330
3BB
100
AcDbEntity
  8
STEMPEL
100
AcDbVertex
100
AcDb2dVertex
 10
178.7324592835796
 20
210.2842262615933
 30
0.0
 42
0.0080594863300046
 70
     1
  0
VERTEX
  5
3C6
330
3BB
100
AcDbEntity
  8
STEMPEL
100
AcDbVertex
100
AcDb2dVertex
 10
177.8418845164435
 20
208.5536913726235
 30
0.0
  0
SEQEND
  5
3C7
330
3BB
100
AcDbEntity
  8
STEMPEL
  0
DIMENSION
  5
3C8
330
1E
100
AcDbEntity
  8
BEM
100
AcDbDimension
  2
*D4
 10
143.0252306900521
 20
194.6235545545359
 30
0.0
 11
154.0252306900521
 21
197.8735545545358
 31
0.0
 70
    32
 71
     5
 42
22.0
  3
Standard
100
AcDbAlignedDimension
 13
165.0252306900521
 23
208.5536913726237
 33
0.0
 14
143.0252306900521
 24
208.5536913726234
 34
0.0
 50
180.0
100
AcDbRotatedDimension
1001
ACAD
1000
DSTYLE
1002
{
1070
    41
1040
3.5
1070
    42
1040
1.0
1070
    43
1040
7.0
1070
    44
1040
1.0
1070
    73
1070
     0
1070
    74
1070
     0
1070
    77
1070
     1
1070
    78
1070
     8
1070
    79
1070
     2
1070
   140
1040
3.5
1070
   141
1040
1.5
1070
   146
1040
0.5142857142857144
1070
   147
1040
1.5
1070
   172
1070
     1
1070
   178
1070
     1
1070
   179
1070
     2
1070
   271
1070
     2
1070
   272
1070
     2
1070
   284
1070
     8
1070
   285
1070
     8
1070
   286
1070
     8
1002
}
  0
TEXT
  5
3DE
330
1E
100
AcDbEntity
  8
TEXT
100
AcDbText
 10
112.5648195562657
 20
35.82005971521077
 30
0.0
 40
2.5
  1
mit Ausklinkung
 41
0.8
  7
GREEKS
100
AcDbText
  0
ENDSEC
  0
SECTION
  2
OBJECTS
  0
DICTIONARY
  5
C
330
0
100
AcDbDictionary
281
     1
  3
ACAD_COLOR
350
DF
  3
ACAD_GROUP
350
D
  3
ACAD_LAYOUT
350
19
  3
ACAD_MATERIAL
350
DE
  3
ACAD_MLINESTYLE
350
16
  3
ACAD_PLOTSETTINGS
350
18
  3
ACAD_PLOTSTYLENAME
350
E
  3
AcDbVariableDictionary
350
EA
  0
DICTIONARY
  5
A0
330
1E
100
AcDbDictionary
280
     1
281
     1
  3
ACAD_LAYOUTSELFREF
360
D4
  0
DICTIONARY
  5
A2
330
1A
100
AcDbDictionary
280
     1
281
     1
  3
ACAD_LAYOUTSELFREF
360
D3
  0
DICTIONARY
  5
DF
102
{ACAD_REACTORS
330
C
102
}
330
C
100
AcDbDictionary
281
     1
  0
DICTIONARY
  5
D
102
{ACAD_REACTORS
330
C
102
}
330
C
100
AcDbDictionary
281
     1
  0
DICTIONARY
  5
19
102
{ACAD_REACTORS
330
C
102
}
330
C
100
AcDbDictionary
281
     1
  3
Layout1
350
1D
  3
Model
350
21
  0
DICTIONARY
  5
DE
102
{ACAD_REACTORS
330
C
102
}
330
C
100
AcDbDictionary
281
     1
  0
DICTIONARY
  5
16
102
{ACAD_REACTORS
330
C
102
}
330
C
100
AcDbDictionary
281
     1
  3
Standard
350
17
  0
DICTIONARY
  5
18
102
{ACAD_REACTORS
330
C
102
}
330
C
100
AcDbDictionary
281
     1
  0
ACDBDICTIONARYWDFLT
  5
E
102
{ACAD_REACTORS
330
C
102
}
330
C
100
AcDbDictionary
281
     1
  3
Normal
350
F
100
AcDbDictionaryWithDefault
340
F
  0
DICTIONARY
  5
EA
102
{ACAD_REACTORS
330
C
102
}
330
C
100
AcDbDictionary
281
     1
  3
DIMASSOC
350
EB
  3
PROJECTNAME
350
EC
  0
XRECORD
  5
D4
102
{ACAD_REACTORS
330
A0
102
}
330
A0
100
AcDbXrecord
280
     1
340
1E
  0
XRECORD
  5
D3
102
{ACAD_REACTORS
330
A2
102
}
330
A2
100
AcDbXrecord
280
     1
340
1A
  0
LAYOUT
  5
1D
102
{ACAD_REACTORS
330
19
102
}
330
19
100
AcDbPlotSettings
  1

  2
\\NT_WORK01\HP LaserJet 5000 PCL 6
  4

  6

 40
0.0
 41
0.0
 42
0.0
 43
0.0
 44
0.0
 45
0.0
 46
0.0
 47
0.0
 48
0.0
 49
0.0
140
0.0
141
0.0
142
1.0
143
1.0
 70
   688
 72
     0
 73
     0
 74
     5
  7

 75
    16
147
1.0
 76
     0
 77
     2
 78
   300
148
0.0
149
0.0
100
AcDbLayout
  1
Layout1
 70
     0
 71
     1
 10
0.0
 20
0.0
 11
12.0
 21
9.0
 12
0.0
 22
0.0
 32
0.0
 14
1.000000000000000E+20
 24
1.000000000000000E+20
 34
1.000000000000000E+20
 15
-1.000000000000000E+20
 25
-1.000000000000000E+20
 35
-1.000000000000000E+20
146
0.0
 13
0.0
 23
0.0
 33
0.0
 16
1.0
 26
0.0
 36
0.0
 17
0.0
 27
1.0
 37
0.0
 76
     0
330
1A
  0
LAYOUT
  5
21
102
{ACAD_REACTORS
330
19
102
}
330
19
100
AcDbPlotSettings
  1

  2
none_device
  4
Letter_(8.50_x_11.00_Inches)
  6

 40
6.349999904632568
 41
6.349999904632568
 42
6.350006103515625
 43
6.350006103515625
 44
215.8999938964844
 45
279.3999938964844
 46
0.0
 47
0.0
 48
0.0
 49
0.0
140
0.0
141
0.0
142
1.0
143
1.0
 70
 11952
 72
     0
 73
     1
 74
     0
  7

 75
     0
147
1.0
 76
     0
 77
     2
 78
   300
148
1135.707354069722
149
30.80728460620598
100
AcDbLayout
  1
Model
 70
     1
 71
     0
 10
0.0
 20
0.0
 11
12.0
 21
9.0
 12
0.0
 22
0.0
 32
0.0
 14
0.0
 24
0.0
 34
0.0
 15
0.0
 25
0.0
 35
0.0
146
0.0
 13
0.0
 23
0.0
 33
0.0
 16
1.0
 26
0.0
 36
0.0
 17
0.0
 27
1.0
 37
0.0
 76
     0
330
1E
  0
MLINESTYLE
  5
17
102
{ACAD_REACTORS
330
16
102
}
330
16
100
AcDbMlineStyle
  2
STANDARD
 70
     0
  3

 62
   256
 51
90.0
 52
90.0
 71
     2
 49
0.5
 62
   256
  6
BYLAYER
 49
-0.5
 62
   256
  6
BYLAYER
  0
ACDBPLACEHOLDER
  5
F
102
{ACAD_REACTORS
330
E
102
}
330
E
  0
DICTIONARYVAR
  5
EB
102
{ACAD_REACTORS
330
EA
102
}
330
EA
100
DictionaryVariables
280
     0
  1
1
  0
DICTIONARYVAR
  5
EC
102
{ACAD_REACTORS
330
EA
102
}
330
EA
100
DictionaryVariables
280
     0
  1

  0
ENDSEC
  0
EOF
