  0
SECTION
  2
HEADER
  9
$ACADVER
  1
AC1018
  9
$ACADMAINTVER
 70
     2
  9
$DWGCODEPAGE
  3
ANSI_1252
  9
$INSBASE
 10
0.0
 20
0.0
 30
0.0
  9
$EXTMIN
 10
-0.0192209888436992
 20
-0.0271839699362317
 30
-0.0000000000000058
  9
$EXTMAX
 10
420.0192288123714
 20
594.0271950346398
 30
0.0000000000000104
  9
$LIMMIN
 10
0.0
 20
0.0
  9
$LIMMAX
 10
420.0
 20
594.0
  9
$ORTHOMODE
 70
     0
  9
$REGENMODE
 70
     1
  9
$FILLMODE
 70
     1
  9
$QTEXTMODE
 70
     0
  9
$MIRRTEXT
 70
     1
  9
$LTSCALE
 40
20.0
  9
$ATTMODE
 70
     1
  9
$TEXTSIZE
 40
2.5
  9
$TRACEWID
 40
0.5
  9
$TEXTSTYLE
  7
GREEKS
  9
$CLAYER
  8
SCHRAFF
  9
$CELTYPE
  6
ByLayer
  9
$CECOLOR
 62
   256
  9
$CELTSCALE
 40
1.0
  9
$DISPSILH
 70
     0
  9
$DIMSCALE
 40
2.0
  9
$DIMASZ
 40
3.5
  9
$DIMEXO
 40
1.0
  9
$DIMDLI
 40
7.0
  9
$DIMRND
 40
0.0
  9
$DIMDLE
 40
0.0
  9
$DIMEXE
 40
1.0
  9
$DIMTP
 40
2.0
  9
$DIMTM
 40
2.0
  9
$DIMTXT
 40
3.5
  9
$DIMCEN
 40
1.5
  9
$DIMTSZ
 40
0.0
  9
$DIMTOL
 70
     0
  9
$DIMLIM
 70
     0
  9
$DIMTIH
 70
     0
  9
$DIMTOH
 70
     0
  9
$DIMSE1
 70
     0
  9
$DIMSE2
 70
     0
  9
$DIMTAD
 70
     1
  9
$DIMZIN
 70
     8
  9
$DIMBLK
  1

  9
$DIMASO
 70
     1
  9
$DIMSHO
 70
     0
  9
$DIMPOST
  1

  9
$DIMAPOST
  1

  9
$DIMALT
 70
     0
  9
$DIMALTD
 70
     2
  9
$DIMALTF
 40
25.4
  9
$DIMLFAC
 40
1.0
  9
$DIMTOFL
 70
     1
  9
$DIMTVP
 40
0.0
  9
$DIMTIX
 70
     0
  9
$DIMSOXD
 70
     0
  9
$DIMSAH
 70
     0
  9
$DIMBLK1
  1

  9
$DIMBLK2
  1

  9
$DIMSTYLE
  2
Standard
  9
$DIMCLRD
 70
     0
  9
$DIMCLRE
 70
     0
  9
$DIMCLRT
 70
     1
  9
$DIMTFAC
 40
0.5
  9
$DIMGAP
 40
1.5
  9
$DIMJUST
 70
     0
  9
$DIMSD1
 70
     0
  9
$DIMSD2
 70
     0
  9
$DIMTOLJ
 70
     1
  9
$DIMTZIN
 70
     8
  9
$DIMALTZ
 70
     8
  9
$DIMALTTZ
 70
     8
  9
$DIMUPT
 70
     0
  9
$DIMDEC
 70
     2
  9
$DIMTDEC
 70
     2
  9
$DIMALTU
 70
     2
  9
$DIMALTTD
 70
     2
  9
$DIMTXSTY
  7
GREEKS
  9
$DIMAUNIT
 70
     0
  9
$DIMADEC
 70
     2
  9
$DIMALTRND
 40
0.0
  9
$DIMAZIN
 70
     2
  9
$DIMDSEP
 70
    46
  9
$DIMATFIT
 70
     3
  9
$DIMFRAC
 70
     0
  9
$DIMLDRBLK
  1

  9
$DIMLUNIT
 70
     2
  9
$DIMLWD
 70
    -2
  9
$DIMLWE
 70
    -2
  9
$DIMTMOVE
 70
     0
  9
$LUNITS
 70
     2
  9
$LUPREC
 70
     2
  9
$SKETCHINC
 40
1.0
  9
$FILLETRAD
 40
0.0
  9
$AUNITS
 70
     0
  9
$AUPREC
 70
     0
  9
$MENU
  1
ACAD
  9
$ELEVATION
 40
0.0
  9
$PELEVATION
 40
0.0
  9
$THICKNESS
 40
0.0
  9
$LIMCHECK
 70
     0
  9
$CHAMFERA
 40
0.0
  9
$CHAMFERB
 40
0.0
  9
$CHAMFERC
 40
0.0
  9
$CHAMFERD
 40
0.0
  9
$SKPOLY
 70
     0
  9
$TDCREATE
 40
2452219.440159144
  9
$TDUCREATE
 40
2452219.356825811
  9
$TDUPDATE
 40
2455658.436472095
  9
$TDUUPDATE
 40
2455658.353138762
  9
$TDINDWG
 40
0.0121242361
  9
$TDUSRTIMER
 40
0.0121242361
  9
$USRTIMER
 70
     1
  9
$ANGBASE
 50
0.0
  9
$ANGDIR
 70
     0
  9
$PDMODE
 70
     0
  9
$PDSIZE
 40
0.0
  9
$PLINEWID
 40
0.0
  9
$SPLFRAME
 70
     0
  9
$SPLINETYPE
 70
     6
  9
$SPLINESEGS
 70
     8
  9
$HANDSEED
  5
21B
  9
$SURFTAB1
 70
     6
  9
$SURFTAB2
 70
     6
  9
$SURFTYPE
 70
     6
  9
$SURFU
 70
     6
  9
$SURFV
 70
     6
  9
$UCSBASE
  2

  9
$UCSNAME
  2

  9
$UCSORG
 10
0.0
 20
0.0
 30
0.0
  9
$UCSXDIR
 10
1.0
 20
0.0
 30
0.0
  9
$UCSYDIR
 10
0.0
 20
1.0
 30
0.0
  9
$UCSORTHOREF
  2

  9
$UCSORTHOVIEW
 70
     0
  9
$UCSORGTOP
 10
0.0
 20
0.0
 30
0.0
  9
$UCSORGBOTTOM
 10
0.0
 20
0.0
 30
0.0
  9
$UCSORGLEFT
 10
0.0
 20
0.0
 30
0.0
  9
$UCSORGRIGHT
 10
0.0
 20
0.0
 30
0.0
  9
$UCSORGFRONT
 10
0.0
 20
0.0
 30
0.0
  9
$UCSORGBACK
 10
0.0
 20
0.0
 30
0.0
  9
$PUCSBASE
  2

  9
$PUCSNAME
  2

  9
$PUCSORG
 10
0.0
 20
0.0
 30
0.0
  9
$PUCSXDIR
 10
1.0
 20
0.0
 30
0.0
  9
$PUCSYDIR
 10
0.0
 20
1.0
 30
0.0
  9
$PUCSORTHOREF
  2

  9
$PUCSORTHOVIEW
 70
     0
  9
$PUCSORGTOP
 10
0.0
 20
0.0
 30
0.0
  9
$PUCSORGBOTTOM
 10
0.0
 20
0.0
 30
0.0
  9
$PUCSORGLEFT
 10
0.0
 20
0.0
 30
0.0
  9
$PUCSORGRIGHT
 10
0.0
 20
0.0
 30
0.0
  9
$PUCSORGFRONT
 10
0.0
 20
0.0
 30
0.0
  9
$PUCSORGBACK
 10
0.0
 20
0.0
 30
0.0
  9
$USERI1
 70
     0
  9
$USERI2
 70
     0
  9
$USERI3
 70
     0
  9
$USERI4
 70
     0
  9
$USERI5
 70
     0
  9
$USERR1
 40
0.0
  9
$USERR2
 40
0.0
  9
$USERR3
 40
0.0
  9
$USERR4
 40
0.0
  9
$USERR5
 40
0.0
  9
$WORLDVIEW
 70
     1
  9
$SHADEDGE
 70
     3
  9
$SHADEDIF
 70
    70
  9
$TILEMODE
 70
     1
  9
$MAXACTVP
 70
    16
  9
$PINSBASE
 10
0.0
 20
0.0
 30
0.0
  9
$PLIMCHECK
 70
     0
  9
$PEXTMIN
 10
1.000000000000000E+20
 20
1.000000000000000E+20
 30
1.000000000000000E+20
  9
$PEXTMAX
 10
-1.000000000000000E+20
 20
-1.000000000000000E+20
 30
-1.000000000000000E+20
  9
$PLIMMIN
 10
0.0
 20
0.0
  9
$PLIMMAX
 10
12.0
 20
9.0
  9
$UNITMODE
 70
     0
  9
$VISRETAIN
 70
     0
  9
$PLINEGEN
 70
     0
  9
$PSLTSCALE
 70
     0
  9
$TREEDEPTH
 70
  3020
  9
$CMLSTYLE
  2
Standard
  9
$CMLJUST
 70
     0
  9
$CMLSCALE
 40
1.0
  9
$PROXYGRAPHICS
 70
     1
  9
$MEASUREMENT
 70
     0
  9
$CELWEIGHT
370
    -1
  9
$ENDCAPS
280
     0
  9
$JOINSTYLE
280
     0
  9
$LWDISPLAY
290
     0
  9
$INSUNITS
 70
     0
  9
$HYPERLINKBASE
  1

  9
$STYLESHEET
  1
monochrome 1.ctb
  9
$XEDIT
290
     1
  9
$CEPSNTYPE
380
     0
  9
$PSTYLEMODE
290
     1
  9
$FINGERPRINTGUID
  2
{B6221C1C-E41D-4347-A2FF-20F9C8D7A13E}
  9
$VERSIONGUID
  2
{5B9777E6-16E7-4553-A0A9-D83484D04984}
  9
$EXTNAMES
290
     1
  9
$PSVPSCALE
 40
0.0
  9
$OLESTARTUP
290
     0
  9
$SORTENTS
280
   127
  9
$INDEXCTL
280
     0
  9
$HIDETEXT
280
     1
  9
$XCLIPFRAME
290
     0
  9
$HALOGAP
280
     0
  9
$OBSCOLOR
 70
   257
  9
$OBSLTYPE
280
     0
  9
$INTERSECTIONDISPLAY
280
     0
  9
$INTERSECTIONCOLOR
 70
   257
  9
$DIMASSOC
280
     2
  9
$PROJECTNAME
  1

  0
ENDSEC
  0
SECTION
  2
CLASSES
  0
CLASS
  1
ACDBDICTIONARYWDFLT
  2
AcDbDictionaryWithDefault
  3
ObjectDBX Classes
 90
        0
 91
        1
280
     0
281
     0
  0
CLASS
  1
DICTIONARYVAR
  2
AcDbDictionaryVar
  3
ObjectDBX Classes
 90
        0
 91
        3
280
     0
281
     0
  0
ENDSEC
  0
SECTION
  2
TABLES
  0
TABLE
  2
VPORT
  5
8
330
0
100
AcDbSymbolTable
 70
     3
  0
VPORT
  5
21A
330
8
100
AcDbSymbolTableRecord
100
AcDbViewportTableRecord
  2
*Active
 70
     0
 10
0.0
 20
0.0
 11
1.0
 21
1.0
 12
210.0
 22
297.0
 13
0.0
 23
0.0
 14
1.0
 24
1.0
 15
10.0
 25
10.0
 16
0.0
 26
0.0
 36
1.0
 17
0.0
 27
0.0
 37
0.0
 40
594.0
 41
1.334231805929919
 42
50.0
 43
0.0
 44
0.0
 50
0.0
 51
0.0
 71
     0
 72
  1500
 73
     1
 74
     0
 75
     0
 76
     0
 77
     0
 78
     0
281
     0
 65
     1
110
0.0
120
0.0
130
0.0
111
1.0
121
0.0
131
0.0
112
0.0
122
1.0
132
0.0
 79
     0
146
0.0
  0
ENDTAB
  0
TABLE
  2
LTYPE
  5
5
330
0
100
AcDbSymbolTable
 70
     2
  0
LTYPE
  5
13
330
5
100
AcDbSymbolTableRecord
100
AcDbLinetypeTableRecord
  2
ByBlock
 70
     0
  3

 72
    65
 73
     0
 40
0.0
  0
LTYPE
  5
14
330
5
100
AcDbSymbolTableRecord
100
AcDbLinetypeTableRecord
  2
ByLayer
 70
     0
  3

 72
    65
 73
     0
 40
0.0
  0
LTYPE
  5
15
330
5
100
AcDbSymbolTableRecord
100
AcDbLinetypeTableRecord
  2
Continuous
 70
     0
  3
Solid line
 72
    65
 73
     0
 40
0.0
  0
LTYPE
  5
2F
330
5
100
AcDbSymbolTableRecord
100
AcDbLinetypeTableRecord
  2
STRICHPUNKT
 70
     0
  3
__ . __ . __ . __ . __ . __ . __ . __ . __ . __
 72
    65
 73
     4
 40
1.0
 49
0.5
 74
     0
 49
-0.25
 74
     0
 49
0.0
 74
     0
 49
-0.25
 74
     0
  0
ENDTAB
  0
TABLE
  2
LAYER
  5
2
330
0
100
AcDbSymbolTable
 70
     9
  0
LAYER
  5
10
330
2
100
AcDbSymbolTableRecord
100
AcDbLayerTableRecord
  2
0
 70
     0
 62
     7
  6
Continuous
370
    -3
390
F
  0
LAYER
  5
32
330
2
100
AcDbSymbolTableRecord
100
AcDbLayerTableRecord
  2
VOLL
 70
     0
 62
     1
  6
Continuous
370
    -3
390
F
  0
LAYER
  5
33
330
2
100
AcDbSymbolTableRecord
100
AcDbLayerTableRecord
  2
HILF
 70
     0
 62
     2
  6
Continuous
370
    -3
390
F
  0
LAYER
  5
34
330
2
100
AcDbSymbolTableRecord
100
AcDbLayerTableRecord
  2
MITTEL
 70
     0
 62
     2
  6
STRICHPUNKT
370
    -3
390
F
  0
LAYER
  5
35
330
2
100
AcDbSymbolTableRecord
100
AcDbLayerTableRecord
  2
BEM
 70
     0
 62
     7
  6
Continuous
370
    -3
390
F
  0
LAYER
  5
36
330
2
100
AcDbSymbolTableRecord
100
AcDbLayerTableRecord
  2
STEMPEL
 70
     0
 62
     3
  6
Continuous
370
    -3
390
F
  0
LAYER
  5
37
330
2
100
AcDbSymbolTableRecord
100
AcDbLayerTableRecord
  2
TEXT
 70
     0
 62
     7
  6
Continuous
370
    -3
390
F
  0
LAYER
  5
38
330
2
100
AcDbSymbolTableRecord
100
AcDbLayerTableRecord
  2
DEFPOINTS
 70
     0
 62
     7
  6
Continuous
290
     0
370
    -3
390
F
  0
LAYER
  5
39
330
2
100
AcDbSymbolTableRecord
100
AcDbLayerTableRecord
  2
SCHRAFF
 70
     0
 62
     7
  6
Continuous
370
    -3
390
F
  0
ENDTAB
  0
TABLE
  2
STYLE
  5
3
330
0
100
AcDbSymbolTable
 70
     2
  0
STYLE
  5
11
330
3
100
AcDbSymbolTableRecord
100
AcDbTextStyleTableRecord
  2
STANDARD
 70
     0
 40
0.0
 41
1.0
 50
0.0
 71
     0
 42
3.5
  3
txt
  4

  0
STYLE
  5
2E
330
3
100
AcDbSymbolTableRecord
100
AcDbTextStyleTableRecord
  2
GREEKS
 70
     0
 40
0.0
 41
0.8
 50
0.0
 71
     0
 42
2.5
  3
SIMPLEX.shx
  4

  0
ENDTAB
  0
TABLE
  2
VIEW
  5
6
330
0
100
AcDbSymbolTable
 70
     0
  0
ENDTAB
  0
TABLE
  2
UCS
  5
7
330
0
100
AcDbSymbolTable
 70
     0
  0
ENDTAB
  0
TABLE
  2
APPID
  5
9
330
0
100
AcDbSymbolTable
 70
     1
  0
APPID
  5
12
330
9
100
AcDbSymbolTableRecord
100
AcDbRegAppTableRecord
  2
ACAD
 70
     0
  0
ENDTAB
  0
TABLE
  2
DIMSTYLE
  5
A
330
0
100
AcDbSymbolTable
 70
     1
100
AcDbDimStyleTable
 71
     1
340
174
  0
DIMSTYLE
105
174
102
{ACAD_REACTORS
330
136
330
137
330
138
330
129
102
}
330
A
100
AcDbSymbolTableRecord
100
AcDbDimStyleTableRecord
  2
Standard
 70
     0
340
11
  0
ENDTAB
  0
TABLE
  2
BLOCK_RECORD
  5
1
330
0
100
AcDbSymbolTable
 70
    10
  0
BLOCK_RECORD
  5
20
330
1
100
AcDbSymbolTableRecord
100
AcDbBlockTableRecord
  2
*Model_Space
340
23
  0
BLOCK_RECORD
  5
1C
330
1
100
AcDbSymbolTableRecord
100
AcDbBlockTableRecord
  2
*Paper_Space
340
1F
  0
BLOCK_RECORD
  5
24
330
1
100
AcDbSymbolTableRecord
100
AcDbBlockTableRecord
  2
LOGO
340
0
102
{BLKREFS
331
125
102
}
  0
BLOCK_RECORD
  5
26
330
1
100
AcDbSymbolTableRecord
100
AcDbBlockTableRecord
  2
*X1
340
0
102
{BLKREFS
331
167
102
}
  0
BLOCK_RECORD
  5
28
330
1
100
AcDbSymbolTableRecord
100
AcDbBlockTableRecord
  2
*X3
340
0
102
{BLKREFS
331
16D
102
}
  0
BLOCK_RECORD
  5
193
330
1
100
AcDbSymbolTableRecord
100
AcDbBlockTableRecord
  2
*D6
340
0
  0
BLOCK_RECORD
  5
19F
330
1
100
AcDbSymbolTableRecord
100
AcDbBlockTableRecord
  2
*D7
340
0
  0
BLOCK_RECORD
  5
1C8
330
1
100
AcDbSymbolTableRecord
100
AcDbBlockTableRecord
  2
*D8
340
0
  0
BLOCK_RECORD
  5
1E7
330
1
100
AcDbSymbolTableRecord
100
AcDbBlockTableRecord
  2
*D9
340
0
  0
ENDTAB
  0
ENDSEC
  0
SECTION
  2
BLOCKS
  0
BLOCK
  5
3D
330
20
100
AcDbEntity
  8
0
100
AcDbBlockBegin
  2
*Model_Space
 70
     0
 10
0.0
 20
0.0
 30
0.0
  3
*Model_Space
  1

  0
ENDBLK
  5
3E
330
20
100
AcDbEntity
  8
0
100
AcDbBlockEnd
  0
BLOCK
  5
3B
330
1C
100
AcDbEntity
 67
     1
  8
0
100
AcDbBlockBegin
  2
*Paper_Space
 70
     0
 10
0.0
 20
0.0
 30
0.0
  3
*Paper_Space
  1

  0
ENDBLK
  5
3C
330
1C
100
AcDbEntity
 67
     1
  8
0
100
AcDbBlockEnd
  0
BLOCK
  5
3F
330
24
100
AcDbEntity
  8
0
100
AcDbBlockBegin
  2
LOGO
 70
     0
 10
0.0
 20
0.0
 30
0.0
  3
LOGO
  1

  0
ARC
  5
40
330
24
100
AcDbEntity
  8
0
100
AcDbCircle
 10
11.59973089678112
 20
-9.271599258481501
 30
0.0
 40
4.5
100
AcDbArc
 50
270.0
 51
231.0575587310159
  0
LINE
  5
41
330
24
100
AcDbEntity
  8
0
100
AcDbLine
 10
3.599730896781125
 20
-4.771599258481529
 30
0.0
 11
3.599730896781153
 21
-11.77159925848133
 31
0.0
  0
LINE
  5
42
330
24
100
AcDbEntity
  8
0
100
AcDbLine
 10
2.599730896781125
 20
-4.771599258481529
 30
0.0
 11
2.599730896781153
 21
-11.77159925848133
 31
0.0
  0
CIRCLE
  5
43
330
24
100
AcDbEntity
  8
0
100
AcDbCircle
 10
11.59973089678112
 20
-9.271599258481501
 30
0.0
 40
3.5
  0
ARC
  5
44
330
24
100
AcDbEntity
  8
0
100
AcDbCircle
 10
31.59973089678115
 20
-9.271599258481472
 30
0.0
 40
4.5
100
AcDbArc
 50
270.0
 51
231.0575587310182
  0
LINE
  5
45
330
24
100
AcDbEntity
  8
0
100
AcDbLine
 10
17.59973089678112
 20
-4.771599258481472
 30
0.0
 11
17.59973089678115
 21
-13.77159925848147
 31
0.0
  0
ARC
  5
46
330
24
100
AcDbEntity
  8
0
100
AcDbCircle
 10
22.59973089678116
 20
-7.271599258481472
 30
0.0
 40
2.5
100
AcDbArc
 50
293.1161887722295
 51
90.0
  0
CIRCLE
  5
47
330
24
100
AcDbEntity
  8
0
100
AcDbCircle
 10
31.59973089678115
 20
-9.271599258481472
 30
0.0
 40
3.5
  0
ARC
  5
48
330
24
100
AcDbEntity
  8
0
100
AcDbCircle
 10
4.599730896781153
 20
-11.77159925848133
 30
0.0
 40
1.0
100
AcDbArc
 50
180.0
 51
270.0
  0
ARC
  5
49
330
24
100
AcDbEntity
  8
0
100
AcDbCircle
 10
4.599730896781153
 20
-11.77159925848133
 30
0.0
 40
2.0
100
AcDbArc
 50
179.9999999999992
 51
270.0
  0
LINE
  5
4A
330
24
100
AcDbEntity
  8
0
100
AcDbLine
 10
11.59973089678115
 20
-13.77159925848144
 30
0.0
 11
4.599730896781153
 21
-13.77159925848147
 31
0.0
  0
LINE
  5
4B
330
24
100
AcDbEntity
  8
0
100
AcDbLine
 10
8.771303772034769
 20
-12.77159925848136
 30
0.0
 11
4.599730896781153
 21
-12.77159925848133
 31
0.0
  0
LINE
  5
4C
330
24
100
AcDbEntity
  8
0
100
AcDbLine
 10
31.59973089678115
 20
-13.77159925848147
 30
0.0
 11
23.6715276665056
 21
-13.77159925848144
 31
0.0
  0
LINE
  5
4D
330
24
100
AcDbEntity
  8
0
100
AcDbLine
 10
23.56565672307022
 20
-9.51278021337896
 30
0.0
 11
24.4388546544846
 21
-12.77159925848144
 31
0.0
  0
LINE
  5
4E
330
24
100
AcDbEntity
  8
0
100
AcDbLine
 10
22.59973089678116
 20
-9.771599258481472
 30
0.0
 11
18.59973089678112
 21
-9.771599258481472
 31
0.0
  0
LINE
  5
4F
330
24
100
AcDbEntity
  8
0
100
AcDbLine
 10
18.59973089678115
 20
-13.77159925848144
 30
0.0
 11
17.59973089678115
 21
-13.77159925848144
 31
0.0
  0
LINE
  5
50
330
24
100
AcDbEntity
  8
0
100
AcDbLine
 10
18.59973089678115
 20
-9.771599258481472
 30
0.0
 11
18.59973089678115
 21
-13.77159925848144
 31
0.0
  0
LINE
  5
51
330
24
100
AcDbEntity
  8
0
100
AcDbLine
 10
22.59973089678116
 20
-9.771599258481472
 30
0.0
 11
23.67152766650562
 21
-13.77159925848147
 31
0.0
  0
ARC
  5
52
330
24
100
AcDbEntity
  8
0
100
AcDbCircle
 10
22.59973089678116
 20
-7.271599258481472
 30
0.0
 40
2.5
100
AcDbArc
 50
270.0
 51
270.0000000000007
  0
LINE
  5
53
330
24
100
AcDbEntity
  8
0
100
AcDbLine
 10
28.77130377203494
 20
-12.77159925848147
 30
0.0
 11
24.43885465448463
 21
-12.77159925848144
 31
0.0
  0
LINE
  5
54
330
24
100
AcDbEntity
  8
0
100
AcDbLine
 10
3.599730896781125
 20
-4.771599258481472
 30
0.0
 11
2.599730896781125
 21
-4.771599258481472
 31
0.0
  0
LINE
  5
55
330
24
100
AcDbEntity
  8
0
100
AcDbLine
 10
22.59973089678116
 20
-8.771599258481472
 30
0.0
 11
18.59973089678115
 21
-8.771599258481472
 31
0.0
  0
LINE
  5
56
330
24
100
AcDbEntity
  8
0
100
AcDbLine
 10
22.59973089678116
 20
-5.771599258481472
 30
0.0
 11
18.59973089678115
 21
-5.771599258481472
 31
0.0
  0
LINE
  5
57
330
24
100
AcDbEntity
  8
0
100
AcDbLine
 10
22.59973089678116
 20
-4.771599258481472
 30
0.0
 11
17.59973089678115
 21
-4.771599258481472
 31
0.0
  0
LINE
  5
58
330
24
100
AcDbEntity
  8
0
100
AcDbLine
 10
18.59973089678115
 20
-5.771599258481472
 30
0.0
 11
18.59973089678115
 21
-8.771599258481472
 31
0.0
  0
ARC
  5
59
330
24
100
AcDbEntity
  8
0
100
AcDbCircle
 10
22.59973089678116
 20
-7.271599258481472
 30
0.0
 40
1.5
100
AcDbArc
 50
270.0
 51
90.0
  0
ENDBLK
  5
5A
330
24
100
AcDbEntity
  8
0
100
AcDbBlockEnd
  0
BLOCK
  5
5F
330
26
100
AcDbEntity
  8
0
100
AcDbBlockBegin
  2
*X1
 70
     1
 10
0.0
 20
0.0
 30
0.0
  3
*X1
  1

  0
LINE
  5
60
330
26
100
AcDbEntity
  8
0
 62
     0
100
AcDbLine
 10
178.1345276427642
 20
531.5
 30
0.0
 11
181.1025245024558
 21
531.5
 31
0.0
  0
LINE
  5
61
330
26
100
AcDbEntity
  8
0
 62
     0
100
AcDbLine
 10
178.1345276427642
 20
531.6
 30
0.0
 11
181.0022829758894
 21
531.6
 31
0.0
  0
LINE
  5
62
330
26
100
AcDbEntity
  8
0
 62
     0
100
AcDbLine
 10
178.1345276427642
 20
531.7
 30
0.0
 11
180.896650354381
 21
531.7
 31
0.0
  0
LINE
  5
63
330
26
100
AcDbEntity
  8
0
 62
     0
100
AcDbLine
 10
178.1345276427642
 20
531.8
 30
0.0
 11
180.785152711703
 21
531.8
 31
0.0
  0
LINE
  5
64
330
26
100
AcDbEntity
  8
0
 62
     0
100
AcDbLine
 10
178.1345276427642
 20
531.8999999999999
 30
0.0
 11
180.6672274343744
 21
531.8999999999999
 31
0.0
  0
LINE
  5
65
330
26
100
AcDbEntity
  8
0
 62
     0
100
AcDbLine
 10
178.1345276427642
 20
532.0
 30
0.0
 11
180.5421981531768
 21
532.0
 31
0.0
  0
LINE
  5
66
330
26
100
AcDbEntity
  8
0
 62
     0
100
AcDbLine
 10
178.1345276427642
 20
532.1
 30
0.0
 11
180.4092396764495
 21
532.1
 31
0.0
  0
LINE
  5
67
330
26
100
AcDbEntity
  8
0
 62
     0
100
AcDbLine
 10
178.1345276427642
 20
532.2
 30
0.0
 11
180.2673275572028
 21
532.2
 31
0.0
  0
LINE
  5
68
330
26
100
AcDbEntity
  8
0
 62
     0
100
AcDbLine
 10
178.1345276427642
 20
532.3
 30
0.0
 11
180.1151631396727
 21
532.3
 31
0.0
  0
LINE
  5
69
330
26
100
AcDbEntity
  8
0
 62
     0
100
AcDbLine
 10
178.1345276427642
 20
532.3999999999999
 30
0.0
 11
179.9510576775064
 21
532.3999999999999
 31
0.0
  0
LINE
  5
6A
330
26
100
AcDbEntity
  8
0
 62
     0
100
AcDbLine
 10
178.1345276427642
 20
532.5
 30
0.0
 11
179.7727442842215
 21
532.5
 31
0.0
  0
LINE
  5
6B
330
26
100
AcDbEntity
  8
0
 62
     0
100
AcDbLine
 10
178.1345276427642
 20
532.6
 30
0.0
 11
179.5770536003126
 21
532.6
 31
0.0
  0
LINE
  5
6C
330
26
100
AcDbEntity
  8
0
 62
     0
100
AcDbLine
 10
178.1345276427642
 20
532.7
 30
0.0
 11
179.3593082833227
 21
532.7
 31
0.0
  0
LINE
  5
6D
330
26
100
AcDbEntity
  8
0
 62
     0
100
AcDbLine
 10
178.1345276427642
 20
532.8000000000001
 30
0.0
 11
179.1120638129437
 21
532.8000000000001
 31
0.0
  0
LINE
  5
6E
330
26
100
AcDbEntity
  8
0
 62
     0
100
AcDbLine
 10
178.1345276427642
 20
532.8999999999999
 30
0.0
 11
178.8220442200209
 21
532.8999999999999
 31
0.0
  0
LINE
  5
6F
330
26
100
AcDbEntity
  8
0
 62
     0
100
AcDbLine
 10
178.1345276427642
 20
533.0
 30
0.0
 11
178.4604954902745
 21
533.0
 31
0.0
  0
LINE
  5
70
330
26
100
AcDbEntity
  8
0
 62
     0
100
AcDbLine
 10
178.1345276427642
 20
531.4
 30
0.0
 11
181.1977785251507
 21
531.4
 31
0.0
  0
LINE
  5
71
330
26
100
AcDbEntity
  8
0
 62
     0
100
AcDbLine
 10
178.1345276427642
 20
531.3
 30
0.0
 11
181.2883920146648
 21
531.3
 31
0.0
  0
LINE
  5
72
330
26
100
AcDbEntity
  8
0
 62
     0
100
AcDbLine
 10
178.1345276427642
 20
531.2
 30
0.0
 11
181.3746657569171
 21
531.2
 31
0.0
  0
LINE
  5
73
330
26
100
AcDbEntity
  8
0
 62
     0
100
AcDbLine
 10
178.1345276427642
 20
531.0999999999999
 30
0.0
 11
181.4568624207635
 21
531.0999999999999
 31
0.0
  0
LINE
  5
74
330
26
100
AcDbEntity
  8
0
 62
     0
100
AcDbLine
 10
178.1345276427642
 20
531.0
 30
0.0
 11
181.5352128838137
 21
531.0
 31
0.0
  0
LINE
  5
75
330
26
100
AcDbEntity
  8
0
 62
     0
100
AcDbLine
 10
178.1345276427642
 20
530.9
 30
0.0
 11
181.6099212554785
 21
530.9
 31
0.0
  0
LINE
  5
76
330
26
100
AcDbEntity
  8
0
 62
     0
100
AcDbLine
 10
178.1345276427642
 20
530.8
 30
0.0
 11
181.6811689110808
 21
530.8
 31
0.0
  0
LINE
  5
77
330
26
100
AcDbEntity
  8
0
 62
     0
100
AcDbLine
 10
178.1345276427642
 20
530.7
 30
0.0
 11
181.7491177651221
 21
530.7
 31
0.0
  0
LINE
  5
78
330
26
100
AcDbEntity
  8
0
 62
     0
100
AcDbLine
 10
178.1345276427642
 20
530.6
 30
0.0
 11
181.8139129520077
 21
530.6
 31
0.0
  0
LINE
  5
79
330
26
100
AcDbEntity
  8
0
 62
     0
100
AcDbLine
 10
178.1345276427642
 20
530.4999999999999
 30
0.0
 11
181.8756850401486
 21
530.4999999999999
 31
0.0
  0
LINE
  5
7A
330
26
100
AcDbEntity
  8
0
 62
     0
100
AcDbLine
 10
178.1345276427642
 20
530.4
 30
0.0
 11
181.9345518748299
 21
530.4
 31
0.0
  0
LINE
  5
7B
330
26
100
AcDbEntity
  8
0
 62
     0
100
AcDbLine
 10
178.1345276427642
 20
530.3
 30
0.0
 11
181.9906201229524
 21
530.3
 31
0.0
  0
LINE
  5
7C
330
26
100
AcDbEntity
  8
0
 62
     0
100
AcDbLine
 10
178.1345276427642
 20
530.2
 30
0.0
 11
182.0439865762681
 21
530.2
 31
0.0
  0
LINE
  5
7D
330
26
100
AcDbEntity
  8
0
 62
     0
100
AcDbLine
 10
178.1345276427642
 20
530.1
 30
0.0
 11
182.094739257392
 21
530.1
 31
0.0
  0
ENDBLK
  5
7E
330
26
100
AcDbEntity
  8
0
100
AcDbBlockEnd
  0
BLOCK
  5
86
330
28
100
AcDbEntity
  8
0
100
AcDbBlockBegin
  2
*X3
 70
     1
 10
0.0
 20
0.0
 30
0.0
  3
*X3
  1

  0
LINE
  5
87
330
28
100
AcDbEntity
  8
0
 62
     0
100
AcDbLine
 10
178.1345276427641
 20
214.2
 30
0.0
 11
181.2349700948191
 21
214.2
 31
0.0
  0
LINE
  5
88
330
28
100
AcDbEntity
  8
0
 62
     0
100
AcDbLine
 10
178.1345276427641
 20
214.3
 30
0.0
 11
181.3213267907255
 21
214.3
 31
0.0
  0
LINE
  5
89
330
28
100
AcDbEntity
  8
0
 62
     0
100
AcDbLine
 10
178.1345276427641
 20
214.4
 30
0.0
 11
181.4027713888682
 21
214.4
 31
0.0
  0
LINE
  5
8A
330
28
100
AcDbEntity
  8
0
 62
     0
100
AcDbLine
 10
178.1345276427641
 20
214.5
 30
0.0
 11
181.4796346828884
 21
214.5
 31
0.0
  0
LINE
  5
8B
330
28
100
AcDbEntity
  8
0
 62
     0
100
AcDbLine
 10
178.1345276427641
 20
214.6
 30
0.0
 11
181.5522021245874
 21
214.6
 31
0.0
  0
LINE
  5
8C
330
28
100
AcDbEntity
  8
0
 62
     0
100
AcDbLine
 10
178.1345276427641
 20
214.7
 30
0.0
 11
181.6207218251458
 21
214.7
 31
0.0
  0
LINE
  5
8D
330
28
100
AcDbEntity
  8
0
 62
     0
100
AcDbLine
 10
178.1345276427641
 20
214.8
 30
0.0
 11
181.6854108004574
 21
214.8
 31
0.0
  0
LINE
  5
8E
330
28
100
AcDbEntity
  8
0
 62
     0
100
AcDbLine
 10
178.1345276427641
 20
214.9
 30
0.0
 11
181.7464599094296
 21
214.9
 31
0.0
  0
LINE
  5
8F
330
28
100
AcDbEntity
  8
0
 62
     0
100
AcDbLine
 10
178.1345276427641
 20
215.0
 30
0.0
 11
181.804037804224
 21
215.0
 31
0.0
  0
LINE
  5
90
330
28
100
AcDbEntity
  8
0
 62
     0
100
AcDbLine
 10
178.1345276427641
 20
215.1
 30
0.0
 11
181.8582941230691
 21
215.1
 31
0.0
  0
LINE
  5
91
330
28
100
AcDbEntity
  8
0
 62
     0
100
AcDbLine
 10
178.1345276427641
 20
215.2
 30
0.0
 11
181.9093620950299
 21
215.2
 31
0.0
  0
LINE
  5
92
330
28
100
AcDbEntity
  8
0
 62
     0
100
AcDbLine
 10
178.1345276427641
 20
215.3
 30
0.0
 11
181.9573606829109
 21
215.3
 31
0.0
  0
LINE
  5
93
330
28
100
AcDbEntity
  8
0
 62
     0
100
AcDbLine
 10
178.1345276427641
 20
215.4
 30
0.0
 11
182.0023963594928
 21
215.4
 31
0.0
  0
LINE
  5
94
330
28
100
AcDbEntity
  8
0
 62
     0
100
AcDbLine
 10
178.1345276427641
 20
215.5
 30
0.0
 11
182.044564589784
 21
215.5
 31
0.0
  0
LINE
  5
95
330
28
100
AcDbEntity
  8
0
 62
     0
100
AcDbLine
 10
178.1345276427641
 20
215.6
 30
0.0
 11
182.0839510753665
 21
215.6
 31
0.0
  0
LINE
  5
96
330
28
100
AcDbEntity
  8
0
 62
     0
100
AcDbLine
 10
178.1345276427641
 20
215.7
 30
0.0
 11
182.1206328045338
 21
215.7
 31
0.0
  0
LINE
  5
97
330
28
100
AcDbEntity
  8
0
 62
     0
100
AcDbLine
 10
178.1345276427641
 20
214.1
 30
0.0
 11
181.1433147646037
 21
214.1
 31
0.0
  0
LINE
  5
98
330
28
100
AcDbEntity
  8
0
 62
     0
100
AcDbLine
 10
178.1345276427641
 20
214.0
 30
0.0
 11
181.0459047755995
 21
214.0
 31
0.0
  0
LINE
  5
99
330
28
100
AcDbEntity
  8
0
 62
     0
100
AcDbLine
 10
178.1345276427641
 20
213.9
 30
0.0
 11
180.9421961078396
 21
213.9
 31
0.0
  0
LINE
  5
9A
330
28
100
AcDbEntity
  8
0
 62
     0
100
AcDbLine
 10
178.1345276427641
 20
213.8
 30
0.0
 11
180.8315312839971
 21
213.8
 31
0.0
  0
LINE
  5
9B
330
28
100
AcDbEntity
  8
0
 62
     0
100
AcDbLine
 10
178.1345276427641
 20
213.7
 30
0.0
 11
180.7131034560514
 21
213.7
 31
0.0
  0
LINE
  5
9C
330
28
100
AcDbEntity
  8
0
 62
     0
100
AcDbLine
 10
178.1345276427641
 20
213.6
 30
0.0
 11
180.5859042479335
 21
213.6
 31
0.0
  0
LINE
  5
9D
330
28
100
AcDbEntity
  8
0
 62
     0
100
AcDbLine
 10
178.1345276427641
 20
213.5
 30
0.0
 11
180.4486453269068
 21
213.5
 31
0.0
  0
LINE
  5
9E
330
28
100
AcDbEntity
  8
0
 62
     0
100
AcDbLine
 10
178.1345276427641
 20
213.4
 30
0.0
 11
180.2996354037876
 21
213.4
 31
0.0
  0
LINE
  5
9F
330
28
100
AcDbEntity
  8
0
 62
     0
100
AcDbLine
 10
178.1345276427641
 20
213.3
 30
0.0
 11
180.1365770343961
 21
213.3
 31
0.0
  0
LINE
  5
A0
330
28
100
AcDbEntity
  8
0
 62
     0
100
AcDbLine
 10
178.1345276427641
 20
213.2
 30
0.0
 11
179.9562080002116
 21
213.2
 31
0.0
  0
LINE
  5
A1
330
28
100
AcDbEntity
  8
0
 62
     0
100
AcDbLine
 10
178.1345276427641
 20
213.1
 30
0.0
 11
179.7536108121532
 21
213.1
 31
0.0
  0
LINE
  5
A2
330
28
100
AcDbEntity
  8
0
 62
     0
100
AcDbLine
 10
178.1345276427641
 20
213.0
 30
0.0
 11
179.5207125082047
 21
213.0
 31
0.0
  0
LINE
  5
A3
330
28
100
AcDbEntity
  8
0
 62
     0
100
AcDbLine
 10
178.1345276427641
 20
212.9
 30
0.0
 11
179.242376654049
 21
212.9
 31
0.0
  0
LINE
  5
A4
330
28
100
AcDbEntity
  8
0
 62
     0
100
AcDbLine
 10
178.1345276427641
 20
212.8
 30
0.0
 11
178.8824442007534
 21
212.8
 31
0.0
  0
ENDBLK
  5
A5
330
28
100
AcDbEntity
  8
0
100
AcDbBlockEnd
  0
BLOCK
  5
19D
330
193
100
AcDbEntity
  8
0
100
AcDbBlockBegin
  2
*D6
 70
     1
 10
0.0
 20
0.0
 30
0.0
  3
*D6
  1

  0
LINE
  5
210
330
193
100
AcDbEntity
  8
BEM
 62
     0
370
    -2
100
AcDbLine
 10
263.1345276427642
 20
213.7398943043357
 30
0.0
 11
263.1345276427642
 21
186.8360326498068
 31
0.0
  0
LINE
  5
211
330
193
100
AcDbEntity
  8
BEM
 62
     0
370
    -2
100
AcDbLine
 10
178.1345276427641
 20
205.6898943043355
 30
0.0
 11
178.1345276427641
 21
186.8360326498068
 31
0.0
  0
LINE
  5
212
330
193
100
AcDbEntity
  8
BEM
 62
     0
370
    -2
100
AcDbLine
 10
256.1345276427642
 20
188.8360326498068
 30
0.0
 11
185.1345276427641
 21
188.8360326498068
 31
0.0
  0
SOLID
  5
213
330
193
100
AcDbEntity
  8
BEM
 62
     0
100
AcDbTrace
 10
256.1345276427642
 20
190.0026993164734
 30
0.0
 11
256.1345276427642
 21
187.6693659831401
 31
0.0
 12
263.1345276427642
 22
188.8360326498068
 32
0.0
 13
263.1345276427642
 23
188.8360326498068
 33
0.0
  0
SOLID
  5
214
330
193
100
AcDbEntity
  8
BEM
 62
     0
100
AcDbTrace
 10
185.1345276427641
 20
190.0026993164734
 30
0.0
 11
185.1345276427641
 21
187.6693659831401
 31
0.0
 12
178.1345276427641
 22
188.8360326498068
 32
0.0
 13
178.1345276427641
 23
188.8360326498068
 33
0.0
  0
MTEXT
  5
215
330
193
100
AcDbEntity
  8
BEM
 62
     1
100
AcDbMText
 10
220.6345276427642
 20
195.3360326498068
 30
0.0
 40
7.0
 41
0.0
 71
     5
 72
     1
  1
\A1;85
  7
GREEKS
 73
     1
 44
1.0
  0
POINT
  5
216
330
193
100
AcDbEntity
  8
DEFPOINTS
 62
     0
100
AcDbPoint
 10
263.1345276427642
 20
215.7398943043357
 30
0.0
  0
POINT
  5
217
330
193
100
AcDbEntity
  8
DEFPOINTS
 62
     0
100
AcDbPoint
 10
178.1345276427641
 20
207.6898943043355
 30
0.0
  0
POINT
  5
218
330
193
100
AcDbEntity
  8
DEFPOINTS
 62
     0
100
AcDbPoint
 10
178.1345276427641
 20
188.8360326498068
 30
0.0
  0
ENDBLK
  5
19E
330
193
100
AcDbEntity
  8
0
100
AcDbBlockEnd
  0
BLOCK
  5
1AB
330
19F
100
AcDbEntity
  8
0
100
AcDbBlockBegin
  2
*D7
 70
     1
 10
0.0
 20
0.0
 30
0.0
  3
*D7
  1

  0
LINE
  5
205
330
19F
100
AcDbEntity
  8
BEM
 62
     0
370
    -2
100
AcDbLine
 10
178.1345276427641
 20
205.6898943043355
 30
0.0
 11
178.1345276427641
 21
186.8360326498068
 31
0.0
  0
LINE
  5
206
330
19F
100
AcDbEntity
  8
BEM
 62
     0
370
    -2
100
AcDbLine
 10
174.1345276427642
 20
205.6898943043355
 30
0.0
 11
174.1345276427642
 21
186.8360326498068
 31
0.0
  0
LINE
  5
207
330
19F
100
AcDbEntity
  8
BEM
 62
     0
370
    -2
100
AcDbLine
 10
185.1345276427641
 20
188.8360326498068
 30
0.0
 11
192.1345276427642
 21
188.8360326498068
 31
0.0
  0
LINE
  5
208
330
19F
100
AcDbEntity
  8
BEM
 62
     0
370
    -2
100
AcDbLine
 10
167.1345276427642
 20
188.8360326498068
 30
0.0
 11
150.1345276427642
 21
188.8360326498068
 31
0.0
  0
LINE
  5
209
330
19F
100
AcDbEntity
  8
BEM
 62
     0
370
    -2
100
AcDbLine
 10
178.1345276427641
 20
188.8360326498068
 30
0.0
 11
174.1345276427642
 21
188.8360326498068
 31
0.0
  0
SOLID
  5
20A
330
19F
100
AcDbEntity
  8
BEM
 62
     0
100
AcDbTrace
 10
185.1345276427641
 20
190.0026993164734
 30
0.0
 11
185.1345276427641
 21
187.6693659831401
 31
0.0
 12
178.1345276427641
 22
188.8360326498068
 32
0.0
 13
178.1345276427641
 23
188.8360326498068
 33
0.0
  0
SOLID
  5
20B
330
19F
100
AcDbEntity
  8
BEM
 62
     0
100
AcDbTrace
 10
167.1345276427642
 20
190.0026993164734
 30
0.0
 11
167.1345276427642
 21
187.6693659831401
 31
0.0
 12
174.1345276427642
 22
188.8360326498068
 32
0.0
 13
174.1345276427642
 23
188.8360326498068
 33
0.0
  0
MTEXT
  5
20C
330
19F
100
AcDbEntity
  8
BEM
 62
     1
100
AcDbMText
 10
155.1345276427641
 20
195.3360326498068
 30
0.0
 40
7.0
 41
0.0
 71
     5
 72
     1
  1
\A1;4
  7
GREEKS
 73
     1
 44
1.0
  0
POINT
  5
20D
330
19F
100
AcDbEntity
  8
DEFPOINTS
 62
     0
100
AcDbPoint
 10
178.1345276427641
 20
207.6898943043355
 30
0.0
  0
POINT
  5
20E
330
19F
100
AcDbEntity
  8
DEFPOINTS
 62
     0
100
AcDbPoint
 10
174.1345276427642
 20
207.6898943043355
 30
0.0
  0
POINT
  5
20F
330
19F
100
AcDbEntity
  8
DEFPOINTS
 62
     0
100
AcDbPoint
 10
174.1345276427642
 20
188.8360326498068
 30
0.0
  0
ENDBLK
  5
1AC
330
19F
100
AcDbEntity
  8
0
100
AcDbBlockEnd
  0
BLOCK
  5
1D2
330
1C8
100
AcDbEntity
  8
0
100
AcDbBlockBegin
  2
*D8
 70
     1
 10
0.0
 20
0.0
 30
0.0
  3
*D8
  1

  0
LINE
  5
1C9
330
1C8
100
AcDbEntity
  8
BEM
 62
     0
370
    -2
100
AcDbLine
 10
172.1345276427642
 20
547.6898943043354
 30
0.0
 11
150.5192137933006
 21
547.6898943043354
 31
0.0
  0
LINE
  5
1CA
330
1C8
100
AcDbEntity
  8
BEM
 62
     0
370
    -2
100
AcDbLine
 10
172.1345276427642
 20
207.6898943043355
 30
0.0
 11
150.5192137933005
 21
207.6898943043355
 31
0.0
  0
LINE
  5
1CB
330
1C8
100
AcDbEntity
  8
BEM
 62
     0
370
    -2
100
AcDbLine
 10
152.5192137933006
 20
540.6898943043354
 30
0.0
 11
152.5192137933005
 21
214.6898943043355
 31
0.0
  0
SOLID
  5
1CC
330
1C8
100
AcDbEntity
  8
BEM
 62
     0
100
AcDbTrace
 10
151.3525471266339
 20
540.6898943043354
 30
0.0
 11
153.6858804599672
 21
540.6898943043354
 31
0.0
 12
152.5192137933006
 22
547.6898943043354
 32
0.0
 13
152.5192137933006
 23
547.6898943043354
 33
0.0
  0
SOLID
  5
1CD
330
1C8
100
AcDbEntity
  8
BEM
 62
     0
100
AcDbTrace
 10
151.3525471266339
 20
214.6898943043355
 30
0.0
 11
153.6858804599672
 21
214.6898943043355
 31
0.0
 12
152.5192137933005
 22
207.6898943043355
 32
0.0
 13
152.5192137933005
 23
207.6898943043355
 33
0.0
  0
MTEXT
  5
1CE
330
1C8
100
AcDbEntity
  8
BEM
 62
     1
100
AcDbMText
 10
146.0192137933005
 20
377.6898943043355
 30
0.0
 40
7.0
 41
0.0
 71
     5
 72
     1
  1
\A1;%%c340
  7
GREEKS
 11
0.0000000000000001
 21
1.0
 31
0.0
 73
     1
 44
1.0
  0
POINT
  5
1CF
330
1C8
100
AcDbEntity
  8
DEFPOINTS
 62
     0
100
AcDbPoint
 10
174.1345276427642
 20
547.6898943043354
 30
0.0
  0
POINT
  5
1D0
330
1C8
100
AcDbEntity
  8
DEFPOINTS
 62
     0
100
AcDbPoint
 10
174.1345276427642
 20
207.6898943043355
 30
0.0
  0
POINT
  5
1D1
330
1C8
100
AcDbEntity
  8
DEFPOINTS
 62
     0
100
AcDbPoint
 10
152.5192137933005
 20
207.6898943043355
 30
0.0
  0
ENDBLK
  5
1D3
330
1C8
100
AcDbEntity
  8
0
100
AcDbBlockEnd
  0
BLOCK
  5
1F1
330
1E7
100
AcDbEntity
  8
0
100
AcDbBlockBegin
  2
*D9
 70
     1
 10
0.0
 20
0.0
 30
0.0
  3
*D9
  1

  0
LINE
  5
1FC
330
1E7
100
AcDbEntity
  8
BEM
 62
     0
370
    -2
100
AcDbLine
 10
265.1345276427642
 20
539.6398943043354
 30
0.0
 11
289.3347116463575
 21
539.6398943043354
 31
0.0
  0
LINE
  5
1FD
330
1E7
100
AcDbEntity
  8
BEM
 62
     0
370
    -2
100
AcDbLine
 10
265.1345276427642
 20
215.7398943043357
 30
0.0
 11
289.3347116463574
 21
215.7398943043357
 31
0.0
  0
LINE
  5
1FE
330
1E7
100
AcDbEntity
  8
BEM
 62
     0
370
    -2
100
AcDbLine
 10
287.3347116463575
 20
532.6398943043354
 30
0.0
 11
287.3347116463574
 21
222.7398943043358
 31
0.0
  0
SOLID
  5
1FF
330
1E7
100
AcDbEntity
  8
BEM
 62
     0
100
AcDbTrace
 10
286.1680449796907
 20
532.6398943043354
 30
0.0
 11
288.5013783130241
 21
532.6398943043354
 31
0.0
 12
287.3347116463575
 22
539.6398943043354
 32
0.0
 13
287.3347116463575
 23
539.6398943043354
 33
0.0
  0
SOLID
  5
200
330
1E7
100
AcDbEntity
  8
BEM
 62
     0
100
AcDbTrace
 10
286.1680449796907
 20
222.7398943043358
 30
0.0
 11
288.5013783130241
 21
222.7398943043358
 31
0.0
 12
287.3347116463574
 22
215.7398943043357
 32
0.0
 13
287.3347116463574
 23
215.7398943043357
 33
0.0
  0
MTEXT
  5
201
330
1E7
100
AcDbEntity
  8
BEM
 62
     1
100
AcDbMText
 10
280.8347116463573
 20
377.6898943043357
 30
0.0
 40
7.0
 41
0.0
 71
     5
 72
     1
  1
\A1;%%c324
  7
GREEKS
 11
0.0000000000000001
 21
1.0
 31
0.0
 73
     1
 44
1.0
  0
POINT
  5
202
330
1E7
100
AcDbEntity
  8
DEFPOINTS
 62
     0
100
AcDbPoint
 10
263.1345276427642
 20
539.6398943043354
 30
0.0
  0
POINT
  5
203
330
1E7
100
AcDbEntity
  8
DEFPOINTS
 62
     0
100
AcDbPoint
 10
263.1345276427642
 20
215.7398943043357
 30
0.0
  0
POINT
  5
204
330
1E7
100
AcDbEntity
  8
DEFPOINTS
 62
     0
100
AcDbPoint
 10
287.3347116463574
 20
215.7398943043357
 30
0.0
  0
ENDBLK
  5
1F2
330
1E7
100
AcDbEntity
  8
0
100
AcDbBlockEnd
  0
ENDSEC
  0
SECTION
  2
ENTITIES
  0
LINE
  5
E4
330
20
100
AcDbEntity
  8
STEMPEL
100
AcDbLine
 10
410.0
 20
110.0
 30
0.0
 11
40.0
 21
110.0
 31
0.0
  0
LINE
  5
E5
330
20
100
AcDbEntity
  8
STEMPEL
100
AcDbLine
 10
146.0000000000001
 20
109.9999999999999
 30
0.0
 11
146.0
 21
9.999999999999971
 31
0.0
  0
LINE
  5
E6
330
20
100
AcDbEntity
  8
STEMPEL
100
AcDbLine
 10
230.0
 20
110.0
 30
0.0
 11
230.0
 21
9.999999999999971
 31
0.0
  0
LINE
  5
E7
330
20
100
AcDbEntity
  8
STEMPEL
100
AcDbLine
 10
332.0
 20
109.9999999999997
 30
0.0
 11
332.0
 21
40.0
 31
0.0
  0
LINE
  5
E8
330
20
100
AcDbEntity
  8
STEMPEL
100
AcDbLine
 10
145.9999999999999
 20
29.99999999999997
 30
0.0
 11
40.0
 21
29.99999999999997
 31
0.0
  0
LINE
  5
E9
330
20
100
AcDbEntity
  8
STEMPEL
100
AcDbLine
 10
410.0
 20
40.0
 30
0.0
 11
146.0000000000001
 21
39.99999999999997
 31
0.0
  0
LINE
  5
EA
330
20
100
AcDbEntity
  8
STEMPEL
100
AcDbLine
 10
410.0
 20
80.0
 30
0.0
 11
146.0000000000001
 21
79.99999999999994
 31
0.0
  0
LINE
  5
EB
330
20
100
AcDbEntity
  8
VOLL
100
AcDbLine
 10
54.00000000000011
 20
110.0
 30
0.0
 11
54.0
 21
9.999999999999971
 31
0.0
  0
LINE
  5
EC
330
20
100
AcDbEntity
  8
VOLL
100
AcDbLine
 10
104.0000000000001
 20
109.9999999999999
 30
0.0
 11
104.0
 21
9.999999999999971
 31
0.0
  0
LINE
  5
ED
330
20
100
AcDbEntity
  8
VOLL
100
AcDbLine
 10
124.0000000000001
 20
109.9999999999999
 30
0.0
 11
124.0
 21
9.999999999999971
 31
0.0
  0
LINE
  5
EE
330
20
100
AcDbEntity
  8
VOLL
100
AcDbLine
 10
164.0000000000001
 20
79.99999999999994
 30
0.0
 11
164.0000000000001
 21
39.99999999999997
 31
0.0
  0
LINE
  5
EF
330
20
100
AcDbEntity
  8
VOLL
100
AcDbLine
 10
190.0000000000001
 20
109.9999999999998
 30
0.0
 11
190.0
 21
39.99999999999997
 31
0.0
  0
LINE
  5
F0
330
20
100
AcDbEntity
  8
HILF
100
AcDbLine
 10
40.00000000000011
 20
100.0
 30
0.0
 11
146.0000000000001
 21
100.0
 31
0.0
  0
LINE
  5
F1
330
20
100
AcDbEntity
  8
HILF
100
AcDbLine
 10
40.00000000000011
 20
90.00000000000005
 30
0.0
 11
146.0000000000001
 21
90.00000000000005
 31
0.0
  0
LINE
  5
F2
330
20
100
AcDbEntity
  8
HILF
100
AcDbLine
 10
40.00000000000011
 20
79.99999999999994
 30
0.0
 11
146.0000000000001
 21
79.99999999999994
 31
0.0
  0
LINE
  5
F3
330
20
100
AcDbEntity
  8
HILF
100
AcDbLine
 10
40.00000000000011
 20
69.99999999999994
 30
0.0
 11
146.0000000000001
 21
69.99999999999994
 31
0.0
  0
LINE
  5
F4
330
20
100
AcDbEntity
  8
HILF
100
AcDbLine
 10
40.00000000000011
 20
59.99999999999997
 30
0.0
 11
146.0000000000001
 21
59.99999999999997
 31
0.0
  0
LINE
  5
F5
330
20
100
AcDbEntity
  8
HILF
100
AcDbLine
 10
40.00000000000011
 20
49.99999999999997
 30
0.0
 11
146.0000000000001
 21
49.99999999999997
 31
0.0
  0
LINE
  5
F6
330
20
100
AcDbEntity
  8
HILF
100
AcDbLine
 10
40.00000000000011
 20
39.99999999999997
 30
0.0
 11
146.0000000000001
 21
39.99999999999997
 31
0.0
  0
LINE
  5
F7
330
20
100
AcDbEntity
  8
HILF
100
AcDbLine
 10
146.0000000000001
 20
69.99999999999994
 30
0.0
 11
230.0
 21
69.99999999999994
 31
0.0
  0
LINE
  5
F8
330
20
100
AcDbEntity
  8
HILF
100
AcDbLine
 10
146.0000000000001
 20
59.99999999999997
 30
0.0
 11
230.0
 21
59.99999999999997
 31
0.0
  0
LINE
  5
F9
330
20
100
AcDbEntity
  8
HILF
100
AcDbLine
 10
146.0000000000001
 20
49.99999999999997
 30
0.0
 11
230.0
 21
49.99999999999997
 31
0.0
  0
LINE
  5
FA
330
20
100
AcDbEntity
  8
HILF
100
AcDbLine
 10
234.7736801096947
 20
84.03758247564139
 30
0.0
 11
324.8353916556312
 21
84.03758247564139
 31
0.0
  0
LINE
  5
FB
330
20
100
AcDbEntity
  8
HILF
100
AcDbLine
 10
234.7736801096947
 20
69.99999999999994
 30
0.0
 11
324.8353916556309
 21
69.99999999999994
 31
0.0
  0
LINE
  5
FC
330
20
100
AcDbEntity
  8
HILF
100
AcDbLine
 10
234.7736801096947
 20
59.99999999999997
 30
0.0
 11
324.8353916556309
 21
59.99999999999997
 31
0.0
  0
LINE
  5
FD
330
20
100
AcDbEntity
  8
HILF
100
AcDbLine
 10
234.7736801096947
 20
49.99999999999997
 30
0.0
 11
324.8353916556309
 21
49.99999999999997
 31
0.0
  0
LINE
  5
FE
330
20
100
AcDbEntity
  8
VOLL
100
AcDbLine
 10
332.0
 20
60.0
 30
0.0
 11
410.0
 21
60.0
 31
0.0
  0
LINE
  5
FF
330
20
100
AcDbEntity
  8
HILF
100
AcDbLine
 10
336.7238616296993
 20
83.77983636955827
 30
0.0
 11
404.8588839326728
 21
83.77983636955827
 31
0.0
  0
LINE
  5
100
330
20
100
AcDbEntity
  8
HILF
100
AcDbLine
 10
233.4909699289885
 20
14.89398258028314
 30
0.0
 11
404.8588839326728
 21
14.89398258028314
 31
0.0
  0
TEXT
  5
101
330
20
100
AcDbEntity
  8
TEXT
100
AcDbText
 10
68.41519246601901
 20
18.67381894984132
 30
0.0
 40
4.0
  1
Änderung
 41
0.8
  7
GREEKS
 72
     1
 11
79.15804960887616
 21
18.67381894984132
 31
0.0
100
AcDbText
  0
TEXT
  5
102
330
20
100
AcDbEntity
  8
TEXT
100
AcDbText
 10
153.5163572150377
 20
102.4620895087088
 30
0.0
 40
5.0
  1
Maßstab
 41
0.8
  7
GREEKS
100
AcDbText
  0
TEXT
  5
103
330
20
100
AcDbEntity
  8
TEXT
100
AcDbText
 10
194.2858954734051
 20
102.4184168434819
 30
0.0
 40
5.0
  1
Zul. Abw.
 41
0.8
  7
GREEKS
100
AcDbText
  0
TEXT
  5
104
330
20
100
AcDbEntity
  8
TEXT
100
AcDbText
 10
234.877940380901
 20
102.5489328011779
 30
0.0
 40
5.0
  1
Benennung
 41
0.8
  7
GREEKS
100
AcDbText
  0
TEXT
  5
105
330
20
100
AcDbEntity
  8
TEXT
100
AcDbText
 10
336.178754957634
 20
102.3132034537136
 30
0.0
 40
5.0
  1
Zeichnungs Nr.
 41
0.8
  7
GREEKS
100
AcDbText
  0
TEXT
  5
106
330
20
100
AcDbEntity
  8
TEXT
100
AcDbText
 10
234.742238391136
 20
30.84560570193057
 30
0.0
 40
5.0
  1
Bauvorhaben
 41
0.8
  7
GREEKS
100
AcDbText
  0
TEXT
  5
107
330
20
100
AcDbEntity
  8
TEXT
100
AcDbText
 10
336.7238616296993
 20
73.1811823709997
 30
0.0
 40
5.0
  1
Ersatz für:
 41
0.8
  7
GREEKS
100
AcDbText
  0
TEXT
  5
108
330
20
100
AcDbEntity
  8
TEXT
100
AcDbText
 10
48.26641107045759
 20
13.65465846027192
 30
0.0
 40
4.0
  1
Index
 50
90.0
 41
0.8
  7
GREEKS
100
AcDbText
  0
TEXT
  5
109
330
20
100
AcDbEntity
  8
TEXT
100
AcDbText
 10
110.0120791005698
 20
18.6715626933981
 30
0.0
 40
4.0
  1
Tag
 41
0.8
  7
GREEKS
 72
     1
 11
113.7454124339031
 21
18.6715626933981
 31
0.0
100
AcDbText
  0
TEXT
  5
10A
330
20
100
AcDbEntity
  8
TEXT
100
AcDbText
 10
128.798972104036
 20
18.59324216966408
 30
0.0
 40
4.0
  1
Name
 41
0.8
  7
GREEKS
 72
     1
 11
135.1227816278455
 21
18.59324216966408
 31
0.0
100
AcDbText
  0
TEXT
  5
10B
330
20
100
AcDbEntity
  8
TEXT
100
AcDbText
 10
172.331167315365
 20
73.31880501229926
 30
0.0
 40
4.0
  1
Tag
 41
0.8
  7
GREEKS
100
AcDbText
  0
TEXT
  5
10C
330
20
100
AcDbEntity
  8
TEXT
100
AcDbText
 10
202.4626584226295
 20
73.30961091915225
 30
0.0
 40
4.0
  1
Name
 41
0.8
  7
GREEKS
100
AcDbText
  0
TEXT
  5
10D
330
20
100
AcDbEntity
  8
TEXT
100
AcDbText
 10
147.5836127167615
 20
63.62990369617964
 30
0.0
 40
4.0
  1
Gez.
 41
0.8
  7
GREEKS
100
AcDbText
  0
TEXT
  5
10E
330
20
100
AcDbEntity
  8
TEXT
100
AcDbText
 10
147.5515086571672
 20
53.68926291428377
 30
0.0
 40
4.0
  1
Gepr.
 41
0.8
  7
GREEKS
100
AcDbText
  0
TEXT
  5
10F
330
20
100
AcDbEntity
  8
TEXT
100
AcDbText
 10
147.6006777387303
 20
43.52946389649807
 30
0.0
 40
4.0
  1
Norm.
 41
0.8
  7
GREEKS
100
AcDbText
  0
LINE
  5
110
330
20
100
AcDbEntity
  8
STEMPEL
100
AcDbLine
 10
49.99999999999989
 20
10.0
 30
0.0
 11
410.0
 21
10.0
 31
0.0
  0
TEXT
  5
111
330
20
100
AcDbEntity
  8
TEXT
100
AcDbText
 10
337.2400861497006
 20
52.07416177878602
 30
0.0
 40
5.0
  1
ersetzt durch:
 41
0.8
  7
GREEKS
100
AcDbText
  0
LINE
  5
112
330
20
100
AcDbEntity
  8
STEMPEL
100
AcDbLine
 10
410.0
 20
10.0
 30
0.0
 11
39.99999999999989
 21
10.0
 31
0.0
  0
LINE
  5
113
330
20
100
AcDbEntity
  8
STEMPEL
100
AcDbLine
 10
410.0
 20
10.0
 30
0.0
 11
410.0
 21
584.0
 31
0.0
  0
LINE
  5
114
330
20
100
AcDbEntity
  8
STEMPEL
100
AcDbLine
 10
40.0
 20
10.0
 30
0.0
 11
39.99999999999989
 21
584.0
 31
0.0
  0
LINE
  5
115
330
20
100
AcDbEntity
  8
STEMPEL
100
AcDbLine
 10
410.0
 20
584.0
 30
0.0
 11
39.99999999999989
 21
584.0
 31
0.0
  0
LINE
  5
116
330
20
100
AcDbEntity
  8
HILF
100
AcDbLine
 10
0.0
 20
0.0
 30
0.0
 11
-0.0000000000001137
 21
594.0
 31
0.0
  0
LINE
  5
117
330
20
100
AcDbEntity
  8
HILF
100
AcDbLine
 10
420.0
 20
594.0000000000002
 30
0.0
 11
0.0
 21
594.0
 31
0.0
  0
LINE
  5
118
330
20
100
AcDbEntity
  8
HILF
100
AcDbLine
 10
420.0
 20
0.0
 30
0.0
 11
0.0
 21
0.0
 31
0.0
  0
LINE
  5
119
330
20
100
AcDbEntity
  8
HILF
100
AcDbLine
 10
31.08767135713856
 20
297.0000000000001
 30
0.0
 11
0.0000000000001137
 21
297.0000000000001
 31
0.0
  0
TEXT
  5
11A
330
20
100
AcDbEntity
  8
TEXT
100
AcDbText
 10
148.622109822104
 20
73.14025471151666
 30
0.0
 40
4.0
  1
2011
 41
0.8
  7
GREEKS
100
AcDbText
  0
LINE
  5
11B
330
20
100
AcDbEntity
  8
HILF
100
AcDbLine
 10
420.0
 20
-0.0000000000001137
 30
0.0
 11
420.0
 21
594.0
 31
0.0
  0
TEXT
  5
11C
330
20
100
AcDbEntity
  8
VOLL
100
AcDbText
 10
78.07675471698113
 20
31.02594776470585
 30
0.0
 40
1.8
  1

  7
GREEKS
100
AcDbText
  0
TEXT
  5
11D
330
20
100
AcDbEntity
  8
TEXT
100
AcDbText
 10
41.85509950977677
 20
111.6719999999999
 30
0.0
 40
5.0
  1
Erstellt mit AUTOCAD 2004
 41
0.8
  7
GREEKS
100
AcDbText
  0
TEXT
  5
11E
330
20
100
AcDbEntity
  8
TEXT
100
AcDbText
 10
204.4216048581258
 20
63.0896391972351
 30
0.0
 40
4.0
  1
Koeh
 41
0.8
  7
GREEKS
 72
     1
 11
209.6787477152686
 21
63.0896391972351
 31
0.0
100
AcDbText
  0
TEXT
  5
11F
330
20
100
AcDbEntity
  8
TEXT
 62
     1
100
AcDbText
 10
343.247717454267
 20
88.14901428913959
 30
0.0
 40
7.0
  1
08003300W
 41
0.8
  7
GREEKS
 72
     1
 11
367.247717454267
 21
88.14901428913959
 31
0.0
100
AcDbText
  0
TEXT
  5
120
330
20
100
AcDbEntity
  8
TEXT
 62
     1
100
AcDbText
 10
160.5006306481887
 20
88.14901428913959
 30
0.0
 40
7.0
  1
1:2
 41
0.8
  7
GREEKS
100
AcDbText
  0
TEXT
  5
121
330
20
100
AcDbEntity
  8
TEXT
100
AcDbText
 10
170.3989971082361
 20
63.10765040825732
 30
0.0
 40
4.0
  1
06.04.
 41
0.8
  7
GREEKS
 72
     1
 11
177.4085209177599
 21
63.10765040825732
 31
0.0
100
AcDbText
  0
TEXT
  5
122
330
20
100
AcDbEntity
  8
TEXT
 62
     1
100
AcDbText
 10
236.8935731057402
 20
87.41748789253779
 30
0.0
 40
7.0
  1
Enddeckel DN300
 41
0.8
  7
GREEKS
100
AcDbText
  0
TEXT
  5
123
330
20
100
AcDbEntity
  8
TEXT
100
AcDbText
 10
235.1296391125316
 20
51.64011943042158
 30
0.0
 40
5.0
  1
EDV-Art.Nr. 08003.300X
 41
0.8
  7
GREEKS
100
AcDbText
  0
TEXT
  5
124
330
20
100
AcDbEntity
  8
TEXT
100
AcDbText
 10
234.9837501577827
 20
42.62974153022634
 30
0.0
 40
4.0
  1
08003300W.DWG
 41
0.8
  7
GREEKS
100
AcDbText
  0
INSERT
  5
125
330
20
100
AcDbEntity
  8
STEMPEL
100
AcDbBlockReference
  2
LOGO
 10
150.9955485457794
 20
45.02105276448321
 30
0.0
 41
2.0
 42
2.0
 43
2.0
  0
LINE
  5
127
330
20
100
AcDbEntity
  8
MITTEL
100
AcDbLine
 10
169.1345276427641
 20
377.6898943043355
 30
0.0
 11
268.1345276427641
 21
377.6898943043355
 31
0.0
  0
LINE
  5
128
330
20
100
AcDbEntity
  8
STEMPEL
100
AcDbLine
 10
263.1345276427642
 20
539.6398943043354
 30
0.0
 11
263.1345276427642
 21
215.7398943043357
 31
0.0
  0
DIMENSION
  5
129
330
20
100
AcDbEntity
  8
BEM
100
AcDbDimension
  2
*D9
 10
287.3347116463574
 20
215.7398943043357
 30
0.0
 11
280.8347116463573
 21
377.6898943043357
 31
0.0
 70
    32
  1
%%c324
 71
     5
 42
323.8999999999998
  3
Standard
100
AcDbAlignedDimension
 13
263.1345276427642
 23
539.6398943043354
 33
0.0
 14
263.1345276427642
 24
215.7398943043357
 34
0.0
 50
90.0
100
AcDbRotatedDimension
1001
ACAD
1000
DSTYLE
1002
{
1070
    40
1040
2.0
1070
    41
1040
3.5
1070
    42
1040
1.0
1070
    43
1040
7.0
1070
    44
1040
1.0
1070
    47
1040
2.0
1070
    48
1040
2.0
1070
    73
1070
     0
1070
    74
1070
     0
1070
    77
1070
     1
1070
    78
1070
     8
1070
    79
1070
     2
1070
   140
1040
3.5
1070
   141
1040
1.5
1070
   146
1040
0.5
1070
   147
1040
1.5
1070
   172
1070
     1
1070
   178
1070
     1
1070
   179
1070
     2
1070
   271
1070
     2
1070
   272
1070
     2
1070
   284
1070
     8
1070
   285
1070
     8
1070
   286
1070
     8
1070
   340
1005
2E
1002
}
  0
TEXT
  5
12A
330
20
100
AcDbEntity
  8
TEXT
 62
     1
100
AcDbText
 10
190.1574522786473
 20
147.5449865362672
 30
0.0
 40
7.0
  1
Werkstoff: EN 10219 S235
 41
0.8
  7
GREEKS
100
AcDbText
  0
TEXT
  5
12B
330
20
100
AcDbEntity
  8
TEXT
 62
     1
100
AcDbText
 10
238.1574522786473
 20
135.5449865362672
 30
0.0
 40
7.0
  1
feuerverzinkt und innen beschichtet
 41
0.8
  7
GREEKS
100
AcDbText
  0
LINE
  5
12D
330
20
100
AcDbEntity
  8
STEMPEL
100
AcDbLine
 10
178.1345276427641
 20
215.7398943043357
 30
0.0
 11
263.1345276427642
 21
215.7398943043357
 31
0.0
  0
LINE
  5
12F
330
20
100
AcDbEntity
  8
STEMPEL
100
AcDbLine
 10
178.1345276427641
 20
539.6398943043354
 30
0.0
 11
263.1345276427642
 21
539.6398943043354
 31
0.0
  0
TEXT
  5
131
330
20
100
AcDbEntity
  8
TEXT
 62
     1
100
AcDbText
 10
69.64115036283408
 20
158.6205116083504
 30
0.0
 40
7.0
  1
Rohrende leicht entgratet
 41
0.8
  7
GREEKS
100
AcDbText
  0
LINE
  5
132
330
20
100
AcDbEntity
  8
STEMPEL
100
AcDbLine
 10
178.1345276427641
 20
547.6898943043354
 30
0.0
 11
178.1345276427641
 21
207.6898943043355
 31
0.0
  0
LINE
  5
133
330
20
100
AcDbEntity
  8
STEMPEL
100
AcDbLine
 10
174.1345276427642
 20
547.6898943043354
 30
0.0
 11
174.1345276427642
 21
207.6898943043355
 31
0.0
  0
LINE
  5
134
330
20
100
AcDbEntity
  8
STEMPEL
100
AcDbLine
 10
174.1345276427642
 20
547.6898943043354
 30
0.0
 11
178.1345276427641
 21
547.6898943043354
 31
0.0
  0
LINE
  5
135
330
20
100
AcDbEntity
  8
STEMPEL
100
AcDbLine
 10
174.1345276427642
 20
207.6898943043355
 30
0.0
 11
178.1345276427641
 21
207.6898943043355
 31
0.0
  0
DIMENSION
  5
136
330
20
100
AcDbEntity
  8
BEM
100
AcDbDimension
  2
*D6
 10
178.1345276427641
 20
188.8360326498068
 30
0.0
 11
220.6345276427642
 21
195.3360326498068
 31
0.0
 70
    32
 71
     5
 42
85.0
  3
Standard
100
AcDbAlignedDimension
 13
263.1345276427642
 23
215.7398943043357
 33
0.0
 14
178.1345276427641
 24
207.6898943043355
 34
0.0
100
AcDbRotatedDimension
1001
ACAD
1000
DSTYLE
1002
{
1070
    40
1040
2.0
1070
    41
1040
3.5
1070
    42
1040
1.0
1070
    43
1040
7.0
1070
    44
1040
1.0
1070
    47
1040
2.0
1070
    48
1040
2.0
1070
    73
1070
     0
1070
    74
1070
     0
1070
    77
1070
     1
1070
    78
1070
     8
1070
    79
1070
     2
1070
   140
1040
3.5
1070
   141
1040
1.5
1070
   146
1040
0.5
1070
   147
1040
1.5
1070
   172
1070
     1
1070
   178
1070
     1
1070
   179
1070
     2
1070
   271
1070
     2
1070
   272
1070
     2
1070
   284
1070
     8
1070
   285
1070
     8
1070
   286
1070
     8
1070
   340
1005
2E
1002
}
  0
DIMENSION
  5
137
330
20
100
AcDbEntity
  8
BEM
100
AcDbDimension
  2
*D7
 10
174.1345276427642
 20
188.8360326498068
 30
0.0
 11
155.1345276427641
 21
195.3360326498068
 31
0.0
 70
    32
 71
     5
 42
4.0
  3
Standard
100
AcDbAlignedDimension
 13
178.1345276427641
 23
207.6898943043355
 33
0.0
 14
174.1345276427642
 24
207.6898943043355
 34
0.0
100
AcDbRotatedDimension
1001
ACAD
1000
DSTYLE
1002
{
1070
    40
1040
2.0
1070
    41
1040
3.5
1070
    42
1040
1.0
1070
    43
1040
7.0
1070
    44
1040
1.0
1070
    47
1040
2.0
1070
    48
1040
2.0
1070
    73
1070
     0
1070
    74
1070
     0
1070
    77
1070
     1
1070
    78
1070
     8
1070
    79
1070
     2
1070
   140
1040
3.5
1070
   141
1040
1.5
1070
   146
1040
0.5
1070
   147
1040
1.5
1070
   172
1070
     1
1070
   178
1070
     1
1070
   179
1070
     2
1070
   271
1070
     2
1070
   272
1070
     2
1070
   284
1070
     8
1070
   285
1070
     8
1070
   286
1070
     8
1070
   340
1005
2E
1002
}
  0
DIMENSION
  5
138
330
20
100
AcDbEntity
  8
BEM
100
AcDbDimension
  2
*D8
 10
152.5192137933005
 20
207.6898943043355
 30
0.0
 11
146.0192137933005
 21
377.6898943043355
 31
0.0
 70
    32
  1
%%c<>
 71
     5
 42
339.9999999999999
  3
Standard
100
AcDbAlignedDimension
 13
174.1345276427642
 23
547.6898943043354
 33
0.0
 14
174.1345276427642
 24
207.6898943043355
 34
0.0
 50
90.0
100
AcDbRotatedDimension
1001
ACAD
1000
DSTYLE
1002
{
1070
    40
1040
2.0
1070
    41
1040
3.5
1070
    42
1040
1.0
1070
    43
1040
7.0
1070
    44
1040
1.0
1070
    47
1040
2.0
1070
    48
1040
2.0
1070
    73
1070
     0
1070
    74
1070
     0
1070
    77
1070
     1
1070
    78
1070
     8
1070
    79
1070
     2
1070
   140
1040
3.5
1070
   141
1040
1.5
1070
   146
1040
0.5
1070
   147
1040
1.5
1070
   172
1070
     1
1070
   178
1070
     1
1070
   179
1070
     2
1070
   271
1070
     2
1070
   272
1070
     2
1070
   284
1070
     8
1070
   285
1070
     8
1070
   286
1070
     8
1070
   340
1005
2E
1002
}
  0
ARC
  5
148
330
20
100
AcDbEntity
  8
SCHRAFF
100
AcDbCircle
 10
180.1345276427641
 20
244.9291737192311
 30
0.0
 40
2.364194660705138
100
AcDbArc
 50
32.22570321825175
 51
147.7742967817483
  0
ARC
  5
149
330
20
100
AcDbEntity
  8
SCHRAFF
100
AcDbCircle
 10
180.1345276427641
 20
254.9291737192311
 30
0.0
 40
2.364194660705138
100
AcDbArc
 50
32.22570321825175
 51
147.7742967817483
  0
ARC
  5
14A
330
20
100
AcDbEntity
  8
SCHRAFF
100
AcDbCircle
 10
180.1345276427641
 20
264.929173719231
 30
0.0
 40
2.364194660705138
100
AcDbArc
 50
32.22570321825175
 51
147.7742967817483
  0
ARC
  5
14B
330
20
100
AcDbEntity
  8
SCHRAFF
100
AcDbCircle
 10
180.1345276427641
 20
274.9291737192311
 30
0.0
 40
2.364194660705138
100
AcDbArc
 50
32.22570321825175
 51
147.7742967817483
  0
ARC
  5
14C
330
20
100
AcDbEntity
  8
SCHRAFF
100
AcDbCircle
 10
180.1345276427641
 20
284.9291737192311
 30
0.0
 40
2.364194660705138
100
AcDbArc
 50
32.22570321825175
 51
147.7742967817483
  0
ARC
  5
14D
330
20
100
AcDbEntity
  8
SCHRAFF
100
AcDbCircle
 10
180.1345276427641
 20
294.9291737192311
 30
0.0
 40
2.364194660705138
100
AcDbArc
 50
32.22570321825175
 51
147.7742967817483
  0
ARC
  5
14E
330
20
100
AcDbEntity
  8
SCHRAFF
100
AcDbCircle
 10
180.1345276427641
 20
324.9291737192312
 30
0.0
 40
2.364194660705138
100
AcDbArc
 50
32.22570321825175
 51
147.7742967817483
  0
ARC
  5
14F
330
20
100
AcDbEntity
  8
SCHRAFF
100
AcDbCircle
 10
180.1345276427641
 20
314.9291737192312
 30
0.0
 40
2.364194660705138
100
AcDbArc
 50
32.22570321825175
 51
147.7742967817483
  0
ARC
  5
150
330
20
100
AcDbEntity
  8
SCHRAFF
100
AcDbCircle
 10
180.1345276427641
 20
304.9291737192311
 30
0.0
 40
2.364194660705138
100
AcDbArc
 50
32.22570321825175
 51
147.7742967817483
  0
ARC
  5
151
330
20
100
AcDbEntity
  8
SCHRAFF
100
AcDbCircle
 10
180.1345276427641
 20
334.9291737192312
 30
0.0
 40
2.364194660705138
100
AcDbArc
 50
32.22570321825175
 51
147.7742967817483
  0
ARC
  5
152
330
20
100
AcDbEntity
  8
SCHRAFF
100
AcDbCircle
 10
180.1345276427641
 20
364.9291737192312
 30
0.0
 40
2.364194660705138
100
AcDbArc
 50
32.22570321825175
 51
147.7742967817483
  0
ARC
  5
153
330
20
100
AcDbEntity
  8
SCHRAFF
100
AcDbCircle
 10
180.1345276427641
 20
354.9291737192312
 30
0.0
 40
2.364194660705138
100
AcDbArc
 50
32.22570321825175
 51
147.7742967817483
  0
ARC
  5
154
330
20
100
AcDbEntity
  8
SCHRAFF
100
AcDbCircle
 10
180.1345276427641
 20
344.9291737192312
 30
0.0
 40
2.364194660705138
100
AcDbArc
 50
32.22570321825175
 51
147.7742967817483
  0
ARC
  5
155
330
20
100
AcDbEntity
  8
SCHRAFF
100
AcDbCircle
 10
180.1345276427641
 20
374.9291737192312
 30
0.0
 40
2.364194660705138
100
AcDbArc
 50
32.22570321825175
 51
147.7742967817483
  0
ARC
  5
156
330
20
100
AcDbEntity
  8
SCHRAFF
100
AcDbCircle
 10
180.1345276427641
 20
404.9291737192312
 30
0.0
 40
2.364194660705138
100
AcDbArc
 50
32.22570321825175
 51
147.7742967817483
  0
ARC
  5
157
330
20
100
AcDbEntity
  8
SCHRAFF
100
AcDbCircle
 10
180.1345276427641
 20
394.9291737192313
 30
0.0
 40
2.364194660705138
100
AcDbArc
 50
32.22570321825175
 51
147.7742967817483
  0
ARC
  5
158
330
20
100
AcDbEntity
  8
SCHRAFF
100
AcDbCircle
 10
180.1345276427641
 20
384.9291737192312
 30
0.0
 40
2.364194660705138
100
AcDbArc
 50
32.22570321825175
 51
147.7742967817483
  0
ARC
  5
159
330
20
100
AcDbEntity
  8
SCHRAFF
100
AcDbCircle
 10
180.1345276427641
 20
414.9291737192313
 30
0.0
 40
2.364194660705138
100
AcDbArc
 50
32.22570321825175
 51
147.7742967817483
  0
ARC
  5
15A
330
20
100
AcDbEntity
  8
SCHRAFF
100
AcDbCircle
 10
180.1345276427641
 20
444.9291737192313
 30
0.0
 40
2.364194660705138
100
AcDbArc
 50
32.22570321825175
 51
147.7742967817483
  0
ARC
  5
15B
330
20
100
AcDbEntity
  8
SCHRAFF
100
AcDbCircle
 10
180.1345276427641
 20
434.9291737192313
 30
0.0
 40
2.364194660705138
100
AcDbArc
 50
32.22570321825175
 51
147.7742967817483
  0
ARC
  5
15C
330
20
100
AcDbEntity
  8
SCHRAFF
100
AcDbCircle
 10
180.1345276427641
 20
424.9291737192312
 30
0.0
 40
2.364194660705138
100
AcDbArc
 50
32.22570321825175
 51
147.7742967817483
  0
ARC
  5
15D
330
20
100
AcDbEntity
  8
SCHRAFF
100
AcDbCircle
 10
180.1345276427641
 20
454.9291737192312
 30
0.0
 40
2.364194660705138
100
AcDbArc
 50
32.22570321825175
 51
147.7742967817483
  0
ARC
  5
15E
330
20
100
AcDbEntity
  8
SCHRAFF
100
AcDbCircle
 10
180.1345276427641
 20
484.9291737192314
 30
0.0
 40
2.364194660705138
100
AcDbArc
 50
32.22570321825175
 51
147.7742967817483
  0
ARC
  5
15F
330
20
100
AcDbEntity
  8
SCHRAFF
100
AcDbCircle
 10
180.1345276427641
 20
474.9291737192314
 30
0.0
 40
2.364194660705138
100
AcDbArc
 50
32.22570321825175
 51
147.7742967817483
  0
ARC
  5
160
330
20
100
AcDbEntity
  8
SCHRAFF
100
AcDbCircle
 10
180.1345276427641
 20
464.9291737192313
 30
0.0
 40
2.364194660705138
100
AcDbArc
 50
32.22570321825175
 51
147.7742967817483
  0
ARC
  5
161
330
20
100
AcDbEntity
  8
SCHRAFF
100
AcDbCircle
 10
180.1345276427641
 20
494.9291737192313
 30
0.0
 40
2.364194660705138
100
AcDbArc
 50
32.22570321825175
 51
147.7742967817483
  0
ARC
  5
162
330
20
100
AcDbEntity
  8
SCHRAFF
100
AcDbCircle
 10
180.1345276427641
 20
504.9291737192314
 30
0.0
 40
2.364194660705138
100
AcDbArc
 50
32.22570321825175
 51
147.7742967817483
  0
ARC
  5
163
330
20
100
AcDbEntity
  8
SCHRAFF
100
AcDbCircle
 10
180.1345276427641
 20
514.9291737192313
 30
0.0
 40
2.364194660705138
100
AcDbArc
 50
32.22570321825175
 51
147.7742967817483
  0
ARC
  5
164
330
20
100
AcDbEntity
  8
SCHRAFF
100
AcDbCircle
 10
180.1345276427641
 20
534.9291737192313
 30
0.0
 40
2.364194660705138
100
AcDbArc
 50
32.22570321825175
 51
147.7742967817483
  0
ARC
  5
165
330
20
100
AcDbEntity
  8
SCHRAFF
100
AcDbCircle
 10
180.1345276427641
 20
524.9291737192313
 30
0.0
 40
2.364194660705138
100
AcDbArc
 50
32.22570321825175
 51
147.7742967817483
  0
ARC
  5
166
330
20
100
AcDbEntity
  8
SCHRAFF
100
AcDbCircle
 10
177.1805533626603
 20
537.2908296746912
 30
0.0
 40
5.482696946045518
100
AcDbArc
 50
25.36926952181578
 51
79.97968951196819
  0
INSERT
  5
167
330
20
100
AcDbEntity
  8
SCHRAFF
100
AcDbBlockReference
  2
*X1
 10
0.0
 20
9.622031598473597
 30
0.0
1001
ACAD
1000
HATCH
1002
{
1070
    16
1000
_U,I
1040
0.1
1040
0.0
1070
     0
1002
}
  0
ARC
  5
169
330
20
100
AcDbEntity
  8
SCHRAFF
100
AcDbCircle
 10
180.1345276427641
 20
234.9291737192311
 30
0.0
 40
2.364194660705138
100
AcDbArc
 50
32.22570321825175
 51
147.7742967817483
  0
ARC
  5
16A
330
20
100
AcDbEntity
  8
SCHRAFF
100
AcDbCircle
 10
180.1345276427641
 20
224.9291737192311
 30
0.0
 40
2.364194660705138
100
AcDbArc
 50
32.22570321825175
 51
147.7742967817483
  0
ARC
  5
16B
330
20
100
AcDbEntity
  8
SCHRAFF
100
AcDbCircle
 10
180.1345276427641
 20
214.9291737192311
 30
0.0
 40
2.364194660705138
100
AcDbArc
 50
32.22570321825175
 51
147.7742967817483
  0
ARC
  5
16C
330
20
100
AcDbEntity
  8
SCHRAFF
100
AcDbCircle
 10
177.8512511596226
 20
217.2093552658324
 30
0.0
 40
4.528330039694069
100
AcDbArc
 50
273.5865653205857
 51
341.0644756456309
  0
INSERT
  5
16D
330
20
100
AcDbEntity
  8
SCHRAFF
100
AcDbBlockReference
  2
*X3
 10
0.0
 20
0.0
 30
0.0
1001
ACAD
1000
HATCH
1002
{
1070
    16
1000
_U,I
1040
0.1
1040
0.0
1070
     0
1002
}
  0
TEXT
  5
173
330
20
100
AcDbEntity
  8
TEXT
 62
     1
100
AcDbText
 10
206.609183802498
 20
383.1345503519036
 30
0.0
 40
7.0
  1
DN300
 41
0.8
  7
GREEKS
100
AcDbText
  0
TEXT
  5
176
330
20
100
AcDbEntity
  8
TEXT
100
AcDbText
 10
192.6882715247924
 20
89.34343038443012
 30
0.0
 40
4.0
  1
DIN EN1123-2
 41
0.8
  7
GREEKS
 72
     1
 11
209.6787477152686
 21
89.34343038443012
 31
0.0
100
AcDbText
  0
TEXT
  5
177
330
20
100
AcDbEntity
  8
BEM
100
AcDbText
 10
416.5811541437437
 20
12.14804815338303
 30
0.0
 40
4.0
  1
Diese Zeichnung ist urheberrechtlich geschützt und bleibt unser Eigentum. Sie darf weder ganz noch teilweise vervielfältigt und nicht an Dritte weitergegeben werden.
 50
90.0
 41
0.8
  7
GREEKS
100
AcDbText
  0
ENDSEC
  0
SECTION
  2
OBJECTS
  0
DICTIONARY
  5
C
330
0
100
AcDbDictionary
281
     1
  3
ACAD_COLOR
350
1B
  3
ACAD_GROUP
350
D
  3
ACAD_LAYOUT
350
19
  3
ACAD_MATERIAL
350
1A
  3
ACAD_MLINESTYLE
350
16
  3
ACAD_PLOTSETTINGS
350
18
  3
ACAD_PLOTSTYLENAME
350
E
  3
AcDbVariableDictionary
350
18C
  0
DICTIONARY
  5
1B
102
{ACAD_REACTORS
330
C
102
}
330
C
100
AcDbDictionary
281
     1
  0
DICTIONARY
  5
D
102
{ACAD_REACTORS
330
C
102
}
330
C
100
AcDbDictionary
281
     1
  0
DICTIONARY
  5
19
102
{ACAD_REACTORS
330
C
102
}
330
C
100
AcDbDictionary
281
     1
  3
Layout1
350
1F
  3
Model
350
23
  0
DICTIONARY
  5
1A
102
{ACAD_REACTORS
330
C
102
}
330
C
100
AcDbDictionary
281
     1
  0
DICTIONARY
  5
16
102
{ACAD_REACTORS
330
C
102
}
330
C
100
AcDbDictionary
281
     1
  3
Standard
350
17
  0
DICTIONARY
  5
18
102
{ACAD_REACTORS
330
C
102
}
330
C
100
AcDbDictionary
281
     1
  0
ACDBDICTIONARYWDFLT
  5
E
102
{ACAD_REACTORS
330
C
102
}
330
C
100
AcDbDictionary
281
     1
  3
Normal
350
F
100
AcDbDictionaryWithDefault
340
F
  0
DICTIONARY
  5
18C
102
{ACAD_REACTORS
330
C
102
}
330
C
100
AcDbDictionary
281
     1
  3
DIMASSOC
350
18E
  3
HIDETEXT
350
18D
  3
PROJECTNAME
350
18F
  0
LAYOUT
  5
1F
102
{ACAD_REACTORS
330
19
102
}
330
19
100
AcDbPlotSettings
  1

  2
RICOH Aficio 2027 PCL 6
  4

  6

 40
0.0
 41
0.0
 42
0.0
 43
0.0
 44
0.0
 45
0.0
 46
0.0
 47
0.0
 48
0.0
 49
0.0
140
0.0
141
0.0
142
1.0
143
1.0
 70
   688
 72
     0
 73
     0
 74
     5
  7
monochrome1.ctb
 75
    16
147
1.0
 76
     0
 77
     2
 78
   300
148
0.0
149
0.0
100
AcDbLayout
  1
Layout1
 70
     0
 71
     1
 10
0.0
 20
0.0
 11
12.0
 21
9.0
 12
0.0
 22
0.0
 32
0.0
 14
1.000000000000000E+20
 24
1.000000000000000E+20
 34
1.000000000000000E+20
 15
-1.000000000000000E+20
 25
-1.000000000000000E+20
 35
-1.000000000000000E+20
146
0.0
 13
0.0
 23
0.0
 33
0.0
 16
1.0
 26
0.0
 36
0.0
 17
0.0
 27
1.0
 37
0.0
 76
     0
330
1C
  0
LAYOUT
  5
23
102
{ACAD_REACTORS
330
19
102
}
330
19
100
AcDbPlotSettings
  1

  2
RICOH Aficio 2027 PCL 6
  4
A4
  6

 40
5.027083396911621
 41
5.027085304260253
 42
5.027084350585937
 43
5.027069091796875
 44
209.9733276367187
 45
296.9259948730469
 46
0.0
 47
0.0
 48
0.0
 49
0.0
140
0.0
141
0.0
142
1.0
143
1.0
 70
 11952
 72
     0
 73
     1
 74
     0
  7
monochrome1.ctb
 75
     0
147
1.0
 76
     0
 77
     2
 78
   300
148
2299.89518964334
149
90.09517935315257
100
AcDbLayout
  1
Model
 70
     1
 71
     0
 10
0.0
 20
0.0
 11
12.0
 21
9.0
 12
0.0
 22
0.0
 32
0.0
 14
0.0
 24
0.0
 34
0.0
 15
0.0
 25
0.0
 35
0.0
146
0.0
 13
0.0
 23
0.0
 33
0.0
 16
1.0
 26
0.0
 36
0.0
 17
0.0
 27
1.0
 37
0.0
 76
     0
330
20
  0
MLINESTYLE
  5
17
102
{ACAD_REACTORS
330
16
102
}
330
16
100
AcDbMlineStyle
  2
STANDARD
 70
     0
  3

 62
   256
 51
90.0
 52
90.0
 71
     2
 49
0.5
 62
   256
  6
BYLAYER
 49
-0.5
 62
   256
  6
BYLAYER
  0
ACDBPLACEHOLDER
  5
F
102
{ACAD_REACTORS
330
E
102
}
330
E
  0
DICTIONARYVAR
  5
18E
102
{ACAD_REACTORS
330
18C
102
}
330
18C
100
DictionaryVariables
280
     0
  1
2
  0
DICTIONARYVAR
  5
18D
102
{ACAD_REACTORS
330
18C
102
}
330
18C
100
DictionaryVariables
280
     0
  1
1
  0
DICTIONARYVAR
  5
18F
102
{ACAD_REACTORS
330
18C
102
}
330
18C
100
DictionaryVariables
280
     0
  1

  0
ENDSEC
  0
EOF
